  0
SECTION
  2
HEADER
  9
$ACADVER
  1
AC1018
  9
$ACADMAINTVER
 70
     0
  9
$DWGCODEPAGE
  3
ANSI_1252
  9
$INSBASE
 10
0.0
 20
0.0
 30
0.0
  9
$EXTMIN
 10
-1207.500000929013
 20
-1185.475739765968
 30
0.0
  9
$EXTMAX
 10
-787.500000929014
 20
-888.4757397659678
 30
0.0
  9
$LIMMIN
 10
0.0
 20
0.0
  9
$LIMMAX
 10
12.0
 20
9.0
  9
$ORTHOMODE
 70
     0
  9
$REGENMODE
 70
     1
  9
$FILLMODE
 70
     1
  9
$QTEXTMODE
 70
     0
  9
$MIRRTEXT
 70
     1
  9
$LTSCALE
 40
1.0
  9
$ATTMODE
 70
     1
  9
$TEXTSIZE
 40
0.2
  9
$TRACEWID
 40
0.05
  9
$TEXTSTYLE
  7
Standard
  9
$CLAYER
  8
0
  9
$CELTYPE
  6
ByLayer
  9
$CECOLOR
 62
   256
  9
$CELTSCALE
 40
1.0
  9
$DISPSILH
 70
     0
  9
$DIMSCALE
 40
1.0
  9
$DIMASZ
 40
0.18
  9
$DIMEXO
 40
0.0625
  9
$DIMDLI
 40
0.38
  9
$DIMRND
 40
0.0
  9
$DIMDLE
 40
0.0
  9
$DIMEXE
 40
0.18
  9
$DIMTP
 40
0.0
  9
$DIMTM
 40
0.0
  9
$DIMTXT
 40
0.18
  9
$DIMCEN
 40
0.09
  9
$DIMTSZ
 40
0.0
  9
$DIMTOL
 70
     0
  9
$DIMLIM
 70
     0
  9
$DIMTIH
 70
     1
  9
$DIMTOH
 70
     1
  9
$DIMSE1
 70
     0
  9
$DIMSE2
 70
     0
  9
$DIMTAD
 70
     0
  9
$DIMZIN
 70
     0
  9
$DIMBLK
  1

  9
$DIMASO
 70
     1
  9
$DIMSHO
 70
     1
  9
$DIMPOST
  1

  9
$DIMAPOST
  1

  9
$DIMALT
 70
     0
  9
$DIMALTD
 70
     2
  9
$DIMALTF
 40
25.4
  9
$DIMLFAC
 40
1.0
  9
$DIMTOFL
 70
     0
  9
$DIMTVP
 40
0.0
  9
$DIMTIX
 70
     0
  9
$DIMSOXD
 70
     0
  9
$DIMSAH
 70
     0
  9
$DIMBLK1
  1

  9
$DIMBLK2
  1

  9
$DIMSTYLE
  2
Standard
  9
$DIMCLRD
 70
     0
  9
$DIMCLRE
 70
     0
  9
$DIMCLRT
 70
     0
  9
$DIMTFAC
 40
1.0
  9
$DIMGAP
 40
0.09
  9
$DIMJUST
 70
     0
  9
$DIMSD1
 70
     0
  9
$DIMSD2
 70
     0
  9
$DIMTOLJ
 70
     1
  9
$DIMTZIN
 70
     0
  9
$DIMALTZ
 70
     0
  9
$DIMALTTZ
 70
     0
  9
$DIMUPT
 70
     0
  9
$DIMDEC
 70
     4
  9
$DIMTDEC
 70
     4
  9
$DIMALTU
 70
     2
  9
$DIMALTTD
 70
     2
  9
$DIMTXSTY
  7
Standard
  9
$DIMAUNIT
 70
     0
  9
$DIMADEC
 70
     0
  9
$DIMALTRND
 40
0.0
  9
$DIMAZIN
 70
     0
  9
$DIMDSEP
 70
    46
  9
$DIMATFIT
 70
     3
  9
$DIMFRAC
 70
     0
  9
$DIMLDRBLK
  1

  9
$DIMLUNIT
 70
     2
  9
$DIMLWD
 70
    -2
  9
$DIMLWE
 70
    -2
  9
$DIMTMOVE
 70
     0
  9
$LUNITS
 70
     2
  9
$LUPREC
 70
     4
  9
$SKETCHINC
 40
0.1
  9
$FILLETRAD
 40
0.5
  9
$AUNITS
 70
     0
  9
$AUPREC
 70
     0
  9
$MENU
  1
.
  9
$ELEVATION
 40
0.0
  9
$PELEVATION
 40
0.0
  9
$THICKNESS
 40
0.0
  9
$LIMCHECK
 70
     0
  9
$CHAMFERA
 40
0.0
  9
$CHAMFERB
 40
0.0
  9
$CHAMFERC
 40
0.0
  9
$CHAMFERD
 40
0.0
  9
$SKPOLY
 70
     0
  9
$TDCREATE
 40
2458914.005524375
  9
$TDUCREATE
 40
2458913.963857708
  9
$TDUPDATE
 40
2458914.005524549
  9
$TDUUPDATE
 40
2458913.963857882
  9
$TDINDWG
 40
0.0000000116
  9
$TDUSRTIMER
 40
0.0000000116
  9
$USRTIMER
 70
     1
  9
$ANGBASE
 50
0.0
  9
$ANGDIR
 70
     0
  9
$PDMODE
 70
     0
  9
$PDSIZE
 40
0.0
  9
$PLINEWID
 40
0.0
  9
$SPLFRAME
 70
     0
  9
$SPLINETYPE
 70
     6
  9
$SPLINESEGS
 70
     8
  9
$HANDSEED
  5
332
  9
$SURFTAB1
 70
     6
  9
$SURFTAB2
 70
     6
  9
$SURFTYPE
 70
     6
  9
$SURFU
 70
     6
  9
$SURFV
 70
     6
  9
$UCSBASE
  2

  9
$UCSNAME
  2

  9
$UCSORG
 10
0.0
 20
0.0
 30
0.0
  9
$UCSXDIR
 10
1.0
 20
0.0
 30
0.0
  9
$UCSYDIR
 10
0.0
 20
1.0
 30
0.0
  9
$UCSORTHOREF
  2

  9
$UCSORTHOVIEW
 70
     0
  9
$UCSORGTOP
 10
0.0
 20
0.0
 30
0.0
  9
$UCSORGBOTTOM
 10
0.0
 20
0.0
 30
0.0
  9
$UCSORGLEFT
 10
0.0
 20
0.0
 30
0.0
  9
$UCSORGRIGHT
 10
0.0
 20
0.0
 30
0.0
  9
$UCSORGFRONT
 10
0.0
 20
0.0
 30
0.0
  9
$UCSORGBACK
 10
0.0
 20
0.0
 30
0.0
  9
$PUCSBASE
  2

  9
$PUCSNAME
  2

  9
$PUCSORG
 10
0.0
 20
0.0
 30
0.0
  9
$PUCSXDIR
 10
1.0
 20
0.0
 30
0.0
  9
$PUCSYDIR
 10
0.0
 20
1.0
 30
0.0
  9
$PUCSORTHOREF
  2

  9
$PUCSORTHOVIEW
 70
     0
  9
$PUCSORGTOP
 10
0.0
 20
0.0
 30
0.0
  9
$PUCSORGBOTTOM
 10
0.0
 20
0.0
 30
0.0
  9
$PUCSORGLEFT
 10
0.0
 20
0.0
 30
0.0
  9
$PUCSORGRIGHT
 10
0.0
 20
0.0
 30
0.0
  9
$PUCSORGFRONT
 10
0.0
 20
0.0
 30
0.0
  9
$PUCSORGBACK
 10
0.0
 20
0.0
 30
0.0
  9
$USERI1
 70
     0
  9
$USERI2
 70
     0
  9
$USERI3
 70
     0
  9
$USERI4
 70
     0
  9
$USERI5
 70
     0
  9
$USERR1
 40
20.1
  9
$USERR2
 40
0.0
  9
$USERR3
 40
0.0
  9
$USERR4
 40
0.0
  9
$USERR5
 40
0.0
  9
$WORLDVIEW
 70
     1
  9
$SHADEDGE
 70
     3
  9
$SHADEDIF
 70
    70
  9
$TILEMODE
 70
     1
  9
$MAXACTVP
 70
    64
  9
$PINSBASE
 10
0.0
 20
0.0
 30
0.0
  9
$PLIMCHECK
 70
     0
  9
$PEXTMIN
 10
1.00000000000000E+20
 20
1.00000000000000E+20
 30
1.00000000000000E+20
  9
$PEXTMAX
 10
-1.00000000000000E+20
 20
-1.00000000000000E+20
 30
-1.00000000000000E+20
  9
$PLIMMIN
 10
0.0
 20
0.0
  9
$PLIMMAX
 10
12.0
 20
9.0
  9
$UNITMODE
 70
     0
  9
$VISRETAIN
 70
     1
  9
$PLINEGEN
 70
     0
  9
$PSLTSCALE
 70
     1
  9
$TREEDEPTH
 70
  3020
  9
$CMLSTYLE
  2
Standard
  9
$CMLJUST
 70
     0
  9
$CMLSCALE
 40
1.0
  9
$PROXYGRAPHICS
 70
     1
  9
$MEASUREMENT
 70
     1
  9
$CELWEIGHT
370
    -1
  9
$ENDCAPS
280
     0
  9
$JOINSTYLE
280
     0
  9
$LWDISPLAY
290
     0
  9
$INSUNITS
 70
     4
  9
$HYPERLINKBASE
  1

  9
$STYLESHEET
  1

  9
$XEDIT
290
     1
  9
$CEPSNTYPE
380
     0
  9
$PSTYLEMODE
290
     1
  9
$FINGERPRINTGUID
  2
{70619153-efab-4463-a7a3-cd3bba889c84}
  9
$VERSIONGUID
  2
{FAEB1C32-E019-11D5-929B-00C0DF256EC4}
  9
$EXTNAMES
290
     1
  9
$PSVPSCALE
 40
0.0
  9
$OLESTARTUP
290
     0
  9
$SORTENTS
280
   127
  9
$INDEXCTL
280
     0
  9
$HIDETEXT
280
     1
  9
$XCLIPFRAME
290
     0
  9
$HALOGAP
280
     0
  9
$OBSCOLOR
 70
   257
  9
$OBSLTYPE
280
     0
  9
$INTERSECTIONDISPLAY
280
     0
  9
$INTERSECTIONCOLOR
 70
   257
  9
$DIMASSOC
280
     2
  9
$PROJECTNAME
  1

  0
ENDSEC
  0
SECTION
  2
CLASSES
  0
CLASS
  1
ACDBDICTIONARYWDFLT
  2
AcDbDictionaryWithDefault
  3
ObjectDBX Classes
 90
        0
 91
        3
280
     0
281
     0
  0
CLASS
  1
VISUALSTYLE
  2
AcDbVisualStyle
  3
ObjectDBX Classes
 90
     4095
 91
        3
280
     0
281
     0
  0
CLASS
  1
MATERIAL
  2
AcDbMaterial
  3
ObjectDBX Classes
 90
     1153
 91
        3
280
     0
281
     0
  0
CLASS
  1
SCALE
  2
AcDbScale
  3
ObjectDBX Classes
 90
     1153
 91
        3
280
     0
281
     0
  0
CLASS
  1
TABLESTYLE
  2
AcDbTableStyle
  3
ObjectDBX Classes
 90
     4095
 91
        3
280
     0
281
     0
  0
CLASS
  1
MLEADERSTYLE
  2
AcDbMLeaderStyle
  3
ACDB_MLEADERSTYLE_CLASS
 90
     4095
 91
        3
280
     0
281
     0
  0
CLASS
  1
SUN
  2
AcDbSun
  3
SCENEOE
 90
     1153
 91
        3
280
     0
281
     0
  0
CLASS
  1
DICTIONARYVAR
  2
AcDbDictionaryVar
  3
ObjectDBX Classes
 90
        0
 91
        3
280
     0
281
     0
  0
CLASS
  1
CELLSTYLEMAP
  2
AcDbCellStyleMap
  3
ObjectDBX Classes
 90
     1152
 91
        3
280
     0
281
     0
  0
ENDSEC
  0
SECTION
  2
TABLES
  0
TABLE
  2
VPORT
  5
8
102
{ACAD_XDICTIONARY
360
2EB
102
}
330
0
100
AcDbSymbolTable
 70
     1
  0
VPORT
  5
29
330
8
100
AcDbSymbolTableRecord
100
AcDbViewportTableRecord
  2
*Active
 70
     0
 10
0.0
 20
0.0
 11
1.0
 21
1.0
 12
-997.5000009290135
 22
-1036.975739765968
 13
0.0
 23
0.0
 14
0.5
 24
0.5
 15
0.5
 25
0.5
 16
0.0
 26
0.0
 36
1.0
 17
0.0
 27
0.0
 37
0.0
 40
326.7000000000003
 41
1.60267857142857
 42
50.0
 43
0.0
 44
0.0
 50
0.0
 51
0.0
 71
     0
 72
   100
 73
     1
 74
     3
 75
     0
 76
     0
 77
     0
 78
     0
281
     0
 65
     1
110
0.0
120
0.0
130
0.0
111
1.0
121
0.0
131
0.0
112
0.0
122
1.0
132
0.0
 79
     0
146
0.0
  0
ENDTAB
  0
TABLE
  2
LTYPE
  5
5
330
0
100
AcDbSymbolTable
 70
     8
  0
LTYPE
  5
14
330
5
100
AcDbSymbolTableRecord
100
AcDbLinetypeTableRecord
  2
ByBlock
 70
     0
  3

 72
    65
 73
     0
 40
0.0
  0
LTYPE
  5
15
330
5
100
AcDbSymbolTableRecord
100
AcDbLinetypeTableRecord
  2
ByLayer
 70
     0
  3

 72
    65
 73
     0
 40
0.0
  0
LTYPE
  5
16
330
5
100
AcDbSymbolTableRecord
100
AcDbLinetypeTableRecord
  2
Continuous
 70
     0
  3
Solid line
 72
    65
 73
     0
 40
0.0
  0
LTYPE
  5
6E
330
5
100
AcDbSymbolTableRecord
100
AcDbLinetypeTableRecord
  2
DASHED
 70
     0
  3
Dashed
 72
    65
 73
     2
 40
15.0
 49
7.0
 74
     0
 49
-8.0
 74
     0
  0
LTYPE
  5
6F
330
5
100
AcDbSymbolTableRecord
100
AcDbLinetypeTableRecord
  2
DOTTED
 70
     0
  3
Dotted
 72
    65
 73
     2
 40
1.0
 49
0.0
 74
     0
 49
-1.0
 74
     0
  0
LTYPE
  5
70
330
5
100
AcDbSymbolTableRecord
100
AcDbLinetypeTableRecord
  2
DOT_CENTER
 70
     0
  3
Dot_Center
 72
    65
 73
     4
 40
14.0
 49
12.0
 74
     0
 49
-1.0
 74
     0
 49
0.0
 74
     0
 49
-1.0
 74
     0
  0
LTYPE
  5
71
330
5
100
AcDbSymbolTableRecord
100
AcDbLinetypeTableRecord
  2
LONG_DASHED
 70
     0
  3
Long_Dashed
 72
    65
 73
     2
 40
15.0
 49
10.0
 74
     0
 49
-5.0
 74
     0
  0
LTYPE
  5
72
330
5
100
AcDbSymbolTableRecord
100
AcDbLinetypeTableRecord
  2
DASH_CENTER
 70
     0
  3
Dash_Center
 72
    65
 73
     4
 40
14.0
 49
11.0
 74
     0
 49
-1.0
 74
     0
 49
1.0
 74
     0
 49
-1.0
 74
     0
  0
LTYPE
  5
73
330
5
100
AcDbSymbolTableRecord
100
AcDbLinetypeTableRecord
  2
PHANTOM
 70
     0
  3
Phantom
 72
    65
 73
     6
 40
13.0
 49
10.0
 74
     0
 49
-1.0
 74
     0
 49
0.0
 74
     0
 49
-1.0
 74
     0
 49
0.0
 74
     0
 49
-1.0
 74
     0
  0
LTYPE
  5
74
330
5
100
AcDbSymbolTableRecord
100
AcDbLinetypeTableRecord
  2
CENTER_DASH_DASH
 70
     0
  3
Center_Dash_Dash
 72
    65
 73
     6
 40
14.0
 49
9.0
 74
     0
 49
-1.0
 74
     0
 49
1.0
 74
     0
 49
-1.0
 74
     0
 49
1.0
 74
     0
 49
-1.0
 74
     0
  0
ENDTAB
  0
TABLE
  2
LAYER
  5
2
330
0
100
AcDbSymbolTable
 70
     2
  0
LAYER
  5
10
330
2
100
AcDbSymbolTableRecord
100
AcDbLayerTableRecord
  2
0
 70
     0
 62
     7
  6
Continuous
370
    -3
390
F
  0
LAYER
  5
75
330
2
100
AcDbSymbolTableRecord
100
AcDbLayerTableRecord
  2
1
 70
     0
 62
     7
  6
Continuous
370
    -3
390
F
  0
ENDTAB
  0
TABLE
  2
STYLE
  5
3
330
0
100
AcDbSymbolTable
 70
     5
  0
STYLE
  5
11
330
3
100
AcDbSymbolTableRecord
100
AcDbTextStyleTableRecord
  2
Standard
 70
     0
 40
0.0
 41
1.0
 50
0.0
 71
     0
 42
0.2
  3
txt
  4

  0
STYLE
  5
EC
330
3
100
AcDbSymbolTableRecord
100
AcDbTextStyleTableRecord
  2
CONVERTER_11
 70
     0
 40
0.0
 41
0.9
 50
0.0
 71
     0
 42
0.2
  3
txt.shx
  4

  0
STYLE
  5
2AB
330
3
100
AcDbSymbolTableRecord
100
AcDbTextStyleTableRecord
  2
CONVERTER_12
 70
     0
 40
0.0
 41
0.81
 50
0.0
 71
     0
 42
0.2
  3
txt.shx
  4

  0
STYLE
  5
2B3
330
3
100
AcDbSymbolTableRecord
100
AcDbTextStyleTableRecord
  2
CONVERTER_13
 70
     0
 40
0.0
 41
0.72
 50
0.0
 71
     0
 42
0.2
  3
txt.shx
  4

  0
STYLE
  5
2B6
330
3
100
AcDbSymbolTableRecord
100
AcDbTextStyleTableRecord
  2
CONVERTER_14
 70
     0
 40
0.0
 41
0.855
 50
0.0
 71
     0
 42
0.2
  3
txt.shx
  4

  0
ENDTAB
  0
TABLE
  2
VIEW
  5
6
330
0
100
AcDbSymbolTable
 70
     0
  0
ENDTAB
  0
TABLE
  2
UCS
  5
7
330
0
100
AcDbSymbolTable
 70
     0
  0
ENDTAB
  0
TABLE
  2
APPID
  5
9
330
0
100
AcDbSymbolTable
 70
     2
  0
APPID
  5
12
330
9
100
AcDbSymbolTableRecord
100
AcDbRegAppTableRecord
  2
ACAD
 70
     0
  0
APPID
  5
32A
330
9
100
AcDbSymbolTableRecord
100
AcDbRegAppTableRecord
  2
ACAD_MLEADERVER
 70
     0
  0
ENDTAB
  0
TABLE
  2
DIMSTYLE
  5
A
330
0
100
AcDbSymbolTable
 70
     4
100
AcDbDimStyleTable
  0
DIMSTYLE
105
27
330
A
100
AcDbSymbolTableRecord
100
AcDbDimStyleTableRecord
  2
Standard
 70
     0
178
     0
340
11
  0
DIMSTYLE
105
128
102
{ACAD_REACTORS
330
129
102
}
330
A
100
AcDbSymbolTableRecord
100
AcDbDimStyleTableRecord
  2
ME10_DIM_10
 70
     0
 41
3.5
 42
0.0
 44
1.5
 73
     0
 74
     0
 77
     1
 78
     8
140
3.5
147
1.5
172
     1
173
     1
174
     1
175
     1
176
     2
177
     2
271
     2
178
     3
271
     2
340
EC
  0
DIMSTYLE
105
191
102
{ACAD_REACTORS
330
192
102
}
330
A
100
AcDbSymbolTableRecord
100
AcDbDimStyleTableRecord
  2
ME10_DIM_11
 70
     0
 41
3.5
 42
0.0
 44
1.5
 73
     0
 74
     0
 77
     1
 78
     8
140
3.5
147
1.5
172
     1
173
     1
174
     1
175
     1
176
     2
177
     2
271
     2
178
     3
271
     2
340
EC
  0
DIMSTYLE
105
19C
102
{ACAD_REACTORS
330
19D
102
}
330
A
100
AcDbSymbolTableRecord
100
AcDbDimStyleTableRecord
  2
ME10_DIM_12
 70
     0
 41
3.5
 42
0.0
 44
1.5
 73
     0
 74
     0
 77
     1
 78
     8
140
3.5
147
1.5
172
     1
173
     1
174
     1
175
     1
176
     2
177
     2
271
     2
178
     3
271
     2
340
EC
  0
ENDTAB
  0
TABLE
  2
BLOCK_RECORD
  5
1
330
0
100
AcDbSymbolTable
 70
    20
  0
BLOCK_RECORD
  5
1F
330
1
100
AcDbSymbolTableRecord
100
AcDbBlockTableRecord
  2
*Model_Space
340
22
  0
BLOCK_RECORD
  5
1B
330
1
100
AcDbSymbolTableRecord
100
AcDbBlockTableRecord
  2
*Paper_Space
340
1E
  0
BLOCK_RECORD
  5
23
330
1
100
AcDbSymbolTableRecord
100
AcDbBlockTableRecord
  2
*Paper_Space0
340
26
  0
BLOCK_RECORD
  5
76
330
1
100
AcDbSymbolTableRecord
100
AcDbBlockTableRecord
  2
D-PT-16-TWIN-N-SELECT__1
340
0
102
{BLKREFS
331
7A
102
}
  0
BLOCK_RECORD
  5
79
330
1
100
AcDbSymbolTableRecord
100
AcDbBlockTableRecord
  2
Allg1
340
0
102
{BLKREFS
331
AC
102
}
  0
BLOCK_RECORD
  5
7D
330
1
100
AcDbSymbolTableRecord
100
AcDbBlockTableRecord
  2
D-PT-16-TWIN-N-SELECT__2
340
0
102
{BLKREFS
331
81
102
}
  0
BLOCK_RECORD
  5
80
330
1
100
AcDbSymbolTableRecord
100
AcDbBlockTableRecord
  2
Drfsicht1
340
0
102
{BLKREFS
331
AD
102
}
  0
BLOCK_RECORD
  5
84
330
1
100
AcDbSymbolTableRecord
100
AcDbBlockTableRecord
  2
D-PT-16-TWIN-N-SELECT__3
340
0
102
{BLKREFS
331
88
102
}
  0
BLOCK_RECORD
  5
87
330
1
100
AcDbSymbolTableRecord
100
AcDbBlockTableRecord
  2
Rckans1
340
0
102
{BLKREFS
331
AE
102
}
  0
BLOCK_RECORD
  5
8B
330
1
100
AcDbSymbolTableRecord
100
AcDbBlockTableRecord
  2
D-PT-16-TWIN-N-SELECT__4
340
0
102
{BLKREFS
331
8F
102
}
  0
BLOCK_RECORD
  5
8E
330
1
100
AcDbSymbolTableRecord
100
AcDbBlockTableRecord
  2
SA_Links1
340
0
102
{BLKREFS
331
AF
102
}
  0
BLOCK_RECORD
  5
92
330
1
100
AcDbSymbolTableRecord
100
AcDbBlockTableRecord
  2
D-PT-16-TWIN-N-SELECT__5
340
0
102
{BLKREFS
331
96
102
}
  0
BLOCK_RECORD
  5
95
330
1
100
AcDbSymbolTableRecord
100
AcDbBlockTableRecord
  2
SA_Rechts1
340
0
102
{BLKREFS
331
B0
102
}
  0
BLOCK_RECORD
  5
99
330
1
100
AcDbSymbolTableRecord
100
AcDbBlockTableRecord
  2
D-PT-16-TWIN-N-SELECT__6
340
0
102
{BLKREFS
331
9D
102
}
  0
BLOCK_RECORD
  5
9C
330
1
100
AcDbSymbolTableRecord
100
AcDbBlockTableRecord
  2
Vordans1
340
0
102
{BLKREFS
331
B1
102
}
  0
BLOCK_RECORD
  5
A0
330
1
100
AcDbSymbolTableRecord
100
AcDbBlockTableRecord
  2
_rahmen
340
0
102
{BLKREFS
331
A7
102
}
  0
BLOCK_RECORD
  5
A3
330
1
100
AcDbSymbolTableRecord
100
AcDbBlockTableRecord
  2
_punkt
340
0
102
{BLKREFS
331
A8
102
}
  0
BLOCK_RECORD
  5
A6
330
1
100
AcDbSymbolTableRecord
100
AcDbBlockTableRecord
  2
A3I_CS
340
0
102
{BLKREFS
331
B2
102
}
  0
BLOCK_RECORD
  5
AB
330
1
100
AcDbSymbolTableRecord
100
AcDbBlockTableRecord
  2
1
340
0
102
{BLKREFS
331
B5
102
}
  0
BLOCK_RECORD
  5
11D
330
1
100
AcDbSymbolTableRecord
100
AcDbBlockTableRecord
  2
*D17
340
0
  0
BLOCK_RECORD
  5
188
330
1
100
AcDbSymbolTableRecord
100
AcDbBlockTableRecord
  2
*D18
340
0
  0
BLOCK_RECORD
  5
193
330
1
100
AcDbSymbolTableRecord
100
AcDbBlockTableRecord
  2
*D19
340
0
  0
ENDTAB
  0
ENDSEC
  0
SECTION
  2
BLOCKS
  0
BLOCK
  5
20
330
1F
100
AcDbEntity
  8
0
100
AcDbBlockBegin
  2
*Model_Space
 70
     0
 10
0.0
 20
0.0
 30
0.0
  3
*Model_Space
  1

  0
ENDBLK
  5
21
330
1F
100
AcDbEntity
  8
0
100
AcDbBlockEnd
  0
BLOCK
  5
1C
330
1B
100
AcDbEntity
 67
     1
  8
0
100
AcDbBlockBegin
  2
*Paper_Space
 70
     0
 10
0.0
 20
0.0
 30
0.0
  3
*Paper_Space
  1

  0
ENDBLK
  5
1D
330
1B
100
AcDbEntity
 67
     1
  8
0
100
AcDbBlockEnd
  0
BLOCK
  5
24
330
23
100
AcDbEntity
  8
0
100
AcDbBlockBegin
  2
*Paper_Space0
 70
     0
 10
0.0
 20
0.0
 30
0.0
  3
*Paper_Space0
  1

  0
ENDBLK
  5
25
330
23
100
AcDbEntity
  8
0
100
AcDbBlockEnd
  0
BLOCK
  5
77
330
76
100
AcDbEntity
  8
0
100
AcDbBlockBegin
  2
D-PT-16-TWIN-N-SELECT__1
 70
     0
 10
-937.954991698701
 20
-1130.154558143024
 30
0.0
  3
D-PT-16-TWIN-N-SELECT__1
  1

  0
LINE
  5
B6
330
76
100
AcDbEntity
  8
0
  6
Continuous
 62
     7
100
AcDbLine
 10
-850.0450070591156
 20
-1111.258681287062
 30
0.0
 11
-850.0450070591156
 21
-1107.493651312739
 31
0.0
  0
LINE
  5
B7
330
76
100
AcDbEntity
  8
0
  6
Continuous
 62
     7
100
AcDbLine
 10
-850.0450070591156
 20
-1111.258681287062
 30
0.0
 11
-851.1450070591351
 21
-1112.211309231242
 31
0.0
  0
LINE
  5
B8
330
76
100
AcDbEntity
  8
0
  6
Continuous
 62
     7
100
AcDbLine
 10
-851.1450070591147
 20
-1108.446279256901
 30
0.0
 11
-851.1450070591351
 21
-1112.211309231242
 31
0.0
  0
LINE
  5
B9
330
76
100
AcDbEntity
  8
0
  6
Continuous
 62
     7
100
AcDbLine
 10
-851.1450070604064
 20
-1128.13393464452
 30
0.0
 11
-851.1450070604064
 21
-1130.154558143024
 31
0.0
  0
LINE
  5
BA
330
76
100
AcDbEntity
  8
0
  6
Continuous
 62
     7
100
AcDbLine
 10
-850.045007060407
 20
-1127.181306700357
 30
0.0
 11
-851.1450070604064
 21
-1128.13393464452
 31
0.0
  0
LINE
  5
BB
330
76
100
AcDbEntity
  8
0
  6
Continuous
 62
     7
100
AcDbLine
 10
-850.045007060407
 20
-1129.201930198861
 30
0.0
 11
-850.045007060407
 21
-1127.181306700357
 31
0.0
  0
LINE
  5
BC
330
76
100
AcDbEntity
  8
0
  6
Continuous
 62
     7
100
AcDbLine
 10
-888.8737391798154
 20
-1081.121003567183
 30
0.0
 11
-889.2000910020935
 21
-1081.026793910961
 31
0.0
  0
LINE
  5
BD
330
76
100
AcDbEntity
  8
0
  6
Continuous
 62
     7
100
AcDbLine
 10
-882.4574524169984
 20
-1085.308563406428
 30
0.0
 11
-888.8737391798154
 21
-1081.121003567183
 31
0.0
  0
LINE
  5
BE
330
76
100
AcDbEntity
  8
0
  6
Continuous
 62
     7
100
AcDbLine
 10
-889.9737391798144
 20
-1082.073631511345
 30
0.0
 11
-888.8737391798154
 21
-1081.121003567183
 31
0.0
  0
LINE
  5
BF
330
76
100
AcDbEntity
  8
0
  6
Continuous
 62
     7
100
AcDbLine
 10
-889.2000910020935
 20
-1081.026793910961
 30
0.0
 11
-890.3000910020925
 21
-1081.979421855123
 31
0.0
  0
LINE
  5
C0
330
76
100
AcDbEntity
  8
0
  6
Continuous
 62
     7
100
AcDbLine
 10
-869.4164697048557
 20
-1089.073170846104
 30
0.0
 11
-882.4574524169984
 21
-1085.308563406428
 31
0.0
  0
LINE
  5
C1
330
76
100
AcDbEntity
  8
0
  6
Continuous
 62
     7
100
AcDbLine
 10
-890.3000910020925
 20
-1081.979421855123
 30
0.0
 11
-889.9737391798144
 21
-1082.073631511345
 31
0.0
  0
LINE
  5
C2
330
76
100
AcDbEntity
  8
0
  6
Continuous
 62
     7
100
AcDbLine
 10
-867.3620699870291
 20
-1087.308243504265
 30
0.0
 11
-867.6884218093071
 21
-1087.214033848044
 31
0.0
  0
LINE
  5
C3
330
76
100
AcDbEntity
  8
0
  6
Continuous
 62
     7
100
AcDbLine
 10
-868.7884218093061
 20
-1088.166661792206
 30
0.0
 11
-868.462069987028
 21
-1088.260871448427
 31
0.0
  0
LINE
  5
C4
330
76
100
AcDbEntity
  8
0
  6
Continuous
 62
     7
100
AcDbLine
 10
-868.462069987028
 20
-1088.260871448427
 30
0.0
 11
-867.3620699870291
 21
-1087.308243504265
 31
0.0
  0
LINE
  5
C5
330
76
100
AcDbEntity
  8
0
  6
Continuous
 62
     7
100
AcDbLine
 10
-867.6884218093071
 20
-1087.214033848044
 30
0.0
 11
-868.7884218093061
 21
-1088.166661792206
 31
0.0
  0
LINE
  5
C6
330
76
100
AcDbEntity
  8
0
  6
Continuous
 62
     7
100
AcDbLine
 10
-889.9737391798144
 20
-1082.073631511345
 30
0.0
 11
-883.5574524169974
 21
-1086.26119135059
 31
0.0
  0
LINE
  5
C7
330
76
100
AcDbEntity
  8
0
  6
Continuous
 62
     7
100
AcDbLine
 10
-882.4574524169984
 20
-1085.308563406428
 30
0.0
 11
-883.5574524169974
 21
-1086.26119135059
 31
0.0
  0
LINE
  5
C8
330
76
100
AcDbEntity
  8
0
  6
Continuous
 62
     7
100
AcDbLine
 10
-890.3000910020925
 20
-1081.979421855123
 30
0.0
 11
-891.3131715834711
 21
-1083.441677721047
 31
0.0
  0
LINE
  5
C9
330
76
100
AcDbEntity
  8
0
  6
Continuous
 62
     7
100
AcDbLine
 10
-868.7884218093061
 20
-1088.166661792206
 30
0.0
 11
-870.1498030381882
 21
-1090.131646339617
 31
0.0
  0
LINE
  5
CA
330
76
100
AcDbEntity
  8
0
  6
Continuous
 62
     7
100
AcDbLine
 10
-870.1498030381882
 20
-1090.131646339617
 30
0.0
 11
-883.5574524169974
 21
-1086.26119135059
 31
0.0
  0
LINE
  5
CB
330
76
100
AcDbEntity
  8
0
  6
Continuous
 62
     7
100
AcDbLine
 10
-919.2984963676388
 20
-1075.363010322298
 30
0.0
 11
-891.3131715834711
 21
-1083.441677721047
 31
0.0
  0
LINE
  5
CC
330
76
100
AcDbEntity
  8
0
  6
Continuous
 62
     7
100
AcDbLine
 10
-890.5798382501389
 20
-1082.383202227534
 30
0.0
 11
-918.1984963676398
 21
-1074.410382378136
 31
0.0
  0
LINE
  5
CD
330
76
100
AcDbEntity
  8
0
  6
Continuous
 62
     7
100
AcDbLine
 10
-860.8657765850958
 20
-1093.218557155587
 30
0.0
 11
-859.7657765850968
 21
-1092.265929211425
 31
0.0
  0
LINE
  5
CE
330
76
100
AcDbEntity
  8
0
  6
Continuous
 62
     7
100
AcDbLine
 10
-851.1450070591147
 20
-1108.446279256901
 30
0.0
 11
-852.2063033171265
 21
-1101.781760225895
 31
0.0
  0
LINE
  5
CF
330
76
100
AcDbEntity
  8
0
  6
Continuous
 62
     7
100
AcDbLine
 10
-852.2063033171265
 20
-1101.781760225895
 30
0.0
 11
-860.8657765850958
 21
-1093.218557155587
 31
0.0
  0
LINE
  5
D0
330
76
100
AcDbEntity
  8
0
  6
Continuous
 62
     7
100
AcDbLine
 10
-868.462069987028
 20
-1088.260871448427
 30
0.0
 11
-860.8657765850958
 21
-1093.218557155587
 31
0.0
  0
LINE
  5
D1
330
76
100
AcDbEntity
  8
0
  6
Continuous
 62
     7
100
AcDbLine
 10
-859.7657765850968
 20
-1092.265929211425
 30
0.0
 11
-867.3620699870291
 21
-1087.308243504265
 31
0.0
  0
LINE
  5
D2
330
76
100
AcDbEntity
  8
0
  6
Continuous
 62
     7
100
AcDbLine
 10
-850.045007060407
 20
-1129.201930198861
 30
0.0
 11
-851.1450070604064
 21
-1130.154558143024
 31
0.0
  0
LINE
  5
D3
330
76
100
AcDbEntity
  8
0
  6
Continuous
 62
     7
100
AcDbLine
 10
-851.1450070604064
 20
-1130.154558143024
 30
0.0
 11
-861.4124829583976
 21
-1129.788669367494
 31
0.0
  0
LINE
  5
D4
330
76
100
AcDbEntity
  8
0
  6
Continuous
 62
     7
100
AcDbLine
 10
-919.2115769490184
 20
-1072.363224165842
 30
0.0
 11
-919.5379287683087
 21
-1072.269014510483
 31
0.0
  0
LINE
  5
D5
330
76
100
AcDbEntity
  8
0
  6
Continuous
 62
     7
100
AcDbLine
 10
-919.5379287683087
 20
-1072.269014510483
 30
0.0
 11
-920.6379287683077
 21
-1073.221642454646
 31
0.0
  0
LINE
  5
D6
330
76
100
AcDbEntity
  8
0
  6
Continuous
 62
     7
100
AcDbLine
 10
-937.9549916948796
 20
-1107.692750356101
 30
0.0
 11
-937.9549916957553
 21
-1100.591342046251
 31
0.0
  0
LINE
  5
D7
330
76
100
AcDbEntity
  8
0
  6
Continuous
 62
     7
100
AcDbLine
 10
-919.2984963676388
 20
-1075.363010322298
 30
0.0
 11
-920.3115769490174
 21
-1073.315852110004
 31
0.0
  0
LINE
  5
D8
330
76
100
AcDbEntity
  8
0
  6
Continuous
 62
     7
100
AcDbLine
 10
-920.6379287683077
 20
-1073.221642454646
 30
0.0
 11
-920.3115769490174
 21
-1073.315852110004
 31
0.0
  0
LINE
  5
D9
330
76
100
AcDbEntity
  8
0
  6
Continuous
 62
     7
100
AcDbLine
 10
-920.6379287683077
 20
-1073.221642454646
 30
0.0
 11
-928.2342221727095
 21
-1073.793606121542
 31
0.0
  0
LINE
  5
DA
330
76
100
AcDbEntity
  8
0
  6
Continuous
 62
     7
100
AcDbLine
 10
-936.8936954406804
 20
-1077.357259969549
 30
0.0
 11
-928.2342221727095
 21
-1073.793606121542
 31
0.0
  0
LINE
  5
DB
330
76
100
AcDbEntity
  8
0
  6
Continuous
 62
     7
100
AcDbLine
 10
-936.8936954406804
 20
-1077.357259969549
 30
0.0
 11
-937.954991698701
 21
-1083.409039320434
 31
0.0
  0
LINE
  5
DC
330
76
100
AcDbEntity
  8
0
  6
Continuous
 62
     7
100
AcDbLine
 10
-937.954991698701
 20
-1083.409039320434
 30
0.0
 11
-937.9549916982382
 21
-1087.167948285732
 31
0.0
  0
LINE
  5
DD
330
76
100
AcDbEntity
  8
0
  6
Continuous
 62
     7
100
AcDbLine
 10
-936.8936954406804
 20
-1077.357259969549
 30
0.0
 11
-935.7936954406812
 21
-1076.404632025387
 31
0.0
  0
LINE
  5
DE
330
76
100
AcDbEntity
  8
0
  6
Continuous
 62
     7
100
AcDbLine
 10
-927.1342221727103
 20
-1072.84097817738
 30
0.0
 11
-935.7936954406812
 21
-1076.404632025387
 31
0.0
  0
LINE
  5
DF
330
76
100
AcDbEntity
  8
0
  6
Continuous
 62
     7
100
AcDbLine
 10
-928.2342221727095
 20
-1073.793606121542
 30
0.0
 11
-927.1342221727103
 21
-1072.84097817738
 31
0.0
  0
LINE
  5
E0
330
76
100
AcDbEntity
  8
0
  6
Continuous
 62
     7
100
AcDbLine
 10
-920.3115769490174
 20
-1073.315852110004
 30
0.0
 11
-919.2115769490184
 21
-1072.363224165842
 31
0.0
  0
LINE
  5
E1
330
76
100
AcDbEntity
  8
0
  6
Continuous
 62
     7
100
AcDbLine
 10
-918.1984963676398
 20
-1074.410382378136
 30
0.0
 11
-919.2984963676388
 21
-1075.363010322298
 31
0.0
  0
LINE
  5
E2
330
76
100
AcDbEntity
  8
0
  6
Continuous
 62
     7
100
AcDbLine
 10
-918.1984963676398
 20
-1074.410382378136
 30
0.0
 11
-919.2115769490184
 21
-1072.363224165842
 31
0.0
  0
LINE
  5
E3
330
76
100
AcDbEntity
  8
0
  6
Continuous
 62
     7
100
AcDbLine
 10
-919.5379287683087
 20
-1072.269014510483
 30
0.0
 11
-927.1342221727103
 21
-1072.84097817738
 31
0.0
  0
LINE
  5
E4
330
76
100
AcDbEntity
  8
0
  6
Continuous
 62
     7
100
AcDbLine
 10
-851.1450070591147
 20
-1108.446279256901
 30
0.0
 11
-850.0450070591156
 21
-1107.493651312739
 31
0.0
  0
LINE
  5
E5
330
76
100
AcDbEntity
  8
0
  6
Continuous
 62
     7
100
AcDbLine
 10
-850.0450070591156
 20
-1107.493651312739
 30
0.0
 11
-851.1063033171275
 21
-1100.829132281733
 31
0.0
  0
LINE
  5
E6
330
76
100
AcDbEntity
  8
0
  6
Continuous
 62
     7
100
AcDbLine
 10
-852.2063033171265
 20
-1101.781760225895
 30
0.0
 11
-851.1063033171275
 21
-1100.829132281733
 31
0.0
  0
LINE
  5
E7
330
76
100
AcDbEntity
  8
0
  6
Continuous
 62
     7
100
AcDbLine
 10
-851.1063033171275
 20
-1100.829132281733
 30
0.0
 11
-859.7657765850968
 21
-1092.265929211425
 31
0.0
  0
LINE
  5
E8
330
76
100
AcDbEntity
  8
0
  6
Continuous
 62
     7
100
AcDbLine
 10
-861.4124829583976
 20
-1129.788669367494
 30
0.0
 11
-937.9549916948796
 21
-1107.692750356101
 31
0.0
  0
SPLINE
  5
E9
330
76
100
AcDbEntity
  8
0
  6
Continuous
 62
     7
100
AcDbSpline
210
0.0
220
0.0
230
1.0
 70
  1064
 71
     3
 72
    13
 73
     9
 74
     7
 42
0.000000001
 43
0.0000000001
 44
0.00000001
 40
0.0
 40
0.0
 40
0.0
 40
0.0
 40
2.476218701670201
 40
5.058109507709278
 40
7.781234782470523
 40
10.65734547758386
 40
13.67615163045336
 40
16.80957916420449
 40
16.80957916420449
 40
16.80957916420449
 40
16.80957916420449
 10
-851.1450070591351
 20
-1112.211309231242
 30
0.0
 10
-851.6093075335294
 20
-1112.898631414002
 30
0.0
 10
-852.5577223935213
 20
-1114.302607114364
 30
0.0
 10
-853.3122523849781
 20
-1116.820991128181
 30
0.0
 10
-853.5751533839796
 20
-1119.548600733411
 30
0.0
 10
-853.2862043158902
 20
-1122.422055551786
 30
0.0
 10
-852.5080398219839
 20
-1125.348100879974
 30
0.0
 10
-851.6049597039522
 20
-1127.193860696432
 30
0.0
 10
-851.1450070604064
 20
-1128.13393464452
 30
0.0
 11
-851.1450070591351
 21
-1112.211309231242
 31
0.0
 11
-852.4281569207931
 21
-1114.329134886177
 31
0.0
 11
-853.2170897431769
 21
-1116.787537854279
 31
0.0
 11
-853.4832750692225
 21
-1119.497622105356
 31
0.0
 11
-853.217089743629
 21
-1122.361388525992
 31
0.0
 11
-852.4281569216782
 21
-1125.275282071469
 31
0.0
 11
-851.1450070604064
 21
-1128.13393464452
 31
0.0
  0
SPLINE
  5
EA
330
76
100
AcDbEntity
  8
0
  6
Continuous
 62
     7
100
AcDbSpline
210
0.0
220
0.0
230
1.0
 70
  1064
 71
     3
 72
    13
 73
     9
 74
     7
 42
0.000000001
 43
0.0000000001
 44
0.00000001
 40
0.0
 40
0.0
 40
0.0
 40
0.0
 40
2.47621870167059
 40
5.058109507709052
 40
7.781234782470749
 40
10.65734547758455
 40
13.67615163045487
 40
16.80957916421241
 40
16.80957916421241
 40
16.80957916421241
 40
16.80957916421241
 10
-850.0450070591156
 20
-1111.258681287062
 30
0.0
 10
-850.5093075335099
 20
-1111.946003469822
 30
0.0
 10
-851.4577223935013
 20
-1113.349979170185
 30
0.0
 10
-852.2122523849595
 20
-1115.868363184001
 30
0.0
 10
-852.4751533839599
 20
-1118.59597278923
 30
0.0
 10
-852.186204315871
 20
-1121.469427607607
 30
0.0
 10
-851.4080398219626
 20
-1124.395472935797
 30
0.0
 10
-850.5049597039456
 20
-1126.241232752263
 30
0.0
 10
-850.045007060407
 20
-1127.181306700357
 30
0.0
 11
-850.0450070591156
 21
-1111.258681287062
 31
0.0
 11
-851.3281569207736
 21
-1113.376506941997
 31
0.0
 11
-852.1170897431575
 21
-1115.834909910098
 31
0.0
 11
-852.3832750692031
 21
-1118.544994161176
 31
0.0
 11
-852.1170897436095
 21
-1121.408760581813
 31
0.0
 11
-851.3281569216615
 21
-1124.322654127292
 31
0.0
 11
-850.045007060407
 21
-1127.181306700357
 31
0.0
  0
SPLINE
  5
EB
330
76
100
AcDbEntity
  8
0
  6
Continuous
 62
     7
100
AcDbSpline
210
0.0
220
0.0
230
1.0
 70
  1064
 71
     3
 72
    13
 73
     9
 74
     7
 42
0.000000001
 43
0.0000000001
 44
0.00000001
 40
0.0
 40
0.0
 40
0.0
 40
0.0
 40
2.095683428791509
 40
4.281140375887608
 40
6.596352319154274
 40
9.054627880904787
 40
11.64445200073794
 40
14.33478303116059
 40
14.33478303116059
 40
14.33478303116059
 40
14.33478303116059
 10
-937.9549916957553
 20
-1100.591342046251
 30
0.0
 10
-937.5240468146972
 20
-1100.036130681772
 30
0.0
 10
-936.6436965290073
 20
-1098.901924162813
 30
0.0
 10
-935.9359380142878
 20
-1096.780984231756
 30
0.0
 10
-935.6913789381265
 20
-1094.46057083664
 30
0.0
 10
-935.9628832698243
 20
-1092.005479292111
 30
0.0
 10
-936.6903575799404
 20
-1089.511555518813
 30
0.0
 10
-937.5281313577565
 20
-1087.959001566862
 30
0.0
 10
-937.9549916982382
 20
-1087.167948285732
 30
0.0
 11
-937.9549916957553
 21
-1100.591342046251
 31
0.0
 11
-936.7630400754778
 21
-1098.867642425718
 31
0.0
 11
-936.0264299547923
 21
-1096.810064331405
 31
0.0
 11
-935.7772739391767
 21
-1094.508298132437
 31
0.0
 11
-936.0264299556703
 21
-1092.062681640622
 31
0.0
 11
-936.7630400771957
 21
-1089.579821494873
 31
0.0
 11
-937.9549916982382
 21
-1087.167948285732
 31
0.0
  0
ENDBLK
  5
78
330
76
100
AcDbEntity
  8
0
100
AcDbBlockEnd
  0
BLOCK
  5
7B
330
79
100
AcDbEntity
  8
0
100
AcDbBlockBegin
  2
Allg1
 70
     0
 10
-894.0000000000159
 20
-1099.99999999999
 30
0.0
  3
Allg1
  1

  0
INSERT
  5
7A
330
79
100
AcDbEntity
  8
0
100
AcDbBlockReference
  2
D-PT-16-TWIN-N-SELECT__1
 10
-937.954991698701
 20
-1130.154558143024
 30
0.0
  0
MTEXT
  5
ED
330
79
100
AcDbEntity
  8
1
 62
     6
100
AcDbMText
 10
-894.000000000017
 20
-1137.752634245639
 30
0.0
 40
5.0
 41
0.0
 71
     2
 72
     1
  1
 
  7
CONVERTER_11
 73
     1
 44
1.32052821128451
  0
ENDBLK
  5
7C
330
79
100
AcDbEntity
  8
0
100
AcDbBlockEnd
  0
BLOCK
  5
7E
330
7D
100
AcDbEntity
  8
0
100
AcDbBlockBegin
  2
D-PT-16-TWIN-N-SELECT__2
 70
     0
 10
-1115.239535451215
 20
-1045.001154570413
 30
0.0
  3
D-PT-16-TWIN-N-SELECT__2
  1

  0
LINE
  5
EE
330
7D
100
AcDbEntity
  8
0
  6
Continuous
 62
     7
100
AcDbLine
 10
-1016.225478811697
 20
-1045.001154570413
 30
0.0
 11
-1026.224577256302
 21
-1045.001154570413
 31
0.0
  0
LINE
  5
EF
330
7D
100
AcDbEntity
  8
0
  6
Continuous
 62
     7
100
AcDbLine
 10
-1035.372859962085
 20
-1045.001154570413
 30
0.0
 11
-1034.9960213372
 21
-1045.001154570413
 31
0.0
  0
LINE
  5
F0
330
7D
100
AcDbEntity
  8
0
  6
Continuous
 62
     7
100
AcDbLine
 10
-1034.9960213372
 20
-1045.001154570413
 30
0.0
 11
-1026.224577256302
 21
-1045.001154570413
 31
0.0
  0
LINE
  5
F1
330
7D
100
AcDbEntity
  8
0
  6
Continuous
 62
     7
100
AcDbLine
 10
-1114.014056090699
 20
-1045.001154570413
 30
0.0
 11
-1104.014957646093
 21
-1045.001154570413
 31
0.0
  0
LINE
  5
F2
330
7D
100
AcDbEntity
  8
0
  6
Continuous
 62
     7
100
AcDbLine
 10
-1095.243513562343
 20
-1045.001154570413
 30
0.0
 11
-1104.014957646093
 21
-1045.001154570413
 31
0.0
  0
LINE
  5
F3
330
7D
100
AcDbEntity
  8
0
  6
Continuous
 62
     7
100
AcDbLine
 10
-1093.696870248168
 20
-1045.001154570413
 30
0.0
 11
-1094.866674940908
 21
-1045.001154570413
 31
0.0
  0
LINE
  5
F4
330
7D
100
AcDbEntity
  8
0
  6
Continuous
 62
     7
100
AcDbLine
 10
-1035.372859962085
 20
-1045.001154570413
 30
0.0
 11
-1036.944847600015
 21
-1045.001154570413
 31
0.0
  0
LINE
  5
F5
330
7D
100
AcDbEntity
  8
0
  6
Continuous
 62
     7
100
AcDbLine
 10
-1036.944847600015
 20
-1045.001154570413
 30
0.0
 11
-1052.426667556126
 21
-1045.001154570413
 31
0.0
  0
LINE
  5
F6
330
7D
100
AcDbEntity
  8
0
  6
Continuous
 62
     7
100
AcDbLine
 10
-1060.212395960432
 20
-1045.001154570413
 30
0.0
 11
-1061.382200653172
 21
-1045.001154570413
 31
0.0
  0
LINE
  5
F7
330
7D
100
AcDbEntity
  8
0
  6
Continuous
 62
     7
100
AcDbLine
 10
-1093.696870248168
 20
-1045.001154570413
 30
0.0
 11
-1061.382200653172
 21
-1045.001154570413
 31
0.0
  0
LINE
  5
F8
330
7D
100
AcDbEntity
  8
0
  6
Continuous
 62
     7
100
AcDbLine
 10
-1052.426667556126
 20
-1042.801154570415
 30
0.0
 11
-1059.835557335547
 21
-1042.801154570415
 31
0.0
  0
LINE
  5
F9
330
7D
100
AcDbEntity
  8
0
  6
Continuous
 62
     7
100
AcDbLine
 10
-1093.696870248168
 20
-1042.801154570415
 30
0.0
 11
-1094.866674940908
 21
-1042.801154570415
 31
0.0
  0
LINE
  5
FA
330
7D
100
AcDbEntity
  8
0
  6
Continuous
 62
     7
100
AcDbLine
 10
-1060.212395960432
 20
-1042.801154570415
 30
0.0
 11
-1061.382200653172
 21
-1042.801154570415
 31
0.0
  0
LINE
  5
FB
330
7D
100
AcDbEntity
  8
0
  6
Continuous
 62
     7
100
AcDbLine
 10
-1035.372859962085
 20
-1042.801154570415
 30
0.0
 11
-1036.944847600015
 21
-1042.801154570415
 31
0.0
  0
LINE
  5
FC
330
7D
100
AcDbEntity
  8
0
  6
Continuous
 62
     7
100
AcDbLine
 10
-1114.014056090699
 20
-1042.801154570414
 30
0.0
 11
-1115.239535451215
 21
-1042.801154570414
 31
0.0
  0
LINE
  5
FD
330
7D
100
AcDbEntity
  8
0
  6
Continuous
 62
     7
100
AcDbLine
 10
-1036.944847600015
 20
-1042.801154570415
 30
0.0
 11
-1052.426667556126
 21
-1042.801154570415
 31
0.0
  0
LINE
  5
FE
330
7D
100
AcDbEntity
  8
0
  6
Continuous
 62
     7
100
AcDbLine
 10
-1036.944847600015
 20
-1042.801154570415
 30
0.0
 11
-1036.944847600015
 21
-1045.001154570413
 31
0.0
  0
LINE
  5
FF
330
7D
100
AcDbEntity
  8
0
  6
Continuous
 62
     7
100
AcDbLine
 10
-1094.866674940908
 20
-1042.801154570415
 30
0.0
 11
-1095.243513562343
 21
-1042.801154570415
 31
0.0
  0
LINE
  5
100
330
7D
100
AcDbEntity
  8
0
  6
Continuous
 62
     7
100
AcDbLine
 10
-1093.696870248168
 20
-1042.801154570415
 30
0.0
 11
-1093.696870248168
 21
-1045.001154570413
 31
0.0
  0
LINE
  5
101
330
7D
100
AcDbEntity
  8
0
  6
Continuous
 62
     7
100
AcDbLine
 10
-1094.866674940908
 20
-1045.001154570413
 30
0.0
 11
-1094.866674940908
 21
-1042.801154570415
 31
0.0
  0
LINE
  5
102
330
7D
100
AcDbEntity
  8
0
  6
Continuous
 62
     7
100
AcDbLine
 10
-1095.243513562343
 20
-1045.001154570413
 30
0.0
 11
-1094.866674940908
 21
-1045.001154570413
 31
0.0
  0
LINE
  5
103
330
7D
100
AcDbEntity
  8
0
  6
Continuous
 62
     7
100
AcDbLine
 10
-1095.243513562343
 20
-1042.801154570415
 30
0.0
 11
-1095.243513562343
 21
-1045.001154570413
 31
0.0
  0
LINE
  5
104
330
7D
100
AcDbEntity
  8
0
  6
Continuous
 62
     7
100
AcDbLine
 10
-1104.014957646093
 20
-1042.801154570415
 30
0.0
 11
-1114.014056090699
 21
-1042.801154570414
 31
0.0
  0
LINE
  5
105
330
7D
100
AcDbEntity
  8
0
  6
Continuous
 62
     7
100
AcDbLine
 10
-1114.014056090699
 20
-1045.001154570413
 30
0.0
 11
-1115.239535451215
 21
-1045.001154570413
 31
0.0
  0
LINE
  5
106
330
7D
100
AcDbEntity
  8
0
  6
Continuous
 62
     7
100
AcDbLine
 10
-1114.014056090699
 20
-1045.001154570413
 30
0.0
 11
-1114.014056090699
 21
-1042.801154570414
 31
0.0
  0
LINE
  5
107
330
7D
100
AcDbEntity
  8
0
  6
Continuous
 62
     7
100
AcDbLine
 10
-1115.239535451215
 20
-1045.001154570413
 30
0.0
 11
-1115.239535451215
 21
-1042.801154570414
 31
0.0
  0
LINE
  5
108
330
7D
100
AcDbEntity
  8
0
  6
Continuous
 62
     7
100
AcDbLine
 10
-1104.014957646093
 20
-1045.001154570413
 30
0.0
 11
-1104.014957646093
 21
-1042.801154570415
 31
0.0
  0
LINE
  5
109
330
7D
100
AcDbEntity
  8
0
  6
Continuous
 62
     7
100
AcDbLine
 10
-1095.243513562343
 20
-1042.801154570415
 30
0.0
 11
-1104.014957646093
 21
-1042.801154570415
 31
0.0
  0
LINE
  5
10A
330
7D
100
AcDbEntity
  8
0
  6
Continuous
 62
     7
100
AcDbLine
 10
-1034.9960213372
 20
-1045.001154570413
 30
0.0
 11
-1034.9960213372
 21
-1042.801154570415
 31
0.0
  0
LINE
  5
10B
330
7D
100
AcDbEntity
  8
0
  6
Continuous
 62
     7
100
AcDbLine
 10
-1034.9960213372
 20
-1042.801154570415
 30
0.0
 11
-1035.372859962085
 21
-1042.801154570415
 31
0.0
  0
LINE
  5
10C
330
7D
100
AcDbEntity
  8
0
  6
Continuous
 62
     7
100
AcDbLine
 10
-1026.224577256302
 20
-1042.801154570415
 30
0.0
 11
-1034.9960213372
 21
-1042.801154570415
 31
0.0
  0
LINE
  5
10D
330
7D
100
AcDbEntity
  8
0
  6
Continuous
 62
     7
100
AcDbLine
 10
-1014.999999451191
 20
-1042.801154570414
 30
0.0
 11
-1016.225478811697
 21
-1042.801154570415
 31
0.0
  0
LINE
  5
10E
330
7D
100
AcDbEntity
  8
0
  6
Continuous
 62
     7
100
AcDbLine
 10
-1014.999999451191
 20
-1045.001154570413
 30
0.0
 11
-1016.225478811697
 21
-1045.001154570413
 31
0.0
  0
LINE
  5
10F
330
7D
100
AcDbEntity
  8
0
  6
Continuous
 62
     7
100
AcDbLine
 10
-1016.225478811697
 20
-1042.801154570415
 30
0.0
 11
-1026.224577256302
 21
-1042.801154570415
 31
0.0
  0
LINE
  5
110
330
7D
100
AcDbEntity
  8
0
  6
Continuous
 62
     7
100
AcDbLine
 10
-1014.999999451191
 20
-1045.001154570413
 30
0.0
 11
-1014.999999451191
 21
-1042.801154570414
 31
0.0
  0
LINE
  5
111
330
7D
100
AcDbEntity
  8
0
  6
Continuous
 62
     7
100
AcDbLine
 10
-1016.225478811697
 20
-1045.001154570413
 30
0.0
 11
-1016.225478811697
 21
-1042.801154570415
 31
0.0
  0
LINE
  5
112
330
7D
100
AcDbEntity
  8
0
  6
Continuous
 62
     7
100
AcDbLine
 10
-1026.224577256302
 20
-1045.001154570413
 30
0.0
 11
-1026.224577256302
 21
-1042.801154570415
 31
0.0
  0
LINE
  5
113
330
7D
100
AcDbEntity
  8
0
  6
Continuous
 62
     7
100
AcDbLine
 10
-1035.372859962085
 20
-1042.801154570415
 30
0.0
 11
-1035.372859962085
 21
-1045.001154570413
 31
0.0
  0
LINE
  5
114
330
7D
100
AcDbEntity
  8
0
  6
Continuous
 62
     7
100
AcDbLine
 10
-1060.212395960432
 20
-1042.801154570415
 30
0.0
 11
-1060.212395960432
 21
-1045.001154570413
 31
0.0
  0
LINE
  5
115
330
7D
100
AcDbEntity
  8
0
  6
Continuous
 62
     7
100
AcDbLine
 10
-1059.835557335547
 20
-1042.801154570415
 30
0.0
 11
-1060.212395960432
 21
-1042.801154570415
 31
0.0
  0
LINE
  5
116
330
7D
100
AcDbEntity
  8
0
  6
Continuous
 62
     7
100
AcDbLine
 10
-1059.835557335547
 20
-1045.001154570413
 30
0.0
 11
-1059.835557335547
 21
-1042.801154570415
 31
0.0
  0
LINE
  5
117
330
7D
100
AcDbEntity
  8
0
  6
Continuous
 62
     7
100
AcDbLine
 10
-1060.212395960432
 20
-1045.001154570413
 30
0.0
 11
-1059.835557335547
 21
-1045.001154570413
 31
0.0
  0
LINE
  5
118
330
7D
100
AcDbEntity
  8
0
  6
Continuous
 62
     7
100
AcDbLine
 10
-1052.426667556126
 20
-1042.801154570415
 30
0.0
 11
-1052.426667556126
 21
-1045.001154570413
 31
0.0
  0
LINE
  5
119
330
7D
100
AcDbEntity
  8
0
  6
Continuous
 62
     7
100
AcDbLine
 10
-1061.382200653172
 20
-1042.801154570415
 30
0.0
 11
-1061.382200653172
 21
-1045.001154570413
 31
0.0
  0
LINE
  5
11A
330
7D
100
AcDbEntity
  8
0
  6
Continuous
 62
     7
100
AcDbLine
 10
-1059.835557335547
 20
-1045.001154570413
 30
0.0
 11
-1052.426667556126
 21
-1045.001154570413
 31
0.0
  0
LINE
  5
11B
330
7D
100
AcDbEntity
  8
0
  6
Continuous
 62
     7
100
AcDbLine
 10
-1061.382200653172
 20
-1042.801154570415
 30
0.0
 11
-1093.696870248168
 21
-1042.801154570415
 31
0.0
  0
ENDBLK
  5
7F
330
7D
100
AcDbEntity
  8
0
100
AcDbBlockEnd
  0
BLOCK
  5
82
330
80
100
AcDbEntity
  8
0
100
AcDbBlockBegin
  2
Drfsicht1
 70
     0
 10
-1065.119768154631
 20
-1043.901154594256
 30
0.0
  3
Drfsicht1
  1

  0
INSERT
  5
81
330
80
100
AcDbEntity
  8
0
100
AcDbBlockReference
  2
D-PT-16-TWIN-N-SELECT__2
 10
-1115.239535451215
 20
-1045.001154570413
 30
0.0
  0
MTEXT
  5
11C
330
80
100
AcDbEntity
  8
1
 62
     6
100
AcDbMText
 10
-1065.119768154631
 20
-1061.001154618099
 30
0.0
 40
5.0
 41
0.0
 71
     2
 72
     1
  1
 
  7
CONVERTER_11
 73
     1
 44
1.32052821128451
  0
DIMENSION
  5
129
330
80
100
AcDbEntity
  8
1
100
AcDbDimension
  2
*D17
 10
-1125.239535446802
 20
-1045.001154570413
 30
0.0
 11
-1128.664535446802
 21
-1032.561841460841
 31
0.0
 70
    32
  1
<>
 71
     5
 42
-1.0
 53
90.0
  3
ME10_DIM_10
100
AcDbAlignedDimension
 13
-1114.014056090699
 23
-1042.801154570414
 33
0.0
 14
-1114.014056090699
 24
-1045.001154570413
 34
0.0
 50
90.0
100
AcDbRotatedDimension
  0
ENDBLK
  5
83
330
80
100
AcDbEntity
  8
0
100
AcDbBlockEnd
  0
BLOCK
  5
85
330
84
100
AcDbEntity
  8
0
100
AcDbBlockBegin
  2
D-PT-16-TWIN-N-SELECT__3
 70
     0
 10
-947.0000015488068
 20
-980.8011535586575
 30
0.0
  3
D-PT-16-TWIN-N-SELECT__3
  1

  0
LINE
  5
12A
330
84
100
AcDbEntity
  8
0
  6
Continuous
 62
     7
100
AcDbLine
 10
-947.0000015488068
 20
-952.7345922408424
 30
0.0
 11
-945.7745221883006
 21
-945.3928339470384
 31
0.0
  0
LINE
  5
12B
330
84
100
AcDbEntity
  8
0
  6
Continuous
 62
     7
100
AcDbLine
 10
-945.7745221883006
 20
-945.3928339470384
 30
0.0
 11
-935.7754237436957
 21
-938.3913898408251
 31
0.0
  0
LINE
  5
12C
330
84
100
AcDbEntity
  8
0
  6
Continuous
 62
     7
100
AcDbLine
 10
-947.0000015488068
 20
-957.0820743792071
 30
0.0
 11
-947.0000015488068
 21
-952.7345922408424
 31
0.0
  0
LINE
  5
12D
330
84
100
AcDbEntity
  8
0
  6
Continuous
 62
     7
100
AcDbLine
 10
-847.9859449092985
 20
-945.4189810592422
 30
0.0
 11
-846.7604655487823
 21
-952.7607393532015
 31
0.0
  0
LINE
  5
12E
330
84
100
AcDbEntity
  8
0
  6
Continuous
 62
     7
100
AcDbLine
 10
-846.7604655487823
 20
-952.7607393532015
 30
0.0
 11
-846.7604655493174
 21
-957.1011535589946
 31
0.0
  0
LINE
  5
12F
330
84
100
AcDbEntity
  8
0
  6
Continuous
 62
     7
100
AcDbLine
 10
-867.13332605909
 20
-935.2249923974615
 30
0.0
 11
-866.7564874376545
 21
-935.2249923974615
 31
0.0
  0
LINE
  5
130
330
84
100
AcDbEntity
  8
0
  6
Continuous
 62
     7
100
AcDbLine
 10
-868.3031307518294
 20
-937.2511535602189
 30
0.0
 11
-867.13332605909
 21
-935.2249923974615
 31
0.0
  0
LINE
  5
131
330
84
100
AcDbEntity
  8
0
  6
Continuous
 62
     7
100
AcDbLine
 10
-866.7564874376545
 20
-935.2249923974615
 30
0.0
 11
-857.985043353905
 21
-938.4175369530277
 31
0.0
  0
LINE
  5
132
330
84
100
AcDbEntity
  8
0
  6
Continuous
 62
     7
100
AcDbLine
 10
-927.0039796627977
 20
-935.1988452862968
 30
0.0
 11
-926.6271410379122
 21
-935.1988452862968
 31
0.0
  0
LINE
  5
133
330
84
100
AcDbEntity
  8
0
  6
Continuous
 62
     7
100
AcDbLine
 10
-935.7754237436957
 20
-938.3913898408251
 30
0.0
 11
-927.0039796627977
 21
-935.1988452862968
 31
0.0
  0
LINE
  5
134
330
84
100
AcDbEntity
  8
0
  6
Continuous
 62
     7
100
AcDbLine
 10
-926.6271410379122
 20
-935.1988452862968
 30
0.0
 11
-925.0551533999826
 21
-937.921607744061
 31
0.0
  0
LINE
  5
135
330
84
100
AcDbEntity
  8
0
  6
Continuous
 62
     7
100
AcDbLine
 10
-925.0551533999826
 20
-937.921607744061
 30
0.0
 11
-909.5733334438715
 21
-937.921607744061
 31
0.0
  0
LINE
  5
136
330
84
100
AcDbEntity
  8
0
  6
Continuous
 62
     7
100
AcDbLine
 10
-947.0000015473156
 20
-977.8011535583646
 30
0.0
 11
-947.0000015473156
 21
-975.4679385167804
 31
0.0
  0
LINE
  5
137
330
84
100
AcDbEntity
  8
0
  6
Continuous
 62
     7
100
AcDbLine
 10
-935.1441416001094
 20
-980.8011535582712
 30
0.0
 11
-947.0000015473156
 21
-977.8011535583646
 31
0.0
  0
LINE
  5
138
330
84
100
AcDbEntity
  8
0
  6
Continuous
 62
     7
100
AcDbLine
 10
-846.7604655531953
 20
-980.8011535586575
 30
0.0
 11
-935.1441416001094
 21
-980.8011535582712
 31
0.0
  0
LINE
  5
139
330
84
100
AcDbEntity
  8
0
  6
Continuous
 62
     7
100
AcDbLine
 10
-846.7604655521844
 20
-972.6011535603149
 30
0.0
 11
-846.7604655531953
 21
-980.8011535586575
 31
0.0
  0
LINE
  5
13A
330
84
100
AcDbEntity
  8
0
  6
Continuous
 62
     7
100
AcDbLine
 10
-901.7876050395655
 20
-935.2249923974615
 30
0.0
 11
-900.617800346826
 21
-937.2511535602189
 31
0.0
  0
LINE
  5
13B
330
84
100
AcDbEntity
  8
0
  6
Continuous
 62
     7
100
AcDbLine
 10
-900.617800346826
 20
-937.2511535602189
 30
0.0
 11
-868.3031307518294
 21
-937.2511535602189
 31
0.0
  0
LINE
  5
13C
330
84
100
AcDbEntity
  8
0
  6
Continuous
 62
     7
100
AcDbLine
 10
-902.1644436644509
 20
-935.2249923974615
 30
0.0
 11
-901.7876050395655
 21
-935.2249923974615
 31
0.0
  0
LINE
  5
13D
330
84
100
AcDbEntity
  8
0
  6
Continuous
 62
     7
100
AcDbLine
 10
-909.5733334438715
 20
-937.921607744061
 30
0.0
 11
-902.1644436644509
 21
-935.2249923974615
 31
0.0
  0
LINE
  5
13E
330
84
100
AcDbEntity
  8
0
  6
Continuous
 62
     7
100
AcDbLine
 10
-857.985043353905
 20
-938.4175369530277
 30
0.0
 11
-847.9859449092985
 21
-945.4189810592422
 31
0.0
  0
ARC
  5
13F
330
84
100
AcDbEntity
  8
0
  6
Continuous
 62
     7
100
AcDbCircle
 10
-961.3000015473156
 20
-966.2750064491536
 30
0.0
 40
16.99999999999998
100
AcDbArc
 50
327.2645613118669
 51
32.73543869742736
  0
ARC
  5
140
330
84
100
AcDbEntity
  8
0
  6
Continuous
 62
     7
100
AcDbCircle
 10
-836.075078333164
 20
-964.8511535616313
 30
0.0
 40
13.20000000000011
100
AcDbArc
 50
144.047014283519
 51
215.9529856952839
  0
ENDBLK
  5
86
330
84
100
AcDbEntity
  8
0
100
AcDbBlockEnd
  0
BLOCK
  5
89
330
87
100
AcDbEntity
  8
0
100
AcDbBlockBegin
  2
Rckans1
 70
     0
 10
-896.880232845367
 20
-957.99999999999
 30
0.0
  3
Rckans1
  1

  0
INSERT
  5
88
330
87
100
AcDbEntity
  8
0
100
AcDbBlockReference
  2
D-PT-16-TWIN-N-SELECT__3
 10
-947.0000015488068
 20
-980.8011535586575
 30
0.0
  0
MTEXT
  5
141
330
87
100
AcDbEntity
  8
1
 62
     6
100
AcDbMText
 10
-896.8802328453686
 20
-985.801153570404
 30
0.0
 40
5.0
 41
0.0
 71
     2
 72
     1
  1
 
  7
CONVERTER_11
 73
     1
 44
1.32052821128451
  0
ENDBLK
  5
8A
330
87
100
AcDbEntity
  8
0
100
AcDbBlockEnd
  0
BLOCK
  5
8C
330
8B
100
AcDbEntity
  8
0
100
AcDbBlockBegin
  2
D-PT-16-TWIN-N-SELECT__4
 70
     0
 10
-978.1000000238425
 20
-980.8011535586576
 30
0.0
  3
D-PT-16-TWIN-N-SELECT__4
  1

  0
LINE
  5
142
330
8B
100
AcDbEntity
  8
0
  6
Continuous
 62
     7
100
AcDbLine
 10
-975.9000000238433
 20
-945.4189810592422
 30
0.0
 11
-975.9000000238433
 21
-938.4175369530277
 31
0.0
  0
LINE
  5
143
330
8B
100
AcDbEntity
  8
0
  6
Continuous
 62
     7
100
AcDbLine
 10
-975.9000000238433
 20
-945.4189810592422
 30
0.0
 11
-975.9000000238433
 21
-952.7607393532015
 31
0.0
  0
LINE
  5
144
330
8B
100
AcDbEntity
  8
0
  6
Continuous
 62
     7
100
AcDbLine
 10
-975.9000000238433
 20
-952.7607393532015
 30
0.0
 11
-975.9000000238431
 21
-957.1011535589947
 31
0.0
  0
LINE
  5
145
330
8B
100
AcDbEntity
  8
0
  6
Continuous
 62
     7
100
AcDbLine
 10
-975.9000000238433
 20
-980.8011535586576
 30
0.0
 11
-975.9000000238433
 21
-972.601153560315
 31
0.0
  0
LINE
  5
146
330
8B
100
AcDbEntity
  8
0
  6
Continuous
 62
     7
100
AcDbLine
 10
-978.1000000238423
 20
-972.6011535603149
 30
0.0
 11
-978.1000000238425
 21
-980.8011535586575
 31
0.0
  0
LINE
  5
147
330
8B
100
AcDbEntity
  8
0
  6
Continuous
 62
     7
100
AcDbLine
 10
-978.100000023842
 20
-957.1011535589946
 30
0.0
 11
-975.9000000238431
 21
-957.1011535589947
 31
0.0
  0
LINE
  5
148
330
8B
100
AcDbEntity
  8
0
  6
Continuous
 62
     7
100
AcDbLine
 10
-978.1000000238419
 20
-952.7607393532015
 30
0.0
 11
-978.100000023842
 21
-957.1011535589946
 31
0.0
  0
LINE
  5
149
330
8B
100
AcDbEntity
  8
0
  6
Continuous
 62
     7
100
AcDbLine
 10
-978.1000000238425
 20
-980.8011535586575
 30
0.0
 11
-975.9000000238433
 21
-980.8011535586576
 31
0.0
  0
LINE
  5
14A
330
8B
100
AcDbEntity
  8
0
  6
Continuous
 62
     7
100
AcDbLine
 10
-978.1000000238423
 20
-972.6011535603149
 30
0.0
 11
-975.9000000238433
 21
-972.601153560315
 31
0.0
  0
LINE
  5
14B
330
8B
100
AcDbEntity
  8
0
  6
Continuous
 62
     7
100
AcDbLine
 10
-975.9000000238433
 20
-952.7607393532015
 30
0.0
 11
-978.1000000238419
 21
-952.7607393532015
 31
0.0
  0
LINE
  5
14C
330
8B
100
AcDbEntity
  8
0
  6
Continuous
 62
     7
100
AcDbLine
 10
-975.9000000238433
 20
-972.601153560315
 30
0.0
 11
-975.9000000238431
 21
-957.1011535589947
 31
0.0
  0
LINE
  5
14D
330
8B
100
AcDbEntity
  8
0
  6
Continuous
 62
     7
100
AcDbLine
 10
-978.1000000238415
 20
-938.4175369530277
 30
0.0
 11
-978.1000000238416
 21
-945.4189810592422
 31
0.0
  0
LINE
  5
14E
330
8B
100
AcDbEntity
  8
0
  6
Continuous
 62
     7
100
AcDbLine
 10
-978.1000000238413
 20
-935.2249923974615
 30
0.0
 11
-975.9000000238433
 21
-935.2249923974615
 31
0.0
  0
LINE
  5
14F
330
8B
100
AcDbEntity
  8
0
  6
Continuous
 62
     7
100
AcDbLine
 10
-978.1000000238416
 20
-945.4189810592422
 30
0.0
 11
-978.1000000238419
 21
-952.7607393532015
 31
0.0
  0
LINE
  5
150
330
8B
100
AcDbEntity
  8
0
  6
Continuous
 62
     7
100
AcDbLine
 10
-975.9000000238433
 20
-938.4175369530277
 30
0.0
 11
-978.1000000238415
 21
-938.4175369530277
 31
0.0
  0
LINE
  5
151
330
8B
100
AcDbEntity
  8
0
  6
Continuous
 62
     7
100
AcDbLine
 10
-978.1000000238413
 20
-935.2249923974615
 30
0.0
 11
-978.1000000238415
 21
-938.4175369530277
 31
0.0
  0
LINE
  5
152
330
8B
100
AcDbEntity
  8
0
  6
Continuous
 62
     7
100
AcDbLine
 10
-978.1000000238412
 20
-935.1988452862968
 30
0.0
 11
-978.1000000238413
 21
-935.2249923974615
 31
0.0
  0
LINE
  5
153
330
8B
100
AcDbEntity
  8
0
  6
Continuous
 62
     7
100
AcDbLine
 10
-975.9000000238433
 20
-945.4189810592422
 30
0.0
 11
-978.1000000238416
 21
-945.4189810592422
 31
0.0
  0
LINE
  5
154
330
8B
100
AcDbEntity
  8
0
  6
Continuous
 62
     7
100
AcDbLine
 10
-975.9000000238433
 20
-935.2249923974615
 30
0.0
 11
-975.9000000238433
 21
-938.4175369530277
 31
0.0
  0
LINE
  5
155
330
8B
100
AcDbEntity
  8
0
  6
Continuous
 62
     7
100
AcDbLine
 10
-975.9000000238433
 20
-935.1988452862969
 30
0.0
 11
-975.9000000238433
 21
-935.2249923974615
 31
0.0
  0
LINE
  5
156
330
8B
100
AcDbEntity
  8
0
  6
Continuous
 62
     7
100
AcDbLine
 10
-978.1000000238412
 20
-935.1988452862968
 30
0.0
 11
-975.9000000238433
 21
-935.1988452862969
 31
0.0
  0
LINE
  5
157
330
8B
100
AcDbEntity
  8
0
  6
Continuous
 62
     7
100
AcDbLine
 10
-978.1000000238423
 20
-972.6011535603149
 30
0.0
 11
-978.100000023842
 21
-957.1011535589946
 31
0.0
  0
ENDBLK
  5
8D
330
8B
100
AcDbEntity
  8
0
100
AcDbBlockEnd
  0
BLOCK
  5
90
330
8E
100
AcDbEntity
  8
0
100
AcDbBlockBegin
  2
SA_Links1
 70
     0
 10
-977.0
 20
-957.99999999999
 30
0.0
  3
SA_Links1
  1

  0
INSERT
  5
8F
330
8E
100
AcDbEntity
  8
0
100
AcDbBlockReference
  2
D-PT-16-TWIN-N-SELECT__4
 10
-978.1000000238425
 20
-980.8011535586576
 30
0.0
  0
MTEXT
  5
158
330
8E
100
AcDbEntity
  8
1
 62
     6
100
AcDbMText
 10
-977.0
 20
-985.801153570404
 30
0.0
 40
5.0
 41
0.0
 71
     2
 72
     1
  1
 
  7
CONVERTER_11
 73
     1
 44
1.32052821128451
  0
ENDBLK
  5
91
330
8E
100
AcDbEntity
  8
0
100
AcDbBlockEnd
  0
BLOCK
  5
93
330
92
100
AcDbEntity
  8
0
100
AcDbBlockBegin
  2
D-PT-16-TWIN-N-SELECT__5
 70
     0
 10
-1160.3395362854
 20
-980.8011535582712
 30
0.0
  3
D-PT-16-TWIN-N-SELECT__5
  1

  0
LINE
  5
159
330
92
100
AcDbEntity
  8
0
  6
Continuous
 62
     7
100
AcDbLine
 10
-1158.139536285401
 20
-977.8011535583645
 30
0.0
 11
-1158.139536285401
 21
-975.4679385167802
 31
0.0
  0
LINE
  5
15A
330
92
100
AcDbEntity
  8
0
  6
Continuous
 62
     7
100
AcDbLine
 10
-1158.139536285401
 20
-980.801153558271
 30
0.0
 11
-1158.139536285401
 21
-977.8011535583645
 31
0.0
  0
LINE
  5
15B
330
92
100
AcDbEntity
  8
0
  6
Continuous
 62
     7
100
AcDbLine
 10
-1158.139536285401
 20
-957.0820743792071
 30
0.0
 11
-1158.139536285401
 21
-975.4679385167802
 31
0.0
  0
LINE
  5
15C
330
92
100
AcDbEntity
  8
0
  6
Continuous
 62
     7
100
AcDbLine
 10
-1160.3395362854
 20
-935.1988452862969
 30
0.0
 11
-1160.3395362854
 21
-938.3913898408251
 31
0.0
  0
LINE
  5
15D
330
92
100
AcDbEntity
  8
0
  6
Continuous
 62
     7
100
AcDbLine
 10
-1160.3395362854
 20
-935.1988452862969
 30
0.0
 11
-1158.139536285402
 21
-935.1988452862968
 31
0.0
  0
LINE
  5
15E
330
92
100
AcDbEntity
  8
0
  6
Continuous
 62
     7
100
AcDbLine
 10
-1158.139536285402
 20
-938.3913898408251
 30
0.0
 11
-1158.139536285402
 21
-935.1988452862968
 31
0.0
  0
LINE
  5
15F
330
92
100
AcDbEntity
  8
0
  6
Continuous
 62
     7
100
AcDbLine
 10
-1158.139536285402
 20
-945.3928339470384
 30
0.0
 11
-1158.139536285402
 21
-938.3913898408251
 31
0.0
  0
LINE
  5
160
330
92
100
AcDbEntity
  8
0
  6
Continuous
 62
     7
100
AcDbLine
 10
-1160.3395362854
 20
-975.4679385167804
 30
0.0
 11
-1160.3395362854
 21
-977.8011535583646
 31
0.0
  0
LINE
  5
161
330
92
100
AcDbEntity
  8
0
  6
Continuous
 62
     7
100
AcDbLine
 10
-1160.3395362854
 20
-952.7345922408424
 30
0.0
 11
-1160.3395362854
 21
-957.0820743792071
 31
0.0
  0
LINE
  5
162
330
92
100
AcDbEntity
  8
0
  6
Continuous
 62
     7
100
AcDbLine
 10
-1160.3395362854
 20
-977.8011535583646
 30
0.0
 11
-1160.3395362854
 21
-980.8011535582712
 31
0.0
  0
LINE
  5
163
330
92
100
AcDbEntity
  8
0
  6
Continuous
 62
     7
100
AcDbLine
 10
-1160.3395362854
 20
-945.3928339470385
 30
0.0
 11
-1160.3395362854
 21
-938.3913898408251
 31
0.0
  0
LINE
  5
164
330
92
100
AcDbEntity
  8
0
  6
Continuous
 62
     7
100
AcDbLine
 10
-1158.139536285401
 20
-957.0820743792071
 30
0.0
 11
-1158.139536285401
 21
-952.7345922408424
 31
0.0
  0
LINE
  5
165
330
92
100
AcDbEntity
  8
0
  6
Continuous
 62
     7
100
AcDbLine
 10
-1158.139536285401
 20
-952.7345922408424
 30
0.0
 11
-1158.139536285402
 21
-945.3928339470384
 31
0.0
  0
LINE
  5
166
330
92
100
AcDbEntity
  8
0
  6
Continuous
 62
     7
100
AcDbLine
 10
-1160.3395362854
 20
-938.3913898408251
 30
0.0
 11
-1158.139536285402
 21
-938.3913898408251
 31
0.0
  0
LINE
  5
167
330
92
100
AcDbEntity
  8
0
  6
Continuous
 62
     7
100
AcDbLine
 10
-1158.139536285401
 20
-957.0820743792071
 30
0.0
 11
-1160.3395362854
 21
-957.0820743792071
 31
0.0
  0
LINE
  5
168
330
92
100
AcDbEntity
  8
0
  6
Continuous
 62
     7
100
AcDbLine
 10
-1158.139536285401
 20
-977.8011535583645
 30
0.0
 11
-1160.3395362854
 21
-977.8011535583646
 31
0.0
  0
LINE
  5
169
330
92
100
AcDbEntity
  8
0
  6
Continuous
 62
     7
100
AcDbLine
 10
-1160.3395362854
 20
-980.8011535582712
 30
0.0
 11
-1158.139536285401
 21
-980.801153558271
 31
0.0
  0
LINE
  5
16A
330
92
100
AcDbEntity
  8
0
  6
Continuous
 62
     7
100
AcDbLine
 10
-1158.139536285401
 20
-975.4679385167802
 30
0.0
 11
-1160.3395362854
 21
-975.4679385167804
 31
0.0
  0
LINE
  5
16B
330
92
100
AcDbEntity
  8
0
  6
Continuous
 62
     7
100
AcDbLine
 10
-1160.3395362854
 20
-945.3928339470385
 30
0.0
 11
-1158.139536285402
 21
-945.3928339470384
 31
0.0
  0
LINE
  5
16C
330
92
100
AcDbEntity
  8
0
  6
Continuous
 62
     7
100
AcDbLine
 10
-1160.3395362854
 20
-952.7345922408424
 30
0.0
 11
-1158.139536285401
 21
-952.7345922408424
 31
0.0
  0
LINE
  5
16D
330
92
100
AcDbEntity
  8
0
  6
Continuous
 62
     7
100
AcDbLine
 10
-1160.3395362854
 20
-952.7345922408424
 30
0.0
 11
-1160.3395362854
 21
-945.3928339470385
 31
0.0
  0
LINE
  5
16E
330
92
100
AcDbEntity
  8
0
  6
Continuous
 62
     7
100
AcDbLine
 10
-1160.3395362854
 20
-957.0820743792071
 30
0.0
 11
-1160.3395362854
 21
-975.4679385167804
 31
0.0
  0
ENDBLK
  5
94
330
92
100
AcDbEntity
  8
0
100
AcDbBlockEnd
  0
BLOCK
  5
97
330
95
100
AcDbEntity
  8
0
100
AcDbBlockBegin
  2
SA_Rechts1
 70
     0
 10
-1159.239536309243
 20
-957.99999999999
 30
0.0
  3
SA_Rechts1
  1

  0
INSERT
  5
96
330
95
100
AcDbEntity
  8
0
100
AcDbBlockReference
  2
D-PT-16-TWIN-N-SELECT__5
 10
-1160.3395362854
 20
-980.8011535582712
 30
0.0
  0
MTEXT
  5
16F
330
95
100
AcDbEntity
  8
1
 62
     6
100
AcDbMText
 10
-1159.239536309243
 20
-985.801153570404
 30
0.0
 40
5.0
 41
0.0
 71
     2
 72
     1
  1
 
  7
CONVERTER_11
 73
     1
 44
1.32052821128451
  0
ENDBLK
  5
98
330
95
100
AcDbEntity
  8
0
100
AcDbBlockEnd
  0
BLOCK
  5
9A
330
99
100
AcDbEntity
  8
0
100
AcDbBlockBegin
  2
D-PT-16-TWIN-N-SELECT__6
 70
     0
 10
-1115.239535451215
 20
-980.8011535586576
 30
0.0
  3
D-PT-16-TWIN-N-SELECT__6
  1

  0
LINE
  5
170
330
99
100
AcDbEntity
  8
0
  6
Continuous
 62
     7
100
AcDbLine
 10
-1035.372859962085
 20
-935.1988452862969
 30
0.0
 11
-1034.9960213372
 21
-935.1988452862969
 31
0.0
  0
LINE
  5
171
330
99
100
AcDbEntity
  8
0
  6
Continuous
 62
     7
100
AcDbLine
 10
-1034.9960213372
 20
-935.1988452862969
 30
0.0
 11
-1026.224577256302
 21
-938.3913898408251
 31
0.0
  0
LINE
  5
172
330
99
100
AcDbEntity
  8
0
  6
Continuous
 62
     7
100
AcDbLine
 10
-1014.999999451191
 20
-952.7345922408424
 30
0.0
 11
-1014.999999451191
 21
-957.0820743792071
 31
0.0
  0
LINE
  5
173
330
99
100
AcDbEntity
  8
0
  6
Continuous
 62
     7
100
AcDbLine
 10
-1014.999999451191
 20
-952.7345922408424
 30
0.0
 11
-1016.225478811697
 21
-945.3928339470385
 31
0.0
  0
LINE
  5
174
330
99
100
AcDbEntity
  8
0
  6
Continuous
 62
     7
100
AcDbLine
 10
-1035.372859962085
 20
-935.1988452862969
 30
0.0
 11
-1036.944847600015
 21
-937.921607744061
 31
0.0
  0
LINE
  5
175
330
99
100
AcDbEntity
  8
0
  6
Continuous
 62
     7
100
AcDbLine
 10
-1016.225478811697
 20
-945.3928339470385
 30
0.0
 11
-1026.224577256302
 21
-938.3913898408251
 31
0.0
  0
LINE
  5
176
330
99
100
AcDbEntity
  8
0
  6
Continuous
 62
     7
100
AcDbLine
 10
-1115.239535446802
 20
-980.8011535586576
 30
0.0
 11
-1115.239535447813
 21
-972.601153560315
 31
0.0
  0
LINE
  5
177
330
99
100
AcDbEntity
  8
0
  6
Continuous
 62
     7
100
AcDbLine
 10
-1115.239535451215
 20
-952.7607393532015
 30
0.0
 11
-1115.23953545068
 21
-957.1011535589947
 31
0.0
  0
LINE
  5
178
330
99
100
AcDbEntity
  8
0
  6
Continuous
 62
     7
100
AcDbLine
 10
-1114.014056090699
 20
-945.4189810592422
 30
0.0
 11
-1115.239535451215
 21
-952.7607393532015
 31
0.0
  0
LINE
  5
179
330
99
100
AcDbEntity
  8
0
  6
Continuous
 62
     7
100
AcDbLine
 10
-1095.243513562343
 20
-935.2249923974615
 30
0.0
 11
-1094.866674940908
 21
-935.2249923974615
 31
0.0
  0
LINE
  5
17A
330
99
100
AcDbEntity
  8
0
  6
Continuous
 62
     7
100
AcDbLine
 10
-1095.243513562343
 20
-935.2249923974615
 30
0.0
 11
-1104.014957646093
 21
-938.4175369530277
 31
0.0
  0
LINE
  5
17B
330
99
100
AcDbEntity
  8
0
  6
Continuous
 62
     7
100
AcDbLine
 10
-1093.696870248168
 20
-937.2511535602189
 30
0.0
 11
-1094.866674940908
 21
-935.2249923974615
 31
0.0
  0
LINE
  5
17C
330
99
100
AcDbEntity
  8
0
  6
Continuous
 62
     7
100
AcDbLine
 10
-1093.696870248168
 20
-937.2511535602189
 30
0.0
 11
-1061.382200653172
 21
-937.2511535602189
 31
0.0
  0
LINE
  5
17D
330
99
100
AcDbEntity
  8
0
  6
Continuous
 62
     7
100
AcDbLine
 10
-1060.212395960432
 20
-935.2249923974615
 30
0.0
 11
-1059.835557335547
 21
-935.2249923974615
 31
0.0
  0
LINE
  5
17E
330
99
100
AcDbEntity
  8
0
  6
Continuous
 62
     7
100
AcDbLine
 10
-1060.212395960432
 20
-935.2249923974615
 30
0.0
 11
-1061.382200653172
 21
-937.2511535602189
 31
0.0
  0
LINE
  5
17F
330
99
100
AcDbEntity
  8
0
  6
Continuous
 62
     7
100
AcDbLine
 10
-1059.835557335547
 20
-935.2249923974615
 30
0.0
 11
-1052.426667556126
 21
-937.9216077440611
 31
0.0
  0
LINE
  5
180
330
99
100
AcDbEntity
  8
0
  6
Continuous
 62
     7
100
AcDbLine
 10
-1026.855859399888
 20
-980.8011535582712
 30
0.0
 11
-1115.239535446802
 21
-980.8011535586576
 31
0.0
  0
LINE
  5
181
330
99
100
AcDbEntity
  8
0
  6
Continuous
 62
     7
100
AcDbLine
 10
-1014.999999452682
 20
-977.8011535583646
 30
0.0
 11
-1026.855859399888
 21
-980.8011535582712
 31
0.0
  0
LINE
  5
182
330
99
100
AcDbEntity
  8
0
  6
Continuous
 62
     7
100
AcDbLine
 10
-1014.999999452682
 20
-975.4679385167804
 30
0.0
 11
-1014.999999452682
 21
-977.8011535583646
 31
0.0
  0
LINE
  5
183
330
99
100
AcDbEntity
  8
0
  6
Continuous
 62
     7
100
AcDbLine
 10
-1036.944847600015
 20
-937.921607744061
 30
0.0
 11
-1052.426667556126
 21
-937.9216077440611
 31
0.0
  0
LINE
  5
184
330
99
100
AcDbEntity
  8
0
  6
Continuous
 62
     7
100
AcDbLine
 10
-1114.014056090699
 20
-945.4189810592422
 30
0.0
 11
-1104.014957646093
 21
-938.4175369530277
 31
0.0
  0
ARC
  5
185
330
99
100
AcDbEntity
  8
0
  6
Continuous
 62
     7
100
AcDbCircle
 10
-1000.699999452682
 20
-966.2750064491536
 30
0.0
 40
17.00000000000017
100
AcDbArc
 50
147.264561302573
 51
212.7354386881331
  0
ARC
  5
186
330
99
100
AcDbEntity
  8
0
  6
Continuous
 62
     7
100
AcDbCircle
 10
-1125.924922666834
 20
-964.8511535616313
 30
0.0
 40
13.2000000000004
100
AcDbArc
 50
324.0470143047169
 51
35.95298571647914
  0
ENDBLK
  5
9B
330
99
100
AcDbEntity
  8
0
100
AcDbBlockEnd
  0
BLOCK
  5
9E
330
9C
100
AcDbEntity
  8
0
100
AcDbBlockBegin
  2
Vordans1
 70
     0
 10
-1065.119768154631
 20
-957.99999999999
 30
0.0
  3
Vordans1
  1

  0
INSERT
  5
9D
330
9C
100
AcDbEntity
  8
0
100
AcDbBlockReference
  2
D-PT-16-TWIN-N-SELECT__6
 10
-1115.239535451215
 20
-980.8011535586576
 30
0.0
  0
MTEXT
  5
187
330
9C
100
AcDbEntity
  8
1
 62
     6
100
AcDbMText
 10
-1065.119768154631
 20
-985.801153570404
 30
0.0
 40
5.0
 41
0.0
 71
     2
 72
     1
  1
 
  7
CONVERTER_11
 73
     1
 44
1.32052821128451
  0
DIMENSION
  5
192
330
9C
100
AcDbEntity
  8
1
100
AcDbDimension
  2
*D18
 10
-1125.239535446802
 20
-980.8011535586576
 30
0.0
 11
-1128.664535446802
 21
-959.2632127899323
 31
0.0
 70
    32
  1
<>
 71
     5
 42
-1.0
 53
90.0
  3
ME10_DIM_11
100
AcDbAlignedDimension
 13
-1095.243513562343
 23
-935.2249923974615
 33
0.0
 14
-1115.239535446802
 24
-980.8011535586576
 34
0.0
 50
90.0
100
AcDbRotatedDimension
  0
DIMENSION
  5
19D
330
9C
100
AcDbEntity
  8
1
100
AcDbDimension
  2
*D19
 10
-1115.239535447813
 20
-993.798812312665
 30
0.0
 11
-1063.15778156142
 21
-990.373812312665
 31
0.0
 70
    32
  1
<>
 71
     5
 42
-1.0
 53
0.00013888888889
  3
ME10_DIM_12
100
AcDbAlignedDimension
 13
-1014.999999452682
 23
-975.4679385167804
 33
0.0
 14
-1115.239535447813
 24
-972.601153560315
 34
0.0
100
AcDbRotatedDimension
  0
ENDBLK
  5
9F
330
9C
100
AcDbEntity
  8
0
100
AcDbBlockEnd
  0
BLOCK
  5
A1
330
A0
100
AcDbEntity
  8
0
100
AcDbBlockBegin
  2
_rahmen
 70
     0
 10
-792.5000009290115
 20
-1185.475739765968
 30
0.0
  3
_rahmen
  1

  0
LINE
  5
19E
330
A0
100
AcDbEntity
  8
1
  6
DOT_CENTER
 62
     2
100
AcDbLine
 10
-918.058150569199
 20
-1159.350739765969
 30
0.0
 11
-912.558150569199
 21
-1159.350739765969
 31
0.0
  0
LINE
  5
19F
330
A0
100
AcDbEntity
  8
1
  6
PHANTOM
 62
     2
100
AcDbLine
 10
-909.308150569199
 20
-1156.600739765968
 30
0.0
 11
-909.308150569199
 21
-1162.100739765968
 31
0.0
  0
LINE
  5
1A0
330
A0
100
AcDbEntity
  8
1
  6
PHANTOM
 62
     2
100
AcDbLine
 10
-906.558150569199
 20
-1159.350739765969
 30
0.0
 11
-912.058150569199
 21
-1159.350739765969
 31
0.0
  0
LINE
  5
1A1
330
A0
100
AcDbEntity
  8
1
  6
Continuous
 62
     6
100
AcDbLine
 10
-922.0448054557615
 20
-1154.975739765968
 30
0.0
 11
-792.5000009290098
 21
-1154.975739765968
 31
0.0
  0
LINE
  5
1A2
330
A0
100
AcDbEntity
  8
1
  6
Continuous
 62
     7
100
AcDbLine
 10
-903.8448054557616
 20
-1176.225739765968
 30
0.0
 11
-885.6448054557616
 21
-1176.225739765968
 31
0.0
  0
LINE
  5
1A3
330
A0
100
AcDbEntity
  8
1
  6
Continuous
 62
     6
100
AcDbLine
 10
-903.8448054557616
 20
-1180.475739765968
 30
0.0
 11
-922.0448054557615
 21
-1180.475739765968
 31
0.0
  0
LINE
  5
1A4
330
A0
100
AcDbEntity
  8
1
  6
Continuous
 62
     7
100
AcDbLine
 10
-903.8448054557616
 20
-1176.225739765968
 30
0.0
 11
-903.8448054557616
 21
-1180.475739765968
 31
0.0
  0
LINE
  5
1A5
330
A0
100
AcDbEntity
  8
1
  6
Continuous
 62
     7
100
AcDbLine
 10
-885.6448054557616
 20
-1176.225739765968
 30
0.0
 11
-885.6448054557616
 21
-1180.475739765968
 31
0.0
  0
LINE
  5
1A6
330
A0
100
AcDbEntity
  8
1
  6
Continuous
 62
     7
100
AcDbLine
 10
-922.0448054557615
 20
-1176.225739765968
 30
0.0
 11
-922.0448054557615
 21
-1180.475739765968
 31
0.0
  0
LINE
  5
1A7
330
A0
100
AcDbEntity
  8
1
  6
Continuous
 62
     7
100
AcDbLine
 10
-922.0448054557615
 20
-1176.225739765968
 30
0.0
 11
-903.8448054557616
 21
-1176.225739765968
 31
0.0
  0
LINE
  5
1A8
330
A0
100
AcDbEntity
  8
1
  6
Continuous
 62
     2
100
AcDbLine
 10
-912.808150569199
 20
-1156.850739765969
 30
0.0
 11
-912.808150569199
 21
-1161.850739765969
 31
0.0
  0
LINE
  5
1A9
330
A0
100
AcDbEntity
  8
1
  6
Continuous
 62
     2
100
AcDbLine
 10
-912.808150569199
 20
-1161.850739765969
 30
0.0
 11
-917.808150569199
 21
-1160.600739765969
 31
0.0
  0
LINE
  5
1AA
330
A0
100
AcDbEntity
  8
1
  6
Continuous
 62
     2
100
AcDbLine
 10
-917.808150569199
 20
-1160.600739765969
 30
0.0
 11
-917.808150569199
 21
-1158.100739765969
 31
0.0
  0
LINE
  5
1AB
330
A0
100
AcDbEntity
  8
1
  6
Continuous
 62
     2
100
AcDbLine
 10
-917.808150569199
 20
-1158.100739765969
 30
0.0
 11
-912.808150569199
 21
-1156.850739765969
 31
0.0
  0
LINE
  5
1AC
330
A0
100
AcDbEntity
  8
1
  6
Continuous
 62
     6
100
AcDbLine
 10
-792.5000009290098
 20
-1163.475739765968
 30
0.0
 11
-792.5000009290103
 21
-1171.975739765968
 31
0.0
  0
LINE
  5
1AD
330
A0
100
AcDbEntity
  8
1
  6
Continuous
 62
     6
100
AcDbLine
 10
-885.6448054557616
 20
-1180.475739765968
 30
0.0
 11
-886.0000009290115
 21
-1180.475739765968
 31
0.0
  0
LINE
  5
1AE
330
A0
100
AcDbEntity
  8
1
  6
Continuous
 62
     7
100
AcDbLine
 10
-885.6448054557616
 20
-1163.475739765968
 30
0.0
 11
-885.6448054557616
 21
-1176.225739765968
 31
0.0
  0
LINE
  5
1AF
330
A0
100
AcDbEntity
  8
1
  6
Continuous
 62
     7
100
AcDbLine
 10
-922.0448054557615
 20
-1163.475739765968
 30
0.0
 11
-922.0448054557615
 21
-1176.225739765968
 31
0.0
  0
LINE
  5
1B0
330
A0
100
AcDbEntity
  8
1
  6
Continuous
 62
     6
100
AcDbLine
 10
-885.6448054557616
 20
-1180.475739765968
 30
0.0
 11
-836.0000009290115
 21
-1180.475739765968
 31
0.0
  0
LINE
  5
1B1
330
A0
100
AcDbEntity
  8
1
  6
Continuous
 62
     6
100
AcDbLine
 10
-792.5000009290117
 20
-1180.475739765968
 30
0.0
 11
-792.5000009290103
 21
-1171.975739765968
 31
0.0
  0
LINE
  5
1B2
330
A0
100
AcDbEntity
  8
1
  6
Continuous
 62
     6
100
AcDbLine
 10
-922.0448054557615
 20
-1163.475739765968
 30
0.0
 11
-885.6448054557616
 21
-1163.475739765968
 31
0.0
  0
LINE
  5
1B3
330
A0
100
AcDbEntity
  8
1
  6
Continuous
 62
     6
100
AcDbLine
 10
-886.0000009290115
 20
-1180.475739765968
 30
0.0
 11
-903.8448054557616
 21
-1180.475739765968
 31
0.0
  0
LINE
  5
1B4
330
A0
100
AcDbEntity
  8
1
  6
Continuous
 62
     6
100
AcDbLine
 10
-836.0000009290115
 20
-1180.475739765968
 30
0.0
 11
-792.5000009290117
 21
-1180.475739765968
 31
0.0
  0
LINE
  5
1B5
102
{ACAD_REACTORS
330
2E3
330
2E4
102
}
330
A0
100
AcDbEntity
  8
0
  6
Continuous
 62
     2
100
AcDbLine
 10
-914.5301795136147
 20
-1168.403225009756
 30
0.0
 11
-914.5301795136147
 21
-1167.79768972125
 31
0.0
  0
LINE
  5
1B6
102
{ACAD_REACTORS
330
2E3
330
2E4
102
}
330
A0
100
AcDbEntity
  8
0
  6
Continuous
 62
     2
100
AcDbLine
 10
-914.5301795136147
 20
-1171.203359616387
 30
0.0
 11
-914.5301795136147
 21
-1170.621508209692
 31
0.0
  0
LINE
  5
1B7
102
{ACAD_REACTORS
330
2E5
330
2E6
102
}
330
A0
100
AcDbEntity
  8
0
  6
Continuous
 62
     2
100
AcDbLine
 10
-891.9006930781356
 20
-1170.913695548265
 30
0.0
 11
-891.9006930781356
 21
-1173.182239765952
 31
0.0
  0
LINE
  5
1B8
102
{ACAD_REACTORS
330
2E5
330
2E6
102
}
330
A0
100
AcDbEntity
  8
0
  6
Continuous
 62
     2
100
AcDbLine
 10
-893.2817468571232
 20
-1170.128430242141
 30
0.0
 11
-889.8968013384945
 21
-1170.128430242141
 31
0.0
  0
LINE
  5
1B9
102
{ACAD_REACTORS
330
2E5
330
2E6
102
}
330
A0
100
AcDbEntity
  8
0
  6
Continuous
 62
     2
100
AcDbLine
 10
-889.8968013384945
 20
-1170.913695548265
 30
0.0
 11
-889.8968013384945
 21
-1170.128430242141
 31
0.0
  0
LINE
  5
1BA
102
{ACAD_REACTORS
330
2E5
330
2E6
102
}
330
A0
100
AcDbEntity
  8
0
  6
Continuous
 62
     2
100
AcDbLine
 10
-890.7079003759679
 20
-1170.913695548265
 30
0.0
 11
-889.8968013384945
 21
-1170.913695548265
 31
0.0
  0
LINE
  5
1BB
102
{ACAD_REACTORS
330
2E5
330
2E6
102
}
330
A0
100
AcDbEntity
  8
0
  6
Continuous
 62
     2
100
AcDbLine
 10
-890.7079003759679
 20
-1173.182239765952
 30
0.0
 11
-890.7079003759679
 21
-1170.913695548265
 31
0.0
  0
LINE
  5
1BC
102
{ACAD_REACTORS
330
2E5
330
2E6
102
}
330
A0
100
AcDbEntity
  8
0
  6
Continuous
 62
     2
100
AcDbLine
 10
-891.9006930781356
 20
-1173.182239765952
 30
0.0
 11
-890.7079003759679
 21
-1173.182239765952
 31
0.0
  0
LINE
  5
1BD
102
{ACAD_REACTORS
330
2DB
330
2DC
102
}
330
A0
100
AcDbEntity
  8
0
  6
Continuous
 62
     2
100
AcDbLine
 10
-892.5972840162001
 20
-1166.769239765967
 30
0.0
 11
-894.0000082339493
 21
-1166.769239765967
 31
0.0
  0
LINE
  5
1BE
102
{ACAD_REACTORS
330
2DB
330
2DC
102
}
330
A0
100
AcDbEntity
  8
0
  6
Continuous
 62
     2
100
AcDbLine
 10
-892.5972840162001
 20
-1166.769239765967
 30
0.0
 11
-891.9961164943082
 21
-1167.449063087522
 31
0.0
  0
LINE
  5
1BF
102
{ACAD_REACTORS
330
2DB
330
2DC
102
}
330
A0
100
AcDbEntity
  8
0
  6
Continuous
 62
     2
100
AcDbLine
 10
-891.9961164943082
 20
-1167.449063087522
 30
0.0
 11
-891.3949489724155
 21
-1166.769239765967
 31
0.0
  0
LINE
  5
1C0
102
{ACAD_REACTORS
330
2DB
330
2DC
102
}
330
A0
100
AcDbEntity
  8
0
  6
Continuous
 62
     2
100
AcDbLine
 10
-891.2947543854348
 20
-1168.242190296003
 30
0.0
 11
-889.9922247546682
 21
-1166.769239765967
 31
0.0
  0
LINE
  5
1C1
102
{ACAD_REACTORS
330
2DB
330
2DC
102
}
330
A0
100
AcDbEntity
  8
0
  6
Continuous
 62
     2
100
AcDbLine
 10
-891.2947543854348
 20
-1168.242190296003
 30
0.0
 11
-889.8968013384945
 21
-1169.823049289778
 31
0.0
  0
LINE
  5
1C2
102
{ACAD_REACTORS
330
2DB
330
2DC
102
}
330
A0
100
AcDbEntity
  8
0
  6
Continuous
 62
     2
100
AcDbLine
 10
-891.2995255562428
 20
-1169.823049289778
 30
0.0
 11
-889.8968013384945
 21
-1169.823049289778
 31
0.0
  0
LINE
  5
1C3
102
{ACAD_REACTORS
330
2DB
330
2DC
102
}
330
A0
100
AcDbEntity
  8
0
  6
Continuous
 62
     2
100
AcDbLine
 10
-891.9961164943082
 20
-1169.035317504484
 30
0.0
 11
-891.2995255562428
 21
-1169.823049289778
 31
0.0
  0
LINE
  5
1C4
102
{ACAD_REACTORS
330
2D9
330
2DA
102
}
330
A0
100
AcDbEntity
  8
0
  6
Continuous
 62
     2
100
AcDbLine
 10
-895.455215330592
 20
-1166.769239765967
 30
0.0
 11
-894.214710920339
 21
-1166.769239765967
 31
0.0
  0
LINE
  5
1C5
102
{ACAD_REACTORS
330
2D9
330
2DA
102
}
330
A0
100
AcDbEntity
  8
0
  6
Continuous
 62
     2
100
AcDbLine
 10
-894.214710920339
 20
-1166.769239765967
 30
0.0
 11
-894.214710920339
 21
-1169.823049289778
 31
0.0
  0
LINE
  5
1C6
102
{ACAD_REACTORS
330
2D9
330
2DA
102
}
330
A0
100
AcDbEntity
  8
0
  6
Continuous
 62
     2
100
AcDbLine
 10
-895.455215330592
 20
-1169.823049289778
 30
0.0
 11
-895.455215330592
 21
-1166.769239765967
 31
0.0
  0
LINE
  5
1C7
102
{ACAD_REACTORS
330
2D7
330
2D8
102
}
330
A0
100
AcDbEntity
  8
0
  6
Continuous
 62
     2
100
AcDbLine
 10
-896.9235254131295
 20
-1171.960715956428
 30
0.0
 11
-896.6233601759373
 21
-1171.192900990441
 31
0.0
  0
LINE
  5
1C8
102
{ACAD_REACTORS
330
2D7
330
2D8
102
}
330
A0
100
AcDbEntity
  8
0
  6
Continuous
 62
     2
100
AcDbLine
 10
-897.4010610177504
 20
-1173.182239765952
 30
0.0
 11
-897.1895809642747
 21
-1172.641279221734
 31
0.0
  0
LINE
  5
1C9
102
{ACAD_REACTORS
330
2D7
330
2D8
102
}
330
A0
100
AcDbEntity
  8
0
  6
Continuous
 62
     2
100
AcDbLine
 10
-897.2436123810642
 20
-1170.128430242141
 30
0.0
 11
-898.6415654280033
 21
-1173.182239765952
 31
0.0
  0
LINE
  5
1CA
102
{ACAD_REACTORS
330
2D7
330
2D8
102
}
330
A0
100
AcDbEntity
  8
0
  6
Continuous
 62
     2
100
AcDbLine
 10
-894.605154923871
 20
-1173.182239765952
 30
0.0
 11
-895.8456593341249
 21
-1173.182239765952
 31
0.0
  0
LINE
  5
1CB
102
{ACAD_REACTORS
330
2D7
330
2D8
102
}
330
A0
100
AcDbEntity
  8
0
  6
Continuous
 62
     2
100
AcDbLine
 10
-897.1895809642747
 20
-1172.641279221734
 30
0.0
 11
-896.0571393876007
 21
-1172.641279221734
 31
0.0
  0
LINE
  5
1CC
102
{ACAD_REACTORS
330
2D5
330
2D6
102
}
330
A0
100
AcDbEntity
  8
0
  6
Continuous
 62
     2
100
AcDbLine
 10
-900.7990775671856
 20
-1170.913695548265
 30
0.0
 11
-899.987978529711
 21
-1170.913695548265
 31
0.0
  0
LINE
  5
1CD
102
{ACAD_REACTORS
330
2D5
330
2D6
102
}
330
A0
100
AcDbEntity
  8
0
  6
Continuous
 62
     2
100
AcDbLine
 10
-897.9840867900718
 20
-1170.128430242141
 30
0.0
 11
-900.7990775671856
 21
-1170.128430242141
 31
0.0
  0
LINE
  5
1CE
102
{ACAD_REACTORS
330
2D5
330
2D6
102
}
330
A0
100
AcDbEntity
  8
0
  6
Continuous
 62
     2
100
AcDbLine
 10
-897.9840867900718
 20
-1170.913695548265
 30
0.0
 11
-897.9840867900718
 21
-1170.128430242141
 31
0.0
  0
LINE
  5
1CF
102
{ACAD_REACTORS
330
2D5
330
2D6
102
}
330
A0
100
AcDbEntity
  8
0
  6
Continuous
 62
     2
100
AcDbLine
 10
-898.7951858275445
 20
-1170.913695548265
 30
0.0
 11
-897.9840867900718
 21
-1170.913695548265
 31
0.0
  0
LINE
  5
1D0
102
{ACAD_REACTORS
330
2D5
330
2D6
102
}
330
A0
100
AcDbEntity
  8
0
  6
Continuous
 62
     2
100
AcDbLine
 10
-898.7951858275445
 20
-1173.182239765952
 30
0.0
 11
-898.7951858275445
 21
-1170.913695548265
 31
0.0
  0
LINE
  5
1D1
102
{ACAD_REACTORS
330
2D3
330
2D4
102
}
330
A0
100
AcDbEntity
  8
0
  6
Continuous
 62
     2
100
AcDbLine
 10
-898.1270709834465
 20
-1169.823049289778
 30
0.0
 11
-898.1270709834465
 21
-1168.514273779573
 31
0.0
  0
LINE
  5
1D2
102
{ACAD_REACTORS
330
2D3
330
2D4
102
}
330
A0
100
AcDbEntity
  8
0
  6
Continuous
 62
     2
100
AcDbLine
 10
-899.319863685613
 20
-1166.769239765967
 30
0.0
 11
-899.319863685613
 21
-1169.823049289778
 31
0.0
  0
LINE
  5
1D3
102
{ACAD_REACTORS
330
2D3
330
2D4
102
}
330
A0
100
AcDbEntity
  8
0
  6
Continuous
 62
     2
100
AcDbLine
 10
-898.1270709834465
 20
-1166.769239765967
 30
0.0
 11
-899.319863685613
 21
-1166.769239765967
 31
0.0
  0
LINE
  5
1D4
102
{ACAD_REACTORS
330
2D3
330
2D4
102
}
330
A0
100
AcDbEntity
  8
0
  6
Continuous
 62
     2
100
AcDbLine
 10
-896.8865665731925
 20
-1166.769239765967
 30
0.0
 11
-896.8865665731925
 21
-1168.078015276172
 31
0.0
  0
LINE
  5
1D5
102
{ACAD_REACTORS
330
2D1
330
2D2
102
}
330
A0
100
AcDbEntity
  8
0
  6
Continuous
 62
     2
100
AcDbLine
 10
-904.5683025060326
 20
-1170.128430242141
 30
0.0
 11
-904.5683025060326
 21
-1173.182239765952
 31
0.0
  0
LINE
  5
1D6
102
{ACAD_REACTORS
330
2D1
330
2D2
102
}
330
A0
100
AcDbEntity
  8
0
  6
Continuous
 62
     2
100
AcDbLine
 10
-903.375509803865
 20
-1170.128430242141
 30
0.0
 11
-904.5683025060326
 21
-1170.128430242141
 31
0.0
  0
LINE
  5
1D7
102
{ACAD_REACTORS
330
2D1
330
2D2
102
}
330
A0
100
AcDbEntity
  8
0
  6
Continuous
 62
     2
100
AcDbLine
 10
-902.1350053936121
 20
-1173.182239765952
 30
0.0
 11
-900.9422126914458
 21
-1173.182239765952
 31
0.0
  0
LINE
  5
1D8
102
{ACAD_REACTORS
330
2D1
330
2D2
102
}
330
A0
100
AcDbEntity
  8
0
  6
Continuous
 62
     2
100
AcDbLine
 10
-904.5683025060326
 20
-1173.182239765952
 30
0.0
 11
-903.375509803865
 21
-1173.182239765952
 31
0.0
  0
LINE
  5
1D9
102
{ACAD_REACTORS
330
2E1
330
2E2
102
}
330
A0
100
AcDbEntity
  8
0
  6
Continuous
 62
     2
100
AcDbLine
 10
-900.8943500524736
 20
-1167.947137725151
 30
0.0
 11
-900.8943500524736
 21
-1167.46725337141
 31
0.0
  0
LINE
  5
1DA
102
{ACAD_REACTORS
330
2E1
330
2E2
102
}
330
A0
100
AcDbEntity
  8
0
  6
Continuous
 62
     2
100
AcDbLine
 10
-899.5584222260459
 20
-1167.947137725151
 30
0.0
 11
-900.8943500524736
 21
-1167.947137725151
 31
0.0
  0
LINE
  5
1DB
102
{ACAD_REACTORS
330
2E1
330
2E2
102
}
330
A0
100
AcDbEntity
  8
0
  6
Continuous
 62
     2
100
AcDbLine
 10
-899.5584222260459
 20
-1168.645151330594
 30
0.0
 11
-899.5584222260459
 21
-1167.947137725151
 31
0.0
  0
LINE
  5
1DC
102
{ACAD_REACTORS
330
2E1
330
2E2
102
}
330
A0
100
AcDbEntity
  8
0
  6
Continuous
 62
     2
100
AcDbLine
 10
-900.8943500524736
 20
-1168.645151330594
 30
0.0
 11
-899.5584222260459
 21
-1168.645151330594
 31
0.0
  0
LINE
  5
1DD
102
{ACAD_REACTORS
330
2CF
330
2D0
102
}
330
A0
100
AcDbEntity
  8
0
  6
Continuous
 62
     2
100
AcDbLine
 10
-904.3773047428004
 20
-1166.769239765967
 30
0.0
 11
-904.3773047428004
 21
-1169.823049289778
 31
0.0
  0
LINE
  5
1DE
102
{ACAD_REACTORS
330
2CF
330
2D0
102
}
330
A0
100
AcDbEntity
  8
0
  6
Continuous
 62
     2
100
AcDbLine
 10
-904.3773047428004
 20
-1169.823049289778
 30
0.0
 11
-905.5700974449669
 21
-1169.823049289778
 31
0.0
  0
LINE
  5
1DF
102
{ACAD_REACTORS
330
2CF
330
2D0
102
}
330
A0
100
AcDbEntity
  8
0
  6
Continuous
 62
     2
100
AcDbLine
 10
-905.5700974449669
 20
-1169.823049289778
 30
0.0
 11
-905.5700974449669
 21
-1168.688777180934
 31
0.0
  0
LINE
  5
1E0
102
{ACAD_REACTORS
330
2CF
330
2D0
102
}
330
A0
100
AcDbEntity
  8
0
  6
Continuous
 62
     2
100
AcDbLine
 10
-906.6197550228743
 20
-1169.823049289778
 30
0.0
 11
-907.8125477250409
 21
-1169.823049289778
 31
0.0
  0
LINE
  5
1E1
102
{ACAD_REACTORS
330
2CF
330
2D0
102
}
330
A0
100
AcDbEntity
  8
0
  6
Continuous
 62
     2
100
AcDbLine
 10
-907.8125477250409
 20
-1166.769239765967
 30
0.0
 11
-906.6197550228743
 21
-1166.769239765967
 31
0.0
  0
LINE
  5
1E2
102
{ACAD_REACTORS
330
2CF
330
2D0
102
}
330
A0
100
AcDbEntity
  8
0
  6
Continuous
 62
     2
100
AcDbLine
 10
-906.6197550228743
 20
-1166.769239765967
 30
0.0
 11
-906.6197550228743
 21
-1167.838073099301
 31
0.0
  0
LINE
  5
1E3
102
{ACAD_REACTORS
330
2CF
330
2D0
102
}
330
A0
100
AcDbEntity
  8
0
  6
Continuous
 62
     2
100
AcDbLine
 10
-906.6197550228743
 20
-1167.838073099301
 30
0.0
 11
-905.5700974449669
 21
-1167.838073099301
 31
0.0
  0
LINE
  5
1E4
102
{ACAD_REACTORS
330
2DD
330
2DE
102
}
330
A0
100
AcDbEntity
  8
0
  6
Continuous
 62
     2
100
AcDbLine
 10
-909.7687277565947
 20
-1167.432345611407
 30
0.0
 11
-909.4514326950526
 21
-1167.432345611407
 31
0.0
  0
LINE
  5
1E5
102
{ACAD_REACTORS
330
2DD
330
2DE
102
}
330
A0
100
AcDbEntity
  8
0
  6
Continuous
 62
     2
100
AcDbLine
 10
-909.7687277565947
 20
-1168.138073260749
 30
0.0
 11
-909.4514326950526
 21
-1168.138073260749
 31
0.0
  0
LINE
  5
1E6
102
{ACAD_REACTORS
330
2DD
330
2DE
102
}
330
A0
100
AcDbEntity
  8
0
  6
Continuous
 62
     2
100
AcDbLine
 10
-911.0092321668486
 20
-1166.769239765967
 30
0.0
 11
-911.0092321668486
 21
-1169.823049289778
 31
0.0
  0
LINE
  5
1E7
102
{ACAD_REACTORS
330
2DD
330
2DE
102
}
330
A0
100
AcDbEntity
  8
0
  6
Continuous
 62
     2
100
AcDbLine
 10
-911.0092321668486
 20
-1166.769239765967
 30
0.0
 11
-909.0099601688142
 21
-1166.769239765967
 31
0.0
  0
LINE
  5
1E8
102
{ACAD_REACTORS
330
2DD
330
2DE
102
}
330
A0
100
AcDbEntity
  8
0
  6
Continuous
 62
     2
100
AcDbLine
 10
-909.7687277565947
 20
-1168.879971048634
 30
0.0
 11
-909.0099601688142
 21
-1168.879971048634
 31
0.0
  0
LINE
  5
1E9
102
{ACAD_REACTORS
330
2E3
330
2E4
102
}
330
A0
100
AcDbEntity
  8
0
  6
Continuous
 62
     2
100
AcDbLine
 10
-917.1057282001453
 20
-1167.797512244601
 30
0.0
 11
-917.1057282001453
 21
-1172.153967287318
 31
0.0
  0
LINE
  5
1EA
102
{ACAD_REACTORS
330
2E3
330
2E4
102
}
330
A0
100
AcDbEntity
  8
0
  6
Continuous
 62
     2
100
AcDbLine
 10
-916.7900112770697
 20
-1167.481795321525
 30
0.0
 11
-915.3141780160602
 21
-1167.481795321525
 31
0.0
  0
LINE
  5
1EB
102
{ACAD_REACTORS
330
2E3
330
2E4
102
}
330
A0
100
AcDbEntity
  8
0
  6
Continuous
 62
     2
100
AcDbLine
 10
-914.9984610929835
 20
-1168.401536863662
 30
0.0
 11
-914.9984610929835
 21
-1167.797512244601
 31
0.0
  0
LINE
  5
1EC
102
{ACAD_REACTORS
330
2E3
330
2E4
102
}
330
A0
100
AcDbEntity
  8
0
  6
Continuous
 62
     2
100
AcDbLine
 10
-914.9984610929835
 20
-1172.153967287318
 30
0.0
 11
-914.9984610929835
 21
-1170.623196355787
 31
0.0
  0
LINE
  5
1ED
102
{ACAD_REACTORS
330
2E3
330
2E4
102
}
330
A0
100
AcDbEntity
  8
0
  6
Continuous
 62
     2
100
AcDbLine
 10
-911.9105938630993
 20
-1173.182239765952
 30
0.0
 11
-917.3839059538162
 21
-1173.182239765952
 31
0.0
  0
LINE
  5
1EE
102
{ACAD_REACTORS
330
2E3
330
2E4
102
}
330
A0
100
AcDbEntity
  8
0
  6
Continuous
 62
     2
100
AcDbLine
 10
-911.4863492477155
 20
-1167.193484381369
 30
0.0
 11
-911.4863492477155
 21
-1172.757995150569
 31
0.0
  0
LINE
  5
1EF
102
{ACAD_REACTORS
330
2E3
330
2E4
102
}
330
A0
100
AcDbEntity
  8
0
  6
Continuous
 62
     2
100
AcDbLine
 10
-917.3839059538162
 20
-1166.769239765985
 30
0.0
 11
-911.9105938630993
 21
-1166.769239765985
 31
0.0
  0
LINE
  5
1F0
102
{ACAD_REACTORS
330
2E3
330
2E4
102
}
330
A0
100
AcDbEntity
  8
0
  6
Continuous
 62
     2
100
AcDbLine
 10
-917.808150569199
 20
-1167.193484381369
 30
0.0
 11
-917.808150569199
 21
-1172.757995150569
 31
0.0
  0
LINE
  5
1F1
102
{ACAD_REACTORS
330
2E3
330
2E4
102
}
330
A0
100
AcDbEntity
  8
0
  6
Continuous
 62
     2
100
AcDbLine
 10
-915.3141780160602
 20
-1172.469684210395
 30
0.0
 11
-916.7900112770697
 21
-1172.469684210395
 31
0.0
  0
LINE
  5
1F2
102
{ACAD_REACTORS
330
2DD
330
2DE
102
}
330
A0
100
AcDbEntity
  8
0
  6
Continuous
 62
     2
100
AcDbLine
 10
-909.7687277565947
 20
-1169.823049289778
 30
0.0
 11
-909.7687277565947
 21
-1168.879971048634
 31
0.0
  0
LINE
  5
1F3
102
{ACAD_REACTORS
330
2DD
330
2DE
102
}
330
A0
100
AcDbEntity
  8
0
  6
Continuous
 62
     2
100
AcDbLine
 10
-911.0092321668486
 20
-1169.823049289778
 30
0.0
 11
-909.7687277565947
 21
-1169.823049289778
 31
0.0
  0
LINE
  5
1F4
102
{ACAD_REACTORS
330
2DD
330
2DE
102
}
330
A0
100
AcDbEntity
  8
0
  6
Continuous
 62
     2
100
AcDbLine
 10
-909.7687277565947
 20
-1168.138073260749
 30
0.0
 11
-909.7687277565947
 21
-1167.432345611407
 31
0.0
  0
LINE
  5
1F5
102
{ACAD_REACTORS
330
2CF
330
2D0
102
}
330
A0
100
AcDbEntity
  8
0
  6
Continuous
 62
     2
100
AcDbLine
 10
-907.8125477250409
 20
-1166.769239765967
 30
0.0
 11
-907.8125477250409
 21
-1169.823049289778
 31
0.0
  0
LINE
  5
1F6
102
{ACAD_REACTORS
330
2CF
330
2D0
102
}
330
A0
100
AcDbEntity
  8
0
  6
Continuous
 62
     2
100
AcDbLine
 10
-906.6197550228743
 20
-1168.688777180934
 30
0.0
 11
-906.6197550228743
 21
-1169.823049289778
 31
0.0
  0
LINE
  5
1F7
102
{ACAD_REACTORS
330
2CF
330
2D0
102
}
330
A0
100
AcDbEntity
  8
0
  6
Continuous
 62
     2
100
AcDbLine
 10
-905.5700974449669
 20
-1168.688777180934
 30
0.0
 11
-906.6197550228743
 21
-1168.688777180934
 31
0.0
  0
LINE
  5
1F8
102
{ACAD_REACTORS
330
2CF
330
2D0
102
}
330
A0
100
AcDbEntity
  8
0
  6
Continuous
 62
     2
100
AcDbLine
 10
-905.5700974449669
 20
-1166.769239765967
 30
0.0
 11
-904.3773047428004
 21
-1166.769239765967
 31
0.0
  0
LINE
  5
1F9
102
{ACAD_REACTORS
330
2CF
330
2D0
102
}
330
A0
100
AcDbEntity
  8
0
  6
Continuous
 62
     2
100
AcDbLine
 10
-905.5700974449669
 20
-1167.838073099301
 30
0.0
 11
-905.5700974449669
 21
-1166.769239765967
 31
0.0
  0
LINE
  5
1FA
102
{ACAD_REACTORS
330
2E1
330
2E2
102
}
330
A0
100
AcDbEntity
  8
0
  6
Continuous
 62
     2
100
AcDbLine
 10
-899.5584222260459
 20
-1167.46725337141
 30
0.0
 11
-899.5584222260459
 21
-1166.769239765967
 31
0.0
  0
LINE
  5
1FB
102
{ACAD_REACTORS
330
2E1
330
2E2
102
}
330
A0
100
AcDbEntity
  8
0
  6
Continuous
 62
     2
100
AcDbLine
 10
-902.7087419498268
 20
-1166.769239765967
 30
0.0
 11
-899.5584222260459
 21
-1166.769239765967
 31
0.0
  0
LINE
  5
1FC
102
{ACAD_REACTORS
330
2E1
330
2E2
102
}
330
A0
100
AcDbEntity
  8
0
  6
Continuous
 62
     2
100
AcDbLine
 10
-902.7087419498268
 20
-1169.823049289778
 30
0.0
 11
-899.5584222260459
 21
-1169.823049289778
 31
0.0
  0
LINE
  5
1FD
102
{ACAD_REACTORS
330
2E1
330
2E2
102
}
330
A0
100
AcDbEntity
  8
0
  6
Continuous
 62
     2
100
AcDbLine
 10
-899.5584222260459
 20
-1169.823049289778
 30
0.0
 11
-899.5584222260459
 21
-1169.125035684335
 31
0.0
  0
LINE
  5
1FE
102
{ACAD_REACTORS
330
2E1
330
2E2
102
}
330
A0
100
AcDbEntity
  8
0
  6
Continuous
 62
     2
100
AcDbLine
 10
-899.5584222260459
 20
-1169.125035684335
 30
0.0
 11
-900.8943500524736
 21
-1169.125035684335
 31
0.0
  0
LINE
  5
1FF
102
{ACAD_REACTORS
330
2E1
330
2E2
102
}
330
A0
100
AcDbEntity
  8
0
  6
Continuous
 62
     2
100
AcDbLine
 10
-900.8943500524736
 20
-1169.125035684335
 30
0.0
 11
-900.8943500524736
 21
-1168.645151330594
 31
0.0
  0
LINE
  5
200
102
{ACAD_REACTORS
330
2E1
330
2E2
102
}
330
A0
100
AcDbEntity
  8
0
  6
Continuous
 62
     2
100
AcDbLine
 10
-900.8943500524736
 20
-1167.46725337141
 30
0.0
 11
-899.5584222260459
 21
-1167.46725337141
 31
0.0
  0
LINE
  5
201
102
{ACAD_REACTORS
330
2D1
330
2D2
102
}
330
A0
100
AcDbEntity
  8
0
  6
Continuous
 62
     2
100
AcDbLine
 10
-903.375509803865
 20
-1173.182239765952
 30
0.0
 11
-903.375509803865
 21
-1171.873464255747
 31
0.0
  0
LINE
  5
202
102
{ACAD_REACTORS
330
2D1
330
2D2
102
}
330
A0
100
AcDbEntity
  8
0
  6
Continuous
 62
     2
100
AcDbLine
 10
-903.375509803865
 20
-1171.873464255747
 30
0.0
 11
-902.1350053936121
 21
-1173.182239765952
 31
0.0
  0
LINE
  5
203
102
{ACAD_REACTORS
330
2D1
330
2D2
102
}
330
A0
100
AcDbEntity
  8
0
  6
Continuous
 62
     2
100
AcDbLine
 10
-900.9422126914458
 20
-1173.182239765952
 30
0.0
 11
-900.9422126914458
 21
-1170.128430242141
 31
0.0
  0
LINE
  5
204
102
{ACAD_REACTORS
330
2D1
330
2D2
102
}
330
A0
100
AcDbEntity
  8
0
  6
Continuous
 62
     2
100
AcDbLine
 10
-900.9422126914458
 20
-1170.128430242141
 30
0.0
 11
-902.1350053936121
 21
-1170.128430242141
 31
0.0
  0
LINE
  5
205
102
{ACAD_REACTORS
330
2D1
330
2D2
102
}
330
A0
100
AcDbEntity
  8
0
  6
Continuous
 62
     2
100
AcDbLine
 10
-902.1350053936121
 20
-1170.128430242141
 30
0.0
 11
-902.1350053936121
 21
-1171.437205752346
 31
0.0
  0
LINE
  5
206
102
{ACAD_REACTORS
330
2D1
330
2D2
102
}
330
A0
100
AcDbEntity
  8
0
  6
Continuous
 62
     2
100
AcDbLine
 10
-902.1350053936121
 20
-1171.437205752346
 30
0.0
 11
-903.375509803865
 21
-1170.128430242141
 31
0.0
  0
LINE
  5
207
102
{ACAD_REACTORS
330
2D3
330
2D4
102
}
330
A0
100
AcDbEntity
  8
0
  6
Continuous
 62
     2
100
AcDbLine
 10
-898.1270709834465
 20
-1168.514273779573
 30
0.0
 11
-896.8865665731925
 21
-1169.823049289778
 31
0.0
  0
LINE
  5
208
102
{ACAD_REACTORS
330
2D3
330
2D4
102
}
330
A0
100
AcDbEntity
  8
0
  6
Continuous
 62
     2
100
AcDbLine
 10
-896.8865665731925
 20
-1169.823049289778
 30
0.0
 11
-895.6937738710258
 21
-1169.823049289778
 31
0.0
  0
LINE
  5
209
102
{ACAD_REACTORS
330
2D3
330
2D4
102
}
330
A0
100
AcDbEntity
  8
0
  6
Continuous
 62
     2
100
AcDbLine
 10
-895.6937738710258
 20
-1169.823049289778
 30
0.0
 11
-895.6937738710258
 21
-1166.769239765967
 31
0.0
  0
LINE
  5
20A
102
{ACAD_REACTORS
330
2D3
330
2D4
102
}
330
A0
100
AcDbEntity
  8
0
  6
Continuous
 62
     2
100
AcDbLine
 10
-895.6937738710258
 20
-1166.769239765967
 30
0.0
 11
-896.8865665731925
 21
-1166.769239765967
 31
0.0
  0
LINE
  5
20B
102
{ACAD_REACTORS
330
2D3
330
2D4
102
}
330
A0
100
AcDbEntity
  8
0
  6
Continuous
 62
     2
100
AcDbLine
 10
-896.8865665731925
 20
-1168.078015276172
 30
0.0
 11
-898.1270709834465
 21
-1166.769239765967
 31
0.0
  0
LINE
  5
20C
102
{ACAD_REACTORS
330
2D3
330
2D4
102
}
330
A0
100
AcDbEntity
  8
0
  6
Continuous
 62
     2
100
AcDbLine
 10
-899.319863685613
 20
-1169.823049289778
 30
0.0
 11
-898.1270709834465
 21
-1169.823049289778
 31
0.0
  0
LINE
  5
20D
102
{ACAD_REACTORS
330
2D5
330
2D6
102
}
330
A0
100
AcDbEntity
  8
0
  6
Continuous
 62
     2
100
AcDbLine
 10
-900.7990775671856
 20
-1170.128430242141
 30
0.0
 11
-900.7990775671856
 21
-1170.913695548265
 31
0.0
  0
LINE
  5
20E
102
{ACAD_REACTORS
330
2D5
330
2D6
102
}
330
A0
100
AcDbEntity
  8
0
  6
Continuous
 62
     2
100
AcDbLine
 10
-899.987978529711
 20
-1170.913695548265
 30
0.0
 11
-899.987978529711
 21
-1173.182239765952
 31
0.0
  0
LINE
  5
20F
102
{ACAD_REACTORS
330
2D5
330
2D6
102
}
330
A0
100
AcDbEntity
  8
0
  6
Continuous
 62
     2
100
AcDbLine
 10
-899.987978529711
 20
-1173.182239765952
 30
0.0
 11
-898.7951858275445
 21
-1173.182239765952
 31
0.0
  0
LINE
  5
210
102
{ACAD_REACTORS
330
2D7
330
2D8
102
}
330
A0
100
AcDbEntity
  8
0
  6
Continuous
 62
     2
100
AcDbLine
 10
-895.8456593341249
 20
-1173.182239765952
 30
0.0
 11
-896.0571393876007
 21
-1172.641279221734
 31
0.0
  0
LINE
  5
211
102
{ACAD_REACTORS
330
2D7
330
2D8
102
}
330
A0
100
AcDbEntity
  8
0
  6
Continuous
 62
     2
100
AcDbLine
 10
-896.0031079708112
 20
-1170.128430242141
 30
0.0
 11
-894.605154923871
 21
-1173.182239765952
 31
0.0
  0
LINE
  5
212
102
{ACAD_REACTORS
330
2D7
330
2D8
102
}
330
A0
100
AcDbEntity
  8
0
  6
Continuous
 62
     2
100
AcDbLine
 10
-897.2436123810642
 20
-1170.128430242141
 30
0.0
 11
-896.0031079708112
 21
-1170.128430242141
 31
0.0
  0
LINE
  5
213
102
{ACAD_REACTORS
330
2D7
330
2D8
102
}
330
A0
100
AcDbEntity
  8
0
  6
Continuous
 62
     2
100
AcDbLine
 10
-898.6415654280033
 20
-1173.182239765952
 30
0.0
 11
-897.4010610177504
 21
-1173.182239765952
 31
0.0
  0
LINE
  5
214
102
{ACAD_REACTORS
330
2D7
330
2D8
102
}
330
A0
100
AcDbEntity
  8
0
  6
Continuous
 62
     2
100
AcDbLine
 10
-896.9235254131295
 20
-1171.960715956428
 30
0.0
 11
-896.3231949387471
 21
-1171.960715956428
 31
0.0
  0
LINE
  5
215
102
{ACAD_REACTORS
330
2D7
330
2D8
102
}
330
A0
100
AcDbEntity
  8
0
  6
Continuous
 62
     2
100
AcDbLine
 10
-896.3231949387471
 20
-1171.960715956428
 30
0.0
 11
-896.6233601759373
 21
-1171.192900990441
 31
0.0
  0
LINE
  5
216
102
{ACAD_REACTORS
330
2D9
330
2DA
102
}
330
A0
100
AcDbEntity
  8
0
  6
Continuous
 62
     2
100
AcDbLine
 10
-894.214710920339
 20
-1169.823049289778
 30
0.0
 11
-895.455215330592
 21
-1169.823049289778
 31
0.0
  0
LINE
  5
217
102
{ACAD_REACTORS
330
2DB
330
2DC
102
}
330
A0
100
AcDbEntity
  8
0
  6
Continuous
 62
     2
100
AcDbLine
 10
-892.692707432374
 20
-1169.823049289778
 30
0.0
 11
-894.0954316501221
 21
-1169.823049289778
 31
0.0
  0
LINE
  5
218
102
{ACAD_REACTORS
330
2DB
330
2DC
102
}
330
A0
100
AcDbEntity
  8
0
  6
Continuous
 62
     2
100
AcDbLine
 10
-892.692707432374
 20
-1169.823049289778
 30
0.0
 11
-891.9961164943082
 21
-1169.035317504484
 31
0.0
  0
LINE
  5
219
102
{ACAD_REACTORS
330
2DB
330
2DC
102
}
330
A0
100
AcDbEntity
  8
0
  6
Continuous
 62
     2
100
AcDbLine
 10
-891.3949489724155
 20
-1166.769239765967
 30
0.0
 11
-889.9922247546682
 21
-1166.769239765967
 31
0.0
  0
LINE
  5
21A
102
{ACAD_REACTORS
330
2DB
330
2DC
102
}
330
A0
100
AcDbEntity
  8
0
  6
Continuous
 62
     2
100
AcDbLine
 10
-894.0000082339493
 20
-1166.769239765967
 30
0.0
 11
-892.6974786031818
 21
-1168.242190296003
 31
0.0
  0
LINE
  5
21B
102
{ACAD_REACTORS
330
2DB
330
2DC
102
}
330
A0
100
AcDbEntity
  8
0
  6
Continuous
 62
     2
100
AcDbLine
 10
-894.0954316501221
 20
-1169.823049289778
 30
0.0
 11
-892.6974786031818
 21
-1168.242190296003
 31
0.0
  0
LINE
  5
21C
102
{ACAD_REACTORS
330
2E5
330
2E6
102
}
330
A0
100
AcDbEntity
  8
0
  6
Continuous
 62
     2
100
AcDbLine
 10
-892.2346750347423
 20
-1172.135219357788
 30
0.0
 11
-892.2346750347423
 21
-1173.007736364592
 31
0.0
  0
LINE
  5
21D
102
{ACAD_REACTORS
330
2E5
330
2E6
102
}
330
A0
100
AcDbEntity
  8
0
  6
Continuous
 62
     2
100
AcDbLine
 10
-893.0043323777037
 20
-1170.913695548265
 30
0.0
 11
-891.9006930781356
 21
-1170.913695548265
 31
0.0
  0
LINE
  5
21E
102
{ACAD_REACTORS
330
2E7
330
2E8
102
}
330
A0
100
AcDbEntity
  8
0
  6
Continuous
 62
     2
100
AcDbLine
 10
-908.3373765139941
 20
-1172.135219357788
 30
0.0
 11
-908.3373765139941
 21
-1173.007736364591
 31
0.0
  0
LINE
  5
21F
102
{ACAD_REACTORS
330
2E7
330
2E8
102
}
330
A0
100
AcDbEntity
  8
0
  6
Continuous
 62
     2
100
AcDbLine
 10
-908.3373765139941
 20
-1171.175450650305
 30
0.0
 11
-908.3373765139941
 21
-1170.302933643502
 31
0.0
  0
LINE
  5
220
330
A0
100
AcDbEntity
  8
1
  6
Continuous
 62
     7
100
AcDbLine
 10
-792.5000009290103
 20
-1171.975739765968
 30
0.0
 11
-885.6448054557616
 21
-1171.975739765968
 31
0.0
  0
LINE
  5
221
330
A0
100
AcDbEntity
  8
1
  6
Continuous
 62
     7
100
AcDbLine
 10
-801.418409210689
 20
-1154.975739765968
 30
0.0
 11
-801.418409210689
 21
-1163.475739765968
 31
0.0
  0
LINE
  5
222
330
A0
100
AcDbEntity
  8
1
  6
Continuous
 62
     7
100
AcDbLine
 10
-827.9184092106887
 20
-1154.975739765968
 30
0.0
 11
-827.9184092106887
 21
-1163.475739765968
 31
0.0
  0
LINE
  5
223
330
A0
100
AcDbEntity
  8
1
  6
Continuous
 62
     7
100
AcDbLine
 10
-885.6448054557616
 20
-1163.475739765968
 30
0.0
 11
-885.6448054557616
 21
-1154.975739765968
 31
0.0
  0
LINE
  5
224
330
A0
100
AcDbEntity
  8
1
  6
Continuous
 62
     7
100
AcDbLine
 10
-922.0448054557615
 20
-1163.475739765968
 30
0.0
 11
-922.0448054557615
 21
-1154.975739765968
 31
0.0
  0
LINE
  5
225
330
A0
100
AcDbEntity
  8
1
  6
Continuous
 62
     6
100
AcDbLine
 10
-885.6448054557616
 20
-1163.475739765968
 30
0.0
 11
-792.5000009290098
 21
-1163.475739765968
 31
0.0
  0
LINE
  5
226
330
A0
100
AcDbEntity
  8
1
  6
Continuous
 62
     7
100
AcDbLine
 10
-857.7448054557616
 20
-1171.975739765968
 30
0.0
 11
-857.7448054557616
 21
-1163.475739765968
 31
0.0
  0
LINE
  5
227
330
A0
100
AcDbEntity
  8
1
  6
Continuous
 62
     6
100
AcDbLine
 10
-792.5000009290098
 20
-1163.475739765968
 30
0.0
 11
-792.5000009290098
 21
-1154.975739765968
 31
0.0
  0
LINE
  5
228
330
A0
100
AcDbEntity
  8
1
  6
Continuous
 62
     2
100
AcDbLine
 10
-929.1666675956782
 20
-1180.475739765971
 30
0.0
 11
-929.1666675956782
 21
-1180.475739765968
 31
0.0
  0
LINE
  5
229
330
A0
100
AcDbEntity
  8
1
  6
Continuous
 62
     6
100
AcDbLine
 10
-1065.833334262345
 20
-1180.475739765968
 30
0.0
 11
-922.0448054557615
 21
-1180.475739765971
 31
0.0
  0
LINE
  5
22A
330
A0
100
AcDbEntity
  8
1
  6
Continuous
 62
     6
100
AcDbLine
 10
-792.5000009290117
 20
-1180.475739765968
 30
0.0
 11
-792.500000929012
 21
-1171.975739765968
 31
0.0
  0
LINE
  5
22B
330
A0
100
AcDbEntity
  8
1
  6
Continuous
 62
     6
100
AcDbLine
 10
-1187.500000929011
 20
-1180.475739765968
 30
0.0
 11
-1187.500000929012
 21
-893.4757397659675
 31
0.0
  0
LINE
  5
22C
330
A0
100
AcDbEntity
  8
1
  6
Continuous
 62
     2
100
AcDbLine
 10
-1207.500000929013
 20
-1036.975739765968
 30
0.0
 11
-1207.500000929013
 21
-1185.475739765968
 31
0.0
  0
LINE
  5
22D
330
A0
100
AcDbEntity
  8
1
  6
Continuous
 62
     2
100
AcDbLine
 10
-1207.500000929013
 20
-1036.975739765968
 30
0.0
 11
-1197.500000929012
 21
-1036.975739765968
 31
0.0
  0
LINE
  5
22E
330
A0
100
AcDbEntity
  8
1
  6
Continuous
 62
     2
100
AcDbLine
 10
-1207.500000929013
 20
-888.4757397659678
 30
0.0
 11
-1207.500000929013
 21
-1036.975739765968
 31
0.0
  0
LINE
  5
22F
330
A0
100
AcDbEntity
  8
1
  6
Continuous
 62
     2
100
AcDbLine
 10
-977.5000009290144
 20
-888.4757397659678
 30
0.0
 11
-997.5000009290115
 21
-888.4757397659678
 31
0.0
  0
LINE
  5
230
330
A0
100
AcDbEntity
  8
1
  6
Continuous
 62
     2
100
AcDbLine
 10
-977.5000009290144
 20
-888.4757397659678
 30
0.0
 11
-977.5000009290144
 21
-892.4757397659675
 31
0.0
  0
LINE
  5
231
330
A0
100
AcDbEntity
  8
1
  6
Continuous
 62
     2
100
AcDbLine
 10
-1187.500000929012
 20
-888.4757397659678
 30
0.0
 11
-1207.500000929013
 21
-888.4757397659678
 31
0.0
  0
LINE
  5
232
330
A0
100
AcDbEntity
  8
1
  6
Continuous
 62
     2
100
AcDbLine
 10
-1187.500000929012
 20
-888.4757397659678
 30
0.0
 11
-1187.500000929012
 21
-892.4757397659675
 31
0.0
  0
LINE
  5
233
330
A0
100
AcDbEntity
  8
1
  6
Continuous
 62
     2
100
AcDbLine
 10
-1134.166667595678
 20
-888.4757397659678
 30
0.0
 11
-1187.500000929012
 21
-888.4757397659678
 31
0.0
  0
LINE
  5
234
330
A0
100
AcDbEntity
  8
1
  6
Continuous
 62
     6
100
AcDbLine
 10
-1134.166667595678
 20
-893.4757397659675
 30
0.0
 11
-1065.833334262345
 21
-893.4757397659678
 31
0.0
  0
LINE
  5
235
330
A0
100
AcDbEntity
  8
1
  6
Continuous
 62
     2
100
AcDbLine
 10
-1134.166667595678
 20
-893.4757397659675
 30
0.0
 11
-1134.166667595678
 21
-888.4757397659678
 31
0.0
  0
LINE
  5
236
330
A0
100
AcDbEntity
  8
1
  6
Continuous
 62
     2
100
AcDbLine
 10
-1065.833334262345
 20
-888.4757397659678
 30
0.0
 11
-1134.166667595678
 21
-888.4757397659678
 31
0.0
  0
LINE
  5
237
330
A0
100
AcDbEntity
  8
1
  6
Continuous
 62
     6
100
AcDbLine
 10
-1065.833334262345
 20
-893.4757397659678
 30
0.0
 11
-997.5000009290115
 21
-893.4757397659678
 31
0.0
  0
LINE
  5
238
330
A0
100
AcDbEntity
  8
1
  6
Continuous
 62
     2
100
AcDbLine
 10
-1065.833334262345
 20
-893.4757397659678
 30
0.0
 11
-1065.833334262345
 21
-888.4757397659678
 31
0.0
  0
LINE
  5
239
330
A0
100
AcDbEntity
  8
1
  6
Continuous
 62
     2
100
AcDbLine
 10
-997.5000009290115
 20
-888.4757397659678
 30
0.0
 11
-1065.833334262345
 21
-888.4757397659678
 31
0.0
  0
LINE
  5
23A
330
A0
100
AcDbEntity
  8
1
  6
Continuous
 62
     6
100
AcDbLine
 10
-997.5000009290115
 20
-893.4757397659678
 30
0.0
 11
-929.1666675956782
 21
-893.4757397659678
 31
0.0
  0
LINE
  5
23B
330
A0
100
AcDbEntity
  8
1
  6
Continuous
 62
     2
100
AcDbLine
 10
-997.5000009290115
 20
-893.4757397659678
 30
0.0
 11
-997.5000009290115
 21
-888.4757397659678
 31
0.0
  0
LINE
  5
23C
330
A0
100
AcDbEntity
  8
1
  6
Continuous
 62
     2
100
AcDbLine
 10
-929.1666675956782
 20
-888.4757397659678
 30
0.0
 11
-977.5000009290144
 21
-888.4757397659678
 31
0.0
  0
LINE
  5
23D
330
A0
100
AcDbEntity
  8
1
  6
Continuous
 62
     6
100
AcDbLine
 10
-929.1666675956782
 20
-893.4757397659678
 30
0.0
 11
-860.833334262345
 21
-893.4757397659678
 31
0.0
  0
LINE
  5
23E
330
A0
100
AcDbEntity
  8
1
  6
Continuous
 62
     2
100
AcDbLine
 10
-929.1666675956782
 20
-893.4757397659678
 30
0.0
 11
-929.1666675956782
 21
-888.4757397659678
 31
0.0
  0
LINE
  5
23F
330
A0
100
AcDbEntity
  8
1
  6
Continuous
 62
     2
100
AcDbLine
 10
-860.833334262345
 20
-888.4757397659678
 30
0.0
 11
-929.1666675956782
 21
-888.4757397659678
 31
0.0
  0
LINE
  5
240
330
A0
100
AcDbEntity
  8
1
  6
Continuous
 62
     6
100
AcDbLine
 10
-860.833334262345
 20
-893.4757397659678
 30
0.0
 11
-792.500000929014
 21
-893.4757397659678
 31
0.0
  0
LINE
  5
241
330
A0
100
AcDbEntity
  8
1
  6
Continuous
 62
     2
100
AcDbLine
 10
-860.833334262345
 20
-893.4757397659678
 30
0.0
 11
-860.833334262345
 21
-888.4757397659678
 31
0.0
  0
LINE
  5
242
330
A0
100
AcDbEntity
  8
1
  6
Continuous
 62
     2
100
AcDbLine
 10
-792.500000929014
 20
-888.4757397659678
 30
0.0
 11
-860.833334262345
 21
-888.4757397659678
 31
0.0
  0
LINE
  5
243
330
A0
100
AcDbEntity
  8
1
  6
Continuous
 62
     6
100
AcDbLine
 10
-1187.500000929012
 20
-893.4757397659675
 30
0.0
 11
-1134.166667595678
 21
-893.4757397659675
 31
0.0
  0
LINE
  5
244
330
A0
100
AcDbEntity
  8
1
  6
Continuous
 62
     6
100
AcDbLine
 10
-792.5000009290115
 20
-1065.675739765968
 30
0.0
 11
-792.5000009290117
 21
-1123.075739765968
 31
0.0
  0
LINE
  5
245
330
A0
100
AcDbEntity
  8
1
  6
Continuous
 62
     2
100
AcDbLine
 10
-792.5000009290115
 20
-1065.675739765968
 30
0.0
 11
-787.500000929014
 21
-1065.675739765968
 31
0.0
  0
LINE
  5
246
330
A0
100
AcDbEntity
  8
1
  6
Continuous
 62
     2
100
AcDbLine
 10
-787.500000929014
 20
-1008.275739765968
 30
0.0
 11
-787.500000929014
 21
-1065.675739765968
 31
0.0
  0
LINE
  5
247
330
A0
100
AcDbEntity
  8
1
  6
Continuous
 62
     6
100
AcDbLine
 10
-792.5000009290115
 20
-1008.275739765968
 30
0.0
 11
-792.5000009290115
 21
-1065.675739765968
 31
0.0
  0
LINE
  5
248
330
A0
100
AcDbEntity
  8
1
  6
Continuous
 62
     2
100
AcDbLine
 10
-792.5000009290115
 20
-1008.275739765968
 30
0.0
 11
-787.500000929014
 21
-1008.275739765968
 31
0.0
  0
LINE
  5
249
330
A0
100
AcDbEntity
  8
1
  6
Continuous
 62
     2
100
AcDbLine
 10
-787.500000929014
 20
-950.8757397659679
 30
0.0
 11
-787.500000929014
 21
-1008.275739765968
 31
0.0
  0
LINE
  5
24A
330
A0
100
AcDbEntity
  8
1
  6
Continuous
 62
     6
100
AcDbLine
 10
-792.5000009290136
 20
-950.8757397659679
 30
0.0
 11
-792.5000009290115
 21
-1008.275739765968
 31
0.0
  0
LINE
  5
24B
330
A0
100
AcDbEntity
  8
1
  6
Continuous
 62
     2
100
AcDbLine
 10
-792.5000009290136
 20
-950.8757397659679
 30
0.0
 11
-787.500000929014
 21
-950.8757397659679
 31
0.0
  0
LINE
  5
24C
330
A0
100
AcDbEntity
  8
1
  6
Continuous
 62
     2
100
AcDbLine
 10
-787.500000929014
 20
-893.4757397659678
 30
0.0
 11
-787.500000929014
 21
-950.8757397659679
 31
0.0
  0
LINE
  5
24D
330
A0
100
AcDbEntity
  8
1
  6
Continuous
 62
     2
100
AcDbLine
 10
-792.500000929014
 20
-893.4757397659678
 30
0.0
 11
-787.500000929014
 21
-893.4757397659678
 31
0.0
  0
LINE
  5
24E
330
A0
100
AcDbEntity
  8
1
  6
Continuous
 62
     2
100
AcDbLine
 10
-792.500000929014
 20
-893.4757397659678
 30
0.0
 11
-792.500000929014
 21
-888.4757397659678
 31
0.0
  0
LINE
  5
24F
330
A0
100
AcDbEntity
  8
1
  6
Continuous
 62
     2
100
AcDbLine
 10
-787.500000929014
 20
-888.4757397659678
 30
0.0
 11
-787.500000929014
 21
-893.4757397659678
 31
0.0
  0
LINE
  5
250
330
A0
100
AcDbEntity
  8
1
  6
Continuous
 62
     6
100
AcDbLine
 10
-792.500000929014
 20
-893.4757397659678
 30
0.0
 11
-792.5000009290136
 21
-950.8757397659679
 31
0.0
  0
LINE
  5
251
330
A0
100
AcDbEntity
  8
1
  6
Continuous
 62
     2
100
AcDbLine
 10
-787.500000929014
 20
-888.4757397659678
 30
0.0
 11
-792.500000929014
 21
-888.4757397659678
 31
0.0
  0
LINE
  5
252
330
A0
100
AcDbEntity
  8
1
  6
Continuous
 62
     2
100
AcDbLine
 10
-787.500000929014
 20
-1180.475739765968
 30
0.0
 11
-787.500000929014
 21
-1123.075739765968
 31
0.0
  0
LINE
  5
253
330
A0
100
AcDbEntity
  8
1
  6
Continuous
 62
     2
100
AcDbLine
 10
-787.500000929014
 20
-1180.475739765968
 30
0.0
 11
-787.500000929014
 21
-1185.475739765968
 31
0.0
  0
LINE
  5
254
330
A0
100
AcDbEntity
  8
1
  6
Continuous
 62
     2
100
AcDbLine
 10
-787.500000929014
 20
-1185.475739765968
 30
0.0
 11
-792.5000009290115
 21
-1185.475739765968
 31
0.0
  0
LINE
  5
255
330
A0
100
AcDbEntity
  8
1
  6
Continuous
 62
     2
100
AcDbLine
 10
-929.1666675956782
 20
-1185.475739765968
 30
0.0
 11
-860.833334262345
 21
-1185.475739765968
 31
0.0
  0
LINE
  5
256
330
A0
100
AcDbEntity
  8
1
  6
Continuous
 62
     2
100
AcDbLine
 10
-977.5000009290144
 20
-1185.475739765968
 30
0.0
 11
-929.1666675956782
 21
-1185.475739765968
 31
0.0
  0
LINE
  5
257
330
A0
100
AcDbEntity
  8
1
  6
Continuous
 62
     2
100
AcDbLine
 10
-977.5000009290144
 20
-1185.475739765968
 30
0.0
 11
-977.5000009290144
 21
-1181.475739765968
 31
0.0
  0
LINE
  5
258
330
A0
100
AcDbEntity
  8
1
  6
Continuous
 62
     2
100
AcDbLine
 10
-977.5000009290144
 20
-1185.475739765968
 30
0.0
 11
-997.5000009290115
 21
-1185.475739765968
 31
0.0
  0
LINE
  5
259
330
A0
100
AcDbEntity
  8
1
  6
Continuous
 62
     2
100
AcDbLine
 10
-1187.500000929012
 20
-1185.475739765968
 30
0.0
 11
-1134.166667595678
 21
-1185.475739765968
 31
0.0
  0
LINE
  5
25A
330
A0
100
AcDbEntity
  8
1
  6
Continuous
 62
     2
100
AcDbLine
 10
-1187.500000929012
 20
-1185.475739765968
 30
0.0
 11
-1187.500000929012
 21
-1181.475739765968
 31
0.0
  0
LINE
  5
25B
330
A0
100
AcDbEntity
  8
1
  6
Continuous
 62
     2
100
AcDbLine
 10
-1065.833334262345
 20
-1185.475739765968
 30
0.0
 11
-1065.833334262345
 21
-1180.475739765968
 31
0.0
  0
LINE
  5
25C
330
A0
100
AcDbEntity
  8
1
  6
Continuous
 62
     6
100
AcDbLine
 10
-1134.166667595678
 20
-1180.475739765968
 30
0.0
 11
-1187.500000929011
 21
-1180.475739765968
 31
0.0
  0
LINE
  5
25D
330
A0
100
AcDbEntity
  8
1
  6
Continuous
 62
     6
100
AcDbLine
 10
-1134.166667595678
 20
-1180.475739765968
 30
0.0
 11
-1065.833334262345
 21
-1180.475739765968
 31
0.0
  0
LINE
  5
25E
330
A0
100
AcDbEntity
  8
1
  6
Continuous
 62
     2
100
AcDbLine
 10
-1134.166667595678
 20
-1185.475739765968
 30
0.0
 11
-1065.833334262345
 21
-1185.475739765968
 31
0.0
  0
LINE
  5
25F
330
A0
100
AcDbEntity
  8
1
  6
Continuous
 62
     2
100
AcDbLine
 10
-1134.166667595678
 20
-1185.475739765968
 30
0.0
 11
-1134.166667595678
 21
-1180.475739765968
 31
0.0
  0
LINE
  5
260
330
A0
100
AcDbEntity
  8
1
  6
Continuous
 62
     2
100
AcDbLine
 10
-1187.500000929012
 20
-1185.475739765968
 30
0.0
 11
-1207.500000929013
 21
-1185.475739765968
 31
0.0
  0
LINE
  5
261
330
A0
100
AcDbEntity
  8
1
  6
Continuous
 62
     2
100
AcDbLine
 10
-787.500000929014
 20
-1123.075739765968
 30
0.0
 11
-792.5000009290117
 21
-1123.075739765968
 31
0.0
  0
LINE
  5
262
330
A0
100
AcDbEntity
  8
1
  6
Continuous
 62
     2
100
AcDbLine
 10
-787.500000929014
 20
-1123.075739765968
 30
0.0
 11
-787.500000929014
 21
-1065.675739765968
 31
0.0
  0
LINE
  5
263
330
A0
100
AcDbEntity
  8
1
  6
Continuous
 62
     2
100
AcDbLine
 10
-997.5000009290115
 20
-1185.475739765968
 30
0.0
 11
-997.5000009290115
 21
-1180.475739765968
 31
0.0
  0
LINE
  5
264
330
A0
100
AcDbEntity
  8
1
  6
Continuous
 62
     2
100
AcDbLine
 10
-929.1666675956782
 20
-1185.475739765968
 30
0.0
 11
-929.1666675956782
 21
-1180.475739765971
 31
0.0
  0
LINE
  5
265
330
A0
100
AcDbEntity
  8
1
  6
Continuous
 62
     2
100
AcDbLine
 10
-860.833334262345
 20
-1185.475739765968
 30
0.0
 11
-860.833334262345
 21
-1180.475739765968
 31
0.0
  0
LINE
  5
266
330
A0
100
AcDbEntity
  8
1
  6
Continuous
 62
     2
100
AcDbLine
 10
-860.833334262345
 20
-1185.475739765968
 30
0.0
 11
-792.5000009290115
 21
-1185.475739765968
 31
0.0
  0
LINE
  5
267
330
A0
100
AcDbEntity
  8
1
  6
Continuous
 62
     2
100
AcDbLine
 10
-997.5000009290115
 20
-1185.475739765968
 30
0.0
 11
-1065.833334262345
 21
-1185.475739765968
 31
0.0
  0
LINE
  5
268
330
A0
100
AcDbEntity
  8
1
  6
Continuous
 62
     6
100
AcDbLine
 10
-792.5000009290126
 20
-1159.225739765968
 30
0.0
 11
-792.5000009290117
 21
-1123.075739765968
 31
0.0
  0
LINE
  5
269
330
A0
100
AcDbEntity
  8
1
  6
Continuous
 62
     6
100
AcDbLine
 10
-792.5000009290115
 20
-1163.475739765968
 30
0.0
 11
-792.5000009290126
 21
-1159.225739765968
 31
0.0
  0
LINE
  5
26A
330
A0
100
AcDbEntity
  8
1
  6
Continuous
 62
     6
100
AcDbLine
 10
-792.500000929012
 20
-1171.975739765968
 30
0.0
 11
-792.5000009290115
 21
-1163.475739765968
 31
0.0
  0
LINE
  5
26B
330
A0
100
AcDbEntity
  8
1
  6
Continuous
 62
     6
100
AcDbLine
 10
-860.833334262345
 20
-1180.475739765968
 30
0.0
 11
-792.5000009290117
 21
-1180.475739765968
 31
0.0
  0
ARC
  5
26C
102
{ACAD_REACTORS
330
2E7
330
2E8
102
}
330
A0
100
AcDbEntity
  8
0
  6
Continuous
 62
     2
100
AcDbCircle
 10
-909.6733044311119
 20
-1174.968015949303
 30
0.0
 40
4.852596863498158
100
AcDbArc
 50
74.02000874164733
 51
84.84185523037681
  0
ARC
  5
26D
102
{ACAD_REACTORS
330
2E7
330
2E8
102
}
330
A0
100
AcDbEntity
  8
0
  6
Continuous
 62
     2
100
AcDbCircle
 10
-909.0972638223582
 20
-1171.812255593418
 30
0.0
 40
0.9059297849847118
100
AcDbArc
 50
71.55192388184437
 51
113.3722778881337
  0
ARC
  5
26E
102
{ACAD_REACTORS
330
2E7
330
2E8
102
}
330
A0
100
AcDbEntity
  8
0
  6
Continuous
 62
     2
100
AcDbCircle
 10
-909.2537038550603
 20
-1171.860406433385
 30
0.0
 40
0.5115800601949912
100
AcDbArc
 50
208.5214732577276
 51
246.6277221118278
  0
ARC
  5
26F
102
{ACAD_REACTORS
330
2E7
330
2E8
102
}
330
A0
100
AcDbEntity
  8
0
  6
Continuous
 62
     2
100
AcDbCircle
 10
-909.0972638223582
 20
-1171.498414414675
 30
0.0
 40
0.9059297849848895
100
AcDbArc
 50
246.6277221118663
 51
288.4480761181556
  0
ARC
  5
270
102
{ACAD_REACTORS
330
2E7
330
2E8
102
}
330
A0
100
AcDbEntity
  8
0
  6
Continuous
 62
     2
100
AcDbCircle
 10
-909.5154315560192
 20
-1170.244868638638
 30
0.0
 40
2.227384008972431
100
AcDbArc
 50
288.4480761181393
 51
301.9309089499646
  0
ARC
  5
271
102
{ACAD_REACTORS
330
2E3
330
2E4
102
}
330
A0
100
AcDbEntity
  8
0
  6
Continuous
 62
     2
100
AcDbCircle
 10
-914.7405052886259
 20
-1169.512366609724
 30
0.0
 40
0.9118481501445603
100
AcDbArc
 50
295.3740086781774
 51
64.62599132179812
  0
ARC
  5
272
102
{ACAD_REACTORS
330
2E3
330
2E4
102
}
330
A0
100
AcDbEntity
  8
0
  6
Continuous
 62
     2
100
AcDbCircle
 10
-914.2144625905379
 20
-1167.79768972125
 30
0.0
 40
0.3157169230771517
100
AcDbArc
 50
90.18896704258138
 51
180.0
  0
ARC
  5
273
102
{ACAD_REACTORS
330
2E5
330
2E6
102
}
330
A0
100
AcDbEntity
  8
0
  6
Continuous
 62
     2
100
AcDbCircle
 10
-893.0043323777037
 20
-1171.868218555091
 30
0.0
 40
0.9545230068260935
100
AcDbArc
 50
90.0
 51
109.3371432194175
  0
ARC
  5
274
102
{ACAD_REACTORS
330
2E5
330
2E6
102
}
330
A0
100
AcDbEntity
  8
0
  6
Continuous
 62
     2
100
AcDbCircle
 10
-892.7736451177259
 20
-1171.655335004047
 30
0.0
 40
0.9410597353349766
100
AcDbArc
 50
151.4785267423711
 51
208.5214732576289
  0
ARC
  5
275
102
{ACAD_REACTORS
330
2E5
330
2E6
102
}
330
A0
100
AcDbEntity
  8
0
  6
Continuous
 62
     2
100
AcDbCircle
 10
-892.9945623431042
 20
-1171.498414414675
 30
0.0
 40
0.9059297849852503
100
AcDbArc
 50
246.6277221118135
 51
288.4480761180647
  0
ARC
  5
276
102
{ACAD_REACTORS
330
2E5
330
2E6
102
}
330
A0
100
AcDbEntity
  8
0
  6
Continuous
 62
     2
100
AcDbCircle
 10
-893.4127300767663
 20
-1170.244868638639
 30
0.0
 40
2.227384008972611
100
AcDbArc
 50
288.4480761181346
 51
301.9309089499522
  0
ARC
  5
277
102
{ACAD_REACTORS
330
2E5
330
2E6
102
}
330
A0
100
AcDbEntity
  8
0
  6
Continuous
 62
     2
100
AcDbCircle
 10
-893.570602951859
 20
-1168.34265405879
 30
0.0
 40
4.852596863498941
100
AcDbArc
 50
275.1581447696365
 51
285.9799912583368
  0
ARC
  5
278
102
{ACAD_REACTORS
330
2E5
330
2E6
102
}
330
A0
100
AcDbEntity
  8
0
  6
Continuous
 62
     2
100
AcDbCircle
 10
-893.2817468571232
 20
-1171.542544642012
 30
0.0
 40
1.639695123940421
100
AcDbArc
 50
195.0618917771015
 51
275.1581447696781
  0
ARC
  5
279
102
{ACAD_REACTORS
330
2DD
330
2DE
102
}
330
A0
100
AcDbEntity
  8
0
  6
Continuous
 62
     2
100
AcDbCircle
 10
-909.0099601688142
 20
-1167.8246054073
 30
0.0
 40
1.055365641333992
100
AcDbArc
 50
270.0
 51
90.0
  0
ARC
  5
27A
102
{ACAD_REACTORS
330
2E3
330
2E4
102
}
330
A0
100
AcDbEntity
  8
0
  6
Continuous
 62
     2
100
AcDbCircle
 10
-916.7900112770697
 20
-1172.153967287318
 30
0.0
 40
0.3157169230756836
100
AcDbArc
 50
180.0
 51
270.0
  0
ARC
  5
27B
102
{ACAD_REACTORS
330
2E3
330
2E4
102
}
330
A0
100
AcDbEntity
  8
0
  6
Continuous
 62
     2
100
AcDbCircle
 10
-915.3141780160602
 20
-1167.797512244601
 30
0.0
 40
0.3157169230767067
100
AcDbArc
 50
0.0
 51
90.0
  0
ARC
  5
27C
102
{ACAD_REACTORS
330
2E3
330
2E4
102
}
330
A0
100
AcDbEntity
  8
0
  6
Continuous
 62
     2
100
AcDbCircle
 10
-915.3141780160602
 20
-1168.401536863662
 30
0.0
 40
0.3157169230765287
100
AcDbArc
 50
295.1944106485277
 51
0.0
  0
ARC
  5
27D
102
{ACAD_REACTORS
330
2E3
330
2E4
102
}
330
A0
100
AcDbEntity
  8
0
  6
Continuous
 62
     2
100
AcDbCircle
 10
-915.3141780160602
 20
-1172.153967287318
 30
0.0
 40
0.3157169230769341
100
AcDbArc
 50
270.0
 51
0.0
  0
ARC
  5
27E
102
{ACAD_REACTORS
330
2E3
330
2E4
102
}
330
A0
100
AcDbEntity
  8
0
  6
Continuous
 62
     2
100
AcDbCircle
 10
-917.3839059538162
 20
-1167.193484381369
 30
0.0
 40
0.424244615383941
100
AcDbArc
 50
90.0
 51
180.0
  0
ARC
  5
27F
102
{ACAD_REACTORS
330
2E3
330
2E4
102
}
330
A0
100
AcDbEntity
  8
0
  6
Continuous
 62
     2
100
AcDbCircle
 10
-911.9105938630993
 20
-1167.193484381369
 30
0.0
 40
0.4242446153838273
100
AcDbArc
 50
0.0
 51
90.0
  0
ARC
  5
280
102
{ACAD_REACTORS
330
2E3
330
2E4
102
}
330
A0
100
AcDbEntity
  8
0
  6
Continuous
 62
     2
100
AcDbCircle
 10
-911.9105938630993
 20
-1172.757995150569
 30
0.0
 40
0.4242446153830315
100
AcDbArc
 50
270.0
 51
0.0
  0
ARC
  5
281
102
{ACAD_REACTORS
330
2E1
330
2E2
102
}
330
A0
100
AcDbEntity
  8
0
  6
Continuous
 62
     2
100
AcDbCircle
 10
-902.6922099760078
 20
-1168.296144527873
 30
0.0
 40
0.7717997786790343
100
AcDbArc
 50
321.8795802028837
 51
38.12041979722252
  0
ARC
  5
282
102
{ACAD_REACTORS
330
2E1
330
2E2
102
}
330
A0
100
AcDbEntity
  8
0
  6
Continuous
 62
     2
100
AcDbCircle
 10
-902.4924699396616
 20
-1168.452875705993
 30
0.0
 40
0.517908573013281
100
AcDbArc
 50
218.1204197971087
 51
321.8795802028835
  0
ARC
  5
283
102
{ACAD_REACTORS
330
2DF
330
2E0
102
}
330
A0
100
AcDbEntity
  8
0
  6
Continuous
 62
     2
100
AcDbCircle
 10
-906.1724775286219
 20
-1171.655335004047
 30
0.0
 40
1.458034083651714
100
AcDbArc
 50
297.5481481757107
 51
62.4518518243058
  0
ARC
  5
284
102
{ACAD_REACTORS
330
2DF
330
2E0
102
}
330
A0
100
AcDbEntity
  8
0
  6
Continuous
 62
     2
100
AcDbCircle
 10
-906.7343573122885
 20
-1171.655335004047
 30
0.0
 40
1.458034083651995
100
AcDbArc
 50
117.5481481756546
 51
242.4518518243289
  0
ARC
  5
285
102
{ACAD_REACTORS
330
2DF
330
2E0
102
}
330
A0
100
AcDbEntity
  8
0
  6
Continuous
 62
     2
100
AcDbCircle
 10
-906.4534174204551
 20
-1172.19391001435
 30
0.0
 40
2.065479772209248
100
AcDbArc
 50
62.45185182431621
 51
117.5481481756586
  0
ARC
  5
286
102
{ACAD_REACTORS
330
2DF
330
2E0
102
}
330
A0
100
AcDbEntity
  8
0
  6
Continuous
 62
     2
100
AcDbCircle
 10
-906.4534174204551
 20
-1171.116759993744
 30
0.0
 40
2.065479772207969
100
AcDbArc
 50
242.4518518243297
 51
297.5481481756955
  0
ARC
  5
287
102
{ACAD_REACTORS
330
2E1
330
2E2
102
}
330
A0
100
AcDbEntity
  8
0
  6
Continuous
 62
     2
100
AcDbCircle
 10
-902.2927299033154
 20
-1168.296144527873
 30
0.0
 40
0.771799778680336
100
AcDbArc
 50
141.8795802027879
 51
218.1204197971059
  0
ARC
  5
288
102
{ACAD_REACTORS
330
2E1
330
2E2
102
}
330
A0
100
AcDbEntity
  8
0
  6
Continuous
 62
     2
100
AcDbCircle
 10
-902.4924699396616
 20
-1168.139413349752
 30
0.0
 40
0.5179085730137529
100
AcDbArc
 50
38.12041979719563
 51
141.8795802028121
  0
ARC
  5
289
102
{ACAD_REACTORS
330
2E3
330
2E4
102
}
330
A0
100
AcDbEntity
  8
0
  6
Continuous
 62
     2
100
AcDbCircle
 10
-917.3839059538162
 20
-1172.757995150569
 30
0.0
 40
0.4242446153828041
100
AcDbArc
 50
180.0
 51
270.0
  0
ARC
  5
28A
102
{ACAD_REACTORS
330
2E3
330
2E4
102
}
330
A0
100
AcDbEntity
  8
0
  6
Continuous
 62
     2
100
AcDbCircle
 10
-915.3141780160602
 20
-1170.623196355787
 30
0.0
 40
0.3157169230767067
100
AcDbArc
 50
0.0
 51
64.80558935147235
  0
ARC
  5
28B
102
{ACAD_REACTORS
330
2E3
330
2E4
102
}
330
A0
100
AcDbEntity
  8
0
  6
Continuous
 62
     2
100
AcDbCircle
 10
-914.7915935684852
 20
-1169.512366609724
 30
0.0
 40
0.9118975235571412
100
AcDbArc
 50
115.1944106485363
 51
244.805589351488
  0
ARC
  5
28C
102
{ACAD_REACTORS
330
2E3
330
2E4
102
}
330
A0
100
AcDbEntity
  8
0
  6
Continuous
 62
     2
100
AcDbCircle
 10
-916.7900112770697
 20
-1167.797512244601
 30
0.0
 40
0.3157169230760246
100
AcDbArc
 50
90.0
 51
180.0
  0
ARC
  5
28D
102
{ACAD_REACTORS
330
2DD
330
2DE
102
}
330
A0
100
AcDbEntity
  8
0
  6
Continuous
 62
     2
100
AcDbCircle
 10
-909.4514326950526
 20
-1167.785209436078
 30
0.0
 40
0.3528638246709761
100
AcDbArc
 50
270.0
 51
90.0
  0
ARC
  5
28E
102
{ACAD_REACTORS
330
2E1
330
2E2
102
}
330
A0
100
AcDbEntity
  8
0
  6
Continuous
 62
     2
100
AcDbCircle
 10
-902.7087419498268
 20
-1168.296144527873
 30
0.0
 40
1.526904761905826
100
AcDbArc
 50
90.0
 51
270.0
  0
ARC
  5
28F
102
{ACAD_REACTORS
330
2E5
330
2E6
102
}
330
A0
100
AcDbEntity
  8
0
  6
Continuous
 62
     2
100
AcDbCircle
 10
-893.2817468571232
 20
-1171.768125366082
 30
0.0
 40
1.63969512394101
100
AcDbArc
 50
90.0
 51
164.9381082228985
  0
ARC
  5
290
102
{ACAD_REACTORS
330
2E5
330
2E6
102
}
330
A0
100
AcDbEntity
  8
0
  6
Continuous
 62
     2
100
AcDbCircle
 10
-893.7008747005848
 20
-1171.655335004047
 30
0.0
 40
1.205656168392903
100
AcDbArc
 50
164.9381082229099
 51
195.0618917770901
  0
ARC
  5
291
102
{ACAD_REACTORS
330
2E5
330
2E6
102
}
330
A0
100
AcDbEntity
  8
0
  6
Continuous
 62
     2
100
AcDbCircle
 10
-893.1510023758074
 20
-1171.860406433385
 30
0.0
 40
0.5115800601959901
100
AcDbArc
 50
208.5214732576668
 51
246.6277221118395
  0
ARC
  5
292
102
{ACAD_REACTORS
330
2E5
330
2E6
102
}
330
A0
100
AcDbEntity
  8
0
  6
Continuous
 62
     2
100
AcDbCircle
 10
-893.1510023758074
 20
-1171.450263574708
 30
0.0
 40
0.5115800601948339
100
AcDbArc
 50
109.3371432194654
 51
151.4785267424227
  0
ARC
  5
293
102
{ACAD_REACTORS
330
2E3
330
2E4
102
}
330
A0
100
AcDbEntity
  8
0
  6
Continuous
 62
     2
100
AcDbCircle
 10
-914.2144625905379
 20
-1171.203359616387
 30
0.0
 40
0.3157169230768204
100
AcDbArc
 50
180.0
 51
269.8110329574187
  0
ARC
  5
294
102
{ACAD_REACTORS
330
2E3
330
2E4
102
}
330
A0
100
AcDbEntity
  8
0
  6
Continuous
 62
     2
100
AcDbCircle
 10
-914.2088464552279
 20
-1169.500524668818
 30
0.0
 40
2.018561131934289
100
AcDbArc
 50
269.8110329575811
 51
90.18896704241901
  0
ARC
  5
295
102
{ACAD_REACTORS
330
2E3
330
2E4
102
}
330
A0
100
AcDbEntity
  8
0
  6
Continuous
 62
     2
100
AcDbCircle
 10
-914.2144625905379
 20
-1168.403225009756
 30
0.0
 40
0.3157169230768204
100
AcDbArc
 50
180.0
 51
244.6259913216833
  0
ARC
  5
296
102
{ACAD_REACTORS
330
2E3
330
2E4
102
}
330
A0
100
AcDbEntity
  8
0
  6
Continuous
 62
     2
100
AcDbCircle
 10
-914.2144625905379
 20
-1170.621508209692
 30
0.0
 40
0.31571692307598
100
AcDbArc
 50
115.3740086784051
 51
180.0
  0
ARC
  5
297
102
{ACAD_REACTORS
330
2E7
330
2E8
102
}
330
A0
100
AcDbEntity
  8
0
  6
Continuous
 62
     2
100
AcDbCircle
 10
-909.384448336376
 20
-1171.768125366082
 30
0.0
 40
1.639695123941119
100
AcDbArc
 50
84.8418552303683
 51
164.9381082228913
  0
ARC
  5
298
102
{ACAD_REACTORS
330
2E7
330
2E8
102
}
330
A0
100
AcDbEntity
  8
0
  6
Continuous
 62
     2
100
AcDbCircle
 10
-909.8035761798388
 20
-1171.655335004047
 30
0.0
 40
1.205656168390927
100
AcDbArc
 50
164.9381082228846
 51
195.0618917770736
  0
ARC
  5
299
102
{ACAD_REACTORS
330
2E7
330
2E8
102
}
330
A0
100
AcDbEntity
  8
0
  6
Continuous
 62
     2
100
AcDbCircle
 10
-909.384448336376
 20
-1171.542544642012
 30
0.0
 40
1.639695123939416
100
AcDbArc
 50
195.061891777078
 51
275.1581447696346
  0
ARC
  5
29A
102
{ACAD_REACTORS
330
2E7
330
2E8
102
}
330
A0
100
AcDbEntity
  8
0
  6
Continuous
 62
     2
100
AcDbCircle
 10
-909.6733044311119
 20
-1168.34265405879
 30
0.0
 40
4.852596863498839
100
AcDbArc
 50
275.1581447696232
 51
285.9799912583526
  0
ARC
  5
29B
102
{ACAD_REACTORS
330
2E7
330
2E8
102
}
330
A0
100
AcDbEntity
  8
0
  6
Continuous
 62
     2
100
AcDbCircle
 10
-908.8763465969799
 20
-1171.655335004047
 30
0.0
 40
0.941059735333413
100
AcDbArc
 50
151.4785267422564
 51
208.521473257695
  0
ARC
  5
29C
102
{ACAD_REACTORS
330
2E7
330
2E8
102
}
330
A0
100
AcDbEntity
  8
0
  6
Continuous
 62
     2
100
AcDbCircle
 10
-909.2537038550603
 20
-1171.450263574708
 30
0.0
 40
0.5115800601953623
100
AcDbArc
 50
113.3722778881722
 51
151.4785267422724
  0
ARC
  5
29D
102
{ACAD_REACTORS
330
2E7
330
2E8
102
}
330
A0
100
AcDbEntity
  8
0
  6
Continuous
 62
     2
100
AcDbCircle
 10
-909.5154315560192
 20
-1173.065801369455
 30
0.0
 40
2.227384008973574
100
AcDbArc
 50
58.06909105003538
 51
71.55192388186074
  0
ARC
  5
29E
102
{ACAD_REACTORS
330
2DF
330
2E0
102
}
330
A0
100
AcDbEntity
  8
0
  6
Continuous
 62
     2
100
AcDbCircle
 10
-906.4534174204551
 20
-1171.498603825926
 30
0.0
 40
0.5179085730130126
100
AcDbArc
 50
38.120419797132
 51
141.8795802028913
  0
ARC
  5
29F
102
{ACAD_REACTORS
330
2DF
330
2E0
102
}
330
A0
100
AcDbEntity
  8
0
  6
Continuous
 62
     2
100
AcDbCircle
 10
-906.2536773841091
 20
-1171.655335004047
 30
0.0
 40
0.7717997786795957
100
AcDbArc
 50
141.8795802028306
 51
218.1204197971694
  0
ARC
  5
2A0
102
{ACAD_REACTORS
330
2DF
330
2E0
102
}
330
A0
100
AcDbEntity
  8
0
  6
Continuous
 62
     2
100
AcDbCircle
 10
-906.4534174204551
 20
-1171.812066182167
 30
0.0
 40
0.5179085730138424
100
AcDbArc
 50
218.1204197971879
 51
321.8795802027889
  0
ARC
  5
2A1
102
{ACAD_REACTORS
330
2DF
330
2E0
102
}
330
A0
100
AcDbEntity
  8
0
  6
Continuous
 62
     2
100
AcDbCircle
 10
-906.6531574568015
 20
-1171.655335004047
 30
0.0
 40
0.7717997786795957
100
AcDbArc
 50
321.8795802028306
 51
38.1204197971694
  0
CIRCLE
  5
2A2
330
A0
100
AcDbEntity
  8
1
  6
Continuous
 62
     2
100
AcDbCircle
 10
-909.308150569199
 20
-1159.350739765969
 30
0.0
 40
2.5
  0
CIRCLE
  5
2A3
330
A0
100
AcDbEntity
  8
1
  6
Continuous
 62
     2
100
AcDbCircle
 10
-909.308150569199
 20
-1159.350739765969
 30
0.0
 40
1.25
  0
CIRCLE
  5
2A4
102
{ACAD_REACTORS
330
2E3
330
2E4
102
}
330
A0
100
AcDbEntity
  8
0
  6
Continuous
 62
     2
100
AcDbCircle
 10
-914.7643203032986
 20
-1169.512366609724
 30
0.0
 40
0.4709789327785074
  0
MTEXT
  5
2A5
330
A0
100
AcDbEntity
  8
1
 62
     3
100
AcDbMText
 10
-1189.077327617658
 20
-1180.448825666467
 30
0.0
 40
1.8
 41
0.0
 71
     7
 72
     1
  3
Weitergabe sowie Vervielfältigung dieses Dokuments, Verwertung und \PMitteilung seines Inhalts sind verboten, soweit nicht ausdrücklich gestattet. \PZuwiderhandlungen verpflichten zu Schadenersatz. Alle Rechte für den Fall\Pder Patent-, Gebrauchsmus
  1
ter- oder Designeintragung vorbehalten.
  7
CONVERTER_11
 11
0.0
 21
1.0
 31
0.0
 73
     1
 44
0.99639855942377
  0
MTEXT
  5
2A6
330
A0
100
AcDbEntity
  8
1
 62
     3
100
AcDbMText
 10
-1189.231533928752
 20
-1007.489455652314
 30
0.0
 40
1.8
 41
0.0
 71
     7
 72
     1
  3
Transfer or duplication of this document as well as the utilisation or\Pcommunication of its content are not permitted unless express consent\Pis granted. Violations give rise to claims for damages. All rights reserved\Pin case of patent, utility mo
  1
del or design patent registrations.
  7
CONVERTER_11
 11
0.0
 21
1.0
 31
0.0
 73
     1
 44
0.99639855942377
  0
TEXT
  5
2A7
330
A0
100
AcDbEntity
  8
1
 62
     2
100
AcDbText
 10
-902.8448054557617
 20
-1179.23475698096
 30
0.0
 40
1.8
  1
of
 41
0.9
  7
CONVERTER_11
100
AcDbText
  0
TEXT
  5
2A8
330
A0
100
AcDbEntity
  8
1
 62
     2
100
AcDbText
 10
-921.0448054557615
 20
-1179.23475698096
 30
0.0
 40
1.8
  1
page
 41
0.9
  7
CONVERTER_11
100
AcDbText
  0
TEXT
  5
2A9
330
A0
100
AcDbEntity
  8
1
 62
     2
100
AcDbText
 10
-912.3985404854195
 20
-1179.27498841977
 30
0.0
 40
1.8
  1
1
 41
0.9
  7
CONVERTER_11
100
AcDbText
  0
TEXT
  5
2AA
330
A0
100
AcDbEntity
  8
1
 62
     2
100
AcDbText
 10
-897.609496645948
 20
-1179.225739765968
 30
0.0
 40
1.8
  1
1
 41
0.9
  7
CONVERTER_11
100
AcDbText
  0
MTEXT
  5
2AC
330
A0
100
AcDbEntity
  8
1
 62
     7
100
AcDbMText
 10
-839.0724031923861
 20
-1177.225739765968
 30
0.0
 40
3.0
 41
0.0
 71
     5
 72
     1
  1
D-PT 16-TWIN N
  7
CONVERTER_12
 73
     1
 44
1.20048019207683
  0
MTEXT
  5
2AD
330
A0
100
AcDbEntity
  8
1
 62
     2
100
AcDbMText
 10
-884.6448054557616
 20
-1172.975739765968
 30
0.0
 40
1.8
 41
0.0
 71
     1
 72
     1
  1
description
  7
CONVERTER_11
 73
     1
 44
1.20048019207683
  0
MTEXT
  5
2AE
330
A0
100
AcDbEntity
  8
1
 62
     3
100
AcDbMText
 10
-895.8448054557616
 20
-1159.350739765968
 30
0.0
 40
2.5
 41
0.0
 71
     5
 72
     1
  1
DIN A3
  7
CONVERTER_11
 73
     1
 44
1.20048019207683
  0
MTEXT
  5
2AF
330
A0
100
AcDbEntity
  8
1
 62
     2
100
AcDbMText
 10
-956.4558287249711
 20
-1167.72573976597
 30
0.0
 40
2.0
 41
0.0
 71
     5
 72
     1
  1
General Information\P- Simplified representation\P- Document excluded from change process\P- Linear dimensions [mm]
  7
CONVERTER_11
 73
     1
 44
1.20048019207683
  0
TEXT
  5
2B0
330
A0
100
AcDbEntity
  8
1
 62
     7
100
AcDbText
 10
-884.1448054557618
 20
-1170.675739765968
 30
0.0
 40
2.5
  1
3208799
 41
0.81
  7
CONVERTER_12
100
AcDbText
  0
MTEXT
  5
2B1
330
A0
100
AcDbEntity
  8
1
 62
     2
100
AcDbMText
 10
-884.5448054557617
 20
-1164.475739765968
 30
0.0
 40
1.8
 41
0.0
 71
     1
 72
     1
  1
ident.-No.
  7
CONVERTER_11
 73
     1
 44
1.20048019207683
  0
MTEXT
  5
2B2
330
A0
100
AcDbEntity
  8
1
 62
     2
100
AcDbMText
 10
-800.3184092106889
 20
-1155.975739765968
 30
0.0
 40
1.8
 41
0.0
 71
     1
 72
     1
  1
scale
  7
CONVERTER_11
 73
     1
 44
1.20048019207683
  0
MTEXT
  5
2B4
330
A0
100
AcDbEntity
  8
1
 62
     3
100
AcDbMText
 10
-796.9592050698493
 20
-1162.175739765968
 30
0.0
 40
2.5
 41
0.0
 71
     8
 72
     1
  1
1:1
  7
CONVERTER_13
 73
     1
 44
1.32052821128451
  0
TEXT
  5
2B5
330
A0
100
AcDbEntity
  8
1
 62
     7
100
AcDbText
 10
-884.5448054557617
 20
-1162.175739765968
 30
0.0
 40
2.5
  1
00694954
 41
0.81
  7
CONVERTER_12
100
AcDbText
  0
MTEXT
  5
2B7
330
A0
100
AcDbEntity
  8
1
 62
     2
100
AcDbMText
 10
-884.5448054557617
 20
-1155.975739765968
 30
0.0
 40
1.8
 41
0.0
 71
     1
 72
     1
  1
document-No. / RI
  7
CONVERTER_14
 73
     1
 44
1.32052821128451
  0
TEXT
  5
2B8
330
A0
100
AcDbEntity
  8
1
 62
     3
100
AcDbText
 10
-856.7448054557616
 20
-1170.675739765968
 30
0.0
 40
2.5
  1
TECDOC 2D_Productdrawing
 41
0.81
  7
CONVERTER_12
100
AcDbText
  0
MTEXT
  5
2B9
330
A0
100
AcDbEntity
  8
1
 62
     2
100
AcDbMText
 10
-856.7448054557616
 20
-1164.475739765968
 30
0.0
 40
1.8
 41
0.0
 71
     1
 72
     1
  1
document-type
  7
CONVERTER_11
 73
     1
 44
1.20048019207683
  0
MTEXT
  5
2BA
330
A0
100
AcDbEntity
  8
1
 62
     2
100
AcDbMText
 10
-826.9184092106887
 20
-1155.975739765968
 30
0.0
 40
1.8
 41
0.0
 71
     1
 72
     1
  1
date
  7
CONVERTER_11
 73
     1
 44
1.32052821128451
  0
TEXT
  5
2BB
330
A0
100
AcDbEntity
  8
1
 62
     3
100
AcDbText
 10
-826.9184092106887
 20
-1162.175739765968
 30
0.0
 40
2.5
  1
20.10.2017
 41
0.81
  7
CONVERTER_12
100
AcDbText
  0
TEXT
  5
2BC
330
A0
100
AcDbEntity
  8
1
 62
     7
100
AcDbText
 10
-864.5148932367058
 20
-1162.175739765968
 30
0.0
 40
2.5
  1
02
 41
0.81
  7
CONVERTER_12
100
AcDbText
  0
TEXT
  5
2BD
330
A0
100
AcDbEntity
  8
1
 62
     7
100
AcDbText
 10
-866.6712577337478
 20
-1162.175739765968
 30
0.0
 40
2.5
  1
/
 41
0.9
  7
CONVERTER_11
100
AcDbText
  0
TEXT
  5
2BE
330
A0
100
AcDbEntity
  8
1
 62
     7
100
AcDbText
 10
-1169.500000929011
 20
-892.4757397659675
 30
0.0
 40
2.5
  1
1
 41
0.9
  7
CONVERTER_11
100
AcDbText
  0
TEXT
  5
2BF
330
A0
100
AcDbEntity
  8
1
 62
     7
100
AcDbText
 10
-1101.166667595678
 20
-892.4757397659675
 30
0.0
 40
2.5
  1
2
 41
0.9
  7
CONVERTER_11
100
AcDbText
  0
TEXT
  5
2C0
330
A0
100
AcDbEntity
  8
1
 62
     7
100
AcDbText
 10
-1032.833334262345
 20
-892.4757397659675
 30
0.0
 40
2.5
  1
3
 41
0.9
  7
CONVERTER_11
100
AcDbText
  0
TEXT
  5
2C1
330
A0
100
AcDbEntity
  8
1
 62
     7
100
AcDbText
 10
-964.5000009290115
 20
-892.4757397659675
 30
0.0
 40
2.5
  1
4
 41
0.9
  7
CONVERTER_11
100
AcDbText
  0
TEXT
  5
2C2
330
A0
100
AcDbEntity
  8
1
 62
     7
100
AcDbText
 10
-896.1666675956782
 20
-892.4757397659675
 30
0.0
 40
2.5
  1
5
 41
0.9
  7
CONVERTER_11
100
AcDbText
  0
TEXT
  5
2C3
330
A0
100
AcDbEntity
  8
1
 62
     7
100
AcDbText
 10
-827.833334262345
 20
-892.4757397659675
 30
0.0
 40
2.5
  1
6
 41
0.9
  7
CONVERTER_11
100
AcDbText
  0
TEXT
  5
2C4
330
A0
100
AcDbEntity
  8
1
 62
     7
100
AcDbText
 10
-791.5000009290115
 20
-923.3757397659679
 30
0.0
 40
2.5
  1
A
 41
0.9
  7
CONVERTER_11
100
AcDbText
  0
TEXT
  5
2C5
330
A0
100
AcDbEntity
  8
1
 62
     7
100
AcDbText
 10
-791.5000009290115
 20
-980.7757397659677
 30
0.0
 40
2.5
  1
B
 41
0.9
  7
CONVERTER_11
100
AcDbText
  0
TEXT
  5
2C6
330
A0
100
AcDbEntity
  8
1
 62
     7
100
AcDbText
 10
-791.5000009290115
 20
-1038.175739765968
 30
0.0
 40
2.5
  1
C
 41
0.9
  7
CONVERTER_11
100
AcDbText
  0
TEXT
  5
2C7
330
A0
100
AcDbEntity
  8
1
 62
     7
100
AcDbText
 10
-791.5000009290115
 20
-1095.575739765968
 30
0.0
 40
2.5
  1
D
 41
0.9
  7
CONVERTER_11
100
AcDbText
  0
TEXT
  5
2C8
330
A0
100
AcDbEntity
  8
1
 62
     7
100
AcDbText
 10
-1101.166667595678
 20
-1184.475739765968
 30
0.0
 40
2.5
  1
2
 41
0.9
  7
CONVERTER_11
100
AcDbText
  0
TEXT
  5
2C9
330
A0
100
AcDbEntity
  8
1
 62
     7
100
AcDbText
 10
-1169.500000929011
 20
-1184.475739765968
 30
0.0
 40
2.5
  1
1
 41
0.9
  7
CONVERTER_11
100
AcDbText
  0
TEXT
  5
2CA
330
A0
100
AcDbEntity
  8
1
 62
     7
100
AcDbText
 10
-791.5000009290115
 20
-1152.975739765968
 30
0.0
 40
2.5
  1
E
 41
0.9
  7
CONVERTER_11
100
AcDbText
  0
TEXT
  5
2CB
330
A0
100
AcDbEntity
  8
1
 62
     7
100
AcDbText
 10
-1032.833334262345
 20
-1184.475739765968
 30
0.0
 40
2.5
  1
3
 41
0.9
  7
CONVERTER_11
100
AcDbText
  0
TEXT
  5
2CC
330
A0
100
AcDbEntity
  8
1
 62
     7
100
AcDbText
 10
-964.5000009290115
 20
-1184.475739765968
 30
0.0
 40
2.5
  1
4
 41
0.9
  7
CONVERTER_11
100
AcDbText
  0
TEXT
  5
2CD
330
A0
100
AcDbEntity
  8
1
 62
     7
100
AcDbText
 10
-896.1666675956784
 20
-1184.475739765968
 30
0.0
 40
2.5
  1
5
 41
0.9
  7
CONVERTER_11
100
AcDbText
  0
TEXT
  5
2CE
330
A0
100
AcDbEntity
  8
1
 62
     7
100
AcDbText
 10
-827.833334262345
 20
-1184.475739765968
 30
0.0
 40
2.5
  1
6
 41
0.9
  7
CONVERTER_11
100
AcDbText
  0
HATCH
  5
2CF
330
A0
100
AcDbEntity
  8
1
  6
Continuous
 62
     2
100
AcDbHatch
 10
0.0
 20
0.0
 30
0.0
210
0.0
220
0.0
230
1.0
  2
CUSTOM0
 70
     0
 71
     1
 91
        1
 92
        1
 93
       12
 72
     1
 10
-904.3773047428004
 20
-1169.823049289778
 11
-905.5700974449669
 21
-1169.823049289778
 72
     1
 10
-905.5700974449669
 20
-1169.823049289778
 11
-905.5700974449669
 21
-1168.688777180934
 72
     1
 10
-905.5700974449669
 20
-1168.688777180934
 11
-906.6197550228743
 21
-1168.688777180934
 72
     1
 10
-906.6197550228743
 20
-1168.688777180934
 11
-906.6197550228743
 21
-1169.823049289778
 72
     1
 10
-906.6197550228743
 20
-1169.823049289778
 11
-907.8125477250409
 21
-1169.823049289778
 72
     1
 10
-907.8125477250409
 20
-1169.823049289778
 11
-907.8125477250409
 21
-1166.769239765967
 72
     1
 10
-907.8125477250409
 20
-1166.769239765967
 11
-906.6197550228743
 21
-1166.769239765967
 72
     1
 10
-906.6197550228743
 20
-1166.769239765967
 11
-906.6197550228743
 21
-1167.838073099301
 72
     1
 10
-906.6197550228743
 20
-1167.838073099301
 11
-905.5700974449669
 21
-1167.838073099301
 72
     1
 10
-905.5700974449669
 20
-1167.838073099301
 11
-905.5700974449669
 21
-1166.769239765967
 72
     1
 10
-905.5700974449669
 20
-1166.769239765967
 11
-904.3773047428004
 21
-1166.769239765967
 72
     1
 10
-904.3773047428004
 20
-1166.769239765967
 11
-904.3773047428004
 21
-1169.823049289778
 97
       12
330
1F8
330
1F9
330
1E3
330
1E2
330
1E1
330
1F5
330
1E0
330
1F6
330
1F7
330
1DF
330
1DE
330
1DD
 75
     1
 76
     2
 52
45.0
 41
0.1
 77
     0
 78
     1
 53
45.0
 43
62.7811309658083
 44
-72.3161373035813
 45
-0.1414213562373095
 46
0.0
 79
     0
 98
        1
 10
0.0
 20
0.0
  0
HATCH
  5
2D0
330
A0
100
AcDbEntity
  8
1
  6
Continuous
 62
     2
100
AcDbHatch
 10
0.0
 20
0.0
 30
0.0
210
0.0
220
0.0
230
1.0
  2
CUSTOM1
 70
     0
 71
     1
 91
        1
 92
        1
 93
       12
 72
     1
 10
-904.3773047428004
 20
-1169.823049289778
 11
-905.5700974449669
 21
-1169.823049289778
 72
     1
 10
-905.5700974449669
 20
-1169.823049289778
 11
-905.5700974449669
 21
-1168.688777180934
 72
     1
 10
-905.5700974449669
 20
-1168.688777180934
 11
-906.6197550228743
 21
-1168.688777180934
 72
     1
 10
-906.6197550228743
 20
-1168.688777180934
 11
-906.6197550228743
 21
-1169.823049289778
 72
     1
 10
-906.6197550228743
 20
-1169.823049289778
 11
-907.8125477250409
 21
-1169.823049289778
 72
     1
 10
-907.8125477250409
 20
-1169.823049289778
 11
-907.8125477250409
 21
-1166.769239765967
 72
     1
 10
-907.8125477250409
 20
-1166.769239765967
 11
-906.6197550228743
 21
-1166.769239765967
 72
     1
 10
-906.6197550228743
 20
-1166.769239765967
 11
-906.6197550228743
 21
-1167.838073099301
 72
     1
 10
-906.6197550228743
 20
-1167.838073099301
 11
-905.5700974449669
 21
-1167.838073099301
 72
     1
 10
-905.5700974449669
 20
-1167.838073099301
 11
-905.5700974449669
 21
-1166.769239765967
 72
     1
 10
-905.5700974449669
 20
-1166.769239765967
 11
-904.3773047428004
 21
-1166.769239765967
 72
     1
 10
-904.3773047428004
 20
-1166.769239765967
 11
-904.3773047428004
 21
-1169.823049289778
 97
       12
330
1F8
330
1F9
330
1E3
330
1E2
330
1E1
330
1F5
330
1E0
330
1F6
330
1F7
330
1DF
330
1DE
330
1DD
 75
     1
 76
     2
 52
45.0
 41
0.1
 77
     0
 78
     1
 53
45.0
 43
62.7811309658083
 44
-72.3161373035813
 45
-0.1414213562373095
 46
0.0
 79
     0
 98
        1
 10
0.0
 20
0.0
  0
HATCH
  5
2D1
330
A0
100
AcDbEntity
  8
1
  6
Continuous
 62
     2
100
AcDbHatch
 10
0.0
 20
0.0
 30
0.0
210
0.0
220
0.0
230
1.0
  2
CUSTOM2
 70
     0
 71
     1
 91
        1
 92
        1
 93
       10
 72
     1
 10
-902.1350053936121
 20
-1171.437205752346
 11
-903.375509803865
 21
-1170.128430242141
 72
     1
 10
-903.375509803865
 20
-1170.128430242141
 11
-904.5683025060326
 21
-1170.128430242141
 72
     1
 10
-904.5683025060326
 20
-1170.128430242141
 11
-904.5683025060326
 21
-1173.182239765952
 72
     1
 10
-904.5683025060326
 20
-1173.182239765952
 11
-903.375509803865
 21
-1173.182239765952
 72
     1
 10
-903.375509803865
 20
-1173.182239765952
 11
-903.375509803865
 21
-1171.873464255747
 72
     1
 10
-903.375509803865
 20
-1171.873464255747
 11
-902.1350053936121
 21
-1173.182239765952
 72
     1
 10
-902.1350053936121
 20
-1173.182239765952
 11
-900.9422126914458
 21
-1173.182239765952
 72
     1
 10
-900.9422126914458
 20
-1173.182239765952
 11
-900.9422126914458
 21
-1170.128430242141
 72
     1
 10
-900.9422126914458
 20
-1170.128430242141
 11
-902.1350053936121
 21
-1170.128430242141
 72
     1
 10
-902.1350053936121
 20
-1170.128430242141
 11
-902.1350053936121
 21
-1171.437205752346
 97
       10
330
206
330
1D6
330
1D5
330
1D8
330
201
330
202
330
1D7
330
203
330
204
330
205
 75
     1
 76
     2
 52
45.0
 41
0.1
 77
     0
 78
     1
 53
45.0
 43
62.7811309658083
 44
-72.3161373035813
 45
-0.1414213562373095
 46
0.0
 79
     0
 98
        1
 10
0.0
 20
0.0
  0
HATCH
  5
2D2
330
A0
100
AcDbEntity
  8
1
  6
Continuous
 62
     2
100
AcDbHatch
 10
0.0
 20
0.0
 30
0.0
210
0.0
220
0.0
230
1.0
  2
CUSTOM3
 70
     0
 71
     1
 91
        1
 92
        1
 93
       10
 72
     1
 10
-902.1350053936121
 20
-1171.437205752346
 11
-903.375509803865
 21
-1170.128430242141
 72
     1
 10
-903.375509803865
 20
-1170.128430242141
 11
-904.5683025060326
 21
-1170.128430242141
 72
     1
 10
-904.5683025060326
 20
-1170.128430242141
 11
-904.5683025060326
 21
-1173.182239765952
 72
     1
 10
-904.5683025060326
 20
-1173.182239765952
 11
-903.375509803865
 21
-1173.182239765952
 72
     1
 10
-903.375509803865
 20
-1173.182239765952
 11
-903.375509803865
 21
-1171.873464255747
 72
     1
 10
-903.375509803865
 20
-1171.873464255747
 11
-902.1350053936121
 21
-1173.182239765952
 72
     1
 10
-902.1350053936121
 20
-1173.182239765952
 11
-900.9422126914458
 21
-1173.182239765952
 72
     1
 10
-900.9422126914458
 20
-1173.182239765952
 11
-900.9422126914458
 21
-1170.128430242141
 72
     1
 10
-900.9422126914458
 20
-1170.128430242141
 11
-902.1350053936121
 21
-1170.128430242141
 72
     1
 10
-902.1350053936121
 20
-1170.128430242141
 11
-902.1350053936121
 21
-1171.437205752346
 97
       10
330
206
330
1D6
330
1D5
330
1D8
330
201
330
202
330
1D7
330
203
330
204
330
205
 75
     1
 76
     2
 52
45.0
 41
0.1
 77
     0
 78
     1
 53
45.0
 43
62.7811309658083
 44
-72.3161373035813
 45
-0.1414213562373095
 46
0.0
 79
     0
 98
        1
 10
0.0
 20
0.0
  0
HATCH
  5
2D3
330
A0
100
AcDbEntity
  8
1
  6
Continuous
 62
     2
100
AcDbHatch
 10
0.0
 20
0.0
 30
0.0
210
0.0
220
0.0
230
1.0
  2
CUSTOM4
 70
     0
 71
     1
 91
        1
 92
        1
 93
       10
 72
     1
 10
-896.8865665731925
 20
-1168.078015276172
 11
-898.1270709834465
 21
-1166.769239765967
 72
     1
 10
-898.1270709834465
 20
-1166.769239765967
 11
-899.319863685613
 21
-1166.769239765967
 72
     1
 10
-899.319863685613
 20
-1166.769239765967
 11
-899.319863685613
 21
-1169.823049289778
 72
     1
 10
-899.319863685613
 20
-1169.823049289778
 11
-898.1270709834465
 21
-1169.823049289778
 72
     1
 10
-898.1270709834465
 20
-1169.823049289778
 11
-898.1270709834465
 21
-1168.514273779573
 72
     1
 10
-898.1270709834465
 20
-1168.514273779573
 11
-896.8865665731925
 21
-1169.823049289778
 72
     1
 10
-896.8865665731925
 20
-1169.823049289778
 11
-895.6937738710258
 21
-1169.823049289778
 72
     1
 10
-895.6937738710258
 20
-1169.823049289778
 11
-895.6937738710258
 21
-1166.769239765967
 72
     1
 10
-895.6937738710258
 20
-1166.769239765967
 11
-896.8865665731925
 21
-1166.769239765967
 72
     1
 10
-896.8865665731925
 20
-1166.769239765967
 11
-896.8865665731925
 21
-1168.078015276172
 97
       10
330
20B
330
1D3
330
1D2
330
20C
330
1D1
330
207
330
208
330
209
330
20A
330
1D4
 75
     1
 76
     2
 52
45.0
 41
0.1
 77
     0
 78
     1
 53
45.0
 43
62.7811309658083
 44
-72.3161373035813
 45
-0.1414213562373095
 46
0.0
 79
     0
 98
        1
 10
0.0
 20
0.0
  0
HATCH
  5
2D4
330
A0
100
AcDbEntity
  8
1
  6
Continuous
 62
     2
100
AcDbHatch
 10
0.0
 20
0.0
 30
0.0
210
0.0
220
0.0
230
1.0
  2
CUSTOM5
 70
     0
 71
     1
 91
        1
 92
        1
 93
       10
 72
     1
 10
-896.8865665731925
 20
-1168.078015276172
 11
-898.1270709834465
 21
-1166.769239765967
 72
     1
 10
-898.1270709834465
 20
-1166.769239765967
 11
-899.319863685613
 21
-1166.769239765967
 72
     1
 10
-899.319863685613
 20
-1166.769239765967
 11
-899.319863685613
 21
-1169.823049289778
 72
     1
 10
-899.319863685613
 20
-1169.823049289778
 11
-898.1270709834465
 21
-1169.823049289778
 72
     1
 10
-898.1270709834465
 20
-1169.823049289778
 11
-898.1270709834465
 21
-1168.514273779573
 72
     1
 10
-898.1270709834465
 20
-1168.514273779573
 11
-896.8865665731925
 21
-1169.823049289778
 72
     1
 10
-896.8865665731925
 20
-1169.823049289778
 11
-895.6937738710258
 21
-1169.823049289778
 72
     1
 10
-895.6937738710258
 20
-1169.823049289778
 11
-895.6937738710258
 21
-1166.769239765967
 72
     1
 10
-895.6937738710258
 20
-1166.769239765967
 11
-896.8865665731925
 21
-1166.769239765967
 72
     1
 10
-896.8865665731925
 20
-1166.769239765967
 11
-896.8865665731925
 21
-1168.078015276172
 97
       10
330
20B
330
1D3
330
1D2
330
20C
330
1D1
330
207
330
208
330
209
330
20A
330
1D4
 75
     1
 76
     2
 52
45.0
 41
0.1
 77
     0
 78
     1
 53
45.0
 43
62.7811309658083
 44
-72.3161373035813
 45
-0.1414213562373095
 46
0.0
 79
     0
 98
        1
 10
0.0
 20
0.0
  0
HATCH
  5
2D5
330
A0
100
AcDbEntity
  8
1
  6
Continuous
 62
     2
100
AcDbHatch
 10
0.0
 20
0.0
 30
0.0
210
0.0
220
0.0
230
1.0
  2
CUSTOM6
 70
     0
 71
     1
 91
        1
 92
        1
 93
        8
 72
     1
 10
-897.9840867900718
 20
-1170.128430242141
 11
-900.7990775671856
 21
-1170.128430242141
 72
     1
 10
-900.7990775671856
 20
-1170.128430242141
 11
-900.7990775671856
 21
-1170.913695548265
 72
     1
 10
-900.7990775671856
 20
-1170.913695548265
 11
-899.987978529711
 21
-1170.913695548265
 72
     1
 10
-899.987978529711
 20
-1170.913695548265
 11
-899.987978529711
 21
-1173.182239765952
 72
     1
 10
-899.987978529711
 20
-1173.182239765952
 11
-898.7951858275445
 21
-1173.182239765952
 72
     1
 10
-898.7951858275445
 20
-1173.182239765952
 11
-898.7951858275445
 21
-1170.913695548265
 72
     1
 10
-898.7951858275445
 20
-1170.913695548265
 11
-897.9840867900718
 21
-1170.913695548265
 72
     1
 10
-897.9840867900718
 20
-1170.913695548265
 11
-897.9840867900718
 21
-1170.128430242141
 97
        8
330
1CD
330
20D
330
1CC
330
20E
330
20F
330
1D0
330
1CF
330
1CE
 75
     1
 76
     2
 52
45.0
 41
0.1
 77
     0
 78
     1
 53
45.0
 43
62.7811309658083
 44
-72.3161373035813
 45
-0.1414213562373095
 46
0.0
 79
     0
 98
        1
 10
0.0
 20
0.0
  0
HATCH
  5
2D6
330
A0
100
AcDbEntity
  8
1
  6
Continuous
 62
     2
100
AcDbHatch
 10
0.0
 20
0.0
 30
0.0
210
0.0
220
0.0
230
1.0
  2
CUSTOM7
 70
     0
 71
     1
 91
        1
 92
        1
 93
        8
 72
     1
 10
-897.9840867900718
 20
-1170.128430242141
 11
-900.7990775671856
 21
-1170.128430242141
 72
     1
 10
-900.7990775671856
 20
-1170.128430242141
 11
-900.7990775671856
 21
-1170.913695548265
 72
     1
 10
-900.7990775671856
 20
-1170.913695548265
 11
-899.987978529711
 21
-1170.913695548265
 72
     1
 10
-899.987978529711
 20
-1170.913695548265
 11
-899.987978529711
 21
-1173.182239765952
 72
     1
 10
-899.987978529711
 20
-1173.182239765952
 11
-898.7951858275445
 21
-1173.182239765952
 72
     1
 10
-898.7951858275445
 20
-1173.182239765952
 11
-898.7951858275445
 21
-1170.913695548265
 72
     1
 10
-898.7951858275445
 20
-1170.913695548265
 11
-897.9840867900718
 21
-1170.913695548265
 72
     1
 10
-897.9840867900718
 20
-1170.913695548265
 11
-897.9840867900718
 21
-1170.128430242141
 97
        8
330
1CD
330
20D
330
1CC
330
20E
330
20F
330
1D0
330
1CF
330
1CE
 75
     1
 76
     2
 52
45.0
 41
0.1
 77
     0
 78
     1
 53
45.0
 43
62.7811309658083
 44
-72.3161373035813
 45
-0.1414213562373095
 46
0.0
 79
     0
 98
        1
 10
0.0
 20
0.0
  0
HATCH
  5
2D7
330
A0
100
AcDbEntity
  8
1
  6
Continuous
 62
     2
100
AcDbHatch
 10
0.0
 20
0.0
 30
0.0
210
0.0
220
0.0
230
1.0
  2
CUSTOM8
 70
     0
 71
     1
 91
        2
 92
        1
 93
        8
 72
     1
 10
-895.8456593341249
 20
-1173.182239765952
 11
-896.0571393876007
 21
-1172.641279221734
 72
     1
 10
-896.0571393876007
 20
-1172.641279221734
 11
-897.1895809642747
 21
-1172.641279221734
 72
     1
 10
-897.1895809642747
 20
-1172.641279221734
 11
-897.4010610177504
 21
-1173.182239765952
 72
     1
 10
-897.4010610177504
 20
-1173.182239765952
 11
-898.6415654280033
 21
-1173.182239765952
 72
     1
 10
-898.6415654280033
 20
-1173.182239765952
 11
-897.2436123810642
 21
-1170.128430242141
 72
     1
 10
-897.2436123810642
 20
-1170.128430242141
 11
-896.0031079708112
 21
-1170.128430242141
 72
     1
 10
-896.0031079708112
 20
-1170.128430242141
 11
-894.605154923871
 21
-1173.182239765952
 72
     1
 10
-894.605154923871
 20
-1173.182239765952
 11
-895.8456593341249
 21
-1173.182239765952
 97
        8
330
211
330
212
330
1C9
330
213
330
1C8
330
1CB
330
210
330
1CA
 92
       16
 93
        3
 72
     1
 10
-896.9235254131295
 20
-1171.960715956428
 11
-896.6233601759373
 21
-1171.192900990441
 72
     1
 10
-896.6233601759373
 20
-1171.192900990441
 11
-896.3231949387471
 21
-1171.960715956428
 72
     1
 10
-896.3231949387471
 20
-1171.960715956428
 11
-896.9235254131295
 21
-1171.960715956428
 97
        3
330
1C7
330
215
330
214
 75
     1
 76
     2
 52
45.0
 41
0.1
 77
     0
 78
     1
 53
45.0
 43
62.7811309658083
 44
-72.3161373035813
 45
-0.1414213562373095
 46
0.0
 79
     0
 98
        1
 10
0.0
 20
0.0
  0
HATCH
  5
2D8
330
A0
100
AcDbEntity
  8
1
  6
Continuous
 62
     2
100
AcDbHatch
 10
0.0
 20
0.0
 30
0.0
210
0.0
220
0.0
230
1.0
  2
CUSTOM9
 70
     0
 71
     1
 91
        2
 92
        1
 93
        8
 72
     1
 10
-895.8456593341249
 20
-1173.182239765952
 11
-896.0571393876007
 21
-1172.641279221734
 72
     1
 10
-896.0571393876007
 20
-1172.641279221734
 11
-897.1895809642747
 21
-1172.641279221734
 72
     1
 10
-897.1895809642747
 20
-1172.641279221734
 11
-897.4010610177504
 21
-1173.182239765952
 72
     1
 10
-897.4010610177504
 20
-1173.182239765952
 11
-898.6415654280033
 21
-1173.182239765952
 72
     1
 10
-898.6415654280033
 20
-1173.182239765952
 11
-897.2436123810642
 21
-1170.128430242141
 72
     1
 10
-897.2436123810642
 20
-1170.128430242141
 11
-896.0031079708112
 21
-1170.128430242141
 72
     1
 10
-896.0031079708112
 20
-1170.128430242141
 11
-894.605154923871
 21
-1173.182239765952
 72
     1
 10
-894.605154923871
 20
-1173.182239765952
 11
-895.8456593341249
 21
-1173.182239765952
 97
        8
330
211
330
212
330
1C9
330
213
330
1C8
330
1CB
330
210
330
1CA
 92
       16
 93
        3
 72
     1
 10
-896.9235254131295
 20
-1171.960715956428
 11
-896.6233601759373
 21
-1171.192900990441
 72
     1
 10
-896.6233601759373
 20
-1171.192900990441
 11
-896.3231949387471
 21
-1171.960715956428
 72
     1
 10
-896.3231949387471
 20
-1171.960715956428
 11
-896.9235254131295
 21
-1171.960715956428
 97
        3
330
1C7
330
215
330
214
 75
     1
 76
     2
 52
45.0
 41
0.1
 77
     0
 78
     1
 53
45.0
 43
62.7811309658083
 44
-72.3161373035813
 45
-0.1414213562373095
 46
0.0
 79
     0
 98
        1
 10
0.0
 20
0.0
  0
HATCH
  5
2D9
330
A0
100
AcDbEntity
  8
1
  6
Continuous
 62
     2
100
AcDbHatch
 10
0.0
 20
0.0
 30
0.0
210
0.0
220
0.0
230
1.0
  2
CUSTOM10
 70
     0
 71
     1
 91
        1
 92
        1
 93
        4
 72
     1
 10
-894.214710920339
 20
-1169.823049289778
 11
-895.455215330592
 21
-1169.823049289778
 72
     1
 10
-895.455215330592
 20
-1169.823049289778
 11
-895.455215330592
 21
-1166.769239765967
 72
     1
 10
-895.455215330592
 20
-1166.769239765967
 11
-894.214710920339
 21
-1166.769239765967
 72
     1
 10
-894.214710920339
 20
-1166.769239765967
 11
-894.214710920339
 21
-1169.823049289778
 97
        4
330
1C4
330
1C6
330
216
330
1C5
 75
     1
 76
     2
 52
45.0
 41
0.1
 77
     0
 78
     1
 53
45.0
 43
62.7811309658083
 44
-72.3161373035813
 45
-0.1414213562373095
 46
0.0
 79
     0
 98
        1
 10
0.0
 20
0.0
  0
HATCH
  5
2DA
330
A0
100
AcDbEntity
  8
1
  6
Continuous
 62
     2
100
AcDbHatch
 10
0.0
 20
0.0
 30
0.0
210
0.0
220
0.0
230
1.0
  2
CUSTOM11
 70
     0
 71
     1
 91
        1
 92
        1
 93
        4
 72
     1
 10
-894.214710920339
 20
-1169.823049289778
 11
-895.455215330592
 21
-1169.823049289778
 72
     1
 10
-895.455215330592
 20
-1169.823049289778
 11
-895.455215330592
 21
-1166.769239765967
 72
     1
 10
-895.455215330592
 20
-1166.769239765967
 11
-894.214710920339
 21
-1166.769239765967
 72
     1
 10
-894.214710920339
 20
-1166.769239765967
 11
-894.214710920339
 21
-1169.823049289778
 97
        4
330
1C4
330
1C6
330
216
330
1C5
 75
     1
 76
     2
 52
45.0
 41
0.1
 77
     0
 78
     1
 53
45.0
 43
62.7811309658083
 44
-72.3161373035813
 45
-0.1414213562373095
 46
0.0
 79
     0
 98
        1
 10
0.0
 20
0.0
  0
HATCH
  5
2DB
330
A0
100
AcDbEntity
  8
1
  6
Continuous
 62
     2
100
AcDbHatch
 10
0.0
 20
0.0
 30
0.0
210
0.0
220
0.0
230
1.0
  2
CUSTOM12
 70
     0
 71
     1
 91
        1
 92
        1
 93
       12
 72
     1
 10
-889.9922247546682
 20
-1166.769239765967
 11
-891.2947543854348
 21
-1168.242190296003
 72
     1
 10
-891.2947543854348
 20
-1168.242190296003
 11
-889.8968013384945
 21
-1169.823049289778
 72
     1
 10
-889.8968013384945
 20
-1169.823049289778
 11
-891.2995255562428
 21
-1169.823049289778
 72
     1
 10
-891.2995255562428
 20
-1169.823049289778
 11
-891.9961164943082
 21
-1169.035317504484
 72
     1
 10
-891.9961164943082
 20
-1169.035317504484
 11
-892.692707432374
 21
-1169.823049289778
 72
     1
 10
-892.692707432374
 20
-1169.823049289778
 11
-894.0954316501221
 21
-1169.823049289778
 72
     1
 10
-894.0954316501221
 20
-1169.823049289778
 11
-892.6974786031818
 21
-1168.242190296003
 72
     1
 10
-892.6974786031818
 20
-1168.242190296003
 11
-894.0000082339493
 21
-1166.769239765967
 72
     1
 10
-894.0000082339493
 20
-1166.769239765967
 11
-892.5972840162001
 21
-1166.769239765967
 72
     1
 10
-892.5972840162001
 20
-1166.769239765967
 11
-891.9961164943082
 21
-1167.449063087522
 72
     1
 10
-891.9961164943082
 20
-1167.449063087522
 11
-891.3949489724155
 21
-1166.769239765967
 72
     1
 10
-891.3949489724155
 20
-1166.769239765967
 11
-889.9922247546682
 21
-1166.769239765967
 97
       12
330
1BF
330
1BE
330
1BD
330
21A
330
21B
330
217
330
218
330
1C3
330
1C2
330
1C1
330
1C0
330
219
 75
     1
 76
     2
 52
45.0
 41
0.1
 77
     0
 78
     1
 53
45.0
 43
62.7811309658083
 44
-72.3161373035813
 45
-0.1414213562373095
 46
0.0
 79
     0
 98
        1
 10
0.0
 20
0.0
  0
HATCH
  5
2DC
330
A0
100
AcDbEntity
  8
1
  6
Continuous
 62
     2
100
AcDbHatch
 10
0.0
 20
0.0
 30
0.0
210
0.0
220
0.0
230
1.0
  2
CUSTOM13
 70
     0
 71
     1
 91
        1
 92
        1
 93
       12
 72
     1
 10
-889.9922247546682
 20
-1166.769239765967
 11
-891.2947543854348
 21
-1168.242190296003
 72
     1
 10
-891.2947543854348
 20
-1168.242190296003
 11
-889.8968013384945
 21
-1169.823049289778
 72
     1
 10
-889.8968013384945
 20
-1169.823049289778
 11
-891.2995255562428
 21
-1169.823049289778
 72
     1
 10
-891.2995255562428
 20
-1169.823049289778
 11
-891.9961164943082
 21
-1169.035317504484
 72
     1
 10
-891.9961164943082
 20
-1169.035317504484
 11
-892.692707432374
 21
-1169.823049289778
 72
     1
 10
-892.692707432374
 20
-1169.823049289778
 11
-894.0954316501221
 21
-1169.823049289778
 72
     1
 10
-894.0954316501221
 20
-1169.823049289778
 11
-892.6974786031818
 21
-1168.242190296003
 72
     1
 10
-892.6974786031818
 20
-1168.242190296003
 11
-894.0000082339493
 21
-1166.769239765967
 72
     1
 10
-894.0000082339493
 20
-1166.769239765967
 11
-892.5972840162001
 21
-1166.769239765967
 72
     1
 10
-892.5972840162001
 20
-1166.769239765967
 11
-891.9961164943082
 21
-1167.449063087522
 72
     1
 10
-891.9961164943082
 20
-1167.449063087522
 11
-891.3949489724155
 21
-1166.769239765967
 72
     1
 10
-891.3949489724155
 20
-1166.769239765967
 11
-889.9922247546682
 21
-1166.769239765967
 97
       12
330
1BF
330
1BE
330
1BD
330
21A
330
21B
330
217
330
218
330
1C3
330
1C2
330
1C1
330
1C0
330
219
 75
     1
 76
     2
 52
45.0
 41
0.1
 77
     0
 78
     1
 53
45.0
 43
62.7811309658083
 44
-72.3161373035813
 45
-0.1414213562373095
 46
0.0
 79
     0
 98
        1
 10
0.0
 20
0.0
  0
HATCH
  5
2DD
330
A0
100
AcDbEntity
  8
1
  6
Continuous
 62
     2
100
AcDbHatch
 10
0.0
 20
0.0
 30
0.0
210
0.0
220
0.0
230
1.0
  2
CUSTOM14
 70
     0
 71
     1
 91
        2
 92
        1
 93
        6
 72
     1
 10
-909.0099601688142
 20
-1168.879971048634
 11
-909.7687277565947
 21
-1168.879971048634
 72
     1
 10
-909.7687277565947
 20
-1168.879971048634
 11
-909.7687277565947
 21
-1169.823049289778
 72
     1
 10
-909.7687277565947
 20
-1169.823049289778
 11
-911.0092321668486
 21
-1169.823049289778
 72
     1
 10
-911.0092321668486
 20
-1169.823049289778
 11
-911.0092321668486
 21
-1166.769239765967
 72
     1
 10
-911.0092321668486
 20
-1166.769239765967
 11
-909.0099601688142
 21
-1166.769239765967
 72
     2
 10
-909.0099601688142
 20
-1167.8246054073
 40
1.055365641333992
 50
270.0
 51
450.0
 73
     0
 97
        6
330
1E7
330
1E6
330
1F3
330
1F2
330
1E8
330
279
 92
       16
 93
        4
 72
     2
 10
-909.4514326950526
 20
-1167.785209436078
 40
0.3528638246709761
 50
270.0
 51
450.0
 73
     1
 72
     1
 10
-909.4514326950526
 20
-1167.432345611407
 11
-909.7687277565947
 21
-1167.432345611407
 72
     1
 10
-909.7687277565947
 20
-1167.432345611407
 11
-909.7687277565947
 21
-1168.138073260749
 72
     1
 10
-909.7687277565947
 20
-1168.138073260749
 11
-909.4514326950526
 21
-1168.138073260749
 97
        4
330
28D
330
1E4
330
1F4
330
1E5
 75
     1
 76
     2
 52
45.0
 41
0.1
 77
     0
 78
     1
 53
45.0
 43
62.7811309658083
 44
-72.3161373035813
 45
-0.1414213562373095
 46
0.0
 79
     0
 98
        1
 10
0.0
 20
0.0
  0
HATCH
  5
2DE
330
A0
100
AcDbEntity
  8
1
  6
Continuous
 62
     2
100
AcDbHatch
 10
0.0
 20
0.0
 30
0.0
210
0.0
220
0.0
230
1.0
  2
CUSTOM15
 70
     0
 71
     1
 91
        2
 92
        1
 93
        6
 72
     1
 10
-909.0099601688142
 20
-1168.879971048634
 11
-909.7687277565947
 21
-1168.879971048634
 72
     1
 10
-909.7687277565947
 20
-1168.879971048634
 11
-909.7687277565947
 21
-1169.823049289778
 72
     1
 10
-909.7687277565947
 20
-1169.823049289778
 11
-911.0092321668486
 21
-1169.823049289778
 72
     1
 10
-911.0092321668486
 20
-1169.823049289778
 11
-911.0092321668486
 21
-1166.769239765967
 72
     1
 10
-911.0092321668486
 20
-1166.769239765967
 11
-909.0099601688142
 21
-1166.769239765967
 72
     2
 10
-909.0099601688142
 20
-1167.8246054073
 40
1.055365641333992
 50
270.0
 51
450.0
 73
     0
 97
        6
330
1E7
330
1E6
330
1F3
330
1F2
330
1E8
330
279
 92
       16
 93
        4
 72
     2
 10
-909.4514326950526
 20
-1167.785209436078
 40
0.3528638246709761
 50
270.0
 51
450.0
 73
     1
 72
     1
 10
-909.4514326950526
 20
-1167.432345611407
 11
-909.7687277565947
 21
-1167.432345611407
 72
     1
 10
-909.7687277565947
 20
-1167.432345611407
 11
-909.7687277565947
 21
-1168.138073260749
 72
     1
 10
-909.7687277565947
 20
-1168.138073260749
 11
-909.4514326950526
 21
-1168.138073260749
 97
        4
330
28D
330
1E4
330
1F4
330
1E5
 75
     1
 76
     2
 52
45.0
 41
0.1
 77
     0
 78
     1
 53
45.0
 43
62.7811309658083
 44
-72.3161373035813
 45
-0.1414213562373095
 46
0.0
 79
     0
 98
        1
 10
0.0
 20
0.0
  0
HATCH
  5
2DF
330
A0
100
AcDbEntity
  8
1
  6
Continuous
 62
     2
100
AcDbHatch
 10
0.0
 20
0.0
 30
0.0
210
0.0
220
0.0
230
1.0
  2
CUSTOM16
 70
     0
 71
     1
 91
        2
 92
        1
 93
        4
 72
     2
 10
-906.4534174204551
 20
-1172.19391001435
 40
2.065479772209248
 50
62.45185182431621
 51
117.5481481756586
 73
     1
 72
     2
 10
-906.7343573122885
 20
-1171.655335004047
 40
1.458034083651995
 50
117.5481481756546
 51
242.4518518243289
 73
     1
 72
     2
 10
-906.4534174204551
 20
-1171.116759993744
 40
2.065479772207969
 50
242.4518518243297
 51
297.5481481756955
 73
     1
 72
     2
 10
-906.1724775286219
 20
-1171.655335004047
 40
1.458034083651714
 50
297.5481481757107
 51
422.4518518243058
 73
     1
 97
        4
330
285
330
284
330
286
330
283
 92
       16
 93
        4
 72
     2
 10
-906.6531574568015
 20
-1171.655335004047
 40
0.7717997786795957
 50
321.8795802028306
 51
398.1204197971695
 73
     1
 72
     2
 10
-906.4534174204551
 20
-1171.498603825926
 40
0.5179085730130126
 50
38.120419797132
 51
141.8795802028913
 73
     1
 72
     2
 10
-906.2536773841091
 20
-1171.655335004047
 40
0.7717997786795957
 50
141.8795802028306
 51
218.1204197971694
 73
     1
 72
     2
 10
-906.4534174204551
 20
-1171.812066182167
 40
0.5179085730138424
 50
218.1204197971879
 51
321.8795802027889
 73
     1
 97
        4
330
2A1
330
29E
330
29F
330
2A0
 75
     1
 76
     2
 52
45.0
 41
0.1
 77
     0
 78
     1
 53
45.0
 43
62.7811309658083
 44
-72.3161373035813
 45
-0.1414213562373095
 46
0.0
 79
     0
 98
        1
 10
0.0
 20
0.0
  0
HATCH
  5
2E0
330
A0
100
AcDbEntity
  8
1
  6
Continuous
 62
     2
100
AcDbHatch
 10
0.0
 20
0.0
 30
0.0
210
0.0
220
0.0
230
1.0
  2
CUSTOM17
 70
     0
 71
     1
 91
        2
 92
        1
 93
        4
 72
     2
 10
-906.4534174204551
 20
-1172.19391001435
 40
2.065479772209248
 50
62.45185182431621
 51
117.5481481756586
 73
     1
 72
     2
 10
-906.7343573122885
 20
-1171.655335004047
 40
1.458034083651995
 50
117.5481481756546
 51
242.4518518243289
 73
     1
 72
     2
 10
-906.4534174204551
 20
-1171.116759993744
 40
2.065479772207969
 50
242.4518518243297
 51
297.5481481756955
 73
     1
 72
     2
 10
-906.1724775286219
 20
-1171.655335004047
 40
1.458034083651714
 50
297.5481481757107
 51
422.4518518243058
 73
     1
 97
        4
330
285
330
284
330
286
330
283
 92
       16
 93
        4
 72
     2
 10
-906.6531574568015
 20
-1171.655335004047
 40
0.7717997786795957
 50
321.8795802028306
 51
398.1204197971695
 73
     1
 72
     2
 10
-906.4534174204551
 20
-1171.498603825926
 40
0.5179085730130126
 50
38.120419797132
 51
141.8795802028913
 73
     1
 72
     2
 10
-906.2536773841091
 20
-1171.655335004047
 40
0.7717997786795957
 50
141.8795802028306
 51
218.1204197971694
 73
     1
 72
     2
 10
-906.4534174204551
 20
-1171.812066182167
 40
0.5179085730138424
 50
218.1204197971879
 51
321.8795802027889
 73
     1
 97
        4
330
2A1
330
29E
330
29F
330
2A0
 75
     1
 76
     2
 52
45.0
 41
0.1
 77
     0
 78
     1
 53
45.0
 43
62.7811309658083
 44
-72.3161373035813
 45
-0.1414213562373095
 46
0.0
 79
     0
 98
        1
 10
0.0
 20
0.0
  0
HATCH
  5
2E1
330
A0
100
AcDbEntity
  8
1
  6
Continuous
 62
     2
100
AcDbHatch
 10
0.0
 20
0.0
 30
0.0
210
0.0
220
0.0
230
1.0
  2
CUSTOM18
 70
     0
 71
     1
 91
        2
 92
        1
 93
       12
 72
     1
 10
-899.5584222260459
 20
-1167.46725337141
 11
-900.8943500524736
 21
-1167.46725337141
 72
     1
 10
-900.8943500524736
 20
-1167.46725337141
 11
-900.8943500524736
 21
-1167.947137725151
 72
     1
 10
-900.8943500524736
 20
-1167.947137725151
 11
-899.5584222260459
 21
-1167.947137725151
 72
     1
 10
-899.5584222260459
 20
-1167.947137725151
 11
-899.5584222260459
 21
-1168.645151330594
 72
     1
 10
-899.5584222260459
 20
-1168.645151330594
 11
-900.8943500524736
 21
-1168.645151330594
 72
     1
 10
-900.8943500524736
 20
-1168.645151330594
 11
-900.8943500524736
 21
-1169.125035684335
 72
     1
 10
-900.8943500524736
 20
-1169.125035684335
 11
-899.5584222260459
 21
-1169.125035684335
 72
     1
 10
-899.5584222260459
 20
-1169.125035684335
 11
-899.5584222260459
 21
-1169.823049289778
 72
     1
 10
-899.5584222260459
 20
-1169.823049289778
 11
-902.7087419498268
 21
-1169.823049289778
 72
     2
 10
-902.7087419498268
 20
-1168.296144527873
 40
1.526904761905826
 50
90.0
 51
270.0
 73
     0
 72
     1
 10
-902.7087419498268
 20
-1166.769239765967
 11
-899.5584222260459
 21
-1166.769239765967
 72
     1
 10
-899.5584222260459
 20
-1166.769239765967
 11
-899.5584222260459
 21
-1167.46725337141
 97
       12
330
1FB
330
28E
330
1FC
330
1FD
330
1FE
330
1FF
330
1DC
330
1DB
330
1DA
330
1D9
330
200
330
1FA
 92
       16
 93
        4
 72
     2
 10
-902.4924699396616
 20
-1168.139413349752
 40
0.5179085730137529
 50
38.12041979719563
 51
141.8795802028121
 73
     1
 72
     2
 10
-902.2927299033154
 20
-1168.296144527873
 40
0.771799778680336
 50
141.8795802027879
 51
218.1204197971059
 73
     1
 72
     2
 10
-902.4924699396616
 20
-1168.452875705993
 40
0.517908573013281
 50
218.1204197971087
 51
321.8795802028835
 73
     1
 72
     2
 10
-902.6922099760078
 20
-1168.296144527873
 40
0.7717997786790343
 50
321.8795802028837
 51
398.1204197972225
 73
     1
 97
        4
330
288
330
287
330
282
330
281
 75
     1
 76
     2
 52
45.0
 41
0.1
 77
     0
 78
     1
 53
45.0
 43
62.7811309658083
 44
-72.3161373035813
 45
-0.1414213562373095
 46
0.0
 79
     0
 98
        1
 10
0.0
 20
0.0
  0
HATCH
  5
2E2
330
A0
100
AcDbEntity
  8
1
  6
Continuous
 62
     2
100
AcDbHatch
 10
0.0
 20
0.0
 30
0.0
210
0.0
220
0.0
230
1.0
  2
CUSTOM19
 70
     0
 71
     1
 91
        2
 92
        1
 93
       12
 72
     1
 10
-899.5584222260459
 20
-1167.46725337141
 11
-900.8943500524736
 21
-1167.46725337141
 72
     1
 10
-900.8943500524736
 20
-1167.46725337141
 11
-900.8943500524736
 21
-1167.947137725151
 72
     1
 10
-900.8943500524736
 20
-1167.947137725151
 11
-899.5584222260459
 21
-1167.947137725151
 72
     1
 10
-899.5584222260459
 20
-1167.947137725151
 11
-899.5584222260459
 21
-1168.645151330594
 72
     1
 10
-899.5584222260459
 20
-1168.645151330594
 11
-900.8943500524736
 21
-1168.645151330594
 72
     1
 10
-900.8943500524736
 20
-1168.645151330594
 11
-900.8943500524736
 21
-1169.125035684335
 72
     1
 10
-900.8943500524736
 20
-1169.125035684335
 11
-899.5584222260459
 21
-1169.125035684335
 72
     1
 10
-899.5584222260459
 20
-1169.125035684335
 11
-899.5584222260459
 21
-1169.823049289778
 72
     1
 10
-899.5584222260459
 20
-1169.823049289778
 11
-902.7087419498268
 21
-1169.823049289778
 72
     2
 10
-902.7087419498268
 20
-1168.296144527873
 40
1.526904761905826
 50
90.0
 51
270.0
 73
     0
 72
     1
 10
-902.7087419498268
 20
-1166.769239765967
 11
-899.5584222260459
 21
-1166.769239765967
 72
     1
 10
-899.5584222260459
 20
-1166.769239765967
 11
-899.5584222260459
 21
-1167.46725337141
 97
       12
330
1FB
330
28E
330
1FC
330
1FD
330
1FE
330
1FF
330
1DC
330
1DB
330
1DA
330
1D9
330
200
330
1FA
 92
       16
 93
        4
 72
     2
 10
-902.4924699396616
 20
-1168.139413349752
 40
0.5179085730137529
 50
38.12041979719563
 51
141.8795802028121
 73
     1
 72
     2
 10
-902.2927299033154
 20
-1168.296144527873
 40
0.771799778680336
 50
141.8795802027879
 51
218.1204197971059
 73
     1
 72
     2
 10
-902.4924699396616
 20
-1168.452875705993
 40
0.517908573013281
 50
218.1204197971087
 51
321.8795802028835
 73
     1
 72
     2
 10
-902.6922099760078
 20
-1168.296144527873
 40
0.7717997786790343
 50
321.8795802028837
 51
398.1204197972225
 73
     1
 97
        4
330
288
330
287
330
282
330
281
 75
     1
 76
     2
 52
45.0
 41
0.1
 77
     0
 78
     1
 53
45.0
 43
62.7811309658083
 44
-72.3161373035813
 45
-0.1414213562373095
 46
0.0
 79
     0
 98
        1
 10
0.0
 20
0.0
  0
HATCH
  5
2E3
330
A0
100
AcDbEntity
  8
1
  6
Continuous
 62
     2
100
AcDbHatch
 10
0.0
 20
0.0
 30
0.0
210
0.0
220
0.0
230
1.0
  2
CUSTOM20
 70
     0
 71
     1
 91
        4
 92
        1
 93
        8
 72
     1
 10
-911.4863492477155
 20
-1167.193484381369
 11
-911.4863492477155
 21
-1172.757995150569
 72
     2
 10
-911.9105938630993
 20
-1172.757995150569
 40
0.4242446153830315
 50
0.0
 51
90.0
 73
     0
 72
     1
 10
-911.9105938630993
 20
-1173.182239765952
 11
-917.3839059538162
 21
-1173.182239765952
 72
     2
 10
-917.3839059538162
 20
-1172.757995150569
 40
0.4242446153828041
 50
90.0
 51
180.0
 73
     0
 72
     1
 10
-917.808150569199
 20
-1172.757995150569
 11
-917.808150569199
 21
-1167.193484381369
 72
     2
 10
-917.3839059538162
 20
-1167.193484381369
 40
0.424244615383941
 50
180.0
 51
270.0
 73
     0
 72
     1
 10
-917.3839059538162
 20
-1166.769239765985
 11
-911.9105938630993
 21
-1166.769239765985
 72
     2
 10
-911.9105938630993
 20
-1167.193484381369
 40
0.4242446153838273
 50
270.0
 51
360.0
 73
     0
 97
        8
330
1EF
330
27E
330
1F0
330
289
330
1ED
330
280
330
1EE
330
27F
 92
       16
 93
       12
 72
     2
 10
-916.7900112770697
 20
-1172.153967287318
 40
0.3157169230756836
 50
180.0
 51
270.0
 73
     1
 72
     1
 10
-916.7900112770697
 20
-1172.469684210395
 11
-915.3141780160602
 21
-1172.469684210395
 72
     2
 10
-915.3141780160602
 20
-1172.153967287318
 40
0.3157169230769341
 50
270.0
 51
360.0
 73
     1
 72
     1
 10
-914.9984610929835
 20
-1172.153967287318
 11
-914.9984610929835
 21
-1170.623196355787
 72
     2
 10
-915.3141780160602
 20
-1170.623196355787
 40
0.3157169230767067
 50
0.0
 51
64.80558935147235
 73
     1
 72
     2
 10
-914.7915935684852
 20
-1169.512366609724
 40
0.9118975235571412
 50
115.194410648512
 51
244.8055893514637
 73
     0
 72
     2
 10
-915.3141780160602
 20
-1168.401536863662
 40
0.3157169230765287
 50
295.1944106485277
 51
360.0
 73
     1
 72
     1
 10
-914.9984610929835
 20
-1168.401536863662
 11
-914.9984610929835
 21
-1167.797512244601
 72
     2
 10
-915.3141780160602
 20
-1167.797512244601
 40
0.3157169230767067
 50
0.0
 51
90.0
 73
     1
 72
     1
 10
-915.3141780160602
 20
-1167.481795321525
 11
-916.7900112770697
 21
-1167.481795321525
 72
     2
 10
-916.7900112770697
 20
-1167.797512244601
 40
0.3157169230760246
 50
90.0
 51
180.0
 73
     1
 72
     1
 10
-917.1057282001453
 20
-1167.797512244601
 11
-917.1057282001453
 21
-1172.153967287318
 97
       12
330
27A
330
1F1
330
27D
330
1EC
330
28A
330
28B
330
27C
330
1EB
330
27B
330
1EA
330
28C
330
1E9
 92
       16
 93
        8
 72
     2
 10
-914.2144625905379
 20
-1170.621508209692
 40
0.31571692307598
 50
115.3740086784051
 51
180.0
 73
     1
 72
     1
 10
-914.5301795136147
 20
-1170.621508209692
 11
-914.5301795136147
 21
-1171.203359616387
 72
     2
 10
-914.2144625905379
 20
-1171.203359616387
 40
0.3157169230768204
 50
180.0
 51
269.8110329574187
 73
     1
 72
     2
 10
-914.2088464552279
 20
-1169.500524668818
 40
2.018561131934289
 50
269.8110329575811
 51
450.188967042419
 73
     1
 72
     2
 10
-914.2144625905379
 20
-1167.79768972125
 40
0.3157169230771517
 50
90.18896704258138
 51
180.0
 73
     1
 72
     1
 10
-914.5301795136147
 20
-1167.79768972125
 11
-914.5301795136147
 21
-1168.403225009756
 72
     2
 10
-914.2144625905379
 20
-1168.403225009756
 40
0.3157169230768204
 50
180.0
 51
244.6259913216833
 73
     1
 72
     2
 10
-914.7405052886259
 20
-1169.512366609724
 40
0.9118481501445603
 50
295.3740086782019
 51
424.6259913218226
 73
     0
 97
        8
330
296
330
1B6
330
293
330
294
330
272
330
1B5
330
295
330
271
 92
       16
 93
        1
 72
     2
 10
-914.7643203032986
 20
-1169.512366609724
 40
0.4709789327785074
 50
0.0
 51
360.0
 73
     1
 97
        1
330
2A4
 75
     1
 76
     2
 52
45.0
 41
0.1
 77
     0
 78
     1
 53
45.0
 43
62.7811309658083
 44
-72.3161373035813
 45
-0.1414213562373095
 46
0.0
 79
     0
 98
        1
 10
0.0
 20
0.0
  0
HATCH
  5
2E4
330
A0
100
AcDbEntity
  8
1
  6
Continuous
 62
     2
100
AcDbHatch
 10
0.0
 20
0.0
 30
0.0
210
0.0
220
0.0
230
1.0
  2
CUSTOM21
 70
     0
 71
     1
 91
        4
 92
        1
 93
        8
 72
     1
 10
-911.4863492477155
 20
-1167.193484381369
 11
-911.4863492477155
 21
-1172.757995150569
 72
     2
 10
-911.9105938630993
 20
-1172.757995150569
 40
0.4242446153830315
 50
0.0
 51
90.0
 73
     0
 72
     1
 10
-911.9105938630993
 20
-1173.182239765952
 11
-917.3839059538162
 21
-1173.182239765952
 72
     2
 10
-917.3839059538162
 20
-1172.757995150569
 40
0.4242446153828041
 50
90.0
 51
180.0
 73
     0
 72
     1
 10
-917.808150569199
 20
-1172.757995150569
 11
-917.808150569199
 21
-1167.193484381369
 72
     2
 10
-917.3839059538162
 20
-1167.193484381369
 40
0.424244615383941
 50
180.0
 51
270.0
 73
     0
 72
     1
 10
-917.3839059538162
 20
-1166.769239765985
 11
-911.9105938630993
 21
-1166.769239765985
 72
     2
 10
-911.9105938630993
 20
-1167.193484381369
 40
0.4242446153838273
 50
270.0
 51
360.0
 73
     0
 97
        8
330
1EF
330
27E
330
1F0
330
289
330
1ED
330
280
330
1EE
330
27F
 92
       16
 93
       12
 72
     2
 10
-916.7900112770697
 20
-1172.153967287318
 40
0.3157169230756836
 50
180.0
 51
270.0
 73
     1
 72
     1
 10
-916.7900112770697
 20
-1172.469684210395
 11
-915.3141780160602
 21
-1172.469684210395
 72
     2
 10
-915.3141780160602
 20
-1172.153967287318
 40
0.3157169230769341
 50
270.0
 51
360.0
 73
     1
 72
     1
 10
-914.9984610929835
 20
-1172.153967287318
 11
-914.9984610929835
 21
-1170.623196355787
 72
     2
 10
-915.3141780160602
 20
-1170.623196355787
 40
0.3157169230767067
 50
0.0
 51
64.80558935147235
 73
     1
 72
     2
 10
-914.7915935684852
 20
-1169.512366609724
 40
0.9118975235571412
 50
115.194410648512
 51
244.8055893514637
 73
     0
 72
     2
 10
-915.3141780160602
 20
-1168.401536863662
 40
0.3157169230765287
 50
295.1944106485277
 51
360.0
 73
     1
 72
     1
 10
-914.9984610929835
 20
-1168.401536863662
 11
-914.9984610929835
 21
-1167.797512244601
 72
     2
 10
-915.3141780160602
 20
-1167.797512244601
 40
0.3157169230767067
 50
0.0
 51
90.0
 73
     1
 72
     1
 10
-915.3141780160602
 20
-1167.481795321525
 11
-916.7900112770697
 21
-1167.481795321525
 72
     2
 10
-916.7900112770697
 20
-1167.797512244601
 40
0.3157169230760246
 50
90.0
 51
180.0
 73
     1
 72
     1
 10
-917.1057282001453
 20
-1167.797512244601
 11
-917.1057282001453
 21
-1172.153967287318
 97
       12
330
27A
330
1F1
330
27D
330
1EC
330
28A
330
28B
330
27C
330
1EB
330
27B
330
1EA
330
28C
330
1E9
 92
       16
 93
        8
 72
     2
 10
-914.2144625905379
 20
-1170.621508209692
 40
0.31571692307598
 50
115.3740086784051
 51
180.0
 73
     1
 72
     1
 10
-914.5301795136147
 20
-1170.621508209692
 11
-914.5301795136147
 21
-1171.203359616387
 72
     2
 10
-914.2144625905379
 20
-1171.203359616387
 40
0.3157169230768204
 50
180.0
 51
269.8110329574187
 73
     1
 72
     2
 10
-914.2088464552279
 20
-1169.500524668818
 40
2.018561131934289
 50
269.8110329575811
 51
450.188967042419
 73
     1
 72
     2
 10
-914.2144625905379
 20
-1167.79768972125
 40
0.3157169230771517
 50
90.18896704258138
 51
180.0
 73
     1
 72
     1
 10
-914.5301795136147
 20
-1167.79768972125
 11
-914.5301795136147
 21
-1168.403225009756
 72
     2
 10
-914.2144625905379
 20
-1168.403225009756
 40
0.3157169230768204
 50
180.0
 51
244.6259913216833
 73
     1
 72
     2
 10
-914.7405052886259
 20
-1169.512366609724
 40
0.9118481501445603
 50
295.3740086782019
 51
424.6259913218226
 73
     0
 97
        8
330
296
330
1B6
330
293
330
294
330
272
330
1B5
330
295
330
271
 92
       16
 93
        1
 72
     2
 10
-914.7643203032986
 20
-1169.512366609724
 40
0.4709789327785074
 50
0.0
 51
360.0
 73
     1
 97
        1
330
2A4
 75
     1
 76
     2
 52
45.0
 41
0.1
 77
     0
 78
     1
 53
45.0
 43
62.7811309658083
 44
-72.3161373035813
 45
-0.1414213562373095
 46
0.0
 79
     0
 98
        1
 10
0.0
 20
0.0
  0
HATCH
  5
2E5
330
A0
100
AcDbEntity
  8
1
  6
Continuous
 62
     2
100
AcDbHatch
 10
0.0
 20
0.0
 30
0.0
210
0.0
220
0.0
230
1.0
  2
CUSTOM22
 70
     0
 71
     1
 91
        1
 92
        1
 93
       18
 72
     1
 10
-889.8968013384945
 20
-1170.913695548265
 11
-890.7079003759679
 21
-1170.913695548265
 72
     1
 10
-890.7079003759679
 20
-1170.913695548265
 11
-890.7079003759679
 21
-1173.182239765952
 72
     1
 10
-890.7079003759679
 20
-1173.182239765952
 11
-891.9006930781356
 21
-1173.182239765952
 72
     1
 10
-891.9006930781356
 20
-1173.182239765952
 11
-891.9006930781356
 21
-1170.913695548265
 72
     1
 10
-891.9006930781356
 20
-1170.913695548265
 11
-893.0043323777037
 21
-1170.913695548265
 72
     2
 10
-893.0043323777037
 20
-1171.868218555091
 40
0.9545230068260935
 50
90.0
 51
109.3371432194175
 73
     1
 72
     2
 10
-893.1510023758074
 20
-1171.450263574708
 40
0.5115800601948339
 50
109.3371432194654
 51
151.4785267424227
 73
     1
 72
     2
 10
-892.7736451177259
 20
-1171.655335004047
 40
0.9410597353349766
 50
151.4785267423711
 51
208.5214732576289
 73
     1
 72
     2
 10
-893.1510023758074
 20
-1171.860406433385
 40
0.5115800601959901
 50
208.5214732576668
 51
246.6277221118395
 73
     1
 72
     2
 10
-892.9945623431042
 20
-1171.498414414675
 40
0.9059297849852503
 50
246.6277221118135
 51
288.4480761180647
 73
     1
 72
     2
 10
-893.4127300767663
 20
-1170.244868638639
 40
2.227384008972611
 50
288.4480761181346
 51
301.9309089499522
 73
     1
 72
     1
 10
-892.2346750347423
 20
-1172.135219357788
 11
-892.2346750347423
 21
-1173.007736364592
 72
     2
 10
-893.570602951859
 20
-1168.34265405879
 40
4.852596863498941
 50
74.02000874166322
 51
84.84185523036345
 73
     0
 72
     2
 10
-893.2817468571232
 20
-1171.542544642012
 40
1.639695123940421
 50
84.84185523032188
 51
164.9381082228985
 73
     0
 72
     2
 10
-893.7008747005848
 20
-1171.655335004047
 40
1.205656168392903
 50
164.9381082229099
 51
195.0618917770901
 73
     0
 72
     2
 10
-893.2817468571232
 20
-1171.768125366082
 40
1.63969512394101
 50
195.0618917771015
 51
270.0
 73
     0
 72
     1
 10
-893.2817468571232
 20
-1170.128430242141
 11
-889.8968013384945
 21
-1170.128430242141
 72
     1
 10
-889.8968013384945
 20
-1170.128430242141
 11
-889.8968013384945
 21
-1170.913695548265
 97
       18
330
1B8
330
28F
330
290
330
278
330
277
330
21C
330
276
330
275
330
291
330
274
330
292
330
273
330
21D
330
1B7
330
1BC
330
1BB
330
1BA
330
1B9
 75
     1
 76
     2
 52
45.0
 41
0.1
 77
     0
 78
     1
 53
45.0
 43
62.7811309658083
 44
-72.3161373035813
 45
-0.1414213562373095
 46
0.0
 79
     0
 98
        1
 10
0.0
 20
0.0
  0
HATCH
  5
2E6
330
A0
100
AcDbEntity
  8
1
  6
Continuous
 62
     2
100
AcDbHatch
 10
0.0
 20
0.0
 30
0.0
210
0.0
220
0.0
230
1.0
  2
CUSTOM23
 70
     0
 71
     1
 91
        1
 92
        1
 93
       18
 72
     1
 10
-889.8968013384945
 20
-1170.913695548265
 11
-890.7079003759679
 21
-1170.913695548265
 72
     1
 10
-890.7079003759679
 20
-1170.913695548265
 11
-890.7079003759679
 21
-1173.182239765952
 72
     1
 10
-890.7079003759679
 20
-1173.182239765952
 11
-891.9006930781356
 21
-1173.182239765952
 72
     1
 10
-891.9006930781356
 20
-1173.182239765952
 11
-891.9006930781356
 21
-1170.913695548265
 72
     1
 10
-891.9006930781356
 20
-1170.913695548265
 11
-893.0043323777037
 21
-1170.913695548265
 72
     2
 10
-893.0043323777037
 20
-1171.868218555091
 40
0.9545230068260935
 50
90.0
 51
109.3371432194175
 73
     1
 72
     2
 10
-893.1510023758074
 20
-1171.450263574708
 40
0.5115800601948339
 50
109.3371432194654
 51
151.4785267424227
 73
     1
 72
     2
 10
-892.7736451177259
 20
-1171.655335004047
 40
0.9410597353349766
 50
151.4785267423711
 51
208.5214732576289
 73
     1
 72
     2
 10
-893.1510023758074
 20
-1171.860406433385
 40
0.5115800601959901
 50
208.5214732576668
 51
246.6277221118395
 73
     1
 72
     2
 10
-892.9945623431042
 20
-1171.498414414675
 40
0.9059297849852503
 50
246.6277221118135
 51
288.4480761180647
 73
     1
 72
     2
 10
-893.4127300767663
 20
-1170.244868638639
 40
2.227384008972611
 50
288.4480761181346
 51
301.9309089499522
 73
     1
 72
     1
 10
-892.2346750347423
 20
-1172.135219357788
 11
-892.2346750347423
 21
-1173.007736364592
 72
     2
 10
-893.570602951859
 20
-1168.34265405879
 40
4.852596863498941
 50
74.02000874166322
 51
84.84185523036345
 73
     0
 72
     2
 10
-893.2817468571232
 20
-1171.542544642012
 40
1.639695123940421
 50
84.84185523032188
 51
164.9381082228985
 73
     0
 72
     2
 10
-893.7008747005848
 20
-1171.655335004047
 40
1.205656168392903
 50
164.9381082229099
 51
195.0618917770901
 73
     0
 72
     2
 10
-893.2817468571232
 20
-1171.768125366082
 40
1.63969512394101
 50
195.0618917771015
 51
270.0
 73
     0
 72
     1
 10
-893.2817468571232
 20
-1170.128430242141
 11
-889.8968013384945
 21
-1170.128430242141
 72
     1
 10
-889.8968013384945
 20
-1170.128430242141
 11
-889.8968013384945
 21
-1170.913695548265
 97
       18
330
1B8
330
28F
330
290
330
278
330
277
330
21C
330
276
330
275
330
291
330
274
330
292
330
273
330
21D
330
1B7
330
1BC
330
1BB
330
1BA
330
1B9
 75
     1
 76
     2
 52
45.0
 41
0.1
 77
     0
 78
     1
 53
45.0
 43
62.7811309658083
 44
-72.3161373035813
 45
-0.1414213562373095
 46
0.0
 79
     0
 98
        1
 10
0.0
 20
0.0
  0
HATCH
  5
2E7
330
A0
100
AcDbEntity
  8
1
  6
Continuous
 62
     2
100
AcDbHatch
 10
0.0
 20
0.0
 30
0.0
210
0.0
220
0.0
230
1.0
  2
CUSTOM24
 70
     0
 71
     1
 91
        1
 92
        1
 93
       14
 72
     2
 10
-909.384448336376
 20
-1171.768125366082
 40
1.639695123941119
 50
84.8418552303683
 51
164.9381082228913
 73
     1
 72
     2
 10
-909.8035761798388
 20
-1171.655335004047
 40
1.205656168390927
 50
164.9381082228846
 51
195.0618917770736
 73
     1
 72
     2
 10
-909.384448336376
 20
-1171.542544642012
 40
1.639695123939416
 50
195.061891777078
 51
275.1581447696346
 73
     1
 72
     2
 10
-909.6733044311119
 20
-1168.34265405879
 40
4.852596863498839
 50
275.1581447696232
 51
285.9799912583526
 73
     1
 72
     1
 10
-908.3373765139941
 20
-1173.007736364591
 11
-908.3373765139941
 21
-1172.135219357788
 72
     2
 10
-909.5154315560192
 20
-1170.244868638638
 40
2.227384008972431
 50
58.06909105003535
 51
71.55192388186072
 73
     0
 72
     2
 10
-909.0972638223582
 20
-1171.498414414675
 40
0.9059297849848895
 50
71.55192388184437
 51
113.3722778881337
 73
     0
 72
     2
 10
-909.2537038550603
 20
-1171.860406433385
 40
0.5115800601949912
 50
113.3722778881722
 51
151.4785267422724
 73
     0
 72
     2
 10
-908.8763465969799
 20
-1171.655335004047
 40
0.941059735333413
 50
151.478526742305
 51
208.5214732577436
 73
     0
 72
     2
 10
-909.2537038550603
 20
-1171.450263574708
 40
0.5115800601953623
 50
208.5214732577276
 51
246.6277221118278
 73
     0
 72
     2
 10
-909.0972638223582
 20
-1171.812255593418
 40
0.9059297849847118
 50
246.6277221118663
 51
288.4480761181557
 73
     0
 72
     2
 10
-909.5154315560192
 20
-1173.065801369455
 40
2.227384008973574
 50
288.4480761181393
 51
301.9309089499646
 73
     0
 72
     1
 10
-908.3373765139941
 20
-1171.175450650305
 11
-908.3373765139941
 21
-1170.302933643502
 72
     2
 10
-909.6733044311119
 20
-1174.968015949303
 40
4.852596863498158
 50
74.02000874164733
 51
84.84185523037681
 73
     1
 97
       14
330
297
330
298
330
299
330
29A
330
21E
330
270
330
26F
330
26E
330
29B
330
29C
330
26D
330
29D
330
21F
330
26C
 75
     1
 76
     2
 52
45.0
 41
0.1
 77
     0
 78
     1
 53
45.0
 43
62.7811309658083
 44
-72.3161373035813
 45
-0.1414213562373095
 46
0.0
 79
     0
 98
        1
 10
0.0
 20
0.0
  0
HATCH
  5
2E8
330
A0
100
AcDbEntity
  8
1
  6
Continuous
 62
     2
100
AcDbHatch
 10
0.0
 20
0.0
 30
0.0
210
0.0
220
0.0
230
1.0
  2
CUSTOM25
 70
     0
 71
     1
 91
        1
 92
        1
 93
       14
 72
     2
 10
-909.384448336376
 20
-1171.768125366082
 40
1.639695123941119
 50
84.8418552303683
 51
164.9381082228913
 73
     1
 72
     2
 10
-909.8035761798388
 20
-1171.655335004047
 40
1.205656168390927
 50
164.9381082228846
 51
195.0618917770736
 73
     1
 72
     2
 10
-909.384448336376
 20
-1171.542544642012
 40
1.639695123939416
 50
195.061891777078
 51
275.1581447696346
 73
     1
 72
     2
 10
-909.6733044311119
 20
-1168.34265405879
 40
4.852596863498839
 50
275.1581447696232
 51
285.9799912583526
 73
     1
 72
     1
 10
-908.3373765139941
 20
-1173.007736364591
 11
-908.3373765139941
 21
-1172.135219357788
 72
     2
 10
-909.5154315560192
 20
-1170.244868638638
 40
2.227384008972431
 50
58.06909105003535
 51
71.55192388186072
 73
     0
 72
     2
 10
-909.0972638223582
 20
-1171.498414414675
 40
0.9059297849848895
 50
71.55192388184437
 51
113.3722778881337
 73
     0
 72
     2
 10
-909.2537038550603
 20
-1171.860406433385
 40
0.5115800601949912
 50
113.3722778881722
 51
151.4785267422724
 73
     0
 72
     2
 10
-908.8763465969799
 20
-1171.655335004047
 40
0.941059735333413
 50
151.478526742305
 51
208.5214732577436
 73
     0
 72
     2
 10
-909.2537038550603
 20
-1171.450263574708
 40
0.5115800601953623
 50
208.5214732577276
 51
246.6277221118278
 73
     0
 72
     2
 10
-909.0972638223582
 20
-1171.812255593418
 40
0.9059297849847118
 50
246.6277221118663
 51
288.4480761181557
 73
     0
 72
     2
 10
-909.5154315560192
 20
-1173.065801369455
 40
2.227384008973574
 50
288.4480761181393
 51
301.9309089499646
 73
     0
 72
     1
 10
-908.3373765139941
 20
-1171.175450650305
 11
-908.3373765139941
 21
-1170.302933643502
 72
     2
 10
-909.6733044311119
 20
-1174.968015949303
 40
4.852596863498158
 50
74.02000874164733
 51
84.84185523037681
 73
     1
 97
       14
330
297
330
298
330
299
330
29A
330
21E
330
270
330
26F
330
26E
330
29B
330
29C
330
26D
330
29D
330
21F
330
26C
 75
     1
 76
     2
 52
45.0
 41
0.1
 77
     0
 78
     1
 53
45.0
 43
62.7811309658083
 44
-72.3161373035813
 45
-0.1414213562373095
 46
0.0
 79
     0
 98
        1
 10
0.0
 20
0.0
  0
ENDBLK
  5
A2
330
A0
100
AcDbEntity
  8
0
100
AcDbBlockEnd
  0
BLOCK
  5
A4
330
A3
100
AcDbEntity
  8
0
100
AcDbBlockBegin
  2
_punkt
 70
     0
 10
-792.5000009290117
 20
-1180.475739765968
 30
0.0
  3
_punkt
  1

  0
LINE
  5
2E9
330
A3
100
AcDbEntity
  8
1
  6
Continuous
 62
     2
100
AcDbLine
 10
-792.5000009290115
 20
-1180.475739765968
 30
0.0
 11
-787.500000929014
 21
-1180.475739765968
 31
0.0
  0
LINE
  5
2EA
330
A3
100
AcDbEntity
  8
1
  6
Continuous
 62
     2
100
AcDbLine
 10
-792.5000009290115
 20
-1180.475739765968
 30
0.0
 11
-792.5000009290115
 21
-1185.475739765968
 31
0.0
  0
ENDBLK
  5
A5
330
A3
100
AcDbEntity
  8
0
100
AcDbBlockEnd
  0
BLOCK
  5
A9
330
A6
100
AcDbEntity
  8
0
100
AcDbBlockBegin
  2
A3I_CS
 70
     0
 10
-792.5000009290115
 20
-1185.475739765968
 30
0.0
  3
A3I_CS
  1

  0
INSERT
  5
A7
330
A6
100
AcDbEntity
  8
1
100
AcDbBlockReference
  2
_rahmen
 10
-792.5000009290115
 20
-1185.475739765968
 30
0.0
  0
INSERT
  5
A8
330
A6
100
AcDbEntity
  8
1
100
AcDbBlockReference
  2
_punkt
 10
-792.5000009290117
 20
-1180.475739765968
 30
0.0
  0
ENDBLK
  5
AA
330
A6
100
AcDbEntity
  8
0
100
AcDbBlockEnd
  0
BLOCK
  5
B3
330
AB
100
AcDbEntity
  8
0
100
AcDbBlockBegin
  2
1
 70
     0
 10
0.0
 20
0.0
 30
0.0
  3
1
  1

  0
INSERT
  5
AC
330
AB
100
AcDbEntity
  8
0
100
AcDbBlockReference
  2
Allg1
 10
-894.0000000000159
 20
-1099.99999999999
 30
0.0
  0
INSERT
  5
AD
330
AB
100
AcDbEntity
  8
0
100
AcDbBlockReference
  2
Drfsicht1
 10
-1065.119768154631
 20
-1043.901154594256
 30
0.0
  0
INSERT
  5
AE
330
AB
100
AcDbEntity
  8
0
100
AcDbBlockReference
  2
Rckans1
 10
-896.880232845367
 20
-957.99999999999
 30
0.0
  0
INSERT
  5
AF
330
AB
100
AcDbEntity
  8
0
100
AcDbBlockReference
  2
SA_Links1
 10
-977.0
 20
-957.99999999999
 30
0.0
  0
INSERT
  5
B0
330
AB
100
AcDbEntity
  8
0
100
AcDbBlockReference
  2
SA_Rechts1
 10
-1159.239536309243
 20
-957.99999999999
 30
0.0
  0
INSERT
  5
B1
330
AB
100
AcDbEntity
  8
0
100
AcDbBlockReference
  2
Vordans1
 10
-1065.119768154631
 20
-957.99999999999
 30
0.0
  0
INSERT
  5
B2
330
AB
100
AcDbEntity
  8
0
100
AcDbBlockReference
  2
A3I_CS
 10
-792.5000009290115
 20
-1185.475739765968
 30
0.0
  0
ENDBLK
  5
B4
330
AB
100
AcDbEntity
  8
0
100
AcDbBlockEnd
  0
BLOCK
  5
126
330
11D
100
AcDbEntity
  8
0
100
AcDbBlockBegin
  2
*D17
 70
     1
 10
0.0
 20
0.0
 30
0.0
  3
*D17
  1

  0
LINE
  5
11E
330
11D
100
AcDbEntity
  8
1
  6
Continuous
 62
     2
100
AcDbLine
 10
-1125.239535446802
 20
-1052.001154570413
 30
0.0
 11
-1125.239535446802
 21
-1045.001154570413
 31
0.0
  0
LINE
  5
11F
330
11D
100
AcDbEntity
  8
1
  6
Continuous
 62
     2
100
AcDbLine
 10
-1125.239535446802
 20
-1045.001154570413
 30
0.0
 11
-1125.239535446802
 21
-1042.801154570415
 31
0.0
  0
LINE
  5
120
330
11D
100
AcDbEntity
  8
1
  6
Continuous
 62
     2
100
AcDbLine
 10
-1125.239535446802
 20
-1042.801154570415
 30
0.0
 11
-1125.239535446802
 21
-1029.324341460841
 31
0.0
  0
LINE
  5
121
330
11D
100
AcDbEntity
  8
1
  6
Continuous
 62
     2
100
AcDbLine
 10
-1114.014056090699
 20
-1045.001154570413
 30
0.0
 11
-1126.739535446802
 21
-1045.001154570413
 31
0.0
  0
LINE
  5
122
330
11D
100
AcDbEntity
  8
1
  6
Continuous
 62
     2
100
AcDbLine
 10
-1114.014056090699
 20
-1042.801154570415
 30
0.0
 11
-1126.739535446802
 21
-1042.801154570415
 31
0.0
  0
SOLID
  5
123
330
11D
100
AcDbEntity
  8
1
 62
     2
100
AcDbTrace
 10
-1124.778751705246
 20
-1048.501154570413
 30
0.0
 11
-1125.700319188358
 21
-1048.501154570413
 31
0.0
 12
-1125.239535446802
 22
-1045.001154570413
 32
0.0
 13
-1125.239535446802
 23
-1045.001154570413
 33
0.0
  0
SOLID
  5
124
330
11D
100
AcDbEntity
  8
1
 62
     2
100
AcDbTrace
 10
-1125.700319188358
 20
-1039.301154570415
 30
0.0
 11
-1124.778751705246
 21
-1039.301154570415
 31
0.0
 12
-1125.239535446802
 22
-1042.801154570415
 32
0.0
 13
-1125.239535446802
 23
-1042.801154570415
 33
0.0
  0
MTEXT
  5
125
330
11D
100
AcDbEntity
  8
1
 62
     3
100
AcDbMText
 10
-1127.089535446802
 20
-1035.799341460841
 30
0.0
 40
3.5
 41
0.0
 71
     7
 72
     1
  1
2,2
  7
CONVERTER_11
 11
0.0
 21
1.0
 31
0.0
 73
     1
 44
0.60024009603842
  0
ENDBLK
  5
127
330
11D
100
AcDbEntity
  8
0
100
AcDbBlockEnd
  0
BLOCK
  5
18F
330
188
100
AcDbEntity
  8
0
100
AcDbBlockBegin
  2
*D18
 70
     1
 10
0.0
 20
0.0
 30
0.0
  3
*D18
  1

  0
LINE
  5
189
330
188
100
AcDbEntity
  8
1
  6
Continuous
 62
     2
100
AcDbLine
 10
-1125.239535446802
 20
-980.8011535586576
 30
0.0
 11
-1125.239535446802
 21
-935.2249923974615
 31
0.0
  0
LINE
  5
18A
330
188
100
AcDbEntity
  8
1
  6
Continuous
 62
     2
100
AcDbLine
 10
-1115.239535446802
 20
-980.8011535586576
 30
0.0
 11
-1126.739535446802
 21
-980.8011535586576
 31
0.0
  0
LINE
  5
18B
330
188
100
AcDbEntity
  8
1
  6
Continuous
 62
     2
100
AcDbLine
 10
-1095.243513562343
 20
-935.2249923974615
 30
0.0
 11
-1126.739535446802
 21
-935.2249923974615
 31
0.0
  0
SOLID
  5
18C
330
188
100
AcDbEntity
  8
1
 62
     2
100
AcDbTrace
 10
-1125.700319188358
 20
-977.3011535586576
 30
0.0
 11
-1124.778751705246
 21
-977.3011535586576
 31
0.0
 12
-1125.239535446802
 22
-980.8011535586576
 32
0.0
 13
-1125.239535446802
 23
-980.8011535586576
 33
0.0
  0
SOLID
  5
18D
330
188
100
AcDbEntity
  8
1
 62
     2
100
AcDbTrace
 10
-1124.778751705246
 20
-938.7249923974615
 30
0.0
 11
-1125.700319188358
 21
-938.7249923974615
 31
0.0
 12
-1125.239535446802
 22
-935.2249923974615
 32
0.0
 13
-1125.239535446802
 23
-935.2249923974615
 33
0.0
  0
MTEXT
  5
18E
330
188
100
AcDbEntity
  8
1
 62
     3
100
AcDbMText
 10
-1127.089535446802
 20
-965.6507127899323
 30
0.0
 40
3.5
 41
0.0
 71
     7
 72
     1
  1
45,58
  7
CONVERTER_11
 11
0.0
 21
1.0
 31
0.0
 73
     1
 44
0.60024009603842
  0
ENDBLK
  5
190
330
188
100
AcDbEntity
  8
0
100
AcDbBlockEnd
  0
BLOCK
  5
19A
330
193
100
AcDbEntity
  8
0
100
AcDbBlockBegin
  2
*D19
 70
     1
 10
0.0
 20
0.0
 30
0.0
  3
*D19
  1

  0
LINE
  5
194
330
193
100
AcDbEntity
  8
1
  6
Continuous
 62
     2
100
AcDbLine
 10
-1115.239535447813
 20
-993.798812312665
 30
0.0
 11
-1014.999999452682
 21
-993.798812312665
 31
0.0
  0
LINE
  5
195
330
193
100
AcDbEntity
  8
1
  6
Continuous
 62
     2
100
AcDbLine
 10
-1115.239535447813
 20
-972.601153560315
 30
0.0
 11
-1115.239535447813
 21
-995.298812312665
 31
0.0
  0
LINE
  5
196
330
193
100
AcDbEntity
  8
1
  6
Continuous
 62
     2
100
AcDbLine
 10
-1014.999999452682
 20
-975.4679385167804
 30
0.0
 11
-1014.999999452682
 21
-995.298812312665
 31
0.0
  0
SOLID
  5
197
330
193
100
AcDbEntity
  8
1
 62
     2
100
AcDbTrace
 10
-1111.739535447813
 20
-993.338028571109
 30
0.0
 11
-1111.739535447813
 21
-994.2595960542209
 31
0.0
 12
-1115.239535447813
 22
-993.798812312665
 32
0.0
 13
-1115.239535447813
 23
-993.798812312665
 33
0.0
  0
SOLID
  5
198
330
193
100
AcDbEntity
  8
1
 62
     2
100
AcDbTrace
 10
-1018.499999452682
 20
-994.2595960542209
 30
0.0
 11
-1018.499999452682
 21
-993.338028571109
 31
0.0
 12
-1014.999999452682
 22
-993.798812312665
 32
0.0
 13
-1014.999999452682
 23
-993.798812312665
 33
0.0
  0
MTEXT
  5
199
330
193
100
AcDbEntity
  8
1
 62
     3
100
AcDbMText
 10
-1070.59528156142
 20
-991.948812312665
 30
0.0
 40
3.5
 41
0.0
 71
     7
 72
     1
  1
100,24
  7
CONVERTER_11
 11
0.9999999999970619
 21
2.424068405545306E-6
 31
0.0
 73
     1
 44
0.60024009603842
  0
ENDBLK
  5
19B
330
193
100
AcDbEntity
  8
0
100
AcDbBlockEnd
  0
ENDSEC
  0
SECTION
  2
ENTITIES
  0
INSERT
  5
B5
330
1F
100
AcDbEntity
  8
1
100
AcDbBlockReference
  2
1
 10
0.0
 20
0.0
 30
0.0
  0
ENDSEC
  0
SECTION
  2
OBJECTS
  0
DICTIONARY
  5
C
330
0
100
AcDbDictionary
281
     1
  3
ACAD_DETAILVIEWSTYLE
350
330
  3
ACAD_GROUP
350
D
  3
ACAD_LAYOUT
350
1A
  3
ACAD_MATERIAL
350
43
  3
ACAD_MLEADERSTYLE
350
6B
  3
ACAD_MLINESTYLE
350
17
  3
ACAD_PLOTSETTINGS
350
19
  3
ACAD_PLOTSTYLENAME
350
E
  3
ACAD_SCALELIST
350
47
  3
ACAD_SECTIONVIEWSTYLE
350
331
  3
ACAD_TABLESTYLE
350
69
  3
ACAD_VISUALSTYLE
350
2A
  3
ACDB_RECOMPOSE_DATA
350
32D
  3
AcDbVariableDictionary
350
2ED
  0
DICTIONARY
  5
2EB
330
8
100
AcDbDictionary
280
     1
281
     1
  3
ACAD_XREC_ROUNDTRIP
360
2EC
  0
DICTIONARY
  5
330
102
{ACAD_REACTORS
330
C
102
}
330
C
100
AcDbDictionary
281
     1
  0
DICTIONARY
  5
D
102
{ACAD_REACTORS
330
C
102
}
330
C
100
AcDbDictionary
281
     1
  0
DICTIONARY
  5
1A
102
{ACAD_REACTORS
330
C
102
}
330
C
100
AcDbDictionary
281
     1
  3
Layout1
350
1E
  3
Layout2
350
26
  3
Model
350
22
  0
DICTIONARY
  5
43
102
{ACAD_REACTORS
330
C
102
}
330
C
100
AcDbDictionary
281
     1
  3
ByBlock
350
45
  3
ByLayer
350
44
  3
Global
350
46
  0
DICTIONARY
  5
6B
102
{ACAD_REACTORS
330
C
102
}
330
C
100
AcDbDictionary
281
     1
  3
Standard
350
6C
  0
DICTIONARY
  5
17
102
{ACAD_REACTORS
330
C
102
}
330
C
100
AcDbDictionary
281
     1
  3
Standard
350
18
  0
DICTIONARY
  5
19
102
{ACAD_REACTORS
330
C
102
}
330
C
100
AcDbDictionary
281
     1
  0
ACDBDICTIONARYWDFLT
  5
E
102
{ACAD_REACTORS
330
C
102
}
330
C
100
AcDbDictionary
281
     1
  3
Normal
350
F
100
AcDbDictionaryWithDefault
340
F
  0
DICTIONARY
  5
47
102
{ACAD_REACTORS
330
C
102
}
330
C
100
AcDbDictionary
281
     1
  3
A0
350
48
  3
A1
350
49
  3
A2
350
4A
  3
A3
350
4B
  3
A4
350
4C
  3
A5
350
4D
  3
A6
350
4E
  3
A7
350
4F
  3
A8
350
50
  3
A9
350
51
  3
B0
350
52
  3
B1
350
53
  3
B2
350
54
  3
B3
350
55
  3
B4
350
56
  3
B5
350
57
  3
B6
350
58
  3
B7
350
59
  3
B8
350
5A
  3
B9
350
5B
  3
C0
350
5C
  3
C1
350
5D
  3
C2
350
5E
  3
C3
350
5F
  3
C4
350
60
  3
C5
350
61
  3
C6
350
62
  3
C7
350
63
  3
C8
350
64
  3
C9
350
65
  3
D0
350
66
  3
D1
350
67
  3
D2
350
68
  0
DICTIONARY
  5
331
102
{ACAD_REACTORS
330
C
102
}
330
C
100
AcDbDictionary
281
     1
  0
DICTIONARY
  5
69
102
{ACAD_REACTORS
330
C
102
}
330
C
100
AcDbDictionary
281
     1
  3
Standard
350
6A
  0
DICTIONARY
  5
2A
102
{ACAD_REACTORS
330
C
102
}
330
C
100
AcDbDictionary
281
     1
  3
2dWireframe
350
2F
  3
Basic
350
32
  3
Brighten
350
36
  3
ColorChange
350
3A
  3
Conceptual
350
34
  3
Dim
350
35
  3
EdgeColorOff
350
3D
  3
Facepattern
350
39
  3
Flat
350
2B
  3
FlatWithEdges
350
2C
  3
Gouraud
350
2D
  3
GouraudWithEdges
350
2E
  3
Hidden
350
31
  3
JitterOff
350
3B
  3
Linepattern
350
38
  3
OverhangOff
350
3C
  3
Realistic
350
33
  3
Shaded
350
42
  3
Shaded with edges
350
41
  3
Shades of Gray
350
3E
  3
Sketchy
350
3F
  3
Thicken
350
37
  3
Wireframe
350
30
  3
X-Ray
350
40
  0
XRECORD
  5
32D
102
{ACAD_REACTORS
330
C
102
}
330
C
100
AcDbXrecord
280
     1
 90
        1
330
6A
  0
DICTIONARY
  5
2ED
102
{ACAD_REACTORS
330
C
102
}
330
C
100
AcDbDictionary
281
     1
  3
CANNOSCALE
350
2EE
  3
CMLEADERSTYLE
350
32F
  3
CTABLESTYLE
350
32E
  3
MSLTSCALE
350
2EF
  3
XCLIPFRAME
350
2F0
  0
XRECORD
  5
2EC
102
{ACAD_REACTORS
330
2EB
102
}
330
2EB
100
AcDbXrecord
280
     1
102
VTR_0.000_0.000_1.000_1.000_VISUALSTYLE
340
2F
102
VTR_0.000_0.000_1.000_1.000_GRIDDISPLAY
 70
     3
102
VTR_0.000_0.000_1.000_1.000_GRIDMAJOR
 70
     5
102
VTR_0.000_0.000_1.000_1.000_DEFAULTLIGHTING
280
     1
102
VTR_0.000_0.000_1.000_1.000_DEFAULTLIGHTINGTYPE
 70
     1
102
VTR_0.000_0.000_1.000_1.000_BRIGHTNESS
141
0.0
102
VTR_0.000_0.000_1.000_1.000_CONTRAST
142
0.0
  0
LAYOUT
  5
1E
102
{ACAD_REACTORS
330
1A
102
}
330
1A
100
AcDbPlotSettings
  1

  2
none_device
  4

  6

 40
0.0
 41
0.0
 42
0.0
 43
0.0
 44
0.0
 45
0.0
 46
0.0
 47
0.0
 48
0.0
 49
0.0
140
0.0
141
0.0
142
1.0
143
1.0
 70
   688
 72
     0
 73
     0
 74
     5
  7

 75
    16
 76
     0
 77
     2
 78
   300
147
1.0
148
0.0
149
0.0
100
AcDbLayout
  1
Layout1
 70
     1
 71
     1
 10
0.0
 20
0.0
 11
12.0
 21
9.0
 12
0.0
 22
0.0
 32
0.0
 14
1.00000000000000E+20
 24
1.00000000000000E+20
 34
1.00000000000000E+20
 15
-1.00000000000000E+20
 25
-1.00000000000000E+20
 35
-1.00000000000000E+20
146
0.0
 13
0.0
 23
0.0
 33
0.0
 16
1.0
 26
0.0
 36
0.0
 17
0.0
 27
1.0
 37
0.0
 76
     0
330
1B
  0
LAYOUT
  5
26
102
{ACAD_REACTORS
330
1A
102
}
330
1A
100
AcDbPlotSettings
  1

  2
none_device
  4

  6

 40
0.0
 41
0.0
 42
0.0
 43
0.0
 44
0.0
 45
0.0
 46
0.0
 47
0.0
 48
0.0
 49
0.0
140
0.0
141
0.0
142
1.0
143
1.0
 70
   688
 72
     0
 73
     0
 74
     5
  7

 75
    16
 76
     0
 77
     2
 78
   300
147
1.0
148
0.0
149
0.0
100
AcDbLayout
  1
Layout2
 70
     1
 71
     2
 10
0.0
 20
0.0
 11
0.0
 21
0.0
 12
0.0
 22
0.0
 32
0.0
 14
0.0
 24
0.0
 34
0.0
 15
0.0
 25
0.0
 35
0.0
146
0.0
 13
0.0
 23
0.0
 33
0.0
 16
1.0
 26
0.0
 36
0.0
 17
0.0
 27
1.0
 37
0.0
 76
     0
330
23
  0
LAYOUT
  5
22
102
{ACAD_REACTORS
330
1A
102
}
330
1A
100
AcDbPlotSettings
  1

  2
none_device
  4
Letter_(8.50_x_11.00_Inches)
  6

 40
6.35
 41
6.35
 42
6.35000508
 43
6.35000508
 44
215.9
 45
279.4
 46
0.0
 47
0.0
 48
0.0
 49
0.0
140
0.0
141
0.0
142
1.0
143
1.0
 70
  1712
 72
     0
 73
     0
 74
     0
  7

 75
     0
 76
     0
 77
     2
 78
   300
147
1.0
148
0.0
149
0.0
100
AcDbLayout
  1
Model
 70
     1
 71
     0
 10
0.0
 20
0.0
 11
12.0
 21
9.0
 12
0.0
 22
0.0
 32
0.0
 14
-1207.500000929013
 24
-1185.475739765968
 34
0.0
 15
-787.500000929014
 25
-888.4757397659678
 35
0.0
146
0.0
 13
0.0
 23
0.0
 33
0.0
 16
1.0
 26
0.0
 36
0.0
 17
0.0
 27
1.0
 37
0.0
 76
     0
330
1F
331
29
  0
MATERIAL
  5
45
102
{ACAD_REACTORS
330
43
102
}
102
{ACAD_XDICTIONARY
360
323
102
}
330
43
100
AcDbMaterial
  1
ByBlock
  0
MATERIAL
  5
44
102
{ACAD_REACTORS
330
43
102
}
102
{ACAD_XDICTIONARY
360
321
102
}
330
43
100
AcDbMaterial
  1
ByLayer
  0
MATERIAL
  5
46
102
{ACAD_REACTORS
330
43
102
}
102
{ACAD_XDICTIONARY
360
325
102
}
330
43
100
AcDbMaterial
  1
Global
  0
MLEADERSTYLE
  5
6C
102
{ACAD_REACTORS
330
6B
102
}
102
{ACAD_XDICTIONARY
360
32B
102
}
330
6B
100
AcDbMLeaderStyle
170
     2
171
     1
172
     0
 90
        2
 40
0.0
 41
0.0
173
     1
 91
-1056964608
340
14
 92
       -2
290
     1
 42
0.09
291
     1
 43
0.36
  3
Standard
341
0
 44
0.18
300

342
11
174
     1
178
     6
175
     1
176
     0
 93
-1056964608
 45
0.18
292
     0
297
     0
 46
0.18
343
0
 94
-1056964608
 47
1.0
 49
1.0
140
1.0
293
     1
141
0.0
294
     1
177
     0
142
1.0
295
     0
296
     0
143
0.125
1001
ACAD_MLEADERVER
1070
     2
  0
MLINESTYLE
  5
18
102
{ACAD_REACTORS
330
17
102
}
330
17
100
AcDbMlineStyle
  2
Standard
 70
     0
  3

 62
   256
 51
90.0
 52
90.0
 71
     2
 49
0.5
 62
   256
  6
BYLAYER
 49
-0.5
 62
   256
  6
BYLAYER
  0
ACDBPLACEHOLDER
  5
F
102
{ACAD_REACTORS
330
E
102
}
330
E
  0
SCALE
  5
48
102
{ACAD_REACTORS
330
47
102
}
330
47
100
AcDbScale
 70
     0
300
1:1
140
1.0
141
1.0
290
     1
  0
SCALE
  5
49
102
{ACAD_REACTORS
330
47
102
}
330
47
100
AcDbScale
 70
     0
300
1:2
140
1.0
141
2.0
290
     0
  0
SCALE
  5
4A
102
{ACAD_REACTORS
330
47
102
}
330
47
100
AcDbScale
 70
     0
300
1:4
140
1.0
141
4.0
290
     0
  0
SCALE
  5
4B
102
{ACAD_REACTORS
330
47
102
}
330
47
100
AcDbScale
 70
     0
300
1:5
140
1.0
141
5.0
290
     0
  0
SCALE
  5
4C
102
{ACAD_REACTORS
330
47
102
}
330
47
100
AcDbScale
 70
     0
300
1:8
140
1.0
141
8.0
290
     0
  0
SCALE
  5
4D
102
{ACAD_REACTORS
330
47
102
}
330
47
100
AcDbScale
 70
     0
300
1:10
140
1.0
141
10.0
290
     0
  0
SCALE
  5
4E
102
{ACAD_REACTORS
330
47
102
}
330
47
100
AcDbScale
 70
     0
300
1:16
140
1.0
141
16.0
290
     0
  0
SCALE
  5
4F
102
{ACAD_REACTORS
330
47
102
}
330
47
100
AcDbScale
 70
     0
300
1:20
140
1.0
141
20.0
290
     0
  0
SCALE
  5
50
102
{ACAD_REACTORS
330
47
102
}
330
47
100
AcDbScale
 70
     0
300
1:30
140
1.0
141
30.0
290
     0
  0
SCALE
  5
51
102
{ACAD_REACTORS
330
47
102
}
330
47
100
AcDbScale
 70
     0
300
1:40
140
1.0
141
40.0
290
     0
  0
SCALE
  5
52
102
{ACAD_REACTORS
330
47
102
}
330
47
100
AcDbScale
 70
     0
300
1:50
140
1.0
141
50.0
290
     0
  0
SCALE
  5
53
102
{ACAD_REACTORS
330
47
102
}
330
47
100
AcDbScale
 70
     0
300
1:100
140
1.0
141
100.0
290
     0
  0
SCALE
  5
54
102
{ACAD_REACTORS
330
47
102
}
330
47
100
AcDbScale
 70
     0
300
2:1
140
2.0
141
1.0
290
     0
  0
SCALE
  5
55
102
{ACAD_REACTORS
330
47
102
}
330
47
100
AcDbScale
 70
     0
300
4:1
140
4.0
141
1.0
290
     0
  0
SCALE
  5
56
102
{ACAD_REACTORS
330
47
102
}
330
47
100
AcDbScale
 70
     0
300
8:1
140
8.0
141
1.0
290
     0
  0
SCALE
  5
57
102
{ACAD_REACTORS
330
47
102
}
330
47
100
AcDbScale
 70
     0
300
10:1
140
10.0
141
1.0
290
     0
  0
SCALE
  5
58
102
{ACAD_REACTORS
330
47
102
}
330
47
100
AcDbScale
 70
     0
300
100:1
140
100.0
141
1.0
290
     0
  0
SCALE
  5
59
102
{ACAD_REACTORS
330
47
102
}
330
47
100
AcDbScale
 70
     0
300
1/128" = 1'-0"
140
0.0078125
141
12.0
290
     0
  0
SCALE
  5
5A
102
{ACAD_REACTORS
330
47
102
}
330
47
100
AcDbScale
 70
     0
300
1/64" = 1'-0"
140
0.015625
141
12.0
290
     0
  0
SCALE
  5
5B
102
{ACAD_REACTORS
330
47
102
}
330
47
100
AcDbScale
 70
     0
300
1/32" = 1'-0"
140
0.03125
141
12.0
290
     0
  0
SCALE
  5
5C
102
{ACAD_REACTORS
330
47
102
}
330
47
100
AcDbScale
 70
     0
300
1/16" = 1'-0"
140
0.0625
141
12.0
290
     0
  0
SCALE
  5
5D
102
{ACAD_REACTORS
330
47
102
}
330
47
100
AcDbScale
 70
     0
300
3/32" = 1'-0"
140
0.09375
141
12.0
290
     0
  0
SCALE
  5
5E
102
{ACAD_REACTORS
330
47
102
}
330
47
100
AcDbScale
 70
     0
300
1/8" = 1'-0"
140
0.125
141
12.0
290
     0
  0
SCALE
  5
5F
102
{ACAD_REACTORS
330
47
102
}
330
47
100
AcDbScale
 70
     0
300
3/16" = 1'-0"
140
0.1875
141
12.0
290
     0
  0
SCALE
  5
60
102
{ACAD_REACTORS
330
47
102
}
330
47
100
AcDbScale
 70
     0
300
1/4" = 1'-0"
140
0.25
141
12.0
290
     0
  0
SCALE
  5
61
102
{ACAD_REACTORS
330
47
102
}
330
47
100
AcDbScale
 70
     0
300
3/8" = 1'-0"
140
0.375
141
12.0
290
     0
  0
SCALE
  5
62
102
{ACAD_REACTORS
330
47
102
}
330
47
100
AcDbScale
 70
     0
300
1/2" = 1'-0"
140
0.5
141
12.0
290
     0
  0
SCALE
  5
63
102
{ACAD_REACTORS
330
47
102
}
330
47
100
AcDbScale
 70
     0
300
3/4" = 1'-0"
140
0.75
141
12.0
290
     0
  0
SCALE
  5
64
102
{ACAD_REACTORS
330
47
102
}
330
47
100
AcDbScale
 70
     0
300
1" = 1'-0"
140
1.0
141
12.0
290
     0
  0
SCALE
  5
65
102
{ACAD_REACTORS
330
47
102
}
330
47
100
AcDbScale
 70
     0
300
1-1/2" = 1'-0"
140
1.5
141
12.0
290
     0
  0
SCALE
  5
66
102
{ACAD_REACTORS
330
47
102
}
330
47
100
AcDbScale
 70
     0
300
3" = 1'-0"
140
3.0
141
12.0
290
     0
  0
SCALE
  5
67
102
{ACAD_REACTORS
330
47
102
}
330
47
100
AcDbScale
 70
     0
300
6" = 1'-0"
140
6.0
141
12.0
290
     0
  0
SCALE
  5
68
102
{ACAD_REACTORS
330
47
102
}
330
47
100
AcDbScale
 70
     0
300
1'-0" = 1'-0"
140
12.0
141
12.0
290
     0
  0
TABLESTYLE
  5
6A
102
{ACAD_REACTORS
330
69
102
}
102
{ACAD_XDICTIONARY
360
327
102
}
330
69
100
AcDbTableStyle
  3
Standard
 70
     0
 71
     0
 40
0.06
 41
0.06
280
     0
281
     0
  7
Standard
140
0.18
170
     2
 62
     0
 63
   257
283
     0
274
    -2
284
     1
 64
     0
275
    -2
285
     1
 65
     0
276
    -2
286
     1
 66
     0
277
    -2
287
     1
 67
     0
278
    -2
288
     1
 68
     0
279
    -2
289
     1
 69
     0
  7
Standard
140
0.25
170
     5
 62
     0
 63
   257
283
     0
274
    -2
284
     1
 64
     0
275
    -2
285
     1
 65
     0
276
    -2
286
     1
 66
     0
277
    -2
287
     1
 67
     0
278
    -2
288
     1
 68
     0
279
    -2
289
     1
 69
     0
  7
Standard
140
0.18
170
     5
 62
     0
 63
   257
283
     0
274
    -2
284
     1
 64
     0
275
    -2
285
     1
 65
     0
276
    -2
286
     1
 66
     0
277
    -2
287
     1
 67
     0
278
    -2
288
     1
 68
     0
279
    -2
289
     1
 69
     0
  0
VISUALSTYLE
  5
2F
102
{ACAD_REACTORS
330
2A
102
}
102
{ACAD_XDICTIONARY
360
2F9
102
}
330
2A
100
AcDbVisualStyle
  2
2dWireframe
 70
     4
 71
     0
 72
     2
 73
     0
 90
        0
 40
0.6
 41
30.0
 62
     5
 63
     7
421
 16777215
 74
     1
 91
        4
 64
     7
 65
   257
 75
     1
175
     1
 42
1.0
 92
        0
 66
   257
 43
1.0
 76
     1
 77
     6
 78
     2
 67
     7
 79
     5
170
     0
171
     0
290
     0
174
     0
 93
        1
 44
0.0
173
     0
291
     0
 45
0.0
1001
ACAD
1000
AcDbSavedByObjectVersion
1070
     0
  0
VISUALSTYLE
  5
32
102
{ACAD_REACTORS
330
2A
102
}
102
{ACAD_XDICTIONARY
360
2FF
102
}
330
2A
100
AcDbVisualStyle
  2
Basic
 70
     7
 71
     1
 72
     0
 73
     1
 90
        0
 40
0.6
 41
30.0
 62
     5
 63
     7
421
 16777215
 74
     0
 91
        4
 64
     7
 65
   257
 75
     1
175
     1
 42
1.0
 92
        8
 66
     7
 43
1.0
 76
     1
 77
     6
 78
     2
 67
     7
 79
     5
170
     0
171
     0
290
     0
174
     0
 93
        1
 44
0.0
173
     0
291
     1
 45
0.0
1001
ACAD
1000
AcDbSavedByObjectVersion
1070
     0
  0
VISUALSTYLE
  5
36
102
{ACAD_REACTORS
330
2A
102
}
102
{ACAD_XDICTIONARY
360
307
102
}
330
2A
100
AcDbVisualStyle
  2
Brighten
 70
    12
 71
     2
 72
     2
 73
     0
 90
        0
 40
0.6
 41
30.0
 62
     5
 63
     7
421
 16777215
 74
     1
 91
        4
 64
     7
 65
   257
 75
     1
175
     1
 42
1.0
 92
        8
 66
     7
 43
1.0
 76
     1
 77
     6
 78
     2
 67
     7
 79
     5
170
     0
171
     0
290
     0
174
     0
 93
        1
 44
50.0
173
     0
291
     1
 45
0.0
1001
ACAD
1000
AcDbSavedByObjectVersion
1070
     0
  0
VISUALSTYLE
  5
3A
102
{ACAD_REACTORS
330
2A
102
}
102
{ACAD_XDICTIONARY
360
30F
102
}
330
2A
100
AcDbVisualStyle
  2
ColorChange
 70
    16
 71
     2
 72
     2
 73
     3
 90
        0
 40
0.6
 41
30.0
 62
     5
 63
     8
421
  8421504
 74
     1
 91
        4
 64
     7
 65
   257
 75
     1
175
     1
 42
1.0
 92
        8
 66
     8
424
  8421504
 43
1.0
 76
     1
 77
     6
 78
     2
 67
     7
 79
     5
170
     0
171
     0
290
     0
174
     0
 93
        1
 44
0.0
173
     0
291
     1
 45
0.0
1001
ACAD
1000
AcDbSavedByObjectVersion
1070
     0
  0
VISUALSTYLE
  5
34
102
{ACAD_REACTORS
330
2A
102
}
102
{ACAD_XDICTIONARY
360
303
102
}
330
2A
100
AcDbVisualStyle
  2
Conceptual
 70
     9
 71
     3
 72
     2
 73
     0
 90
        0
 40
0.6
 41
30.0
 62
     5
 63
     7
421
 16777215
 74
     2
 91
        2
 64
     7
 65
   257
 75
     1
175
     1
 42
179.0
 92
        8
 66
     7
 43
1.0
 76
     1
 77
     6
 78
     2
 67
     7
 79
     3
170
     0
171
     0
290
     0
174
     0
 93
        1
 44
0.0
173
     0
291
     0
 45
0.0
1001
ACAD
1000
AcDbSavedByObjectVersion
1070
     0
  0
VISUALSTYLE
  5
35
102
{ACAD_REACTORS
330
2A
102
}
102
{ACAD_XDICTIONARY
360
305
102
}
330
2A
100
AcDbVisualStyle
  2
Dim
 70
    11
 71
     2
 72
     2
 73
     0
 90
        0
 40
0.6
 41
30.0
 62
     5
 63
     7
421
 16777215
 74
     1
 91
        4
 64
     7
 65
   257
 75
     1
175
     1
 42
1.0
 92
        8
 66
     7
 43
1.0
 76
     1
 77
     6
 78
     2
 67
     7
 79
     5
170
     0
171
     0
290
     0
174
     0
 93
        1
 44
-50.0
173
     0
291
     1
 45
0.0
1001
ACAD
1000
AcDbSavedByObjectVersion
1070
     0
  0
VISUALSTYLE
  5
3D
102
{ACAD_REACTORS
330
2A
102
}
102
{ACAD_XDICTIONARY
360
315
102
}
330
2A
100
AcDbVisualStyle
  2
EdgeColorOff
 70
    22
 71
     2
 72
     2
 73
     0
 90
        0
 40
0.6
 41
30.0
 62
     5
 63
     7
421
 16777215
 74
     1
 91
        4
 64
     7
 65
   257
 75
     1
175
     1
 42
1.0
 92
        8
 66
     7
 43
1.0
 76
     1
 77
     6
 78
     2
 67
     7
 79
     5
170
     0
171
     0
290
     0
174
     0
 93
        1
 44
0.0
173
     0
291
     1
 45
0.0
1001
ACAD
1000
AcDbSavedByObjectVersion
1070
     0
  0
VISUALSTYLE
  5
39
102
{ACAD_REACTORS
330
2A
102
}
102
{ACAD_XDICTIONARY
360
30D
102
}
330
2A
100
AcDbVisualStyle
  2
Facepattern
 70
    15
 71
     2
 72
     2
 73
     0
 90
        0
 40
0.6
 41
30.0
 62
     5
 63
     7
421
 16777215
 74
     1
 91
        4
 64
     7
 65
   257
 75
     1
175
     1
 42
1.0
 92
        8
 66
     7
 43
1.0
 76
     1
 77
     6
 78
     2
 67
     7
 79
     5
170
     0
171
     0
290
     0
174
     0
 93
        1
 44
0.0
173
     0
291
     1
 45
0.0
1001
ACAD
1000
AcDbSavedByObjectVersion
1070
     0
  0
VISUALSTYLE
  5
2B
102
{ACAD_REACTORS
330
2A
102
}
102
{ACAD_XDICTIONARY
360
2F1
102
}
330
2A
100
AcDbVisualStyle
  2
Flat
 70
     0
 71
     2
 72
     1
 73
     1
 90
        2
 40
0.6
 41
30.0
 62
     5
 63
     7
421
 16777215
 74
     0
 91
        0
 64
     7
 65
   257
 75
     1
175
     1
 42
1.0
 92
        8
 66
     7
 43
1.0
 76
     1
 77
     6
 78
     2
 67
     7
 79
     5
170
     0
171
     0
290
     0
174
     0
 93
       13
 44
0.0
173
     0
291
     1
 45
0.0
1001
ACAD
1000
AcDbSavedByObjectVersion
1070
     0
  0
VISUALSTYLE
  5
2C
102
{ACAD_REACTORS
330
2A
102
}
102
{ACAD_XDICTIONARY
360
2F3
102
}
330
2A
100
AcDbVisualStyle
  2
FlatWithEdges
 70
     1
 71
     2
 72
     1
 73
     1
 90
        2
 40
0.6
 41
30.0
 62
     5
 63
     7
421
 16777215
 74
     1
 91
        0
 64
     7
 65
   257
 75
     1
175
     1
 42
1.0
 92
        0
 66
   257
 43
1.0
 76
     1
 77
     6
 78
     2
 67
     7
 79
     5
170
     0
171
     0
290
     0
174
     0
 93
       13
 44
0.0
173
     0
291
     1
 45
0.0
1001
ACAD
1000
AcDbSavedByObjectVersion
1070
     0
  0
VISUALSTYLE
  5
2D
102
{ACAD_REACTORS
330
2A
102
}
102
{ACAD_XDICTIONARY
360
2F5
102
}
330
2A
100
AcDbVisualStyle
  2
Gouraud
 70
     2
 71
     2
 72
     2
 73
     1
 90
        2
 40
0.6
 41
30.0
 62
     5
 63
     7
421
 16777215
 74
     0
 91
        0
 64
     7
 65
   257
 75
     1
175
     1
 42
1.0
 92
        0
 66
     7
 43
1.0
 76
     1
 77
     6
 78
     2
 67
     7
 79
     5
170
     0
171
     0
290
     0
174
     0
 93
       13
 44
0.0
173
     0
291
     1
 45
0.0
1001
ACAD
1000
AcDbSavedByObjectVersion
1070
     0
  0
VISUALSTYLE
  5
2E
102
{ACAD_REACTORS
330
2A
102
}
102
{ACAD_XDICTIONARY
360
2F7
102
}
330
2A
100
AcDbVisualStyle
  2
GouraudWithEdges
 70
     3
 71
     2
 72
     2
 73
     1
 90
        2
 40
0.6
 41
30.0
 62
     5
 63
     7
421
 16777215
 74
     1
 91
        0
 64
     7
 65
   257
 75
     1
175
     1
 42
1.0
 92
        0
 66
   257
 43
1.0
 76
     1
 77
     6
 78
     2
 67
     7
 79
     5
170
     0
171
     0
290
     0
174
     0
 93
       13
 44
0.0
173
     0
291
     1
 45
0.0
1001
ACAD
1000
AcDbSavedByObjectVersion
1070
     0
  0
VISUALSTYLE
  5
31
102
{ACAD_REACTORS
330
2A
102
}
102
{ACAD_XDICTIONARY
360
2FD
102
}
330
2A
100
AcDbVisualStyle
  2
Hidden
 70
     6
 71
     1
 72
     2
 73
     2
 90
        0
 40
0.6
 41
30.0
 62
     5
 63
     7
421
 16777215
 74
     2
 91
        2
 64
     7
 65
   257
 75
     2
175
     1
 42
40.0
 92
        0
 66
   257
 43
1.0
 76
     1
 77
     6
 78
     2
 67
     7
 79
     3
170
     0
171
     0
290
     0
174
     0
 93
        1
 44
0.0
173
     0
291
     0
 45
0.0
1001
ACAD
1000
AcDbSavedByObjectVersion
1070
     0
  0
VISUALSTYLE
  5
3B
102
{ACAD_REACTORS
330
2A
102
}
102
{ACAD_XDICTIONARY
360
311
102
}
330
2A
100
AcDbVisualStyle
  2
JitterOff
 70
    20
 71
     2
 72
     2
 73
     0
 90
        0
 40
0.6
 41
30.0
 62
     5
 63
     7
421
 16777215
 74
     1
 91
        4
 64
     7
 65
   257
 75
     1
175
     1
 42
1.0
 92
       10
 66
     7
 43
1.0
 76
     1
 77
     6
 78
     2
 67
     7
 79
     5
170
     0
171
     0
290
     0
174
     0
 93
        1
 44
0.0
173
     0
291
     1
 45
0.0
1001
ACAD
1000
AcDbSavedByObjectVersion
1070
     0
  0
VISUALSTYLE
  5
38
102
{ACAD_REACTORS
330
2A
102
}
102
{ACAD_XDICTIONARY
360
30B
102
}
330
2A
100
AcDbVisualStyle
  2
Linepattern
 70
    14
 71
     2
 72
     2
 73
     0
 90
        0
 40
0.6
 41
30.0
 62
     5
 63
     7
421
 16777215
 74
     1
 91
        4
 64
     7
 65
   257
 75
     7
175
     7
 42
1.0
 92
        8
 66
     7
 43
1.0
 76
     1
 77
     6
 78
     2
 67
     7
 79
     5
170
     0
171
     0
290
     0
174
     0
 93
        1
 44
0.0
173
     0
291
     1
 45
0.0
1001
ACAD
1000
AcDbSavedByObjectVersion
1070
     0
  0
VISUALSTYLE
  5
3C
102
{ACAD_REACTORS
330
2A
102
}
102
{ACAD_XDICTIONARY
360
313
102
}
330
2A
100
AcDbVisualStyle
  2
OverhangOff
 70
    21
 71
     2
 72
     2
 73
     0
 90
        0
 40
0.6
 41
30.0
 62
     5
 63
     7
421
 16777215
 74
     1
 91
        4
 64
     7
 65
   257
 75
     1
175
     1
 42
1.0
 92
        9
 66
     7
 43
1.0
 76
     1
 77
     6
 78
     2
 67
     7
 79
     5
170
     0
171
     0
290
     0
174
     0
 93
        1
 44
0.0
173
     0
291
     1
 45
0.0
1001
ACAD
1000
AcDbSavedByObjectVersion
1070
     0
  0
VISUALSTYLE
  5
33
102
{ACAD_REACTORS
330
2A
102
}
102
{ACAD_XDICTIONARY
360
301
102
}
330
2A
100
AcDbVisualStyle
  2
Realistic
 70
     8
 71
     2
 72
     3
 73
     0
 90
        2
 40
0.6
 41
30.0
 62
     5
 63
     7
421
 16777215
 74
     0
 91
        0
 64
     7
 65
   257
 75
     1
175
     1
 42
1.0
 92
        8
 66
   257
 43
1.0
 76
     1
 77
     6
 78
     2
 67
     7
 79
     3
170
     0
171
     0
290
     0
174
     0
 93
       13
 44
0.0
173
     0
291
     0
 45
0.0
1001
ACAD
1000
AcDbSavedByObjectVersion
1070
     0
  0
VISUALSTYLE
  5
42
102
{ACAD_REACTORS
330
2A
102
}
102
{ACAD_XDICTIONARY
360
31F
102
}
330
2A
100
AcDbVisualStyle
  2
Shaded
 70
    27
 71
     2
 72
     2
 73
     1
 90
        2
 40
0.6
 41
30.0
 62
     5
 63
     7
421
 16777215
 74
     0
 91
        4
 64
     7
 65
   257
 75
     1
175
     1
 42
1.0
 92
        8
 66
   257
 43
1.0
 76
     1
 77
     6
 78
     2
 67
     8
425
  7895160
 79
     3
170
     0
171
     0
290
     0
174
     0
 93
        5
 44
0.0
173
     0
291
     0
 45
0.0
1001
ACAD
1000
AcDbSavedByObjectVersion
1070
     0
  0
VISUALSTYLE
  5
41
102
{ACAD_REACTORS
330
2A
102
}
102
{ACAD_XDICTIONARY
360
31D
102
}
330
2A
100
AcDbVisualStyle
  2
Shaded with edges
 70
    26
 71
     2
 72
     2
 73
     1
 90
        2
 40
0.6
 41
30.0
 62
     5
 63
     7
421
 16777215
 74
     1
 91
       10
 64
     7
 65
   257
 75
     2
175
     1
 42
1.0
 92
        8
 66
   257
 43
1.0
 76
     1
 77
     6
 78
     2
 67
     7
 79
     3
170
     0
171
     0
290
     0
174
     0
 93
        5
 44
0.0
173
     0
291
     0
 45
0.0
1001
ACAD
1000
AcDbSavedByObjectVersion
1070
     0
  0
VISUALSTYLE
  5
3E
102
{ACAD_REACTORS
330
2A
102
}
102
{ACAD_XDICTIONARY
360
317
102
}
330
2A
100
AcDbVisualStyle
  2
Shades of Gray
 70
    23
 71
     2
 72
     2
 73
     3
 90
        0
 40
0.6
 41
30.0
 62
     5
 63
     7
421
 16777215
 74
     2
 91
        2
 64
     7
 65
     7
 75
     1
175
     1
 42
40.0
 92
        8
 66
     7
 43
1.0
 76
     1
 77
     6
 78
     2
 67
     7
 79
     3
170
     0
171
     0
290
     0
174
     0
 93
        1
 44
0.0
173
     0
291
     0
 45
0.0
1001
ACAD
1000
AcDbSavedByObjectVersion
1070
     0
  0
VISUALSTYLE
  5
3F
102
{ACAD_REACTORS
330
2A
102
}
102
{ACAD_XDICTIONARY
360
319
102
}
330
2A
100
AcDbVisualStyle
  2
Sketchy
 70
    24
 71
     1
 72
     2
 73
     2
 90
        0
 40
0.6
 41
30.0
 62
     5
 63
     7
421
 16777215
 74
     2
 91
        2
 64
     7
 65
     7
 75
     1
175
     1
 42
40.0
 92
       11
 66
     7
 43
1.0
 76
     1
 77
     6
 78
     2
 67
     7
 79
     6
170
     0
171
     0
290
     0
174
     0
 93
        1
 44
0.0
173
     0
291
     0
 45
0.0
1001
ACAD
1000
AcDbSavedByObjectVersion
1070
     0
  0
VISUALSTYLE
  5
37
102
{ACAD_REACTORS
330
2A
102
}
102
{ACAD_XDICTIONARY
360
309
102
}
330
2A
100
AcDbVisualStyle
  2
Thicken
 70
    13
 71
     2
 72
     2
 73
     0
 90
        0
 40
0.6
 41
30.0
 62
     5
 63
     7
421
 16777215
 74
     1
 91
        4
 64
     7
 65
   257
 75
     1
175
     1
 42
1.0
 92
       12
 66
     7
 43
1.0
 76
     1
 77
     6
 78
     2
 67
     7
 79
     5
170
     0
171
     0
290
     0
174
     0
 93
        1
 44
0.0
173
     0
291
     1
 45
0.0
1001
ACAD
1000
AcDbSavedByObjectVersion
1070
     0
  0
VISUALSTYLE
  5
30
102
{ACAD_REACTORS
330
2A
102
}
102
{ACAD_XDICTIONARY
360
2FB
102
}
330
2A
100
AcDbVisualStyle
  2
Wireframe
 70
     5
 71
     0
 72
     2
 73
     0
 90
        0
 40
0.6
 41
30.0
 62
     5
 63
     7
421
 16777215
 74
     1
 91
        4
 64
     7
 65
   257
 75
     1
175
     1
 42
1.0
 92
        0
 66
   257
 43
1.0
 76
     1
 77
     6
 78
     2
 67
     7
 79
     3
170
     0
171
     0
290
     0
174
     0
 93
        1
 44
0.0
173
     0
291
     0
 45
0.0
1001
ACAD
1000
AcDbSavedByObjectVersion
1070
     0
  0
VISUALSTYLE
  5
40
102
{ACAD_REACTORS
330
2A
102
}
102
{ACAD_XDICTIONARY
360
31B
102
}
330
2A
100
AcDbVisualStyle
  2
X-Ray
 70
    25
 71
     2
 72
     2
 73
     1
 90
        1
 40
0.5
 41
30.0
 62
     5
 63
     7
421
 16777215
 74
     1
 91
        0
 64
     7
 65
   257
 75
     1
175
     1
 42
1.0
 92
        8
 66
     7
 43
1.0
 76
     1
 77
     6
 78
     2
 67
     7
 79
     3
170
     0
171
     0
290
     0
174
     0
 93
       13
 44
0.0
173
     0
291
     0
 45
0.0
1001
ACAD
1000
AcDbSavedByObjectVersion
1070
     0
  0
DICTIONARYVAR
  5
2EE
102
{ACAD_REACTORS
330
2ED
102
}
330
2ED
100
DictionaryVariables
280
     0
  1
1:1
  0
DICTIONARYVAR
  5
32F
102
{ACAD_REACTORS
330
2ED
102
}
330
2ED
100
DictionaryVariables
280
     0
  1
Standard
  0
DICTIONARYVAR
  5
32E
102
{ACAD_REACTORS
330
2ED
102
}
330
2ED
100
DictionaryVariables
280
     0
  1
Standard
  0
DICTIONARYVAR
  5
2EF
102
{ACAD_REACTORS
330
2ED
102
}
330
2ED
100
DictionaryVariables
280
     0
  1
1
  0
DICTIONARYVAR
  5
2F0
102
{ACAD_REACTORS
330
2ED
102
}
330
2ED
100
DictionaryVariables
280
     0
  1
2
  0
DICTIONARY
  5
323
330
45
100
AcDbDictionary
280
     1
281
     1
  3
ACAD_XREC_ROUNDTRIP
360
324
  0
DICTIONARY
  5
321
330
44
100
AcDbDictionary
280
     1
281
     1
  3
ACAD_XREC_ROUNDTRIP
360
322
  0
DICTIONARY
  5
325
330
46
100
AcDbDictionary
280
     1
281
     1
  3
ACAD_XREC_ROUNDTRIP
360
326
  0
DICTIONARY
  5
32B
330
6C
100
AcDbDictionary
280
     1
281
     1
  3
ACAD_XREC_ROUNDTRIP
360
32C
  0
DICTIONARY
  5
327
330
6A
100
AcDbDictionary
280
     1
281
     1
  3
ACAD_ROUNDTRIP_2008_TABLESTYLE_CELLSTYLEMAP
360
329
  3
ACAD_XREC_ROUNDTRIP
360
328
  0
DICTIONARY
  5
2F9
330
2F
100
AcDbDictionary
280
     1
281
     1
  3
ACAD_XREC_ROUNDTRIP
360
2FA
  0
DICTIONARY
  5
2FF
330
32
100
AcDbDictionary
280
     1
281
     1
  3
ACAD_XREC_ROUNDTRIP
360
300
  0
DICTIONARY
  5
307
330
36
100
AcDbDictionary
280
     1
281
     1
  3
ACAD_XREC_ROUNDTRIP
360
308
  0
DICTIONARY
  5
30F
330
3A
100
AcDbDictionary
280
     1
281
     1
  3
ACAD_XREC_ROUNDTRIP
360
310
  0
DICTIONARY
  5
303
330
34
100
AcDbDictionary
280
     1
281
     1
  3
ACAD_XREC_ROUNDTRIP
360
304
  0
DICTIONARY
  5
305
330
35
100
AcDbDictionary
280
     1
281
     1
  3
ACAD_XREC_ROUNDTRIP
360
306
  0
DICTIONARY
  5
315
330
3D
100
AcDbDictionary
280
     1
281
     1
  3
ACAD_XREC_ROUNDTRIP
360
316
  0
DICTIONARY
  5
30D
330
39
100
AcDbDictionary
280
     1
281
     1
  3
ACAD_XREC_ROUNDTRIP
360
30E
  0
DICTIONARY
  5
2F1
330
2B
100
AcDbDictionary
280
     1
281
     1
  3
ACAD_XREC_ROUNDTRIP
360
2F2
  0
DICTIONARY
  5
2F3
330
2C
100
AcDbDictionary
280
     1
281
     1
  3
ACAD_XREC_ROUNDTRIP
360
2F4
  0
DICTIONARY
  5
2F5
330
2D
100
AcDbDictionary
280
     1
281
     1
  3
ACAD_XREC_ROUNDTRIP
360
2F6
  0
DICTIONARY
  5
2F7
330
2E
100
AcDbDictionary
280
     1
281
     1
  3
ACAD_XREC_ROUNDTRIP
360
2F8
  0
DICTIONARY
  5
2FD
330
31
100
AcDbDictionary
280
     1
281
     1
  3
ACAD_XREC_ROUNDTRIP
360
2FE
  0
DICTIONARY
  5
311
330
3B
100
AcDbDictionary
280
     1
281
     1
  3
ACAD_XREC_ROUNDTRIP
360
312
  0
DICTIONARY
  5
30B
330
38
100
AcDbDictionary
280
     1
281
     1
  3
ACAD_XREC_ROUNDTRIP
360
30C
  0
DICTIONARY
  5
313
330
3C
100
AcDbDictionary
280
     1
281
     1
  3
ACAD_XREC_ROUNDTRIP
360
314
  0
DICTIONARY
  5
301
330
33
100
AcDbDictionary
280
     1
281
     1
  3
ACAD_XREC_ROUNDTRIP
360
302
  0
DICTIONARY
  5
31F
330
42
100
AcDbDictionary
280
     1
281
     1
  3
ACAD_XREC_ROUNDTRIP
360
320
  0
DICTIONARY
  5
31D
330
41
100
AcDbDictionary
280
     1
281
     1
  3
ACAD_XREC_ROUNDTRIP
360
31E
  0
DICTIONARY
  5
317
330
3E
100
AcDbDictionary
280
     1
281
     1
  3
ACAD_XREC_ROUNDTRIP
360
318
  0
DICTIONARY
  5
319
330
3F
100
AcDbDictionary
280
     1
281
     1
  3
ACAD_XREC_ROUNDTRIP
360
31A
  0
DICTIONARY
  5
309
330
37
100
AcDbDictionary
280
     1
281
     1
  3
ACAD_XREC_ROUNDTRIP
360
30A
  0
DICTIONARY
  5
2FB
330
30
100
AcDbDictionary
280
     1
281
     1
  3
ACAD_XREC_ROUNDTRIP
360
2FC
  0
DICTIONARY
  5
31B
330
40
100
AcDbDictionary
280
     1
281
     1
  3
ACAD_XREC_ROUNDTRIP
360
31C
  0
XRECORD
  5
324
102
{ACAD_REACTORS
330
323
102
}
330
323
100
AcDbXrecord
280
     1
102
MATERIAL
148
0.0
149
0.0
149
0.0
 93
        0
 94
      127
282
     0
 72
     1
 77
     1
171
     1
175
     1
179
     1
273
     0
  0
XRECORD
  5
322
102
{ACAD_REACTORS
330
321
102
}
330
321
100
AcDbXrecord
280
     1
102
MATERIAL
148
0.0
149
0.0
149
0.0
 93
        0
 94
      127
282
     0
 72
     1
 77
     1
171
     1
175
     1
179
     1
273
     0
  0
XRECORD
  5
326
102
{ACAD_REACTORS
330
325
102
}
330
325
100
AcDbXrecord
280
     1
102
MATERIAL
148
0.0
149
0.0
149
0.0
 93
        0
 94
      127
282
     0
 72
     1
 77
     1
171
     1
175
     1
179
     1
273
     0
  0
XRECORD
  5
32C
102
{ACAD_REACTORS
330
32B
102
}
330
32B
100
AcDbXrecord
280
     1
102
ACAD_ROUNDTRIP_2010_MLEADER_STYLE
  0
CELLSTYLEMAP
  5
329
102
{ACAD_REACTORS
330
327
102
}
330
327
100
AcDbCellStyleMap
 90
        3
300
CELLSTYLE
  1
TABLEFORMAT_BEGIN
 90
        5
170
     1
 91
        0
 92
    32768
 62
   257
 93
        1
300
CONTENTFORMAT
  1
CONTENTFORMAT_BEGIN
 90
        0
 91
        0
 92
        4
 93
        0
300

 40
0.0
140
1.0
 94
        5
 62
     0
340
11
144
0.25
309
CONTENTFORMAT_END
171
     1
301
MARGIN
  1
CELLMARGIN_BEGIN
 40
0.06
 40
0.06
 40
0.06
 40
0.06
 40
0.06
 40
0.06
309
CELLMARGIN_END
 94
        6
 95
        1
302
GRIDFORMAT
  1
GRIDFORMAT_BEGIN
 90
        0
 91
        1
 62
     0
 92
       -2
340
14
 93
        0
 40
0.045
309
GRIDFORMAT_END
 95
        2
302
GRIDFORMAT
  1
GRIDFORMAT_BEGIN
 90
        0
 91
        1
 62
     0
 92
       -2
340
14
 93
        0
 40
0.045
309
GRIDFORMAT_END
 95
        4
302
GRIDFORMAT
  1
GRIDFORMAT_BEGIN
 90
        0
 91
        1
 62
     0
 92
       -2
340
14
 93
        0
 40
0.045
309
GRIDFORMAT_END
 95
        8
302
GRIDFORMAT
  1
GRIDFORMAT_BEGIN
 90
        0
 91
        1
 62
     0
 92
       -2
340
14
 93
        0
 40
0.045
309
GRIDFORMAT_END
 95
       16
302
GRIDFORMAT
  1
GRIDFORMAT_BEGIN
 90
        0
 91
        1
 62
     0
 92
       -2
340
14
 93
        0
 40
0.045
309
GRIDFORMAT_END
 95
       32
302
GRIDFORMAT
  1
GRIDFORMAT_BEGIN
 90
        0
 91
        1
 62
     0
 92
       -2
340
14
 93
        0
 40
0.045
309
GRIDFORMAT_END
309
TABLEFORMAT_END
  1
CELLSTYLE_BEGIN
 90
        1
 91
        1
300
_TITLE
309
CELLSTYLE_END
300
CELLSTYLE
  1
TABLEFORMAT_BEGIN
 90
        5
170
     1
 91
        0
 92
        0
 62
   257
 93
        1
300
CONTENTFORMAT
  1
CONTENTFORMAT_BEGIN
 90
        0
 91
        0
 92
        4
 93
        0
300

 40
0.0
140
1.0
 94
        5
 62
     0
340
11
144
0.18
309
CONTENTFORMAT_END
171
     1
301
MARGIN
  1
CELLMARGIN_BEGIN
 40
0.06
 40
0.06
 40
0.06
 40
0.06
 40
0.06
 40
0.06
309
CELLMARGIN_END
 94
        6
 95
        1
302
GRIDFORMAT
  1
GRIDFORMAT_BEGIN
 90
        0
 91
        1
 62
     0
 92
       -2
340
14
 93
        0
 40
0.045
309
GRIDFORMAT_END
 95
        2
302
GRIDFORMAT
  1
GRIDFORMAT_BEGIN
 90
        0
 91
        1
 62
     0
 92
       -2
340
14
 93
        0
 40
0.045
309
GRIDFORMAT_END
 95
        4
302
GRIDFORMAT
  1
GRIDFORMAT_BEGIN
 90
        0
 91
        1
 62
     0
 92
       -2
340
14
 93
        0
 40
0.045
309
GRIDFORMAT_END
 95
        8
302
GRIDFORMAT
  1
GRIDFORMAT_BEGIN
 90
        0
 91
        1
 62
     0
 92
       -2
340
14
 93
        0
 40
0.045
309
GRIDFORMAT_END
 95
       16
302
GRIDFORMAT
  1
GRIDFORMAT_BEGIN
 90
        0
 91
        1
 62
     0
 92
       -2
340
14
 93
        0
 40
0.045
309
GRIDFORMAT_END
 95
       32
302
GRIDFORMAT
  1
GRIDFORMAT_BEGIN
 90
        0
 91
        1
 62
     0
 92
       -2
340
14
 93
        0
 40
0.045
309
GRIDFORMAT_END
309
TABLEFORMAT_END
  1
CELLSTYLE_BEGIN
 90
        2
 91
        1
300
_HEADER
309
CELLSTYLE_END
300
CELLSTYLE
  1
TABLEFORMAT_BEGIN
 90
        5
170
     1
 91
        0
 92
        0
 62
   257
 93
        1
300
CONTENTFORMAT
  1
CONTENTFORMAT_BEGIN
 90
        0
 91
        0
 92
        4
 93
        0
300

 40
0.0
140
1.0
 94
        2
 62
     0
340
11
144
0.18
309
CONTENTFORMAT_END
171
     1
301
MARGIN
  1
CELLMARGIN_BEGIN
 40
0.06
 40
0.06
 40
0.06
 40
0.06
 40
0.06
 40
0.06
309
CELLMARGIN_END
 94
        6
 95
        1
302
GRIDFORMAT
  1
GRIDFORMAT_BEGIN
 90
        0
 91
        1
 62
     0
 92
       -2
340
14
 93
        0
 40
0.045
309
GRIDFORMAT_END
 95
        2
302
GRIDFORMAT
  1
GRIDFORMAT_BEGIN
 90
        0
 91
        1
 62
     0
 92
       -2
340
14
 93
        0
 40
0.045
309
GRIDFORMAT_END
 95
        4
302
GRIDFORMAT
  1
GRIDFORMAT_BEGIN
 90
        0
 91
        1
 62
     0
 92
       -2
340
14
 93
        0
 40
0.045
309
GRIDFORMAT_END
 95
        8
302
GRIDFORMAT
  1
GRIDFORMAT_BEGIN
 90
        0
 91
        1
 62
     0
 92
       -2
340
14
 93
        0
 40
0.045
309
GRIDFORMAT_END
 95
       16
302
GRIDFORMAT
  1
GRIDFORMAT_BEGIN
 90
        0
 91
        1
 62
     0
 92
       -2
340
14
 93
        0
 40
0.045
309
GRIDFORMAT_END
 95
       32
302
GRIDFORMAT
  1
GRIDFORMAT_BEGIN
 90
        0
 91
        1
 62
     0
 92
       -2
340
14
 93
        0
 40
0.045
309
GRIDFORMAT_END
309
TABLEFORMAT_END
  1
CELLSTYLE_BEGIN
 90
        3
 91
        2
300
_DATA
309
CELLSTYLE_END
  0
XRECORD
  5
328
102
{ACAD_REACTORS
330
327
102
}
330
327
100
AcDbXrecord
280
     1
102
ACAD_ROUNDTRIP_PRE2007_TABLESTYLE
 90
        4
 91
        0
  1

 92
        4
 93
        0
  2

 94
        4
 95
        0
  3

  0
XRECORD
  5
2FA
102
{ACAD_REACTORS
330
2F9
102
}
330
2F9
100
AcDbXrecord
280
     1
102
RTVSPropertyOp0
 70
     1
102
RTVSPropertyOp1
 70
     1
102
RTVSPropertyOp2
 70
     1
102
RTVSPropertyOp3
 70
     1
102
RTVSPropertyOp4
 70
     1
102
RTVSPropertyOp5
 70
     1
102
RTVSPropertyOp6
 70
     1
102
RTVSPropertyOp7
 70
     1
102
RTVSPropertyOp8
 70
     1
102
RTVSPropertyOp9
 70
     1
102
RTVSPropertyOp10
 70
     1
102
RTVSPropertyOp11
 70
     1
102
RTVSPropertyOp12
 70
     1
102
RTVSPropertyOp13
 70
     1
102
RTVSPropertyOp14
 70
     1
102
RTVSPropertyOp15
 70
     1
102
RTVSPropertyOp16
 70
     1
102
RTVSPropertyOp17
 70
     1
102
RTVSPropertyOp18
 70
     1
102
RTVSPropertyOp19
 70
     1
102
RTVSPropertyOp20
 70
     1
102
RTVSPropertyOp21
 70
     1
102
RTVSPropertyOp22
 70
     1
102
RTVSPropertyOp23
 70
     1
102
RTVSPropertyOp24
 70
     1
102
RTVSPropertyOp25
 70
     1
102
RTVSPropertyOp26
 70
     1
102
RTVSPropertyOp27
 70
     1
102
RTVSPropertyOp28
 70
     1
102
RTVSPropertyOp29
 70
     1
102
RTVSPropertyOp30
 70
     1
102
RTVSPropertyOp31
 70
     1
102
RTVSPropertyOp32
 70
     1
102
RTVSPropertyOp33
 70
     1
102
RTVSPropertyOp34
 70
     1
102
RTVSPropertyOp35
 70
     1
102
RTVSPropertyOp36
 70
     1
102
RTVSPropertyOp37
 70
     1
102
RTVSPropertyOp38
 70
     1
102
RTVSPropertyOp39
 70
     1
102
RTVSPropertyOp40
 70
     1
102
RTVSPropertyOp41
 70
     1
102
RTVSPropertyOp42
 70
     1
102
RTVSPropertyOp43
 70
     1
102
RTVSPropertyOp44
 70
     1
102
RTVSPropertyOp45
 70
     1
102
RTVSPropertyOp46
 70
     1
102
RTVSPropertyOp47
 70
     1
102
RTVSPropertyOp48
 70
     1
102
RTVSPropertyOp49
 70
     1
102
RTVSPropertyOp50
 70
     1
102
RTVSPropertyOp51
 70
     0
102
RTVSPropertyOp52
 70
     0
102
RTVSPropertyOp53
 70
     1
102
RTVSPropertyOp54
 70
     1
102
RTVSPropertyOp55
 70
     1
102
RTVSPropertyOp56
 70
     1
102
RTVSPropertyOp57
 70
     1
102
RTVSPost2010Prop28
280
     1
102
RTVSPost2010PropOp28
 70
     1
102
RTVSPost2010Prop29
280
     1
102
RTVSPost2010PropOp29
 70
     1
102
RTVSPost2010Prop30
280
     0
102
RTVSPost2010PropOp30
 70
     1
102
RTVSPost2010Prop31
280
     0
102
RTVSPost2010PropOp31
 70
     1
102
RTVSPost2010Prop32
280
     0
102
RTVSPost2010PropOp32
 70
     1
102
RTVSPost2010Prop33
280
     0
102
RTVSPost2010PropOp33
 70
     1
102
RTVSPost2010Prop34
280
     0
102
RTVSPost2010PropOp34
 70
     1
102
RTVSPost2010Prop35
280
     0
102
RTVSPost2010PropOp35
 70
     1
102
RTVSPost2010Prop36
280
     0
102
RTVSPost2010PropOp36
 70
     1
102
RTVSPost2010Prop37
 90
       50
102
RTVSPost2010PropOp37
 70
     1
102
RTVSPost2010Prop38
140
0.0
102
RTVSPost2010PropOp38
 70
     1
102
RTVSPost2010Prop39
140
1.0
102
RTVSPost2010PropOp39
 70
     1
102
RTVSPost2010Prop40
 90
        0
102
RTVSPost2010PropOp40
 70
     1
102
RTVSPost2010Prop41ColorIndex
 90
       18
102
RTVSPost2010Prop41ColorRGB
 90
        0
102
RTVSPost2010PropOp41
 70
     1
102
RTVSPost2010Prop42
 90
       50
102
RTVSPost2010PropOp42
 70
     1
102
RTVSPost2010Prop43
 90
        3
102
RTVSPost2010PropOp43
 70
     1
102
RTVSPost2010Prop44ColorIndex
 90
        5
102
RTVSPost2010Prop44ColorRGB
 90
      255
102
RTVSPost2010PropOp44
 70
     1
102
RTVSPost2010Prop45
280
     0
102
RTVSPost2010PropOp45
 70
     1
102
RTVSPost2010Prop46
 90
       50
102
RTVSPost2010PropOp46
 70
     1
102
RTVSPost2010Prop47
 90
       50
102
RTVSPost2010PropOp47
 70
     1
102
RTVSPost2010Prop48
 90
       50
102
RTVSPost2010PropOp48
 70
     1
102
RTVSPost2010Prop49
280
     0
102
RTVSPost2010PropOp49
 70
     1
102
RTVSPost2010Prop50
 90
       50
102
RTVSPost2010PropOp50
 70
     1
102
RTVSPost2010Prop51ColorIndex
 90
      256
102
RTVSPost2010Prop51ColorRGB
 90
-16777216
102
RTVSPost2010PropOp51
 70
     0
102
RTVSPost2010Prop52
140
1.0
102
RTVSPost2010PropOp52
 70
     0
102
RTVSPost2010Prop53
 90
        2
102
RTVSPost2010PropOp53
 70
     1
102
RTVSPost2010Prop54
  1
strokes_ogs.tif
102
RTVSPost2010PropOp54
 70
     1
102
RTVSPost2010Prop55
280
     0
102
RTVSPost2010PropOp55
 70
     1
102
RTVSPost2010Prop56
140
1.0
102
RTVSPost2010PropOp56
 70
     1
102
RTVSPost2010Prop57
140
1.0
102
RTVSPost2010PropOp57
 70
     1
  0
XRECORD
  5
300
102
{ACAD_REACTORS
330
2FF
102
}
330
2FF
100
AcDbXrecord
280
     1
102
RTVSPropertyOp0
 70
     1
102
RTVSPropertyOp1
 70
     1
102
RTVSPropertyOp2
 70
     1
102
RTVSPropertyOp3
 70
     1
102
RTVSPropertyOp4
 70
     1
102
RTVSPropertyOp5
 70
     1
102
RTVSPropertyOp6
 70
     1
102
RTVSPropertyOp7
 70
     1
102
RTVSPropertyOp8
 70
     1
102
RTVSPropertyOp9
 70
     1
102
RTVSPropertyOp10
 70
     1
102
RTVSPropertyOp11
 70
     1
102
RTVSPropertyOp12
 70
     1
102
RTVSPropertyOp13
 70
     1
102
RTVSPropertyOp14
 70
     1
102
RTVSPropertyOp15
 70
     1
102
RTVSPropertyOp16
 70
     1
102
RTVSPropertyOp17
 70
     1
102
RTVSPropertyOp18
 70
     1
102
RTVSPropertyOp19
 70
     1
102
RTVSPropertyOp20
 70
     1
102
RTVSPropertyOp21
 70
     1
102
RTVSPropertyOp22
 70
     1
102
RTVSPropertyOp23
 70
     1
102
RTVSPropertyOp24
 70
     1
102
RTVSPropertyOp25
 70
     1
102
RTVSPropertyOp26
 70
     1
102
RTVSPropertyOp27
 70
     1
102
RTVSPropertyOp28
 70
     1
102
RTVSPropertyOp29
 70
     1
102
RTVSPropertyOp30
 70
     1
102
RTVSPropertyOp31
 70
     1
102
RTVSPropertyOp32
 70
     1
102
RTVSPropertyOp33
 70
     1
102
RTVSPropertyOp34
 70
     1
102
RTVSPropertyOp35
 70
     1
102
RTVSPropertyOp36
 70
     1
102
RTVSPropertyOp37
 70
     1
102
RTVSPropertyOp38
 70
     1
102
RTVSPropertyOp39
 70
     1
102
RTVSPropertyOp40
 70
     1
102
RTVSPropertyOp41
 70
     1
102
RTVSPropertyOp42
 70
     1
102
RTVSPropertyOp43
 70
     1
102
RTVSPropertyOp44
 70
     1
102
RTVSPropertyOp45
 70
     1
102
RTVSPropertyOp46
 70
     1
102
RTVSPropertyOp47
 70
     1
102
RTVSPropertyOp48
 70
     1
102
RTVSPropertyOp49
 70
     1
102
RTVSPropertyOp50
 70
     1
102
RTVSPropertyOp51
 70
     0
102
RTVSPropertyOp52
 70
     0
102
RTVSPropertyOp53
 70
     1
102
RTVSPropertyOp54
 70
     1
102
RTVSPropertyOp55
 70
     1
102
RTVSPropertyOp56
 70
     1
102
RTVSPropertyOp57
 70
     1
102
RTVSPost2010Prop28
280
     0
102
RTVSPost2010PropOp28
 70
     1
102
RTVSPost2010Prop29
280
     1
102
RTVSPost2010PropOp29
 70
     1
102
RTVSPost2010Prop30
280
     1
102
RTVSPost2010PropOp30
 70
     1
102
RTVSPost2010Prop31
280
     0
102
RTVSPost2010PropOp31
 70
     1
102
RTVSPost2010Prop32
280
     0
102
RTVSPost2010PropOp32
 70
     1
102
RTVSPost2010Prop33
280
     0
102
RTVSPost2010PropOp33
 70
     1
102
RTVSPost2010Prop34
280
     0
102
RTVSPost2010PropOp34
 70
     1
102
RTVSPost2010Prop35
280
     0
102
RTVSPost2010PropOp35
 70
     1
102
RTVSPost2010Prop36
280
     0
102
RTVSPost2010PropOp36
 70
     1
102
RTVSPost2010Prop37
 90
       50
102
RTVSPost2010PropOp37
 70
     1
102
RTVSPost2010Prop38
140
0.0
102
RTVSPost2010PropOp38
 70
     1
102
RTVSPost2010Prop39
140
1.0
102
RTVSPost2010PropOp39
 70
     1
102
RTVSPost2010Prop40
 90
        0
102
RTVSPost2010PropOp40
 70
     1
102
RTVSPost2010Prop41ColorIndex
 90
       18
102
RTVSPost2010Prop41ColorRGB
 90
        0
102
RTVSPost2010PropOp41
 70
     1
102
RTVSPost2010Prop42
 90
       50
102
RTVSPost2010PropOp42
 70
     1
102
RTVSPost2010Prop43
 90
        3
102
RTVSPost2010PropOp43
 70
     1
102
RTVSPost2010Prop44ColorIndex
 90
        5
102
RTVSPost2010Prop44ColorRGB
 90
      255
102
RTVSPost2010PropOp44
 70
     1
102
RTVSPost2010Prop45
280
     0
102
RTVSPost2010PropOp45
 70
     1
102
RTVSPost2010Prop46
 90
       50
102
RTVSPost2010PropOp46
 70
     1
102
RTVSPost2010Prop47
 90
       50
102
RTVSPost2010PropOp47
 70
     1
102
RTVSPost2010Prop48
 90
       50
102
RTVSPost2010PropOp48
 70
     1
102
RTVSPost2010Prop49
280
     0
102
RTVSPost2010PropOp49
 70
     1
102
RTVSPost2010Prop50
 90
       50
102
RTVSPost2010PropOp50
 70
     1
102
RTVSPost2010Prop51ColorIndex
 90
      256
102
RTVSPost2010Prop51ColorRGB
 90
-16777216
102
RTVSPost2010PropOp51
 70
     0
102
RTVSPost2010Prop52
140
1.0
102
RTVSPost2010PropOp52
 70
     0
102
RTVSPost2010Prop53
 90
        2
102
RTVSPost2010PropOp53
 70
     1
102
RTVSPost2010Prop54
  1
strokes_ogs.tif
102
RTVSPost2010PropOp54
 70
     1
102
RTVSPost2010Prop55
280
     0
102
RTVSPost2010PropOp55
 70
     1
102
RTVSPost2010Prop56
140
1.0
102
RTVSPost2010PropOp56
 70
     1
102
RTVSPost2010Prop57
140
1.0
102
RTVSPost2010PropOp57
 70
     1
  0
XRECORD
  5
308
102
{ACAD_REACTORS
330
307
102
}
330
307
100
AcDbXrecord
280
     1
102
RTVSPropertyOp0
 70
     1
102
RTVSPropertyOp1
 70
     1
102
RTVSPropertyOp2
 70
     1
102
RTVSPropertyOp3
 70
     1
102
RTVSPropertyOp4
 70
     1
102
RTVSPropertyOp5
 70
     1
102
RTVSPropertyOp6
 70
     1
102
RTVSPropertyOp7
 70
     1
102
RTVSPropertyOp8
 70
     1
102
RTVSPropertyOp9
 70
     1
102
RTVSPropertyOp10
 70
     1
102
RTVSPropertyOp11
 70
     1
102
RTVSPropertyOp12
 70
     1
102
RTVSPropertyOp13
 70
     1
102
RTVSPropertyOp14
 70
     1
102
RTVSPropertyOp15
 70
     1
102
RTVSPropertyOp16
 70
     1
102
RTVSPropertyOp17
 70
     1
102
RTVSPropertyOp18
 70
     1
102
RTVSPropertyOp19
 70
     1
102
RTVSPropertyOp20
 70
     1
102
RTVSPropertyOp21
 70
     1
102
RTVSPropertyOp22
 70
     1
102
RTVSPropertyOp23
 70
     1
102
RTVSPropertyOp24
 70
     1
102
RTVSPropertyOp25
 70
     1
102
RTVSPropertyOp26
 70
     1
102
RTVSPropertyOp27
 70
     1
102
RTVSPropertyOp28
 70
     1
102
RTVSPropertyOp29
 70
     1
102
RTVSPropertyOp30
 70
     1
102
RTVSPropertyOp31
 70
     1
102
RTVSPropertyOp32
 70
     1
102
RTVSPropertyOp33
 70
     1
102
RTVSPropertyOp34
 70
     1
102
RTVSPropertyOp35
 70
     1
102
RTVSPropertyOp36
 70
     1
102
RTVSPropertyOp37
 70
     1
102
RTVSPropertyOp38
 70
     1
102
RTVSPropertyOp39
 70
     1
102
RTVSPropertyOp40
 70
     1
102
RTVSPropertyOp41
 70
     1
102
RTVSPropertyOp42
 70
     1
102
RTVSPropertyOp43
 70
     1
102
RTVSPropertyOp44
 70
     1
102
RTVSPropertyOp45
 70
     1
102
RTVSPropertyOp46
 70
     1
102
RTVSPropertyOp47
 70
     1
102
RTVSPropertyOp48
 70
     1
102
RTVSPropertyOp49
 70
     1
102
RTVSPropertyOp50
 70
     1
102
RTVSPropertyOp51
 70
     0
102
RTVSPropertyOp52
 70
     0
102
RTVSPropertyOp53
 70
     1
102
RTVSPropertyOp54
 70
     1
102
RTVSPropertyOp55
 70
     1
102
RTVSPropertyOp56
 70
     1
102
RTVSPropertyOp57
 70
     1
102
RTVSPost2010Prop28
280
     0
102
RTVSPost2010PropOp28
 70
     1
102
RTVSPost2010Prop29
280
     1
102
RTVSPost2010PropOp29
 70
     1
102
RTVSPost2010Prop30
280
     1
102
RTVSPost2010PropOp30
 70
     1
102
RTVSPost2010Prop31
280
     0
102
RTVSPost2010PropOp31
 70
     1
102
RTVSPost2010Prop32
280
     0
102
RTVSPost2010PropOp32
 70
     1
102
RTVSPost2010Prop33
280
     0
102
RTVSPost2010PropOp33
 70
     1
102
RTVSPost2010Prop34
280
     0
102
RTVSPost2010PropOp34
 70
     1
102
RTVSPost2010Prop35
280
     0
102
RTVSPost2010PropOp35
 70
     1
102
RTVSPost2010Prop36
280
     0
102
RTVSPost2010PropOp36
 70
     1
102
RTVSPost2010Prop37
 90
       50
102
RTVSPost2010PropOp37
 70
     1
102
RTVSPost2010Prop38
140
0.0
102
RTVSPost2010PropOp38
 70
     1
102
RTVSPost2010Prop39
140
1.0
102
RTVSPost2010PropOp39
 70
     1
102
RTVSPost2010Prop40
 90
        0
102
RTVSPost2010PropOp40
 70
     1
102
RTVSPost2010Prop41ColorIndex
 90
       18
102
RTVSPost2010Prop41ColorRGB
 90
        0
102
RTVSPost2010PropOp41
 70
     1
102
RTVSPost2010Prop42
 90
       50
102
RTVSPost2010PropOp42
 70
     1
102
RTVSPost2010Prop43
 90
        3
102
RTVSPost2010PropOp43
 70
     1
102
RTVSPost2010Prop44ColorIndex
 90
        5
102
RTVSPost2010Prop44ColorRGB
 90
      255
102
RTVSPost2010PropOp44
 70
     1
102
RTVSPost2010Prop45
280
     0
102
RTVSPost2010PropOp45
 70
     1
102
RTVSPost2010Prop46
 90
       50
102
RTVSPost2010PropOp46
 70
     1
102
RTVSPost2010Prop47
 90
       50
102
RTVSPost2010PropOp47
 70
     1
102
RTVSPost2010Prop48
 90
       50
102
RTVSPost2010PropOp48
 70
     1
102
RTVSPost2010Prop49
280
     0
102
RTVSPost2010PropOp49
 70
     1
102
RTVSPost2010Prop50
 90
       50
102
RTVSPost2010PropOp50
 70
     1
102
RTVSPost2010Prop51ColorIndex
 90
      256
102
RTVSPost2010Prop51ColorRGB
 90
-16777216
102
RTVSPost2010PropOp51
 70
     0
102
RTVSPost2010Prop52
140
1.0
102
RTVSPost2010PropOp52
 70
     0
102
RTVSPost2010Prop53
 90
        2
102
RTVSPost2010PropOp53
 70
     1
102
RTVSPost2010Prop54
  1
strokes_ogs.tif
102
RTVSPost2010PropOp54
 70
     1
102
RTVSPost2010Prop55
280
     0
102
RTVSPost2010PropOp55
 70
     1
102
RTVSPost2010Prop56
140
1.0
102
RTVSPost2010PropOp56
 70
     1
102
RTVSPost2010Prop57
140
1.0
102
RTVSPost2010PropOp57
 70
     1
  0
XRECORD
  5
310
102
{ACAD_REACTORS
330
30F
102
}
330
30F
100
AcDbXrecord
280
     1
102
RTVSPropertyOp0
 70
     1
102
RTVSPropertyOp1
 70
     1
102
RTVSPropertyOp2
 70
     1
102
RTVSPropertyOp3
 70
     1
102
RTVSPropertyOp4
 70
     1
102
RTVSPropertyOp5
 70
     1
102
RTVSPropertyOp6
 70
     1
102
RTVSPropertyOp7
 70
     1
102
RTVSPropertyOp8
 70
     1
102
RTVSPropertyOp9
 70
     1
102
RTVSPropertyOp10
 70
     1
102
RTVSPropertyOp11
 70
     1
102
RTVSPropertyOp12
 70
     1
102
RTVSPropertyOp13
 70
     1
102
RTVSPropertyOp14
 70
     1
102
RTVSPropertyOp15
 70
     1
102
RTVSPropertyOp16
 70
     1
102
RTVSPropertyOp17
 70
     1
102
RTVSPropertyOp18
 70
     1
102
RTVSPropertyOp19
 70
     1
102
RTVSPropertyOp20
 70
     1
102
RTVSPropertyOp21
 70
     1
102
RTVSPropertyOp22
 70
     1
102
RTVSPropertyOp23
 70
     1
102
RTVSPropertyOp24
 70
     1
102
RTVSPropertyOp25
 70
     1
102
RTVSPropertyOp26
 70
     1
102
RTVSPropertyOp27
 70
     1
102
RTVSPropertyOp28
 70
     1
102
RTVSPropertyOp29
 70
     1
102
RTVSPropertyOp30
 70
     1
102
RTVSPropertyOp31
 70
     1
102
RTVSPropertyOp32
 70
     1
102
RTVSPropertyOp33
 70
     1
102
RTVSPropertyOp34
 70
     1
102
RTVSPropertyOp35
 70
     1
102
RTVSPropertyOp36
 70
     1
102
RTVSPropertyOp37
 70
     1
102
RTVSPropertyOp38
 70
     1
102
RTVSPropertyOp39
 70
     1
102
RTVSPropertyOp40
 70
     1
102
RTVSPropertyOp41
 70
     1
102
RTVSPropertyOp42
 70
     1
102
RTVSPropertyOp43
 70
     1
102
RTVSPropertyOp44
 70
     1
102
RTVSPropertyOp45
 70
     1
102
RTVSPropertyOp46
 70
     1
102
RTVSPropertyOp47
 70
     1
102
RTVSPropertyOp48
 70
     1
102
RTVSPropertyOp49
 70
     1
102
RTVSPropertyOp50
 70
     1
102
RTVSPropertyOp51
 70
     0
102
RTVSPropertyOp52
 70
     0
102
RTVSPropertyOp53
 70
     1
102
RTVSPropertyOp54
 70
     1
102
RTVSPropertyOp55
 70
     1
102
RTVSPropertyOp56
 70
     1
102
RTVSPropertyOp57
 70
     1
102
RTVSPost2010Prop28
280
     0
102
RTVSPost2010PropOp28
 70
     1
102
RTVSPost2010Prop29
280
     1
102
RTVSPost2010PropOp29
 70
     1
102
RTVSPost2010Prop30
280
     1
102
RTVSPost2010PropOp30
 70
     1
102
RTVSPost2010Prop31
280
     0
102
RTVSPost2010PropOp31
 70
     1
102
RTVSPost2010Prop32
280
     0
102
RTVSPost2010PropOp32
 70
     1
102
RTVSPost2010Prop33
280
     0
102
RTVSPost2010PropOp33
 70
     1
102
RTVSPost2010Prop34
280
     0
102
RTVSPost2010PropOp34
 70
     1
102
RTVSPost2010Prop35
280
     0
102
RTVSPost2010PropOp35
 70
     1
102
RTVSPost2010Prop36
280
     0
102
RTVSPost2010PropOp36
 70
     1
102
RTVSPost2010Prop37
 90
       50
102
RTVSPost2010PropOp37
 70
     1
102
RTVSPost2010Prop38
140
0.0
102
RTVSPost2010PropOp38
 70
     1
102
RTVSPost2010Prop39
140
1.0
102
RTVSPost2010PropOp39
 70
     1
102
RTVSPost2010Prop40
 90
        0
102
RTVSPost2010PropOp40
 70
     1
102
RTVSPost2010Prop41ColorIndex
 90
       18
102
RTVSPost2010Prop41ColorRGB
 90
        0
102
RTVSPost2010PropOp41
 70
     1
102
RTVSPost2010Prop42
 90
       50
102
RTVSPost2010PropOp42
 70
     1
102
RTVSPost2010Prop43
 90
        3
102
RTVSPost2010PropOp43
 70
     1
102
RTVSPost2010Prop44ColorIndex
 90
        5
102
RTVSPost2010Prop44ColorRGB
 90
      255
102
RTVSPost2010PropOp44
 70
     1
102
RTVSPost2010Prop45
280
     0
102
RTVSPost2010PropOp45
 70
     1
102
RTVSPost2010Prop46
 90
       50
102
RTVSPost2010PropOp46
 70
     1
102
RTVSPost2010Prop47
 90
       50
102
RTVSPost2010PropOp47
 70
     1
102
RTVSPost2010Prop48
 90
       50
102
RTVSPost2010PropOp48
 70
     1
102
RTVSPost2010Prop49
280
     0
102
RTVSPost2010PropOp49
 70
     1
102
RTVSPost2010Prop50
 90
       50
102
RTVSPost2010PropOp50
 70
     1
102
RTVSPost2010Prop51ColorIndex
 90
      256
102
RTVSPost2010Prop51ColorRGB
 90
-16777216
102
RTVSPost2010PropOp51
 70
     0
102
RTVSPost2010Prop52
140
1.0
102
RTVSPost2010PropOp52
 70
     0
102
RTVSPost2010Prop53
 90
        2
102
RTVSPost2010PropOp53
 70
     1
102
RTVSPost2010Prop54
  1
strokes_ogs.tif
102
RTVSPost2010PropOp54
 70
     1
102
RTVSPost2010Prop55
280
     0
102
RTVSPost2010PropOp55
 70
     1
102
RTVSPost2010Prop56
140
1.0
102
RTVSPost2010PropOp56
 70
     1
102
RTVSPost2010Prop57
140
1.0
102
RTVSPost2010PropOp57
 70
     1
  0
XRECORD
  5
304
102
{ACAD_REACTORS
330
303
102
}
330
303
100
AcDbXrecord
280
     1
102
RTVSPropertyOp0
 70
     1
102
RTVSPropertyOp1
 70
     1
102
RTVSPropertyOp2
 70
     1
102
RTVSPropertyOp3
 70
     1
102
RTVSPropertyOp4
 70
     1
102
RTVSPropertyOp5
 70
     1
102
RTVSPropertyOp6
 70
     1
102
RTVSPropertyOp7
 70
     1
102
RTVSPropertyOp8
 70
     1
102
RTVSPropertyOp9
 70
     1
102
RTVSPropertyOp10
 70
     1
102
RTVSPropertyOp11
 70
     1
102
RTVSPropertyOp12
 70
     1
102
RTVSPropertyOp13
 70
     1
102
RTVSPropertyOp14
 70
     1
102
RTVSPropertyOp15
 70
     1
102
RTVSPropertyOp16
 70
     1
102
RTVSPropertyOp17
 70
     1
102
RTVSPropertyOp18
 70
     1
102
RTVSPropertyOp19
 70
     1
102
RTVSPropertyOp20
 70
     1
102
RTVSPropertyOp21
 70
     1
102
RTVSPropertyOp22
 70
     1
102
RTVSPropertyOp23
 70
     1
102
RTVSPropertyOp24
 70
     1
102
RTVSPropertyOp25
 70
     1
102
RTVSPropertyOp26
 70
     1
102
RTVSPropertyOp27
 70
     1
102
RTVSPropertyOp28
 70
     1
102
RTVSPropertyOp29
 70
     1
102
RTVSPropertyOp30
 70
     1
102
RTVSPropertyOp31
 70
     1
102
RTVSPropertyOp32
 70
     1
102
RTVSPropertyOp33
 70
     1
102
RTVSPropertyOp34
 70
     1
102
RTVSPropertyOp35
 70
     1
102
RTVSPropertyOp36
 70
     1
102
RTVSPropertyOp37
 70
     1
102
RTVSPropertyOp38
 70
     1
102
RTVSPropertyOp39
 70
     1
102
RTVSPropertyOp40
 70
     1
102
RTVSPropertyOp41
 70
     1
102
RTVSPropertyOp42
 70
     1
102
RTVSPropertyOp43
 70
     1
102
RTVSPropertyOp44
 70
     1
102
RTVSPropertyOp45
 70
     1
102
RTVSPropertyOp46
 70
     1
102
RTVSPropertyOp47
 70
     1
102
RTVSPropertyOp48
 70
     1
102
RTVSPropertyOp49
 70
     1
102
RTVSPropertyOp50
 70
     1
102
RTVSPropertyOp51
 70
     0
102
RTVSPropertyOp52
 70
     0
102
RTVSPropertyOp53
 70
     1
102
RTVSPropertyOp54
 70
     1
102
RTVSPropertyOp55
 70
     1
102
RTVSPropertyOp56
 70
     1
102
RTVSPropertyOp57
 70
     1
102
RTVSPost2010Prop28
280
     0
102
RTVSPost2010PropOp28
 70
     1
102
RTVSPost2010Prop29
280
     1
102
RTVSPost2010PropOp29
 70
     1
102
RTVSPost2010Prop30
280
     1
102
RTVSPost2010PropOp30
 70
     1
102
RTVSPost2010Prop31
280
     0
102
RTVSPost2010PropOp31
 70
     1
102
RTVSPost2010Prop32
280
     0
102
RTVSPost2010PropOp32
 70
     1
102
RTVSPost2010Prop33
280
     0
102
RTVSPost2010PropOp33
 70
     1
102
RTVSPost2010Prop34
280
     0
102
RTVSPost2010PropOp34
 70
     1
102
RTVSPost2010Prop35
280
     0
102
RTVSPost2010PropOp35
 70
     1
102
RTVSPost2010Prop36
280
     0
102
RTVSPost2010PropOp36
 70
     1
102
RTVSPost2010Prop37
 90
       50
102
RTVSPost2010PropOp37
 70
     1
102
RTVSPost2010Prop38
140
0.0
102
RTVSPost2010PropOp38
 70
     1
102
RTVSPost2010Prop39
140
1.0
102
RTVSPost2010PropOp39
 70
     1
102
RTVSPost2010Prop40
 90
        0
102
RTVSPost2010PropOp40
 70
     1
102
RTVSPost2010Prop41ColorIndex
 90
       18
102
RTVSPost2010Prop41ColorRGB
 90
        0
102
RTVSPost2010PropOp41
 70
     1
102
RTVSPost2010Prop42
 90
       50
102
RTVSPost2010PropOp42
 70
     1
102
RTVSPost2010Prop43
 90
        3
102
RTVSPost2010PropOp43
 70
     1
102
RTVSPost2010Prop44ColorIndex
 90
        5
102
RTVSPost2010Prop44ColorRGB
 90
      255
102
RTVSPost2010PropOp44
 70
     1
102
RTVSPost2010Prop45
280
     0
102
RTVSPost2010PropOp45
 70
     1
102
RTVSPost2010Prop46
 90
       50
102
RTVSPost2010PropOp46
 70
     1
102
RTVSPost2010Prop47
 90
       50
102
RTVSPost2010PropOp47
 70
     1
102
RTVSPost2010Prop48
 90
       50
102
RTVSPost2010PropOp48
 70
     1
102
RTVSPost2010Prop49
280
     0
102
RTVSPost2010PropOp49
 70
     1
102
RTVSPost2010Prop50
 90
       50
102
RTVSPost2010PropOp50
 70
     1
102
RTVSPost2010Prop51ColorIndex
 90
      256
102
RTVSPost2010Prop51ColorRGB
 90
-16777216
102
RTVSPost2010PropOp51
 70
     0
102
RTVSPost2010Prop52
140
1.0
102
RTVSPost2010PropOp52
 70
     0
102
RTVSPost2010Prop53
 90
        2
102
RTVSPost2010PropOp53
 70
     1
102
RTVSPost2010Prop54
  1
strokes_ogs.tif
102
RTVSPost2010PropOp54
 70
     1
102
RTVSPost2010Prop55
280
     0
102
RTVSPost2010PropOp55
 70
     1
102
RTVSPost2010Prop56
140
1.0
102
RTVSPost2010PropOp56
 70
     1
102
RTVSPost2010Prop57
140
1.0
102
RTVSPost2010PropOp57
 70
     1
  0
XRECORD
  5
306
102
{ACAD_REACTORS
330
305
102
}
330
305
100
AcDbXrecord
280
     1
102
RTVSPropertyOp0
 70
     1
102
RTVSPropertyOp1
 70
     1
102
RTVSPropertyOp2
 70
     1
102
RTVSPropertyOp3
 70
     1
102
RTVSPropertyOp4
 70
     1
102
RTVSPropertyOp5
 70
     1
102
RTVSPropertyOp6
 70
     1
102
RTVSPropertyOp7
 70
     1
102
RTVSPropertyOp8
 70
     1
102
RTVSPropertyOp9
 70
     1
102
RTVSPropertyOp10
 70
     1
102
RTVSPropertyOp11
 70
     1
102
RTVSPropertyOp12
 70
     1
102
RTVSPropertyOp13
 70
     1
102
RTVSPropertyOp14
 70
     1
102
RTVSPropertyOp15
 70
     1
102
RTVSPropertyOp16
 70
     1
102
RTVSPropertyOp17
 70
     1
102
RTVSPropertyOp18
 70
     1
102
RTVSPropertyOp19
 70
     1
102
RTVSPropertyOp20
 70
     1
102
RTVSPropertyOp21
 70
     1
102
RTVSPropertyOp22
 70
     1
102
RTVSPropertyOp23
 70
     1
102
RTVSPropertyOp24
 70
     1
102
RTVSPropertyOp25
 70
     1
102
RTVSPropertyOp26
 70
     1
102
RTVSPropertyOp27
 70
     1
102
RTVSPropertyOp28
 70
     1
102
RTVSPropertyOp29
 70
     1
102
RTVSPropertyOp30
 70
     1
102
RTVSPropertyOp31
 70
     1
102
RTVSPropertyOp32
 70
     1
102
RTVSPropertyOp33
 70
     1
102
RTVSPropertyOp34
 70
     1
102
RTVSPropertyOp35
 70
     1
102
RTVSPropertyOp36
 70
     1
102
RTVSPropertyOp37
 70
     1
102
RTVSPropertyOp38
 70
     1
102
RTVSPropertyOp39
 70
     1
102
RTVSPropertyOp40
 70
     1
102
RTVSPropertyOp41
 70
     1
102
RTVSPropertyOp42
 70
     1
102
RTVSPropertyOp43
 70
     1
102
RTVSPropertyOp44
 70
     1
102
RTVSPropertyOp45
 70
     1
102
RTVSPropertyOp46
 70
     1
102
RTVSPropertyOp47
 70
     1
102
RTVSPropertyOp48
 70
     1
102
RTVSPropertyOp49
 70
     1
102
RTVSPropertyOp50
 70
     1
102
RTVSPropertyOp51
 70
     0
102
RTVSPropertyOp52
 70
     0
102
RTVSPropertyOp53
 70
     1
102
RTVSPropertyOp54
 70
     1
102
RTVSPropertyOp55
 70
     1
102
RTVSPropertyOp56
 70
     1
102
RTVSPropertyOp57
 70
     1
102
RTVSPost2010Prop28
280
     0
102
RTVSPost2010PropOp28
 70
     1
102
RTVSPost2010Prop29
280
     1
102
RTVSPost2010PropOp29
 70
     1
102
RTVSPost2010Prop30
280
     1
102
RTVSPost2010PropOp30
 70
     1
102
RTVSPost2010Prop31
280
     0
102
RTVSPost2010PropOp31
 70
     1
102
RTVSPost2010Prop32
280
     0
102
RTVSPost2010PropOp32
 70
     1
102
RTVSPost2010Prop33
280
     0
102
RTVSPost2010PropOp33
 70
     1
102
RTVSPost2010Prop34
280
     0
102
RTVSPost2010PropOp34
 70
     1
102
RTVSPost2010Prop35
280
     0
102
RTVSPost2010PropOp35
 70
     1
102
RTVSPost2010Prop36
280
     0
102
RTVSPost2010PropOp36
 70
     1
102
RTVSPost2010Prop37
 90
       50
102
RTVSPost2010PropOp37
 70
     1
102
RTVSPost2010Prop38
140
0.0
102
RTVSPost2010PropOp38
 70
     1
102
RTVSPost2010Prop39
140
1.0
102
RTVSPost2010PropOp39
 70
     1
102
RTVSPost2010Prop40
 90
        0
102
RTVSPost2010PropOp40
 70
     1
102
RTVSPost2010Prop41ColorIndex
 90
       18
102
RTVSPost2010Prop41ColorRGB
 90
        0
102
RTVSPost2010PropOp41
 70
     1
102
RTVSPost2010Prop42
 90
       50
102
RTVSPost2010PropOp42
 70
     1
102
RTVSPost2010Prop43
 90
        3
102
RTVSPost2010PropOp43
 70
     1
102
RTVSPost2010Prop44ColorIndex
 90
        5
102
RTVSPost2010Prop44ColorRGB
 90
      255
102
RTVSPost2010PropOp44
 70
     1
102
RTVSPost2010Prop45
280
     0
102
RTVSPost2010PropOp45
 70
     1
102
RTVSPost2010Prop46
 90
       50
102
RTVSPost2010PropOp46
 70
     1
102
RTVSPost2010Prop47
 90
       50
102
RTVSPost2010PropOp47
 70
     1
102
RTVSPost2010Prop48
 90
       50
102
RTVSPost2010PropOp48
 70
     1
102
RTVSPost2010Prop49
280
     0
102
RTVSPost2010PropOp49
 70
     1
102
RTVSPost2010Prop50
 90
       50
102
RTVSPost2010PropOp50
 70
     1
102
RTVSPost2010Prop51ColorIndex
 90
      256
102
RTVSPost2010Prop51ColorRGB
 90
-16777216
102
RTVSPost2010PropOp51
 70
     0
102
RTVSPost2010Prop52
140
1.0
102
RTVSPost2010PropOp52
 70
     0
102
RTVSPost2010Prop53
 90
        2
102
RTVSPost2010PropOp53
 70
     1
102
RTVSPost2010Prop54
  1
strokes_ogs.tif
102
RTVSPost2010PropOp54
 70
     1
102
RTVSPost2010Prop55
280
     0
102
RTVSPost2010PropOp55
 70
     1
102
RTVSPost2010Prop56
140
1.0
102
RTVSPost2010PropOp56
 70
     1
102
RTVSPost2010Prop57
140
1.0
102
RTVSPost2010PropOp57
 70
     1
  0
XRECORD
  5
316
102
{ACAD_REACTORS
330
315
102
}
330
315
100
AcDbXrecord
280
     1
102
RTVSPropertyOp0
 70
     0
102
RTVSPropertyOp1
 70
     0
102
RTVSPropertyOp2
 70
     0
102
RTVSPropertyOp3
 70
     0
102
RTVSPropertyOp4
 70
     0
102
RTVSPropertyOp5
 70
     0
102
RTVSPropertyOp6
 70
     0
102
RTVSPropertyOp7
 70
     0
102
RTVSPropertyOp8
 70
     0
102
RTVSPropertyOp9
 70
     0
102
RTVSPropertyOp10
 70
     0
102
RTVSPropertyOp11
 70
     0
102
RTVSPropertyOp12
 70
     0
102
RTVSPropertyOp13
 70
     0
102
RTVSPropertyOp14
 70
     2
102
RTVSPropertyOp15
 70
     0
102
RTVSPropertyOp16
 70
     0
102
RTVSPropertyOp17
 70
     0
102
RTVSPropertyOp18
 70
     0
102
RTVSPropertyOp19
 70
     0
102
RTVSPropertyOp20
 70
     0
102
RTVSPropertyOp21
 70
     0
102
RTVSPropertyOp22
 70
     0
102
RTVSPropertyOp23
 70
     0
102
RTVSPropertyOp24
 70
     0
102
RTVSPropertyOp25
 70
     0
102
RTVSPropertyOp26
 70
     0
102
RTVSPropertyOp27
 70
     0
102
RTVSPropertyOp28
 70
     0
102
RTVSPropertyOp29
 70
     0
102
RTVSPropertyOp30
 70
     0
102
RTVSPropertyOp31
 70
     0
102
RTVSPropertyOp32
 70
     0
102
RTVSPropertyOp33
 70
     0
102
RTVSPropertyOp34
 70
     0
102
RTVSPropertyOp35
 70
     0
102
RTVSPropertyOp36
 70
     0
102
RTVSPropertyOp37
 70
     0
102
RTVSPropertyOp38
 70
     0
102
RTVSPropertyOp39
 70
     0
102
RTVSPropertyOp40
 70
     0
102
RTVSPropertyOp41
 70
     0
102
RTVSPropertyOp42
 70
     0
102
RTVSPropertyOp43
 70
     0
102
RTVSPropertyOp44
 70
     0
102
RTVSPropertyOp45
 70
     0
102
RTVSPropertyOp46
 70
     0
102
RTVSPropertyOp47
 70
     0
102
RTVSPropertyOp48
 70
     0
102
RTVSPropertyOp49
 70
     0
102
RTVSPropertyOp50
 70
     0
102
RTVSPropertyOp51
 70
     0
102
RTVSPropertyOp52
 70
     0
102
RTVSPropertyOp53
 70
     0
102
RTVSPropertyOp54
 70
     0
102
RTVSPropertyOp55
 70
     0
102
RTVSPropertyOp56
 70
     0
102
RTVSPropertyOp57
 70
     0
102
RTVSPost2010Prop28
280
     0
102
RTVSPost2010PropOp28
 70
     0
102
RTVSPost2010Prop29
280
     1
102
RTVSPost2010PropOp29
 70
     0
102
RTVSPost2010Prop30
280
     1
102
RTVSPost2010PropOp30
 70
     0
102
RTVSPost2010Prop31
280
     0
102
RTVSPost2010PropOp31
 70
     0
102
RTVSPost2010Prop32
280
     0
102
RTVSPost2010PropOp32
 70
     0
102
RTVSPost2010Prop33
280
     0
102
RTVSPost2010PropOp33
 70
     0
102
RTVSPost2010Prop34
280
     0
102
RTVSPost2010PropOp34
 70
     0
102
RTVSPost2010Prop35
280
     0
102
RTVSPost2010PropOp35
 70
     0
102
RTVSPost2010Prop36
280
     0
102
RTVSPost2010PropOp36
 70
     0
102
RTVSPost2010Prop37
 90
       50
102
RTVSPost2010PropOp37
 70
     0
102
RTVSPost2010Prop38
140
0.0
102
RTVSPost2010PropOp38
 70
     0
102
RTVSPost2010Prop39
140
1.0
102
RTVSPost2010PropOp39
 70
     0
102
RTVSPost2010Prop40
 90
        0
102
RTVSPost2010PropOp40
 70
     0
102
RTVSPost2010Prop41ColorIndex
 90
       18
102
RTVSPost2010Prop41ColorRGB
 90
        0
102
RTVSPost2010PropOp41
 70
     0
102
RTVSPost2010Prop42
 90
       50
102
RTVSPost2010PropOp42
 70
     0
102
RTVSPost2010Prop43
 90
        3
102
RTVSPost2010PropOp43
 70
     0
102
RTVSPost2010Prop44ColorIndex
 90
        5
102
RTVSPost2010Prop44ColorRGB
 90
      255
102
RTVSPost2010PropOp44
 70
     0
102
RTVSPost2010Prop45
280
     0
102
RTVSPost2010PropOp45
 70
     0
102
RTVSPost2010Prop46
 90
       50
102
RTVSPost2010PropOp46
 70
     0
102
RTVSPost2010Prop47
 90
       50
102
RTVSPost2010PropOp47
 70
     0
102
RTVSPost2010Prop48
 90
       50
102
RTVSPost2010PropOp48
 70
     0
102
RTVSPost2010Prop49
280
     0
102
RTVSPost2010PropOp49
 70
     0
102
RTVSPost2010Prop50
 90
       50
102
RTVSPost2010PropOp50
 70
     0
102
RTVSPost2010Prop51ColorIndex
 90
      256
102
RTVSPost2010Prop51ColorRGB
 90
-16777216
102
RTVSPost2010PropOp51
 70
     0
102
RTVSPost2010Prop52
140
1.0
102
RTVSPost2010PropOp52
 70
     0
102
RTVSPost2010Prop53
 90
        2
102
RTVSPost2010PropOp53
 70
     0
102
RTVSPost2010Prop54
  1
strokes_ogs.tif
102
RTVSPost2010PropOp54
 70
     0
102
RTVSPost2010Prop55
280
     0
102
RTVSPost2010PropOp55
 70
     0
102
RTVSPost2010Prop56
140
1.0
102
RTVSPost2010PropOp56
 70
     0
102
RTVSPost2010Prop57
140
1.0
102
RTVSPost2010PropOp57
 70
     0
  0
XRECORD
  5
30E
102
{ACAD_REACTORS
330
30D
102
}
330
30D
100
AcDbXrecord
280
     1
102
RTVSPropertyOp0
 70
     1
102
RTVSPropertyOp1
 70
     1
102
RTVSPropertyOp2
 70
     1
102
RTVSPropertyOp3
 70
     1
102
RTVSPropertyOp4
 70
     1
102
RTVSPropertyOp5
 70
     1
102
RTVSPropertyOp6
 70
     1
102
RTVSPropertyOp7
 70
     1
102
RTVSPropertyOp8
 70
     1
102
RTVSPropertyOp9
 70
     1
102
RTVSPropertyOp10
 70
     1
102
RTVSPropertyOp11
 70
     1
102
RTVSPropertyOp12
 70
     1
102
RTVSPropertyOp13
 70
     1
102
RTVSPropertyOp14
 70
     1
102
RTVSPropertyOp15
 70
     1
102
RTVSPropertyOp16
 70
     1
102
RTVSPropertyOp17
 70
     1
102
RTVSPropertyOp18
 70
     1
102
RTVSPropertyOp19
 70
     1
102
RTVSPropertyOp20
 70
     1
102
RTVSPropertyOp21
 70
     1
102
RTVSPropertyOp22
 70
     1
102
RTVSPropertyOp23
 70
     1
102
RTVSPropertyOp24
 70
     1
102
RTVSPropertyOp25
 70
     1
102
RTVSPropertyOp26
 70
     1
102
RTVSPropertyOp27
 70
     1
102
RTVSPropertyOp28
 70
     1
102
RTVSPropertyOp29
 70
     1
102
RTVSPropertyOp30
 70
     1
102
RTVSPropertyOp31
 70
     1
102
RTVSPropertyOp32
 70
     1
102
RTVSPropertyOp33
 70
     1
102
RTVSPropertyOp34
 70
     1
102
RTVSPropertyOp35
 70
     1
102
RTVSPropertyOp36
 70
     1
102
RTVSPropertyOp37
 70
     1
102
RTVSPropertyOp38
 70
     1
102
RTVSPropertyOp39
 70
     1
102
RTVSPropertyOp40
 70
     1
102
RTVSPropertyOp41
 70
     1
102
RTVSPropertyOp42
 70
     1
102
RTVSPropertyOp43
 70
     1
102
RTVSPropertyOp44
 70
     1
102
RTVSPropertyOp45
 70
     1
102
RTVSPropertyOp46
 70
     1
102
RTVSPropertyOp47
 70
     1
102
RTVSPropertyOp48
 70
     1
102
RTVSPropertyOp49
 70
     1
102
RTVSPropertyOp50
 70
     1
102
RTVSPropertyOp51
 70
     0
102
RTVSPropertyOp52
 70
     0
102
RTVSPropertyOp53
 70
     1
102
RTVSPropertyOp54
 70
     1
102
RTVSPropertyOp55
 70
     1
102
RTVSPropertyOp56
 70
     1
102
RTVSPropertyOp57
 70
     1
102
RTVSPost2010Prop28
280
     0
102
RTVSPost2010PropOp28
 70
     1
102
RTVSPost2010Prop29
280
     1
102
RTVSPost2010PropOp29
 70
     1
102
RTVSPost2010Prop30
280
     1
102
RTVSPost2010PropOp30
 70
     1
102
RTVSPost2010Prop31
280
     0
102
RTVSPost2010PropOp31
 70
     1
102
RTVSPost2010Prop32
280
     0
102
RTVSPost2010PropOp32
 70
     1
102
RTVSPost2010Prop33
280
     0
102
RTVSPost2010PropOp33
 70
     1
102
RTVSPost2010Prop34
280
     0
102
RTVSPost2010PropOp34
 70
     1
102
RTVSPost2010Prop35
280
     0
102
RTVSPost2010PropOp35
 70
     1
102
RTVSPost2010Prop36
280
     0
102
RTVSPost2010PropOp36
 70
     1
102
RTVSPost2010Prop37
 90
       50
102
RTVSPost2010PropOp37
 70
     1
102
RTVSPost2010Prop38
140
0.0
102
RTVSPost2010PropOp38
 70
     1
102
RTVSPost2010Prop39
140
1.0
102
RTVSPost2010PropOp39
 70
     1
102
RTVSPost2010Prop40
 90
        0
102
RTVSPost2010PropOp40
 70
     1
102
RTVSPost2010Prop41ColorIndex
 90
       18
102
RTVSPost2010Prop41ColorRGB
 90
        0
102
RTVSPost2010PropOp41
 70
     1
102
RTVSPost2010Prop42
 90
       50
102
RTVSPost2010PropOp42
 70
     1
102
RTVSPost2010Prop43
 90
        3
102
RTVSPost2010PropOp43
 70
     1
102
RTVSPost2010Prop44ColorIndex
 90
        5
102
RTVSPost2010Prop44ColorRGB
 90
      255
102
RTVSPost2010PropOp44
 70
     1
102
RTVSPost2010Prop45
280
     0
102
RTVSPost2010PropOp45
 70
     1
102
RTVSPost2010Prop46
 90
       50
102
RTVSPost2010PropOp46
 70
     1
102
RTVSPost2010Prop47
 90
       50
102
RTVSPost2010PropOp47
 70
     1
102
RTVSPost2010Prop48
 90
       50
102
RTVSPost2010PropOp48
 70
     1
102
RTVSPost2010Prop49
280
     0
102
RTVSPost2010PropOp49
 70
     1
102
RTVSPost2010Prop50
 90
       50
102
RTVSPost2010PropOp50
 70
     1
102
RTVSPost2010Prop51ColorIndex
 90
      256
102
RTVSPost2010Prop51ColorRGB
 90
-16777216
102
RTVSPost2010PropOp51
 70
     0
102
RTVSPost2010Prop52
140
1.0
102
RTVSPost2010PropOp52
 70
     0
102
RTVSPost2010Prop53
 90
        2
102
RTVSPost2010PropOp53
 70
     1
102
RTVSPost2010Prop54
  1
strokes_ogs.tif
102
RTVSPost2010PropOp54
 70
     1
102
RTVSPost2010Prop55
280
     0
102
RTVSPost2010PropOp55
 70
     1
102
RTVSPost2010Prop56
140
1.0
102
RTVSPost2010PropOp56
 70
     1
102
RTVSPost2010Prop57
140
1.0
102
RTVSPost2010PropOp57
 70
     1
  0
XRECORD
  5
2F2
102
{ACAD_REACTORS
330
2F1
102
}
330
2F1
100
AcDbXrecord
280
     1
102
RTVSPropertyOp0
 70
     1
102
RTVSPropertyOp1
 70
     1
102
RTVSPropertyOp2
 70
     1
102
RTVSPropertyOp3
 70
     1
102
RTVSPropertyOp4
 70
     1
102
RTVSPropertyOp5
 70
     1
102
RTVSPropertyOp6
 70
     1
102
RTVSPropertyOp7
 70
     1
102
RTVSPropertyOp8
 70
     1
102
RTVSPropertyOp9
 70
     1
102
RTVSPropertyOp10
 70
     1
102
RTVSPropertyOp11
 70
     1
102
RTVSPropertyOp12
 70
     1
102
RTVSPropertyOp13
 70
     1
102
RTVSPropertyOp14
 70
     1
102
RTVSPropertyOp15
 70
     1
102
RTVSPropertyOp16
 70
     1
102
RTVSPropertyOp17
 70
     1
102
RTVSPropertyOp18
 70
     1
102
RTVSPropertyOp19
 70
     1
102
RTVSPropertyOp20
 70
     1
102
RTVSPropertyOp21
 70
     1
102
RTVSPropertyOp22
 70
     1
102
RTVSPropertyOp23
 70
     1
102
RTVSPropertyOp24
 70
     1
102
RTVSPropertyOp25
 70
     1
102
RTVSPropertyOp26
 70
     1
102
RTVSPropertyOp27
 70
     1
102
RTVSPropertyOp28
 70
     1
102
RTVSPropertyOp29
 70
     1
102
RTVSPropertyOp30
 70
     1
102
RTVSPropertyOp31
 70
     1
102
RTVSPropertyOp32
 70
     1
102
RTVSPropertyOp33
 70
     1
102
RTVSPropertyOp34
 70
     1
102
RTVSPropertyOp35
 70
     1
102
RTVSPropertyOp36
 70
     1
102
RTVSPropertyOp37
 70
     1
102
RTVSPropertyOp38
 70
     1
102
RTVSPropertyOp39
 70
     1
102
RTVSPropertyOp40
 70
     1
102
RTVSPropertyOp41
 70
     1
102
RTVSPropertyOp42
 70
     1
102
RTVSPropertyOp43
 70
     1
102
RTVSPropertyOp44
 70
     1
102
RTVSPropertyOp45
 70
     1
102
RTVSPropertyOp46
 70
     1
102
RTVSPropertyOp47
 70
     1
102
RTVSPropertyOp48
 70
     1
102
RTVSPropertyOp49
 70
     1
102
RTVSPropertyOp50
 70
     1
102
RTVSPropertyOp51
 70
     0
102
RTVSPropertyOp52
 70
     0
102
RTVSPropertyOp53
 70
     1
102
RTVSPropertyOp54
 70
     1
102
RTVSPropertyOp55
 70
     1
102
RTVSPropertyOp56
 70
     1
102
RTVSPropertyOp57
 70
     1
102
RTVSPost2010Prop28
280
     0
102
RTVSPost2010PropOp28
 70
     1
102
RTVSPost2010Prop29
280
     1
102
RTVSPost2010PropOp29
 70
     1
102
RTVSPost2010Prop30
280
     1
102
RTVSPost2010PropOp30
 70
     1
102
RTVSPost2010Prop31
280
     0
102
RTVSPost2010PropOp31
 70
     1
102
RTVSPost2010Prop32
280
     0
102
RTVSPost2010PropOp32
 70
     1
102
RTVSPost2010Prop33
280
     0
102
RTVSPost2010PropOp33
 70
     1
102
RTVSPost2010Prop34
280
     0
102
RTVSPost2010PropOp34
 70
     1
102
RTVSPost2010Prop35
280
     0
102
RTVSPost2010PropOp35
 70
     1
102
RTVSPost2010Prop36
280
     0
102
RTVSPost2010PropOp36
 70
     1
102
RTVSPost2010Prop37
 90
       50
102
RTVSPost2010PropOp37
 70
     1
102
RTVSPost2010Prop38
140
0.0
102
RTVSPost2010PropOp38
 70
     1
102
RTVSPost2010Prop39
140
1.0
102
RTVSPost2010PropOp39
 70
     1
102
RTVSPost2010Prop40
 90
        0
102
RTVSPost2010PropOp40
 70
     1
102
RTVSPost2010Prop41ColorIndex
 90
       18
102
RTVSPost2010Prop41ColorRGB
 90
        0
102
RTVSPost2010PropOp41
 70
     1
102
RTVSPost2010Prop42
 90
       50
102
RTVSPost2010PropOp42
 70
     1
102
RTVSPost2010Prop43
 90
        3
102
RTVSPost2010PropOp43
 70
     1
102
RTVSPost2010Prop44ColorIndex
 90
        5
102
RTVSPost2010Prop44ColorRGB
 90
      255
102
RTVSPost2010PropOp44
 70
     1
102
RTVSPost2010Prop45
280
     0
102
RTVSPost2010PropOp45
 70
     1
102
RTVSPost2010Prop46
 90
       50
102
RTVSPost2010PropOp46
 70
     1
102
RTVSPost2010Prop47
 90
       50
102
RTVSPost2010PropOp47
 70
     1
102
RTVSPost2010Prop48
 90
       50
102
RTVSPost2010PropOp48
 70
     1
102
RTVSPost2010Prop49
280
     0
102
RTVSPost2010PropOp49
 70
     1
102
RTVSPost2010Prop50
 90
       50
102
RTVSPost2010PropOp50
 70
     1
102
RTVSPost2010Prop51ColorIndex
 90
      256
102
RTVSPost2010Prop51ColorRGB
 90
-16777216
102
RTVSPost2010PropOp51
 70
     0
102
RTVSPost2010Prop52
140
1.0
102
RTVSPost2010PropOp52
 70
     0
102
RTVSPost2010Prop53
 90
        2
102
RTVSPost2010PropOp53
 70
     1
102
RTVSPost2010Prop54
  1
strokes_ogs.tif
102
RTVSPost2010PropOp54
 70
     1
102
RTVSPost2010Prop55
280
     0
102
RTVSPost2010PropOp55
 70
     1
102
RTVSPost2010Prop56
140
1.0
102
RTVSPost2010PropOp56
 70
     1
102
RTVSPost2010Prop57
140
1.0
102
RTVSPost2010PropOp57
 70
     1
  0
XRECORD
  5
2F4
102
{ACAD_REACTORS
330
2F3
102
}
330
2F3
100
AcDbXrecord
280
     1
102
RTVSPropertyOp0
 70
     1
102
RTVSPropertyOp1
 70
     1
102
RTVSPropertyOp2
 70
     1
102
RTVSPropertyOp3
 70
     1
102
RTVSPropertyOp4
 70
     1
102
RTVSPropertyOp5
 70
     1
102
RTVSPropertyOp6
 70
     1
102
RTVSPropertyOp7
 70
     1
102
RTVSPropertyOp8
 70
     1
102
RTVSPropertyOp9
 70
     1
102
RTVSPropertyOp10
 70
     1
102
RTVSPropertyOp11
 70
     1
102
RTVSPropertyOp12
 70
     1
102
RTVSPropertyOp13
 70
     1
102
RTVSPropertyOp14
 70
     1
102
RTVSPropertyOp15
 70
     1
102
RTVSPropertyOp16
 70
     1
102
RTVSPropertyOp17
 70
     1
102
RTVSPropertyOp18
 70
     1
102
RTVSPropertyOp19
 70
     1
102
RTVSPropertyOp20
 70
     1
102
RTVSPropertyOp21
 70
     1
102
RTVSPropertyOp22
 70
     1
102
RTVSPropertyOp23
 70
     1
102
RTVSPropertyOp24
 70
     1
102
RTVSPropertyOp25
 70
     1
102
RTVSPropertyOp26
 70
     1
102
RTVSPropertyOp27
 70
     1
102
RTVSPropertyOp28
 70
     1
102
RTVSPropertyOp29
 70
     1
102
RTVSPropertyOp30
 70
     1
102
RTVSPropertyOp31
 70
     1
102
RTVSPropertyOp32
 70
     1
102
RTVSPropertyOp33
 70
     1
102
RTVSPropertyOp34
 70
     1
102
RTVSPropertyOp35
 70
     1
102
RTVSPropertyOp36
 70
     1
102
RTVSPropertyOp37
 70
     1
102
RTVSPropertyOp38
 70
     1
102
RTVSPropertyOp39
 70
     1
102
RTVSPropertyOp40
 70
     1
102
RTVSPropertyOp41
 70
     1
102
RTVSPropertyOp42
 70
     1
102
RTVSPropertyOp43
 70
     1
102
RTVSPropertyOp44
 70
     1
102
RTVSPropertyOp45
 70
     1
102
RTVSPropertyOp46
 70
     1
102
RTVSPropertyOp47
 70
     1
102
RTVSPropertyOp48
 70
     1
102
RTVSPropertyOp49
 70
     1
102
RTVSPropertyOp50
 70
     1
102
RTVSPropertyOp51
 70
     0
102
RTVSPropertyOp52
 70
     0
102
RTVSPropertyOp53
 70
     1
102
RTVSPropertyOp54
 70
     1
102
RTVSPropertyOp55
 70
     1
102
RTVSPropertyOp56
 70
     1
102
RTVSPropertyOp57
 70
     1
102
RTVSPost2010Prop28
280
     0
102
RTVSPost2010PropOp28
 70
     1
102
RTVSPost2010Prop29
280
     1
102
RTVSPost2010PropOp29
 70
     1
102
RTVSPost2010Prop30
280
     1
102
RTVSPost2010PropOp30
 70
     1
102
RTVSPost2010Prop31
280
     0
102
RTVSPost2010PropOp31
 70
     1
102
RTVSPost2010Prop32
280
     0
102
RTVSPost2010PropOp32
 70
     1
102
RTVSPost2010Prop33
280
     0
102
RTVSPost2010PropOp33
 70
     1
102
RTVSPost2010Prop34
280
     0
102
RTVSPost2010PropOp34
 70
     1
102
RTVSPost2010Prop35
280
     0
102
RTVSPost2010PropOp35
 70
     1
102
RTVSPost2010Prop36
280
     0
102
RTVSPost2010PropOp36
 70
     1
102
RTVSPost2010Prop37
 90
       50
102
RTVSPost2010PropOp37
 70
     1
102
RTVSPost2010Prop38
140
0.0
102
RTVSPost2010PropOp38
 70
     1
102
RTVSPost2010Prop39
140
1.0
102
RTVSPost2010PropOp39
 70
     1
102
RTVSPost2010Prop40
 90
        0
102
RTVSPost2010PropOp40
 70
     1
102
RTVSPost2010Prop41ColorIndex
 90
       18
102
RTVSPost2010Prop41ColorRGB
 90
        0
102
RTVSPost2010PropOp41
 70
     1
102
RTVSPost2010Prop42
 90
       50
102
RTVSPost2010PropOp42
 70
     1
102
RTVSPost2010Prop43
 90
        3
102
RTVSPost2010PropOp43
 70
     1
102
RTVSPost2010Prop44ColorIndex
 90
        5
102
RTVSPost2010Prop44ColorRGB
 90
      255
102
RTVSPost2010PropOp44
 70
     1
102
RTVSPost2010Prop45
280
     0
102
RTVSPost2010PropOp45
 70
     1
102
RTVSPost2010Prop46
 90
       50
102
RTVSPost2010PropOp46
 70
     1
102
RTVSPost2010Prop47
 90
       50
102
RTVSPost2010PropOp47
 70
     1
102
RTVSPost2010Prop48
 90
       50
102
RTVSPost2010PropOp48
 70
     1
102
RTVSPost2010Prop49
280
     0
102
RTVSPost2010PropOp49
 70
     1
102
RTVSPost2010Prop50
 90
       50
102
RTVSPost2010PropOp50
 70
     1
102
RTVSPost2010Prop51ColorIndex
 90
      256
102
RTVSPost2010Prop51ColorRGB
 90
-16777216
102
RTVSPost2010PropOp51
 70
     0
102
RTVSPost2010Prop52
140
1.0
102
RTVSPost2010PropOp52
 70
     0
102
RTVSPost2010Prop53
 90
        2
102
RTVSPost2010PropOp53
 70
     1
102
RTVSPost2010Prop54
  1
strokes_ogs.tif
102
RTVSPost2010PropOp54
 70
     1
102
RTVSPost2010Prop55
280
     0
102
RTVSPost2010PropOp55
 70
     1
102
RTVSPost2010Prop56
140
1.0
102
RTVSPost2010PropOp56
 70
     1
102
RTVSPost2010Prop57
140
1.0
102
RTVSPost2010PropOp57
 70
     1
  0
XRECORD
  5
2F6
102
{ACAD_REACTORS
330
2F5
102
}
330
2F5
100
AcDbXrecord
280
     1
102
RTVSPropertyOp0
 70
     1
102
RTVSPropertyOp1
 70
     1
102
RTVSPropertyOp2
 70
     1
102
RTVSPropertyOp3
 70
     1
102
RTVSPropertyOp4
 70
     1
102
RTVSPropertyOp5
 70
     1
102
RTVSPropertyOp6
 70
     1
102
RTVSPropertyOp7
 70
     1
102
RTVSPropertyOp8
 70
     1
102
RTVSPropertyOp9
 70
     1
102
RTVSPropertyOp10
 70
     1
102
RTVSPropertyOp11
 70
     1
102
RTVSPropertyOp12
 70
     1
102
RTVSPropertyOp13
 70
     1
102
RTVSPropertyOp14
 70
     1
102
RTVSPropertyOp15
 70
     1
102
RTVSPropertyOp16
 70
     1
102
RTVSPropertyOp17
 70
     1
102
RTVSPropertyOp18
 70
     1
102
RTVSPropertyOp19
 70
     1
102
RTVSPropertyOp20
 70
     1
102
RTVSPropertyOp21
 70
     1
102
RTVSPropertyOp22
 70
     1
102
RTVSPropertyOp23
 70
     1
102
RTVSPropertyOp24
 70
     1
102
RTVSPropertyOp25
 70
     1
102
RTVSPropertyOp26
 70
     1
102
RTVSPropertyOp27
 70
     1
102
RTVSPropertyOp28
 70
     1
102
RTVSPropertyOp29
 70
     1
102
RTVSPropertyOp30
 70
     1
102
RTVSPropertyOp31
 70
     1
102
RTVSPropertyOp32
 70
     1
102
RTVSPropertyOp33
 70
     1
102
RTVSPropertyOp34
 70
     1
102
RTVSPropertyOp35
 70
     1
102
RTVSPropertyOp36
 70
     1
102
RTVSPropertyOp37
 70
     1
102
RTVSPropertyOp38
 70
     1
102
RTVSPropertyOp39
 70
     1
102
RTVSPropertyOp40
 70
     1
102
RTVSPropertyOp41
 70
     1
102
RTVSPropertyOp42
 70
     1
102
RTVSPropertyOp43
 70
     1
102
RTVSPropertyOp44
 70
     1
102
RTVSPropertyOp45
 70
     1
102
RTVSPropertyOp46
 70
     1
102
RTVSPropertyOp47
 70
     1
102
RTVSPropertyOp48
 70
     1
102
RTVSPropertyOp49
 70
     1
102
RTVSPropertyOp50
 70
     1
102
RTVSPropertyOp51
 70
     0
102
RTVSPropertyOp52
 70
     0
102
RTVSPropertyOp53
 70
     1
102
RTVSPropertyOp54
 70
     1
102
RTVSPropertyOp55
 70
     1
102
RTVSPropertyOp56
 70
     1
102
RTVSPropertyOp57
 70
     1
102
RTVSPost2010Prop28
280
     0
102
RTVSPost2010PropOp28
 70
     1
102
RTVSPost2010Prop29
280
     1
102
RTVSPost2010PropOp29
 70
     1
102
RTVSPost2010Prop30
280
     1
102
RTVSPost2010PropOp30
 70
     1
102
RTVSPost2010Prop31
280
     0
102
RTVSPost2010PropOp31
 70
     1
102
RTVSPost2010Prop32
280
     0
102
RTVSPost2010PropOp32
 70
     1
102
RTVSPost2010Prop33
280
     0
102
RTVSPost2010PropOp33
 70
     1
102
RTVSPost2010Prop34
280
     0
102
RTVSPost2010PropOp34
 70
     1
102
RTVSPost2010Prop35
280
     0
102
RTVSPost2010PropOp35
 70
     1
102
RTVSPost2010Prop36
280
     0
102
RTVSPost2010PropOp36
 70
     1
102
RTVSPost2010Prop37
 90
       50
102
RTVSPost2010PropOp37
 70
     1
102
RTVSPost2010Prop38
140
0.0
102
RTVSPost2010PropOp38
 70
     1
102
RTVSPost2010Prop39
140
1.0
102
RTVSPost2010PropOp39
 70
     1
102
RTVSPost2010Prop40
 90
        0
102
RTVSPost2010PropOp40
 70
     1
102
RTVSPost2010Prop41ColorIndex
 90
       18
102
RTVSPost2010Prop41ColorRGB
 90
        0
102
RTVSPost2010PropOp41
 70
     1
102
RTVSPost2010Prop42
 90
       50
102
RTVSPost2010PropOp42
 70
     1
102
RTVSPost2010Prop43
 90
        3
102
RTVSPost2010PropOp43
 70
     1
102
RTVSPost2010Prop44ColorIndex
 90
        5
102
RTVSPost2010Prop44ColorRGB
 90
      255
102
RTVSPost2010PropOp44
 70
     1
102
RTVSPost2010Prop45
280
     0
102
RTVSPost2010PropOp45
 70
     1
102
RTVSPost2010Prop46
 90
       50
102
RTVSPost2010PropOp46
 70
     1
102
RTVSPost2010Prop47
 90
       50
102
RTVSPost2010PropOp47
 70
     1
102
RTVSPost2010Prop48
 90
       50
102
RTVSPost2010PropOp48
 70
     1
102
RTVSPost2010Prop49
280
     0
102
RTVSPost2010PropOp49
 70
     1
102
RTVSPost2010Prop50
 90
       50
102
RTVSPost2010PropOp50
 70
     1
102
RTVSPost2010Prop51ColorIndex
 90
      256
102
RTVSPost2010Prop51ColorRGB
 90
-16777216
102
RTVSPost2010PropOp51
 70
     0
102
RTVSPost2010Prop52
140
1.0
102
RTVSPost2010PropOp52
 70
     0
102
RTVSPost2010Prop53
 90
        2
102
RTVSPost2010PropOp53
 70
     1
102
RTVSPost2010Prop54
  1
strokes_ogs.tif
102
RTVSPost2010PropOp54
 70
     1
102
RTVSPost2010Prop55
280
     0
102
RTVSPost2010PropOp55
 70
     1
102
RTVSPost2010Prop56
140
1.0
102
RTVSPost2010PropOp56
 70
     1
102
RTVSPost2010Prop57
140
1.0
102
RTVSPost2010PropOp57
 70
     1
  0
XRECORD
  5
2F8
102
{ACAD_REACTORS
330
2F7
102
}
330
2F7
100
AcDbXrecord
280
     1
102
RTVSPropertyOp0
 70
     1
102
RTVSPropertyOp1
 70
     1
102
RTVSPropertyOp2
 70
     1
102
RTVSPropertyOp3
 70
     1
102
RTVSPropertyOp4
 70
     1
102
RTVSPropertyOp5
 70
     1
102
RTVSPropertyOp6
 70
     1
102
RTVSPropertyOp7
 70
     1
102
RTVSPropertyOp8
 70
     1
102
RTVSPropertyOp9
 70
     1
102
RTVSPropertyOp10
 70
     1
102
RTVSPropertyOp11
 70
     1
102
RTVSPropertyOp12
 70
     1
102
RTVSPropertyOp13
 70
     1
102
RTVSPropertyOp14
 70
     1
102
RTVSPropertyOp15
 70
     1
102
RTVSPropertyOp16
 70
     1
102
RTVSPropertyOp17
 70
     1
102
RTVSPropertyOp18
 70
     1
102
RTVSPropertyOp19
 70
     1
102
RTVSPropertyOp20
 70
     1
102
RTVSPropertyOp21
 70
     1
102
RTVSPropertyOp22
 70
     1
102
RTVSPropertyOp23
 70
     1
102
RTVSPropertyOp24
 70
     1
102
RTVSPropertyOp25
 70
     1
102
RTVSPropertyOp26
 70
     1
102
RTVSPropertyOp27
 70
     1
102
RTVSPropertyOp28
 70
     1
102
RTVSPropertyOp29
 70
     1
102
RTVSPropertyOp30
 70
     1
102
RTVSPropertyOp31
 70
     1
102
RTVSPropertyOp32
 70
     1
102
RTVSPropertyOp33
 70
     1
102
RTVSPropertyOp34
 70
     1
102
RTVSPropertyOp35
 70
     1
102
RTVSPropertyOp36
 70
     1
102
RTVSPropertyOp37
 70
     1
102
RTVSPropertyOp38
 70
     1
102
RTVSPropertyOp39
 70
     1
102
RTVSPropertyOp40
 70
     1
102
RTVSPropertyOp41
 70
     1
102
RTVSPropertyOp42
 70
     1
102
RTVSPropertyOp43
 70
     1
102
RTVSPropertyOp44
 70
     1
102
RTVSPropertyOp45
 70
     1
102
RTVSPropertyOp46
 70
     1
102
RTVSPropertyOp47
 70
     1
102
RTVSPropertyOp48
 70
     1
102
RTVSPropertyOp49
 70
     1
102
RTVSPropertyOp50
 70
     1
102
RTVSPropertyOp51
 70
     0
102
RTVSPropertyOp52
 70
     0
102
RTVSPropertyOp53
 70
     1
102
RTVSPropertyOp54
 70
     1
102
RTVSPropertyOp55
 70
     1
102
RTVSPropertyOp56
 70
     1
102
RTVSPropertyOp57
 70
     1
102
RTVSPost2010Prop28
280
     0
102
RTVSPost2010PropOp28
 70
     1
102
RTVSPost2010Prop29
280
     1
102
RTVSPost2010PropOp29
 70
     1
102
RTVSPost2010Prop30
280
     1
102
RTVSPost2010PropOp30
 70
     1
102
RTVSPost2010Prop31
280
     0
102
RTVSPost2010PropOp31
 70
     1
102
RTVSPost2010Prop32
280
     0
102
RTVSPost2010PropOp32
 70
     1
102
RTVSPost2010Prop33
280
     0
102
RTVSPost2010PropOp33
 70
     1
102
RTVSPost2010Prop34
280
     0
102
RTVSPost2010PropOp34
 70
     1
102
RTVSPost2010Prop35
280
     0
102
RTVSPost2010PropOp35
 70
     1
102
RTVSPost2010Prop36
280
     0
102
RTVSPost2010PropOp36
 70
     1
102
RTVSPost2010Prop37
 90
       50
102
RTVSPost2010PropOp37
 70
     1
102
RTVSPost2010Prop38
140
0.0
102
RTVSPost2010PropOp38
 70
     1
102
RTVSPost2010Prop39
140
1.0
102
RTVSPost2010PropOp39
 70
     1
102
RTVSPost2010Prop40
 90
        0
102
RTVSPost2010PropOp40
 70
     1
102
RTVSPost2010Prop41ColorIndex
 90
       18
102
RTVSPost2010Prop41ColorRGB
 90
        0
102
RTVSPost2010PropOp41
 70
     1
102
RTVSPost2010Prop42
 90
       50
102
RTVSPost2010PropOp42
 70
     1
102
RTVSPost2010Prop43
 90
        3
102
RTVSPost2010PropOp43
 70
     1
102
RTVSPost2010Prop44ColorIndex
 90
        5
102
RTVSPost2010Prop44ColorRGB
 90
      255
102
RTVSPost2010PropOp44
 70
     1
102
RTVSPost2010Prop45
280
     0
102
RTVSPost2010PropOp45
 70
     1
102
RTVSPost2010Prop46
 90
       50
102
RTVSPost2010PropOp46
 70
     1
102
RTVSPost2010Prop47
 90
       50
102
RTVSPost2010PropOp47
 70
     1
102
RTVSPost2010Prop48
 90
       50
102
RTVSPost2010PropOp48
 70
     1
102
RTVSPost2010Prop49
280
     0
102
RTVSPost2010PropOp49
 70
     1
102
RTVSPost2010Prop50
 90
       50
102
RTVSPost2010PropOp50
 70
     1
102
RTVSPost2010Prop51ColorIndex
 90
      256
102
RTVSPost2010Prop51ColorRGB
 90
-16777216
102
RTVSPost2010PropOp51
 70
     0
102
RTVSPost2010Prop52
140
1.0
102
RTVSPost2010PropOp52
 70
     0
102
RTVSPost2010Prop53
 90
        2
102
RTVSPost2010PropOp53
 70
     1
102
RTVSPost2010Prop54
  1
strokes_ogs.tif
102
RTVSPost2010PropOp54
 70
     1
102
RTVSPost2010Prop55
280
     0
102
RTVSPost2010PropOp55
 70
     1
102
RTVSPost2010Prop56
140
1.0
102
RTVSPost2010PropOp56
 70
     1
102
RTVSPost2010Prop57
140
1.0
102
RTVSPost2010PropOp57
 70
     1
  0
XRECORD
  5
2FE
102
{ACAD_REACTORS
330
2FD
102
}
330
2FD
100
AcDbXrecord
280
     1
102
RTVSPropertyOp0
 70
     1
102
RTVSPropertyOp1
 70
     1
102
RTVSPropertyOp2
 70
     1
102
RTVSPropertyOp3
 70
     1
102
RTVSPropertyOp4
 70
     1
102
RTVSPropertyOp5
 70
     1
102
RTVSPropertyOp6
 70
     1
102
RTVSPropertyOp7
 70
     1
102
RTVSPropertyOp8
 70
     1
102
RTVSPropertyOp9
 70
     1
102
RTVSPropertyOp10
 70
     1
102
RTVSPropertyOp11
 70
     1
102
RTVSPropertyOp12
 70
     1
102
RTVSPropertyOp13
 70
     1
102
RTVSPropertyOp14
 70
     1
102
RTVSPropertyOp15
 70
     1
102
RTVSPropertyOp16
 70
     1
102
RTVSPropertyOp17
 70
     1
102
RTVSPropertyOp18
 70
     1
102
RTVSPropertyOp19
 70
     1
102
RTVSPropertyOp20
 70
     1
102
RTVSPropertyOp21
 70
     1
102
RTVSPropertyOp22
 70
     1
102
RTVSPropertyOp23
 70
     1
102
RTVSPropertyOp24
 70
     1
102
RTVSPropertyOp25
 70
     1
102
RTVSPropertyOp26
 70
     1
102
RTVSPropertyOp27
 70
     1
102
RTVSPropertyOp28
 70
     1
102
RTVSPropertyOp29
 70
     1
102
RTVSPropertyOp30
 70
     1
102
RTVSPropertyOp31
 70
     1
102
RTVSPropertyOp32
 70
     1
102
RTVSPropertyOp33
 70
     1
102
RTVSPropertyOp34
 70
     1
102
RTVSPropertyOp35
 70
     1
102
RTVSPropertyOp36
 70
     1
102
RTVSPropertyOp37
 70
     1
102
RTVSPropertyOp38
 70
     1
102
RTVSPropertyOp39
 70
     1
102
RTVSPropertyOp40
 70
     1
102
RTVSPropertyOp41
 70
     1
102
RTVSPropertyOp42
 70
     1
102
RTVSPropertyOp43
 70
     1
102
RTVSPropertyOp44
 70
     1
102
RTVSPropertyOp45
 70
     1
102
RTVSPropertyOp46
 70
     1
102
RTVSPropertyOp47
 70
     1
102
RTVSPropertyOp48
 70
     1
102
RTVSPropertyOp49
 70
     1
102
RTVSPropertyOp50
 70
     1
102
RTVSPropertyOp51
 70
     0
102
RTVSPropertyOp52
 70
     0
102
RTVSPropertyOp53
 70
     1
102
RTVSPropertyOp54
 70
     1
102
RTVSPropertyOp55
 70
     1
102
RTVSPropertyOp56
 70
     1
102
RTVSPropertyOp57
 70
     1
102
RTVSPost2010Prop28
280
     0
102
RTVSPost2010PropOp28
 70
     1
102
RTVSPost2010Prop29
280
     1
102
RTVSPost2010PropOp29
 70
     1
102
RTVSPost2010Prop30
280
     1
102
RTVSPost2010PropOp30
 70
     1
102
RTVSPost2010Prop31
280
     0
102
RTVSPost2010PropOp31
 70
     1
102
RTVSPost2010Prop32
280
     0
102
RTVSPost2010PropOp32
 70
     1
102
RTVSPost2010Prop33
280
     0
102
RTVSPost2010PropOp33
 70
     1
102
RTVSPost2010Prop34
280
     0
102
RTVSPost2010PropOp34
 70
     1
102
RTVSPost2010Prop35
280
     0
102
RTVSPost2010PropOp35
 70
     1
102
RTVSPost2010Prop36
280
     0
102
RTVSPost2010PropOp36
 70
     1
102
RTVSPost2010Prop37
 90
       50
102
RTVSPost2010PropOp37
 70
     1
102
RTVSPost2010Prop38
140
0.0
102
RTVSPost2010PropOp38
 70
     1
102
RTVSPost2010Prop39
140
1.0
102
RTVSPost2010PropOp39
 70
     1
102
RTVSPost2010Prop40
 90
        0
102
RTVSPost2010PropOp40
 70
     1
102
RTVSPost2010Prop41ColorIndex
 90
       18
102
RTVSPost2010Prop41ColorRGB
 90
        0
102
RTVSPost2010PropOp41
 70
     1
102
RTVSPost2010Prop42
 90
       50
102
RTVSPost2010PropOp42
 70
     1
102
RTVSPost2010Prop43
 90
        3
102
RTVSPost2010PropOp43
 70
     1
102
RTVSPost2010Prop44ColorIndex
 90
        5
102
RTVSPost2010Prop44ColorRGB
 90
      255
102
RTVSPost2010PropOp44
 70
     1
102
RTVSPost2010Prop45
280
     0
102
RTVSPost2010PropOp45
 70
     1
102
RTVSPost2010Prop46
 90
       50
102
RTVSPost2010PropOp46
 70
     1
102
RTVSPost2010Prop47
 90
       50
102
RTVSPost2010PropOp47
 70
     1
102
RTVSPost2010Prop48
 90
       50
102
RTVSPost2010PropOp48
 70
     1
102
RTVSPost2010Prop49
280
     0
102
RTVSPost2010PropOp49
 70
     1
102
RTVSPost2010Prop50
 90
       50
102
RTVSPost2010PropOp50
 70
     1
102
RTVSPost2010Prop51ColorIndex
 90
      256
102
RTVSPost2010Prop51ColorRGB
 90
-16777216
102
RTVSPost2010PropOp51
 70
     0
102
RTVSPost2010Prop52
140
1.0
102
RTVSPost2010PropOp52
 70
     0
102
RTVSPost2010Prop53
 90
        2
102
RTVSPost2010PropOp53
 70
     1
102
RTVSPost2010Prop54
  1
strokes_ogs.tif
102
RTVSPost2010PropOp54
 70
     1
102
RTVSPost2010Prop55
280
     0
102
RTVSPost2010PropOp55
 70
     1
102
RTVSPost2010Prop56
140
1.0
102
RTVSPost2010PropOp56
 70
     1
102
RTVSPost2010Prop57
140
1.0
102
RTVSPost2010PropOp57
 70
     1
  0
XRECORD
  5
312
102
{ACAD_REACTORS
330
311
102
}
330
311
100
AcDbXrecord
280
     1
102
RTVSPropertyOp0
 70
     0
102
RTVSPropertyOp1
 70
     0
102
RTVSPropertyOp2
 70
     0
102
RTVSPropertyOp3
 70
     0
102
RTVSPropertyOp4
 70
     0
102
RTVSPropertyOp5
 70
     0
102
RTVSPropertyOp6
 70
     0
102
RTVSPropertyOp7
 70
     0
102
RTVSPropertyOp8
 70
     0
102
RTVSPropertyOp9
 70
     0
102
RTVSPropertyOp10
 70
     0
102
RTVSPropertyOp11
 70
     0
102
RTVSPropertyOp12
 70
     0
102
RTVSPropertyOp13
 70
     0
102
RTVSPropertyOp14
 70
     2
102
RTVSPropertyOp15
 70
     0
102
RTVSPropertyOp16
 70
     0
102
RTVSPropertyOp17
 70
     0
102
RTVSPropertyOp18
 70
     0
102
RTVSPropertyOp19
 70
     0
102
RTVSPropertyOp20
 70
     0
102
RTVSPropertyOp21
 70
     0
102
RTVSPropertyOp22
 70
     0
102
RTVSPropertyOp23
 70
     0
102
RTVSPropertyOp24
 70
     0
102
RTVSPropertyOp25
 70
     0
102
RTVSPropertyOp26
 70
     0
102
RTVSPropertyOp27
 70
     0
102
RTVSPropertyOp28
 70
     0
102
RTVSPropertyOp29
 70
     0
102
RTVSPropertyOp30
 70
     0
102
RTVSPropertyOp31
 70
     0
102
RTVSPropertyOp32
 70
     0
102
RTVSPropertyOp33
 70
     0
102
RTVSPropertyOp34
 70
     0
102
RTVSPropertyOp35
 70
     0
102
RTVSPropertyOp36
 70
     0
102
RTVSPropertyOp37
 70
     0
102
RTVSPropertyOp38
 70
     0
102
RTVSPropertyOp39
 70
     0
102
RTVSPropertyOp40
 70
     0
102
RTVSPropertyOp41
 70
     0
102
RTVSPropertyOp42
 70
     0
102
RTVSPropertyOp43
 70
     0
102
RTVSPropertyOp44
 70
     0
102
RTVSPropertyOp45
 70
     0
102
RTVSPropertyOp46
 70
     0
102
RTVSPropertyOp47
 70
     0
102
RTVSPropertyOp48
 70
     0
102
RTVSPropertyOp49
 70
     0
102
RTVSPropertyOp50
 70
     0
102
RTVSPropertyOp51
 70
     0
102
RTVSPropertyOp52
 70
     0
102
RTVSPropertyOp53
 70
     0
102
RTVSPropertyOp54
 70
     0
102
RTVSPropertyOp55
 70
     0
102
RTVSPropertyOp56
 70
     0
102
RTVSPropertyOp57
 70
     0
102
RTVSPost2010Prop28
280
     0
102
RTVSPost2010PropOp28
 70
     0
102
RTVSPost2010Prop29
280
     1
102
RTVSPost2010PropOp29
 70
     0
102
RTVSPost2010Prop30
280
     1
102
RTVSPost2010PropOp30
 70
     0
102
RTVSPost2010Prop31
280
     0
102
RTVSPost2010PropOp31
 70
     0
102
RTVSPost2010Prop32
280
     0
102
RTVSPost2010PropOp32
 70
     0
102
RTVSPost2010Prop33
280
     0
102
RTVSPost2010PropOp33
 70
     0
102
RTVSPost2010Prop34
280
     0
102
RTVSPost2010PropOp34
 70
     0
102
RTVSPost2010Prop35
280
     0
102
RTVSPost2010PropOp35
 70
     0
102
RTVSPost2010Prop36
280
     0
102
RTVSPost2010PropOp36
 70
     0
102
RTVSPost2010Prop37
 90
       50
102
RTVSPost2010PropOp37
 70
     0
102
RTVSPost2010Prop38
140
0.0
102
RTVSPost2010PropOp38
 70
     0
102
RTVSPost2010Prop39
140
1.0
102
RTVSPost2010PropOp39
 70
     0
102
RTVSPost2010Prop40
 90
        0
102
RTVSPost2010PropOp40
 70
     0
102
RTVSPost2010Prop41ColorIndex
 90
       18
102
RTVSPost2010Prop41ColorRGB
 90
        0
102
RTVSPost2010PropOp41
 70
     0
102
RTVSPost2010Prop42
 90
       50
102
RTVSPost2010PropOp42
 70
     0
102
RTVSPost2010Prop43
 90
        3
102
RTVSPost2010PropOp43
 70
     0
102
RTVSPost2010Prop44ColorIndex
 90
        5
102
RTVSPost2010Prop44ColorRGB
 90
      255
102
RTVSPost2010PropOp44
 70
     0
102
RTVSPost2010Prop45
280
     0
102
RTVSPost2010PropOp45
 70
     0
102
RTVSPost2010Prop46
 90
       50
102
RTVSPost2010PropOp46
 70
     0
102
RTVSPost2010Prop47
 90
       50
102
RTVSPost2010PropOp47
 70
     0
102
RTVSPost2010Prop48
 90
       50
102
RTVSPost2010PropOp48
 70
     0
102
RTVSPost2010Prop49
280
     0
102
RTVSPost2010PropOp49
 70
     0
102
RTVSPost2010Prop50
 90
       50
102
RTVSPost2010PropOp50
 70
     0
102
RTVSPost2010Prop51ColorIndex
 90
      256
102
RTVSPost2010Prop51ColorRGB
 90
-16777216
102
RTVSPost2010PropOp51
 70
     0
102
RTVSPost2010Prop52
140
1.0
102
RTVSPost2010PropOp52
 70
     0
102
RTVSPost2010Prop53
 90
        2
102
RTVSPost2010PropOp53
 70
     0
102
RTVSPost2010Prop54
  1
strokes_ogs.tif
102
RTVSPost2010PropOp54
 70
     0
102
RTVSPost2010Prop55
280
     0
102
RTVSPost2010PropOp55
 70
     0
102
RTVSPost2010Prop56
140
1.0
102
RTVSPost2010PropOp56
 70
     0
102
RTVSPost2010Prop57
140
1.0
102
RTVSPost2010PropOp57
 70
     0
  0
XRECORD
  5
30C
102
{ACAD_REACTORS
330
30B
102
}
330
30B
100
AcDbXrecord
280
     1
102
RTVSPropertyOp0
 70
     1
102
RTVSPropertyOp1
 70
     1
102
RTVSPropertyOp2
 70
     1
102
RTVSPropertyOp3
 70
     1
102
RTVSPropertyOp4
 70
     1
102
RTVSPropertyOp5
 70
     1
102
RTVSPropertyOp6
 70
     1
102
RTVSPropertyOp7
 70
     1
102
RTVSPropertyOp8
 70
     1
102
RTVSPropertyOp9
 70
     1
102
RTVSPropertyOp10
 70
     1
102
RTVSPropertyOp11
 70
     1
102
RTVSPropertyOp12
 70
     1
102
RTVSPropertyOp13
 70
     1
102
RTVSPropertyOp14
 70
     1
102
RTVSPropertyOp15
 70
     1
102
RTVSPropertyOp16
 70
     1
102
RTVSPropertyOp17
 70
     1
102
RTVSPropertyOp18
 70
     1
102
RTVSPropertyOp19
 70
     1
102
RTVSPropertyOp20
 70
     1
102
RTVSPropertyOp21
 70
     1
102
RTVSPropertyOp22
 70
     1
102
RTVSPropertyOp23
 70
     1
102
RTVSPropertyOp24
 70
     1
102
RTVSPropertyOp25
 70
     1
102
RTVSPropertyOp26
 70
     1
102
RTVSPropertyOp27
 70
     1
102
RTVSPropertyOp28
 70
     1
102
RTVSPropertyOp29
 70
     1
102
RTVSPropertyOp30
 70
     1
102
RTVSPropertyOp31
 70
     1
102
RTVSPropertyOp32
 70
     1
102
RTVSPropertyOp33
 70
     1
102
RTVSPropertyOp34
 70
     1
102
RTVSPropertyOp35
 70
     1
102
RTVSPropertyOp36
 70
     1
102
RTVSPropertyOp37
 70
     1
102
RTVSPropertyOp38
 70
     1
102
RTVSPropertyOp39
 70
     1
102
RTVSPropertyOp40
 70
     1
102
RTVSPropertyOp41
 70
     1
102
RTVSPropertyOp42
 70
     1
102
RTVSPropertyOp43
 70
     1
102
RTVSPropertyOp44
 70
     1
102
RTVSPropertyOp45
 70
     1
102
RTVSPropertyOp46
 70
     1
102
RTVSPropertyOp47
 70
     1
102
RTVSPropertyOp48
 70
     1
102
RTVSPropertyOp49
 70
     1
102
RTVSPropertyOp50
 70
     1
102
RTVSPropertyOp51
 70
     0
102
RTVSPropertyOp52
 70
     0
102
RTVSPropertyOp53
 70
     1
102
RTVSPropertyOp54
 70
     1
102
RTVSPropertyOp55
 70
     1
102
RTVSPropertyOp56
 70
     1
102
RTVSPropertyOp57
 70
     1
102
RTVSPost2010Prop28
280
     0
102
RTVSPost2010PropOp28
 70
     1
102
RTVSPost2010Prop29
280
     1
102
RTVSPost2010PropOp29
 70
     1
102
RTVSPost2010Prop30
280
     1
102
RTVSPost2010PropOp30
 70
     1
102
RTVSPost2010Prop31
280
     0
102
RTVSPost2010PropOp31
 70
     1
102
RTVSPost2010Prop32
280
     0
102
RTVSPost2010PropOp32
 70
     1
102
RTVSPost2010Prop33
280
     0
102
RTVSPost2010PropOp33
 70
     1
102
RTVSPost2010Prop34
280
     0
102
RTVSPost2010PropOp34
 70
     1
102
RTVSPost2010Prop35
280
     0
102
RTVSPost2010PropOp35
 70
     1
102
RTVSPost2010Prop36
280
     0
102
RTVSPost2010PropOp36
 70
     1
102
RTVSPost2010Prop37
 90
       50
102
RTVSPost2010PropOp37
 70
     1
102
RTVSPost2010Prop38
140
0.0
102
RTVSPost2010PropOp38
 70
     1
102
RTVSPost2010Prop39
140
1.0
102
RTVSPost2010PropOp39
 70
     1
102
RTVSPost2010Prop40
 90
        0
102
RTVSPost2010PropOp40
 70
     1
102
RTVSPost2010Prop41ColorIndex
 90
       18
102
RTVSPost2010Prop41ColorRGB
 90
        0
102
RTVSPost2010PropOp41
 70
     1
102
RTVSPost2010Prop42
 90
       50
102
RTVSPost2010PropOp42
 70
     1
102
RTVSPost2010Prop43
 90
        3
102
RTVSPost2010PropOp43
 70
     1
102
RTVSPost2010Prop44ColorIndex
 90
        5
102
RTVSPost2010Prop44ColorRGB
 90
      255
102
RTVSPost2010PropOp44
 70
     1
102
RTVSPost2010Prop45
280
     0
102
RTVSPost2010PropOp45
 70
     1
102
RTVSPost2010Prop46
 90
       50
102
RTVSPost2010PropOp46
 70
     1
102
RTVSPost2010Prop47
 90
       50
102
RTVSPost2010PropOp47
 70
     1
102
RTVSPost2010Prop48
 90
       50
102
RTVSPost2010PropOp48
 70
     1
102
RTVSPost2010Prop49
280
     0
102
RTVSPost2010PropOp49
 70
     1
102
RTVSPost2010Prop50
 90
       50
102
RTVSPost2010PropOp50
 70
     1
102
RTVSPost2010Prop51ColorIndex
 90
      256
102
RTVSPost2010Prop51ColorRGB
 90
-16777216
102
RTVSPost2010PropOp51
 70
     0
102
RTVSPost2010Prop52
140
1.0
102
RTVSPost2010PropOp52
 70
     0
102
RTVSPost2010Prop53
 90
        2
102
RTVSPost2010PropOp53
 70
     1
102
RTVSPost2010Prop54
  1
strokes_ogs.tif
102
RTVSPost2010PropOp54
 70
     1
102
RTVSPost2010Prop55
280
     0
102
RTVSPost2010PropOp55
 70
     1
102
RTVSPost2010Prop56
140
1.0
102
RTVSPost2010PropOp56
 70
     1
102
RTVSPost2010Prop57
140
1.0
102
RTVSPost2010PropOp57
 70
     1
  0
XRECORD
  5
314
102
{ACAD_REACTORS
330
313
102
}
330
313
100
AcDbXrecord
280
     1
102
RTVSPropertyOp0
 70
     0
102
RTVSPropertyOp1
 70
     0
102
RTVSPropertyOp2
 70
     0
102
RTVSPropertyOp3
 70
     0
102
RTVSPropertyOp4
 70
     0
102
RTVSPropertyOp5
 70
     0
102
RTVSPropertyOp6
 70
     0
102
RTVSPropertyOp7
 70
     0
102
RTVSPropertyOp8
 70
     0
102
RTVSPropertyOp9
 70
     0
102
RTVSPropertyOp10
 70
     0
102
RTVSPropertyOp11
 70
     0
102
RTVSPropertyOp12
 70
     0
102
RTVSPropertyOp13
 70
     0
102
RTVSPropertyOp14
 70
     2
102
RTVSPropertyOp15
 70
     0
102
RTVSPropertyOp16
 70
     0
102
RTVSPropertyOp17
 70
     0
102
RTVSPropertyOp18
 70
     0
102
RTVSPropertyOp19
 70
     0
102
RTVSPropertyOp20
 70
     0
102
RTVSPropertyOp21
 70
     0
102
RTVSPropertyOp22
 70
     0
102
RTVSPropertyOp23
 70
     0
102
RTVSPropertyOp24
 70
     0
102
RTVSPropertyOp25
 70
     0
102
RTVSPropertyOp26
 70
     0
102
RTVSPropertyOp27
 70
     0
102
RTVSPropertyOp28
 70
     0
102
RTVSPropertyOp29
 70
     0
102
RTVSPropertyOp30
 70
     0
102
RTVSPropertyOp31
 70
     0
102
RTVSPropertyOp32
 70
     0
102
RTVSPropertyOp33
 70
     0
102
RTVSPropertyOp34
 70
     0
102
RTVSPropertyOp35
 70
     0
102
RTVSPropertyOp36
 70
     0
102
RTVSPropertyOp37
 70
     0
102
RTVSPropertyOp38
 70
     0
102
RTVSPropertyOp39
 70
     0
102
RTVSPropertyOp40
 70
     0
102
RTVSPropertyOp41
 70
     0
102
RTVSPropertyOp42
 70
     0
102
RTVSPropertyOp43
 70
     0
102
RTVSPropertyOp44
 70
     0
102
RTVSPropertyOp45
 70
     0
102
RTVSPropertyOp46
 70
     0
102
RTVSPropertyOp47
 70
     0
102
RTVSPropertyOp48
 70
     0
102
RTVSPropertyOp49
 70
     0
102
RTVSPropertyOp50
 70
     0
102
RTVSPropertyOp51
 70
     0
102
RTVSPropertyOp52
 70
     0
102
RTVSPropertyOp53
 70
     0
102
RTVSPropertyOp54
 70
     0
102
RTVSPropertyOp55
 70
     0
102
RTVSPropertyOp56
 70
     0
102
RTVSPropertyOp57
 70
     0
102
RTVSPost2010Prop28
280
     0
102
RTVSPost2010PropOp28
 70
     0
102
RTVSPost2010Prop29
280
     1
102
RTVSPost2010PropOp29
 70
     0
102
RTVSPost2010Prop30
280
     1
102
RTVSPost2010PropOp30
 70
     0
102
RTVSPost2010Prop31
280
     0
102
RTVSPost2010PropOp31
 70
     0
102
RTVSPost2010Prop32
280
     0
102
RTVSPost2010PropOp32
 70
     0
102
RTVSPost2010Prop33
280
     0
102
RTVSPost2010PropOp33
 70
     0
102
RTVSPost2010Prop34
280
     0
102
RTVSPost2010PropOp34
 70
     0
102
RTVSPost2010Prop35
280
     0
102
RTVSPost2010PropOp35
 70
     0
102
RTVSPost2010Prop36
280
     0
102
RTVSPost2010PropOp36
 70
     0
102
RTVSPost2010Prop37
 90
       50
102
RTVSPost2010PropOp37
 70
     0
102
RTVSPost2010Prop38
140
0.0
102
RTVSPost2010PropOp38
 70
     0
102
RTVSPost2010Prop39
140
1.0
102
RTVSPost2010PropOp39
 70
     0
102
RTVSPost2010Prop40
 90
        0
102
RTVSPost2010PropOp40
 70
     0
102
RTVSPost2010Prop41ColorIndex
 90
       18
102
RTVSPost2010Prop41ColorRGB
 90
        0
102
RTVSPost2010PropOp41
 70
     0
102
RTVSPost2010Prop42
 90
       50
102
RTVSPost2010PropOp42
 70
     0
102
RTVSPost2010Prop43
 90
        3
102
RTVSPost2010PropOp43
 70
     0
102
RTVSPost2010Prop44ColorIndex
 90
        5
102
RTVSPost2010Prop44ColorRGB
 90
      255
102
RTVSPost2010PropOp44
 70
     0
102
RTVSPost2010Prop45
280
     0
102
RTVSPost2010PropOp45
 70
     0
102
RTVSPost2010Prop46
 90
       50
102
RTVSPost2010PropOp46
 70
     0
102
RTVSPost2010Prop47
 90
       50
102
RTVSPost2010PropOp47
 70
     0
102
RTVSPost2010Prop48
 90
       50
102
RTVSPost2010PropOp48
 70
     0
102
RTVSPost2010Prop49
280
     0
102
RTVSPost2010PropOp49
 70
     0
102
RTVSPost2010Prop50
 90
       50
102
RTVSPost2010PropOp50
 70
     0
102
RTVSPost2010Prop51ColorIndex
 90
      256
102
RTVSPost2010Prop51ColorRGB
 90
-16777216
102
RTVSPost2010PropOp51
 70
     0
102
RTVSPost2010Prop52
140
1.0
102
RTVSPost2010PropOp52
 70
     0
102
RTVSPost2010Prop53
 90
        2
102
RTVSPost2010PropOp53
 70
     0
102
RTVSPost2010Prop54
  1
strokes_ogs.tif
102
RTVSPost2010PropOp54
 70
     0
102
RTVSPost2010Prop55
280
     0
102
RTVSPost2010PropOp55
 70
     0
102
RTVSPost2010Prop56
140
1.0
102
RTVSPost2010PropOp56
 70
     0
102
RTVSPost2010Prop57
140
1.0
102
RTVSPost2010PropOp57
 70
     0
  0
XRECORD
  5
302
102
{ACAD_REACTORS
330
301
102
}
330
301
100
AcDbXrecord
280
     1
102
RTVSPropertyOp0
 70
     1
102
RTVSPropertyOp1
 70
     1
102
RTVSPropertyOp2
 70
     1
102
RTVSPropertyOp3
 70
     1
102
RTVSPropertyOp4
 70
     1
102
RTVSPropertyOp5
 70
     1
102
RTVSPropertyOp6
 70
     1
102
RTVSPropertyOp7
 70
     1
102
RTVSPropertyOp8
 70
     1
102
RTVSPropertyOp9
 70
     1
102
RTVSPropertyOp10
 70
     1
102
RTVSPropertyOp11
 70
     1
102
RTVSPropertyOp12
 70
     1
102
RTVSPropertyOp13
 70
     1
102
RTVSPropertyOp14
 70
     1
102
RTVSPropertyOp15
 70
     1
102
RTVSPropertyOp16
 70
     1
102
RTVSPropertyOp17
 70
     1
102
RTVSPropertyOp18
 70
     1
102
RTVSPropertyOp19
 70
     1
102
RTVSPropertyOp20
 70
     1
102
RTVSPropertyOp21
 70
     1
102
RTVSPropertyOp22
 70
     1
102
RTVSPropertyOp23
 70
     1
102
RTVSPropertyOp24
 70
     1
102
RTVSPropertyOp25
 70
     1
102
RTVSPropertyOp26
 70
     1
102
RTVSPropertyOp27
 70
     1
102
RTVSPropertyOp28
 70
     1
102
RTVSPropertyOp29
 70
     1
102
RTVSPropertyOp30
 70
     1
102
RTVSPropertyOp31
 70
     1
102
RTVSPropertyOp32
 70
     1
102
RTVSPropertyOp33
 70
     1
102
RTVSPropertyOp34
 70
     1
102
RTVSPropertyOp35
 70
     1
102
RTVSPropertyOp36
 70
     1
102
RTVSPropertyOp37
 70
     1
102
RTVSPropertyOp38
 70
     1
102
RTVSPropertyOp39
 70
     1
102
RTVSPropertyOp40
 70
     1
102
RTVSPropertyOp41
 70
     1
102
RTVSPropertyOp42
 70
     1
102
RTVSPropertyOp43
 70
     1
102
RTVSPropertyOp44
 70
     1
102
RTVSPropertyOp45
 70
     1
102
RTVSPropertyOp46
 70
     1
102
RTVSPropertyOp47
 70
     1
102
RTVSPropertyOp48
 70
     1
102
RTVSPropertyOp49
 70
     1
102
RTVSPropertyOp50
 70
     1
102
RTVSPropertyOp51
 70
     0
102
RTVSPropertyOp52
 70
     0
102
RTVSPropertyOp53
 70
     1
102
RTVSPropertyOp54
 70
     1
102
RTVSPropertyOp55
 70
     1
102
RTVSPropertyOp56
 70
     1
102
RTVSPropertyOp57
 70
     1
102
RTVSPost2010Prop28
280
     0
102
RTVSPost2010PropOp28
 70
     1
102
RTVSPost2010Prop29
280
     1
102
RTVSPost2010PropOp29
 70
     1
102
RTVSPost2010Prop30
280
     1
102
RTVSPost2010PropOp30
 70
     1
102
RTVSPost2010Prop31
280
     0
102
RTVSPost2010PropOp31
 70
     1
102
RTVSPost2010Prop32
280
     0
102
RTVSPost2010PropOp32
 70
     1
102
RTVSPost2010Prop33
280
     0
102
RTVSPost2010PropOp33
 70
     1
102
RTVSPost2010Prop34
280
     0
102
RTVSPost2010PropOp34
 70
     1
102
RTVSPost2010Prop35
280
     0
102
RTVSPost2010PropOp35
 70
     1
102
RTVSPost2010Prop36
280
     0
102
RTVSPost2010PropOp36
 70
     1
102
RTVSPost2010Prop37
 90
       50
102
RTVSPost2010PropOp37
 70
     1
102
RTVSPost2010Prop38
140
0.0
102
RTVSPost2010PropOp38
 70
     1
102
RTVSPost2010Prop39
140
1.0
102
RTVSPost2010PropOp39
 70
     1
102
RTVSPost2010Prop40
 90
        0
102
RTVSPost2010PropOp40
 70
     1
102
RTVSPost2010Prop41ColorIndex
 90
       18
102
RTVSPost2010Prop41ColorRGB
 90
        0
102
RTVSPost2010PropOp41
 70
     1
102
RTVSPost2010Prop42
 90
       50
102
RTVSPost2010PropOp42
 70
     1
102
RTVSPost2010Prop43
 90
        3
102
RTVSPost2010PropOp43
 70
     1
102
RTVSPost2010Prop44ColorIndex
 90
        5
102
RTVSPost2010Prop44ColorRGB
 90
      255
102
RTVSPost2010PropOp44
 70
     1
102
RTVSPost2010Prop45
280
     0
102
RTVSPost2010PropOp45
 70
     1
102
RTVSPost2010Prop46
 90
       50
102
RTVSPost2010PropOp46
 70
     1
102
RTVSPost2010Prop47
 90
       50
102
RTVSPost2010PropOp47
 70
     1
102
RTVSPost2010Prop48
 90
       50
102
RTVSPost2010PropOp48
 70
     1
102
RTVSPost2010Prop49
280
     0
102
RTVSPost2010PropOp49
 70
     1
102
RTVSPost2010Prop50
 90
       50
102
RTVSPost2010PropOp50
 70
     1
102
RTVSPost2010Prop51ColorIndex
 90
      256
102
RTVSPost2010Prop51ColorRGB
 90
-16777216
102
RTVSPost2010PropOp51
 70
     0
102
RTVSPost2010Prop52
140
1.0
102
RTVSPost2010PropOp52
 70
     0
102
RTVSPost2010Prop53
 90
        2
102
RTVSPost2010PropOp53
 70
     1
102
RTVSPost2010Prop54
  1
strokes_ogs.tif
102
RTVSPost2010PropOp54
 70
     1
102
RTVSPost2010Prop55
280
     0
102
RTVSPost2010PropOp55
 70
     1
102
RTVSPost2010Prop56
140
1.0
102
RTVSPost2010PropOp56
 70
     1
102
RTVSPost2010Prop57
140
1.0
102
RTVSPost2010PropOp57
 70
     1
  0
XRECORD
  5
320
102
{ACAD_REACTORS
330
31F
102
}
330
31F
100
AcDbXrecord
280
     1
102
RTVSPropertyOp0
 70
     1
102
RTVSPropertyOp1
 70
     1
102
RTVSPropertyOp2
 70
     1
102
RTVSPropertyOp3
 70
     1
102
RTVSPropertyOp4
 70
     1
102
RTVSPropertyOp5
 70
     1
102
RTVSPropertyOp6
 70
     1
102
RTVSPropertyOp7
 70
     1
102
RTVSPropertyOp8
 70
     1
102
RTVSPropertyOp9
 70
     1
102
RTVSPropertyOp10
 70
     1
102
RTVSPropertyOp11
 70
     1
102
RTVSPropertyOp12
 70
     1
102
RTVSPropertyOp13
 70
     1
102
RTVSPropertyOp14
 70
     1
102
RTVSPropertyOp15
 70
     1
102
RTVSPropertyOp16
 70
     1
102
RTVSPropertyOp17
 70
     1
102
RTVSPropertyOp18
 70
     1
102
RTVSPropertyOp19
 70
     1
102
RTVSPropertyOp20
 70
     1
102
RTVSPropertyOp21
 70
     1
102
RTVSPropertyOp22
 70
     1
102
RTVSPropertyOp23
 70
     1
102
RTVSPropertyOp24
 70
     1
102
RTVSPropertyOp25
 70
     1
102
RTVSPropertyOp26
 70
     1
102
RTVSPropertyOp27
 70
     1
102
RTVSPropertyOp28
 70
     1
102
RTVSPropertyOp29
 70
     1
102
RTVSPropertyOp30
 70
     1
102
RTVSPropertyOp31
 70
     1
102
RTVSPropertyOp32
 70
     1
102
RTVSPropertyOp33
 70
     1
102
RTVSPropertyOp34
 70
     1
102
RTVSPropertyOp35
 70
     1
102
RTVSPropertyOp36
 70
     1
102
RTVSPropertyOp37
 70
     1
102
RTVSPropertyOp38
 70
     1
102
RTVSPropertyOp39
 70
     1
102
RTVSPropertyOp40
 70
     1
102
RTVSPropertyOp41
 70
     1
102
RTVSPropertyOp42
 70
     1
102
RTVSPropertyOp43
 70
     1
102
RTVSPropertyOp44
 70
     1
102
RTVSPropertyOp45
 70
     1
102
RTVSPropertyOp46
 70
     1
102
RTVSPropertyOp47
 70
     1
102
RTVSPropertyOp48
 70
     1
102
RTVSPropertyOp49
 70
     1
102
RTVSPropertyOp50
 70
     1
102
RTVSPropertyOp51
 70
     0
102
RTVSPropertyOp52
 70
     0
102
RTVSPropertyOp53
 70
     1
102
RTVSPropertyOp54
 70
     1
102
RTVSPropertyOp55
 70
     1
102
RTVSPropertyOp56
 70
     1
102
RTVSPropertyOp57
 70
     1
102
RTVSPost2010Prop28
280
     0
102
RTVSPost2010PropOp28
 70
     1
102
RTVSPost2010Prop29
280
     1
102
RTVSPost2010PropOp29
 70
     1
102
RTVSPost2010Prop30
280
     1
102
RTVSPost2010PropOp30
 70
     1
102
RTVSPost2010Prop31
280
     0
102
RTVSPost2010PropOp31
 70
     1
102
RTVSPost2010Prop32
280
     0
102
RTVSPost2010PropOp32
 70
     1
102
RTVSPost2010Prop33
280
     0
102
RTVSPost2010PropOp33
 70
     1
102
RTVSPost2010Prop34
280
     0
102
RTVSPost2010PropOp34
 70
     1
102
RTVSPost2010Prop35
280
     0
102
RTVSPost2010PropOp35
 70
     1
102
RTVSPost2010Prop36
280
     0
102
RTVSPost2010PropOp36
 70
     1
102
RTVSPost2010Prop37
 90
       50
102
RTVSPost2010PropOp37
 70
     1
102
RTVSPost2010Prop38
140
0.0
102
RTVSPost2010PropOp38
 70
     1
102
RTVSPost2010Prop39
140
1.0
102
RTVSPost2010PropOp39
 70
     1
102
RTVSPost2010Prop40
 90
        0
102
RTVSPost2010PropOp40
 70
     1
102
RTVSPost2010Prop41ColorIndex
 90
       18
102
RTVSPost2010Prop41ColorRGB
 90
        0
102
RTVSPost2010PropOp41
 70
     1
102
RTVSPost2010Prop42
 90
       50
102
RTVSPost2010PropOp42
 70
     1
102
RTVSPost2010Prop43
 90
        3
102
RTVSPost2010PropOp43
 70
     1
102
RTVSPost2010Prop44ColorIndex
 90
        5
102
RTVSPost2010Prop44ColorRGB
 90
      255
102
RTVSPost2010PropOp44
 70
     1
102
RTVSPost2010Prop45
280
     0
102
RTVSPost2010PropOp45
 70
     1
102
RTVSPost2010Prop46
 90
       50
102
RTVSPost2010PropOp46
 70
     1
102
RTVSPost2010Prop47
 90
       50
102
RTVSPost2010PropOp47
 70
     1
102
RTVSPost2010Prop48
 90
       50
102
RTVSPost2010PropOp48
 70
     1
102
RTVSPost2010Prop49
280
     0
102
RTVSPost2010PropOp49
 70
     1
102
RTVSPost2010Prop50
 90
       50
102
RTVSPost2010PropOp50
 70
     1
102
RTVSPost2010Prop51ColorIndex
 90
      256
102
RTVSPost2010Prop51ColorRGB
 90
-16777216
102
RTVSPost2010PropOp51
 70
     0
102
RTVSPost2010Prop52
140
1.0
102
RTVSPost2010PropOp52
 70
     0
102
RTVSPost2010Prop53
 90
        2
102
RTVSPost2010PropOp53
 70
     1
102
RTVSPost2010Prop54
  1
strokes_ogs.tif
102
RTVSPost2010PropOp54
 70
     1
102
RTVSPost2010Prop55
280
     0
102
RTVSPost2010PropOp55
 70
     1
102
RTVSPost2010Prop56
140
1.0
102
RTVSPost2010PropOp56
 70
     1
102
RTVSPost2010Prop57
140
1.0
102
RTVSPost2010PropOp57
 70
     1
  0
XRECORD
  5
31E
102
{ACAD_REACTORS
330
31D
102
}
330
31D
100
AcDbXrecord
280
     1
102
RTVSPropertyOp0
 70
     1
102
RTVSPropertyOp1
 70
     1
102
RTVSPropertyOp2
 70
     1
102
RTVSPropertyOp3
 70
     1
102
RTVSPropertyOp4
 70
     1
102
RTVSPropertyOp5
 70
     1
102
RTVSPropertyOp6
 70
     1
102
RTVSPropertyOp7
 70
     1
102
RTVSPropertyOp8
 70
     1
102
RTVSPropertyOp9
 70
     1
102
RTVSPropertyOp10
 70
     1
102
RTVSPropertyOp11
 70
     1
102
RTVSPropertyOp12
 70
     1
102
RTVSPropertyOp13
 70
     1
102
RTVSPropertyOp14
 70
     1
102
RTVSPropertyOp15
 70
     1
102
RTVSPropertyOp16
 70
     1
102
RTVSPropertyOp17
 70
     1
102
RTVSPropertyOp18
 70
     1
102
RTVSPropertyOp19
 70
     1
102
RTVSPropertyOp20
 70
     1
102
RTVSPropertyOp21
 70
     1
102
RTVSPropertyOp22
 70
     1
102
RTVSPropertyOp23
 70
     1
102
RTVSPropertyOp24
 70
     1
102
RTVSPropertyOp25
 70
     1
102
RTVSPropertyOp26
 70
     1
102
RTVSPropertyOp27
 70
     1
102
RTVSPropertyOp28
 70
     1
102
RTVSPropertyOp29
 70
     1
102
RTVSPropertyOp30
 70
     1
102
RTVSPropertyOp31
 70
     1
102
RTVSPropertyOp32
 70
     1
102
RTVSPropertyOp33
 70
     1
102
RTVSPropertyOp34
 70
     1
102
RTVSPropertyOp35
 70
     1
102
RTVSPropertyOp36
 70
     1
102
RTVSPropertyOp37
 70
     1
102
RTVSPropertyOp38
 70
     1
102
RTVSPropertyOp39
 70
     1
102
RTVSPropertyOp40
 70
     1
102
RTVSPropertyOp41
 70
     1
102
RTVSPropertyOp42
 70
     1
102
RTVSPropertyOp43
 70
     1
102
RTVSPropertyOp44
 70
     1
102
RTVSPropertyOp45
 70
     1
102
RTVSPropertyOp46
 70
     1
102
RTVSPropertyOp47
 70
     1
102
RTVSPropertyOp48
 70
     1
102
RTVSPropertyOp49
 70
     1
102
RTVSPropertyOp50
 70
     1
102
RTVSPropertyOp51
 70
     0
102
RTVSPropertyOp52
 70
     0
102
RTVSPropertyOp53
 70
     1
102
RTVSPropertyOp54
 70
     1
102
RTVSPropertyOp55
 70
     1
102
RTVSPropertyOp56
 70
     1
102
RTVSPropertyOp57
 70
     1
102
RTVSPost2010Prop28
280
     0
102
RTVSPost2010PropOp28
 70
     1
102
RTVSPost2010Prop29
280
     1
102
RTVSPost2010PropOp29
 70
     1
102
RTVSPost2010Prop30
280
     1
102
RTVSPost2010PropOp30
 70
     1
102
RTVSPost2010Prop31
280
     0
102
RTVSPost2010PropOp31
 70
     1
102
RTVSPost2010Prop32
280
     0
102
RTVSPost2010PropOp32
 70
     1
102
RTVSPost2010Prop33
280
     0
102
RTVSPost2010PropOp33
 70
     1
102
RTVSPost2010Prop34
280
     0
102
RTVSPost2010PropOp34
 70
     1
102
RTVSPost2010Prop35
280
     0
102
RTVSPost2010PropOp35
 70
     1
102
RTVSPost2010Prop36
280
     0
102
RTVSPost2010PropOp36
 70
     1
102
RTVSPost2010Prop37
 90
       50
102
RTVSPost2010PropOp37
 70
     1
102
RTVSPost2010Prop38
140
0.0
102
RTVSPost2010PropOp38
 70
     1
102
RTVSPost2010Prop39
140
1.0
102
RTVSPost2010PropOp39
 70
     1
102
RTVSPost2010Prop40
 90
        0
102
RTVSPost2010PropOp40
 70
     1
102
RTVSPost2010Prop41ColorIndex
 90
       18
102
RTVSPost2010Prop41ColorRGB
 90
        0
102
RTVSPost2010PropOp41
 70
     1
102
RTVSPost2010Prop42
 90
       50
102
RTVSPost2010PropOp42
 70
     1
102
RTVSPost2010Prop43
 90
        3
102
RTVSPost2010PropOp43
 70
     1
102
RTVSPost2010Prop44ColorIndex
 90
        5
102
RTVSPost2010Prop44ColorRGB
 90
      255
102
RTVSPost2010PropOp44
 70
     1
102
RTVSPost2010Prop45
280
     0
102
RTVSPost2010PropOp45
 70
     1
102
RTVSPost2010Prop46
 90
       50
102
RTVSPost2010PropOp46
 70
     1
102
RTVSPost2010Prop47
 90
       50
102
RTVSPost2010PropOp47
 70
     1
102
RTVSPost2010Prop48
 90
       50
102
RTVSPost2010PropOp48
 70
     1
102
RTVSPost2010Prop49
280
     0
102
RTVSPost2010PropOp49
 70
     1
102
RTVSPost2010Prop50
 90
       50
102
RTVSPost2010PropOp50
 70
     1
102
RTVSPost2010Prop51ColorIndex
 90
      256
102
RTVSPost2010Prop51ColorRGB
 90
-16777216
102
RTVSPost2010PropOp51
 70
     0
102
RTVSPost2010Prop52
140
1.0
102
RTVSPost2010PropOp52
 70
     0
102
RTVSPost2010Prop53
 90
        2
102
RTVSPost2010PropOp53
 70
     1
102
RTVSPost2010Prop54
  1
strokes_ogs.tif
102
RTVSPost2010PropOp54
 70
     1
102
RTVSPost2010Prop55
280
     0
102
RTVSPost2010PropOp55
 70
     1
102
RTVSPost2010Prop56
140
1.0
102
RTVSPost2010PropOp56
 70
     1
102
RTVSPost2010Prop57
140
1.0
102
RTVSPost2010PropOp57
 70
     1
  0
XRECORD
  5
318
102
{ACAD_REACTORS
330
317
102
}
330
317
100
AcDbXrecord
280
     1
102
RTVSPropertyOp0
 70
     1
102
RTVSPropertyOp1
 70
     1
102
RTVSPropertyOp2
 70
     1
102
RTVSPropertyOp3
 70
     1
102
RTVSPropertyOp4
 70
     1
102
RTVSPropertyOp5
 70
     1
102
RTVSPropertyOp6
 70
     1
102
RTVSPropertyOp7
 70
     1
102
RTVSPropertyOp8
 70
     1
102
RTVSPropertyOp9
 70
     1
102
RTVSPropertyOp10
 70
     1
102
RTVSPropertyOp11
 70
     1
102
RTVSPropertyOp12
 70
     1
102
RTVSPropertyOp13
 70
     1
102
RTVSPropertyOp14
 70
     1
102
RTVSPropertyOp15
 70
     1
102
RTVSPropertyOp16
 70
     1
102
RTVSPropertyOp17
 70
     1
102
RTVSPropertyOp18
 70
     1
102
RTVSPropertyOp19
 70
     1
102
RTVSPropertyOp20
 70
     1
102
RTVSPropertyOp21
 70
     1
102
RTVSPropertyOp22
 70
     1
102
RTVSPropertyOp23
 70
     1
102
RTVSPropertyOp24
 70
     1
102
RTVSPropertyOp25
 70
     1
102
RTVSPropertyOp26
 70
     1
102
RTVSPropertyOp27
 70
     1
102
RTVSPropertyOp28
 70
     1
102
RTVSPropertyOp29
 70
     1
102
RTVSPropertyOp30
 70
     1
102
RTVSPropertyOp31
 70
     1
102
RTVSPropertyOp32
 70
     1
102
RTVSPropertyOp33
 70
     1
102
RTVSPropertyOp34
 70
     1
102
RTVSPropertyOp35
 70
     1
102
RTVSPropertyOp36
 70
     1
102
RTVSPropertyOp37
 70
     1
102
RTVSPropertyOp38
 70
     1
102
RTVSPropertyOp39
 70
     1
102
RTVSPropertyOp40
 70
     1
102
RTVSPropertyOp41
 70
     1
102
RTVSPropertyOp42
 70
     1
102
RTVSPropertyOp43
 70
     1
102
RTVSPropertyOp44
 70
     1
102
RTVSPropertyOp45
 70
     1
102
RTVSPropertyOp46
 70
     1
102
RTVSPropertyOp47
 70
     1
102
RTVSPropertyOp48
 70
     1
102
RTVSPropertyOp49
 70
     1
102
RTVSPropertyOp50
 70
     1
102
RTVSPropertyOp51
 70
     0
102
RTVSPropertyOp52
 70
     0
102
RTVSPropertyOp53
 70
     1
102
RTVSPropertyOp54
 70
     1
102
RTVSPropertyOp55
 70
     1
102
RTVSPropertyOp56
 70
     1
102
RTVSPropertyOp57
 70
     1
102
RTVSPost2010Prop28
280
     0
102
RTVSPost2010PropOp28
 70
     1
102
RTVSPost2010Prop29
280
     1
102
RTVSPost2010PropOp29
 70
     1
102
RTVSPost2010Prop30
280
     1
102
RTVSPost2010PropOp30
 70
     1
102
RTVSPost2010Prop31
280
     0
102
RTVSPost2010PropOp31
 70
     1
102
RTVSPost2010Prop32
280
     0
102
RTVSPost2010PropOp32
 70
     1
102
RTVSPost2010Prop33
280
     0
102
RTVSPost2010PropOp33
 70
     1
102
RTVSPost2010Prop34
280
     0
102
RTVSPost2010PropOp34
 70
     1
102
RTVSPost2010Prop35
280
     0
102
RTVSPost2010PropOp35
 70
     1
102
RTVSPost2010Prop36
280
     0
102
RTVSPost2010PropOp36
 70
     1
102
RTVSPost2010Prop37
 90
       50
102
RTVSPost2010PropOp37
 70
     1
102
RTVSPost2010Prop38
140
0.0
102
RTVSPost2010PropOp38
 70
     1
102
RTVSPost2010Prop39
140
1.0
102
RTVSPost2010PropOp39
 70
     1
102
RTVSPost2010Prop40
 90
        0
102
RTVSPost2010PropOp40
 70
     1
102
RTVSPost2010Prop41ColorIndex
 90
       18
102
RTVSPost2010Prop41ColorRGB
 90
        0
102
RTVSPost2010PropOp41
 70
     1
102
RTVSPost2010Prop42
 90
       50
102
RTVSPost2010PropOp42
 70
     1
102
RTVSPost2010Prop43
 90
        3
102
RTVSPost2010PropOp43
 70
     1
102
RTVSPost2010Prop44ColorIndex
 90
        5
102
RTVSPost2010Prop44ColorRGB
 90
      255
102
RTVSPost2010PropOp44
 70
     1
102
RTVSPost2010Prop45
280
     0
102
RTVSPost2010PropOp45
 70
     1
102
RTVSPost2010Prop46
 90
       50
102
RTVSPost2010PropOp46
 70
     1
102
RTVSPost2010Prop47
 90
       50
102
RTVSPost2010PropOp47
 70
     1
102
RTVSPost2010Prop48
 90
       50
102
RTVSPost2010PropOp48
 70
     1
102
RTVSPost2010Prop49
280
     0
102
RTVSPost2010PropOp49
 70
     1
102
RTVSPost2010Prop50
 90
       50
102
RTVSPost2010PropOp50
 70
     1
102
RTVSPost2010Prop51ColorIndex
 90
      256
102
RTVSPost2010Prop51ColorRGB
 90
-16777216
102
RTVSPost2010PropOp51
 70
     0
102
RTVSPost2010Prop52
140
1.0
102
RTVSPost2010PropOp52
 70
     0
102
RTVSPost2010Prop53
 90
        2
102
RTVSPost2010PropOp53
 70
     1
102
RTVSPost2010Prop54
  1
strokes_ogs.tif
102
RTVSPost2010PropOp54
 70
     1
102
RTVSPost2010Prop55
280
     0
102
RTVSPost2010PropOp55
 70
     1
102
RTVSPost2010Prop56
140
1.0
102
RTVSPost2010PropOp56
 70
     1
102
RTVSPost2010Prop57
140
1.0
102
RTVSPost2010PropOp57
 70
     1
  0
XRECORD
  5
31A
102
{ACAD_REACTORS
330
319
102
}
330
319
100
AcDbXrecord
280
     1
102
RTVSPropertyOp0
 70
     1
102
RTVSPropertyOp1
 70
     1
102
RTVSPropertyOp2
 70
     1
102
RTVSPropertyOp3
 70
     1
102
RTVSPropertyOp4
 70
     1
102
RTVSPropertyOp5
 70
     1
102
RTVSPropertyOp6
 70
     1
102
RTVSPropertyOp7
 70
     1
102
RTVSPropertyOp8
 70
     1
102
RTVSPropertyOp9
 70
     1
102
RTVSPropertyOp10
 70
     1
102
RTVSPropertyOp11
 70
     1
102
RTVSPropertyOp12
 70
     1
102
RTVSPropertyOp13
 70
     1
102
RTVSPropertyOp14
 70
     1
102
RTVSPropertyOp15
 70
     1
102
RTVSPropertyOp16
 70
     1
102
RTVSPropertyOp17
 70
     1
102
RTVSPropertyOp18
 70
     1
102
RTVSPropertyOp19
 70
     1
102
RTVSPropertyOp20
 70
     1
102
RTVSPropertyOp21
 70
     1
102
RTVSPropertyOp22
 70
     1
102
RTVSPropertyOp23
 70
     1
102
RTVSPropertyOp24
 70
     1
102
RTVSPropertyOp25
 70
     1
102
RTVSPropertyOp26
 70
     1
102
RTVSPropertyOp27
 70
     1
102
RTVSPropertyOp28
 70
     1
102
RTVSPropertyOp29
 70
     1
102
RTVSPropertyOp30
 70
     1
102
RTVSPropertyOp31
 70
     1
102
RTVSPropertyOp32
 70
     1
102
RTVSPropertyOp33
 70
     1
102
RTVSPropertyOp34
 70
     1
102
RTVSPropertyOp35
 70
     1
102
RTVSPropertyOp36
 70
     1
102
RTVSPropertyOp37
 70
     1
102
RTVSPropertyOp38
 70
     1
102
RTVSPropertyOp39
 70
     1
102
RTVSPropertyOp40
 70
     1
102
RTVSPropertyOp41
 70
     1
102
RTVSPropertyOp42
 70
     1
102
RTVSPropertyOp43
 70
     1
102
RTVSPropertyOp44
 70
     1
102
RTVSPropertyOp45
 70
     1
102
RTVSPropertyOp46
 70
     1
102
RTVSPropertyOp47
 70
     1
102
RTVSPropertyOp48
 70
     1
102
RTVSPropertyOp49
 70
     1
102
RTVSPropertyOp50
 70
     1
102
RTVSPropertyOp51
 70
     0
102
RTVSPropertyOp52
 70
     0
102
RTVSPropertyOp53
 70
     1
102
RTVSPropertyOp54
 70
     1
102
RTVSPropertyOp55
 70
     1
102
RTVSPropertyOp56
 70
     1
102
RTVSPropertyOp57
 70
     1
102
RTVSPost2010Prop28
280
     0
102
RTVSPost2010PropOp28
 70
     1
102
RTVSPost2010Prop29
280
     1
102
RTVSPost2010PropOp29
 70
     1
102
RTVSPost2010Prop30
280
     1
102
RTVSPost2010PropOp30
 70
     1
102
RTVSPost2010Prop31
280
     0
102
RTVSPost2010PropOp31
 70
     1
102
RTVSPost2010Prop32
280
     0
102
RTVSPost2010PropOp32
 70
     1
102
RTVSPost2010Prop33
280
     0
102
RTVSPost2010PropOp33
 70
     1
102
RTVSPost2010Prop34
280
     0
102
RTVSPost2010PropOp34
 70
     1
102
RTVSPost2010Prop35
280
     0
102
RTVSPost2010PropOp35
 70
     1
102
RTVSPost2010Prop36
280
     0
102
RTVSPost2010PropOp36
 70
     1
102
RTVSPost2010Prop37
 90
       50
102
RTVSPost2010PropOp37
 70
     1
102
RTVSPost2010Prop38
140
0.0
102
RTVSPost2010PropOp38
 70
     1
102
RTVSPost2010Prop39
140
1.0
102
RTVSPost2010PropOp39
 70
     1
102
RTVSPost2010Prop40
 90
        0
102
RTVSPost2010PropOp40
 70
     1
102
RTVSPost2010Prop41ColorIndex
 90
       18
102
RTVSPost2010Prop41ColorRGB
 90
        0
102
RTVSPost2010PropOp41
 70
     1
102
RTVSPost2010Prop42
 90
       50
102
RTVSPost2010PropOp42
 70
     1
102
RTVSPost2010Prop43
 90
        3
102
RTVSPost2010PropOp43
 70
     1
102
RTVSPost2010Prop44ColorIndex
 90
        5
102
RTVSPost2010Prop44ColorRGB
 90
      255
102
RTVSPost2010PropOp44
 70
     1
102
RTVSPost2010Prop45
280
     0
102
RTVSPost2010PropOp45
 70
     1
102
RTVSPost2010Prop46
 90
       50
102
RTVSPost2010PropOp46
 70
     1
102
RTVSPost2010Prop47
 90
       50
102
RTVSPost2010PropOp47
 70
     1
102
RTVSPost2010Prop48
 90
       50
102
RTVSPost2010PropOp48
 70
     1
102
RTVSPost2010Prop49
280
     0
102
RTVSPost2010PropOp49
 70
     1
102
RTVSPost2010Prop50
 90
       50
102
RTVSPost2010PropOp50
 70
     1
102
RTVSPost2010Prop51ColorIndex
 90
      256
102
RTVSPost2010Prop51ColorRGB
 90
-16777216
102
RTVSPost2010PropOp51
 70
     0
102
RTVSPost2010Prop52
140
1.0
102
RTVSPost2010PropOp52
 70
     0
102
RTVSPost2010Prop53
 90
        2
102
RTVSPost2010PropOp53
 70
     1
102
RTVSPost2010Prop54
  1
strokes_ogs.tif
102
RTVSPost2010PropOp54
 70
     1
102
RTVSPost2010Prop55
280
     0
102
RTVSPost2010PropOp55
 70
     1
102
RTVSPost2010Prop56
140
1.0
102
RTVSPost2010PropOp56
 70
     1
102
RTVSPost2010Prop57
140
1.0
102
RTVSPost2010PropOp57
 70
     1
  0
XRECORD
  5
30A
102
{ACAD_REACTORS
330
309
102
}
330
309
100
AcDbXrecord
280
     1
102
RTVSPropertyOp0
 70
     1
102
RTVSPropertyOp1
 70
     1
102
RTVSPropertyOp2
 70
     1
102
RTVSPropertyOp3
 70
     1
102
RTVSPropertyOp4
 70
     1
102
RTVSPropertyOp5
 70
     1
102
RTVSPropertyOp6
 70
     1
102
RTVSPropertyOp7
 70
     1
102
RTVSPropertyOp8
 70
     1
102
RTVSPropertyOp9
 70
     1
102
RTVSPropertyOp10
 70
     1
102
RTVSPropertyOp11
 70
     1
102
RTVSPropertyOp12
 70
     1
102
RTVSPropertyOp13
 70
     1
102
RTVSPropertyOp14
 70
     1
102
RTVSPropertyOp15
 70
     1
102
RTVSPropertyOp16
 70
     1
102
RTVSPropertyOp17
 70
     1
102
RTVSPropertyOp18
 70
     1
102
RTVSPropertyOp19
 70
     1
102
RTVSPropertyOp20
 70
     1
102
RTVSPropertyOp21
 70
     1
102
RTVSPropertyOp22
 70
     1
102
RTVSPropertyOp23
 70
     1
102
RTVSPropertyOp24
 70
     1
102
RTVSPropertyOp25
 70
     1
102
RTVSPropertyOp26
 70
     1
102
RTVSPropertyOp27
 70
     1
102
RTVSPropertyOp28
 70
     1
102
RTVSPropertyOp29
 70
     1
102
RTVSPropertyOp30
 70
     1
102
RTVSPropertyOp31
 70
     1
102
RTVSPropertyOp32
 70
     1
102
RTVSPropertyOp33
 70
     1
102
RTVSPropertyOp34
 70
     1
102
RTVSPropertyOp35
 70
     1
102
RTVSPropertyOp36
 70
     1
102
RTVSPropertyOp37
 70
     1
102
RTVSPropertyOp38
 70
     1
102
RTVSPropertyOp39
 70
     1
102
RTVSPropertyOp40
 70
     1
102
RTVSPropertyOp41
 70
     1
102
RTVSPropertyOp42
 70
     1
102
RTVSPropertyOp43
 70
     1
102
RTVSPropertyOp44
 70
     1
102
RTVSPropertyOp45
 70
     1
102
RTVSPropertyOp46
 70
     1
102
RTVSPropertyOp47
 70
     1
102
RTVSPropertyOp48
 70
     1
102
RTVSPropertyOp49
 70
     1
102
RTVSPropertyOp50
 70
     1
102
RTVSPropertyOp51
 70
     0
102
RTVSPropertyOp52
 70
     0
102
RTVSPropertyOp53
 70
     1
102
RTVSPropertyOp54
 70
     1
102
RTVSPropertyOp55
 70
     1
102
RTVSPropertyOp56
 70
     1
102
RTVSPropertyOp57
 70
     1
102
RTVSPost2010Prop28
280
     0
102
RTVSPost2010PropOp28
 70
     1
102
RTVSPost2010Prop29
280
     1
102
RTVSPost2010PropOp29
 70
     1
102
RTVSPost2010Prop30
280
     1
102
RTVSPost2010PropOp30
 70
     1
102
RTVSPost2010Prop31
280
     0
102
RTVSPost2010PropOp31
 70
     1
102
RTVSPost2010Prop32
280
     0
102
RTVSPost2010PropOp32
 70
     1
102
RTVSPost2010Prop33
280
     0
102
RTVSPost2010PropOp33
 70
     1
102
RTVSPost2010Prop34
280
     0
102
RTVSPost2010PropOp34
 70
     1
102
RTVSPost2010Prop35
280
     0
102
RTVSPost2010PropOp35
 70
     1
102
RTVSPost2010Prop36
280
     0
102
RTVSPost2010PropOp36
 70
     1
102
RTVSPost2010Prop37
 90
       50
102
RTVSPost2010PropOp37
 70
     1
102
RTVSPost2010Prop38
140
0.0
102
RTVSPost2010PropOp38
 70
     1
102
RTVSPost2010Prop39
140
1.0
102
RTVSPost2010PropOp39
 70
     1
102
RTVSPost2010Prop40
 90
        0
102
RTVSPost2010PropOp40
 70
     1
102
RTVSPost2010Prop41ColorIndex
 90
       18
102
RTVSPost2010Prop41ColorRGB
 90
        0
102
RTVSPost2010PropOp41
 70
     1
102
RTVSPost2010Prop42
 90
       50
102
RTVSPost2010PropOp42
 70
     1
102
RTVSPost2010Prop43
 90
        3
102
RTVSPost2010PropOp43
 70
     1
102
RTVSPost2010Prop44ColorIndex
 90
        5
102
RTVSPost2010Prop44ColorRGB
 90
      255
102
RTVSPost2010PropOp44
 70
     1
102
RTVSPost2010Prop45
280
     0
102
RTVSPost2010PropOp45
 70
     1
102
RTVSPost2010Prop46
 90
       50
102
RTVSPost2010PropOp46
 70
     1
102
RTVSPost2010Prop47
 90
       50
102
RTVSPost2010PropOp47
 70
     1
102
RTVSPost2010Prop48
 90
       50
102
RTVSPost2010PropOp48
 70
     1
102
RTVSPost2010Prop49
280
     0
102
RTVSPost2010PropOp49
 70
     1
102
RTVSPost2010Prop50
 90
       50
102
RTVSPost2010PropOp50
 70
     1
102
RTVSPost2010Prop51ColorIndex
 90
      256
102
RTVSPost2010Prop51ColorRGB
 90
-16777216
102
RTVSPost2010PropOp51
 70
     0
102
RTVSPost2010Prop52
140
1.0
102
RTVSPost2010PropOp52
 70
     0
102
RTVSPost2010Prop53
 90
        2
102
RTVSPost2010PropOp53
 70
     1
102
RTVSPost2010Prop54
  1
strokes_ogs.tif
102
RTVSPost2010PropOp54
 70
     1
102
RTVSPost2010Prop55
280
     0
102
RTVSPost2010PropOp55
 70
     1
102
RTVSPost2010Prop56
140
1.0
102
RTVSPost2010PropOp56
 70
     1
102
RTVSPost2010Prop57
140
1.0
102
RTVSPost2010PropOp57
 70
     1
  0
XRECORD
  5
2FC
102
{ACAD_REACTORS
330
2FB
102
}
330
2FB
100
AcDbXrecord
280
     1
102
RTVSPropertyOp0
 70
     1
102
RTVSPropertyOp1
 70
     1
102
RTVSPropertyOp2
 70
     1
102
RTVSPropertyOp3
 70
     1
102
RTVSPropertyOp4
 70
     1
102
RTVSPropertyOp5
 70
     1
102
RTVSPropertyOp6
 70
     1
102
RTVSPropertyOp7
 70
     1
102
RTVSPropertyOp8
 70
     1
102
RTVSPropertyOp9
 70
     1
102
RTVSPropertyOp10
 70
     1
102
RTVSPropertyOp11
 70
     1
102
RTVSPropertyOp12
 70
     1
102
RTVSPropertyOp13
 70
     1
102
RTVSPropertyOp14
 70
     1
102
RTVSPropertyOp15
 70
     1
102
RTVSPropertyOp16
 70
     1
102
RTVSPropertyOp17
 70
     1
102
RTVSPropertyOp18
 70
     1
102
RTVSPropertyOp19
 70
     1
102
RTVSPropertyOp20
 70
     1
102
RTVSPropertyOp21
 70
     1
102
RTVSPropertyOp22
 70
     1
102
RTVSPropertyOp23
 70
     1
102
RTVSPropertyOp24
 70
     1
102
RTVSPropertyOp25
 70
     1
102
RTVSPropertyOp26
 70
     1
102
RTVSPropertyOp27
 70
     1
102
RTVSPropertyOp28
 70
     1
102
RTVSPropertyOp29
 70
     1
102
RTVSPropertyOp30
 70
     1
102
RTVSPropertyOp31
 70
     1
102
RTVSPropertyOp32
 70
     1
102
RTVSPropertyOp33
 70
     1
102
RTVSPropertyOp34
 70
     1
102
RTVSPropertyOp35
 70
     1
102
RTVSPropertyOp36
 70
     1
102
RTVSPropertyOp37
 70
     1
102
RTVSPropertyOp38
 70
     1
102
RTVSPropertyOp39
 70
     1
102
RTVSPropertyOp40
 70
     1
102
RTVSPropertyOp41
 70
     1
102
RTVSPropertyOp42
 70
     1
102
RTVSPropertyOp43
 70
     1
102
RTVSPropertyOp44
 70
     1
102
RTVSPropertyOp45
 70
     1
102
RTVSPropertyOp46
 70
     1
102
RTVSPropertyOp47
 70
     1
102
RTVSPropertyOp48
 70
     1
102
RTVSPropertyOp49
 70
     1
102
RTVSPropertyOp50
 70
     1
102
RTVSPropertyOp51
 70
     0
102
RTVSPropertyOp52
 70
     0
102
RTVSPropertyOp53
 70
     1
102
RTVSPropertyOp54
 70
     1
102
RTVSPropertyOp55
 70
     1
102
RTVSPropertyOp56
 70
     1
102
RTVSPropertyOp57
 70
     1
102
RTVSPost2010Prop28
280
     0
102
RTVSPost2010PropOp28
 70
     1
102
RTVSPost2010Prop29
280
     1
102
RTVSPost2010PropOp29
 70
     1
102
RTVSPost2010Prop30
280
     1
102
RTVSPost2010PropOp30
 70
     1
102
RTVSPost2010Prop31
280
     0
102
RTVSPost2010PropOp31
 70
     1
102
RTVSPost2010Prop32
280
     0
102
RTVSPost2010PropOp32
 70
     1
102
RTVSPost2010Prop33
280
     0
102
RTVSPost2010PropOp33
 70
     1
102
RTVSPost2010Prop34
280
     0
102
RTVSPost2010PropOp34
 70
     1
102
RTVSPost2010Prop35
280
     0
102
RTVSPost2010PropOp35
 70
     1
102
RTVSPost2010Prop36
280
     0
102
RTVSPost2010PropOp36
 70
     1
102
RTVSPost2010Prop37
 90
       50
102
RTVSPost2010PropOp37
 70
     1
102
RTVSPost2010Prop38
140
0.0
102
RTVSPost2010PropOp38
 70
     1
102
RTVSPost2010Prop39
140
1.0
102
RTVSPost2010PropOp39
 70
     1
102
RTVSPost2010Prop40
 90
        0
102
RTVSPost2010PropOp40
 70
     1
102
RTVSPost2010Prop41ColorIndex
 90
       18
102
RTVSPost2010Prop41ColorRGB
 90
        0
102
RTVSPost2010PropOp41
 70
     1
102
RTVSPost2010Prop42
 90
       50
102
RTVSPost2010PropOp42
 70
     1
102
RTVSPost2010Prop43
 90
        3
102
RTVSPost2010PropOp43
 70
     1
102
RTVSPost2010Prop44ColorIndex
 90
        5
102
RTVSPost2010Prop44ColorRGB
 90
      255
102
RTVSPost2010PropOp44
 70
     1
102
RTVSPost2010Prop45
280
     0
102
RTVSPost2010PropOp45
 70
     1
102
RTVSPost2010Prop46
 90
       50
102
RTVSPost2010PropOp46
 70
     1
102
RTVSPost2010Prop47
 90
       50
102
RTVSPost2010PropOp47
 70
     1
102
RTVSPost2010Prop48
 90
       50
102
RTVSPost2010PropOp48
 70
     1
102
RTVSPost2010Prop49
280
     0
102
RTVSPost2010PropOp49
 70
     1
102
RTVSPost2010Prop50
 90
       50
102
RTVSPost2010PropOp50
 70
     1
102
RTVSPost2010Prop51ColorIndex
 90
      256
102
RTVSPost2010Prop51ColorRGB
 90
-16777216
102
RTVSPost2010PropOp51
 70
     0
102
RTVSPost2010Prop52
140
1.0
102
RTVSPost2010PropOp52
 70
     0
102
RTVSPost2010Prop53
 90
        2
102
RTVSPost2010PropOp53
 70
     1
102
RTVSPost2010Prop54
  1
strokes_ogs.tif
102
RTVSPost2010PropOp54
 70
     1
102
RTVSPost2010Prop55
280
     0
102
RTVSPost2010PropOp55
 70
     1
102
RTVSPost2010Prop56
140
1.0
102
RTVSPost2010PropOp56
 70
     1
102
RTVSPost2010Prop57
140
1.0
102
RTVSPost2010PropOp57
 70
     1
  0
XRECORD
  5
31C
102
{ACAD_REACTORS
330
31B
102
}
330
31B
100
AcDbXrecord
280
     1
102
RTVSPropertyOp0
 70
     1
102
RTVSPropertyOp1
 70
     1
102
RTVSPropertyOp2
 70
     1
102
RTVSPropertyOp3
 70
     1
102
RTVSPropertyOp4
 70
     1
102
RTVSPropertyOp5
 70
     1
102
RTVSPropertyOp6
 70
     1
102
RTVSPropertyOp7
 70
     1
102
RTVSPropertyOp8
 70
     1
102
RTVSPropertyOp9
 70
     1
102
RTVSPropertyOp10
 70
     1
102
RTVSPropertyOp11
 70
     1
102
RTVSPropertyOp12
 70
     1
102
RTVSPropertyOp13
 70
     1
102
RTVSPropertyOp14
 70
     1
102
RTVSPropertyOp15
 70
     1
102
RTVSPropertyOp16
 70
     1
102
RTVSPropertyOp17
 70
     1
102
RTVSPropertyOp18
 70
     1
102
RTVSPropertyOp19
 70
     1
102
RTVSPropertyOp20
 70
     1
102
RTVSPropertyOp21
 70
     1
102
RTVSPropertyOp22
 70
     1
102
RTVSPropertyOp23
 70
     1
102
RTVSPropertyOp24
 70
     1
102
RTVSPropertyOp25
 70
     1
102
RTVSPropertyOp26
 70
     1
102
RTVSPropertyOp27
 70
     1
102
RTVSPropertyOp28
 70
     1
102
RTVSPropertyOp29
 70
     1
102
RTVSPropertyOp30
 70
     1
102
RTVSPropertyOp31
 70
     1
102
RTVSPropertyOp32
 70
     1
102
RTVSPropertyOp33
 70
     1
102
RTVSPropertyOp34
 70
     1
102
RTVSPropertyOp35
 70
     1
102
RTVSPropertyOp36
 70
     1
102
RTVSPropertyOp37
 70
     1
102
RTVSPropertyOp38
 70
     1
102
RTVSPropertyOp39
 70
     1
102
RTVSPropertyOp40
 70
     1
102
RTVSPropertyOp41
 70
     1
102
RTVSPropertyOp42
 70
     1
102
RTVSPropertyOp43
 70
     1
102
RTVSPropertyOp44
 70
     1
102
RTVSPropertyOp45
 70
     1
102
RTVSPropertyOp46
 70
     1
102
RTVSPropertyOp47
 70
     1
102
RTVSPropertyOp48
 70
     1
102
RTVSPropertyOp49
 70
     1
102
RTVSPropertyOp50
 70
     1
102
RTVSPropertyOp51
 70
     0
102
RTVSPropertyOp52
 70
     0
102
RTVSPropertyOp53
 70
     1
102
RTVSPropertyOp54
 70
     1
102
RTVSPropertyOp55
 70
     1
102
RTVSPropertyOp56
 70
     1
102
RTVSPropertyOp57
 70
     1
102
RTVSPost2010Prop28
280
     0
102
RTVSPost2010PropOp28
 70
     1
102
RTVSPost2010Prop29
280
     1
102
RTVSPost2010PropOp29
 70
     1
102
RTVSPost2010Prop30
280
     1
102
RTVSPost2010PropOp30
 70
     1
102
RTVSPost2010Prop31
280
     0
102
RTVSPost2010PropOp31
 70
     1
102
RTVSPost2010Prop32
280
     0
102
RTVSPost2010PropOp32
 70
     1
102
RTVSPost2010Prop33
280
     0
102
RTVSPost2010PropOp33
 70
     1
102
RTVSPost2010Prop34
280
     0
102
RTVSPost2010PropOp34
 70
     1
102
RTVSPost2010Prop35
280
     0
102
RTVSPost2010PropOp35
 70
     1
102
RTVSPost2010Prop36
280
     0
102
RTVSPost2010PropOp36
 70
     1
102
RTVSPost2010Prop37
 90
       50
102
RTVSPost2010PropOp37
 70
     1
102
RTVSPost2010Prop38
140
0.0
102
RTVSPost2010PropOp38
 70
     1
102
RTVSPost2010Prop39
140
1.0
102
RTVSPost2010PropOp39
 70
     1
102
RTVSPost2010Prop40
 90
        0
102
RTVSPost2010PropOp40
 70
     1
102
RTVSPost2010Prop41ColorIndex
 90
       18
102
RTVSPost2010Prop41ColorRGB
 90
        0
102
RTVSPost2010PropOp41
 70
     1
102
RTVSPost2010Prop42
 90
       50
102
RTVSPost2010PropOp42
 70
     1
102
RTVSPost2010Prop43
 90
        3
102
RTVSPost2010PropOp43
 70
     1
102
RTVSPost2010Prop44ColorIndex
 90
        5
102
RTVSPost2010Prop44ColorRGB
 90
      255
102
RTVSPost2010PropOp44
 70
     1
102
RTVSPost2010Prop45
280
     0
102
RTVSPost2010PropOp45
 70
     1
102
RTVSPost2010Prop46
 90
       50
102
RTVSPost2010PropOp46
 70
     1
102
RTVSPost2010Prop47
 90
       50
102
RTVSPost2010PropOp47
 70
     1
102
RTVSPost2010Prop48
 90
       50
102
RTVSPost2010PropOp48
 70
     1
102
RTVSPost2010Prop49
280
     0
102
RTVSPost2010PropOp49
 70
     1
102
RTVSPost2010Prop50
 90
       50
102
RTVSPost2010PropOp50
 70
     1
102
RTVSPost2010Prop51ColorIndex
 90
      256
102
RTVSPost2010Prop51ColorRGB
 90
-16777216
102
RTVSPost2010PropOp51
 70
     0
102
RTVSPost2010Prop52
140
1.0
102
RTVSPost2010PropOp52
 70
     0
102
RTVSPost2010Prop53
 90
        2
102
RTVSPost2010PropOp53
 70
     1
102
RTVSPost2010Prop54
  1
strokes_ogs.tif
102
RTVSPost2010PropOp54
 70
     1
102
RTVSPost2010Prop55
280
     0
102
RTVSPost2010PropOp55
 70
     1
102
RTVSPost2010Prop56
140
1.0
102
RTVSPost2010PropOp56
 70
     1
102
RTVSPost2010Prop57
140
1.0
102
RTVSPost2010PropOp57
 70
     1
  0
ENDSEC
  0
EOF
