  0
SECTION
  2
HEADER
  9
$ACADVER
  1
AC1018
  9
$ACADMAINTVER
 70
     0
  9
$DWGCODEPAGE
  3
ANSI_1252
  9
$INSBASE
 10
0.0
 20
0.0
 30
0.0
  9
$EXTMIN
 10
-241.9835079944136
 20
1.4260382236958
 30
0.0
  9
$EXTMAX
 10
55.01649200558447
 20
211.4260382236959
 30
0.0
  9
$LIMMIN
 10
0.0
 20
0.0
  9
$LIMMAX
 10
12.0
 20
9.0
  9
$ORTHOMODE
 70
     0
  9
$REGENMODE
 70
     1
  9
$FILLMODE
 70
     1
  9
$QTEXTMODE
 70
     0
  9
$MIRRTEXT
 70
     1
  9
$LTSCALE
 40
1.0
  9
$ATTMODE
 70
     1
  9
$TEXTSIZE
 40
0.2
  9
$TRACEWID
 40
0.05
  9
$TEXTSTYLE
  7
Standard
  9
$CLAYER
  8
0
  9
$CELTYPE
  6
ByLayer
  9
$CECOLOR
 62
   256
  9
$CELTSCALE
 40
1.0
  9
$DISPSILH
 70
     0
  9
$DIMSCALE
 40
1.0
  9
$DIMASZ
 40
0.18
  9
$DIMEXO
 40
0.0625
  9
$DIMDLI
 40
0.38
  9
$DIMRND
 40
0.0
  9
$DIMDLE
 40
0.0
  9
$DIMEXE
 40
0.18
  9
$DIMTP
 40
0.0
  9
$DIMTM
 40
0.0
  9
$DIMTXT
 40
0.18
  9
$DIMCEN
 40
0.09
  9
$DIMTSZ
 40
0.0
  9
$DIMTOL
 70
     0
  9
$DIMLIM
 70
     0
  9
$DIMTIH
 70
     1
  9
$DIMTOH
 70
     1
  9
$DIMSE1
 70
     0
  9
$DIMSE2
 70
     0
  9
$DIMTAD
 70
     0
  9
$DIMZIN
 70
     0
  9
$DIMBLK
  1

  9
$DIMASO
 70
     1
  9
$DIMSHO
 70
     1
  9
$DIMPOST
  1

  9
$DIMAPOST
  1

  9
$DIMALT
 70
     0
  9
$DIMALTD
 70
     2
  9
$DIMALTF
 40
25.4
  9
$DIMLFAC
 40
1.0
  9
$DIMTOFL
 70
     0
  9
$DIMTVP
 40
0.0
  9
$DIMTIX
 70
     0
  9
$DIMSOXD
 70
     0
  9
$DIMSAH
 70
     0
  9
$DIMBLK1
  1

  9
$DIMBLK2
  1

  9
$DIMSTYLE
  2
Standard
  9
$DIMCLRD
 70
     0
  9
$DIMCLRE
 70
     0
  9
$DIMCLRT
 70
     0
  9
$DIMTFAC
 40
1.0
  9
$DIMGAP
 40
0.09
  9
$DIMJUST
 70
     0
  9
$DIMSD1
 70
     0
  9
$DIMSD2
 70
     0
  9
$DIMTOLJ
 70
     1
  9
$DIMTZIN
 70
     0
  9
$DIMALTZ
 70
     0
  9
$DIMALTTZ
 70
     0
  9
$DIMUPT
 70
     0
  9
$DIMDEC
 70
     4
  9
$DIMTDEC
 70
     4
  9
$DIMALTU
 70
     2
  9
$DIMALTTD
 70
     2
  9
$DIMTXSTY
  7
Standard
  9
$DIMAUNIT
 70
     0
  9
$DIMADEC
 70
     0
  9
$DIMALTRND
 40
0.0
  9
$DIMAZIN
 70
     0
  9
$DIMDSEP
 70
    46
  9
$DIMATFIT
 70
     3
  9
$DIMFRAC
 70
     0
  9
$DIMLDRBLK
  1

  9
$DIMLUNIT
 70
     2
  9
$DIMLWD
 70
    -2
  9
$DIMLWE
 70
    -2
  9
$DIMTMOVE
 70
     0
  9
$LUNITS
 70
     2
  9
$LUPREC
 70
     4
  9
$SKETCHINC
 40
0.1
  9
$FILLETRAD
 40
0.5
  9
$AUNITS
 70
     0
  9
$AUPREC
 70
     0
  9
$MENU
  1
.
  9
$ELEVATION
 40
0.0
  9
$PELEVATION
 40
0.0
  9
$THICKNESS
 40
0.0
  9
$LIMCHECK
 70
     0
  9
$CHAMFERA
 40
0.5
  9
$CHAMFERB
 40
0.5
  9
$CHAMFERC
 40
1.0
  9
$CHAMFERD
 40
0.0
  9
$SKPOLY
 70
     0
  9
$TDCREATE
 40
2458194.257033056
  9
$TDUCREATE
 40
2458194.215366389
  9
$TDUPDATE
 40
2458194.2570336
  9
$TDUUPDATE
 40
2458194.215366933
  9
$TDINDWG
 40
0.0000000116
  9
$TDUSRTIMER
 40
0.0000000116
  9
$USRTIMER
 70
     1
  9
$ANGBASE
 50
0.0
  9
$ANGDIR
 70
     0
  9
$PDMODE
 70
     0
  9
$PDSIZE
 40
0.0
  9
$PLINEWID
 40
0.0
  9
$SPLFRAME
 70
     0
  9
$SPLINETYPE
 70
     6
  9
$SPLINESEGS
 70
     8
  9
$HANDSEED
  5
2A8
  9
$SURFTAB1
 70
     6
  9
$SURFTAB2
 70
     6
  9
$SURFTYPE
 70
     6
  9
$SURFU
 70
     6
  9
$SURFV
 70
     6
  9
$UCSBASE
  2

  9
$UCSNAME
  2

  9
$UCSORG
 10
0.0
 20
0.0
 30
0.0
  9
$UCSXDIR
 10
1.0
 20
0.0
 30
0.0
  9
$UCSYDIR
 10
0.0
 20
1.0
 30
0.0
  9
$UCSORTHOREF
  2

  9
$UCSORTHOVIEW
 70
     0
  9
$UCSORGTOP
 10
0.0
 20
0.0
 30
0.0
  9
$UCSORGBOTTOM
 10
0.0
 20
0.0
 30
0.0
  9
$UCSORGLEFT
 10
0.0
 20
0.0
 30
0.0
  9
$UCSORGRIGHT
 10
0.0
 20
0.0
 30
0.0
  9
$UCSORGFRONT
 10
0.0
 20
0.0
 30
0.0
  9
$UCSORGBACK
 10
0.0
 20
0.0
 30
0.0
  9
$PUCSBASE
  2

  9
$PUCSNAME
  2

  9
$PUCSORG
 10
0.0
 20
0.0
 30
0.0
  9
$PUCSXDIR
 10
1.0
 20
0.0
 30
0.0
  9
$PUCSYDIR
 10
0.0
 20
1.0
 30
0.0
  9
$PUCSORTHOREF
  2

  9
$PUCSORTHOVIEW
 70
     0
  9
$PUCSORGTOP
 10
0.0
 20
0.0
 30
0.0
  9
$PUCSORGBOTTOM
 10
0.0
 20
0.0
 30
0.0
  9
$PUCSORGLEFT
 10
0.0
 20
0.0
 30
0.0
  9
$PUCSORGRIGHT
 10
0.0
 20
0.0
 30
0.0
  9
$PUCSORGFRONT
 10
0.0
 20
0.0
 30
0.0
  9
$PUCSORGBACK
 10
0.0
 20
0.0
 30
0.0
  9
$USERI1
 70
     0
  9
$USERI2
 70
     0
  9
$USERI3
 70
     0
  9
$USERI4
 70
     0
  9
$USERI5
 70
     0
  9
$USERR1
 40
18.1
  9
$USERR2
 40
0.0
  9
$USERR3
 40
0.0
  9
$USERR4
 40
0.0
  9
$USERR5
 40
0.0
  9
$WORLDVIEW
 70
     1
  9
$SHADEDGE
 70
     3
  9
$SHADEDIF
 70
    70
  9
$TILEMODE
 70
     1
  9
$MAXACTVP
 70
    64
  9
$PINSBASE
 10
0.0
 20
0.0
 30
0.0
  9
$PLIMCHECK
 70
     0
  9
$PEXTMIN
 10
1.00000000000000E+20
 20
1.00000000000000E+20
 30
1.00000000000000E+20
  9
$PEXTMAX
 10
-1.00000000000000E+20
 20
-1.00000000000000E+20
 30
-1.00000000000000E+20
  9
$PLIMMIN
 10
0.0
 20
0.0
  9
$PLIMMAX
 10
12.0
 20
9.0
  9
$UNITMODE
 70
     0
  9
$VISRETAIN
 70
     1
  9
$PLINEGEN
 70
     0
  9
$PSLTSCALE
 70
     1
  9
$TREEDEPTH
 70
  3020
  9
$CMLSTYLE
  2
Standard
  9
$CMLJUST
 70
     0
  9
$CMLSCALE
 40
1.0
  9
$PROXYGRAPHICS
 70
     1
  9
$MEASUREMENT
 70
     1
  9
$CELWEIGHT
370
    -1
  9
$ENDCAPS
280
     0
  9
$JOINSTYLE
280
     0
  9
$LWDISPLAY
290
     0
  9
$INSUNITS
 70
     4
  9
$HYPERLINKBASE
  1

  9
$STYLESHEET
  1

  9
$XEDIT
290
     1
  9
$CEPSNTYPE
380
     0
  9
$PSTYLEMODE
290
     1
  9
$FINGERPRINTGUID
  2
{343EEA4F-658B-42EA-A3CF-FEF17E9B358F}
  9
$VERSIONGUID
  2
{FAEB1C32-E019-11D5-929B-00C0DF256EC4}
  9
$EXTNAMES
290
     1
  9
$PSVPSCALE
 40
0.0
  9
$OLESTARTUP
290
     0
  9
$SORTENTS
280
   127
  9
$INDEXCTL
280
     0
  9
$HIDETEXT
280
     1
  9
$XCLIPFRAME
290
     0
  9
$HALOGAP
280
     0
  9
$OBSCOLOR
 70
   257
  9
$OBSLTYPE
280
     0
  9
$INTERSECTIONDISPLAY
280
     0
  9
$INTERSECTIONCOLOR
 70
   257
  9
$DIMASSOC
280
     2
  9
$PROJECTNAME
  1

  0
ENDSEC
  0
SECTION
  2
CLASSES
  0
CLASS
  1
ACDBDICTIONARYWDFLT
  2
AcDbDictionaryWithDefault
  3
ObjectDBX Classes
 90
        0
 91
        4
280
     0
281
     0
  0
CLASS
  1
VISUALSTYLE
  2
AcDbVisualStyle
  3
ObjectDBX Classes
 90
     4095
 91
        4
280
     0
281
     0
  0
CLASS
  1
MATERIAL
  2
AcDbMaterial
  3
ObjectDBX Classes
 90
     1153
 91
        4
280
     0
281
     0
  0
ENDSEC
  0
SECTION
  2
TABLES
  0
TABLE
  2
VPORT
  5
8
330
0
100
AcDbSymbolTable
 70
     1
  0
VPORT
  5
29
330
8
100
AcDbSymbolTableRecord
100
AcDbViewportTableRecord
  2
*Active
 70
     0
 10
0.0
 20
0.0
 11
1.0
 21
1.0
 12
-93.48350799441457
 22
106.4260382236959
 13
0.0
 23
0.0
 14
0.5
 24
0.5
 15
0.5
 25
0.5
 16
0.0
 26
0.0
 36
1.0
 17
0.0
 27
0.0
 37
0.0
 40
231.0000000000001
 41
1.60267857142857
 42
50.0
 43
0.0
 44
0.0
 50
0.0
 51
0.0
 71
     0
 72
   100
 73
     1
 74
     3
 75
     0
 76
     0
 77
     0
 78
     0
281
     0
 65
     1
110
0.0
120
0.0
130
0.0
111
1.0
121
0.0
131
0.0
112
0.0
122
1.0
132
0.0
 79
     0
146
0.0
  0
ENDTAB
  0
TABLE
  2
LTYPE
  5
5
330
0
100
AcDbSymbolTable
 70
     8
  0
LTYPE
  5
14
330
5
100
AcDbSymbolTableRecord
100
AcDbLinetypeTableRecord
  2
ByBlock
 70
     0
  3

 72
    65
 73
     0
 40
0.0
  0
LTYPE
  5
15
330
5
100
AcDbSymbolTableRecord
100
AcDbLinetypeTableRecord
  2
ByLayer
 70
     0
  3

 72
    65
 73
     0
 40
0.0
  0
LTYPE
  5
16
330
5
100
AcDbSymbolTableRecord
100
AcDbLinetypeTableRecord
  2
Continuous
 70
     0
  3
Solid line
 72
    65
 73
     0
 40
0.0
  0
LTYPE
  5
3F
330
5
100
AcDbSymbolTableRecord
100
AcDbLinetypeTableRecord
  2
DASHED
 70
     0
  3
Dashed
 72
    65
 73
     2
 40
15.0
 49
7.0
 74
     0
 49
-8.0
 74
     0
  0
LTYPE
  5
40
330
5
100
AcDbSymbolTableRecord
100
AcDbLinetypeTableRecord
  2
DOTTED
 70
     0
  3
Dotted
 72
    65
 73
     2
 40
1.0
 49
0.0
 74
     0
 49
-1.0
 74
     0
  0
LTYPE
  5
41
330
5
100
AcDbSymbolTableRecord
100
AcDbLinetypeTableRecord
  2
DOT_CENTER
 70
     0
  3
Dot_Center
 72
    65
 73
     4
 40
14.0
 49
12.0
 74
     0
 49
-1.0
 74
     0
 49
0.0
 74
     0
 49
-1.0
 74
     0
  0
LTYPE
  5
42
330
5
100
AcDbSymbolTableRecord
100
AcDbLinetypeTableRecord
  2
LONG_DASHED
 70
     0
  3
Long_Dashed
 72
    65
 73
     2
 40
15.0
 49
10.0
 74
     0
 49
-5.0
 74
     0
  0
LTYPE
  5
43
330
5
100
AcDbSymbolTableRecord
100
AcDbLinetypeTableRecord
  2
DASH_CENTER
 70
     0
  3
Dash_Center
 72
    65
 73
     4
 40
14.0
 49
11.0
 74
     0
 49
-1.0
 74
     0
 49
1.0
 74
     0
 49
-1.0
 74
     0
  0
LTYPE
  5
44
330
5
100
AcDbSymbolTableRecord
100
AcDbLinetypeTableRecord
  2
PHANTOM
 70
     0
  3
Phantom
 72
    65
 73
     6
 40
13.0
 49
10.0
 74
     0
 49
-1.0
 74
     0
 49
0.0
 74
     0
 49
-1.0
 74
     0
 49
0.0
 74
     0
 49
-1.0
 74
     0
  0
LTYPE
  5
45
330
5
100
AcDbSymbolTableRecord
100
AcDbLinetypeTableRecord
  2
CENTER_DASH_DASH
 70
     0
  3
Center_Dash_Dash
 72
    65
 73
     6
 40
14.0
 49
9.0
 74
     0
 49
-1.0
 74
     0
 49
1.0
 74
     0
 49
-1.0
 74
     0
 49
1.0
 74
     0
 49
-1.0
 74
     0
  0
ENDTAB
  0
TABLE
  2
LAYER
  5
2
330
0
100
AcDbSymbolTable
 70
     2
  0
LAYER
  5
10
330
2
100
AcDbSymbolTableRecord
100
AcDbLayerTableRecord
  2
0
 70
     0
 62
     7
  6
Continuous
370
    -3
390
F
  0
LAYER
  5
46
330
2
100
AcDbSymbolTableRecord
100
AcDbLayerTableRecord
  2
1
 70
     0
 62
     7
  6
Continuous
370
    -3
390
F
  0
ENDTAB
  0
TABLE
  2
STYLE
  5
3
330
0
100
AcDbSymbolTable
 70
     5
  0
STYLE
  5
11
330
3
100
AcDbSymbolTableRecord
100
AcDbTextStyleTableRecord
  2
Standard
 70
     0
 40
0.0
 41
1.0
 50
0.0
 71
     0
 42
0.2
  3
txt
  4

  0
STYLE
  5
C3
330
3
100
AcDbSymbolTableRecord
100
AcDbTextStyleTableRecord
  2
CONVERTER_11
 70
     0
 40
0.0
 41
0.9
 50
0.0
 71
     0
 42
0.2
  3
txt.shx
  4

  0
STYLE
  5
23E
330
3
100
AcDbSymbolTableRecord
100
AcDbTextStyleTableRecord
  2
CONVERTER_12
 70
     0
 40
0.0
 41
0.81
 50
0.0
 71
     0
 42
0.2
  3
txt.shx
  4

  0
STYLE
  5
244
330
3
100
AcDbSymbolTableRecord
100
AcDbTextStyleTableRecord
  2
CONVERTER_13
 70
     0
 40
0.0
 41
0.855
 50
0.0
 71
     0
 42
0.2
  3
txt.shx
  4

  0
STYLE
  5
247
330
3
100
AcDbSymbolTableRecord
100
AcDbTextStyleTableRecord
  2
CONVERTER_14
 70
     0
 40
0.0
 41
0.72
 50
0.0
 71
     0
 42
0.2
  3
txt.shx
  4

  0
ENDTAB
  0
TABLE
  2
VIEW
  5
6
330
0
100
AcDbSymbolTable
 70
     0
  0
ENDTAB
  0
TABLE
  2
UCS
  5
7
330
0
100
AcDbSymbolTable
 70
     0
  0
ENDTAB
  0
TABLE
  2
APPID
  5
9
330
0
100
AcDbSymbolTable
 70
     1
  0
APPID
  5
12
330
9
100
AcDbSymbolTableRecord
100
AcDbRegAppTableRecord
  2
ACAD
 70
     0
  0
ENDTAB
  0
TABLE
  2
DIMSTYLE
  5
A
330
0
100
AcDbSymbolTable
 70
     2
100
AcDbDimStyleTable
  0
DIMSTYLE
105
27
330
A
100
AcDbSymbolTableRecord
100
AcDbDimStyleTableRecord
  2
Standard
 70
     0
178
     0
340
11
  0
DIMSTYLE
105
145
102
{ACAD_REACTORS
330
146
102
}
330
A
100
AcDbSymbolTableRecord
100
AcDbDimStyleTableRecord
  2
ME10_DIM_10
 70
     0
 41
3.5
 42
0.0
 44
1.5
 73
     0
 74
     0
 77
     1
 78
     8
140
3.5
147
1.5
172
     1
173
     1
174
     1
175
     1
176
     2
177
     2
178
     3
340
C3
  0
ENDTAB
  0
TABLE
  2
BLOCK_RECORD
  5
1
330
0
100
AcDbSymbolTable
 70
    19
  0
BLOCK_RECORD
  5
1F
330
1
100
AcDbSymbolTableRecord
100
AcDbBlockTableRecord
  2
*Model_Space
340
22
  0
BLOCK_RECORD
  5
1B
330
1
100
AcDbSymbolTableRecord
100
AcDbBlockTableRecord
  2
*Paper_Space
340
1E
  0
BLOCK_RECORD
  5
23
330
1
100
AcDbSymbolTableRecord
100
AcDbBlockTableRecord
  2
*Paper_Space0
340
26
  0
BLOCK_RECORD
  5
47
330
1
100
AcDbSymbolTableRecord
100
AcDbBlockTableRecord
  2
PSBJ_3_44_6_GY-select__1
340
0
102
{BLKREFS
331
4B
102
}
  0
BLOCK_RECORD
  5
4A
330
1
100
AcDbSymbolTableRecord
100
AcDbBlockTableRecord
  2
AllgSicht1
340
0
102
{BLKREFS
331
7D
102
}
  0
BLOCK_RECORD
  5
4E
330
1
100
AcDbSymbolTableRecord
100
AcDbBlockTableRecord
  2
PSBJ_3_44_6_GY-select__2
340
0
102
{BLKREFS
331
52
102
}
  0
BLOCK_RECORD
  5
51
330
1
100
AcDbSymbolTableRecord
100
AcDbBlockTableRecord
  2
Drfsicht1
340
0
102
{BLKREFS
331
7E
102
}
  0
BLOCK_RECORD
  5
55
330
1
100
AcDbSymbolTableRecord
100
AcDbBlockTableRecord
  2
PSBJ_3_44_6_GY-select__3
340
0
102
{BLKREFS
331
59
102
}
  0
BLOCK_RECORD
  5
58
330
1
100
AcDbSymbolTableRecord
100
AcDbBlockTableRecord
  2
Rckans1
340
0
102
{BLKREFS
331
7F
102
}
  0
BLOCK_RECORD
  5
5C
330
1
100
AcDbSymbolTableRecord
100
AcDbBlockTableRecord
  2
PSBJ_3_44_6_GY-select__4
340
0
102
{BLKREFS
331
60
102
}
  0
BLOCK_RECORD
  5
5F
330
1
100
AcDbSymbolTableRecord
100
AcDbBlockTableRecord
  2
SA_Links1
340
0
102
{BLKREFS
331
80
102
}
  0
BLOCK_RECORD
  5
63
330
1
100
AcDbSymbolTableRecord
100
AcDbBlockTableRecord
  2
PSBJ_3_44_6_GY-select__5
340
0
102
{BLKREFS
331
67
102
}
  0
BLOCK_RECORD
  5
66
330
1
100
AcDbSymbolTableRecord
100
AcDbBlockTableRecord
  2
SA_Rechts1
340
0
102
{BLKREFS
331
81
102
}
  0
BLOCK_RECORD
  5
6A
330
1
100
AcDbSymbolTableRecord
100
AcDbBlockTableRecord
  2
PSBJ_3_44_6_GY-select__6
340
0
102
{BLKREFS
331
6E
102
}
  0
BLOCK_RECORD
  5
6D
330
1
100
AcDbSymbolTableRecord
100
AcDbBlockTableRecord
  2
Vordans1
340
0
102
{BLKREFS
331
82
102
}
  0
BLOCK_RECORD
  5
71
330
1
100
AcDbSymbolTableRecord
100
AcDbBlockTableRecord
  2
_rahmen
340
0
102
{BLKREFS
331
78
102
}
  0
BLOCK_RECORD
  5
74
330
1
100
AcDbSymbolTableRecord
100
AcDbBlockTableRecord
  2
_punkt
340
0
102
{BLKREFS
331
79
102
}
  0
BLOCK_RECORD
  5
77
330
1
100
AcDbSymbolTableRecord
100
AcDbBlockTableRecord
  2
A4I_CS
340
0
102
{BLKREFS
331
83
102
}
  0
BLOCK_RECORD
  5
7C
330
1
100
AcDbSymbolTableRecord
100
AcDbBlockTableRecord
  2
1
340
0
102
{BLKREFS
331
86
102
}
  0
BLOCK_RECORD
  5
BB
330
1
100
AcDbSymbolTableRecord
100
AcDbBlockTableRecord
  2
*D17
340
0
102
{BLKREFS
331
C7
102
}
  0
BLOCK_RECORD
  5
13C
330
1
100
AcDbSymbolTableRecord
100
AcDbBlockTableRecord
  2
*D18
340
0
  0
ENDTAB
  0
ENDSEC
  0
SECTION
  2
BLOCKS
  0
BLOCK
  5
20
330
1F
100
AcDbEntity
  8
0
100
AcDbBlockBegin
  2
*Model_Space
 70
     0
 10
0.0
 20
0.0
 30
0.0
  3
*Model_Space
  1

  0
ENDBLK
  5
21
330
1F
100
AcDbEntity
  8
0
100
AcDbBlockEnd
  0
BLOCK
  5
1C
330
1B
100
AcDbEntity
 67
     1
  8
0
100
AcDbBlockBegin
  2
*Paper_Space
 70
     0
 10
0.0
 20
0.0
 30
0.0
  3
*Paper_Space
  1

  0
ENDBLK
  5
1D
330
1B
100
AcDbEntity
 67
     1
  8
0
100
AcDbBlockEnd
  0
BLOCK
  5
24
330
23
100
AcDbEntity
  8
0
100
AcDbBlockBegin
  2
*Paper_Space0
 70
     0
 10
0.0
 20
0.0
 30
0.0
  3
*Paper_Space0
  1

  0
ENDBLK
  5
25
330
23
100
AcDbEntity
  8
0
100
AcDbBlockEnd
  0
BLOCK
  5
48
330
47
100
AcDbEntity
  8
0
100
AcDbBlockBegin
  2
PSBJ_3_44_6_GY-select__1
 70
     0
 10
-35.20000083383575
 20
54.71753771203787
 30
0.0
  3
PSBJ_3_44_6_GY-select__1
  1

  0
LINE
  5
87
330
47
100
AcDbEntity
  8
0
  6
Continuous
 62
     7
100
AcDbLine
 10
-29.50000083383645
 20
66.58953208667364
 30
0.0
 11
-29.50000083383646
 21
65.6253648370573
 31
0.0
  0
LINE
  5
88
330
47
100
AcDbEntity
  8
0
  6
Continuous
 62
     7
100
AcDbLine
 10
-29.50000083383644
 20
64.96848725296732
 30
0.0
 11
-29.50000083383644
 21
59.79766473096005
 31
0.0
  0
LINE
  5
89
330
47
100
AcDbEntity
  8
0
  6
Continuous
 62
     7
100
AcDbLine
 10
-29.00013411459726
 20
67.40454909399736
 30
0.0
 11
-28.80014299998308
 21
78.01241767768639
 31
0.0
  0
LINE
  5
8A
330
47
100
AcDbEntity
  8
0
  6
Continuous
 62
     7
100
AcDbLine
 10
-33.50000083383574
 20
58.79766473096049
 30
0.0
 11
-33.50000083383574
 21
55.46753771203787
 31
0.0
  0
LINE
  5
8B
330
47
100
AcDbEntity
  8
0
  6
Continuous
 62
     7
100
AcDbLine
 10
-34.9998675530745
 20
67.40454909399743
 30
0.0
 11
-35.19985866768836
 21
78.01241767768644
 31
0.0
  0
LINE
  5
8C
330
47
100
AcDbEntity
  8
0
  6
Continuous
 62
     7
100
AcDbLine
 10
-34.50000083383503
 20
64.96848725296738
 30
0.0
 11
-34.50000083383503
 21
59.79766473096005
 31
0.0
  0
LINE
  5
8D
330
47
100
AcDbEntity
  8
0
  6
Continuous
 62
     7
100
AcDbLine
 10
-35.20000083383413
 20
78.02749948063655
 30
0.0
 11
-35.20000083383575
 21
80.6255756919969
 31
0.0
  0
LINE
  5
8E
330
47
100
AcDbEntity
  8
0
  6
Continuous
 62
     7
100
AcDbLine
 10
-34.99991483421557
 20
93.84382080992323
 30
0.0
 11
-35.19990910090756
 21
80.63769058289137
 31
0.0
  0
LINE
  5
8F
330
47
100
AcDbEntity
  8
0
  6
Continuous
 62
     7
100
AcDbLine
 10
-34.50000083383505
 20
66.58953208667353
 30
0.0
 11
-34.50000083383503
 21
65.62536483705733
 31
0.0
  0
LINE
  5
90
330
47
100
AcDbEntity
  8
0
  6
Continuous
 62
     7
100
AcDbLine
 10
-28.80000083383744
 20
78.0274994806365
 30
0.0
 11
-28.80000083383574
 21
80.62557569199689
 31
0.0
  0
LINE
  5
91
330
47
100
AcDbEntity
  8
0
  6
Continuous
 62
     7
100
AcDbLine
 10
-29.00008683345593
 20
93.84382080992324
 30
0.0
 11
-28.80009256676395
 21
80.63769058289137
 31
0.0
  0
LINE
  5
92
330
47
100
AcDbEntity
  8
0
  6
Continuous
 62
     7
100
AcDbLine
 10
-30.50000083383574
 20
58.79766473096049
 30
0.0
 11
-30.50000083383574
 21
55.46753771203787
 31
0.0
  0
SPLINE
  5
93
330
47
100
AcDbEntity
  8
0
  6
Continuous
 62
     7
100
AcDbSpline
210
0.0
220
0.0
230
1.0
 70
     8
 71
     3
 72
    11
 73
     7
 74
     5
 42
0.000000001
 43
0.0000000001
 44
0.00000001
 40
0.0
 40
0.0
 40
0.0
 40
0.0
 40
0.0976066840397526
 40
0.1982174840233556
 40
0.2886982455106507
 40
0.3820468552749851
 40
0.3820468552749851
 40
0.3820468552749851
 40
0.3820468552749851
 10
-29.50000083383646
 20
65.6253648370573
 30
0.0
 10
-29.50009954383949
 20
65.59282931617862
 30
0.0
 10
-29.5003000240646
 20
65.52675690381261
 30
0.0
 10
-29.50126329723198
 20
65.43052866493818
 30
0.0
 10
-29.50209504935348
 20
65.33571860696891
 30
0.0
 10
-29.5022311605373
 20
65.27444212006336
 30
0.0
 10
-29.50230027161407
 20
65.2433259016496
 30
0.0
 11
-29.50000083383646
 21
65.6253648370573
 31
0.0
 11
-29.50040873305065
 21
65.52775900531266
 31
0.0
 11
-29.50127525955471
 21
65.42715193693704
 31
0.0
 11
-29.50198942077721
 21
65.33667399387485
 31
0.0
 11
-29.50230027161407
 21
65.2433259016496
 31
0.0
  0
SPLINE
  5
94
330
47
100
AcDbEntity
  8
0
  6
Continuous
 62
     7
100
AcDbSpline
210
0.0
220
0.0
230
1.0
 70
     8
 71
     3
 72
    11
 73
     7
 74
     5
 42
0.000000001
 43
0.0000000001
 44
0.00000001
 40
0.0
 40
0.0
 40
0.0
 40
0.0
 40
0.0845867349634581
 40
0.1569784666762133
 40
0.2225183707233503
 40
0.274850105239054
 40
0.274850105239054
 40
0.274850105239054
 40
0.274850105239054
 10
-29.50230027161407
 20
65.2433259016496
 30
0.0
 10
-29.50224224589554
 20
65.21513025809848
 30
0.0
 10
-29.50213454982462
 20
65.16280398148928
 30
0.0
 10
-29.50135878419471
 20
65.08863460211728
 30
0.0
 10
-29.5003633723114
 20
65.02522084689443
 30
0.0
 10
-29.50011229536116
 20
64.98593089895644
 30
0.0
 10
-29.50000083383644
 20
64.96848725296732
 30
0.0
 11
-29.50230027161407
 21
65.2433259016496
 31
0.0
 11
-29.50199856119631
 21
65.15873970471493
 31
0.0
 11
-29.50126858986666
 21
65.08635165344798
 31
0.0
 11
-29.50040729144395
 21
65.02081740894965
 31
0.0
 11
-29.50000083383644
 21
64.96848725296732
 31
0.0
  0
SPLINE
  5
95
330
47
100
AcDbEntity
  8
0
  6
Continuous
 62
     7
100
AcDbSpline
210
0.0
220
0.0
230
1.0
 70
     8
 71
     3
 72
     9
 73
     5
 74
     3
 42
0.000000001
 43
0.0000000001
 44
0.00000001
 40
0.0
 40
0.0
 40
0.0
 40
0.0
 40
0.0075415714492436
 40
0.0150826403894888
 40
0.0150826403894888
 40
0.0150826403894888
 40
0.0150826403894888
 10
-28.80014299998308
 20
78.01241767768639
 30
0.0
 10
-28.80010153495624
 20
78.01493122774048
 30
0.0
 10
-28.80001862766365
 20
78.01995816060175
 30
0.0
 10
-28.80000675831487
 20
78.02498576307939
 30
0.0
 10
-28.80000083383744
 20
78.0274994806365
 30
0.0
 11
-28.80014299998308
 21
78.01241767768639
 31
0.0
 11
-28.80003637557122
 21
78.01995849540528
 31
0.0
 11
-28.80000083383744
 21
78.0274994806365
 31
0.0
  0
SPLINE
  5
96
330
47
100
AcDbEntity
  8
0
  6
Continuous
 62
     7
100
AcDbSpline
210
0.0
220
0.0
230
1.0
 70
     8
 71
     3
 72
     9
 73
     5
 74
     3
 42
0.000000001
 43
0.0000000001
 44
0.00000001
 40
0.0
 40
0.0
 40
0.0
 40
0.0
 40
0.0060577926957904
 40
0.012115324929122
 40
0.012115324929122
 40
0.012115324929122
 40
0.012115324929122
 10
-28.80009256676395
 20
80.63769058289137
 30
0.0
 10
-28.80006581136782
 20
80.63567147783324
 30
0.0
 10
-28.80001232172479
 20
80.63163335434164
 30
0.0
 10
-28.80000465641082
 20
80.62759488387586
 30
0.0
 10
-28.80000083383574
 20
80.62557569199689
 30
0.0
 11
-28.80009256676395
 21
80.63769058289137
 31
0.0
 11
-28.80002376714997
 21
80.6316331808561
 31
0.0
 11
-28.80000083383574
 21
80.62557569199689
 31
0.0
  0
SPLINE
  5
97
330
47
100
AcDbEntity
  8
0
  6
Continuous
 62
     7
100
AcDbSpline
210
0.0
220
0.0
230
1.0
 70
     8
 71
     3
 72
    11
 73
     7
 74
     5
 42
0.000000001
 43
0.0000000001
 44
0.00000001
 40
0.0
 40
0.0
 40
0.0
 40
0.0
 40
0.3706946063225728
 40
0.747825402849011
 40
1.124956199375422
 40
1.495650805697969
 40
1.495650805697969
 40
1.495650805697969
 40
1.495650805697969
 10
-32.74510833207707
 20
65.96569010669498
 30
0.0
 10
-32.62253944289442
 20
65.94948575466547
 30
0.0
 10
-32.37527355885707
 20
65.91679571729492
 30
0.0
 10
-32.0000008338351
 20
65.90488909050205
 30
0.0
 10
-31.62472810881312
 20
65.91679571729506
 30
0.0
 10
-31.3774622247758
 20
65.94948575466563
 30
0.0
 10
-31.25489333559317
 20
65.96569010669518
 30
0.0
 11
-32.74510833207707
 21
65.96569010669498
 31
0.0
 11
-32.37686102812175
 21
65.92316464907553
 31
0.0
 11
-32.00000083383509
 21
65.90888066315111
 31
0.0
 11
-31.62314063954845
 21
65.92316464907564
 31
0.0
 11
-31.25489333559317
 21
65.96569010669518
 31
0.0
  0
SPLINE
  5
98
330
47
100
AcDbEntity
  8
0
  6
Continuous
 62
     7
100
AcDbSpline
210
0.0
220
0.0
230
1.0
 70
     8
 71
     3
 72
    15
 73
    11
 74
     9
 42
0.000000001
 43
0.0000000001
 44
0.00000001
 40
0.0
 40
0.0
 40
0.0
 40
0.0
 40
0.3398098783629228
 40
0.7388994767300926
 40
1.223453654035272
 40
1.79019354035646
 40
2.418398650987676
 40
3.07784534784291
 40
3.734184800868383
 40
4.353462079151551
 40
4.353462079151551
 40
4.353462079151551
 40
4.353462079151551
 10
-29.50000083383644
 20
59.79766473096005
 30
0.0
 10
-29.51969687950584
 20
59.68389761192591
 30
0.0
 10
-29.56252495175538
 20
59.43651674318404
 30
0.0
 10
-29.8578813054682
 20
59.12883064572125
 30
0.0
 10
-30.26929238005537
 20
58.87529592012049
 30
0.0
 10
-30.80052838822924
 20
58.68491662622986
 30
0.0
 10
-31.40930486291399
 20
58.56802094754403
 30
0.0
 10
-32.05791581769364
 20
58.53506061433718
 30
0.0
 10
-32.70469971035714
 20
58.57840487345538
 30
0.0
 10
-33.11734465882537
 20
58.68408267416105
 30
0.0
 10
-33.31767257359869
 20
58.73538637922891
 30
0.0
 11
-29.50000083383644
 21
59.79766473096005
 31
0.0
 11
-29.58775743728004
 21
59.46938202111967
 31
0.0
 11
-29.84486355524175
 21
59.16414612223357
 31
0.0
 11
-30.25327169522277
 21
58.9033865764036
 31
0.0
 11
-30.78430748216559
 21
58.70540907468018
 31
0.0
 11
-31.40069136460565
 21
58.58411369014652
 31
0.0
 11
-32.05914926321056
 21
58.5480146336029
 31
0.0
 11
-32.7134546296067
 21
58.59964761548891
 31
0.0
 11
-33.31767257359869
 21
58.73538637922891
 31
0.0
  0
SPLINE
  5
99
330
47
100
AcDbEntity
  8
0
  6
Continuous
 62
     7
100
AcDbSpline
210
0.0
220
0.0
230
1.0
 70
     8
 71
     3
 72
    19
 73
    15
 74
    13
 42
0.000000001
 43
0.0000000001
 44
0.00000001
 40
0.0
 40
0.0
 40
0.0
 40
0.0
 40
0.2007305004267636
 40
0.4356235739690776
 40
0.7201434630657602
 40
1.052883018584652
 40
1.422331824992782
 40
1.811400512172302
 40
2.200469199351822
 40
2.569918005759948
 40
2.902657561278835
 40
3.187177450375513
 40
3.422070523917837
 40
3.622801024344606
 40
3.622801024344606
 40
3.622801024344606
 40
3.622801024344606
 10
-30.50000083383574
 20
55.46753771203787
 30
0.0
 10
-30.51143049358553
 20
55.40032701535574
 30
0.0
 10
-30.53623505932813
 20
55.25446695752253
 30
0.0
 10
-30.70821827161739
 20
55.07187355572219
 30
0.0
 10
-30.94859912067353
 20
54.92063753435799
 30
0.0
 10
-31.25961883051292
 20
54.8058042662955
 30
0.0
 10
-31.61711078515322
 20
54.73377163425502
 30
0.0
 10
-32.00000083383574
 20
54.70921078176394
 30
0.0
 10
-32.38289088251827
 20
54.73377163425502
 30
0.0
 10
-32.74038283715856
 20
54.8058042662955
 30
0.0
 10
-33.05140254699794
 20
54.92063753435799
 30
0.0
 10
-33.29178339605409
 20
55.07187355572218
 30
0.0
 10
-33.46376660834338
 20
55.2544669575225
 30
0.0
 10
-33.48857117408595
 20
55.40032701535574
 30
0.0
 10
-33.50000083383574
 20
55.46753771203787
 30
0.0
 11
-30.50000083383574
 21
55.46753771203787
 31
0.0
 11
-30.55111248068423
 21
55.27342347996297
 31
0.0
 11
-30.70096272815908
 21
55.09253771203788
 31
0.0
 11
-30.93934094483404
 21
54.93720776753702
 31
0.0
 11
-31.25000083383574
 21
54.81801865919954
 31
0.0
 11
-31.61177236968594
 21
54.74309353546212
 31
0.0
 11
-32.00000083383574
 21
54.71753771203787
 31
0.0
 11
-32.38822929798555
 21
54.74309353546212
 31
0.0
 11
-32.75000083383574
 21
54.81801865919954
 31
0.0
 11
-33.06066072283744
 21
54.93720776753702
 31
0.0
 11
-33.2990389395124
 21
55.09253771203787
 31
0.0
 11
-33.44888918698725
 21
55.27342347996296
 31
0.0
 11
-33.50000083383574
 21
55.46753771203787
 31
0.0
  0
SPLINE
  5
9A
330
47
100
AcDbEntity
  8
0
  6
Continuous
 62
     7
100
AcDbSpline
210
0.0
220
0.0
230
1.0
 70
     8
 71
     3
 72
    13
 73
     9
 74
     7
 42
0.000000001
 43
0.0000000001
 44
0.00000001
 40
0.0
 40
0.0
 40
0.0
 40
0.0
 40
0.2326493637055182
 40
0.4943143231250379
 40
0.8016688015961019
 40
1.158387715871407
 40
1.559225654112018
 40
1.993358648946564
 40
1.993358648946564
 40
1.993358648946564
 40
1.993358648946564
 10
-34.10000083383577
 20
93.83246309970967
 30
0.0
 10
-34.08930651809624
 20
93.91038621018214
 30
0.0
 10
-34.06658409716563
 20
94.07595085254368
 30
0.0
 10
-33.90017658086394
 20
94.2968142323302
 30
0.0
 10
-33.65867320381716
 20
94.49020129634786
 30
0.0
 10
-33.33962605166354
 20
94.65107789417223
 30
0.0
 10
-32.96138845339814
 20
94.77716655979503
 30
0.0
 10
-32.68646430226387
 20
94.82290439063424
 30
0.0
 10
-32.54352082855105
 20
94.8466852173132
 30
0.0
 11
-34.10000083383577
 21
93.83246309970967
 31
0.0
 11
-34.05022226578466
 21
94.05972467405928
 31
0.0
 11
-33.90324718661272
 21
94.27621227453741
 31
0.0
 11
-33.66604269973629
 21
94.47166254311381
 31
0.0
 11
-33.34985481417749
 21
94.6368097649846
 31
0.0
 11
-32.96967283507631
 21
94.7638243914134
 31
0.0
 11
-32.54352082855105
 21
94.8466852173132
 31
0.0
  0
SPLINE
  5
9B
330
47
100
AcDbEntity
  8
0
  6
Continuous
 62
     7
100
AcDbSpline
210
0.0
220
0.0
230
1.0
 70
     8
 71
     3
 72
     9
 73
     5
 74
     3
 42
0.000000001
 43
0.0000000001
 44
0.00000001
 40
0.0
 40
0.0
 40
0.0
 40
0.0
 40
0.0060575322333032
 40
0.0121153249291076
 40
0.0121153249291076
 40
0.0121153249291076
 40
0.0121153249291076
 10
-35.20000083383575
 20
80.6255756919969
 30
0.0
 10
-35.19999701126067
 20
80.62759488387586
 30
0.0
 10
-35.19998934594669
 20
80.63163335434164
 30
0.0
 10
-35.19993585630369
 20
80.63567147783321
 30
0.0
 10
-35.19990910090756
 20
80.63769058289137
 30
0.0
 11
-35.20000083383575
 21
80.6255756919969
 31
0.0
 11
-35.19997790052152
 21
80.63163318085608
 31
0.0
 11
-35.19990910090756
 21
80.63769058289137
 31
0.0
  0
SPLINE
  5
9C
330
47
100
AcDbEntity
  8
0
  6
Continuous
 62
     7
100
AcDbSpline
210
0.0
220
0.0
230
1.0
 70
     8
 71
     3
 72
    15
 73
    11
 74
     9
 42
0.000000001
 43
0.0000000001
 44
0.00000001
 40
0.0
 40
0.0
 40
0.0
 40
0.0
 40
0.4761140772354671
 40
0.9549156944847824
 40
1.417770492896895
 40
1.847576005318666
 40
2.230760080374597
 40
2.5599174189727
 40
2.837790624382817
 40
3.082450282909382
 40
3.082450282909382
 40
3.082450282909382
 40
3.082450282909382
 10
-32.54352082855105
 20
94.8466852173132
 30
0.0
 10
-32.38540608796667
 20
94.8622542655542
 30
0.0
 10
-32.06828409002818
 20
94.8934802409553
 30
0.0
 10
-31.5946692337705
 20
94.87120943200225
 30
0.0
 10
-31.14198298691761
 20
94.80081783816345
 30
0.0
 10
-30.73277619945381
 20
94.68083548424819
 30
0.0
 10
-30.38544430175633
 20
94.51830082839466
 30
0.0
 10
-30.12113606696263
 20
94.31956370527655
 30
0.0
 10
-29.93732556529659
 20
94.08943541364059
 30
0.0
 10
-29.91190378204429
 20
93.91441222966023
 30
0.0
 10
-29.90000083383576
 20
93.83246309970967
 30
0.0
 11
-32.54352082855105
 21
94.8466852173132
 31
0.0
 11
-32.06871089954205
 21
94.88190079102084
 31
0.0
 11
-31.59031115760189
 21
94.86228764413306
 31
0.0
 11
-31.13331617492371
 21
94.78887000146669
 31
0.0
 11
-30.72160183291744
 21
94.66548410701546
 31
0.0
 11
-30.37667907596393
 21
94.49857596839772
 31
0.0
 11
-30.11656807661711
 21
94.29686622443961
 31
0.0
 11
-29.95485942200348
 21
94.07089314737357
 31
0.0
 11
-29.90000083383576
 21
93.83246309970967
 31
0.0
  0
SPLINE
  5
9D
330
47
100
AcDbEntity
  8
0
  6
Continuous
 62
     7
100
AcDbSpline
210
0.0
220
0.0
230
1.0
 70
     8
 71
     3
 72
    17
 73
    13
 74
    11
 42
0.000000001
 43
0.0000000001
 44
0.00000001
 40
0.0
 40
0.0
 40
0.0
 40
0.0
 40
0.5708243662337444
 40
1.238597177981946
 40
1.980036525635196
 40
2.760612816126774
 40
3.540723034393972
 40
4.280821781338918
 40
4.946562572620607
 40
5.515014271214127
 40
5.983926029057073
 40
6.385499195835724
 40
6.385499195835724
 40
6.385499195835724
 40
6.385499195835724
 10
-29.40192462248243
 20
93.08246309970967
 30
0.0
 10
-29.55735420145479
 20
92.97130551532697
 30
0.0
 10
-29.8946114262863
 20
92.73011142427929
 30
0.0
 10
-30.52463516656675
 20
92.51019621757318
 30
0.0
 10
-31.24037239209042
 20
92.36326327045242
 30
0.0
 10
-32.00906776206592
 20
92.3159184137164
 30
0.0
 10
-32.77651221608946
 20
92.36620149090481
 30
0.0
 10
-33.49235414109961
 20
92.51214903699481
 30
0.0
 10
-34.11397441241912
 20
92.74395132995645
 30
0.0
 10
-34.59295627528061
 20
93.0485622467763
 30
0.0
 10
-34.93373251661411
 20
93.4166989895266
 30
0.0
 10
-34.97902189014552
 20
93.70898367855912
 30
0.0
 10
-34.99991483421557
 20
93.84382080992323
 30
0.0
 11
-29.40192462248243
 21
93.08246309970967
 31
0.0
 11
-29.88028791137436
 21
92.77100040093757
 31
0.0
 11
-30.5039370161576
 21
92.53229070215673
 31
0.0
 11
-31.23012839124068
 21
92.38269660650114
 31
0.0
 11
-32.00908707493873
 21
92.3324699797069
 31
0.0
 11
-32.78742297518317
 21
92.38505494299439
 31
0.0
 11
-33.51178870472935
 21
92.53684573398985
 31
0.0
 11
-34.13253441575669
 21
92.77743991996817
 31
0.0
 11
-34.60711557870682
 21
93.09034573920057
 31
0.0
 11
-34.90300151374469
 21
93.45411730231123
 31
0.0
 11
-34.99991483421557
 21
93.84382080992323
 31
0.0
  0
SPLINE
  5
9E
330
47
100
AcDbEntity
  8
0
  6
Continuous
 62
     7
100
AcDbSpline
210
0.0
220
0.0
230
1.0
 70
     8
 71
     3
 72
     9
 73
     5
 74
     3
 42
0.000000001
 43
0.0000000001
 44
0.00000001
 40
0.0
 40
0.0
 40
0.0
 40
0.0
 40
0.4929900431344199
 40
0.914674341576803
 40
0.914674341576803
 40
0.914674341576803
 40
0.914674341576803
 10
-29.22871954172701
 20
77.22749948063692
 30
0.0
 10
-29.10695861630104
 20
77.34504297601643
 30
0.0
 10
-28.8810481991361
 20
77.56312856597265
 30
0.0
 10
-28.82567240763549
 20
77.87064573033814
 30
0.0
 10
-28.80014299998308
 20
78.01241767768639
 30
0.0
 11
-29.22871954172701
 21
77.22749948063692
 31
0.0
 11
-28.91297675958435
 21
77.60610967626063
 31
0.0
 11
-28.80014299998308
 21
78.01241767768639
 31
0.0
  0
SPLINE
  5
9F
330
47
100
AcDbEntity
  8
0
  6
Continuous
 62
     7
100
AcDbSpline
210
0.0
220
0.0
230
1.0
 70
     8
 71
     3
 72
    17
 73
    13
 74
    11
 42
0.000000001
 43
0.0000000001
 44
0.00000001
 40
0.0
 40
0.0
 40
0.0
 40
0.0
 40
0.4281478873675137
 40
0.9304219315741681
 40
1.538156620026962
 40
2.247626774489719
 40
3.034168146801208
 40
3.861549187901766
 40
4.688319258064077
 40
5.473102246387229
 40
6.179903265011975
 40
6.784510414965175
 40
6.784510414965175
 40
6.784510414965175
 40
6.784510414965175
 10
-35.19985866768836
 20
78.01241767768644
 30
0.0
 10
-35.17288581658409
 20
77.869602062757
 30
0.0
 10
-35.11427023589903
 20
77.55924486627396
 30
0.0
 10
-34.74322044364826
 20
77.17359674774508
 30
0.0
 10
-34.22807103728786
 20
76.85379201743123
 30
0.0
 10
-33.56406427512937
 20
76.61167822863572
 30
0.0
 10
-32.80249641081463
 20
76.46035406408583
 30
0.0
 10
-31.9882256861093
 20
76.41007915188312
 30
0.0
 10
-31.17403121764092
 20
76.46264616419262
 30
0.0
 10
-30.41664063804508
 20
76.61998837623807
 30
0.0
 10
-29.75017966429731
 20
76.8540829425781
 30
0.0
 10
-29.3932685990747
 20
77.10966622886716
 30
0.0
 10
-29.22871954172701
 20
77.22749948063692
 30
0.0
 11
-35.19985866768836
 21
78.01241767768644
 31
0.0
 11
-35.08382519858582
 21
77.60029287247899
 31
0.0
 11
-34.75913782257384
 21
77.21707319198242
 31
0.0
 11
-34.24776235299968
 21
76.88868838899249
 31
0.0
 11
-33.58430162586835
 21
76.63735641242786
 31
0.0
 11
-32.81364430222846
 21
76.48008397703204
 31
0.0
 11
-31.9879352413846
 21
76.42751085399973
 31
0.0
 11
-31.16304255988748
 21
76.48319579413977
 31
0.0
 11
-30.394779113108
 21
76.64336949872612
 31
0.0
 11
-29.73512780991198
 21
76.89719588841643
 31
0.0
 11
-29.22871954172701
 21
77.22749948063692
 31
0.0
  0
SPLINE
  5
A0
330
47
100
AcDbEntity
  8
0
  6
Continuous
 62
     7
100
AcDbSpline
210
0.0
220
0.0
230
1.0
 70
     8
 71
     3
 72
     9
 73
     5
 74
     3
 42
0.000000001
 43
0.0000000001
 44
0.00000001
 40
0.0
 40
0.0
 40
0.0
 40
0.0
 40
0.0075410689402168
 40
0.0150826403894904
 40
0.0150826403894904
 40
0.0150826403894904
 40
0.0150826403894904
 10
-35.20000083383413
 20
78.02749948063655
 30
0.0
 10
-35.1999949093567
 20
78.02498576307947
 30
0.0
 10
-35.19998304000792
 20
78.01995816060179
 30
0.0
 10
-35.19990013271526
 20
78.01493122774055
 30
0.0
 10
-35.19985866768836
 20
78.01241767768644
 30
0.0
 11
-35.20000083383413
 21
78.02749948063655
 31
0.0
 11
-35.19996529210032
 21
78.01995849540536
 31
0.0
 11
-35.19985866768836
 21
78.01241767768644
 31
0.0
  0
SPLINE
  5
A1
330
47
100
AcDbEntity
  8
0
  6
Continuous
 62
     7
100
AcDbSpline
210
0.0
220
0.0
230
1.0
 70
     8
 71
     3
 72
    19
 73
    15
 74
    13
 42
0.000000001
 43
0.0000000001
 44
0.00000001
 40
0.0
 40
0.0
 40
0.0
 40
0.0
 40
0.4003779682835718
 40
0.8698045166281372
 40
1.43758190257068
 40
2.100390855987706
 40
2.83539370284434
 40
3.60894753719146
 40
4.382501371538584
 40
5.117504218395226
 40
5.780313171812246
 40
6.348090557754801
 40
6.817517106099362
 40
7.217895074382947
 40
7.217895074382947
 40
7.217895074382947
 40
7.217895074382947
 10
-29.00013411459726
 20
67.40454909399736
 30
0.0
 10
-29.02529290669389
 20
67.2709931697417
 30
0.0
 10
-29.07994935653631
 20
66.98084847590985
 30
0.0
 10
-29.42615198021092
 20
66.61994508717949
 30
0.0
 10
-29.90705114409331
 20
66.3204157575498
 30
0.0
 10
-30.52710887988453
 20
66.09325694372892
 30
0.0
 10
-31.23858761465281
 20
65.95078426781551
 30
0.0
 10
-32.00000083383591
 20
65.90223017282808
 30
0.0
 10
-32.76141405301894
 20
65.95078426781554
 30
0.0
 10
-33.47289278778725
 20
66.09325694372895
 30
0.0
 10
-34.09295052357847
 20
66.32041575754982
 30
0.0
 10
-34.57384968746085
 20
66.61994508717956
 30
0.0
 10
-34.92005231113544
 20
66.98084847590994
 30
0.0
 10
-34.97470876097788
 20
67.27099316974176
 30
0.0
 10
-34.9998675530745
 20
67.40454909399743
 30
0.0
 11
-29.00013411459726
 21
67.40454909399736
 31
0.0
 11
-29.10841268151547
 21
67.01909057132967
 31
0.0
 11
-29.41140212687826
 21
66.66053976082951
 31
0.0
 11
-29.88870262261584
 21
66.35304115286064
 31
0.0
 11
-30.50817161113661
 21
66.11730002837047
 31
0.0
 11
-31.22809739046454
 21
65.9691917815528
 31
0.0
 11
-32.00000083383588
 21
65.91868828426306
 31
0.0
 11
-32.77190427720723
 21
65.96919178155282
 31
0.0
 11
-33.49183005653516
 21
66.1173000283705
 31
0.0
 11
-34.11129904505593
 21
66.35304115286067
 31
0.0
 11
-34.58859954079351
 21
66.66053976082956
 31
0.0
 11
-34.89158898615629
 21
67.01909057132973
 31
0.0
 11
-34.9998675530745
 21
67.40454909399743
 31
0.0
  0
SPLINE
  5
A2
330
47
100
AcDbEntity
  8
0
  6
Continuous
 62
     7
100
AcDbSpline
210
0.0
220
0.0
230
1.0
 70
     8
 71
     3
 72
    11
 73
     7
 74
     5
 42
0.000000001
 43
0.0000000001
 44
0.00000001
 40
0.0
 40
0.0
 40
0.0
 40
0.0
 40
0.0100848419975962
 40
0.0288780824641918
 40
0.0583244718344158
 40
0.0989130429999937
 40
0.0989130429999937
 40
0.0989130429999937
 40
0.0989130429999937
 10
-34.48563135896485
 20
65.72061571052572
 30
0.0
 10
-34.48833147682057
 20
65.71844654792059
 30
0.0
 10
-34.49606328633054
 20
65.71223510891524
 30
0.0
 10
-34.49743102314429
 20
65.6911953266868
 30
0.0
 10
-34.50013889273642
 20
65.6625099885628
 30
0.0
 10
-34.50005148701054
 20
65.6389936617911
 30
0.0
 10
-34.50000083383503
 20
65.62536483705733
 30
0.0
 11
-34.48563135896485
 21
65.72061571052572
 31
0.0
 11
-34.49287136393087
 21
65.71359527779883
 31
0.0
 11
-34.49723269219599
 21
65.69531510118419
 31
0.0
 11
-34.49940634972605
 21
65.66594904885453
 31
0.0
 11
-34.50000083383503
 21
65.62536483705733
 31
0.0
  0
SPLINE
  5
A3
330
47
100
AcDbEntity
  8
0
  6
Continuous
 62
     7
100
AcDbSpline
210
0.0
220
0.0
230
1.0
 70
     8
 71
     3
 72
    31
 73
    27
 74
    25
 42
0.000000001
 43
0.0000000001
 44
0.00000001
 40
0.0
 40
0.0
 40
0.0
 40
0.0
 40
0.1025179092511153
 40
0.197276436509469
 40
0.3033189738961596
 40
0.4087125177294156
 40
0.4942223403059838
 40
0.5912937559072909
 40
0.6399149474673492
 40
0.6977704875693123
 40
0.764522900016548
 40
0.8013917726998517
 40
0.8505665306193555
 40
0.909660355627976
 40
0.9304136888585828
 40
0.9585721188633698
 40
0.9919540952048264
 40
1.028382234304224
 40
1.058615178161097
 40
1.087368506237607
 40
1.112966276123737
 40
1.131339281934521
 40
1.147918330065579
 40
1.159803478003022
 40
1.168597651343645
 40
1.174376345976469
 40
1.174376345976469
 40
1.174376345976469
 40
1.174376345976469
 10
-34.10947282840363
 20
64.62608181865829
 30
0.0
 10
-34.11047368837205
 20
64.66026254140597
 30
0.0
 10
-34.11239964899391
 20
64.72603691445556
 30
0.0
 10
-34.12598851379776
 20
64.82637031327464
 30
0.0
 10
-34.14564667859915
 20
64.92656511664282
 30
0.0
 10
-34.17042252260268
 20
65.02245258588606
 30
0.0
 10
-34.19836824415678
 20
65.11430285337349
 30
0.0
 10
-34.22343594853577
 20
65.18719917625123
 30
0.0
 10
-34.2470662226518
 20
65.25080258767593
 30
0.0
 10
-34.26808274911602
 20
65.30458856946532
 30
0.0
 10
-34.28858273124038
 20
65.35436117936264
 30
0.0
 10
-34.30864323480735
 20
65.40117694038844
 30
0.0
 10
-34.32820893305959
 20
65.44542460149964
 30
0.0
 10
-34.34616270754105
 20
65.48450744083588
 30
0.0
 10
-34.36155058861357
 20
65.51705521316589
 30
0.0
 10
-34.37345321028864
 20
65.54176996082977
 30
0.0
 10
-34.38790515663673
 20
65.57105503674468
 30
0.0
 10
-34.40304267445499
 20
65.60077004571949
 30
0.0
 10
-34.41791998449498
 20
65.6288837507099
 30
0.0
 10
-34.43157982921186
 20
65.65354628147504
 30
0.0
 10
-34.44387972685077
 20
65.67445446378645
 30
0.0
 10
-34.45477364617496
 20
65.69141642828788
 30
0.0
 10
-34.46386270257241
 20
65.70422221460962
 30
0.0
 10
-34.47204516091614
 20
65.71336819745962
 30
0.0
 10
-34.47878913052439
 20
65.71966371565262
 30
0.0
 10
-34.48368855347839
 20
65.72034539302955
 30
0.0
 10
-34.48563135896485
 20
65.72061571052572
 30
0.0
 11
-34.10947282840363
 21
64.62608181865829
 31
0.0
 11
-34.11434204973138
 21
64.7284840187408
 31
0.0
 11
-34.12635053787214
 21
64.82247856579815
 31
0.0
 11
-34.14671129268174
 21
64.92654805919882
 31
0.0
 11
-34.17287325003009
 21
65.02864287338645
 31
0.0
 11
-34.19770206551823
 21
65.1104686619778
 31
0.0
 11
-34.2291850607509
 21
65.20229284578768
 31
0.0
 11
-34.24611032054427
 21
65.24787305912028
 31
0.0
 11
-34.26715462883264
 21
65.30176555029843
 31
0.0
 11
-34.29256301393352
 21
65.36349316590173
 31
0.0
 11
-34.30708319537577
 21
65.39738236922213
 31
0.0
 11
-34.32696880996983
 21
65.44235701924111
 31
0.0
 11
-34.35164310727517
 21
65.49605300790901
 31
0.0
 11
-34.36051461276579
 21
65.51481459711128
 31
0.0
 11
-34.37273481532769
 21
65.54018315693143
 31
0.0
 11
-34.3875163636741
 21
65.57011411363163
 31
0.0
 11
-34.40407190651821
 21
65.60256289347397
 31
0.0
 11
-34.41823702640007
 21
65.62927207292957
 31
0.0
 11
-34.43220560252532
 21
65.65440437781646
 31
0.0
 11
-34.44526238938034
 21
65.67642178299224
 31
0.0
 11
-34.45523297554287
 21
65.69185404614332
 31
0.0
 11
-34.46502038565006
 21
65.70523580344121
 31
0.0
 11
-34.47296497254578
 21
65.71407550185836
 31
0.0
 11
-34.47998925924385
 21
65.71936670919966
 31
0.0
 11
-34.48563135896485
 21
65.72061571052572
 31
0.0
  0
SPLINE
  5
A4
330
47
100
AcDbEntity
  8
0
  6
Continuous
 62
     7
100
AcDbSpline
210
0.0
220
0.0
230
1.0
 70
     8
 71
     3
 72
    17
 73
    13
 74
    11
 42
0.000000001
 43
0.0000000001
 44
0.00000001
 40
0.0
 40
0.0
 40
0.0
 40
0.0
 40
0.0355501951019283
 40
0.0753423887089044
 40
0.1213956176569431
 40
0.1748294872419022
 40
0.2024523170944665
 40
0.2355902460350922
 40
0.2671466620292542
 40
0.3038714359365914
 40
0.3761625266385034
 40
0.4598222588405463
 40
0.4598222588405463
 40
0.4598222588405463
 40
0.4598222588405463
 10
-34.28644909482066
 20
64.23389905102037
 30
0.0
 10
-34.27485320500622
 20
64.23680894550886
 30
0.0
 10
-34.25027776068534
 20
64.24297596916074
 30
0.0
 10
-34.21737700208288
 20
64.26806859626963
 30
0.0
 10
-34.1870149905312
 20
64.30334713426922
 30
0.0
 10
-34.16582117954373
 20
64.34035394519418
 30
0.0
 10
-34.15047930263636
 20
64.37519643134151
 30
0.0
 10
-34.14007899658873
 20
64.4041919804199
 30
0.0
 10
-34.13070991386696
 20
64.43669378800966
 30
0.0
 10
-34.12048073239124
 20
64.4824407330378
 30
0.0
 10
-34.11136601243732
 20
64.54617709403429
 30
0.0
 10
-34.11013383019828
 20
64.59818318173232
 30
0.0
 10
-34.10947282840363
 20
64.62608181865829
 30
0.0
 11
-34.28644909482066
 21
64.23389905102037
 31
0.0
 11
-34.25258673514691
 21
64.24472298050823
 31
0.0
 11
-34.22005195527155
 21
64.26763383378247
 31
0.0
 11
-34.18971664899169
 21
64.30228450486042
 31
0.0
 11
-34.1626583815583
 21
64.34836083863367
 31
0.0
 11
-34.15149262642154
 21
64.3736263612946
 31
0.0
 11
-34.14024503353196
 21
64.40479708448851
 31
0.0
 11
-34.13147338103169
 21
64.4351098788463
 31
0.0
 11
-34.1233838344615
 21
64.47093261263456
 31
0.0
 11
-34.11322429808092
 21
64.54250625032603
 31
0.0
 11
-34.10947282840363
 21
64.62608181865829
 31
0.0
  0
SPLINE
  5
A5
330
47
100
AcDbEntity
  8
0
  6
Continuous
 62
     7
100
AcDbSpline
210
0.0
220
0.0
230
1.0
 70
     8
 71
     3
 72
    17
 73
    13
 74
    11
 42
0.000000001
 43
0.0000000001
 44
0.00000001
 40
0.0
 40
0.0
 40
0.0
 40
0.0
 40
0.149130886838188
 40
0.2901088862119114
 40
0.41678351650816
 40
0.5357831408954382
 40
0.5837922926930991
 40
0.632347390256996
 40
0.6745730037920358
 40
0.7094526613435362
 40
0.7706976113950009
 40
0.8212703972048734
 40
0.8212703972048734
 40
0.8212703972048734
 40
0.8212703972048734
 10
-34.50000083383503
 20
64.96848725296738
 30
0.0
 10
-34.49977758720177
 20
64.91877568667798
 30
0.0
 10
-34.49934330410951
 20
64.82207025266271
 30
0.0
 10
-34.49352241432332
 20
64.68320776033711
 30
0.0
 10
-34.48119309772906
 20
64.55485085643153
 30
0.0
 10
-34.46360341249779
 20
64.45830089701097
 30
0.0
 10
-34.44336266186568
 20
64.3892801594252
 30
0.0
 10
-34.42666273582326
 20
64.34610123205587
 30
0.0
 10
-34.40720977111838
 20
64.30872921089934
 30
0.0
 10
-34.38055289106201
 20
64.27148751707512
 30
0.0
 10
-34.34192507214317
 20
64.23620020622064
 30
0.0
 10
-34.30372581036704
 20
64.23461569166133
 30
0.0
 10
-34.28644909482066
 20
64.23389905102037
 30
0.0
 11
-34.50000083383503
 21
64.96848725296738
 31
0.0
 11
-34.49837519117494
 21
64.81936523605825
 31
0.0
 11
-34.49199189637211
 21
64.67853182441712
 31
0.0
 11
-34.47911911855676
 21
64.5525129627063
 31
0.0
 11
-34.45646835523795
 21
64.43568893501055
 31
0.0
 11
-34.44278310453659
 21
64.38967162796988
 31
0.0
 11
-34.42500566742133
 21
64.34448800046619
 31
0.0
 11
-34.40519683641238
 21
64.30719708187583
 31
0.0
 11
-34.38473883161375
 21
64.2789471173
 31
0.0
 11
-34.33648819159536
 21
64.24122683853291
 31
0.0
 11
-34.28644909482066
 21
64.23389905102037
 31
0.0
  0
SPLINE
  5
A6
330
47
100
AcDbEntity
  8
0
  6
Continuous
 62
     7
100
AcDbSpline
210
0.0
220
0.0
230
1.0
 70
     8
 71
     3
 72
    15
 73
    11
 74
     9
 42
0.000000001
 43
0.0000000001
 44
0.00000001
 40
0.0
 40
0.0
 40
0.0
 40
0.0
 40
0.0524607155704607
 40
0.1181929766198061
 40
0.1905373297553576
 40
0.2750461510970388
 40
0.368522710213305
 40
0.4591198488547732
 40
0.559503570587986
 40
0.6568969605869984
 40
0.6568969605869984
 40
0.6568969605869984
 40
0.6568969605869984
 10
-34.50000083383503
 20
65.62536483705733
 30
0.0
 10
-34.49988915814629
 20
65.60787819987019
 30
0.0
 10
-34.49963757082944
 20
65.56848114467924
 30
0.0
 10
-34.49863444022749
 20
65.50497608158643
 30
0.0
 10
-34.497888052275
 20
65.43078433793143
 30
0.0
 10
-34.49759102560697
 20
65.34734084279772
 30
0.0
 10
-34.49793996750005
 20
65.25781336179023
 30
0.0
 10
-34.49873234981057
 20
65.16299754983518
 30
0.0
 10
-34.4997053140182
 20
65.06687730048237
 30
0.0
 10
-34.49990332029903
 20
65.00095167677472
 30
0.0
 10
-34.50000083383503
 20
64.96848725296738
 30
0.0
 11
-34.50000083383503
 21
65.62536483705733
 31
0.0
 11
-34.49959278594178
 21
65.57290570841383
 31
0.0
 11
-34.4987290557762
 21
65.5071791223832
 31
0.0
 11
-34.49800112981779
 21
65.434838431503
 31
0.0
 11
-34.49770139759282
 21
65.35033014167621
 31
0.0
 11
-34.49801425665776
 21
65.2568541060974
 31
0.0
 11
-34.49873036500301
 21
65.16625979766454
 31
0.0
 11
-34.49959449711036
 21
65.06587979537944
 31
0.0
 11
-34.50000083383503
 21
64.96848725296738
 31
0.0
  0
SPLINE
  5
A7
330
47
100
AcDbEntity
  8
0
  6
Continuous
 62
     7
100
AcDbSpline
210
0.0
220
0.0
230
1.0
 70
     8
 71
     3
 72
    11
 73
     7
 74
     5
 42
0.000000001
 43
0.0000000001
 44
0.00000001
 40
0.0
 40
0.0
 40
0.0
 40
0.0
 40
0.5303959117577994
 40
0.9841568550452506
 40
1.360629923990957
 40
1.684690771102009
 40
1.684690771102009
 40
1.684690771102009
 40
1.684690771102009
 10
-33.31767257359869
 20
58.73538637922891
 30
0.0
 10
-33.48504841873733
 20
58.7949336063315
 30
0.0
 10
-33.79561657959648
 20
58.90542430956648
 30
0.0
 10
-34.17404014406827
 20
59.15772629197461
 30
0.0
 10
-34.44376886187028
 20
59.45443074250478
 30
0.0
 10
-34.4822156796384
 20
59.68910600869012
 30
0.0
 10
-34.50000083383503
 20
59.79766473096005
 30
0.0
 11
-33.31767257359869
 21
58.73538637922891
 31
0.0
 11
-33.80909680382889
 21
58.93494099219064
 31
0.0
 11
-34.18451214639548
 21
59.18981805512498
 31
0.0
 11
-34.41984308945892
 21
59.48367401282849
 31
0.0
 11
-34.50000083383503
 21
59.79766473096005
 31
0.0
  0
SPLINE
  5
A8
330
47
100
AcDbEntity
  8
0
  6
Continuous
 62
     7
100
AcDbSpline
210
0.0
220
0.0
230
1.0
 70
     8
 71
     3
 72
     9
 73
     5
 74
     3
 42
0.000000001
 43
0.0000000001
 44
0.00000001
 40
0.0
 40
0.0
 40
0.0
 40
0.0
 40
0.4063957925602451
 40
0.8822719538963888
 40
0.8822719538963888
 40
0.8822719538963888
 40
0.8822719538963888
 10
-29.00008683345593
 20
93.84382080992324
 30
0.0
 10
-29.02093648997179
 20
93.70627783667351
 30
0.0
 10
-29.06620042955608
 20
93.40767655348972
 30
0.0
 10
-29.28429154097494
 20
93.19641335549649
 30
0.0
 10
-29.40192462248243
 20
93.08246309970967
 30
0.0
 11
-29.00008683345593
 21
93.84382080992324
 31
0.0
 11
-29.09930535251694
 21
93.44972281770566
 31
0.0
 11
-29.40192462248243
 21
93.08246309970967
 31
0.0
  0
SPLINE
  5
A9
330
47
100
AcDbEntity
  8
0
  6
Continuous
 62
     7
100
AcDbSpline
210
0.0
220
0.0
230
1.0
 70
     8
 71
     3
 72
    13
 73
     9
 74
     7
 42
0.000000001
 43
0.0000000001
 44
0.00000001
 40
0.0
 40
0.0
 40
0.0
 40
0.0
 40
0.4330107089572583
 40
0.9071056321645096
 40
1.402947169602409
 40
1.898788707040305
 40
2.372883630247553
 40
2.805894339204806
 40
2.805894339204806
 40
2.805894339204806
 40
2.805894339204806
 10
-30.63064237595593
 20
93.03640132229648
 30
0.0
 10
-30.76565593466473
 20
93.0882374302304
 30
0.0
 10
-31.04849319281026
 20
93.19682786071843
 30
0.0
 10
-31.51151777861308
 20
93.27806613970711
 30
0.0
 10
-32.00000083383574
 20
93.30912309096217
 30
0.0
 10
-32.48848388905844
 20
93.2780661397071
 30
0.0
 10
-32.95150847486124
 20
93.19682786071846
 30
0.0
 10
-33.23434573300678
 20
93.0882374302304
 30
0.0
 10
-33.36935929171557
 20
93.03640132229648
 30
0.0
 11
-30.63064237595593
 21
93.03640132229648
 31
0.0
 11
-31.03945225638107
 21
93.1791344859272
 31
0.0
 11
-31.50508710871888
 21
93.26829827709506
 31
0.0
 11
-32.00000083383576
 21
93.29861719455712
 31
0.0
 11
-32.49491455895263
 21
93.26829827709506
 31
0.0
 11
-32.96054941129044
 21
93.17913448592721
 31
0.0
 11
-33.36935929171557
 21
93.03640132229648
 31
0.0
  0
SPLINE
  5
AA
330
47
100
AcDbEntity
  8
0
  6
Continuous
 62
     7
100
AcDbSpline
210
0.0
220
0.0
230
1.0
 70
     8
 71
     3
 72
    13
 73
     9
 74
     7
 42
0.000000001
 43
0.0000000001
 44
0.00000001
 40
0.0
 40
0.0
 40
0.0
 40
0.0
 40
0.457458549459676
 40
0.962582370831039
 40
1.49308402904515
 40
2.023585687259257
 40
2.528709508630606
 40
2.986168058090292
 40
2.986168058090292
 40
2.986168058090292
 40
2.986168058090292
 10
-33.45366000984439
 20
93.07469087139731
 30
0.0
 10
-33.3121320911314
 20
93.13236814143968
 30
0.0
 10
-33.01432962992953
 20
93.25373239819822
 30
0.0
 10
-32.52189060469414
 20
93.34396737961592
 30
0.0
 10
-32.00000083383576
 20
93.37867510798188
 30
0.0
 10
-31.47811106297738
 20
93.34396737961592
 30
0.0
 10
-30.98567203774199
 20
93.25373239819822
 30
0.0
 10
-30.68786957654013
 20
93.13236814143964
 30
0.0
 10
-30.54634165782713
 20
93.07469087139731
 30
0.0
 11
-33.45366000984439
 21
93.07469087139731
 31
0.0
 11
-33.02463369522688
 21
93.23345089816084
 31
0.0
 11
-32.52941733120131
 21
93.33300404455439
 31
0.0
 11
-32.00000083383576
 21
93.36691840487309
 31
0.0
 11
-31.4705843364702
 21
93.3330040445544
 31
0.0
 11
-30.97536797244465
 21
93.23345089816084
 31
0.0
 11
-30.54634165782713
 21
93.07469087139731
 31
0.0
  0
SPLINE
  5
AB
330
47
100
AcDbEntity
  8
0
  6
Continuous
 62
     7
100
AcDbSpline
210
0.0
220
0.0
230
1.0
 70
     8
 71
     3
 72
    19
 73
    15
 74
    13
 42
0.000000001
 43
0.0000000001
 44
0.00000001
 40
0.0
 40
0.0
 40
0.0
 40
0.0
 40
0.2810227023271731
 40
0.6098730067406638
 40
1.008200850458283
 40
1.474036227207345
 40
1.991264554967239
 40
2.535960715550156
 40
3.08065687613306
 40
3.597885203892933
 40
4.063720580641997
 40
4.462048424359629
 40
4.790898728773138
 40
5.071921431100297
 40
5.071921431100297
 40
5.071921431100297
 40
5.071921431100297
 10
-29.90000083383576
 20
93.83246309970967
 30
0.0
 10
-29.91600235758396
 20
93.73836812377554
 30
0.0
 10
-29.9507287425017
 20
93.53416403876089
 30
0.0
 10
-30.19150525322612
 20
93.27853328493157
 30
0.0
 10
-30.5280384376501
 20
93.06680285250441
 30
0.0
 10
-30.96346603204788
 20
92.90603627907647
 30
0.0
 10
-31.46395476696904
 20
92.80519059454782
 30
0.0
 10
-32.00000083383576
 20
92.77080540146454
 30
0.0
 10
-32.53604690070249
 20
92.80519059454785
 30
0.0
 10
-33.03653563562364
 20
92.90603627907646
 30
0.0
 10
-33.47196323002142
 20
93.06680285250441
 30
0.0
 10
-33.8084964144454
 20
93.27853328493161
 30
0.0
 10
-34.04927292516982
 20
93.53416403876089
 30
0.0
 10
-34.08399931008757
 20
93.73836812377554
 30
0.0
 10
-34.10000083383577
 20
93.83246309970967
 30
0.0
 11
-29.90000083383576
 21
93.83246309970967
 31
0.0
 11
-29.97155713942365
 21
93.5607031748048
 31
0.0
 11
-30.18134748588844
 21
93.30746309970968
 31
0.0
 11
-30.51507698923338
 21
93.0900011774085
 31
0.0
 11
-30.95000083383576
 21
92.923136425736
 31
0.0
 11
-31.45648098402603
 21
92.81824125250361
 31
0.0
 11
-32.00000083383577
 21
92.78246309970967
 31
0.0
 11
-32.5435206836455
 21
92.81824125250363
 31
0.0
 11
-33.05000083383575
 21
92.923136425736
 31
0.0
 11
-33.48492467843814
 21
93.09000117740848
 31
0.0
 11
-33.81865418178309
 21
93.30746309970968
 31
0.0
 11
-34.02844452824788
 21
93.56070317480481
 31
0.0
 11
-34.10000083383577
 21
93.83246309970967
 31
0.0
  0
SPLINE
  5
AC
330
47
100
AcDbEntity
  8
0
  6
Continuous
 62
     7
100
AcDbSpline
210
0.0
220
0.0
230
1.0
 70
     8
 71
     3
 72
    19
 73
    15
 74
    13
 42
0.000000001
 43
0.0000000001
 44
0.00000001
 40
0.0
 40
0.0
 40
0.0
 40
0.0
 40
0.4005861720746638
 40
0.8700841248662983
 40
1.438112056870506
 40
2.101447986718513
 40
2.837217777674664
 40
3.611673433038185
 40
4.386129088401703
 40
5.121898879357841
 40
5.785234809205867
 40
6.353262741210075
 40
6.822760694001691
 40
7.223346866076359
 40
7.223346866076359
 40
7.223346866076359
 40
7.223346866076359
 10
-34.99991483421557
 20
93.84382080992323
 30
0.0
 10
-34.9752057011172
 20
93.97754812458767
 30
0.0
 10
-34.92153676971682
 20
94.26800750279475
 30
0.0
 10
-34.57576725098184
 20
94.6297494801501
 30
0.0
 10
-34.0948926285847
 20
94.92985737072011
 30
0.0
 10
-33.4744427062852
 20
95.15750862105985
 30
0.0
 10
-32.76227346142322
 20
95.30029411452875
 30
0.0
 10
-32.00000083383576
 20
95.3489596270382
 30
0.0
 10
-31.2377282062483
 20
95.30029411452874
 30
0.0
 10
-30.52555896138632
 20
95.15750862105988
 30
0.0
 10
-29.90510903908681
 20
94.92985737072009
 30
0.0
 10
-29.42423441668968
 20
94.62974948015008
 30
0.0
 10
-29.0784648979547
 20
94.26800750279476
 30
0.0
 10
-29.02479596655431
 20
93.9775481245877
 30
0.0
 10
-29.00008683345593
 20
93.84382080992324
 30
0.0
 11
-34.99991483421557
 21
93.84382080992323
 31
0.0
 11
-34.89282054261509
 21
94.22982611722993
 31
0.0
 11
-34.59047209682669
 21
94.5890109560311
 31
0.0
 11
-34.11327425583889
 21
94.89713098009872
 31
0.0
 11
-33.49343862331202
 21
95.13339003549088
 31
0.0
 11
-32.77280021486229
 21
95.28184024653503
 31
0.0
 11
-32.00000083383576
 21
95.33246309970967
 31
0.0
 11
-31.22720145280923
 21
95.28184024653501
 31
0.0
 11
-30.50656304435951
 21
95.13339003549089
 31
0.0
 11
-29.88672741183262
 21
94.89713098009872
 31
0.0
 11
-29.40952957084482
 21
94.5890109560311
 31
0.0
 11
-29.10718112505642
 21
94.22982611722995
 31
0.0
 11
-29.00008683345593
 21
93.84382080992324
 31
0.0
  0
SPLINE
  5
AD
330
47
100
AcDbEntity
  8
0
  6
Continuous
 62
     7
100
AcDbSpline
210
0.0
220
0.0
230
1.0
 70
     8
 71
     3
 72
    19
 73
    15
 74
    13
 42
0.000000001
 43
0.0000000001
 44
0.00000001
 40
0.0
 40
0.0
 40
0.0
 40
0.0
 40
0.4282250724779245
 40
0.9293303001552577
 40
1.536306060677951
 40
2.24615044301564
 40
3.034307893253771
 40
3.864321088409553
 40
4.694334283565332
 40
5.482491733803456
 40
6.192336116141151
 40
6.799311876663831
 40
7.300417104341168
 40
7.728642176819078
 40
7.728642176819078
 40
7.728642176819078
 40
7.728642176819078
 10
-28.80000083383574
 20
80.62557569199689
 30
0.0
 10
-28.82438410824769
 20
80.48219287076742
 30
0.0
 10
-28.87730049498655
 20
80.17102473592008
 30
0.0
 10
-29.24419805284213
 20
79.78149217003777
 30
0.0
 10
-29.75701051877375
 20
79.45885531732841
 30
0.0
 10
-30.42051923486194
 20
79.21387768406382
 30
0.0
 10
-31.18316873363133
 20
79.06020806997358
 30
0.0
 10
-32.00000083383576
 20
79.00781158580453
 30
0.0
 10
-32.81683293404018
 20
79.06020806997358
 30
0.0
 10
-33.57948243280959
 20
79.21387768406379
 30
0.0
 10
-34.24299114889774
 20
79.45885531732844
 30
0.0
 10
-34.7558036148294
 20
79.78149217003777
 30
0.0
 10
-35.12270117268493
 20
80.17102473592013
 30
0.0
 10
-35.17561755942382
 20
80.48219287076745
 30
0.0
 10
-35.20000083383575
 20
80.6255756919969
 30
0.0
 11
-28.80000083383574
 21
80.62557569199689
 31
0.0
 11
-28.9090390137792
 21
80.21146533023708
 31
0.0
 11
-29.22871954172555
 21
79.82557569199687
 31
0.0
 11
-29.7372597372988
 21
79.4942051437284
 31
0.0
 11
-30.40000083383575
 21
79.23993504594179
 31
0.0
 11
-31.17178011031617
 21
79.08009478196863
 31
0.0
 11
-32.00000083383576
 21
79.02557569199689
 31
0.0
 11
-32.82822155735535
 21
79.08009478196863
 31
0.0
 11
-33.60000083383576
 21
79.23993504594179
 31
0.0
 11
-34.26274193037272
 21
79.49420514372842
 31
0.0
 11
-34.77128212594596
 21
79.82557569199689
 31
0.0
 11
-35.0909626538923
 21
80.2114653302371
 31
0.0
 11
-35.20000083383575
 21
80.6255756919969
 31
0.0
  0
ENDBLK
  5
49
330
47
100
AcDbEntity
  8
0
100
AcDbBlockEnd
  0
BLOCK
  5
4C
330
4A
100
AcDbEntity
  8
0
100
AcDbBlockBegin
  2
AllgSicht1
 70
     0
 10
-32.0
 20
74.64999999999975
 30
0.0
  3
AllgSicht1
  1

  0
INSERT
  5
4B
330
4A
100
AcDbEntity
  8
0
100
AcDbBlockReference
  2
PSBJ_3_44_6_GY-select__1
 10
-35.20000083383575
 20
54.71753771203787
 30
0.0
  0
ENDBLK
  5
4D
330
4A
100
AcDbEntity
  8
0
100
AcDbBlockEnd
  0
BLOCK
  5
4F
330
4E
100
AcDbEntity
  8
0
100
AcDbBlockBegin
  2
PSBJ_3_44_6_GY-select__2
 70
     0
 10
-111.2000019256617
 20
81.44999999998932
 30
0.0
  3
PSBJ_3_44_6_GY-select__2
  1

  0
LINE
  5
AE
330
4E
100
AcDbEntity
  8
0
  6
Continuous
 62
     7
100
AcDbLine
 10
-106.2354346899033
 20
85.69345698065352
 30
0.0
 11
-109.0434589063259
 21
82.88543276423093
 31
0.0
  0
LINE
  5
AF
330
4E
100
AcDbEntity
  8
0
  6
Continuous
 62
     7
100
AcDbLine
 10
-106.9565449449967
 20
86.41456723574728
 30
0.0
 11
-109.7645691614196
 21
83.60654301932428
 31
0.0
  0
LINE
  5
B0
330
4E
100
AcDbEntity
  8
1
  6
DOT_CENTER
 62
     2
100
AcDbLine
 10
-104.4800019256634
 20
84.64999999998932
 30
0.0
 11
-111.5200019256597
 21
84.64999999998932
 31
0.0
  0
LINE
  5
B1
330
4E
100
AcDbEntity
  8
1
  6
DOT_CENTER
 62
     2
100
AcDbLine
 10
-108.0000019256617
 20
88.16999999998747
 30
0.0
 11
-108.0000019256617
 21
81.12999999999117
 31
0.0
  0
ARC
  5
B2
330
4E
100
AcDbEntity
  8
0
  6
Continuous
 62
     7
100
AcDbCircle
 10
-108.0000019256617
 20
84.64999999998932
 30
0.0
 40
2.050000000002155
100
AcDbArc
 50
239.4025301606305
 51
246.4601277494009
  0
ARC
  5
B3
330
4E
100
AcDbEntity
  8
0
  6
Continuous
 62
     7
100
AcDbCircle
 10
-108.0000019256617
 20
84.64999999998932
 30
0.0
 40
2.050000000002162
100
AcDbArc
 50
210.5974698393971
 51
239.4025301606305
  0
ARC
  5
B4
330
4E
100
AcDbEntity
  8
0
  6
Continuous
 62
     7
100
AcDbCircle
 10
-108.0000019256617
 20
84.64999999998932
 30
0.0
 40
2.050000000002175
100
AcDbArc
 50
30.59746983936969
 51
59.40253016060456
  0
ARC
  5
B5
330
4E
100
AcDbEntity
  8
0
  6
Continuous
 62
     7
100
AcDbCircle
 10
-108.0000019256617
 20
84.64999999998932
 30
0.0
 40
2.050000000002238
100
AcDbArc
 50
246.4601277494009
 51
30.59746983936969
  0
ARC
  5
B6
330
4E
100
AcDbEntity
  8
0
  6
Continuous
 62
     7
100
AcDbCircle
 10
-108.0000019256617
 20
84.64999999998932
 30
0.0
 40
2.050000000002208
100
AcDbArc
 50
59.40253016060456
 51
210.5974698393971
  0
ARC
  5
B7
330
4E
100
AcDbEntity
  8
0
  6
Continuous
 62
     7
100
AcDbCircle
 10
-108.0000019256617
 20
84.64999999998932
 30
0.0
 40
3.200000000000003
100
AcDbArc
 50
0.0
 51
180.0
  0
ARC
  5
B8
330
4E
100
AcDbEntity
  8
0
  6
Continuous
 62
     7
100
AcDbCircle
 10
-108.0000019256617
 20
84.64999999998932
 30
0.0
 40
3.199999999999989
100
AcDbArc
 50
180.0
 51
0.0
  0
CIRCLE
  5
B9
330
4E
100
AcDbEntity
  8
0
  6
Continuous
 62
     7
100
AcDbCircle
 10
-108.0000019256617
 20
84.64999999998932
 30
0.0
 40
2.099999999999961
  0
CIRCLE
  5
BA
330
4E
100
AcDbEntity
  8
0
  6
Continuous
 62
     7
100
AcDbCircle
 10
-108.0000019256617
 20
84.64999999998932
 30
0.0
 40
3.0
  0
ENDBLK
  5
50
330
4E
100
AcDbEntity
  8
0
100
AcDbBlockEnd
  0
BLOCK
  5
53
330
51
100
AcDbEntity
  8
0
100
AcDbBlockBegin
  2
Drfsicht1
 70
     0
 10
-108.0000009628311
 20
84.64999999998932
 30
0.0
  3
Drfsicht1
  1

  0
INSERT
  5
52
330
51
100
AcDbEntity
  8
0
100
AcDbBlockReference
  2
PSBJ_3_44_6_GY-select__2
 10
-111.2000019256617
 20
81.44999999998932
 30
0.0
  0
INSERT
  5
C7
330
51
100
AcDbEntity
  8
1
100
AcDbBlockReference
  2
*D17
 10
0.0
 20
0.0
 30
0.0
  0
ENDBLK
  5
54
330
51
100
AcDbEntity
  8
0
100
AcDbBlockEnd
  0
BLOCK
  5
56
330
55
100
AcDbEntity
  8
0
100
AcDbBlockBegin
  2
PSBJ_3_44_6_GY-select__3
 70
     0
 10
-35.1999990371677
 20
113.8500001907005
 30
0.0
  3
PSBJ_3_44_6_GY-select__3
  1

  0
LINE
  5
C8
330
55
100
AcDbEntity
  8
0
  6
Continuous
 62
     7
100
AcDbLine
 10
-28.99999903716934
 20
158.1500001907249
 30
0.0
 11
-28.79999903717102
 21
142.9000001908573
 31
0.0
  0
LINE
  5
C9
330
55
100
AcDbEntity
  8
0
  6
Continuous
 62
     7
100
AcDbLine
 10
-28.99999903716946
 20
127.6500001907005
 30
0.0
 11
-28.79999903717099
 21
139.9000001907167
 31
0.0
  0
LINE
  5
CA
330
55
100
AcDbEntity
  8
0
  6
Continuous
 62
     7
100
AcDbLine
 10
-28.79999903717099
 20
139.9000001907167
 30
0.0
 11
-28.79999903717102
 21
142.9000001908573
 31
0.0
  0
LINE
  5
CB
330
55
100
AcDbEntity
  8
0
  6
Continuous
 62
     7
100
AcDbLine
 10
-34.49999903716865
 20
127.350000190727
 30
0.0
 11
-29.49999903717204
 21
127.350000190725
 31
0.0
  0
LINE
  5
CC
330
55
100
AcDbEntity
  8
0
  6
Continuous
 62
     7
100
AcDbLine
 10
-28.99999903716946
 20
127.6500001907005
 30
0.0
 11
-29.19999903717227
 21
127.6500001907248
 31
0.0
  0
LINE
  5
CD
330
55
100
AcDbEntity
  8
0
  6
Continuous
 62
     7
100
AcDbLine
 10
-29.19999903717227
 20
127.6500001907248
 30
0.0
 11
-34.79999903716644
 21
127.6500001907248
 31
0.0
  0
LINE
  5
CE
330
55
100
AcDbEntity
  8
0
  6
Continuous
 62
     7
100
AcDbLine
 10
-33.49999903716936
 20
118.8500001907005
 30
0.0
 11
-33.49999903716936
 21
113.8500001907005
 31
0.0
  0
LINE
  5
CF
330
55
100
AcDbEntity
  8
0
  6
Continuous
 62
     7
100
AcDbLine
 10
-34.49999903716865
 20
127.350000190727
 30
0.0
 11
-34.49999903716866
 21
118.8500001907005
 31
0.0
  0
LINE
  5
D0
330
55
100
AcDbEntity
  8
0
  6
Continuous
 62
     7
100
AcDbLine
 10
-33.49999903716936
 20
118.8500001907005
 30
0.0
 11
-34.49999903716866
 21
118.8500001907005
 31
0.0
  0
LINE
  5
D1
330
55
100
AcDbEntity
  8
0
  6
Continuous
 62
     7
100
AcDbLine
 10
-29.49999903717007
 20
118.8500001907005
 30
0.0
 11
-30.49999903716936
 21
118.8500001907005
 31
0.0
  0
LINE
  5
D2
330
55
100
AcDbEntity
  8
0
  6
Continuous
 62
     7
100
AcDbLine
 10
-30.49999903716936
 20
118.8500001907005
 30
0.0
 11
-33.49999903716936
 21
118.8500001907005
 31
0.0
  0
LINE
  5
D3
330
55
100
AcDbEntity
  8
0
  6
Continuous
 62
     7
100
AcDbLine
 10
-30.49999903716936
 20
113.8500001907005
 30
0.0
 11
-33.49999903716936
 21
113.8500001907005
 31
0.0
  0
LINE
  5
D4
330
55
100
AcDbEntity
  8
0
  6
Continuous
 62
     7
100
AcDbLine
 10
-28.99999903716934
 20
158.1500001907249
 30
0.0
 11
-34.99999903716936
 21
158.1500001907249
 31
0.0
  0
LINE
  5
D5
330
55
100
AcDbEntity
  8
0
  6
Continuous
 62
     7
100
AcDbLine
 10
-29.49999903717204
 20
127.350000190725
 30
0.0
 11
-29.49999903717007
 21
118.8500001907005
 31
0.0
  0
LINE
  5
D6
330
55
100
AcDbEntity
  8
0
  6
Continuous
 62
     7
100
AcDbLine
 10
-30.49999903716936
 20
118.8500001907005
 30
0.0
 11
-30.49999903716936
 21
113.8500001907005
 31
0.0
  0
LINE
  5
D7
330
55
100
AcDbEntity
  8
0
  6
Continuous
 62
     7
100
AcDbLine
 10
-29.49999903717204
 20
127.350000190725
 30
0.0
 11
-29.19999903717227
 21
127.6500001907248
 31
0.0
  0
LINE
  5
D8
330
55
100
AcDbEntity
  8
0
  6
Continuous
 62
     7
100
AcDbLine
 10
-35.19999903716767
 20
139.9000001907166
 30
0.0
 11
-35.1999990371677
 21
142.9000001907248
 31
0.0
  0
LINE
  5
D9
330
55
100
AcDbEntity
  8
0
  6
Continuous
 62
     7
100
AcDbLine
 10
-28.79999903717102
 20
142.9000001908573
 30
0.0
 11
-35.1999990371677
 21
142.9000001907248
 31
0.0
  0
LINE
  5
DA
330
55
100
AcDbEntity
  8
0
  6
Continuous
 62
     7
100
AcDbLine
 10
-35.19999903716767
 20
139.9000001907166
 30
0.0
 11
-28.79999903717099
 21
139.9000001907167
 31
0.0
  0
LINE
  5
DB
330
55
100
AcDbEntity
  8
0
  6
Continuous
 62
     7
100
AcDbLine
 10
-34.79999903716644
 20
127.6500001907248
 30
0.0
 11
-34.99999903716896
 21
127.6500001907004
 31
0.0
  0
LINE
  5
DC
330
55
100
AcDbEntity
  8
0
  6
Continuous
 62
     7
100
AcDbLine
 10
-34.49999903716865
 20
127.350000190727
 30
0.0
 11
-34.79999903716644
 21
127.6500001907248
 31
0.0
  0
LINE
  5
DD
330
55
100
AcDbEntity
  8
0
  6
Continuous
 62
     7
100
AcDbLine
 10
-34.99999903716896
 20
127.6500001907004
 30
0.0
 11
-35.19999903716767
 21
139.9000001907166
 31
0.0
  0
LINE
  5
DE
330
55
100
AcDbEntity
  8
0
  6
Continuous
 62
     7
100
AcDbLine
 10
-34.99999903716936
 20
158.1500001907249
 30
0.0
 11
-35.1999990371677
 21
142.9000001907248
 31
0.0
  0
LINE
  5
DF
330
55
100
AcDbEntity
  8
1
  6
DOT_CENTER
 62
     2
100
AcDbLine
 10
-31.99999903716935
 20
113.8500001907005
 30
0.0
 11
-31.99999903716933
 21
158.1500001907251
 31
0.0
  0
SPLINE
  5
E0
330
55
100
AcDbEntity
  8
0
  6
Continuous
 62
     7
100
AcDbSpline
210
0.0
220
0.0
230
1.0
 70
     8
 71
     3
 72
    21
 73
    17
 74
    15
 42
0.000000001
 43
0.0000000001
 44
0.00000001
 40
0.0
 40
0.0
 40
0.0
 40
0.0
 40
0.1456340915017736
 40
0.2900970253171213
 40
0.3643896827245622
 40
0.4244480994175047
 40
0.4849700827114215
 40
0.5482159439090806
 40
0.6063523939038251
 40
0.6615734888624542
 40
0.7118301754526748
 40
0.7665055451625019
 40
0.8176016803512641
 40
0.867049573269056
 40
0.9131946947246041
 40
0.9688952532922595
 40
0.9688952532922595
 40
0.9688952532922595
 40
0.9688952532922595
 10
-34.21667131846275
 20
125.2000001907248
 30
0.0
 10
-34.21537089118377
 20
125.1514393372599
 30
0.0
 10
-34.21278048426803
 20
125.0547081466682
 30
0.0
 10
-34.19439715546428
 20
124.9342699455809
 30
0.0
 10
-34.17255978843599
 20
124.8438860376816
 30
0.0
 10
-34.15306019961986
 20
124.7818736768385
 30
0.0
 10
-34.13070604186068
 20
124.7247636442287
 30
0.0
 10
-34.10397247320473
 20
124.6702419533001
 30
0.0
 10
-34.07300517576775
 20
124.6200607934633
 30
0.0
 10
-34.03947793528366
 20
124.5768942142875
 30
0.0
 10
-34.00195652212866
 20
124.5387479821006
 30
0.0
 10
-33.96077168001241
 20
124.5066855612597
 30
0.0
 10
-33.91554204483653
 20
124.4811453984551
 30
0.0
 10
-33.86968986340779
 20
124.4637491248122
 30
0.0
 10
-33.82034574597768
 20
124.452238863631
 30
0.0
 10
-33.78635559184939
 20
124.4507916705608
 30
0.0
 10
-33.76776599013523
 20
124.4500001907248
 30
0.0
 11
-34.21667131846275
 21
125.2000001907248
 31
0.0
 11
-34.20973445011202
 21
125.0545314095213
 31
0.0
 11
-34.18819800810651
 21
124.9116828155937
 31
0.0
 11
-34.17055178712836
 21
124.8395162731146
 31
0.0
 11
-34.15246219692543
 21
124.7822469081007
 31
0.0
 11
-34.1302867504379
 21
124.7259338539081
 31
0.0
 11
-34.10228619712407
 21
124.6692239956273
 31
0.0
 11
-34.07161241398238
 21
124.6198381079342
 31
0.0
 11
-34.03761162025631
 21
124.5763258634588
 31
0.0
 11
-34.00227752350114
 21
124.5405874216879
 31
0.0
 11
-33.95905156414416
 21
124.5071073889595
 31
0.0
 11
-33.91451155963604
 21
124.4820673580132
 31
0.0
 11
-33.86831045716689
 21
124.4644448605544
 31
0.0
 11
-33.82330347510526
 21
124.4542593773737
 31
0.0
 11
-33.76776599013523
 21
124.4500001907248
 31
0.0
  0
SPLINE
  5
E1
330
55
100
AcDbEntity
  8
0
  6
Continuous
 62
     7
100
AcDbSpline
210
0.0
220
0.0
230
1.0
 70
     8
 71
     3
 72
    19
 73
    15
 74
    13
 42
0.000000001
 43
0.0000000001
 44
0.00000001
 40
0.0
 40
0.0
 40
0.0
 40
0.0
 40
0.0509299081219373
 40
0.1019428073843722
 40
0.1514167413644806
 40
0.2025425671924848
 40
0.2571446154696623
 40
0.307343368091092
 40
0.3625046225293012
 40
0.4205765249471053
 40
0.5570870892418065
 40
0.6788049484102103
 40
0.8231659621155065
 40
0.9686998698371295
 40
0.9686998698371295
 40
0.9686998698371295
 40
0.9686998698371295
 10
-33.76776599013523
 20
125.9500001907248
 30
0.0
 10
-33.78475820744094
 20
125.9493313925988
 30
0.0
 10
-33.81877033016664
 20
125.9479926939997
 30
0.0
 10
-33.86827244164184
 20
125.9368023910718
 30
0.0
 10
-33.91565364717789
 20
125.9188026538853
 30
0.0
 10
-33.96086929947207
 20
125.8932483694659
 30
0.0
 10
-34.00201697820036
 20
125.8611944473789
 30
0.0
 10
-34.0394885356598
 20
125.8230899350367
 30
0.0
 10
-34.07298222331819
 20
125.7799720451272
 30
0.0
 10
-34.11676668563906
 20
125.7090167217719
 30
0.0
 10
-34.15799471731739
 20
125.6112219442713
 30
0.0
 10
-34.19206648511545
 20
125.4812326979854
 30
0.0
 10
-34.21277741815981
 20
125.3451931824437
 30
0.0
 10
-34.21536985875864
 20
125.2485282212966
 30
0.0
 10
-34.21667131846275
 20
125.2000001907248
 30
0.0
 11
-33.76776599013523
 21
125.9500001907248
 31
0.0
 11
-33.81857184109074
 21
125.946447491372
 31
0.0
 11
-33.86840236477198
 21
125.9355280074623
 31
0.0
 11
-33.91462208408098
 21
125.9178812556534
 31
0.0
 11
-33.95917810103917
 21
125.8928091290922
 31
0.0
 11
-34.00233582018289
 21
125.8593607352898
 31
0.0
 11
-34.03762497865536
 21
125.8236593330553
 31
0.0
 11
-34.07158972840379
 21
125.7801948667986
 31
0.0
 11
-34.10223558262318
 21
125.7308676174911
 31
0.0
 11
-34.15662397846346
 21
125.6056596434089
 31
0.0
 11
-34.18823951130472
 21
125.4881194570771
 31
0.0
 11
-34.20974410611434
 21
125.3453691346443
 31
0.0
 11
-34.21667131846275
 21
125.2000001907248
 31
0.0
  0
SPLINE
  5
E2
330
55
100
AcDbEntity
  8
0
  6
Continuous
 62
     7
100
AcDbSpline
210
0.0
220
0.0
230
1.0
 70
     8
 71
     3
 72
    37
 73
    33
 74
    31
 42
0.000000001
 43
0.0000000001
 44
0.00000001
 40
0.0
 40
0.0
 40
0.0
 40
0.0
 40
0.0387367926802444
 40
0.0850004390449368
 40
0.1327861677048448
 40
0.1751815938310694
 40
0.2185026712233143
 40
0.2710701502067626
 40
0.3169673393194521
 40
0.3722731182618732
 40
0.4659861100574439
 40
0.5395410405685084
 40
0.6259686875748973
 40
0.7144695074176891
 40
0.7927062702275248
 40
0.8865879455432037
 40
0.9663433742879435
 40
1.061105300522578
 40
1.140178331581932
 40
1.235159078836483
 40
1.329227958096954
 40
1.407601603632297
 40
1.496522917604464
 40
1.583350365830774
 40
1.657020142962314
 40
1.750949997766347
 40
1.802049833472639
 40
1.85199197957879
 40
1.900339311136225
 40
1.947532070326417
 40
2.036412879143
 40
2.12191596009086
 40
2.12191596009086
 40
2.12191596009086
 40
2.12191596009086
 10
-33.76776599013523
 20
124.4500001907248
 30
0.0
 10
-33.75484926703513
 20
124.4503910008023
 30
0.0
 10
-33.72650600404362
 20
124.4512485714043
 30
0.0
 10
-33.68270084171629
 20
124.4584794981592
 30
0.0
 10
-33.63871166620385
 20
124.4702683545187
 30
0.0
 10
-33.59695044625814
 20
124.4858037109689
 30
0.0
 10
-33.55513037154085
 20
124.505292466362
 30
0.0
 10
-33.51404297664288
 20
124.5287774709168
 30
0.0
 10
-33.47163128248276
 20
124.5576332416459
 30
0.0
 10
-33.42076800179654
 20
124.5981614750701
 30
0.0
 10
-33.36769793148125
 20
124.6503191218125
 30
0.0
 10
-33.31406215661706
 20
124.7158372859177
 30
0.0
 10
-33.26814739493237
 20
124.7849688091804
 30
0.0
 10
-33.22914149121589
 20
124.8599892796413
 30
0.0
 10
-33.19701416048301
 20
124.9408345119172
 30
0.0
 10
-33.174296319576
 20
125.0218664864583
 30
0.0
 10
-33.15943345120976
 20
125.1102231672801
 30
0.0
 10
-33.15445938055326
 20
125.1948163523455
 30
0.0
 10
-33.15886325663981
 20
125.2844456492183
 30
0.0
 10
-33.17285143606308
 20
125.3729327869557
 30
0.0
 10
-33.19694156797399
 20
125.4589660430244
 30
0.0
 10
-33.22914856022496
 20
125.5400498812639
 30
0.0
 10
-33.26831663487865
 20
125.6153474735499
 30
0.0
 10
-33.31445325571994
 20
125.6847088497035
 30
0.0
 10
-33.36831154484069
 20
125.7503599817556
 30
0.0
 10
-33.42052834080592
 20
125.8015430522625
 30
0.0
 10
-33.47134123327854
 20
125.8421466589756
 30
0.0
 10
-33.51250283260128
 20
125.8702503592653
 30
0.0
 10
-33.55460991405039
 20
125.894448983926
 30
0.0
 10
-33.61031043515526
 20
125.9204370339117
 30
0.0
 10
-33.68102457969019
 20
125.9442502015402
 30
0.0
 10
-33.73922797624051
 20
125.9481084426886
 30
0.0
 10
-33.76776599013523
 20
125.9500001907248
 30
0.0
 11
-33.76776599013523
 21
124.4500001907248
 31
0.0
 11
-33.72907858807447
 21
124.4519558399536
 31
0.0
 11
-33.68337357060826
 21
124.4591235940665
 31
0.0
 11
-33.63721648613358
 21
124.4714928888872
 31
0.0
 11
-33.59745788384491
 21
124.4862110988446
 31
0.0
 11
-33.5581739961728
 21
124.5044728599261
 31
0.0
 11
-33.5125021691332
 21
124.5305002313675
 31
0.0
 11
-33.47453562604894
 21
124.5562896395739
 31
0.0
 11
-33.43125241607642
 21
124.5907177228422
 31
0.0
 11
-33.36431012819389
 21
124.6562986263478
 31
0.0
 11
-33.31768451499321
 21
124.7131878166356
 31
0.0
 11
-33.26984171038767
 21
124.7851656199256
 31
0.0
 11
-33.22900687294568
 21
124.8636825677885
 31
0.0
 11
-33.20011907965118
 21
124.9363907956576
 31
0.0
 11
-33.17478960586114
 21
125.0267909429927
 31
0.0
 11
-33.1615678983901
 21
125.1054428012591
 31
0.0
 11
-33.15601114774883
 21
125.2000416654569
 31
0.0
 11
-33.15988826399135
 21
125.2790195874137
 31
0.0
 11
-33.17470811856963
 21
125.3728370387886
 31
0.0
 11
-33.20005623230229
 21
125.4634263709468
 31
0.0
 11
-33.22898347549212
 21
125.5362662148902
 31
0.0
 11
-33.27002712529697
 21
125.615148524891
 31
0.0
 11
-33.31814165210996
 21
125.6874257552758
 31
0.0
 11
-33.36489956568035
 21
125.744354953089
 31
0.0
 11
-33.43208405230217
 21
125.8099984020264
 31
0.0
 11
-33.47202840149647
 21
125.8418675437078
 31
0.0
 11
-33.51329494157729
 21
125.8699974327062
 31
0.0
 11
-33.55525229939009
 21
125.8940191861868
 31
0.0
 11
-33.59799947975779
 21
125.9140150650297
 31
0.0
 11
-33.68276507905455
 21
125.9407469207664
 31
0.0
 11
-33.76776599013523
 21
125.9500001907248
 31
0.0
  0
ENDBLK
  5
57
330
55
100
AcDbEntity
  8
0
100
AcDbBlockEnd
  0
BLOCK
  5
5A
330
58
100
AcDbEntity
  8
0
100
AcDbBlockBegin
  2
Rckans1
 70
     0
 10
-31.99999999999995
 20
135.999999999995
 30
0.0
  3
Rckans1
  1

  0
INSERT
  5
59
330
58
100
AcDbEntity
  8
0
100
AcDbBlockReference
  2
PSBJ_3_44_6_GY-select__3
 10
-35.1999990371677
 20
113.8500001907005
 30
0.0
  0
ENDBLK
  5
5B
330
58
100
AcDbEntity
  8
0
100
AcDbBlockEnd
  0
BLOCK
  5
5D
330
5C
100
AcDbEntity
  8
0
100
AcDbBlockBegin
  2
PSBJ_3_44_6_GY-select__4
 70
     0
 10
-73.19999999999833
 20
113.8500001907005
 30
0.0
  3
PSBJ_3_44_6_GY-select__4
  1

  0
LINE
  5
E3
330
5C
100
AcDbEntity
  8
0
  6
Continuous
 62
     7
100
AcDbLine
 10
-72.49999999999929
 20
127.350000190727
 30
0.0
 11
-72.49999999999929
 21
118.8500001907005
 31
0.0
  0
LINE
  5
E4
330
5C
100
AcDbEntity
  8
0
  6
Continuous
 62
     7
100
AcDbLine
 10
-71.5
 20
118.8500001907005
 30
0.0
 11
-71.5
 21
113.8500001907005
 31
0.0
  0
LINE
  5
E5
330
5C
100
AcDbEntity
  8
0
  6
Continuous
 62
     7
100
AcDbLine
 10
-73.0
 20
158.1500001907249
 30
0.0
 11
-73.19999999999833
 21
142.9000001907248
 31
0.0
  0
LINE
  5
E6
330
5C
100
AcDbEntity
  8
0
  6
Continuous
 62
     7
100
AcDbLine
 10
-68.5
 20
113.8500001907005
 30
0.0
 11
-70.0
 21
113.8500001907005
 31
0.0
  0
LINE
  5
E7
330
5C
100
AcDbEntity
  8
0
  6
Continuous
 62
     7
100
AcDbLine
 10
-67.5000000000007
 20
118.8500001907005
 30
0.0
 11
-67.50124405313966
 21
118.8500001907005
 31
0.0
  0
LINE
  5
E8
330
5C
100
AcDbEntity
  8
0
  6
Continuous
 62
     7
100
AcDbLine
 10
-70.0
 20
113.8500001907005
 30
0.0
 11
-71.5
 21
113.8500001907005
 31
0.0
  0
LINE
  5
E9
330
5C
100
AcDbEntity
  8
0
  6
Continuous
 62
     7
100
AcDbLine
 10
-72.49999999999929
 20
127.350000190727
 30
0.0
 11
-72.79999999999707
 21
127.6500001907248
 31
0.0
  0
LINE
  5
EA
330
5C
100
AcDbEntity
  8
0
  6
Continuous
 62
     7
100
AcDbLine
 10
-67.5000000000007
 20
127.350000190727
 30
0.0
 11
-67.5000000000007
 21
118.8500001907005
 31
0.0
  0
LINE
  5
EB
330
5C
100
AcDbEntity
  8
0
  6
Continuous
 62
     7
100
AcDbLine
 10
-70.0
 20
127.3500001907249
 30
0.0
 11
-67.5000000000007
 21
127.350000190727
 31
0.0
  0
LINE
  5
EC
330
5C
100
AcDbEntity
  8
0
  6
Continuous
 62
     7
100
AcDbLine
 10
-66.99999999999997
 20
158.1500001907249
 30
0.0
 11
-73.0
 21
158.1500001907249
 31
0.0
  0
LINE
  5
ED
330
5C
100
AcDbEntity
  8
0
  6
Continuous
 62
     7
100
AcDbLine
 10
-67.50124405313966
 20
118.8500001907005
 30
0.0
 11
-68.5
 21
118.8500001907005
 31
0.0
  0
LINE
  5
EE
330
5C
100
AcDbEntity
  8
0
  6
Continuous
 62
     7
100
AcDbLine
 10
-71.5
 20
118.8500001907005
 30
0.0
 11
-72.49999999999929
 21
118.8500001907005
 31
0.0
  0
LINE
  5
EF
330
5C
100
AcDbEntity
  8
0
  6
Continuous
 62
     7
100
AcDbLine
 10
-68.5
 20
118.8500001907005
 30
0.0
 11
-71.5
 21
118.8500001907005
 31
0.0
  0
LINE
  5
F0
330
5C
100
AcDbEntity
  8
0
  6
Continuous
 62
     7
100
AcDbLine
 10
-68.5
 20
118.8500001907005
 30
0.0
 11
-68.5
 21
113.8500001907005
 31
0.0
  0
LINE
  5
F1
330
5C
100
AcDbEntity
  8
0
  6
Continuous
 62
     7
100
AcDbLine
 10
-73.19999999999833
 20
139.9000001907166
 30
0.0
 11
-73.19999999999833
 21
142.9000001907248
 31
0.0
  0
LINE
  5
F2
330
5C
100
AcDbEntity
  8
0
  6
Continuous
 62
     7
100
AcDbLine
 10
-72.49999999999929
 20
127.350000190727
 30
0.0
 11
-70.0
 21
127.3500001907249
 31
0.0
  0
LINE
  5
F3
330
5C
100
AcDbEntity
  8
0
  6
Continuous
 62
     7
100
AcDbLine
 10
-69.99999999999999
 20
142.9000001908573
 30
0.0
 11
-73.19999999999833
 21
142.9000001907248
 31
0.0
  0
LINE
  5
F4
330
5C
100
AcDbEntity
  8
0
  6
Continuous
 62
     7
100
AcDbLine
 10
-66.80000000000165
 20
139.9000001907166
 30
0.0
 11
-66.80000000000165
 21
142.9000001907248
 31
0.0
  0
LINE
  5
F5
330
5C
100
AcDbEntity
  8
0
  6
Continuous
 62
     7
100
AcDbLine
 10
-67.5000000000007
 20
127.350000190727
 30
0.0
 11
-67.2000000000029
 21
127.6500001907248
 31
0.0
  0
LINE
  5
F6
330
5C
100
AcDbEntity
  8
0
  6
Continuous
 62
     7
100
AcDbLine
 10
-66.80000000000165
 20
142.9000001907248
 30
0.0
 11
-69.99999999999999
 21
142.9000001908573
 31
0.0
  0
LINE
  5
F7
330
5C
100
AcDbEntity
  8
0
  6
Continuous
 62
     7
100
AcDbLine
 10
-72.79999999999707
 20
127.6500001907248
 30
0.0
 11
-72.99999999999973
 21
127.6500001907004
 31
0.0
  0
LINE
  5
F8
330
5C
100
AcDbEntity
  8
0
  6
Continuous
 62
     7
100
AcDbLine
 10
-69.99999999999999
 20
127.6500001907005
 30
0.0
 11
-72.79999999999707
 21
127.6500001907248
 31
0.0
  0
LINE
  5
F9
330
5C
100
AcDbEntity
  8
0
  6
Continuous
 62
     7
100
AcDbLine
 10
-72.99999999999973
 20
127.6500001907004
 30
0.0
 11
-73.19999999999833
 21
139.9000001907166
 31
0.0
  0
LINE
  5
FA
330
5C
100
AcDbEntity
  8
0
  6
Continuous
 62
     7
100
AcDbLine
 10
-73.19999999999833
 20
139.9000001907166
 30
0.0
 11
-66.80000000000165
 21
139.9000001907166
 31
0.0
  0
LINE
  5
FB
330
5C
100
AcDbEntity
  8
0
  6
Continuous
 62
     7
100
AcDbLine
 10
-67.00000000000023
 20
127.6500001907004
 30
0.0
 11
-67.2000000000029
 21
127.6500001907248
 31
0.0
  0
LINE
  5
FC
330
5C
100
AcDbEntity
  8
0
  6
Continuous
 62
     7
100
AcDbLine
 10
-67.2000000000029
 20
127.6500001907248
 30
0.0
 11
-69.99999999999999
 21
127.6500001907005
 31
0.0
  0
LINE
  5
FD
330
5C
100
AcDbEntity
  8
0
  6
Continuous
 62
     7
100
AcDbLine
 10
-67.00000000000023
 20
127.6500001907004
 30
0.0
 11
-66.80000000000165
 21
139.9000001907166
 31
0.0
  0
LINE
  5
FE
330
5C
100
AcDbEntity
  8
0
  6
Continuous
 62
     7
100
AcDbLine
 10
-66.99999999999997
 20
158.1500001907249
 30
0.0
 11
-66.80000000000165
 21
142.9000001907248
 31
0.0
  0
LINE
  5
FF
330
5C
100
AcDbEntity
  8
1
  6
DOT_CENTER
 62
     2
100
AcDbLine
 10
-70.0
 20
113.8500001907005
 30
0.0
 11
-69.99999999999997
 21
158.1500001907249
 31
0.0
  0
SPLINE
  5
100
330
5C
100
AcDbEntity
  8
0
  6
Continuous
 62
     7
100
AcDbSpline
210
0.0
220
0.0
230
1.0
 70
     8
 71
     3
 72
    33
 73
    29
 74
    27
 42
0.000000001
 43
0.0000000001
 44
0.00000001
 40
0.0
 40
0.0
 40
0.0
 40
0.0
 40
0.042177066498593
 40
0.0850008258229018
 40
0.1257987762471237
 40
0.1751823739668378
 40
0.2713101291594737
 40
0.3721213153072268
 40
0.5383350280369763
 40
0.7138219649647873
 40
0.7991914859081839
 40
0.8859424302752542
 40
0.9729299974371056
 40
1.060461730596557
 40
1.13953476173802
 40
1.234515509111673
 40
1.311895027336765
 40
1.406957689712551
 40
1.504678561269256
 40
1.582703519869593
 40
1.677692400250281
 40
1.750304722743229
 40
1.850851275636711
 40
1.946734294486606
 40
1.992182576203385
 40
2.036626521695948
 40
2.079299464969428
 40
2.121330900410179
 40
2.121330900410179
 40
2.121330900410179
 40
2.121330900410179
 10
-68.23223304703413
 20
125.9500001907248
 30
0.0
 10
-68.24629814180064
 20
125.9495421045006
 30
0.0
 10
-68.27464398786559
 20
125.9486188957313
 30
0.0
 10
-68.31610380511117
 20
125.9416063053628
 30
0.0
 10
-68.35905323589196
 20
125.9304524693057
 30
0.0
 10
-68.41749462970975
 20
125.9091459360134
 30
0.0
 10
-68.49048689885622
 20
125.8706534327296
 30
0.0
 10
-68.58780650961248
 20
125.7979883966016
 30
0.0
 10
-68.68856966691443
 20
125.6886035293552
 30
0.0
 10
-68.76136060584307
 20
125.5649133062412
 30
0.0
 10
-68.80374114854823
 20
125.4568904694348
 30
0.0
 10
-68.82673901853167
 20
125.3734622318231
 30
0.0
 10
-68.84082945321148
 20
125.2873534962036
 30
0.0
 10
-68.84542041586616
 20
125.2027757372661
 30
0.0
 10
-68.84113657455526
 20
125.1155555004881
 30
0.0
 10
-68.82801573467754
 20
125.0325685904239
 30
0.0
 10
-68.80483138787423
 20
124.9463690612199
 30
0.0
 10
-68.77236602748096
 20
124.8621497789124
 30
0.0
 10
-68.73017580732773
 20
124.7820952351439
 30
0.0
 10
-68.67971658312017
 20
124.7071264732405
 30
0.0
 10
-68.6268104724263
 20
124.6443507293155
 30
0.0
 10
-68.56196913175376
 20
124.58265154393
 30
0.0
 10
-68.48976355385823
 20
124.5289014423792
 30
0.0
 10
-68.41804611084142
 20
124.4911954439985
 30
0.0
 10
-68.35984310042954
 20
124.4698092449257
 30
0.0
 10
-68.31706251058938
 20
124.4585450528927
 30
0.0
 10
-68.27449667156586
 20
124.4513725096546
 30
0.0
 10
-68.2462496125452
 20
124.4504553107477
 30
0.0
 10
-68.23223304703413
 20
124.4500001907248
 30
0.0
 11
-68.23223304703413
 21
125.9500001907248
 31
0.0
 11
-68.2743466176233
 21
125.9476866041732
 31
0.0
 11
-68.31662546656109
 21
125.9408767873831
 31
0.0
 11
-68.35611034672426
 21
125.9306095067734
 31
0.0
 11
-68.40254115332445
 21
125.9137892826051
 31
0.0
 11
-68.48776921651466
 21
125.8693289341004
 31
0.0
 11
-68.56874662109294
 21
125.8092826586075
 31
0.0
 11
-68.68182816220377
 21
125.6874649125797
 31
0.0
 11
-68.77099216422367
 21
125.5363178136612
 31
0.0
 11
-68.80216854615341
 21
125.4568446217106
 31
0.0
 11
-68.82520943130822
 21
125.373209438457
 31
0.0
 11
-68.83924673228624
 21
125.2873619519506
 31
0.0
 11
-68.8439878894205
 21
125.1999587159928
 31
0.0
 11
-68.84011077317861
 21
125.1209807940421
 31
0.0
 11
-68.82529091859973
 21
125.027163342661
 31
0.0
 11
-68.80520214874203
 21
124.9524369677939
 31
0.0
 11
-68.77101556167723
 21
124.8637341665595
 31
0.0
 11
-68.72544543083053
 21
124.7772892024463
 31
0.0
 11
-68.6818573850594
 21
124.7125746261739
 31
0.0
 11
-68.62056844402551
 21
124.640003605417
 31
0.0
 11
-68.56791498486719
 21
124.5900019794233
 31
0.0
 11
-68.48706459589293
 21
124.530228875924
 31
0.0
 11
-68.40199955741156
 21
124.48598531642
 31
0.0
 11
-68.35931210040391
 21
124.4703863632484
 31
0.0
 11
-68.31633510901597
 21
124.4590619399469
 31
0.0
 11
-68.2742016312226
 21
124.4522980324146
 31
0.0
 11
-68.23223304703413
 21
124.4500001907248
 31
0.0
  0
SPLINE
  5
101
330
5C
100
AcDbEntity
  8
0
  6
Continuous
 62
     7
100
AcDbSpline
210
0.0
220
0.0
230
1.0
 70
     8
 71
     3
 72
    15
 73
    11
 74
     9
 42
0.000000001
 43
0.0000000001
 44
0.00000001
 40
0.0
 40
0.0
 40
0.0
 40
0.0
 40
0.0993009149521892
 40
0.2019952795176339
 40
0.3047841999800213
 40
0.4196412613005738
 40
0.5463865321305691
 40
0.6778831440606012
 40
0.8222441577285007
 40
0.9677780649376708
 40
0.9677780649376708
 40
0.9677780649376708
 40
0.9677780649376708
 10
-68.23223304703413
 20
124.4500001907248
 30
0.0
 10
-68.19899625595842
 20
124.4525918318836
 30
0.0
 10
-68.13138686178544
 20
124.4578636922918
 30
0.0
 10
-68.03793944223366
 20
124.5033907500793
 30
0.0
 10
-67.95752667924799
 20
124.5750508355491
 30
0.0
 10
-67.89242174625527
 20
124.6708317513293
 30
0.0
 10
-67.84303327409535
 20
124.7855795017643
 30
0.0
 10
-67.80841615905007
 20
124.9155584326505
 30
0.0
 10
-67.78722382832076
 20
125.0548012598426
 30
0.0
 10
-67.78462991658569
 20
125.1514701751403
 30
0.0
 10
-67.7833277187066
 20
125.2000001907248
 30
0.0
 11
-68.23223304703413
 21
124.4500001907248
 31
0.0
 11
-68.13389469522367
 21
124.4637929939692
 31
0.0
 11
-68.04082093613019
 21
124.5071912523574
 31
0.0
 11
-67.96356482070419
 21
124.5749928405683
 31
0.0
 11
-67.89776345454618
 21
124.6691327639586
 31
0.0
 11
-67.84654800934183
 21
124.7850695663611
 31
0.0
 11
-67.81175952586463
 21
124.9118809243726
 31
0.0
 11
-67.7902549310551
 21
125.0546312468043
 31
0.0
 11
-67.7833277187066
 21
125.2000001907248
 31
0.0
  0
SPLINE
  5
102
330
5C
100
AcDbEntity
  8
0
  6
Continuous
 62
     7
100
AcDbSpline
210
0.0
220
0.0
230
1.0
 70
     8
 71
     3
 72
    21
 73
    17
 74
    15
 42
0.000000001
 43
0.0000000001
 44
0.00000001
 40
0.0
 40
0.0
 40
0.0
 40
0.0
 40
0.0738154408356368
 40
0.1474880908799805
 40
0.2190497112754357
 40
0.2901936185663534
 40
0.4215326249063513
 40
0.5481296121135266
 40
0.6094279638755042
 40
0.6614871660547886
 40
0.7117438527073094
 40
0.7664192225041826
 40
0.8175153578182563
 40
0.8669632509271077
 40
0.9211836148833793
 40
0.9688085936470368
 40
0.9688085936470368
 40
0.9688085936470368
 40
0.9688085936470368
 10
-67.7833277187066
 20
125.2000001907248
 30
0.0
 10
-67.78366555664401
 20
125.2246077487353
 30
0.0
 10
-67.78434058915904
 20
125.2737752628973
 30
0.0
 10
-67.78980609150511
 20
125.3466307940465
 30
0.0
 10
-67.7985718092516
 20
125.4182502949939
 30
0.0
 10
-67.81463313601938
 20
125.5082168983993
 30
0.0
 10
-67.84308060248347
 20
125.6144375804902
 30
0.0
 10
-67.8853417196095
 20
125.712729057422
 30
0.0
 10
-67.92759149960348
 20
125.7808210651293
 30
0.0
 10
-67.9612616419779
 20
125.8238586998905
 30
0.0
 10
-67.99804268980382
 20
125.8612524576203
 30
0.0
 10
-68.03922688939602
 20
125.8933152611811
 30
0.0
 10
-68.08445853519734
 20
125.918853337284
 30
0.0
 10
-68.13282756317808
 20
125.9372151396658
 30
0.0
 10
-68.18237341366748
 20
125.9481513889065
 30
0.0
 10
-68.21634652185173
 20
125.9494111204649
 30
0.0
 10
-68.23223304703413
 20
125.9500001907248
 30
0.0
 11
-67.7833277187066
 21
125.2000001907248
 31
0.0
 11
-67.78509392571904
 21
125.2737944907487
 31
0.0
 11
-67.79044026747064
 21
125.3472728948382
 31
0.0
 11
-67.79923815927155
 21
125.4182916430705
 31
0.0
 11
-67.81180102906285
 21
125.4883175658559
 31
0.0
 11
-67.84656265970122
 21
125.6149728608082
 31
0.0
 11
-67.89771284004529
 21
125.7307763858223
 31
0.0
 11
-67.93020325894835
 21
125.7827558112538
 31
0.0
 11
-67.96238741691305
 21
125.8236745179909
 31
0.0
 11
-67.99772151367115
 21
125.8594129597644
 31
0.0
 11
-68.0409474730252
 21
125.8928929924902
 31
0.0
 11
-68.08548747753119
 21
125.9179330234354
 31
0.0
 11
-68.13168858000246
 21
125.9355555208952
 31
0.0
 11
-68.1847091642813
 21
125.9468986195323
 31
0.0
 11
-68.23223304703413
 21
125.9500001907248
 31
0.0
  0
ENDBLK
  5
5E
330
5C
100
AcDbEntity
  8
0
100
AcDbBlockEnd
  0
BLOCK
  5
61
330
5F
100
AcDbEntity
  8
0
100
AcDbBlockBegin
  2
SA_Links1
 70
     0
 10
-70.0
 20
135.999999999995
 30
0.0
  3
SA_Links1
  1

  0
INSERT
  5
60
330
5F
100
AcDbEntity
  8
0
100
AcDbBlockReference
  2
PSBJ_3_44_6_GY-select__4
 10
-73.19999999999833
 20
113.8500001907005
 30
0.0
  0
ENDBLK
  5
62
330
5F
100
AcDbEntity
  8
0
100
AcDbBlockEnd
  0
BLOCK
  5
64
330
63
100
AcDbEntity
  8
0
100
AcDbBlockBegin
  2
PSBJ_3_44_6_GY-select__5
 70
     0
 10
-158.1999999999983
 20
113.8500001907005
 30
0.0
  3
PSBJ_3_44_6_GY-select__5
  1

  0
LINE
  5
103
330
63
100
AcDbEntity
  8
0
  6
Continuous
 62
     7
100
AcDbLine
 10
-157.4999999999993
 20
127.350000190727
 30
0.0
 11
-157.4999999999993
 21
118.8500001907005
 31
0.0
  0
LINE
  5
104
330
63
100
AcDbEntity
  8
0
  6
Continuous
 62
     7
100
AcDbLine
 10
-152.5000000000007
 20
127.350000190727
 30
0.0
 11
-152.5000000000007
 21
118.8500001907005
 31
0.0
  0
LINE
  5
105
330
63
100
AcDbEntity
  8
0
  6
Continuous
 62
     7
100
AcDbLine
 10
-152.5000000000007
 20
118.8500001907005
 30
0.0
 11
-153.5
 21
118.8500001907005
 31
0.0
  0
LINE
  5
106
330
63
100
AcDbEntity
  8
0
  6
Continuous
 62
     7
100
AcDbLine
 10
-156.5
 20
118.8500001907005
 30
0.0
 11
-157.4999999999993
 21
118.8500001907005
 31
0.0
  0
LINE
  5
107
330
63
100
AcDbEntity
  8
0
  6
Continuous
 62
     7
100
AcDbLine
 10
-153.5
 20
118.8500001907005
 30
0.0
 11
-156.5
 21
118.8500001907005
 31
0.0
  0
LINE
  5
108
330
63
100
AcDbEntity
  8
0
  6
Continuous
 62
     7
100
AcDbLine
 10
-153.5
 20
113.8500001907005
 30
0.0
 11
-156.5
 21
113.8500001907005
 31
0.0
  0
LINE
  5
109
330
63
100
AcDbEntity
  8
0
  6
Continuous
 62
     7
100
AcDbLine
 10
-152.5000000000007
 20
127.350000190727
 30
0.0
 11
-152.2000000000029
 21
127.6500001907248
 31
0.0
  0
LINE
  5
10A
330
63
100
AcDbEntity
  8
0
  6
Continuous
 62
     7
100
AcDbLine
 10
-157.4999999999993
 20
127.350000190727
 30
0.0
 11
-152.5000000000007
 21
127.350000190727
 31
0.0
  0
LINE
  5
10B
330
63
100
AcDbEntity
  8
0
  6
Continuous
 62
     7
100
AcDbLine
 10
-152.0000000000003
 20
127.6500001907005
 30
0.0
 11
-152.2000000000029
 21
127.6500001907248
 31
0.0
  0
LINE
  5
10C
330
63
100
AcDbEntity
  8
0
  6
Continuous
 62
     7
100
AcDbLine
 10
-157.7999999999971
 20
127.6500001907248
 30
0.0
 11
-157.9999999999997
 21
127.6500001907005
 31
0.0
  0
LINE
  5
10D
330
63
100
AcDbEntity
  8
0
  6
Continuous
 62
     7
100
AcDbLine
 10
-152.2000000000029
 20
127.6500001907248
 30
0.0
 11
-157.7999999999971
 21
127.6500001907248
 31
0.0
  0
LINE
  5
10E
330
63
100
AcDbEntity
  8
0
  6
Continuous
 62
     7
100
AcDbLine
 10
-157.4999999999993
 20
127.350000190727
 30
0.0
 11
-157.7999999999971
 21
127.6500001907248
 31
0.0
  0
LINE
  5
10F
330
63
100
AcDbEntity
  8
0
  6
Continuous
 62
     7
100
AcDbLine
 10
-153.5
 20
118.8500001907005
 30
0.0
 11
-153.5
 21
113.8500001907005
 31
0.0
  0
LINE
  5
110
330
63
100
AcDbEntity
  8
0
  6
Continuous
 62
     7
100
AcDbLine
 10
-158.1999999999983
 20
139.9000001907167
 30
0.0
 11
-158.1999999999983
 21
142.9000001907248
 31
0.0
  0
LINE
  5
111
330
63
100
AcDbEntity
  8
0
  6
Continuous
 62
     7
100
AcDbLine
 10
-157.9999999999997
 20
127.6500001907005
 30
0.0
 11
-158.1999999999983
 21
139.9000001907167
 31
0.0
  0
LINE
  5
112
330
63
100
AcDbEntity
  8
0
  6
Continuous
 62
     7
100
AcDbLine
 10
-156.5
 20
118.8500001907005
 30
0.0
 11
-156.5
 21
113.8500001907005
 31
0.0
  0
LINE
  5
113
330
63
100
AcDbEntity
  8
0
  6
Continuous
 62
     7
100
AcDbLine
 10
-151.8000000000017
 20
142.9000001907248
 30
0.0
 11
-158.1999999999983
 21
142.9000001907248
 31
0.0
  0
LINE
  5
114
330
63
100
AcDbEntity
  8
0
  6
Continuous
 62
     7
100
AcDbLine
 10
-151.8000000000017
 20
139.9000001907167
 30
0.0
 11
-151.8000000000017
 21
142.9000001907248
 31
0.0
  0
LINE
  5
115
330
63
100
AcDbEntity
  8
0
  6
Continuous
 62
     7
100
AcDbLine
 10
-152.0000000000003
 20
127.6500001907005
 30
0.0
 11
-151.8000000000017
 21
139.9000001907167
 31
0.0
  0
LINE
  5
116
330
63
100
AcDbEntity
  8
0
  6
Continuous
 62
     7
100
AcDbLine
 10
-152.0
 20
158.1500001907249
 30
0.0
 11
-151.8000000000017
 21
142.9000001907248
 31
0.0
  0
LINE
  5
117
330
63
100
AcDbEntity
  8
0
  6
Continuous
 62
     7
100
AcDbLine
 10
-155.0
 20
139.9000001907166
 30
0.0
 11
-151.8000000000017
 21
139.9000001907167
 31
0.0
  0
LINE
  5
118
330
63
100
AcDbEntity
  8
0
  6
Continuous
 62
     7
100
AcDbLine
 10
-152.0
 20
158.1500001907249
 30
0.0
 11
-155.0
 21
158.1500001907249
 31
0.0
  0
LINE
  5
119
330
63
100
AcDbEntity
  8
0
  6
Continuous
 62
     7
100
AcDbLine
 10
-155.0
 20
158.1500001907249
 30
0.0
 11
-158.0
 21
158.1500001907249
 31
0.0
  0
LINE
  5
11A
330
63
100
AcDbEntity
  8
0
  6
Continuous
 62
     7
100
AcDbLine
 10
-158.1999999999983
 20
139.9000001907167
 30
0.0
 11
-155.0
 21
139.9000001907166
 31
0.0
  0
LINE
  5
11B
330
63
100
AcDbEntity
  8
0
  6
Continuous
 62
     7
100
AcDbLine
 10
-158.0
 20
158.1500001907249
 30
0.0
 11
-158.1999999999983
 21
142.9000001907248
 31
0.0
  0
LINE
  5
11C
330
63
100
AcDbEntity
  8
1
  6
DOT_CENTER
 62
     2
100
AcDbLine
 10
-155.0
 20
113.8500001907005
 30
0.0
 11
-155.0
 21
158.1500001907249
 31
0.0
  0
SPLINE
  5
11D
330
63
100
AcDbEntity
  8
0
  6
Continuous
 62
     7
100
AcDbSpline
210
0.0
220
0.0
230
1.0
 70
     8
 71
     3
 72
    21
 73
    17
 74
    15
 42
0.000000001
 43
0.0000000001
 44
0.00000001
 40
0.0
 40
0.0
 40
0.0
 40
0.0
 40
0.0577028566631581
 40
0.1079252170920788
 40
0.1590367592935621
 40
0.2243459652080572
 40
0.2926657678725267
 40
0.3497700691813672
 40
0.4155420181755493
 40
0.4830442994557725
 40
0.6219621827549929
 40
0.7663761369359825
 40
0.8461025060033595
 40
0.913407474132641
 40
0.9869536137954241
 40
1.06082935366669
 40
1.06082935366669
 40
1.06082935366669
 40
1.06082935366669
 10
-153.2322330470341
 20
125.9500001907248
 30
0.0
 10
-153.2514825854994
 20
125.9491499754116
 30
0.0
 10
-153.2874861852173
 20
125.9475597514569
 30
0.0
 10
-153.3394817322023
 20
125.9362549155712
 30
0.0
 10
-153.3923868778577
 20
125.9191195828468
 30
0.0
 10
-153.4485489436134
 20
125.8934589234246
 30
0.0
 10
-153.503114659856
 20
125.86058416964
 30
0.0
 10
-153.5543351344664
 20
125.8225400057844
 30
0.0
 10
-153.6018331857425
 20
125.7803158312855
 30
0.0
 10
-153.6640593924639
 20
125.7141490799919
 30
0.0
 10
-153.7326584659452
 20
125.6186655794963
 30
0.0
 10
-153.7855678503366
 20
125.5091045353547
 30
0.0
 10
-153.8156279070701
 20
125.4165682726894
 30
0.0
 10
-153.8318695262986
 20
125.3447947645071
 30
0.0
 10
-153.8420363353406
 20
125.2737915888424
 30
0.0
 10
-153.8433364080309
 20
125.224633958572
 30
0.0
 10
-153.8439878904864
 20
125.2000001907248
 30
0.0
 11
-153.2322330470341
 21
125.9500001907248
 31
0.0
 11
-153.28977628266
 21
125.945711116499
 31
0.0
 11
-153.338955447497
 21
125.9355280074623
 31
0.0
 11
-153.3875772027379
 21
125.9197699954809
 31
0.0
 11
-153.44706168967
 21
125.8928091290922
 31
0.0
 11
-153.5056463553533
 21
125.8576604106144
 31
0.0
 11
-153.5515247594178
 21
125.8236593330553
 31
0.0
 11
-153.600723700935
 21
125.7800082914393
 31
0.0
 11
-153.6470027690513
 21
125.7308676174911
 31
0.0
 11
-153.7281919413764
 21
125.6181445206026
 31
0.0
 11
-153.7910319990371
 21
125.4881194570771
 31
0.0
 11
-153.8156333729728
 21
125.4122836725773
 31
0.0
 11
-153.8305646356669
 21
125.3466558125723
 31
0.0
 11
-153.8406070805897
 21
125.2737985290362
 31
0.0
 11
-153.8439878904864
 21
125.2000001907248
 31
0.0
  0
SPLINE
  5
11E
330
63
100
AcDbEntity
  8
0
  6
Continuous
 62
     7
100
AcDbSpline
210
0.0
220
0.0
230
1.0
 70
     8
 71
     3
 72
    31
 73
    27
 74
    25
 42
0.000000001
 43
0.0000000001
 44
0.00000001
 40
0.0
 40
0.0
 40
0.0
 40
0.0
 40
0.0796135572659716
 40
0.1605555982934367
 40
0.2396834592372999
 40
0.3257405184982038
 40
0.3955978440934138
 40
0.4695160186139388
 40
0.5484190760977877
 40
0.629068988276962
 40
0.7116658667011403
 40
0.7949574767566047
 40
0.891415103644331
 40
0.9685618815195375
 40
1.045530634908931
 40
1.141708632059209
 40
1.225161633567726
 40
1.307918610878026
 40
1.465580094406514
 40
1.611770845093028
 40
1.703514154561877
 40
1.776535805194515
 40
1.813862820936314
 40
1.855941471850533
 40
1.89847436535197
 40
1.936861897939223
 40
1.936861897939223
 40
1.936861897939223
 40
1.936861897939223
 10
-153.2322330470341
 20
124.4500001907248
 30
0.0
 10
-153.2056296938117
 20
124.4516492324938
 30
0.0
 10
-153.1519790681802
 20
124.4549748464586
 30
0.0
 10
-153.0760394312331
 20
124.4833057204088
 30
0.0
 10
-153.0069842731972
 20
124.5285799492227
 30
0.0
 10
-152.951973947937
 20
124.5852287595755
 30
0.0
 10
-152.9081412331577
 20
124.6482891396988
 30
0.0
 10
-152.8735238587633
 20
124.714141235672
 30
0.0
 10
-152.8447578821502
 20
124.7865854099008
 30
0.0
 10
-152.8217843918175
 20
124.8640582963049
 30
0.0
 10
-152.8044737761199
 20
124.9444646383391
 30
0.0
 10
-152.7917675978111
 20
125.031040782237
 30
0.0
 10
-152.7847646618798
 20
125.1164509424181
 30
0.0
 10
-152.7826896636115
 20
125.1999822481892
 30
0.0
 10
-152.7847618865964
 20
125.2834208094937
 30
0.0
 10
-152.7917444212488
 20
125.3687309088613
 30
0.0
 10
-152.8044301459644
 20
125.4553312055018
 30
0.0
 10
-152.8271728375702
 20
125.560928145458
 30
0.0
 10
-152.8682379828427
 20
125.6837284521903
 30
0.0
 10
-152.9356315912949
 20
125.7988191139476
 30
0.0
 10
-153.0090805747454
 20
125.8731491918546
 30
0.0
 10
-153.0661626418052
 20
125.9098824277045
 30
0.0
 10
-153.1128575654646
 20
125.9301583542356
 30
0.0
 10
-153.1519030758168
 20
125.941779299017
 30
0.0
 10
-153.1924448245483
 20
125.9488134332259
 30
0.0
 10
-153.2194311205247
 20
125.9496183538337
 30
0.0
 10
-153.2322330470341
 20
125.9500001907248
 30
0.0
 11
-153.2322330470341
 21
124.4500001907248
 31
0.0
 11
-153.1531068506971
 21
124.4587958968583
 31
0.0
 11
-153.0769489780106
 21
124.4862110988446
 31
0.0
 11
-153.0106917845091
 21
124.5294685035392
 31
0.0
 11
-152.9502405591476
 21
124.5907177228422
 31
0.0
 11
-152.9101123931403
 21
124.647899679454
 31
0.0
 11
-152.8754518170847
 21
124.7131878166356
 31
0.0
 11
-152.84607881116
 21
124.7864197686717
 31
0.0
 11
-152.8229515991607
 21
124.8636825677885
 31
0.0
 11
-152.8054183508644
 21
124.9443970594578
 31
0.0
 11
-152.7932224580377
 21
125.0267909429927
 31
0.0
 11
-152.7852554027992
 21
125.1229189779744
 31
0.0
 11
-152.7833277192625
 21
125.2000416654569
 31
0.0
 11
-152.7852506348886
 21
125.2769863923867
 31
0.0
 11
-152.7931790797456
 21
125.3728370387886
 31
0.0
 11
-152.8053803559702
 21
125.4553932744418
 31
0.0
 11
-152.822938390776
 21
125.5362662148902
 31
0.0
 11
-152.8747035628467
 21
125.6851873677668
 31
0.0
 11
-152.9508215037658
 21
125.8099984020264
 31
0.0
 11
-153.0158654243488
 21
125.8746986578897
 31
0.0
 11
-153.0773990051278
 21
125.9140150650296
 31
0.0
 11
-153.1116451998437
 21
125.92886445122
 31
0.0
 11
-153.1519544013028
 21
125.9409384415028
 31
0.0
 11
-153.1938979473281
 21
125.9479943838153
 31
0.0
 11
-153.2322330470341
 21
125.9500001907248
 31
0.0
  0
SPLINE
  5
11F
330
63
100
AcDbEntity
  8
0
  6
Continuous
 62
     7
100
AcDbSpline
210
0.0
220
0.0
230
1.0
 70
     8
 71
     3
 72
    21
 73
    17
 74
    15
 42
0.000000001
 43
0.0000000001
 44
0.00000001
 40
0.0
 40
0.0
 40
0.0
 40
0.0
 40
0.1484443747035739
 40
0.2943631105728022
 40
0.3597020136079765
 40
0.4382488969502533
 40
0.5012253354805654
 40
0.5776301497771711
 40
0.6452065014368241
 40
0.7110488482223449
 40
0.7813865259951471
 40
0.836629810205691
 40
0.8902054836512814
 40
0.9529761077474749
 40
1.003152596420402
 40
1.060794572571213
 40
1.060794572571213
 40
1.060794572571213
 40
1.060794572571213
 10
-153.8439878904864
 20
125.2000001907248
 30
0.0
 10
-153.8413570800006
 20
125.1504540316127
 30
0.0
 10
-153.836140205453
 20
125.0522046951733
 30
0.0
 10
-153.8021566597542
 20
124.9360966592115
 30
0.0
 10
-153.7644632473744
 20
124.8471412818774
 30
0.0
 10
-153.731941277607
 20
124.7861855656227
 30
0.0
 10
-153.6923400389533
 20
124.7252156924106
 30
0.0
 10
-153.6498375057997
 20
124.6707330881045
 30
0.0
 10
-153.601866225046
 20
124.6197139209492
 30
0.0
 10
-153.5510382996172
 20
124.5745279604656
 30
0.0
 10
-153.4993560321321
 20
124.5368934778167
 30
0.0
 10
-153.4477890710988
 20
124.5066243827854
 30
0.0
 10
-153.3959098161178
 20
124.4823128070026
 30
0.0
 10
-153.3432013214561
 20
124.4645408935866
 30
0.0
 10
-153.2874310982861
 20
124.4524381034917
 30
0.0
 10
-153.2514625667887
 20
124.450849489348
 30
0.0
 10
-153.2322330470341
 20
124.4500001907248
 30
0.0
 11
-153.8439878904864
 21
125.2000001907248
 31
0.0
 11
-153.8303496988531
 21
125.0521836446346
 31
0.0
 11
-153.7909568810063
 21
124.9116828155937
 31
0.0
 11
-153.7653755768467
 21
124.8515598660285
 31
0.0
 11
-153.7284252495863
 21
124.7822469081007
 31
0.0
 11
-153.6941072226232
 21
124.7294425066534
 31
0.0
 11
-153.6470814152041
 21
124.6692239956273
 31
0.0
 11
-153.6007569210781
 21
124.6200243559089
 31
0.0
 11
-153.5515059678268
 21
124.5763258634588
 31
0.0
 11
-153.4945777994695
 21
124.5350151798414
 31
0.0
 11
-153.4469020647267
 21
124.5071073889595
 31
0.0
 11
-153.3983400617983
 21
124.4844780999292
 31
0.0
 11
-153.3388520722394
 21
124.4644448605544
 31
0.0
 11
-153.2897158956071
 21
124.454280381719
 31
0.0
 11
-153.2322330470341
 21
124.4500001907248
 31
0.0
  0
ENDBLK
  5
65
330
63
100
AcDbEntity
  8
0
100
AcDbBlockEnd
  0
BLOCK
  5
68
330
66
100
AcDbEntity
  8
0
100
AcDbBlockBegin
  2
SA_Rechts1
 70
     0
 10
-155.0
 20
135.999999999995
 30
0.0
  3
SA_Rechts1
  1

  0
INSERT
  5
67
330
66
100
AcDbEntity
  8
0
100
AcDbBlockReference
  2
PSBJ_3_44_6_GY-select__5
 10
-158.1999999999983
 20
113.8500001907005
 30
0.0
  0
ENDBLK
  5
69
330
66
100
AcDbEntity
  8
0
100
AcDbBlockEnd
  0
BLOCK
  5
6B
330
6A
100
AcDbEntity
  8
0
100
AcDbBlockBegin
  2
PSBJ_3_44_6_GY-select__6
 70
     0
 10
-111.2000019256601
 20
113.8500003814255
 30
0.0
  3
PSBJ_3_44_6_GY-select__6
  1

  0
LINE
  5
120
330
6A
100
AcDbEntity
  8
0
  6
Continuous
 62
     7
100
AcDbLine
 10
-110.500001925659
 20
127.35000038145
 30
0.0
 11
-110.8000019256588
 21
127.6500003814498
 31
0.0
  0
LINE
  5
121
330
6A
100
AcDbEntity
  8
0
  6
Continuous
 62
     7
100
AcDbLine
 10
-105.5000019256624
 20
127.350000381452
 30
0.0
 11
-105.2000019256646
 21
127.6500003814498
 31
0.0
  0
LINE
  5
122
330
6A
100
AcDbEntity
  8
0
  6
Continuous
 62
     7
100
AcDbLine
 10
-110.500001925659
 20
127.35000038145
 30
0.0
 11
-105.5000019256624
 21
127.350000381452
 31
0.0
  0
LINE
  5
123
330
6A
100
AcDbEntity
  8
0
  6
Continuous
 62
     7
100
AcDbLine
 10
-110.8000019256588
 20
127.6500003814498
 30
0.0
 11
-111.0000019256616
 21
127.6500003814255
 31
0.0
  0
LINE
  5
124
330
6A
100
AcDbEntity
  8
0
  6
Continuous
 62
     7
100
AcDbLine
 10
-105.2000019256646
 20
127.6500003814498
 30
0.0
 11
-110.8000019256588
 21
127.6500003814498
 31
0.0
  0
LINE
  5
125
330
6A
100
AcDbEntity
  8
0
  6
Continuous
 62
     7
100
AcDbLine
 10
-109.5000019256617
 20
118.8500003814255
 30
0.0
 11
-110.500001925661
 21
118.8500003814255
 31
0.0
  0
LINE
  5
126
330
6A
100
AcDbEntity
  8
0
  6
Continuous
 62
     7
100
AcDbLine
 10
-106.5000019256617
 20
118.8500003814255
 30
0.0
 11
-108.0788607744141
 21
118.8500003814255
 31
0.0
  0
LINE
  5
127
330
6A
100
AcDbEntity
  8
0
  6
Continuous
 62
     7
100
AcDbLine
 10
-106.5000019256617
 20
113.8500003814255
 30
0.0
 11
-109.5000019256617
 21
113.8500003814255
 31
0.0
  0
LINE
  5
128
330
6A
100
AcDbEntity
  8
0
  6
Continuous
 62
     7
100
AcDbLine
 10
-109.5000019256617
 20
118.8500003814255
 30
0.0
 11
-109.5000019256617
 21
113.8500003814255
 31
0.0
  0
LINE
  5
129
330
6A
100
AcDbEntity
  8
0
  6
Continuous
 62
     7
100
AcDbLine
 10
-106.5000019256617
 20
118.8500003814255
 30
0.0
 11
-106.5000019256617
 21
113.8500003814255
 31
0.0
  0
LINE
  5
12A
330
6A
100
AcDbEntity
  8
0
  6
Continuous
 62
     7
100
AcDbLine
 10
-105.5000019256624
 20
118.8500003814255
 30
0.0
 11
-106.5000019256617
 21
118.8500003814255
 31
0.0
  0
LINE
  5
12B
330
6A
100
AcDbEntity
  8
0
  6
Continuous
 62
     7
100
AcDbLine
 10
-108.0788607744141
 20
118.8500003814255
 30
0.0
 11
-109.5000019256617
 21
118.8500003814255
 31
0.0
  0
LINE
  5
12C
330
6A
100
AcDbEntity
  8
0
  6
Continuous
 62
     7
100
AcDbLine
 10
-111.2000019256601
 20
139.9000003814417
 30
0.0
 11
-111.20000192566
 21
142.9000003815823
 31
0.0
  0
LINE
  5
12D
330
6A
100
AcDbEntity
  8
0
  6
Continuous
 62
     7
100
AcDbLine
 10
-111.0000019256616
 20
127.6500003814255
 30
0.0
 11
-111.2000019256601
 21
139.9000003814417
 31
0.0
  0
LINE
  5
12E
330
6A
100
AcDbEntity
  8
0
  6
Continuous
 62
     7
100
AcDbLine
 10
-111.0000019256617
 20
158.1500003814499
 30
0.0
 11
-111.20000192566
 21
142.9000003815823
 31
0.0
  0
LINE
  5
12F
330
6A
100
AcDbEntity
  8
0
  6
Continuous
 62
     7
100
AcDbLine
 10
-110.500001925659
 20
127.35000038145
 30
0.0
 11
-110.500001925661
 21
118.8500003814255
 31
0.0
  0
LINE
  5
130
330
6A
100
AcDbEntity
  8
0
  6
Continuous
 62
     7
100
AcDbLine
 10
-111.2000019256601
 20
139.9000003814417
 30
0.0
 11
-104.8000019256634
 21
139.9000003814416
 31
0.0
  0
LINE
  5
131
330
6A
100
AcDbEntity
  8
0
  6
Continuous
 62
     7
100
AcDbLine
 10
-105.0000019256621
 20
127.6500003814254
 30
0.0
 11
-105.2000019256646
 21
127.6500003814498
 31
0.0
  0
LINE
  5
132
330
6A
100
AcDbEntity
  8
0
  6
Continuous
 62
     7
100
AcDbLine
 10
-104.8000019256634
 20
139.9000003814416
 30
0.0
 11
-104.8000019256633
 21
142.9000003814498
 31
0.0
  0
LINE
  5
133
330
6A
100
AcDbEntity
  8
0
  6
Continuous
 62
     7
100
AcDbLine
 10
-105.0000019256621
 20
127.6500003814254
 30
0.0
 11
-104.8000019256634
 21
139.9000003814416
 31
0.0
  0
LINE
  5
134
330
6A
100
AcDbEntity
  8
0
  6
Continuous
 62
     7
100
AcDbLine
 10
-105.5000019256624
 20
127.350000381452
 30
0.0
 11
-105.5000019256624
 21
118.8500003814255
 31
0.0
  0
LINE
  5
135
330
6A
100
AcDbEntity
  8
0
  6
Continuous
 62
     7
100
AcDbLine
 10
-104.8000019256633
 20
142.9000003814498
 30
0.0
 11
-111.20000192566
 21
142.9000003815823
 31
0.0
  0
LINE
  5
136
330
6A
100
AcDbEntity
  8
0
  6
Continuous
 62
     7
100
AcDbLine
 10
-105.0000019256617
 20
158.1500003814499
 30
0.0
 11
-111.0000019256617
 21
158.1500003814499
 31
0.0
  0
LINE
  5
137
330
6A
100
AcDbEntity
  8
0
  6
Continuous
 62
     7
100
AcDbLine
 10
-105.0000019256617
 20
158.1500003814499
 30
0.0
 11
-104.8000019256633
 21
142.9000003814498
 31
0.0
  0
LINE
  5
138
330
6A
100
AcDbEntity
  8
1
  6
DOT_CENTER
 62
     2
100
AcDbLine
 10
-108.0000019256607
 20
157.8500003814522
 30
0.0
 11
-108.0000019256607
 21
113.8500003814255
 31
0.0
  0
SPLINE
  5
139
330
6A
100
AcDbEntity
  8
0
  6
Continuous
 62
     7
100
AcDbSpline
210
0.0
220
0.0
230
1.0
 70
     8
 71
     3
 72
    21
 73
    17
 74
    15
 42
0.000000001
 43
0.0000000001
 44
0.00000001
 40
0.0
 40
0.0
 40
0.0
 40
0.0
 40
0.0683393338963338
 40
0.1480478669287889
 40
0.2217979822432777
 40
0.2946649706168753
 40
0.3672266150292708
 40
0.4385519238574308
 40
0.5089910455301336
 40
0.5779345922245398
 40
0.6382515775402616
 40
0.711351546217023
 40
0.7685167598918015
 40
0.8369315820143364
 40
0.9517646895888585
 40
1.060690407459127
 40
1.060690407459127
 40
1.060690407459127
 40
1.060690407459127
 10
-109.1560140351753
 20
125.2000003814498
 30
0.0
 10
-109.1565775921346
 20
125.2227862785552
 30
0.0
 10
-109.1577984769644
 20
125.2721488231614
 30
0.0
 10
-109.168082468847
 20
125.3455414814494
 30
0.0
 10
-109.1850957844093
 20
125.4191202093669
 30
0.0
 10
-109.2080110154447
 20
125.4886034075111
 30
0.0
 10
-109.2366221276858
 20
125.5550473748112
 30
0.0
 10
-109.2705462535273
 20
125.618024098073
 30
0.0
 10
-109.3091244372601
 20
125.6768208710071
 30
0.0
 10
-109.3503709376766
 20
125.7291778448012
 30
0.0
 10
-109.3963924301507
 20
125.7785840937369
 30
0.0
 10
-109.4437371005195
 20
125.8210981840548
 30
0.0
 10
-109.4969697675067
 20
125.8606813008689
 30
0.0
 10
-109.565730436672
 20
125.9018186112534
 30
0.0
 10
-109.6566794220589
 20
125.940571150953
 30
0.0
 10
-109.7313965876003
 20
125.9469131201515
 30
0.0
 10
-109.7677688786276
 20
125.9500003814498
 30
0.0
 11
-109.1560140351753
 21
125.2000003814498
 31
0.0
 11
-109.1589072277013
 21
125.2682784439971
 31
0.0
 11
-109.1695513211048
 21
125.3472730855632
 31
0.0
 11
-109.1862520230607
 21
125.4191073808762
 31
0.0
 11
-109.2090450446554
 21
125.4883177565809
 31
0.0
 11
-109.2377471350262
 21
125.5549614525763
 31
0.0
 11
-109.2715766760753
 21
125.617753664074
 31
0.0
 11
-109.3102331632295
 21
125.6766378375133
 31
0.0
 11
-109.3529205104576
 21
125.7307765765473
 31
0.0
 11
-109.3940578653023
 21
125.7748884436266
 31
0.0
 11
-109.4484959578348
 21
125.8236747087159
 31
0.0
 11
-109.4944260794724
 21
125.8577083059166
 31
0.0
 11
-109.553099860935
 21
125.8928931832152
 31
0.0
 11
-109.6598521860855
 21
125.9352084865469
 31
0.0
 11
-109.7677688786276
 21
125.9500003814498
 31
0.0
  0
SPLINE
  5
13A
330
6A
100
AcDbEntity
  8
0
  6
Continuous
 62
     7
100
AcDbSpline
210
0.0
220
0.0
230
1.0
 70
     8
 71
     3
 72
    21
 73
    17
 74
    15
 42
0.000000001
 43
0.0000000001
 44
0.00000001
 40
0.0
 40
0.0
 40
0.0
 40
0.0
 40
0.0534026677197744
 40
0.1079276024392631
 40
0.1652719993037458
 40
0.224349538595038
 40
0.2861289275960879
 40
0.3497757356469726
 40
0.4090530488792199
 40
0.4830488366187738
 40
0.621966719935392
 40
0.7663806741332249
 40
0.8394536834849013
 40
0.913413013281373
 40
0.981783715127577
 40
1.060834063263284
 40
1.060834063263284
 40
1.060834063263284
 40
1.060834063263284
 10
-109.7677688786276
 20
124.4500003814498
 30
0.0
 10
-109.7499563101432
 20
124.4507364442367
 30
0.0
 10
-109.7139568398302
 20
124.4522240527955
 30
0.0
 10
-109.659844683055
 20
124.463729425588
 30
0.0
 10
-109.6056670958031
 20
124.4816726980934
 30
0.0
 10
-109.551654376032
 20
124.506696604728
 30
0.0
 10
-109.4987146726328
 20
124.5381910437118
 30
0.0
 10
-109.4490424376554
 20
124.5747274963078
 30
0.0
 10
-109.3997288425643
 20
124.6181585299559
 30
0.0
 10
-109.3372078244287
 20
124.6840891884545
 30
0.0
 10
-109.2673454051351
 20
124.7813315019991
 30
0.0
 10
-109.215402283707
 20
124.8888938808347
 30
0.0
 10
-109.1849772176018
 20
124.9812790821832
 30
0.0
 10
-109.1688335170112
 20
125.0513258856049
 30
0.0
 10
-109.1581325571923
 20
125.1244772145412
 30
0.0
 10
-109.1567535052305
 20
125.1736388508537
 30
0.0
 10
-109.1560140351753
 20
125.2000003814498
 30
0.0
 11
-109.7677688786276
 21
124.4500003814498
 31
0.0
 11
-109.7144933923756
 21
124.4536838460668
 31
0.0
 11
-109.6610464781647
 21
124.4644725647123
 31
0.0
 11
-109.6066069141936
 21
124.482492387224
 31
0.0
 11
-109.5529402359917
 21
124.5071914430824
 31
0.0
 11
-109.4997982401882
 21
124.5386973345862
 31
0.0
 11
-109.4484771662439
 21
124.5763412391194
 31
0.0
 11
-109.4039612377924
 21
124.6154836966462
 31
0.0
 11
-109.3529991566104
 21
124.6691329546836
 31
0.0
 11
-109.2718099842839
 21
124.7818560515744
 31
0.0
 11
-109.2089699266246
 21
124.9118811150975
 31
0.0
 11
-109.1861391359909
 21
124.9812959521156
 31
0.0
 11
-109.1694372899948
 21
125.0533447596023
 31
0.0
 11
-109.159884877999
 21
125.121044863941
 31
0.0
 11
-109.1560140351753
 21
125.2000003814498
 31
0.0
  0
SPLINE
  5
13B
330
6A
100
AcDbEntity
  8
0
  6
Continuous
 62
     7
100
AcDbSpline
210
0.0
220
0.0
230
1.0
 70
     8
 71
     3
 72
    29
 73
    25
 74
    23
 42
0.000000001
 43
0.0000000001
 44
0.00000001
 40
0.0
 40
0.0
 40
0.0
 40
0.0
 40
0.0719476599034741
 40
0.1605399115597969
 40
0.2337191478498218
 40
0.3257217532694979
 40
0.4714851749350016
 40
0.6286063122330376
 40
0.7172519878044744
 40
0.7944937504832498
 40
0.8909513766741115
 40
0.9680981543661669
 40
1.054788272795386
 40
1.141246051978865
 40
1.235550671691932
 40
1.307455452028923
 40
1.384852179606419
 40
1.467735243139184
 40
1.547305957995212
 40
1.611756191184732
 40
1.697583144736798
 40
1.776524223018455
 40
1.857207216666989
 40
1.936579784676564
 40
1.936579784676564
 40
1.936579784676564
 40
1.936579784676564
 10
-109.7677688786276
 20
125.9500003814498
 30
0.0
 10
-109.7917935693027
 20
125.9486456513055
 30
0.0
 10
-109.8454008944029
 20
125.9456227693053
 30
0.0
 10
-109.9199394129591
 20
125.9187858922091
 30
0.0
 10
-109.991447998478
 20
125.8727688272387
 30
0.0
 10
-110.0647864167526
 20
125.7982171682343
 30
0.0
 10
-110.1319090711871
 20
125.6833084222774
 30
0.0
 10
-110.1734779717856
 20
125.5589347090813
 30
0.0
 10
-110.1958813999885
 20
125.4535469207436
 30
0.0
 10
-110.2083987814588
 20
125.3669481593964
 30
0.0
 10
-110.2152375089404
 20
125.283549329704
 30
0.0
 10
-110.2173922876875
 20
125.1967787281785
 30
0.0
 10
-110.215061011538
 20
125.1133337354837
 30
0.0
 10
-110.2074808357408
 20
125.0244574942869
 30
0.0
 10
-110.1949405068991
 20
124.9410962216269
 30
0.0
 10
-110.177451125529
 20
124.8617493356706
 30
0.0
 10
-110.1555394824031
 20
124.7874380384821
 30
0.0
 10
-110.126125996366
 20
124.7129503639465
 30
0.0
 10
-110.0905020596861
 20
124.6459879054969
 30
0.0
 10
-110.0462189309465
 20
124.5832783492682
 30
0.0
 10
-109.9924624135129
 20
124.5281342004307
 30
0.0
 10
-109.9235217287069
 20
124.4831034142469
 30
0.0
 10
-109.847773852247
 20
124.4549441694564
 30
0.0
 10
-109.7942912440502
 20
124.4516392869715
 30
0.0
 10
-109.7677688786276
 20
124.4500003814498
 30
0.0
 11
-109.7677688786276
 21
125.9500003814498
 31
0.0
 11
-109.8393594381801
 21
125.9428408854144
 31
0.0
 11
-109.9230529476511
 21
125.91378947333
 31
0.0
 11
-109.9846550876519
 21
125.8742878633603
 31
0.0
 11
-110.0497613665141
 21
125.8092828493325
 31
0.0
 11
-110.1255023738079
 21
125.6847425967957
 31
0.0
 11
-110.177050326501
 21
125.5363180043862
 31
0.0
 11
-110.1956470246628
 21
125.4496449503214
 31
0.0
 11
-110.206779467624
 21
125.373209629182
 31
0.0
 11
-110.2147465228624
 21
125.2770815942008
 31
0.0
 11
-110.2166742063992
 21
125.1999589067177
 31
0.0
 11
-110.2142329608967
 21
125.113303171694
 31
0.0
 11
-110.206822845916
 21
125.027163533386
 31
0.0
 11
-110.1926429411293
 21
124.9339310759486
 31
0.0
 11
-110.1770635348857
 21
124.8637343572845
 31
0.0
 11
-110.1550010186265
 21
124.7895487886049
 31
0.0
 11
-110.1242665152724
 21
124.7125748168989
 31
0.0
 11
-110.0865603297237
 21
124.6425052651369
 31
0.0
 11
-110.0491804218958
 21
124.5900021701482
 31
0.0
 11
-109.988775267945
 21
124.5290310018778
 31
0.0
 11
-109.9226029205339
 21
124.485985507145
 31
0.0
 11
-109.8466586067041
 21
124.458742021086
 31
0.0
 11
-109.7677688786276
 21
124.4500003814498
 31
0.0
  0
ENDBLK
  5
6C
330
6A
100
AcDbEntity
  8
0
100
AcDbBlockEnd
  0
BLOCK
  5
6F
330
6D
100
AcDbEntity
  8
0
100
AcDbBlockBegin
  2
Vordans1
 70
     0
 10
-108.0000009628311
 20
136.00000019072
 30
0.0
  3
Vordans1
  1

  0
INSERT
  5
6E
330
6D
100
AcDbEntity
  8
0
100
AcDbBlockReference
  2
PSBJ_3_44_6_GY-select__6
 10
-111.2000019256601
 20
113.8500003814255
 30
0.0
  0
DIMENSION
  5
146
330
6D
100
AcDbEntity
  8
1
100
AcDbDimension
  2
*D18
 10
-121.0000019256617
 20
158.1500003814499
 30
0.0
 11
-124.4250019256617
 21
135.41651927757
 31
0.0
 70
    32
  1
<>
 71
     5
 42
-1.0
 53
90.0
  3
ME10_DIM_10
100
AcDbAlignedDimension
 13
-109.5000019256617
 23
113.8500003814255
 33
0.0
 14
-111.0000019256617
 24
158.1500003814499
 34
0.0
 50
90.0
100
AcDbRotatedDimension
  0
ENDBLK
  5
70
330
6D
100
AcDbEntity
  8
0
100
AcDbBlockEnd
  0
BLOCK
  5
72
330
71
100
AcDbEntity
  8
0
100
AcDbBlockBegin
  2
_rahmen
 70
     0
 10
50.01649200558548
 20
1.4260382236958
 30
0.0
  3
_rahmen
  1

  0
LINE
  5
147
330
71
100
AcDbEntity
  8
1
  6
DOT_CENTER
 62
     2
100
AcDbLine
 10
-75.54165763460193
 20
27.55103822369583
 30
0.0
 11
-70.04165763460193
 21
27.55103822369583
 31
0.0
  0
LINE
  5
148
330
71
100
AcDbEntity
  8
1
  6
PHANTOM
 62
     2
100
AcDbLine
 10
-66.79165763460193
 20
30.30103822369583
 30
0.0
 11
-66.79165763460193
 21
24.80103822369583
 31
0.0
  0
LINE
  5
149
330
71
100
AcDbEntity
  8
1
  6
PHANTOM
 62
     2
100
AcDbLine
 10
-64.04165763460193
 20
27.55103822369583
 30
0.0
 11
-69.54165763460193
 21
27.55103822369583
 31
0.0
  0
LINE
  5
14A
330
71
100
AcDbEntity
  8
1
  6
Continuous
 62
     7
100
AcDbLine
 10
-15.22831252116453
 20
14.92603822369583
 30
0.0
 11
-15.22831252116453
 21
23.42603822369591
 31
0.0
  0
LINE
  5
14B
330
71
100
AcDbEntity
  8
1
  6
Continuous
 62
     6
100
AcDbLine
 10
-43.12831252116462
 20
23.42603822369591
 30
0.0
 11
50.01649200558717
 21
23.42603822369591
 31
0.0
  0
LINE
  5
14C
330
71
100
AcDbEntity
  8
1
  6
Continuous
 62
     7
100
AcDbLine
 10
-79.52831252116454
 20
23.42603822369591
 30
0.0
 11
-79.52831252116454
 21
31.92603822369591
 31
0.0
  0
LINE
  5
14D
330
71
100
AcDbEntity
  8
1
  6
Continuous
 62
     7
100
AcDbLine
 10
-43.12831252116462
 20
23.42603822369591
 30
0.0
 11
-43.12831252116462
 21
31.92603822369591
 31
0.0
  0
LINE
  5
14E
330
71
100
AcDbEntity
  8
1
  6
Continuous
 62
     7
100
AcDbLine
 10
14.59808372390836
 20
31.92603822369591
 30
0.0
 11
14.59808372390836
 21
23.42603822369591
 31
0.0
  0
LINE
  5
14F
330
71
100
AcDbEntity
  8
1
  6
Continuous
 62
     7
100
AcDbLine
 10
41.09808372390796
 20
31.92603822369591
 30
0.0
 11
41.09808372390796
 21
23.42603822369591
 31
0.0
  0
LINE
  5
150
330
71
100
AcDbEntity
  8
1
  6
Continuous
 62
     6
100
AcDbLine
 10
-148.5283125211645
 20
6.42603822369591
 30
0.0
 11
-193.4835079944145
 21
6.42603822369591
 31
0.0
  0
LINE
  5
151
330
71
100
AcDbEntity
  8
1
  6
Continuous
 62
     7
100
AcDbLine
 10
50.01649200558677
 20
14.92603822369591
 30
0.0
 11
-43.12831252116462
 21
14.92603822369591
 31
0.0
  0
LINE
  5
152
102
{ACAD_REACTORS
330
264
330
265
102
}
330
71
100
AcDbEntity
  8
0
  6
Continuous
 62
     2
100
AcDbLine
 10
-65.82088357939713
 20
15.72632733935922
 30
0.0
 11
-65.82088357939713
 21
16.59884434616251
 31
0.0
  0
LINE
  5
153
102
{ACAD_REACTORS
330
264
330
265
102
}
330
71
100
AcDbEntity
  8
0
  6
Continuous
 62
     2
100
AcDbLine
 10
-65.82088357939713
 20
14.76655863187631
 30
0.0
 11
-65.82088357939713
 21
13.8940416250731
 31
0.0
  0
LINE
  5
154
102
{ACAD_REACTORS
330
266
330
267
102
}
330
71
100
AcDbEntity
  8
0
  6
Continuous
 62
     2
100
AcDbLine
 10
-50.48783944310662
 20
15.98808244139971
 30
0.0
 11
-49.38420014353852
 21
15.98808244139971
 31
0.0
  0
LINE
  5
155
102
{ACAD_REACTORS
330
266
330
267
102
}
330
71
100
AcDbEntity
  8
0
  6
Continuous
 62
     2
100
AcDbLine
 10
-49.71818210014521
 20
14.76655863187582
 30
0.0
 11
-49.71818210014521
 21
13.8940416250725
 31
0.0
  0
LINE
  5
156
102
{ACAD_REACTORS
330
270
330
271
102
}
330
71
100
AcDbEntity
  8
0
  6
Continuous
 62
     2
100
AcDbLine
 10
-51.57893871552514
 20
17.07872869988651
 30
0.0
 11
-50.18098566858484
 21
18.65958769366151
 31
0.0
  0
LINE
  5
157
102
{ACAD_REACTORS
330
270
330
271
102
}
330
71
100
AcDbEntity
  8
0
  6
Continuous
 62
     2
100
AcDbLine
 10
-51.48351529935232
 20
20.13253822369771
 30
0.0
 11
-50.18098566858484
 21
18.65958769366151
 31
0.0
  0
LINE
  5
158
102
{ACAD_REACTORS
330
270
330
271
102
}
330
71
100
AcDbEntity
  8
0
  6
Continuous
 62
     2
100
AcDbLine
 10
-48.87845603781844
 20
20.13253822369771
 30
0.0
 11
-47.47573182007122
 21
20.13253822369771
 31
0.0
  0
LINE
  5
159
102
{ACAD_REACTORS
330
270
330
271
102
}
330
71
100
AcDbEntity
  8
0
  6
Continuous
 62
     2
100
AcDbLine
 10
-50.17621449777693
 20
17.07872869988651
 30
0.0
 11
-49.47962355971123
 21
17.86646048518023
 31
0.0
  0
LINE
  5
15A
102
{ACAD_REACTORS
330
270
330
271
102
}
330
71
100
AcDbEntity
  8
0
  6
Continuous
 62
     2
100
AcDbLine
 10
-50.17621449777693
 20
17.07872869988651
 30
0.0
 11
-51.57893871552514
 21
17.07872869988651
 31
0.0
  0
LINE
  5
15B
102
{ACAD_REACTORS
330
272
330
273
102
}
330
71
100
AcDbEntity
  8
0
  6
Continuous
 62
     2
100
AcDbLine
 10
-51.69821798574202
 20
17.07872869988651
 30
0.0
 11
-52.93872239599492
 21
17.07872869988651
 31
0.0
  0
LINE
  5
15C
102
{ACAD_REACTORS
330
274
330
275
102
}
330
71
100
AcDbEntity
  8
0
  6
Continuous
 62
     2
100
AcDbLine
 10
-53.80670200415003
 20
14.94106203323671
 30
0.0
 11
-54.10686724134013
 21
15.70887699922341
 31
0.0
  0
LINE
  5
15D
102
{ACAD_REACTORS
330
274
330
275
102
}
330
71
100
AcDbEntity
  8
0
  6
Continuous
 62
     2
100
AcDbLine
 10
-54.40703247853253
 20
14.94106203323671
 30
0.0
 11
-53.80670200415003
 21
14.94106203323671
 31
0.0
  0
LINE
  5
15E
102
{ACAD_REACTORS
330
274
330
275
102
}
330
71
100
AcDbEntity
  8
0
  6
Continuous
 62
     2
100
AcDbLine
 10
-56.12507249340632
 20
13.71953822371222
 30
0.0
 11
-54.88456808315334
 21
13.71953822371222
 31
0.0
  0
LINE
  5
15F
102
{ACAD_REACTORS
330
274
330
275
102
}
330
71
100
AcDbEntity
  8
0
  6
Continuous
 62
     2
100
AcDbLine
 10
-54.72711944646702
 20
16.7733477475233
 30
0.0
 11
-53.48661503621432
 21
16.7733477475233
 31
0.0
  0
LINE
  5
160
102
{ACAD_REACTORS
330
274
330
275
102
}
330
71
100
AcDbEntity
  8
0
  6
Continuous
 62
     2
100
AcDbLine
 10
-53.48661503621432
 20
16.7733477475233
 30
0.0
 11
-52.08866198927402
 21
13.71953822371222
 31
0.0
  0
LINE
  5
161
102
{ACAD_REACTORS
330
274
330
275
102
}
330
71
100
AcDbEntity
  8
0
  6
Continuous
 62
     2
100
AcDbLine
 10
-53.32916639952794
 20
13.71953822371222
 30
0.0
 11
-53.54064645300372
 21
14.2604987679301
 31
0.0
  0
LINE
  5
162
102
{ACAD_REACTORS
330
276
330
277
102
}
330
71
100
AcDbEntity
  8
0
  6
Continuous
 62
     2
100
AcDbLine
 10
-57.47148559511393
 20
13.71953822371222
 30
0.0
 11
-56.27869289294742
 21
13.71953822371222
 31
0.0
  0
LINE
  5
163
102
{ACAD_REACTORS
330
276
330
277
102
}
330
71
100
AcDbEntity
  8
0
  6
Continuous
 62
     2
100
AcDbLine
 10
-57.47148559511393
 20
15.98808244139971
 30
0.0
 11
-57.47148559511393
 21
13.71953822371222
 31
0.0
  0
LINE
  5
164
102
{ACAD_REACTORS
330
276
330
277
102
}
330
71
100
AcDbEntity
  8
0
  6
Continuous
 62
     2
100
AcDbLine
 10
-58.28258463258854
 20
16.7733477475233
 30
0.0
 11
-58.28258463258854
 21
15.98808244139971
 31
0.0
  0
LINE
  5
165
102
{ACAD_REACTORS
330
278
330
279
102
}
330
71
100
AcDbEntity
  8
0
  6
Continuous
 62
     2
100
AcDbLine
 10
-56.80337075101593
 20
17.07872869988651
 30
0.0
 11
-55.61057804884942
 21
17.07872869988651
 31
0.0
  0
LINE
  5
166
102
{ACAD_REACTORS
330
278
330
279
102
}
330
71
100
AcDbEntity
  8
0
  6
Continuous
 62
     2
100
AcDbLine
 10
-54.37007363859541
 20
18.82376271349253
 30
0.0
 11
-55.61057804884942
 21
20.13253822369771
 31
0.0
  0
LINE
  5
167
102
{ACAD_REACTORS
330
278
330
279
102
}
330
71
100
AcDbEntity
  8
0
  6
Continuous
 62
     2
100
AcDbLine
 10
-53.17728093642882
 20
20.13253822369771
 30
0.0
 11
-54.37007363859541
 21
20.13253822369771
 31
0.0
  0
LINE
  5
168
102
{ACAD_REACTORS
330
278
330
279
102
}
330
71
100
AcDbEntity
  8
0
  6
Continuous
 62
     2
100
AcDbLine
 10
-53.17728093642882
 20
17.07872869988651
 30
0.0
 11
-53.17728093642882
 21
20.13253822369771
 31
0.0
  0
LINE
  5
169
102
{ACAD_REACTORS
330
278
330
279
102
}
330
71
100
AcDbEntity
  8
0
  6
Continuous
 62
     2
100
AcDbLine
 10
-54.37007363859541
 20
17.07872869988651
 30
0.0
 11
-53.17728093642882
 21
17.07872869988651
 31
0.0
  0
LINE
  5
16A
102
{ACAD_REACTORS
330
278
330
279
102
}
330
71
100
AcDbEntity
  8
0
  6
Continuous
 62
     2
100
AcDbLine
 10
-55.61057804884942
 20
18.38750421009121
 30
0.0
 11
-54.37007363859541
 21
17.07872869988651
 31
0.0
  0
LINE
  5
16B
102
{ACAD_REACTORS
330
27A
330
27B
102
}
330
71
100
AcDbEntity
  8
0
  6
Continuous
 62
     2
100
AcDbLine
 10
-59.61851245901514
 20
15.46457223731821
 30
0.0
 11
-60.85901686926803
 21
16.7733477475233
 31
0.0
  0
LINE
  5
16C
102
{ACAD_REACTORS
330
27A
330
27B
102
}
330
71
100
AcDbEntity
  8
0
  6
Continuous
 62
     2
100
AcDbLine
 10
-59.61851245901514
 20
16.7733477475233
 30
0.0
 11
-59.61851245901514
 21
15.46457223731821
 31
0.0
  0
LINE
  5
16D
102
{ACAD_REACTORS
330
27A
330
27B
102
}
330
71
100
AcDbEntity
  8
0
  6
Continuous
 62
     2
100
AcDbLine
 10
-58.42571975684874
 20
16.7733477475233
 30
0.0
 11
-59.61851245901514
 21
16.7733477475233
 31
0.0
  0
LINE
  5
16E
102
{ACAD_REACTORS
330
27A
330
27B
102
}
330
71
100
AcDbEntity
  8
0
  6
Continuous
 62
     2
100
AcDbLine
 10
-58.42571975684874
 20
13.71953822371222
 30
0.0
 11
-58.42571975684874
 21
16.7733477475233
 31
0.0
  0
LINE
  5
16F
102
{ACAD_REACTORS
330
27A
330
27B
102
}
330
71
100
AcDbEntity
  8
0
  6
Continuous
 62
     2
100
AcDbLine
 10
-60.85901686926803
 20
15.0283137339168
 30
0.0
 11
-59.61851245901514
 21
13.71953822371222
 31
0.0
  0
LINE
  5
170
102
{ACAD_REACTORS
330
27A
330
27B
102
}
330
71
100
AcDbEntity
  8
0
  6
Continuous
 62
     2
100
AcDbLine
 10
-60.85901686926803
 20
13.71953822371222
 30
0.0
 11
-60.85901686926803
 21
15.0283137339168
 31
0.0
  0
LINE
  5
171
102
{ACAD_REACTORS
330
26A
330
26B
102
}
330
71
100
AcDbEntity
  8
0
  6
Continuous
 62
     2
100
AcDbLine
 10
-58.37785711787652
 20
19.43452461825473
 30
0.0
 11
-57.04192929144884
 21
19.43452461825473
 31
0.0
  0
LINE
  5
172
102
{ACAD_REACTORS
330
26A
330
26B
102
}
330
71
100
AcDbEntity
  8
0
  6
Continuous
 62
     2
100
AcDbLine
 10
-58.37785711787652
 20
17.77674230532901
 30
0.0
 11
-58.37785711787652
 21
18.25662665907072
 31
0.0
  0
LINE
  5
173
102
{ACAD_REACTORS
330
26A
330
26B
102
}
330
71
100
AcDbEntity
  8
0
  6
Continuous
 62
     2
100
AcDbLine
 10
-57.04192929144884
 20
17.77674230532901
 30
0.0
 11
-58.37785711787652
 21
17.77674230532901
 31
0.0
  0
LINE
  5
174
102
{ACAD_REACTORS
330
26A
330
26B
102
}
330
71
100
AcDbEntity
  8
0
  6
Continuous
 62
     2
100
AcDbLine
 10
-57.04192929144884
 20
17.07872869988651
 30
0.0
 11
-57.04192929144884
 21
17.77674230532901
 31
0.0
  0
LINE
  5
175
102
{ACAD_REACTORS
330
26A
330
26B
102
}
330
71
100
AcDbEntity
  8
0
  6
Continuous
 62
     2
100
AcDbLine
 10
-60.19224901522983
 20
17.07872869988651
 30
0.0
 11
-57.04192929144884
 21
17.07872869988651
 31
0.0
  0
LINE
  5
176
102
{ACAD_REACTORS
330
26A
330
26B
102
}
330
71
100
AcDbEntity
  8
0
  6
Continuous
 62
     2
100
AcDbLine
 10
-60.19224901522983
 20
20.13253822369771
 30
0.0
 11
-57.04192929144884
 21
20.13253822369771
 31
0.0
  0
LINE
  5
177
102
{ACAD_REACTORS
330
26A
330
26B
102
}
330
71
100
AcDbEntity
  8
0
  6
Continuous
 62
     2
100
AcDbLine
 10
-57.04192929144884
 20
19.43452461825473
 30
0.0
 11
-57.04192929144884
 21
20.13253822369771
 31
0.0
  0
LINE
  5
178
102
{ACAD_REACTORS
330
27C
330
27D
102
}
330
71
100
AcDbEntity
  8
0
  6
Continuous
 62
     2
100
AcDbLine
 10
-63.05360451036984
 20
19.06370489036311
 30
0.0
 11
-63.05360451036984
 21
20.13253822369771
 31
0.0
  0
LINE
  5
179
102
{ACAD_REACTORS
330
27C
330
27D
102
}
330
71
100
AcDbEntity
  8
0
  6
Continuous
 62
     2
100
AcDbLine
 10
-63.05360451036984
 20
20.13253822369771
 30
0.0
 11
-61.86081180820344
 21
20.13253822369771
 31
0.0
  0
LINE
  5
17A
102
{ACAD_REACTORS
330
27C
330
27D
102
}
330
71
100
AcDbEntity
  8
0
  6
Continuous
 62
     2
100
AcDbLine
 10
-63.05360451036984
 20
18.21300080873033
 30
0.0
 11
-64.10326208827732
 21
18.21300080873033
 31
0.0
  0
LINE
  5
17B
102
{ACAD_REACTORS
330
27C
330
27D
102
}
330
71
100
AcDbEntity
  8
0
  6
Continuous
 62
     2
100
AcDbLine
 10
-64.10326208827732
 20
18.21300080873033
 30
0.0
 11
-64.10326208827732
 21
17.07872869988651
 31
0.0
  0
LINE
  5
17C
102
{ACAD_REACTORS
330
27C
330
27D
102
}
330
71
100
AcDbEntity
  8
0
  6
Continuous
 62
     2
100
AcDbLine
 10
-65.29605479044392
 20
20.13253822369771
 30
0.0
 11
-65.29605479044392
 21
17.07872869988651
 31
0.0
  0
LINE
  5
17D
102
{ACAD_REACTORS
330
26E
330
26F
102
}
330
71
100
AcDbEntity
  8
0
  6
Continuous
 62
     2
100
AcDbLine
 10
-67.25223482199752
 20
18.7637047289154
 30
0.0
 11
-67.25223482199752
 21
19.46943237825761
 31
0.0
  0
LINE
  5
17E
102
{ACAD_REACTORS
330
26E
330
26F
102
}
330
71
100
AcDbEntity
  8
0
  6
Continuous
 62
     2
100
AcDbLine
 10
-68.49273923225164
 20
17.07872869988651
 30
0.0
 11
-67.25223482199752
 21
17.07872869988651
 31
0.0
  0
LINE
  5
17F
102
{ACAD_REACTORS
330
26E
330
26F
102
}
330
71
100
AcDbEntity
  8
0
  6
Continuous
 62
     2
100
AcDbLine
 10
-67.25223482199752
 20
17.07872869988651
 30
0.0
 11
-67.25223482199752
 21
18.02180694103032
 31
0.0
  0
LINE
  5
180
102
{ACAD_REACTORS
330
268
330
269
102
}
330
71
100
AcDbEntity
  8
0
  6
Continuous
 62
     2
100
AcDbLine
 10
-72.79768508146302
 20
14.43209377926911
 30
0.0
 11
-74.27351834247264
 21
14.43209377926911
 31
0.0
  0
LINE
  5
181
102
{ACAD_REACTORS
330
268
330
269
102
}
330
71
100
AcDbEntity
  8
0
  6
Continuous
 62
     2
100
AcDbLine
 10
-75.29165763460193
 20
19.70829360829572
 30
0.0
 11
-75.29165763460193
 21
14.14378283909551
 31
0.0
  0
LINE
  5
182
102
{ACAD_REACTORS
330
268
330
269
102
}
330
71
100
AcDbEntity
  8
0
  6
Continuous
 62
     2
100
AcDbLine
 10
-74.86741301921913
 20
20.13253822367952
 30
0.0
 11
-69.39410092850233
 21
20.13253822367952
 31
0.0
  0
LINE
  5
183
102
{ACAD_REACTORS
330
268
330
269
102
}
330
71
100
AcDbEntity
  8
0
  6
Continuous
 62
     2
100
AcDbLine
 10
-68.96985631311844
 20
19.70829360829572
 30
0.0
 11
-68.96985631311844
 21
14.14378283909551
 31
0.0
  0
LINE
  5
184
102
{ACAD_REACTORS
330
268
330
269
102
}
330
71
100
AcDbEntity
  8
0
  6
Continuous
 62
     2
100
AcDbLine
 10
-69.39410092850233
 20
13.71953822371222
 30
0.0
 11
-74.86741301921913
 21
13.71953822371222
 31
0.0
  0
LINE
  5
185
102
{ACAD_REACTORS
330
268
330
269
102
}
330
71
100
AcDbEntity
  8
0
  6
Continuous
 62
     2
100
AcDbLine
 10
-72.48196815838642
 20
14.74781070234582
 30
0.0
 11
-72.48196815838642
 21
16.27858163387742
 31
0.0
  0
LINE
  5
186
102
{ACAD_REACTORS
330
268
330
269
102
}
330
71
100
AcDbEntity
  8
0
  6
Continuous
 62
     2
100
AcDbLine
 10
-72.48196815838642
 20
18.50024112600241
 30
0.0
 11
-72.48196815838642
 21
19.10426574506292
 31
0.0
  0
LINE
  5
187
102
{ACAD_REACTORS
330
268
330
269
102
}
330
71
100
AcDbEntity
  8
0
  6
Continuous
 62
     2
100
AcDbLine
 10
-74.27351834247264
 20
19.41998266813911
 30
0.0
 11
-72.79768508146302
 21
19.41998266813911
 31
0.0
  0
LINE
  5
188
102
{ACAD_REACTORS
330
268
330
269
102
}
330
71
100
AcDbEntity
  8
0
  6
Continuous
 62
     2
100
AcDbLine
 10
-74.58923526554833
 20
19.10426574506292
 30
0.0
 11
-74.58923526554833
 21
14.74781070234582
 31
0.0
  0
LINE
  5
189
102
{ACAD_REACTORS
330
26E
330
26F
102
}
330
71
100
AcDbEntity
  8
0
  6
Continuous
 62
     2
100
AcDbLine
 10
-67.25223482199752
 20
18.02180694103032
 30
0.0
 11
-66.49346723421723
 21
18.02180694103032
 31
0.0
  0
LINE
  5
18A
102
{ACAD_REACTORS
330
26E
330
26F
102
}
330
71
100
AcDbEntity
  8
0
  6
Continuous
 62
     2
100
AcDbLine
 10
-68.49273923225164
 20
20.13253822369771
 30
0.0
 11
-66.49346723421723
 21
20.13253822369771
 31
0.0
  0
LINE
  5
18B
102
{ACAD_REACTORS
330
26E
330
26F
102
}
330
71
100
AcDbEntity
  8
0
  6
Continuous
 62
     2
100
AcDbLine
 10
-68.49273923225164
 20
20.13253822369771
 30
0.0
 11
-68.49273923225164
 21
17.07872869988651
 31
0.0
  0
LINE
  5
18C
102
{ACAD_REACTORS
330
26E
330
26F
102
}
330
71
100
AcDbEntity
  8
0
  6
Continuous
 62
     2
100
AcDbLine
 10
-67.25223482199752
 20
18.7637047289154
 30
0.0
 11
-66.93493976045562
 21
18.7637047289154
 31
0.0
  0
LINE
  5
18D
102
{ACAD_REACTORS
330
26E
330
26F
102
}
330
71
100
AcDbEntity
  8
0
  6
Continuous
 62
     2
100
AcDbLine
 10
-67.25223482199752
 20
19.46943237825761
 30
0.0
 11
-66.93493976045562
 21
19.46943237825761
 31
0.0
  0
LINE
  5
18E
102
{ACAD_REACTORS
330
27C
330
27D
102
}
330
71
100
AcDbEntity
  8
0
  6
Continuous
 62
     2
100
AcDbLine
 10
-64.10326208827732
 20
19.06370489036311
 30
0.0
 11
-63.05360451036984
 21
19.06370489036311
 31
0.0
  0
LINE
  5
18F
102
{ACAD_REACTORS
330
27C
330
27D
102
}
330
71
100
AcDbEntity
  8
0
  6
Continuous
 62
     2
100
AcDbLine
 10
-64.10326208827732
 20
20.13253822369771
 30
0.0
 11
-64.10326208827732
 21
19.06370489036311
 31
0.0
  0
LINE
  5
190
102
{ACAD_REACTORS
330
27C
330
27D
102
}
330
71
100
AcDbEntity
  8
0
  6
Continuous
 62
     2
100
AcDbLine
 10
-65.29605479044392
 20
20.13253822369771
 30
0.0
 11
-64.10326208827732
 21
20.13253822369771
 31
0.0
  0
LINE
  5
191
102
{ACAD_REACTORS
330
27C
330
27D
102
}
330
71
100
AcDbEntity
  8
0
  6
Continuous
 62
     2
100
AcDbLine
 10
-64.10326208827732
 20
17.07872869988651
 30
0.0
 11
-65.29605479044392
 21
17.07872869988651
 31
0.0
  0
LINE
  5
192
102
{ACAD_REACTORS
330
27C
330
27D
102
}
330
71
100
AcDbEntity
  8
0
  6
Continuous
 62
     2
100
AcDbLine
 10
-63.05360451036984
 20
17.07872869988651
 30
0.0
 11
-63.05360451036984
 21
18.21300080873033
 31
0.0
  0
LINE
  5
193
102
{ACAD_REACTORS
330
27C
330
27D
102
}
330
71
100
AcDbEntity
  8
0
  6
Continuous
 62
     2
100
AcDbLine
 10
-61.86081180820344
 20
17.07872869988651
 30
0.0
 11
-63.05360451036984
 21
17.07872869988651
 31
0.0
  0
LINE
  5
194
102
{ACAD_REACTORS
330
27C
330
27D
102
}
330
71
100
AcDbEntity
  8
0
  6
Continuous
 62
     2
100
AcDbLine
 10
-61.86081180820344
 20
20.13253822369771
 30
0.0
 11
-61.86081180820344
 21
17.07872869988651
 31
0.0
  0
LINE
  5
195
102
{ACAD_REACTORS
330
26A
330
26B
102
}
330
71
100
AcDbEntity
  8
0
  6
Continuous
 62
     2
100
AcDbLine
 10
-58.37785711787652
 20
18.25662665907072
 30
0.0
 11
-57.04192929144884
 21
18.25662665907072
 31
0.0
  0
LINE
  5
196
102
{ACAD_REACTORS
330
26A
330
26B
102
}
330
71
100
AcDbEntity
  8
0
  6
Continuous
 62
     2
100
AcDbLine
 10
-57.04192929144884
 20
18.25662665907072
 30
0.0
 11
-57.04192929144884
 21
18.95464026451302
 31
0.0
  0
LINE
  5
197
102
{ACAD_REACTORS
330
26A
330
26B
102
}
330
71
100
AcDbEntity
  8
0
  6
Continuous
 62
     2
100
AcDbLine
 10
-57.04192929144884
 20
18.95464026451302
 30
0.0
 11
-58.37785711787652
 21
18.95464026451302
 31
0.0
  0
LINE
  5
198
102
{ACAD_REACTORS
330
26A
330
26B
102
}
330
71
100
AcDbEntity
  8
0
  6
Continuous
 62
     2
100
AcDbLine
 10
-58.37785711787652
 20
18.95464026451302
 30
0.0
 11
-58.37785711787652
 21
19.43452461825473
 31
0.0
  0
LINE
  5
199
102
{ACAD_REACTORS
330
27A
330
27B
102
}
330
71
100
AcDbEntity
  8
0
  6
Continuous
 62
     2
100
AcDbLine
 10
-62.05180957143563
 20
13.71953822371222
 30
0.0
 11
-60.85901686926803
 21
13.71953822371222
 31
0.0
  0
LINE
  5
19A
102
{ACAD_REACTORS
330
27A
330
27B
102
}
330
71
100
AcDbEntity
  8
0
  6
Continuous
 62
     2
100
AcDbLine
 10
-59.61851245901514
 20
13.71953822371222
 30
0.0
 11
-58.42571975684874
 21
13.71953822371222
 31
0.0
  0
LINE
  5
19B
102
{ACAD_REACTORS
330
27A
330
27B
102
}
330
71
100
AcDbEntity
  8
0
  6
Continuous
 62
     2
100
AcDbLine
 10
-60.85901686926803
 20
16.7733477475233
 30
0.0
 11
-62.05180957143563
 21
16.7733477475233
 31
0.0
  0
LINE
  5
19C
102
{ACAD_REACTORS
330
27A
330
27B
102
}
330
71
100
AcDbEntity
  8
0
  6
Continuous
 62
     2
100
AcDbLine
 10
-62.05180957143563
 20
16.7733477475233
 30
0.0
 11
-62.05180957143563
 21
13.71953822371222
 31
0.0
  0
LINE
  5
19D
102
{ACAD_REACTORS
330
278
330
279
102
}
330
71
100
AcDbEntity
  8
0
  6
Continuous
 62
     2
100
AcDbLine
 10
-54.37007363859541
 20
20.13253822369771
 30
0.0
 11
-54.37007363859541
 21
18.82376271349253
 31
0.0
  0
LINE
  5
19E
102
{ACAD_REACTORS
330
278
330
279
102
}
330
71
100
AcDbEntity
  8
0
  6
Continuous
 62
     2
100
AcDbLine
 10
-55.61057804884942
 20
20.13253822369771
 30
0.0
 11
-56.80337075101593
 21
20.13253822369771
 31
0.0
  0
LINE
  5
19F
102
{ACAD_REACTORS
330
278
330
279
102
}
330
71
100
AcDbEntity
  8
0
  6
Continuous
 62
     2
100
AcDbLine
 10
-56.80337075101593
 20
20.13253822369771
 30
0.0
 11
-56.80337075101593
 21
17.07872869988651
 31
0.0
  0
LINE
  5
1A0
102
{ACAD_REACTORS
330
278
330
279
102
}
330
71
100
AcDbEntity
  8
0
  6
Continuous
 62
     2
100
AcDbLine
 10
-55.61057804884942
 20
17.07872869988651
 30
0.0
 11
-55.61057804884942
 21
18.38750421009121
 31
0.0
  0
LINE
  5
1A1
102
{ACAD_REACTORS
330
276
330
277
102
}
330
71
100
AcDbEntity
  8
0
  6
Continuous
 62
     2
100
AcDbLine
 10
-56.27869289294742
 20
13.71953822371222
 30
0.0
 11
-56.27869289294742
 21
15.98808244139971
 31
0.0
  0
LINE
  5
1A2
102
{ACAD_REACTORS
330
276
330
277
102
}
330
71
100
AcDbEntity
  8
0
  6
Continuous
 62
     2
100
AcDbLine
 10
-56.27869289294742
 20
15.98808244139971
 30
0.0
 11
-55.46759385547492
 21
15.98808244139971
 31
0.0
  0
LINE
  5
1A3
102
{ACAD_REACTORS
330
276
330
277
102
}
330
71
100
AcDbEntity
  8
0
  6
Continuous
 62
     2
100
AcDbLine
 10
-55.46759385547492
 20
15.98808244139971
 30
0.0
 11
-55.46759385547492
 21
16.7733477475233
 31
0.0
  0
LINE
  5
1A4
102
{ACAD_REACTORS
330
276
330
277
102
}
330
71
100
AcDbEntity
  8
0
  6
Continuous
 62
     2
100
AcDbLine
 10
-55.46759385547492
 20
16.7733477475233
 30
0.0
 11
-58.28258463258854
 21
16.7733477475233
 31
0.0
  0
LINE
  5
1A5
102
{ACAD_REACTORS
330
276
330
277
102
}
330
71
100
AcDbEntity
  8
0
  6
Continuous
 62
     2
100
AcDbLine
 10
-58.28258463258854
 20
15.98808244139971
 30
0.0
 11
-57.47148559511393
 21
15.98808244139971
 31
0.0
  0
LINE
  5
1A6
102
{ACAD_REACTORS
330
274
330
275
102
}
330
71
100
AcDbEntity
  8
0
  6
Continuous
 62
     2
100
AcDbLine
 10
-54.67308802967753
 20
14.2604987679301
 30
0.0
 11
-53.54064645300372
 21
14.2604987679301
 31
0.0
  0
LINE
  5
1A7
102
{ACAD_REACTORS
330
274
330
275
102
}
330
71
100
AcDbEntity
  8
0
  6
Continuous
 62
     2
100
AcDbLine
 10
-52.08866198927402
 20
13.71953822371222
 30
0.0
 11
-53.32916639952794
 21
13.71953822371222
 31
0.0
  0
LINE
  5
1A8
102
{ACAD_REACTORS
330
274
330
275
102
}
330
71
100
AcDbEntity
  8
0
  6
Continuous
 62
     2
100
AcDbLine
 10
-54.72711944646702
 20
16.7733477475233
 30
0.0
 11
-56.12507249340632
 21
13.71953822371222
 31
0.0
  0
LINE
  5
1A9
102
{ACAD_REACTORS
330
274
330
275
102
}
330
71
100
AcDbEntity
  8
0
  6
Continuous
 62
     2
100
AcDbLine
 10
-54.88456808315334
 20
13.71953822371222
 30
0.0
 11
-54.67308802967753
 21
14.2604987679301
 31
0.0
  0
LINE
  5
1AA
102
{ACAD_REACTORS
330
274
330
275
102
}
330
71
100
AcDbEntity
  8
0
  6
Continuous
 62
     2
100
AcDbLine
 10
-54.40703247853253
 20
14.94106203323671
 30
0.0
 11
-54.10686724134013
 21
15.70887699922341
 31
0.0
  0
LINE
  5
1AB
102
{ACAD_REACTORS
330
272
330
273
102
}
330
71
100
AcDbEntity
  8
0
  6
Continuous
 62
     2
100
AcDbLine
 10
-52.93872239599492
 20
17.07872869988651
 30
0.0
 11
-52.93872239599492
 21
20.13253822369771
 31
0.0
  0
LINE
  5
1AC
102
{ACAD_REACTORS
330
272
330
273
102
}
330
71
100
AcDbEntity
  8
0
  6
Continuous
 62
     2
100
AcDbLine
 10
-51.69821798574202
 20
20.13253822369771
 30
0.0
 11
-51.69821798574202
 21
17.07872869988651
 31
0.0
  0
LINE
  5
1AD
102
{ACAD_REACTORS
330
272
330
273
102
}
330
71
100
AcDbEntity
  8
0
  6
Continuous
 62
     2
100
AcDbLine
 10
-52.93872239599492
 20
20.13253822369771
 30
0.0
 11
-51.69821798574202
 21
20.13253822369771
 31
0.0
  0
LINE
  5
1AE
102
{ACAD_REACTORS
330
270
330
271
102
}
330
71
100
AcDbEntity
  8
0
  6
Continuous
 62
     2
100
AcDbLine
 10
-49.47962355971123
 20
17.86646048518023
 30
0.0
 11
-48.78303262164573
 21
17.07872869988651
 31
0.0
  0
LINE
  5
1AF
102
{ACAD_REACTORS
330
270
330
271
102
}
330
71
100
AcDbEntity
  8
0
  6
Continuous
 62
     2
100
AcDbLine
 10
-48.78303262164573
 20
17.07872869988651
 30
0.0
 11
-47.38030840389743
 21
17.07872869988651
 31
0.0
  0
LINE
  5
1B0
102
{ACAD_REACTORS
330
270
330
271
102
}
330
71
100
AcDbEntity
  8
0
  6
Continuous
 62
     2
100
AcDbLine
 10
-48.77826145083773
 20
18.65958769366151
 30
0.0
 11
-47.38030840389743
 21
17.07872869988651
 31
0.0
  0
LINE
  5
1B1
102
{ACAD_REACTORS
330
270
330
271
102
}
330
71
100
AcDbEntity
  8
0
  6
Continuous
 62
     2
100
AcDbLine
 10
-48.77826145083773
 20
18.65958769366151
 30
0.0
 11
-47.47573182007122
 21
20.13253822369771
 31
0.0
  0
LINE
  5
1B2
102
{ACAD_REACTORS
330
270
330
271
102
}
330
71
100
AcDbEntity
  8
0
  6
Continuous
 62
     2
100
AcDbLine
 10
-49.47962355971123
 20
19.45271490214222
 30
0.0
 11
-48.87845603781844
 21
20.13253822369771
 31
0.0
  0
LINE
  5
1B3
102
{ACAD_REACTORS
330
270
330
271
102
}
330
71
100
AcDbEntity
  8
0
  6
Continuous
 62
     2
100
AcDbLine
 10
-50.08079108160302
 20
20.13253822369771
 30
0.0
 11
-49.47962355971123
 21
19.45271490214222
 31
0.0
  0
LINE
  5
1B4
102
{ACAD_REACTORS
330
270
330
271
102
}
330
71
100
AcDbEntity
  8
0
  6
Continuous
 62
     2
100
AcDbLine
 10
-50.08079108160302
 20
20.13253822369771
 30
0.0
 11
-51.48351529935232
 21
20.13253822369771
 31
0.0
  0
LINE
  5
1B5
102
{ACAD_REACTORS
330
266
330
267
102
}
330
71
100
AcDbEntity
  8
0
  6
Continuous
 62
     2
100
AcDbLine
 10
-49.38420014353852
 20
13.71953822371222
 30
0.0
 11
-48.19140744137081
 21
13.71953822371222
 31
0.0
  0
LINE
  5
1B6
102
{ACAD_REACTORS
330
266
330
267
102
}
330
71
100
AcDbEntity
  8
0
  6
Continuous
 62
     2
100
AcDbLine
 10
-48.19140744137081
 20
13.71953822371222
 30
0.0
 11
-48.19140744137081
 21
15.98808244139971
 31
0.0
  0
LINE
  5
1B7
102
{ACAD_REACTORS
330
266
330
267
102
}
330
71
100
AcDbEntity
  8
0
  6
Continuous
 62
     2
100
AcDbLine
 10
-48.19140744137081
 20
15.98808244139971
 30
0.0
 11
-47.38030840389743
 21
15.98808244139971
 31
0.0
  0
LINE
  5
1B8
102
{ACAD_REACTORS
330
266
330
267
102
}
330
71
100
AcDbEntity
  8
0
  6
Continuous
 62
     2
100
AcDbLine
 10
-47.38030840389743
 20
15.98808244139971
 30
0.0
 11
-47.38030840389743
 21
16.7733477475233
 31
0.0
  0
LINE
  5
1B9
102
{ACAD_REACTORS
330
266
330
267
102
}
330
71
100
AcDbEntity
  8
0
  6
Continuous
 62
     2
100
AcDbLine
 10
-50.76525392252611
 20
16.77334774752282
 30
0.0
 11
-47.38030840389743
 21
16.7733477475233
 31
0.0
  0
LINE
  5
1BA
102
{ACAD_REACTORS
330
266
330
267
102
}
330
71
100
AcDbEntity
  8
0
  6
Continuous
 62
     2
100
AcDbLine
 10
-49.38420014353852
 20
15.98808244139971
 30
0.0
 11
-49.38420014353852
 21
13.71953822371222
 31
0.0
  0
LINE
  5
1BB
102
{ACAD_REACTORS
330
268
330
269
102
}
330
71
100
AcDbEntity
  8
0
  6
Continuous
 62
     2
100
AcDbLine
 10
-72.01368657901773
 20
15.69841837327672
 30
0.0
 11
-72.01368657901773
 21
16.2802697799718
 31
0.0
  0
LINE
  5
1BC
102
{ACAD_REACTORS
330
268
330
269
102
}
330
71
100
AcDbEntity
  8
0
  6
Continuous
 62
     2
100
AcDbLine
 10
-72.01368657901773
 20
18.49855297990803
 30
0.0
 11
-72.01368657901773
 21
19.10408826841481
 31
0.0
  0
LINE
  5
1BD
330
71
100
AcDbEntity
  8
1
  6
Continuous
 62
     6
100
AcDbLine
 10
-93.48350799441451
 20
6.42603822369591
 30
0.0
 11
-79.52831252116454
 21
6.4260382236958
 31
0.0
  0
LINE
  5
1BE
330
71
100
AcDbEntity
  8
1
  6
Continuous
 62
     6
100
AcDbLine
 10
-143.4835079944147
 20
6.42603822369591
 30
0.0
 11
-148.5283125211645
 21
6.42603822369591
 31
0.0
  0
LINE
  5
1BF
330
71
100
AcDbEntity
  8
1
  6
Continuous
 62
     6
100
AcDbLine
 10
6.51649200558546
 20
6.42603822369591
 30
0.0
 11
50.01649200558548
 21
6.42603822369591
 31
0.0
  0
LINE
  5
1C0
330
71
100
AcDbEntity
  8
1
  6
Continuous
 62
     6
100
AcDbLine
 10
-43.48350799441454
 20
6.42603822369591
 30
0.0
 11
-61.32831252116452
 21
6.42603822369591
 31
0.0
  0
LINE
  5
1C1
330
71
100
AcDbEntity
  8
1
  6
Continuous
 62
     2
100
AcDbLine
 10
50.01649200558548
 20
6.42603822369591
 30
0.0
 11
55.01649200558447
 21
6.42603822369591
 31
0.0
  0
LINE
  5
1C2
330
71
100
AcDbEntity
  8
1
  6
Continuous
 62
     2
100
AcDbLine
 10
50.01649200558548
 20
6.42603822369591
 30
0.0
 11
50.01649200558548
 21
1.4260382236958
 31
0.0
  0
LINE
  5
1C3
330
71
100
AcDbEntity
  8
1
  6
Continuous
 62
     6
100
AcDbLine
 10
-79.52831252116454
 20
23.42603822369591
 30
0.0
 11
-43.12831252116462
 21
23.42603822369591
 31
0.0
  0
LINE
  5
1C4
330
71
100
AcDbEntity
  8
1
  6
Continuous
 62
     2
100
AcDbLine
 10
55.01649200558447
 20
1.4260382236958
 30
0.0
 11
55.01649200558447
 21
6.42603822369591
 31
0.0
  0
LINE
  5
1C5
330
71
100
AcDbEntity
  8
1
  6
Continuous
 62
     2
100
AcDbLine
 10
55.01649200558447
 20
1.4260382236958
 30
0.0
 11
50.01649200558548
 21
1.4260382236958
 31
0.0
  0
LINE
  5
1C6
330
71
100
AcDbEntity
  8
1
  6
Continuous
 62
     2
100
AcDbLine
 10
50.01649200558548
 20
1.4260382236958
 30
0.0
 11
6.51649200558546
 21
1.4260382236958
 31
0.0
  0
LINE
  5
1C7
330
71
100
AcDbEntity
  8
1
  6
Continuous
 62
     6
100
AcDbLine
 10
50.01649200558717
 20
23.42603822369591
 30
0.0
 11
50.01649200558637
 21
56.42603822369603
 31
0.0
  0
LINE
  5
1C8
330
71
100
AcDbEntity
  8
1
  6
Continuous
 62
     2
100
AcDbLine
 10
55.01649200558447
 20
211.4260382236959
 30
0.0
 11
-93.48350799441451
 21
211.4260382236959
 31
0.0
  0
LINE
  5
1C9
330
71
100
AcDbEntity
  8
1
  6
Continuous
 62
     6
100
AcDbLine
 10
50.01649200558447
 20
191.4260382236959
 30
0.0
 11
-236.9835079944136
 21
191.4260382236959
 31
0.0
  0
LINE
  5
1CA
330
71
100
AcDbEntity
  8
1
  6
Continuous
 62
     2
100
AcDbLine
 10
50.01649200558637
 20
56.42603822369603
 30
0.0
 11
55.01649200558447
 21
56.42603822369603
 31
0.0
  0
LINE
  5
1CB
330
71
100
AcDbEntity
  8
1
  6
Continuous
 62
     6
100
AcDbLine
 10
50.01649200558637
 20
56.42603822369603
 30
0.0
 11
50.01649200558587
 21
106.4260382236958
 31
0.0
  0
LINE
  5
1CC
330
71
100
AcDbEntity
  8
1
  6
Continuous
 62
     2
100
AcDbLine
 10
55.01649200558447
 20
56.42603822369603
 30
0.0
 11
55.01649200558447
 21
106.4260382236958
 31
0.0
  0
LINE
  5
1CD
330
71
100
AcDbEntity
  8
1
  6
Continuous
 62
     2
100
AcDbLine
 10
50.01649200558587
 20
106.4260382236958
 30
0.0
 11
55.01649200558447
 21
106.4260382236958
 31
0.0
  0
LINE
  5
1CE
330
71
100
AcDbEntity
  8
1
  6
Continuous
 62
     6
100
AcDbLine
 10
50.01649200558587
 20
106.4260382236958
 30
0.0
 11
50.01649200558467
 21
156.4260382236959
 31
0.0
  0
LINE
  5
1CF
330
71
100
AcDbEntity
  8
1
  6
Continuous
 62
     2
100
AcDbLine
 10
55.01649200558447
 20
106.4260382236958
 30
0.0
 11
55.01649200558447
 21
156.4260382236959
 31
0.0
  0
LINE
  5
1D0
330
71
100
AcDbEntity
  8
1
  6
Continuous
 62
     2
100
AcDbLine
 10
50.01649200558467
 20
156.4260382236959
 30
0.0
 11
55.01649200558447
 21
156.4260382236959
 31
0.0
  0
LINE
  5
1D1
330
71
100
AcDbEntity
  8
1
  6
Continuous
 62
     6
100
AcDbLine
 10
50.01649200558467
 20
156.4260382236959
 30
0.0
 11
50.01649200558447
 21
191.4260382236959
 31
0.0
  0
LINE
  5
1D2
330
71
100
AcDbEntity
  8
1
  6
Continuous
 62
     2
100
AcDbLine
 10
55.01649200558447
 20
156.4260382236959
 30
0.0
 11
55.01649200558447
 21
211.4260382236959
 31
0.0
  0
LINE
  5
1D3
330
71
100
AcDbEntity
  8
1
  6
Continuous
 62
     2
100
AcDbLine
 10
55.01649200558447
 20
6.42603822369591
 30
0.0
 11
55.01649200558447
 21
56.42603822369603
 31
0.0
  0
LINE
  5
1D4
330
71
100
AcDbEntity
  8
1
  6
Continuous
 62
     2
100
AcDbLine
 10
-93.48350799441451
 20
211.4260382236959
 30
0.0
 11
-241.9835079944136
 21
211.4260382236959
 31
0.0
  0
LINE
  5
1D5
330
71
100
AcDbEntity
  8
1
  6
Continuous
 62
     2
100
AcDbLine
 10
-93.48350799441451
 20
211.4260382236959
 30
0.0
 11
-93.48350799441451
 21
202.2173463789946
 31
0.0
  0
LINE
  5
1D6
330
71
100
AcDbEntity
  8
1
  6
Continuous
 62
     2
100
AcDbLine
 10
-241.9835079944136
 20
1.4260382236958
 30
0.0
 11
-236.9835079944126
 21
1.4260382236958
 31
0.0
  0
LINE
  5
1D7
330
71
100
AcDbEntity
  8
1
  6
Continuous
 62
     2
100
AcDbLine
 10
-241.9835079944136
 20
211.4260382236959
 30
0.0
 11
-241.9835079944136
 21
156.4260382236959
 31
0.0
  0
LINE
  5
1D8
330
71
100
AcDbEntity
  8
1
  6
Continuous
 62
     6
100
AcDbLine
 10
-236.9835079944136
 20
191.4260382236959
 30
0.0
 11
-236.9835079944135
 21
156.4260382236959
 31
0.0
  0
LINE
  5
1D9
330
71
100
AcDbEntity
  8
1
  6
Continuous
 62
     2
100
AcDbLine
 10
-241.9835079944136
 20
156.4260382236959
 30
0.0
 11
-236.9835079944135
 21
156.4260382236959
 31
0.0
  0
LINE
  5
1DA
330
71
100
AcDbEntity
  8
1
  6
Continuous
 62
     2
100
AcDbLine
 10
-241.9835079944136
 20
156.4260382236959
 30
0.0
 11
-241.9835079944136
 21
106.4260382236958
 31
0.0
  0
LINE
  5
1DB
330
71
100
AcDbEntity
  8
1
  6
Continuous
 62
     6
100
AcDbLine
 10
-236.9835079944135
 20
156.4260382236959
 30
0.0
 11
-236.983507994413
 21
106.4260382236958
 31
0.0
  0
LINE
  5
1DC
330
71
100
AcDbEntity
  8
1
  6
Continuous
 62
     2
100
AcDbLine
 10
-241.9835079944136
 20
106.4260382236958
 30
0.0
 11
-236.983507994413
 21
106.4260382236958
 31
0.0
  0
LINE
  5
1DD
330
71
100
AcDbEntity
  8
1
  6
Continuous
 62
     2
100
AcDbLine
 10
-241.9835079944136
 20
106.4260382236958
 30
0.0
 11
-241.9835079944136
 21
56.42603822369603
 31
0.0
  0
LINE
  5
1DE
330
71
100
AcDbEntity
  8
1
  6
Continuous
 62
     6
100
AcDbLine
 10
-236.983507994413
 20
106.4260382236958
 30
0.0
 11
-236.9835079944128
 21
56.42603822369603
 31
0.0
  0
LINE
  5
1DF
330
71
100
AcDbEntity
  8
1
  6
Continuous
 62
     2
100
AcDbLine
 10
-241.9835079944136
 20
56.42603822369603
 30
0.0
 11
-236.9835079944128
 21
56.42603822369603
 31
0.0
  0
LINE
  5
1E0
330
71
100
AcDbEntity
  8
1
  6
Continuous
 62
     2
100
AcDbLine
 10
-241.9835079944136
 20
56.42603822369603
 30
0.0
 11
-241.9835079944136
 21
6.42603822369591
 31
0.0
  0
LINE
  5
1E1
330
71
100
AcDbEntity
  8
1
  6
Continuous
 62
     6
100
AcDbLine
 10
-236.9835079944128
 20
56.42603822369603
 30
0.0
 11
-236.9835079944126
 21
6.42603822369591
 31
0.0
  0
LINE
  5
1E2
330
71
100
AcDbEntity
  8
1
  6
Continuous
 62
     2
100
AcDbLine
 10
-193.4835079944145
 20
1.4260382236958
 30
0.0
 11
-193.4835079944145
 21
6.42603822369591
 31
0.0
  0
LINE
  5
1E3
330
71
100
AcDbEntity
  8
1
  6
Continuous
 62
     2
100
AcDbLine
 10
-193.4835079944145
 20
1.4260382236958
 30
0.0
 11
-143.4835079944147
 21
1.4260382236958
 31
0.0
  0
LINE
  5
1E4
330
71
100
AcDbEntity
  8
1
  6
Continuous
 62
     2
100
AcDbLine
 10
-143.4835079944147
 20
1.4260382236958
 30
0.0
 11
-143.4835079944147
 21
6.42603822369591
 31
0.0
  0
LINE
  5
1E5
330
71
100
AcDbEntity
  8
1
  6
Continuous
 62
     2
100
AcDbLine
 10
-143.4835079944147
 20
1.4260382236958
 30
0.0
 11
-93.48350799441451
 21
1.4260382236958
 31
0.0
  0
LINE
  5
1E6
330
71
100
AcDbEntity
  8
1
  6
Continuous
 62
     2
100
AcDbLine
 10
-93.48350799441451
 20
1.4260382236958
 30
0.0
 11
-93.48350799441451
 21
6.42603822369591
 31
0.0
  0
LINE
  5
1E7
330
71
100
AcDbEntity
  8
1
  6
Continuous
 62
     2
100
AcDbLine
 10
-93.48350799441451
 20
1.4260382236958
 30
0.0
 11
-43.48350799441454
 21
1.4260382236958
 31
0.0
  0
LINE
  5
1E8
330
71
100
AcDbEntity
  8
1
  6
Continuous
 62
     2
100
AcDbLine
 10
-43.48350799441454
 20
1.4260382236958
 30
0.0
 11
-43.48350799441454
 21
6.42603822369591
 31
0.0
  0
LINE
  5
1E9
330
71
100
AcDbEntity
  8
1
  6
Continuous
 62
     2
100
AcDbLine
 10
6.51649200558546
 20
1.4260382236958
 30
0.0
 11
6.51649200558546
 21
6.42603822369591
 31
0.0
  0
LINE
  5
1EA
330
71
100
AcDbEntity
  8
1
  6
Continuous
 62
     2
100
AcDbLine
 10
6.51649200558546
 20
1.4260382236958
 30
0.0
 11
-43.48350799441454
 21
1.4260382236958
 31
0.0
  0
LINE
  5
1EB
330
71
100
AcDbEntity
  8
1
  6
Continuous
 62
     2
100
AcDbLine
 10
-236.9835079944126
 20
6.42603822369591
 30
0.0
 11
-236.9835079944126
 21
1.4260382236958
 31
0.0
  0
LINE
  5
1EC
330
71
100
AcDbEntity
  8
1
  6
Continuous
 62
     2
100
AcDbLine
 10
-236.9835079944126
 20
1.4260382236958
 30
0.0
 11
-193.4835079944145
 21
1.4260382236958
 31
0.0
  0
LINE
  5
1ED
330
71
100
AcDbEntity
  8
1
  6
Continuous
 62
     2
100
AcDbLine
 10
-236.9835079944126
 20
6.42603822369591
 30
0.0
 11
-241.9835079944136
 21
6.42603822369591
 31
0.0
  0
LINE
  5
1EE
330
71
100
AcDbEntity
  8
1
  6
Continuous
 62
     2
100
AcDbLine
 10
-241.9835079944136
 20
6.42603822369591
 30
0.0
 11
-241.9835079944136
 21
1.4260382236958
 31
0.0
  0
LINE
  5
1EF
330
71
100
AcDbEntity
  8
1
  6
Continuous
 62
     6
100
AcDbLine
 10
50.01649200558548
 20
6.42603822369591
 30
0.0
 11
50.01649200558677
 21
14.92603822369591
 31
0.0
  0
LINE
  5
1F0
330
71
100
AcDbEntity
  8
1
  6
Continuous
 62
     6
100
AcDbLine
 10
-43.12831252116462
 20
6.4260382236958
 30
0.0
 11
6.51649200558546
 21
6.42603822369591
 31
0.0
  0
LINE
  5
1F1
330
71
100
AcDbEntity
  8
1
  6
Continuous
 62
     6
100
AcDbLine
 10
-195.7835079944148
 20
6.4260382236958
 30
0.0
 11
-193.4835079944145
 21
6.42603822369591
 31
0.0
  0
LINE
  5
1F2
330
71
100
AcDbEntity
  8
1
  6
Continuous
 62
     6
100
AcDbLine
 10
-93.48350799441451
 20
6.42603822369591
 30
0.0
 11
-143.4835079944147
 21
6.42603822369591
 31
0.0
  0
LINE
  5
1F3
330
71
100
AcDbEntity
  8
1
  6
Continuous
 62
     7
100
AcDbLine
 10
-79.52831252116454
 20
23.42603822369591
 30
0.0
 11
-79.52831252116454
 21
10.6760382236958
 31
0.0
  0
LINE
  5
1F4
330
71
100
AcDbEntity
  8
1
  6
Continuous
 62
     7
100
AcDbLine
 10
-43.12831252116462
 20
23.42603822369591
 30
0.0
 11
-43.12831252116462
 21
10.67603822369591
 31
0.0
  0
LINE
  5
1F5
330
71
100
AcDbEntity
  8
1
  6
Continuous
 62
     6
100
AcDbLine
 10
-195.7835079944148
 20
6.4260382236958
 30
0.0
 11
-201.9835079944128
 21
6.42603822369591
 31
0.0
  0
LINE
  5
1F6
330
71
100
AcDbEntity
  8
1
  6
Continuous
 62
     6
100
AcDbLine
 10
-43.12831252116462
 20
6.4260382236958
 30
0.0
 11
-43.48350799441454
 21
6.42603822369591
 31
0.0
  0
LINE
  5
1F7
330
71
100
AcDbEntity
  8
1
  6
Continuous
 62
     6
100
AcDbLine
 10
50.01649200558717
 20
23.42603822369591
 30
0.0
 11
50.01649200558677
 21
14.92603822369591
 31
0.0
  0
LINE
  5
1F8
330
71
100
AcDbEntity
  8
1
  6
Continuous
 62
     6
100
AcDbLine
 10
-201.9835079944128
 20
6.42603822369591
 30
0.0
 11
-236.9835079944126
 21
6.42603822369591
 31
0.0
  0
LINE
  5
1F9
330
71
100
AcDbEntity
  8
1
  6
Continuous
 62
     2
100
AcDbLine
 10
-75.29165763460193
 20
28.80103822369583
 30
0.0
 11
-70.29165763460193
 21
30.05103822369583
 31
0.0
  0
LINE
  5
1FA
330
71
100
AcDbEntity
  8
1
  6
Continuous
 62
     2
100
AcDbLine
 10
-75.29165763460193
 20
26.30103822369583
 30
0.0
 11
-75.29165763460193
 21
28.80103822369583
 31
0.0
  0
LINE
  5
1FB
330
71
100
AcDbEntity
  8
1
  6
Continuous
 62
     2
100
AcDbLine
 10
-70.29165763460193
 20
25.05103822369583
 30
0.0
 11
-75.29165763460193
 21
26.30103822369583
 31
0.0
  0
LINE
  5
1FC
330
71
100
AcDbEntity
  8
1
  6
Continuous
 62
     2
100
AcDbLine
 10
-70.29165763460193
 20
30.05103822369583
 30
0.0
 11
-70.29165763460193
 21
25.05103822369583
 31
0.0
  0
LINE
  5
1FD
330
71
100
AcDbEntity
  8
1
  6
Continuous
 62
     7
100
AcDbLine
 10
-79.52831252116454
 20
10.6760382236958
 30
0.0
 11
-61.32831252116452
 21
10.67603822369591
 31
0.0
  0
LINE
  5
1FE
330
71
100
AcDbEntity
  8
1
  6
Continuous
 62
     7
100
AcDbLine
 10
-79.52831252116454
 20
10.6760382236958
 30
0.0
 11
-79.52831252116454
 21
6.4260382236958
 31
0.0
  0
LINE
  5
1FF
330
71
100
AcDbEntity
  8
1
  6
Continuous
 62
     7
100
AcDbLine
 10
-43.12831252116462
 20
10.67603822369591
 30
0.0
 11
-43.12831252116462
 21
6.4260382236958
 31
0.0
  0
LINE
  5
200
330
71
100
AcDbEntity
  8
1
  6
Continuous
 62
     7
100
AcDbLine
 10
-61.32831252116452
 20
10.67603822369591
 30
0.0
 11
-61.32831252116452
 21
6.42603822369591
 31
0.0
  0
LINE
  5
201
330
71
100
AcDbEntity
  8
1
  6
Continuous
 62
     6
100
AcDbLine
 10
-61.32831252116452
 20
6.42603822369591
 30
0.0
 11
-79.52831252116454
 21
6.4260382236958
 31
0.0
  0
LINE
  5
202
330
71
100
AcDbEntity
  8
1
  6
Continuous
 62
     7
100
AcDbLine
 10
-61.32831252116452
 20
10.67603822369591
 30
0.0
 11
-43.12831252116462
 21
10.67603822369591
 31
0.0
  0
LINE
  5
203
330
71
100
AcDbEntity
  8
1
  6
Continuous
 62
     6
100
AcDbLine
 10
-79.52831252116454
 20
31.92603822369591
 30
0.0
 11
50.01649200558717
 21
31.92603822369591
 31
0.0
  0
ARC
  5
204
102
{ACAD_REACTORS
330
26C
330
26D
102
}
330
71
100
AcDbEntity
  8
0
  6
Continuous
 62
     2
100
AcDbCircle
 10
-64.13666452220454
 20
15.24644298561751
 30
0.0
 40
0.7717997786796947
100
AcDbArc
 50
321.8795802028417
 51
38.12041979715308
  0
ARC
  5
205
102
{ACAD_REACTORS
330
26C
330
26D
102
}
330
71
100
AcDbEntity
  8
0
  6
Continuous
 62
     2
100
AcDbCircle
 10
-63.93692448585813
 20
15.08971180749751
 30
0.0
 40
0.5179085730137343
100
AcDbArc
 50
218.120419797193
 51
321.8795802028012
  0
ARC
  5
206
102
{ACAD_REACTORS
330
26C
330
26D
102
}
330
71
100
AcDbEntity
  8
0
  6
Continuous
 62
     2
100
AcDbCircle
 10
-63.73718444951203
 20
15.24644298561751
 30
0.0
 40
0.771799778679461
100
AcDbArc
 50
141.8795802028365
 51
218.1204197971687
  0
ARC
  5
207
102
{ACAD_REACTORS
330
26C
330
26D
102
}
330
71
100
AcDbEntity
  8
0
  6
Continuous
 62
     2
100
AcDbCircle
 10
-63.93692448585813
 20
15.40317416373802
 30
0.0
 40
0.5179085730132965
100
AcDbArc
 50
38.12041979714657
 51
141.8795802028592
  0
ARC
  5
208
102
{ACAD_REACTORS
330
264
330
265
102
}
330
71
100
AcDbEntity
  8
0
  6
Continuous
 62
     2
100
AcDbCircle
 10
-66.99893862142201
 20
13.83597662020932
 30
0.0
 40
2.227384008973482
100
AcDbArc
 50
58.0690910500408
 51
71.55192388186722
  0
ARC
  5
209
102
{ACAD_REACTORS
330
264
330
265
102
}
330
71
100
AcDbEntity
  8
0
  6
Continuous
 62
     2
100
AcDbCircle
 10
-66.73721092046324
 20
15.45151441495651
 30
0.0
 40
0.5115800601948796
100
AcDbArc
 50
113.3722778881991
 51
151.4785267423044
  0
ARC
  5
20A
102
{ACAD_REACTORS
330
264
330
265
102
}
330
71
100
AcDbEntity
  8
0
  6
Continuous
 62
     2
100
AcDbCircle
 10
-66.35985366238293
 20
15.24644298561751
 30
0.0
 40
0.9410597353332545
100
AcDbArc
 50
151.4785267422669
 51
208.5214732577058
  0
ARC
  5
20B
102
{ACAD_REACTORS
330
264
330
265
102
}
330
71
100
AcDbEntity
  8
0
  6
Continuous
 62
     2
100
AcDbCircle
 10
-67.15681149651493
 20
18.55912393087391
 30
0.0
 40
4.852596863498134
100
AcDbArc
 50
275.1581447696249
 51
285.9799912583529
  0
ARC
  5
20C
102
{ACAD_REACTORS
330
264
330
265
102
}
330
71
100
AcDbEntity
  8
0
  6
Continuous
 62
     2
100
AcDbCircle
 10
-66.86795540177903
 20
15.35923334765232
 30
0.0
 40
1.639695123939387
100
AcDbArc
 50
195.0618917770895
 51
275.1581447696395
  0
ARC
  5
20D
102
{ACAD_REACTORS
330
264
330
265
102
}
330
71
100
AcDbEntity
  8
0
  6
Continuous
 62
     2
100
AcDbCircle
 10
-67.28708324524183
 20
15.24644298561751
 30
0.0
 40
1.205656168390943
100
AcDbArc
 50
164.9381082228765
 51
195.0618917770949
  0
ARC
  5
20E
102
{ACAD_REACTORS
330
264
330
265
102
}
330
71
100
AcDbEntity
  8
0
  6
Continuous
 62
     2
100
AcDbCircle
 10
-66.86795540177903
 20
15.13365262358261
 30
0.0
 40
1.639695123940507
100
AcDbArc
 50
84.84185523036236
 51
164.9381082228865
  0
ARC
  5
20F
102
{ACAD_REACTORS
330
268
330
269
102
}
330
71
100
AcDbEntity
  8
0
  6
Continuous
 62
     2
100
AcDbCircle
 10
-71.69796965594094
 20
16.2802697799718
 30
0.0
 40
0.3157169230765328
100
AcDbArc
 50
115.3740086783519
 51
180.0
  0
ARC
  5
210
102
{ACAD_REACTORS
330
268
330
269
102
}
330
71
100
AcDbEntity
  8
0
  6
Continuous
 62
     2
100
AcDbCircle
 10
-71.69796965594094
 20
18.49855297990803
 30
0.0
 40
0.315716923076792
100
AcDbArc
 50
180.0
 51
244.6259913216484
  0
ARC
  5
211
102
{ACAD_REACTORS
330
268
330
269
102
}
330
71
100
AcDbEntity
  8
0
  6
Continuous
 62
     2
100
AcDbCircle
 10
-71.69235352063092
 20
17.40125332084571
 30
0.0
 40
2.018561131933267
100
AcDbArc
 50
269.8110329575858
 51
90.18896704241416
  0
ARC
  5
212
102
{ACAD_REACTORS
330
268
330
269
102
}
330
71
100
AcDbEntity
  8
0
  6
Continuous
 62
     2
100
AcDbCircle
 10
-71.69796965594094
 20
15.69841837327672
 30
0.0
 40
0.315716923076792
100
AcDbArc
 50
180.0
 51
269.8110329574542
  0
ARC
  5
213
102
{ACAD_REACTORS
330
266
330
267
102
}
330
71
100
AcDbEntity
  8
0
  6
Continuous
 62
     2
100
AcDbCircle
 10
-50.63450944121033
 20
15.45151441495651
 30
0.0
 40
0.5115800601944093
100
AcDbArc
 50
109.3371432194855
 51
151.4785267424226
  0
ARC
  5
214
102
{ACAD_REACTORS
330
266
330
267
102
}
330
71
100
AcDbEntity
  8
0
  6
Continuous
 62
     2
100
AcDbCircle
 10
-50.63450944121033
 20
15.04137155627902
 30
0.0
 40
0.5115800601960208
100
AcDbArc
 50
208.5214732576864
 51
246.6277221118451
  0
ARC
  5
215
102
{ACAD_REACTORS
330
266
330
267
102
}
330
71
100
AcDbEntity
  8
0
  6
Continuous
 62
     2
100
AcDbCircle
 10
-51.18438176598772
 20
15.24644298561751
 30
0.0
 40
1.205656168393002
100
AcDbArc
 50
164.9381082229029
 51
195.0618917770962
  0
ARC
  5
216
102
{ACAD_REACTORS
330
266
330
267
102
}
330
71
100
AcDbEntity
  8
0
  6
Continuous
 62
     2
100
AcDbCircle
 10
-50.76525392252611
 20
15.13365262358261
 30
0.0
 40
1.639695123940211
100
AcDbArc
 50
90.0
 51
164.9381082228951
  0
ARC
  5
217
102
{ACAD_REACTORS
330
26A
330
26B
102
}
330
71
100
AcDbEntity
  8
0
  6
Continuous
 62
     2
100
AcDbCircle
 10
-60.19224901522983
 20
18.60563346179183
 30
0.0
 40
1.526904761905882
100
AcDbArc
 50
90.0
 51
270.0
  0
ARC
  5
218
102
{ACAD_REACTORS
330
26E
330
26F
102
}
330
71
100
AcDbEntity
  8
0
  6
Continuous
 62
     2
100
AcDbCircle
 10
-66.93493976045562
 20
19.11656855358652
 30
0.0
 40
0.3528638246711218
100
AcDbArc
 50
270.0
 51
90.0
  0
ARC
  5
219
102
{ACAD_REACTORS
330
268
330
269
102
}
330
71
100
AcDbEntity
  8
0
  6
Continuous
 62
     2
100
AcDbCircle
 10
-74.27351834247264
 20
19.10426574506292
 30
0.0
 40
0.315716923076188
100
AcDbArc
 50
90.0
 51
180.0
  0
ARC
  5
21A
102
{ACAD_REACTORS
330
268
330
269
102
}
330
71
100
AcDbEntity
  8
0
  6
Continuous
 62
     2
100
AcDbCircle
 10
-72.27510063388803
 20
17.38941137994021
 30
0.0
 40
0.911897523557621
100
AcDbArc
 50
115.194410648528
 51
244.8055893514878
  0
ARC
  5
21B
102
{ACAD_REACTORS
330
268
330
269
102
}
330
71
100
AcDbEntity
  8
0
  6
Continuous
 62
     2
100
AcDbCircle
 10
-72.79768508146302
 20
16.27858163387742
 30
0.0
 40
0.315716923076593
100
AcDbArc
 50
0.0
 51
64.80558935146027
  0
ARC
  5
21C
102
{ACAD_REACTORS
330
268
330
269
102
}
330
71
100
AcDbEntity
  8
0
  6
Continuous
 62
     2
100
AcDbCircle
 10
-74.86741301921913
 20
14.14378283909551
 30
0.0
 40
0.4242446153828041
100
AcDbArc
 50
180.0
 51
270.0
  0
ARC
  5
21D
102
{ACAD_REACTORS
330
26A
330
26B
102
}
330
71
100
AcDbEntity
  8
0
  6
Continuous
 62
     2
100
AcDbCircle
 10
-59.97597700506464
 20
18.76236463991231
 30
0.0
 40
0.5179085730135321
100
AcDbArc
 50
38.12041979714286
 51
141.8795802028484
  0
ARC
  5
21E
102
{ACAD_REACTORS
330
26A
330
26B
102
}
330
71
100
AcDbEntity
  8
0
  6
Continuous
 62
     2
100
AcDbCircle
 10
-59.77623696871834
 20
18.60563346179183
 30
0.0
 40
0.7717997786796724
100
AcDbArc
 50
141.8795802028404
 51
218.1204197971566
  0
ARC
  5
21F
102
{ACAD_REACTORS
330
26C
330
26D
102
}
330
71
100
AcDbEntity
  8
0
  6
Continuous
 62
     2
100
AcDbCircle
 10
-63.93692448585813
 20
15.78501799592081
 30
0.0
 40
2.065479772208505
100
AcDbArc
 50
242.4518518243401
 51
297.5481481756871
  0
ARC
  5
220
102
{ACAD_REACTORS
330
26C
330
26D
102
}
330
71
100
AcDbEntity
  8
0
  6
Continuous
 62
     2
100
AcDbCircle
 10
-63.93692448585813
 20
14.70786797531471
 30
0.0
 40
2.065479772208574
100
AcDbArc
 50
62.45185182430646
 51
117.5481481756663
  0
ARC
  5
221
102
{ACAD_REACTORS
330
26C
330
26D
102
}
330
71
100
AcDbEntity
  8
0
  6
Continuous
 62
     2
100
AcDbCircle
 10
-64.21786437769143
 20
15.24644298561751
 30
0.0
 40
1.45803408365149
100
AcDbArc
 50
117.5481481756624
 51
242.4518518243375
  0
ARC
  5
222
102
{ACAD_REACTORS
330
26C
330
26D
102
}
330
71
100
AcDbEntity
  8
0
  6
Continuous
 62
     2
100
AcDbCircle
 10
-63.65598459402483
 20
15.24644298561751
 30
0.0
 40
1.458034083652003
100
AcDbArc
 50
297.548148175701
 51
62.45185182429896
  0
ARC
  5
223
102
{ACAD_REACTORS
330
26A
330
26B
102
}
330
71
100
AcDbEntity
  8
0
  6
Continuous
 62
     2
100
AcDbCircle
 10
-59.97597700506464
 20
18.4489022836714
 30
0.0
 40
0.5179085730134337
100
AcDbArc
 50
218.1204197971519
 51
321.8795802028569
  0
ARC
  5
224
102
{ACAD_REACTORS
330
26A
330
26B
102
}
330
71
100
AcDbEntity
  8
0
  6
Continuous
 62
     2
100
AcDbCircle
 10
-60.17571704141082
 20
18.60563346179183
 30
0.0
 40
0.7717997786796417
100
AcDbArc
 50
321.8795802028433
 51
38.12041979715956
  0
ARC
  5
225
102
{ACAD_REACTORS
330
268
330
269
102
}
330
71
100
AcDbEntity
  8
0
  6
Continuous
 62
     2
100
AcDbCircle
 10
-69.39410092850233
 20
14.14378283909551
 30
0.0
 40
0.4242446153832891
100
AcDbArc
 50
270.0
 51
0.0
  0
ARC
  5
226
102
{ACAD_REACTORS
330
268
330
269
102
}
330
71
100
AcDbEntity
  8
0
  6
Continuous
 62
     2
100
AcDbCircle
 10
-69.39410092850233
 20
19.70829360829572
 30
0.0
 40
0.4242446153838841
100
AcDbArc
 50
0.0
 51
90.0
  0
ARC
  5
227
102
{ACAD_REACTORS
330
268
330
269
102
}
330
71
100
AcDbEntity
  8
0
  6
Continuous
 62
     2
100
AcDbCircle
 10
-74.86741301921913
 20
19.70829360829572
 30
0.0
 40
0.4242446153838024
100
AcDbArc
 50
90.0
 51
180.0
  0
ARC
  5
228
102
{ACAD_REACTORS
330
268
330
269
102
}
330
71
100
AcDbEntity
  8
0
  6
Continuous
 62
     2
100
AcDbCircle
 10
-72.79768508146302
 20
14.74781070234582
 30
0.0
 40
0.3157169230767103
100
AcDbArc
 50
270.0
 51
0.0
  0
ARC
  5
229
102
{ACAD_REACTORS
330
268
330
269
102
}
330
71
100
AcDbEntity
  8
0
  6
Continuous
 62
     2
100
AcDbCircle
 10
-72.79768508146302
 20
18.50024112600241
 30
0.0
 40
0.3157169230761203
100
AcDbArc
 50
295.1944106485397
 51
0.0
  0
ARC
  5
22A
102
{ACAD_REACTORS
330
268
330
269
102
}
330
71
100
AcDbEntity
  8
0
  6
Continuous
 62
     2
100
AcDbCircle
 10
-72.79768508146302
 20
19.10426574506292
 30
0.0
 40
0.315716923076593
100
AcDbArc
 50
0.0
 51
90.0
  0
ARC
  5
22B
102
{ACAD_REACTORS
330
268
330
269
102
}
330
71
100
AcDbEntity
  8
0
  6
Continuous
 62
     2
100
AcDbCircle
 10
-74.27351834247264
 20
14.74781070234582
 30
0.0
 40
0.3157169230756836
100
AcDbArc
 50
180.0
 51
270.0
  0
ARC
  5
22C
102
{ACAD_REACTORS
330
26E
330
26F
102
}
330
71
100
AcDbEntity
  8
0
  6
Continuous
 62
     2
100
AcDbCircle
 10
-66.49346723421723
 20
19.07717258236403
 30
0.0
 40
1.055365641333712
100
AcDbArc
 50
270.0
 51
90.0
  0
ARC
  5
22D
102
{ACAD_REACTORS
330
266
330
267
102
}
330
71
100
AcDbEntity
  8
0
  6
Continuous
 62
     2
100
AcDbCircle
 10
-50.76525392252611
 20
15.35923334765232
 30
0.0
 40
1.639695123940456
100
AcDbArc
 50
195.0618917771012
 51
275.158144769676
  0
ARC
  5
22E
102
{ACAD_REACTORS
330
266
330
267
102
}
330
71
100
AcDbEntity
  8
0
  6
Continuous
 62
     2
100
AcDbCircle
 10
-51.05411001726193
 20
18.55912393087391
 30
0.0
 40
4.852596863498824
100
AcDbArc
 50
275.1581447696362
 51
285.9799912583387
  0
ARC
  5
22F
102
{ACAD_REACTORS
330
266
330
267
102
}
330
71
100
AcDbEntity
  8
0
  6
Continuous
 62
     2
100
AcDbCircle
 10
-50.89623714216913
 20
16.6569093510256
 30
0.0
 40
2.227384008972744
100
AcDbArc
 50
288.4480761181333
 51
301.9309089499399
  0
ARC
  5
230
102
{ACAD_REACTORS
330
266
330
267
102
}
330
71
100
AcDbEntity
  8
0
  6
Continuous
 62
     2
100
AcDbCircle
 10
-50.47806940850722
 20
15.40336357498902
 30
0.0
 40
0.9059297849852894
100
AcDbArc
 50
246.627722111818
 51
288.4480761180807
  0
ARC
  5
231
102
{ACAD_REACTORS
330
266
330
267
102
}
330
71
100
AcDbEntity
  8
0
  6
Continuous
 62
     2
100
AcDbCircle
 10
-50.25715218312894
 20
15.24644298561751
 30
0.0
 40
0.9410597353348915
100
AcDbArc
 50
151.4785267423625
 51
208.5214732576695
  0
ARC
  5
232
102
{ACAD_REACTORS
330
266
330
267
102
}
330
71
100
AcDbEntity
  8
0
  6
Continuous
 62
     2
100
AcDbCircle
 10
-50.48783944310662
 20
15.03355943457362
 30
0.0
 40
0.9545230068260899
100
AcDbArc
 50
90.0
 51
109.3371432194321
  0
ARC
  5
233
102
{ACAD_REACTORS
330
268
330
269
102
}
330
71
100
AcDbEntity
  8
0
  6
Continuous
 62
     2
100
AcDbCircle
 10
-71.69796965594094
 20
19.10408826841481
 30
0.0
 40
0.3157169230760746
100
AcDbArc
 50
90.18896704254594
 51
180.0
  0
ARC
  5
234
102
{ACAD_REACTORS
330
268
330
269
102
}
330
71
100
AcDbEntity
  8
0
  6
Continuous
 62
     2
100
AcDbCircle
 10
-72.22401235402882
 20
17.38941137994021
 30
0.0
 40
0.911848150144459
100
AcDbArc
 50
295.3740086781764
 51
64.62599132180755
  0
ARC
  5
235
102
{ACAD_REACTORS
330
264
330
265
102
}
330
71
100
AcDbEntity
  8
0
  6
Continuous
 62
     2
100
AcDbCircle
 10
-66.99893862142201
 20
16.6569093510262
 30
0.0
 40
2.227384008972739
100
AcDbArc
 50
288.4480761181328
 51
301.9309089499593
  0
ARC
  5
236
102
{ACAD_REACTORS
330
264
330
265
102
}
330
71
100
AcDbEntity
  8
0
  6
Continuous
 62
     2
100
AcDbCircle
 10
-66.58077088776122
 20
15.40336357498902
 30
0.0
 40
0.9059297849849257
100
AcDbArc
 50
246.6277221118712
 51
288.4480761181583
  0
ARC
  5
237
102
{ACAD_REACTORS
330
264
330
265
102
}
330
71
100
AcDbEntity
  8
0
  6
Continuous
 62
     2
100
AcDbCircle
 10
-66.73721092046324
 20
15.04137155627902
 30
0.0
 40
0.5115800601948034
100
AcDbArc
 50
208.5214732576956
 51
246.6277221118275
  0
ARC
  5
238
102
{ACAD_REACTORS
330
264
330
265
102
}
330
71
100
AcDbEntity
  8
0
  6
Continuous
 62
     2
100
AcDbCircle
 10
-66.58077088776122
 20
15.08952239624591
 30
0.0
 40
0.9059297849853228
100
AcDbArc
 50
71.55192388185348
 51
113.3722778881288
  0
ARC
  5
239
102
{ACAD_REACTORS
330
264
330
265
102
}
330
71
100
AcDbEntity
  8
0
  6
Continuous
 62
     2
100
AcDbCircle
 10
-67.15681149651493
 20
11.93376204036161
 30
0.0
 40
4.852596863498075
100
AcDbArc
 50
74.02000874164742
 51
84.84185523037506
  0
CIRCLE
  5
23A
102
{ACAD_REACTORS
330
268
330
269
102
}
330
71
100
AcDbEntity
  8
0
  6
Continuous
 62
     2
100
AcDbCircle
 10
-72.24782736870162
 20
17.38941137994021
 30
0.0
 40
0.4709789327785074
  0
CIRCLE
  5
23B
330
71
100
AcDbEntity
  8
1
  6
Continuous
 62
     2
100
AcDbCircle
 10
-66.79165763460193
 20
27.55103822369583
 30
0.0
 40
1.249999999999915
  0
CIRCLE
  5
23C
330
71
100
AcDbEntity
  8
1
  6
Continuous
 62
     2
100
AcDbCircle
 10
-66.79165763460193
 20
27.55103822369583
 30
0.0
 40
2.5
  0
TEXT
  5
23D
330
71
100
AcDbEntity
  8
1
 62
     7
100
AcDbText
 10
-24.15476479915074
 20
24.72603822369581
 30
0.0
 40
2.5
  1
/
 41
0.9
  7
CONVERTER_11
100
AcDbText
  0
TEXT
  5
23F
330
71
100
AcDbEntity
  8
1
 62
     7
100
AcDbText
 10
-21.99840030210874
 20
24.72603822369581
 30
0.0
 40
2.5
  1
01
 41
0.81
  7
CONVERTER_12
100
AcDbText
  0
TEXT
  5
240
330
71
100
AcDbEntity
  8
1
 62
     3
100
AcDbText
 10
15.59808372390836
 20
24.72603822369581
 30
0.0
 40
2.5
  1
16.03.2018
 41
0.81
  7
CONVERTER_12
100
AcDbText
  0
MTEXT
  5
241
330
71
100
AcDbEntity
  8
1
 62
     2
100
AcDbMText
 10
15.59808372390836
 20
30.92603822369583
 30
0.0
 40
1.8
 41
0.0
 71
     1
 72
     1
  1
date
  7
CONVERTER_11
 73
     1
 44
1.32052821128451
  0
MTEXT
  5
242
330
71
100
AcDbEntity
  8
1
 62
     2
100
AcDbMText
 10
-14.22831252116453
 20
22.42603822369583
 30
0.0
 40
1.8
 41
0.0
 71
     1
 72
     1
  1
document-type
  7
CONVERTER_11
 73
     1
 44
1.20048019207683
  0
TEXT
  5
243
330
71
100
AcDbEntity
  8
1
 62
     3
100
AcDbText
 10
-14.22831252116453
 20
16.22603822369581
 30
0.0
 40
2.5
  1
TECDOC 2D_Productdrawing
 41
0.81
  7
CONVERTER_12
100
AcDbText
  0
MTEXT
  5
245
330
71
100
AcDbEntity
  8
1
 62
     2
100
AcDbMText
 10
-42.02831252116454
 20
30.92603822369591
 30
0.0
 40
1.8
 41
0.0
 71
     1
 72
     1
  1
document-No. / RI
  7
CONVERTER_13
 73
     1
 44
1.32052821128451
  0
TEXT
  5
246
330
71
100
AcDbEntity
  8
1
 62
     7
100
AcDbText
 10
-42.02831252116454
 20
24.72603822369581
 30
0.0
 40
2.5
  1
00440927
 41
0.81
  7
CONVERTER_12
100
AcDbText
  0
MTEXT
  5
248
330
71
100
AcDbEntity
  8
1
 62
     3
100
AcDbMText
 10
45.55728786474778
 20
24.72603822369601
 30
0.0
 40
2.5
 41
0.0
 71
     8
 72
     1
  1
1:1
  7
CONVERTER_14
 73
     1
 44
1.32052821128451
  0
MTEXT
  5
249
330
71
100
AcDbEntity
  8
1
 62
     2
100
AcDbMText
 10
42.19808372390818
 20
30.92603822369591
 30
0.0
 40
1.8
 41
0.0
 71
     1
 72
     1
  1
scale
  7
CONVERTER_11
 73
     1
 44
1.20048019207683
  0
MTEXT
  5
24A
330
71
100
AcDbEntity
  8
1
 62
     2
100
AcDbMText
 10
-42.02831252116454
 20
22.42603822369591
 30
0.0
 40
1.8
 41
0.0
 71
     1
 72
     1
  1
ident.-No.
  7
CONVERTER_11
 73
     1
 44
1.20048019207683
  0
TEXT
  5
24B
330
71
100
AcDbEntity
  8
1
 62
     7
100
AcDbText
 10
-41.62831252116482
 20
16.22603822369581
 30
0.0
 40
2.5
  1
3206199
 41
0.81
  7
CONVERTER_12
100
AcDbText
  0
MTEXT
  5
24C
330
71
100
AcDbEntity
  8
1
 62
     2
100
AcDbMText
 10
-113.9663272462121
 20
19.17603822369583
 30
0.0
 40
2.0
 41
0.0
 71
     5
 72
     1
  1
General Information\P- Simplified representation\P- Document excluded from change process\P- Linear dimensions [mm]
  7
CONVERTER_11
 73
     1
 44
1.20048019207683
  0
MTEXT
  5
24D
330
71
100
AcDbEntity
  8
1
 62
     7
100
AcDbMText
 10
52.51649200558447
 20
81.42603822369782
 30
0.0
 40
3.5
 41
0.0
 71
     5
 72
     1
  1
C
  7
CONVERTER_11
 73
     1
 44
1.20048019207683
  0
MTEXT
  5
24E
330
71
100
AcDbEntity
  8
1
 62
     7
100
AcDbMText
 10
52.51649200558447
 20
183.9260382236959
 30
0.0
 40
3.5
 41
0.0
 71
     5
 72
     1
  1
A
  7
CONVERTER_11
 73
     1
 44
1.20048019207683
  0
MTEXT
  5
24F
330
71
100
AcDbEntity
  8
1
 62
     7
100
AcDbMText
 10
52.51649200558447
 20
131.4260382236978
 30
0.0
 40
3.5
 41
0.0
 71
     5
 72
     1
  1
B
  7
CONVERTER_11
 73
     1
 44
1.20048019207683
  0
MTEXT
  5
250
330
71
100
AcDbEntity
  8
1
 62
     7
100
AcDbMText
 10
52.51649200558447
 20
28.92603822369591
 30
0.0
 40
3.5
 41
0.0
 71
     5
 72
     1
  1
D
  7
CONVERTER_11
 73
     1
 44
1.20048019207683
  0
MTEXT
  5
251
330
71
100
AcDbEntity
  8
1
 62
     7
100
AcDbMText
 10
-217.7335079944141
 20
3.9260382236958
 30
0.0
 40
3.5
 41
0.0
 71
     5
 72
     1
  1
1
  7
CONVERTER_11
 73
     1
 44
1.20048019207683
  0
MTEXT
  5
252
330
71
100
AcDbEntity
  8
1
 62
     7
100
AcDbMText
 10
-168.4835079944145
 20
3.9260382236958
 30
0.0
 40
3.5
 41
0.0
 71
     5
 72
     1
  1
2
  7
CONVERTER_11
 73
     1
 44
1.20048019207683
  0
MTEXT
  5
253
330
71
100
AcDbEntity
  8
1
 62
     7
100
AcDbMText
 10
-118.4835079944145
 20
3.9260382236958
 30
0.0
 40
3.5
 41
0.0
 71
     5
 72
     1
  1
3
  7
CONVERTER_11
 73
     1
 44
1.20048019207683
  0
MTEXT
  5
254
330
71
100
AcDbEntity
  8
1
 62
     7
100
AcDbMText
 10
-68.48350799441462
 20
3.9260382236958
 30
0.0
 40
3.5
 41
0.0
 71
     5
 72
     1
  1
4
  7
CONVERTER_11
 73
     1
 44
1.20048019207683
  0
MTEXT
  5
255
330
71
100
AcDbEntity
  8
1
 62
     7
100
AcDbMText
 10
-18.48350799441454
 20
3.9260382236958
 30
0.0
 40
3.5
 41
0.0
 71
     5
 72
     1
  1
5
  7
CONVERTER_11
 73
     1
 44
1.20048019207683
  0
MTEXT
  5
256
330
71
100
AcDbEntity
  8
1
 62
     7
100
AcDbMText
 10
30.76649200558467
 20
3.9260382236958
 30
0.0
 40
3.5
 41
0.0
 71
     5
 72
     1
  1
6
  7
CONVERTER_11
 73
     1
 44
1.20048019207683
  0
MTEXT
  5
257
330
71
100
AcDbEntity
  8
1
 62
     7
100
AcDbMText
 10
-239.4835079944136
 20
183.9260382236959
 30
0.0
 40
3.5
 41
0.0
 71
     5
 72
     1
  1
A
  7
CONVERTER_11
 73
     1
 44
1.20048019207683
  0
MTEXT
  5
258
330
71
100
AcDbEntity
  8
1
 62
     7
100
AcDbMText
 10
-239.4835079944136
 20
131.4260382236959
 30
0.0
 40
3.5
 41
0.0
 71
     5
 72
     1
  1
B
  7
CONVERTER_11
 73
     1
 44
1.20048019207683
  0
MTEXT
  5
259
330
71
100
AcDbEntity
  8
1
 62
     7
100
AcDbMText
 10
-239.4835079944136
 20
81.42603822369591
 30
0.0
 40
3.5
 41
0.0
 71
     5
 72
     1
  1
C
  7
CONVERTER_11
 73
     1
 44
1.20048019207683
  0
MTEXT
  5
25A
330
71
100
AcDbEntity
  8
1
 62
     7
100
AcDbMText
 10
-239.4835079944136
 20
28.92603822369591
 30
0.0
 40
3.5
 41
0.0
 71
     5
 72
     1
  1
D
  7
CONVERTER_11
 73
     1
 44
1.20048019207683
  0
MTEXT
  5
25B
330
71
100
AcDbEntity
  8
1
 62
     3
100
AcDbMText
 10
-53.32831252116463
 20
27.55103822369591
 30
0.0
 40
2.5
 41
0.0
 71
     5
 72
     1
  1
DIN A4
  7
CONVERTER_11
 73
     1
 44
1.20048019207683
  0
MTEXT
  5
25C
330
71
100
AcDbEntity
  8
1
 62
     2
100
AcDbMText
 10
-42.12831252116462
 20
13.92603822369591
 30
0.0
 40
1.8
 41
0.0
 71
     1
 72
     1
  1
description
  7
CONVERTER_11
 73
     1
 44
1.20048019207683
  0
MTEXT
  5
25D
330
71
100
AcDbEntity
  8
1
 62
     7
100
AcDbMText
 10
3.44408974221096
 20
9.67603822369614
 30
0.0
 40
3.0
 41
0.0
 71
     5
 72
     1
  1
PSBJ 3/44/6 GY
  7
CONVERTER_12
 73
     1
 44
1.20048019207683
  0
TEXT
  5
25E
330
71
100
AcDbEntity
  8
1
 62
     2
100
AcDbText
 10
-55.09300371135103
 20
7.6760382236958
 30
0.0
 40
1.8
  1
1
 41
0.9
  7
CONVERTER_11
100
AcDbText
  0
TEXT
  5
25F
330
71
100
AcDbEntity
  8
1
 62
     2
100
AcDbText
 10
-69.88204755082253
 20
7.6267895698939
 30
0.0
 40
1.8
  1
1
 41
0.9
  7
CONVERTER_11
100
AcDbText
  0
TEXT
  5
260
330
71
100
AcDbEntity
  8
1
 62
     2
100
AcDbText
 10
-78.52831252116454
 20
7.66702100870424
 30
0.0
 40
1.8
  1
page
 41
0.9
  7
CONVERTER_11
100
AcDbText
  0
TEXT
  5
261
330
71
100
AcDbEntity
  8
1
 62
     2
100
AcDbText
 10
-60.32831252116472
 20
7.6670210087043
 30
0.0
 40
1.8
  1
of
 41
0.9
  7
CONVERTER_11
100
AcDbText
  0
MTEXT
  5
262
330
71
100
AcDbEntity
  8
1
 62
     3
100
AcDbMText
 10
-54.12533036955463
 20
193.2173463789947
 30
0.0
 40
1.8
 41
0.0
 71
     7
 72
     1
  3
Transfer or duplication of this document as well as the utilisation or\Pcommunication of its content are not permitted unless express consent\Pis granted. Violations give rise to claims for damages. All rights reserved\Pin case of patent, utility mo
  1
del or design patent registrations.
  7
CONVERTER_11
 73
     1
 44
0.99639855942377
  0
MTEXT
  5
263
330
71
100
AcDbEntity
  8
1
 62
     3
100
AcDbMText
 10
-236.9784402083427
 20
193.2173463789947
 30
0.0
 40
1.8
 41
0.0
 71
     7
 72
     1
  3
Weitergabe sowie Vervielf\U+00e4ltigung dieses Dokuments, Verwertung und \PMitteilung seines Inhalts sind verboten, soweit nicht ausdr\U+00fccklich gestattet. \PZuwiderhandlungen verpflichten zu Schadenersatz. Alle Rechte f\U+00fcr den Fall\Pder Pat
  1
ent-, Gebrauchsmuster- oder Designeintragung vorbehalten.
  7
CONVERTER_11
 73
     1
 44
0.99639855942377
  0
HATCH
  5
264
330
71
100
AcDbEntity
  8
1
  6
Continuous
 62
     2
100
AcDbHatch
 10
0.0
 20
0.0
 30
0.0
210
0.0
220
0.0
230
1.0
  2
_USER
 70
     0
 71
     1
 91
        1
 92
        1
 93
       14
 72
     2
 10
-67.28708324524183
 20
15.24644298561751
 40
1.205656168390943
 50
164.9381082228765
 51
195.0618917770949
 73
     1
 72
     2
 10
-66.86795540177903
 20
15.35923334765232
 40
1.639695123939387
 50
195.0618917770895
 51
275.1581447696395
 73
     1
 72
     2
 10
-67.15681149651493
 20
18.55912393087391
 40
4.852596863498134
 50
275.1581447696249
 51
285.9799912583529
 73
     1
 72
     1
 10
-65.82088357939713
 20
13.8940416250731
 11
-65.82088357939713
 21
14.76655863187631
 72
     2
 10
-66.99893862142201
 20
16.6569093510262
 40
2.227384008972739
 50
58.0690910500407
 51
71.55192388186722
 73
     0
 72
     2
 10
-66.58077088776122
 20
15.40336357498902
 40
0.9059297849849257
 50
71.55192388184167
 51
113.3722778881288
 73
     0
 72
     2
 10
-66.73721092046324
 20
15.04137155627902
 40
0.5115800601948034
 50
113.3722778881725
 51
151.4785267423044
 73
     0
 72
     2
 10
-66.35985366238293
 20
15.24644298561751
 40
0.9410597353332545
 50
151.4785267422942
 51
208.5214732577331
 73
     0
 72
     2
 10
-66.73721092046324
 20
15.45151441495651
 40
0.5115800601948796
 50
208.5214732576956
 51
246.6277221118009
 73
     0
 72
     2
 10
-66.58077088776122
 20
15.08952239624591
 40
0.9059297849853228
 50
246.6277221118712
 51
288.4480761181465
 73
     0
 72
     2
 10
-66.99893862142201
 20
13.83597662020932
 40
2.227384008973482
 50
288.4480761181328
 51
301.9309089499592
 73
     0
 72
     1
 10
-65.82088357939713
 20
15.72632733935922
 11
-65.82088357939713
 21
16.59884434616251
 72
     2
 10
-67.15681149651493
 20
11.93376204036161
 40
4.852596863498075
 50
74.02000874164742
 51
84.84185523037506
 73
     1
 72
     2
 10
-66.86795540177903
 20
15.13365262358261
 40
1.639695123940507
 50
84.84185523036236
 51
164.9381082228865
 73
     1
 97
       14
330
239
330
152
330
208
330
238
330
209
330
20A
330
237
330
236
330
235
330
153
330
20B
330
20C
330
20D
330
20E
 75
     1
 76
     0
 52
45.0
 41
0.1
 77
     0
 78
     1
 53
45.0
 43
0.0
 44
0.0
 45
-0.0707106781186548
 46
0.0707106781186548
 79
     0
 98
        1
 10
0.0
 20
0.0
  0
HATCH
  5
265
330
71
100
AcDbEntity
  8
1
  6
Continuous
 62
     2
100
AcDbHatch
 10
0.0
 20
0.0
 30
0.0
210
0.0
220
0.0
230
1.0
  2
_USER
 70
     0
 71
     1
 91
        1
 92
        1
 93
       14
 72
     2
 10
-67.28708324524183
 20
15.24644298561751
 40
1.205656168390943
 50
164.9381082228765
 51
195.0618917770949
 73
     1
 72
     2
 10
-66.86795540177903
 20
15.35923334765232
 40
1.639695123939387
 50
195.0618917770895
 51
275.1581447696395
 73
     1
 72
     2
 10
-67.15681149651493
 20
18.55912393087391
 40
4.852596863498134
 50
275.1581447696249
 51
285.9799912583529
 73
     1
 72
     1
 10
-65.82088357939713
 20
13.8940416250731
 11
-65.82088357939713
 21
14.76655863187631
 72
     2
 10
-66.99893862142201
 20
16.6569093510262
 40
2.227384008972739
 50
58.0690910500407
 51
71.55192388186722
 73
     0
 72
     2
 10
-66.58077088776122
 20
15.40336357498902
 40
0.9059297849849257
 50
71.55192388184167
 51
113.3722778881288
 73
     0
 72
     2
 10
-66.73721092046324
 20
15.04137155627902
 40
0.5115800601948034
 50
113.3722778881725
 51
151.4785267423044
 73
     0
 72
     2
 10
-66.35985366238293
 20
15.24644298561751
 40
0.9410597353332545
 50
151.4785267422942
 51
208.5214732577331
 73
     0
 72
     2
 10
-66.73721092046324
 20
15.45151441495651
 40
0.5115800601948796
 50
208.5214732576956
 51
246.6277221118009
 73
     0
 72
     2
 10
-66.58077088776122
 20
15.08952239624591
 40
0.9059297849853228
 50
246.6277221118712
 51
288.4480761181465
 73
     0
 72
     2
 10
-66.99893862142201
 20
13.83597662020932
 40
2.227384008973482
 50
288.4480761181328
 51
301.9309089499592
 73
     0
 72
     1
 10
-65.82088357939713
 20
15.72632733935922
 11
-65.82088357939713
 21
16.59884434616251
 72
     2
 10
-67.15681149651493
 20
11.93376204036161
 40
4.852596863498075
 50
74.02000874164742
 51
84.84185523037506
 73
     1
 72
     2
 10
-66.86795540177903
 20
15.13365262358261
 40
1.639695123940507
 50
84.84185523036236
 51
164.9381082228865
 73
     1
 97
       14
330
239
330
152
330
208
330
238
330
209
330
20A
330
237
330
236
330
235
330
153
330
20B
330
20C
330
20D
330
20E
 75
     1
 76
     0
 52
45.0
 41
0.1
 77
     0
 78
     1
 53
45.0
 43
0.0
 44
0.0
 45
-0.0707106781186548
 46
0.0707106781186548
 79
     0
 98
        1
 10
0.0
 20
0.0
  0
HATCH
  5
266
330
71
100
AcDbEntity
  8
1
  6
Continuous
 62
     2
100
AcDbHatch
 10
0.0
 20
0.0
 30
0.0
210
0.0
220
0.0
230
1.0
  2
_USER
 70
     0
 71
     1
 91
        1
 92
        1
 93
       18
 72
     2
 10
-50.76525392252611
 20
15.13365262358261
 40
1.639695123940211
 50
90.0
 51
164.9381082228951
 73
     1
 72
     2
 10
-51.18438176598772
 20
15.24644298561751
 40
1.205656168393002
 50
164.9381082229029
 51
195.0618917770962
 73
     1
 72
     2
 10
-50.76525392252611
 20
15.35923334765232
 40
1.639695123940456
 50
195.0618917771012
 51
275.158144769676
 73
     1
 72
     2
 10
-51.05411001726193
 20
18.55912393087391
 40
4.852596863498824
 50
275.1581447696362
 51
285.9799912583387
 73
     1
 72
     1
 10
-49.71818210014521
 20
13.8940416250725
 11
-49.71818210014521
 21
14.76655863187582
 72
     2
 10
-50.89623714216913
 20
16.6569093510256
 40
2.227384008972744
 50
58.06909105006009
 51
71.55192388186671
 73
     0
 72
     2
 10
-50.47806940850722
 20
15.40336357498902
 40
0.9059297849852894
 50
71.5519238819193
 51
113.372277888182
 73
     0
 72
     2
 10
-50.63450944121033
 20
15.04137155627902
 40
0.5115800601960208
 50
113.3722778881549
 51
151.4785267423136
 73
     0
 72
     2
 10
-50.25715218312894
 20
15.24644298561751
 40
0.9410597353348915
 50
151.4785267423305
 51
208.5214732576375
 73
     0
 72
     2
 10
-50.63450944121033
 20
15.45151441495651
 40
0.5115800601944093
 50
208.5214732575774
 51
250.6628567805145
 73
     0
 72
     2
 10
-50.48783944310662
 20
15.03355943457362
 40
0.9545230068260899
 50
250.6628567805679
 51
270.0
 73
     0
 72
     1
 10
-50.48783944310662
 20
15.98808244139971
 11
-49.38420014353852
 21
15.98808244139971
 72
     1
 10
-49.38420014353852
 20
15.98808244139971
 11
-49.38420014353852
 21
13.71953822371222
 72
     1
 10
-49.38420014353852
 20
13.71953822371222
 11
-48.19140744137081
 21
13.71953822371222
 72
     1
 10
-48.19140744137081
 20
13.71953822371222
 11
-48.19140744137081
 21
15.98808244139971
 72
     1
 10
-48.19140744137081
 20
15.98808244139971
 11
-47.38030840389743
 21
15.98808244139971
 72
     1
 10
-47.38030840389743
 20
15.98808244139971
 11
-47.38030840389743
 21
16.7733477475233
 72
     1
 10
-47.38030840389743
 20
16.7733477475233
 11
-50.76525392252611
 21
16.77334774752282
 97
       18
330
1B8
330
1B7
330
1B6
330
1B5
330
1BA
330
154
330
232
330
213
330
231
330
214
330
230
330
22F
330
155
330
22E
330
22D
330
215
330
216
330
1B9
 75
     1
 76
     0
 52
45.0
 41
0.1
 77
     0
 78
     1
 53
45.0
 43
0.0
 44
0.0
 45
-0.0707106781186548
 46
0.0707106781186548
 79
     0
 98
        1
 10
0.0
 20
0.0
  0
HATCH
  5
267
330
71
100
AcDbEntity
  8
1
  6
Continuous
 62
     2
100
AcDbHatch
 10
0.0
 20
0.0
 30
0.0
210
0.0
220
0.0
230
1.0
  2
_USER
 70
     0
 71
     1
 91
        1
 92
        1
 93
       18
 72
     2
 10
-50.76525392252611
 20
15.13365262358261
 40
1.639695123940211
 50
90.0
 51
164.9381082228951
 73
     1
 72
     2
 10
-51.18438176598772
 20
15.24644298561751
 40
1.205656168393002
 50
164.9381082229029
 51
195.0618917770962
 73
     1
 72
     2
 10
-50.76525392252611
 20
15.35923334765232
 40
1.639695123940456
 50
195.0618917771012
 51
275.158144769676
 73
     1
 72
     2
 10
-51.05411001726193
 20
18.55912393087391
 40
4.852596863498824
 50
275.1581447696362
 51
285.9799912583387
 73
     1
 72
     1
 10
-49.71818210014521
 20
13.8940416250725
 11
-49.71818210014521
 21
14.76655863187582
 72
     2
 10
-50.89623714216913
 20
16.6569093510256
 40
2.227384008972744
 50
58.06909105006009
 51
71.55192388186671
 73
     0
 72
     2
 10
-50.47806940850722
 20
15.40336357498902
 40
0.9059297849852894
 50
71.5519238819193
 51
113.372277888182
 73
     0
 72
     2
 10
-50.63450944121033
 20
15.04137155627902
 40
0.5115800601960208
 50
113.3722778881549
 51
151.4785267423136
 73
     0
 72
     2
 10
-50.25715218312894
 20
15.24644298561751
 40
0.9410597353348915
 50
151.4785267423305
 51
208.5214732576375
 73
     0
 72
     2
 10
-50.63450944121033
 20
15.45151441495651
 40
0.5115800601944093
 50
208.5214732575774
 51
250.6628567805145
 73
     0
 72
     2
 10
-50.48783944310662
 20
15.03355943457362
 40
0.9545230068260899
 50
250.6628567805679
 51
270.0
 73
     0
 72
     1
 10
-50.48783944310662
 20
15.98808244139971
 11
-49.38420014353852
 21
15.98808244139971
 72
     1
 10
-49.38420014353852
 20
15.98808244139971
 11
-49.38420014353852
 21
13.71953822371222
 72
     1
 10
-49.38420014353852
 20
13.71953822371222
 11
-48.19140744137081
 21
13.71953822371222
 72
     1
 10
-48.19140744137081
 20
13.71953822371222
 11
-48.19140744137081
 21
15.98808244139971
 72
     1
 10
-48.19140744137081
 20
15.98808244139971
 11
-47.38030840389743
 21
15.98808244139971
 72
     1
 10
-47.38030840389743
 20
15.98808244139971
 11
-47.38030840389743
 21
16.7733477475233
 72
     1
 10
-47.38030840389743
 20
16.7733477475233
 11
-50.76525392252611
 21
16.77334774752282
 97
       18
330
1B8
330
1B7
330
1B6
330
1B5
330
1BA
330
154
330
232
330
213
330
231
330
214
330
230
330
22F
330
155
330
22E
330
22D
330
215
330
216
330
1B9
 75
     1
 76
     0
 52
45.0
 41
0.1
 77
     0
 78
     1
 53
45.0
 43
0.0
 44
0.0
 45
-0.0707106781186548
 46
0.0707106781186548
 79
     0
 98
        1
 10
0.0
 20
0.0
  0
HATCH
  5
268
330
71
100
AcDbEntity
  8
1
  6
Continuous
 62
     2
100
AcDbHatch
 10
0.0
 20
0.0
 30
0.0
210
0.0
220
0.0
230
1.0
  2
_USER
 70
     0
 71
     1
 91
        4
 92
        1
 93
        8
 72
     2
 10
-74.86741301921913
 20
19.70829360829572
 40
0.4242446153838024
 50
90.0
 51
180.0
 73
     1
 72
     1
 10
-75.29165763460193
 20
19.70829360829572
 11
-75.29165763460193
 21
14.14378283909551
 72
     2
 10
-74.86741301921913
 20
14.14378283909551
 40
0.4242446153828041
 50
180.0
 51
270.0
 73
     1
 72
     1
 10
-74.86741301921913
 20
13.71953822371222
 11
-69.39410092850233
 21
13.71953822371222
 72
     2
 10
-69.39410092850233
 20
14.14378283909551
 40
0.4242446153832891
 50
270.0
 51
360.0
 73
     1
 72
     1
 10
-68.96985631311844
 20
14.14378283909551
 11
-68.96985631311844
 21
19.70829360829572
 72
     2
 10
-69.39410092850233
 20
19.70829360829572
 40
0.4242446153838841
 50
0.0
 51
90.0
 73
     1
 72
     1
 10
-69.39410092850233
 20
20.13253822367952
 11
-74.86741301921913
 21
20.13253822367952
 97
        8
330
226
330
183
330
225
330
184
330
21C
330
181
330
227
330
182
 92
       16
 93
        1
 72
     2
 10
-72.24782736870162
 20
17.38941137994021
 40
0.4709789327785074
 50
0.0
 51
360.0
 73
     1
 97
        1
330
23A
 92
       16
 93
        8
 72
     2
 10
-72.22401235402882
 20
17.38941137994021
 40
0.911848150144459
 50
295.3740086781764
 51
424.6259913218075
 73
     1
 72
     2
 10
-71.69796965594094
 20
18.49855297990803
 40
0.315716923076792
 50
115.3740086783516
 51
180.0
 73
     0
 72
     1
 10
-72.01368657901773
 20
18.49855297990803
 11
-72.01368657901773
 21
19.10408826841481
 72
     2
 10
-71.69796965594094
 20
19.10408826841481
 40
0.3157169230760746
 50
180.0
 51
269.8110329574541
 73
     0
 72
     2
 10
-71.69235352063092
 20
17.40125332084571
 40
2.018561131933267
 50
269.8110329575858
 51
450.1889670424142
 73
     0
 72
     2
 10
-71.69796965594094
 20
15.69841837327672
 40
0.315716923076792
 50
90.18896704254585
 51
180.0
 73
     0
 72
     1
 10
-72.01368657901773
 20
15.69841837327672
 11
-72.01368657901773
 21
16.2802697799718
 72
     2
 10
-71.69796965594094
 20
16.2802697799718
 40
0.3157169230765328
 50
180.0
 51
244.6259913216482
 73
     0
 97
        8
330
234
330
210
330
1BC
330
233
330
211
330
212
330
1BB
330
20F
 92
       16
 93
       12
 72
     1
 10
-74.27351834247264
 20
14.43209377926911
 11
-72.79768508146302
 21
14.43209377926911
 72
     2
 10
-72.79768508146302
 20
14.74781070234582
 40
0.3157169230767103
 50
270.0
 51
360.0
 73
     1
 72
     1
 10
-72.48196815838642
 20
14.74781070234582
 11
-72.48196815838642
 21
16.27858163387742
 72
     2
 10
-72.79768508146302
 20
16.27858163387742
 40
0.315716923076593
 50
0.0
 51
64.80558935146027
 73
     1
 72
     2
 10
-72.27510063388803
 20
17.38941137994021
 40
0.911897523557621
 50
115.1944106485122
 51
244.805589351472
 73
     0
 72
     2
 10
-72.79768508146302
 20
18.50024112600241
 40
0.3157169230761203
 50
295.1944106485397
 51
360.0
 73
     1
 72
     1
 10
-72.48196815838642
 20
18.50024112600241
 11
-72.48196815838642
 21
19.10426574506292
 72
     2
 10
-72.79768508146302
 20
19.10426574506292
 40
0.315716923076593
 50
0.0
 51
90.0
 73
     1
 72
     1
 10
-72.79768508146302
 20
19.41998266813911
 11
-74.27351834247264
 21
19.41998266813911
 72
     2
 10
-74.27351834247264
 20
19.10426574506292
 40
0.315716923076188
 50
90.0
 51
180.0
 73
     1
 72
     1
 10
-74.58923526554833
 20
19.10426574506292
 11
-74.58923526554833
 21
14.74781070234582
 72
     2
 10
-74.27351834247264
 20
14.74781070234582
 40
0.3157169230756836
 50
180.0
 51
270.0
 73
     1
 97
       12
330
188
330
219
330
187
330
22A
330
186
330
229
330
21A
330
21B
330
185
330
228
330
180
330
22B
 75
     1
 76
     0
 52
45.0
 41
0.1
 77
     0
 78
     1
 53
45.0
 43
0.0
 44
0.0
 45
-0.0707106781186548
 46
0.0707106781186548
 79
     0
 98
        1
 10
0.0
 20
0.0
  0
HATCH
  5
269
330
71
100
AcDbEntity
  8
1
  6
Continuous
 62
     2
100
AcDbHatch
 10
0.0
 20
0.0
 30
0.0
210
0.0
220
0.0
230
1.0
  2
_USER
 70
     0
 71
     1
 91
        4
 92
        1
 93
        8
 72
     2
 10
-74.86741301921913
 20
19.70829360829572
 40
0.4242446153838024
 50
90.0
 51
180.0
 73
     1
 72
     1
 10
-75.29165763460193
 20
19.70829360829572
 11
-75.29165763460193
 21
14.14378283909551
 72
     2
 10
-74.86741301921913
 20
14.14378283909551
 40
0.4242446153828041
 50
180.0
 51
270.0
 73
     1
 72
     1
 10
-74.86741301921913
 20
13.71953822371222
 11
-69.39410092850233
 21
13.71953822371222
 72
     2
 10
-69.39410092850233
 20
14.14378283909551
 40
0.4242446153832891
 50
270.0
 51
360.0
 73
     1
 72
     1
 10
-68.96985631311844
 20
14.14378283909551
 11
-68.96985631311844
 21
19.70829360829572
 72
     2
 10
-69.39410092850233
 20
19.70829360829572
 40
0.4242446153838841
 50
0.0
 51
90.0
 73
     1
 72
     1
 10
-69.39410092850233
 20
20.13253822367952
 11
-74.86741301921913
 21
20.13253822367952
 97
        8
330
226
330
183
330
225
330
184
330
21C
330
181
330
227
330
182
 92
       16
 93
        1
 72
     2
 10
-72.24782736870162
 20
17.38941137994021
 40
0.4709789327785074
 50
0.0
 51
360.0
 73
     1
 97
        1
330
23A
 92
       16
 93
        8
 72
     2
 10
-72.22401235402882
 20
17.38941137994021
 40
0.911848150144459
 50
295.3740086781764
 51
424.6259913218075
 73
     1
 72
     2
 10
-71.69796965594094
 20
18.49855297990803
 40
0.315716923076792
 50
115.3740086783516
 51
180.0
 73
     0
 72
     1
 10
-72.01368657901773
 20
18.49855297990803
 11
-72.01368657901773
 21
19.10408826841481
 72
     2
 10
-71.69796965594094
 20
19.10408826841481
 40
0.3157169230760746
 50
180.0
 51
269.8110329574541
 73
     0
 72
     2
 10
-71.69235352063092
 20
17.40125332084571
 40
2.018561131933267
 50
269.8110329575858
 51
450.1889670424142
 73
     0
 72
     2
 10
-71.69796965594094
 20
15.69841837327672
 40
0.315716923076792
 50
90.18896704254585
 51
180.0
 73
     0
 72
     1
 10
-72.01368657901773
 20
15.69841837327672
 11
-72.01368657901773
 21
16.2802697799718
 72
     2
 10
-71.69796965594094
 20
16.2802697799718
 40
0.3157169230765328
 50
180.0
 51
244.6259913216482
 73
     0
 97
        8
330
234
330
210
330
1BC
330
233
330
211
330
212
330
1BB
330
20F
 92
       16
 93
       12
 72
     1
 10
-74.27351834247264
 20
14.43209377926911
 11
-72.79768508146302
 21
14.43209377926911
 72
     2
 10
-72.79768508146302
 20
14.74781070234582
 40
0.3157169230767103
 50
270.0
 51
360.0
 73
     1
 72
     1
 10
-72.48196815838642
 20
14.74781070234582
 11
-72.48196815838642
 21
16.27858163387742
 72
     2
 10
-72.79768508146302
 20
16.27858163387742
 40
0.315716923076593
 50
0.0
 51
64.80558935146027
 73
     1
 72
     2
 10
-72.27510063388803
 20
17.38941137994021
 40
0.911897523557621
 50
115.1944106485122
 51
244.805589351472
 73
     0
 72
     2
 10
-72.79768508146302
 20
18.50024112600241
 40
0.3157169230761203
 50
295.1944106485397
 51
360.0
 73
     1
 72
     1
 10
-72.48196815838642
 20
18.50024112600241
 11
-72.48196815838642
 21
19.10426574506292
 72
     2
 10
-72.79768508146302
 20
19.10426574506292
 40
0.315716923076593
 50
0.0
 51
90.0
 73
     1
 72
     1
 10
-72.79768508146302
 20
19.41998266813911
 11
-74.27351834247264
 21
19.41998266813911
 72
     2
 10
-74.27351834247264
 20
19.10426574506292
 40
0.315716923076188
 50
90.0
 51
180.0
 73
     1
 72
     1
 10
-74.58923526554833
 20
19.10426574506292
 11
-74.58923526554833
 21
14.74781070234582
 72
     2
 10
-74.27351834247264
 20
14.74781070234582
 40
0.3157169230756836
 50
180.0
 51
270.0
 73
     1
 97
       12
330
188
330
219
330
187
330
22A
330
186
330
229
330
21A
330
21B
330
185
330
228
330
180
330
22B
 75
     1
 76
     0
 52
45.0
 41
0.1
 77
     0
 78
     1
 53
45.0
 43
0.0
 44
0.0
 45
-0.0707106781186548
 46
0.0707106781186548
 79
     0
 98
        1
 10
0.0
 20
0.0
  0
HATCH
  5
26A
330
71
100
AcDbEntity
  8
1
  6
Continuous
 62
     2
100
AcDbHatch
 10
0.0
 20
0.0
 30
0.0
210
0.0
220
0.0
230
1.0
  2
_USER
 70
     0
 71
     1
 91
        2
 92
        1
 93
       12
 72
     2
 10
-60.19224901522983
 20
18.60563346179183
 40
1.526904761905882
 50
90.0
 51
270.0
 73
     1
 72
     1
 10
-60.19224901522983
 20
17.07872869988651
 11
-57.04192929144884
 21
17.07872869988651
 72
     1
 10
-57.04192929144884
 20
17.07872869988651
 11
-57.04192929144884
 21
17.77674230532901
 72
     1
 10
-57.04192929144884
 20
17.77674230532901
 11
-58.37785711787652
 21
17.77674230532901
 72
     1
 10
-58.37785711787652
 20
17.77674230532901
 11
-58.37785711787652
 21
18.25662665907072
 72
     1
 10
-58.37785711787652
 20
18.25662665907072
 11
-57.04192929144884
 21
18.25662665907072
 72
     1
 10
-57.04192929144884
 20
18.25662665907072
 11
-57.04192929144884
 21
18.95464026451302
 72
     1
 10
-57.04192929144884
 20
18.95464026451302
 11
-58.37785711787652
 21
18.95464026451302
 72
     1
 10
-58.37785711787652
 20
18.95464026451302
 11
-58.37785711787652
 21
19.43452461825473
 72
     1
 10
-58.37785711787652
 20
19.43452461825473
 11
-57.04192929144884
 21
19.43452461825473
 72
     1
 10
-57.04192929144884
 20
19.43452461825473
 11
-57.04192929144884
 21
20.13253822369771
 72
     1
 10
-57.04192929144884
 20
20.13253822369771
 11
-60.19224901522983
 21
20.13253822369771
 97
       12
330
177
330
171
330
198
330
197
330
196
330
195
330
172
330
173
330
174
330
175
330
217
330
176
 92
       16
 93
        4
 72
     2
 10
-59.77623696871834
 20
18.60563346179183
 40
0.7717997786796724
 50
141.8795802028404
 51
218.1204197971566
 73
     1
 72
     2
 10
-59.97597700506464
 20
18.4489022836714
 40
0.5179085730134337
 50
218.1204197971519
 51
321.8795802028569
 73
     1
 72
     2
 10
-60.17571704141082
 20
18.60563346179183
 40
0.7717997786796417
 50
321.8795802028433
 51
398.1204197971596
 73
     1
 72
     2
 10
-59.97597700506464
 20
18.76236463991231
 40
0.5179085730135321
 50
38.12041979714286
 51
141.8795802028484
 73
     1
 97
        4
330
224
330
223
330
21E
330
21D
 75
     1
 76
     0
 52
45.0
 41
0.1
 77
     0
 78
     1
 53
45.0
 43
0.0
 44
0.0
 45
-0.0707106781186548
 46
0.0707106781186548
 79
     0
 98
        1
 10
0.0
 20
0.0
  0
HATCH
  5
26B
330
71
100
AcDbEntity
  8
1
  6
Continuous
 62
     2
100
AcDbHatch
 10
0.0
 20
0.0
 30
0.0
210
0.0
220
0.0
230
1.0
  2
_USER
 70
     0
 71
     1
 91
        2
 92
        1
 93
       12
 72
     2
 10
-60.19224901522983
 20
18.60563346179183
 40
1.526904761905882
 50
90.0
 51
270.0
 73
     1
 72
     1
 10
-60.19224901522983
 20
17.07872869988651
 11
-57.04192929144884
 21
17.07872869988651
 72
     1
 10
-57.04192929144884
 20
17.07872869988651
 11
-57.04192929144884
 21
17.77674230532901
 72
     1
 10
-57.04192929144884
 20
17.77674230532901
 11
-58.37785711787652
 21
17.77674230532901
 72
     1
 10
-58.37785711787652
 20
17.77674230532901
 11
-58.37785711787652
 21
18.25662665907072
 72
     1
 10
-58.37785711787652
 20
18.25662665907072
 11
-57.04192929144884
 21
18.25662665907072
 72
     1
 10
-57.04192929144884
 20
18.25662665907072
 11
-57.04192929144884
 21
18.95464026451302
 72
     1
 10
-57.04192929144884
 20
18.95464026451302
 11
-58.37785711787652
 21
18.95464026451302
 72
     1
 10
-58.37785711787652
 20
18.95464026451302
 11
-58.37785711787652
 21
19.43452461825473
 72
     1
 10
-58.37785711787652
 20
19.43452461825473
 11
-57.04192929144884
 21
19.43452461825473
 72
     1
 10
-57.04192929144884
 20
19.43452461825473
 11
-57.04192929144884
 21
20.13253822369771
 72
     1
 10
-57.04192929144884
 20
20.13253822369771
 11
-60.19224901522983
 21
20.13253822369771
 97
       12
330
177
330
171
330
198
330
197
330
196
330
195
330
172
330
173
330
174
330
175
330
217
330
176
 92
       16
 93
        4
 72
     2
 10
-59.77623696871834
 20
18.60563346179183
 40
0.7717997786796724
 50
141.8795802028404
 51
218.1204197971566
 73
     1
 72
     2
 10
-59.97597700506464
 20
18.4489022836714
 40
0.5179085730134337
 50
218.1204197971519
 51
321.8795802028569
 73
     1
 72
     2
 10
-60.17571704141082
 20
18.60563346179183
 40
0.7717997786796417
 50
321.8795802028433
 51
398.1204197971596
 73
     1
 72
     2
 10
-59.97597700506464
 20
18.76236463991231
 40
0.5179085730135321
 50
38.12041979714286
 51
141.8795802028484
 73
     1
 97
        4
330
224
330
223
330
21E
330
21D
 75
     1
 76
     0
 52
45.0
 41
0.1
 77
     0
 78
     1
 53
45.0
 43
0.0
 44
0.0
 45
-0.0707106781186548
 46
0.0707106781186548
 79
     0
 98
        1
 10
0.0
 20
0.0
  0
HATCH
  5
26C
330
71
100
AcDbEntity
  8
1
  6
Continuous
 62
     2
100
AcDbHatch
 10
0.0
 20
0.0
 30
0.0
210
0.0
220
0.0
230
1.0
  2
_USER
 70
     0
 71
     1
 91
        2
 92
        1
 93
        4
 72
     2
 10
-64.21786437769143
 20
15.24644298561751
 40
1.45803408365149
 50
117.5481481756624
 51
242.4518518243375
 73
     1
 72
     2
 10
-63.93692448585813
 20
15.78501799592081
 40
2.065479772208505
 50
242.4518518243401
 51
297.5481481756871
 73
     1
 72
     2
 10
-63.65598459402483
 20
15.24644298561751
 40
1.458034083652003
 50
297.548148175701
 51
422.451851824299
 73
     1
 72
     2
 10
-63.93692448585813
 20
14.70786797531471
 40
2.065479772208574
 50
62.45185182430646
 51
117.5481481756663
 73
     1
 97
        4
330
222
330
21F
330
221
330
220
 92
       16
 93
        4
 72
     2
 10
-63.93692448585813
 20
15.40317416373802
 40
0.5179085730132965
 50
38.12041979714657
 51
141.8795802028592
 73
     1
 72
     2
 10
-63.73718444951203
 20
15.24644298561751
 40
0.771799778679461
 50
141.8795802028365
 51
218.1204197971687
 73
     1
 72
     2
 10
-63.93692448585813
 20
15.08971180749751
 40
0.5179085730137343
 50
218.120419797193
 51
321.8795802028012
 73
     1
 72
     2
 10
-64.13666452220454
 20
15.24644298561751
 40
0.7717997786796947
 50
321.8795802028417
 51
398.120419797153
 73
     1
 97
        4
330
205
330
206
330
207
330
204
 75
     1
 76
     0
 52
45.0
 41
0.1
 77
     0
 78
     1
 53
45.0
 43
0.0
 44
0.0
 45
-0.0707106781186548
 46
0.0707106781186548
 79
     0
 98
        1
 10
0.0
 20
0.0
  0
HATCH
  5
26D
330
71
100
AcDbEntity
  8
1
  6
Continuous
 62
     2
100
AcDbHatch
 10
0.0
 20
0.0
 30
0.0
210
0.0
220
0.0
230
1.0
  2
_USER
 70
     0
 71
     1
 91
        2
 92
        1
 93
        4
 72
     2
 10
-64.21786437769143
 20
15.24644298561751
 40
1.45803408365149
 50
117.5481481756624
 51
242.4518518243375
 73
     1
 72
     2
 10
-63.93692448585813
 20
15.78501799592081
 40
2.065479772208505
 50
242.4518518243401
 51
297.5481481756871
 73
     1
 72
     2
 10
-63.65598459402483
 20
15.24644298561751
 40
1.458034083652003
 50
297.548148175701
 51
422.451851824299
 73
     1
 72
     2
 10
-63.93692448585813
 20
14.70786797531471
 40
2.065479772208574
 50
62.45185182430646
 51
117.5481481756663
 73
     1
 97
        4
330
222
330
21F
330
221
330
220
 92
       16
 93
        4
 72
     2
 10
-63.93692448585813
 20
15.40317416373802
 40
0.5179085730132965
 50
38.12041979714657
 51
141.8795802028592
 73
     1
 72
     2
 10
-63.73718444951203
 20
15.24644298561751
 40
0.771799778679461
 50
141.8795802028365
 51
218.1204197971687
 73
     1
 72
     2
 10
-63.93692448585813
 20
15.08971180749751
 40
0.5179085730137343
 50
218.120419797193
 51
321.8795802028012
 73
     1
 72
     2
 10
-64.13666452220454
 20
15.24644298561751
 40
0.7717997786796947
 50
321.8795802028417
 51
398.120419797153
 73
     1
 97
        4
330
205
330
206
330
207
330
204
 75
     1
 76
     0
 52
45.0
 41
0.1
 77
     0
 78
     1
 53
45.0
 43
0.0
 44
0.0
 45
-0.0707106781186548
 46
0.0707106781186548
 79
     0
 98
        1
 10
0.0
 20
0.0
  0
HATCH
  5
26E
330
71
100
AcDbEntity
  8
1
  6
Continuous
 62
     2
100
AcDbHatch
 10
0.0
 20
0.0
 30
0.0
210
0.0
220
0.0
230
1.0
  2
_USER
 70
     0
 71
     1
 91
        2
 92
        1
 93
        6
 72
     1
 10
-68.49273923225164
 20
20.13253822369771
 11
-68.49273923225164
 21
17.07872869988651
 72
     1
 10
-68.49273923225164
 20
17.07872869988651
 11
-67.25223482199752
 21
17.07872869988651
 72
     1
 10
-67.25223482199752
 20
17.07872869988651
 11
-67.25223482199752
 21
18.02180694103032
 72
     1
 10
-67.25223482199752
 20
18.02180694103032
 11
-66.49346723421723
 21
18.02180694103032
 72
     2
 10
-66.49346723421723
 20
19.07717258236403
 40
1.055365641333712
 50
270.0
 51
450.0
 73
     1
 72
     1
 10
-66.49346723421723
 20
20.13253822369771
 11
-68.49273923225164
 21
20.13253822369771
 97
        6
330
22C
330
189
330
17F
330
17E
330
18B
330
18A
 92
       16
 93
        4
 72
     1
 10
-66.93493976045562
 20
19.46943237825761
 11
-67.25223482199752
 21
19.46943237825761
 72
     1
 10
-67.25223482199752
 20
19.46943237825761
 11
-67.25223482199752
 21
18.7637047289154
 72
     1
 10
-67.25223482199752
 20
18.7637047289154
 11
-66.93493976045562
 21
18.7637047289154
 72
     2
 10
-66.93493976045562
 20
19.11656855358652
 40
0.3528638246711218
 50
270.0
 51
450.0
 73
     1
 97
        4
330
18C
330
17D
330
18D
330
218
 75
     1
 76
     0
 52
45.0
 41
0.1
 77
     0
 78
     1
 53
45.0
 43
0.0
 44
0.0
 45
-0.0707106781186548
 46
0.0707106781186548
 79
     0
 98
        1
 10
0.0
 20
0.0
  0
HATCH
  5
26F
330
71
100
AcDbEntity
  8
1
  6
Continuous
 62
     2
100
AcDbHatch
 10
0.0
 20
0.0
 30
0.0
210
0.0
220
0.0
230
1.0
  2
_USER
 70
     0
 71
     1
 91
        2
 92
        1
 93
        6
 72
     1
 10
-68.49273923225164
 20
20.13253822369771
 11
-68.49273923225164
 21
17.07872869988651
 72
     1
 10
-68.49273923225164
 20
17.07872869988651
 11
-67.25223482199752
 21
17.07872869988651
 72
     1
 10
-67.25223482199752
 20
17.07872869988651
 11
-67.25223482199752
 21
18.02180694103032
 72
     1
 10
-67.25223482199752
 20
18.02180694103032
 11
-66.49346723421723
 21
18.02180694103032
 72
     2
 10
-66.49346723421723
 20
19.07717258236403
 40
1.055365641333712
 50
270.0
 51
450.0
 73
     1
 72
     1
 10
-66.49346723421723
 20
20.13253822369771
 11
-68.49273923225164
 21
20.13253822369771
 97
        6
330
22C
330
189
330
17F
330
17E
330
18B
330
18A
 92
       16
 93
        4
 72
     1
 10
-66.93493976045562
 20
19.46943237825761
 11
-67.25223482199752
 21
19.46943237825761
 72
     1
 10
-67.25223482199752
 20
19.46943237825761
 11
-67.25223482199752
 21
18.7637047289154
 72
     1
 10
-67.25223482199752
 20
18.7637047289154
 11
-66.93493976045562
 21
18.7637047289154
 72
     2
 10
-66.93493976045562
 20
19.11656855358652
 40
0.3528638246711218
 50
270.0
 51
450.0
 73
     1
 97
        4
330
18C
330
17D
330
18D
330
218
 75
     1
 76
     0
 52
45.0
 41
0.1
 77
     0
 78
     1
 53
45.0
 43
0.0
 44
0.0
 45
-0.0707106781186548
 46
0.0707106781186548
 79
     0
 98
        1
 10
0.0
 20
0.0
  0
HATCH
  5
270
330
71
100
AcDbEntity
  8
1
  6
Continuous
 62
     2
100
AcDbHatch
 10
0.0
 20
0.0
 30
0.0
210
0.0
220
0.0
230
1.0
  2
_USER
 70
     0
 71
     1
 91
        1
 92
        1
 93
       12
 72
     1
 10
-48.87845603781844
 20
20.13253822369771
 11
-47.47573182007122
 21
20.13253822369771
 72
     1
 10
-47.47573182007122
 20
20.13253822369771
 11
-48.77826145083773
 21
18.65958769366151
 72
     1
 10
-48.77826145083773
 20
18.65958769366151
 11
-47.38030840389743
 21
17.07872869988651
 72
     1
 10
-47.38030840389743
 20
17.07872869988651
 11
-48.78303262164573
 21
17.07872869988651
 72
     1
 10
-48.78303262164573
 20
17.07872869988651
 11
-49.47962355971123
 21
17.86646048518023
 72
     1
 10
-49.47962355971123
 20
17.86646048518023
 11
-50.17621449777693
 21
17.07872869988651
 72
     1
 10
-50.17621449777693
 20
17.07872869988651
 11
-51.57893871552514
 21
17.07872869988651
 72
     1
 10
-51.57893871552514
 20
17.07872869988651
 11
-50.18098566858484
 21
18.65958769366151
 72
     1
 10
-50.18098566858484
 20
18.65958769366151
 11
-51.48351529935232
 21
20.13253822369771
 72
     1
 10
-51.48351529935232
 20
20.13253822369771
 11
-50.08079108160302
 21
20.13253822369771
 72
     1
 10
-50.08079108160302
 20
20.13253822369771
 11
-49.47962355971123
 21
19.45271490214222
 72
     1
 10
-49.47962355971123
 20
19.45271490214222
 11
-48.87845603781844
 21
20.13253822369771
 97
       12
330
158
330
1B1
330
1B0
330
1AF
330
1AE
330
159
330
15A
330
156
330
157
330
1B4
330
1B3
330
1B2
 75
     1
 76
     0
 52
45.0
 41
0.1
 77
     0
 78
     1
 53
45.0
 43
0.0
 44
0.0
 45
-0.0707106781186548
 46
0.0707106781186548
 79
     0
 98
        1
 10
0.0
 20
0.0
  0
HATCH
  5
271
330
71
100
AcDbEntity
  8
1
  6
Continuous
 62
     2
100
AcDbHatch
 10
0.0
 20
0.0
 30
0.0
210
0.0
220
0.0
230
1.0
  2
_USER
 70
     0
 71
     1
 91
        1
 92
        1
 93
       12
 72
     1
 10
-48.87845603781844
 20
20.13253822369771
 11
-47.47573182007122
 21
20.13253822369771
 72
     1
 10
-47.47573182007122
 20
20.13253822369771
 11
-48.77826145083773
 21
18.65958769366151
 72
     1
 10
-48.77826145083773
 20
18.65958769366151
 11
-47.38030840389743
 21
17.07872869988651
 72
     1
 10
-47.38030840389743
 20
17.07872869988651
 11
-48.78303262164573
 21
17.07872869988651
 72
     1
 10
-48.78303262164573
 20
17.07872869988651
 11
-49.47962355971123
 21
17.86646048518023
 72
     1
 10
-49.47962355971123
 20
17.86646048518023
 11
-50.17621449777693
 21
17.07872869988651
 72
     1
 10
-50.17621449777693
 20
17.07872869988651
 11
-51.57893871552514
 21
17.07872869988651
 72
     1
 10
-51.57893871552514
 20
17.07872869988651
 11
-50.18098566858484
 21
18.65958769366151
 72
     1
 10
-50.18098566858484
 20
18.65958769366151
 11
-51.48351529935232
 21
20.13253822369771
 72
     1
 10
-51.48351529935232
 20
20.13253822369771
 11
-50.08079108160302
 21
20.13253822369771
 72
     1
 10
-50.08079108160302
 20
20.13253822369771
 11
-49.47962355971123
 21
19.45271490214222
 72
     1
 10
-49.47962355971123
 20
19.45271490214222
 11
-48.87845603781844
 21
20.13253822369771
 97
       12
330
158
330
1B1
330
1B0
330
1AF
330
1AE
330
159
330
15A
330
156
330
157
330
1B4
330
1B3
330
1B2
 75
     1
 76
     0
 52
45.0
 41
0.1
 77
     0
 78
     1
 53
45.0
 43
0.0
 44
0.0
 45
-0.0707106781186548
 46
0.0707106781186548
 79
     0
 98
        1
 10
0.0
 20
0.0
  0
HATCH
  5
272
330
71
100
AcDbEntity
  8
1
  6
Continuous
 62
     2
100
AcDbHatch
 10
0.0
 20
0.0
 30
0.0
210
0.0
220
0.0
230
1.0
  2
_USER
 70
     0
 71
     1
 91
        1
 92
        1
 93
        4
 72
     1
 10
-51.69821798574202
 20
20.13253822369771
 11
-51.69821798574202
 21
17.07872869988651
 72
     1
 10
-51.69821798574202
 20
17.07872869988651
 11
-52.93872239599492
 21
17.07872869988651
 72
     1
 10
-52.93872239599492
 20
17.07872869988651
 11
-52.93872239599492
 21
20.13253822369771
 72
     1
 10
-52.93872239599492
 20
20.13253822369771
 11
-51.69821798574202
 21
20.13253822369771
 97
        4
330
1AC
330
15B
330
1AB
330
1AD
 75
     1
 76
     0
 52
45.0
 41
0.1
 77
     0
 78
     1
 53
45.0
 43
0.0
 44
0.0
 45
-0.0707106781186548
 46
0.0707106781186548
 79
     0
 98
        1
 10
0.0
 20
0.0
  0
HATCH
  5
273
330
71
100
AcDbEntity
  8
1
  6
Continuous
 62
     2
100
AcDbHatch
 10
0.0
 20
0.0
 30
0.0
210
0.0
220
0.0
230
1.0
  2
_USER
 70
     0
 71
     1
 91
        1
 92
        1
 93
        4
 72
     1
 10
-51.69821798574202
 20
20.13253822369771
 11
-51.69821798574202
 21
17.07872869988651
 72
     1
 10
-51.69821798574202
 20
17.07872869988651
 11
-52.93872239599492
 21
17.07872869988651
 72
     1
 10
-52.93872239599492
 20
17.07872869988651
 11
-52.93872239599492
 21
20.13253822369771
 72
     1
 10
-52.93872239599492
 20
20.13253822369771
 11
-51.69821798574202
 21
20.13253822369771
 97
        4
330
1AC
330
15B
330
1AB
330
1AD
 75
     1
 76
     0
 52
45.0
 41
0.1
 77
     0
 78
     1
 53
45.0
 43
0.0
 44
0.0
 45
-0.0707106781186548
 46
0.0707106781186548
 79
     0
 98
        1
 10
0.0
 20
0.0
  0
HATCH
  5
274
330
71
100
AcDbEntity
  8
1
  6
Continuous
 62
     2
100
AcDbHatch
 10
0.0
 20
0.0
 30
0.0
210
0.0
220
0.0
230
1.0
  2
_USER
 70
     0
 71
     1
 91
        2
 92
        1
 93
        8
 72
     1
 10
-52.08866198927402
 20
13.71953822371222
 11
-53.32916639952794
 21
13.71953822371222
 72
     1
 10
-53.32916639952794
 20
13.71953822371222
 11
-53.54064645300372
 21
14.2604987679301
 72
     1
 10
-53.54064645300372
 20
14.2604987679301
 11
-54.67308802967753
 21
14.2604987679301
 72
     1
 10
-54.67308802967753
 20
14.2604987679301
 11
-54.88456808315334
 21
13.71953822371222
 72
     1
 10
-54.88456808315334
 20
13.71953822371222
 11
-56.12507249340632
 21
13.71953822371222
 72
     1
 10
-56.12507249340632
 20
13.71953822371222
 11
-54.72711944646702
 21
16.7733477475233
 72
     1
 10
-54.72711944646702
 20
16.7733477475233
 11
-53.48661503621432
 21
16.7733477475233
 72
     1
 10
-53.48661503621432
 20
16.7733477475233
 11
-52.08866198927402
 21
13.71953822371222
 97
        8
330
1A7
330
161
330
1A6
330
1A9
330
15E
330
1A8
330
15F
330
160
 92
       16
 93
        3
 72
     1
 10
-54.40703247853253
 20
14.94106203323671
 11
-53.80670200415003
 21
14.94106203323671
 72
     1
 10
-53.80670200415003
 20
14.94106203323671
 11
-54.10686724134013
 21
15.70887699922341
 72
     1
 10
-54.10686724134013
 20
15.70887699922341
 11
-54.40703247853253
 21
14.94106203323671
 97
        3
330
15D
330
15C
330
1AA
 75
     1
 76
     0
 52
45.0
 41
0.1
 77
     0
 78
     1
 53
45.0
 43
0.0
 44
0.0
 45
-0.0707106781186548
 46
0.0707106781186548
 79
     0
 98
        1
 10
0.0
 20
0.0
  0
HATCH
  5
275
330
71
100
AcDbEntity
  8
1
  6
Continuous
 62
     2
100
AcDbHatch
 10
0.0
 20
0.0
 30
0.0
210
0.0
220
0.0
230
1.0
  2
_USER
 70
     0
 71
     1
 91
        2
 92
        1
 93
        8
 72
     1
 10
-52.08866198927402
 20
13.71953822371222
 11
-53.32916639952794
 21
13.71953822371222
 72
     1
 10
-53.32916639952794
 20
13.71953822371222
 11
-53.54064645300372
 21
14.2604987679301
 72
     1
 10
-53.54064645300372
 20
14.2604987679301
 11
-54.67308802967753
 21
14.2604987679301
 72
     1
 10
-54.67308802967753
 20
14.2604987679301
 11
-54.88456808315334
 21
13.71953822371222
 72
     1
 10
-54.88456808315334
 20
13.71953822371222
 11
-56.12507249340632
 21
13.71953822371222
 72
     1
 10
-56.12507249340632
 20
13.71953822371222
 11
-54.72711944646702
 21
16.7733477475233
 72
     1
 10
-54.72711944646702
 20
16.7733477475233
 11
-53.48661503621432
 21
16.7733477475233
 72
     1
 10
-53.48661503621432
 20
16.7733477475233
 11
-52.08866198927402
 21
13.71953822371222
 97
        8
330
1A7
330
161
330
1A6
330
1A9
330
15E
330
1A8
330
15F
330
160
 92
       16
 93
        3
 72
     1
 10
-54.40703247853253
 20
14.94106203323671
 11
-53.80670200415003
 21
14.94106203323671
 72
     1
 10
-53.80670200415003
 20
14.94106203323671
 11
-54.10686724134013
 21
15.70887699922341
 72
     1
 10
-54.10686724134013
 20
15.70887699922341
 11
-54.40703247853253
 21
14.94106203323671
 97
        3
330
15D
330
15C
330
1AA
 75
     1
 76
     0
 52
45.0
 41
0.1
 77
     0
 78
     1
 53
45.0
 43
0.0
 44
0.0
 45
-0.0707106781186548
 46
0.0707106781186548
 79
     0
 98
        1
 10
0.0
 20
0.0
  0
HATCH
  5
276
330
71
100
AcDbEntity
  8
1
  6
Continuous
 62
     2
100
AcDbHatch
 10
0.0
 20
0.0
 30
0.0
210
0.0
220
0.0
230
1.0
  2
_USER
 70
     0
 71
     1
 91
        1
 92
        1
 93
        8
 72
     1
 10
-58.28258463258854
 20
16.7733477475233
 11
-58.28258463258854
 21
15.98808244139971
 72
     1
 10
-58.28258463258854
 20
15.98808244139971
 11
-57.47148559511393
 21
15.98808244139971
 72
     1
 10
-57.47148559511393
 20
15.98808244139971
 11
-57.47148559511393
 21
13.71953822371222
 72
     1
 10
-57.47148559511393
 20
13.71953822371222
 11
-56.27869289294742
 21
13.71953822371222
 72
     1
 10
-56.27869289294742
 20
13.71953822371222
 11
-56.27869289294742
 21
15.98808244139971
 72
     1
 10
-56.27869289294742
 20
15.98808244139971
 11
-55.46759385547492
 21
15.98808244139971
 72
     1
 10
-55.46759385547492
 20
15.98808244139971
 11
-55.46759385547492
 21
16.7733477475233
 72
     1
 10
-55.46759385547492
 20
16.7733477475233
 11
-58.28258463258854
 21
16.7733477475233
 97
        8
330
1A3
330
1A2
330
1A1
330
162
330
163
330
1A5
330
164
330
1A4
 75
     1
 76
     0
 52
45.0
 41
0.1
 77
     0
 78
     1
 53
45.0
 43
0.0
 44
0.0
 45
-0.0707106781186548
 46
0.0707106781186548
 79
     0
 98
        1
 10
0.0
 20
0.0
  0
HATCH
  5
277
330
71
100
AcDbEntity
  8
1
  6
Continuous
 62
     2
100
AcDbHatch
 10
0.0
 20
0.0
 30
0.0
210
0.0
220
0.0
230
1.0
  2
_USER
 70
     0
 71
     1
 91
        1
 92
        1
 93
        8
 72
     1
 10
-58.28258463258854
 20
16.7733477475233
 11
-58.28258463258854
 21
15.98808244139971
 72
     1
 10
-58.28258463258854
 20
15.98808244139971
 11
-57.47148559511393
 21
15.98808244139971
 72
     1
 10
-57.47148559511393
 20
15.98808244139971
 11
-57.47148559511393
 21
13.71953822371222
 72
     1
 10
-57.47148559511393
 20
13.71953822371222
 11
-56.27869289294742
 21
13.71953822371222
 72
     1
 10
-56.27869289294742
 20
13.71953822371222
 11
-56.27869289294742
 21
15.98808244139971
 72
     1
 10
-56.27869289294742
 20
15.98808244139971
 11
-55.46759385547492
 21
15.98808244139971
 72
     1
 10
-55.46759385547492
 20
15.98808244139971
 11
-55.46759385547492
 21
16.7733477475233
 72
     1
 10
-55.46759385547492
 20
16.7733477475233
 11
-58.28258463258854
 21
16.7733477475233
 97
        8
330
1A3
330
1A2
330
1A1
330
162
330
163
330
1A5
330
164
330
1A4
 75
     1
 76
     0
 52
45.0
 41
0.1
 77
     0
 78
     1
 53
45.0
 43
0.0
 44
0.0
 45
-0.0707106781186548
 46
0.0707106781186548
 79
     0
 98
        1
 10
0.0
 20
0.0
  0
HATCH
  5
278
330
71
100
AcDbEntity
  8
1
  6
Continuous
 62
     2
100
AcDbHatch
 10
0.0
 20
0.0
 30
0.0
210
0.0
220
0.0
230
1.0
  2
_USER
 70
     0
 71
     1
 91
        1
 92
        1
 93
       10
 72
     1
 10
-55.61057804884942
 20
20.13253822369771
 11
-56.80337075101593
 21
20.13253822369771
 72
     1
 10
-56.80337075101593
 20
20.13253822369771
 11
-56.80337075101593
 21
17.07872869988651
 72
     1
 10
-56.80337075101593
 20
17.07872869988651
 11
-55.61057804884942
 21
17.07872869988651
 72
     1
 10
-55.61057804884942
 20
17.07872869988651
 11
-55.61057804884942
 21
18.38750421009121
 72
     1
 10
-55.61057804884942
 20
18.38750421009121
 11
-54.37007363859541
 21
17.07872869988651
 72
     1
 10
-54.37007363859541
 20
17.07872869988651
 11
-53.17728093642882
 21
17.07872869988651
 72
     1
 10
-53.17728093642882
 20
17.07872869988651
 11
-53.17728093642882
 21
20.13253822369771
 72
     1
 10
-53.17728093642882
 20
20.13253822369771
 11
-54.37007363859541
 21
20.13253822369771
 72
     1
 10
-54.37007363859541
 20
20.13253822369771
 11
-54.37007363859541
 21
18.82376271349253
 72
     1
 10
-54.37007363859541
 20
18.82376271349253
 11
-55.61057804884942
 21
20.13253822369771
 97
       10
330
19D
330
167
330
168
330
169
330
16A
330
1A0
330
165
330
19F
330
19E
330
166
 75
     1
 76
     0
 52
45.0
 41
0.1
 77
     0
 78
     1
 53
45.0
 43
0.0
 44
0.0
 45
-0.0707106781186548
 46
0.0707106781186548
 79
     0
 98
        1
 10
0.0
 20
0.0
  0
HATCH
  5
279
330
71
100
AcDbEntity
  8
1
  6
Continuous
 62
     2
100
AcDbHatch
 10
0.0
 20
0.0
 30
0.0
210
0.0
220
0.0
230
1.0
  2
_USER
 70
     0
 71
     1
 91
        1
 92
        1
 93
       10
 72
     1
 10
-55.61057804884942
 20
20.13253822369771
 11
-56.80337075101593
 21
20.13253822369771
 72
     1
 10
-56.80337075101593
 20
20.13253822369771
 11
-56.80337075101593
 21
17.07872869988651
 72
     1
 10
-56.80337075101593
 20
17.07872869988651
 11
-55.61057804884942
 21
17.07872869988651
 72
     1
 10
-55.61057804884942
 20
17.07872869988651
 11
-55.61057804884942
 21
18.38750421009121
 72
     1
 10
-55.61057804884942
 20
18.38750421009121
 11
-54.37007363859541
 21
17.07872869988651
 72
     1
 10
-54.37007363859541
 20
17.07872869988651
 11
-53.17728093642882
 21
17.07872869988651
 72
     1
 10
-53.17728093642882
 20
17.07872869988651
 11
-53.17728093642882
 21
20.13253822369771
 72
     1
 10
-53.17728093642882
 20
20.13253822369771
 11
-54.37007363859541
 21
20.13253822369771
 72
     1
 10
-54.37007363859541
 20
20.13253822369771
 11
-54.37007363859541
 21
18.82376271349253
 72
     1
 10
-54.37007363859541
 20
18.82376271349253
 11
-55.61057804884942
 21
20.13253822369771
 97
       10
330
19D
330
167
330
168
330
169
330
16A
330
1A0
330
165
330
19F
330
19E
330
166
 75
     1
 76
     0
 52
45.0
 41
0.1
 77
     0
 78
     1
 53
45.0
 43
0.0
 44
0.0
 45
-0.0707106781186548
 46
0.0707106781186548
 79
     0
 98
        1
 10
0.0
 20
0.0
  0
HATCH
  5
27A
330
71
100
AcDbEntity
  8
1
  6
Continuous
 62
     2
100
AcDbHatch
 10
0.0
 20
0.0
 30
0.0
210
0.0
220
0.0
230
1.0
  2
_USER
 70
     0
 71
     1
 91
        1
 92
        1
 93
       10
 72
     1
 10
-60.85901686926803
 20
16.7733477475233
 11
-62.05180957143563
 21
16.7733477475233
 72
     1
 10
-62.05180957143563
 20
16.7733477475233
 11
-62.05180957143563
 21
13.71953822371222
 72
     1
 10
-62.05180957143563
 20
13.71953822371222
 11
-60.85901686926803
 21
13.71953822371222
 72
     1
 10
-60.85901686926803
 20
13.71953822371222
 11
-60.85901686926803
 21
15.0283137339168
 72
     1
 10
-60.85901686926803
 20
15.0283137339168
 11
-59.61851245901514
 21
13.71953822371222
 72
     1
 10
-59.61851245901514
 20
13.71953822371222
 11
-58.42571975684874
 21
13.71953822371222
 72
     1
 10
-58.42571975684874
 20
13.71953822371222
 11
-58.42571975684874
 21
16.7733477475233
 72
     1
 10
-58.42571975684874
 20
16.7733477475233
 11
-59.61851245901514
 21
16.7733477475233
 72
     1
 10
-59.61851245901514
 20
16.7733477475233
 11
-59.61851245901514
 21
15.46457223731821
 72
     1
 10
-59.61851245901514
 20
15.46457223731821
 11
-60.85901686926803
 21
16.7733477475233
 97
       10
330
16C
330
16D
330
16E
330
19A
330
16F
330
170
330
199
330
19C
330
19B
330
16B
 75
     1
 76
     0
 52
45.0
 41
0.1
 77
     0
 78
     1
 53
45.0
 43
0.0
 44
0.0
 45
-0.0707106781186548
 46
0.0707106781186548
 79
     0
 98
        1
 10
0.0
 20
0.0
  0
HATCH
  5
27B
330
71
100
AcDbEntity
  8
1
  6
Continuous
 62
     2
100
AcDbHatch
 10
0.0
 20
0.0
 30
0.0
210
0.0
220
0.0
230
1.0
  2
_USER
 70
     0
 71
     1
 91
        1
 92
        1
 93
       10
 72
     1
 10
-60.85901686926803
 20
16.7733477475233
 11
-62.05180957143563
 21
16.7733477475233
 72
     1
 10
-62.05180957143563
 20
16.7733477475233
 11
-62.05180957143563
 21
13.71953822371222
 72
     1
 10
-62.05180957143563
 20
13.71953822371222
 11
-60.85901686926803
 21
13.71953822371222
 72
     1
 10
-60.85901686926803
 20
13.71953822371222
 11
-60.85901686926803
 21
15.0283137339168
 72
     1
 10
-60.85901686926803
 20
15.0283137339168
 11
-59.61851245901514
 21
13.71953822371222
 72
     1
 10
-59.61851245901514
 20
13.71953822371222
 11
-58.42571975684874
 21
13.71953822371222
 72
     1
 10
-58.42571975684874
 20
13.71953822371222
 11
-58.42571975684874
 21
16.7733477475233
 72
     1
 10
-58.42571975684874
 20
16.7733477475233
 11
-59.61851245901514
 21
16.7733477475233
 72
     1
 10
-59.61851245901514
 20
16.7733477475233
 11
-59.61851245901514
 21
15.46457223731821
 72
     1
 10
-59.61851245901514
 20
15.46457223731821
 11
-60.85901686926803
 21
16.7733477475233
 97
       10
330
16C
330
16D
330
16E
330
19A
330
16F
330
170
330
199
330
19C
330
19B
330
16B
 75
     1
 76
     0
 52
45.0
 41
0.1
 77
     0
 78
     1
 53
45.0
 43
0.0
 44
0.0
 45
-0.0707106781186548
 46
0.0707106781186548
 79
     0
 98
        1
 10
0.0
 20
0.0
  0
HATCH
  5
27C
330
71
100
AcDbEntity
  8
1
  6
Continuous
 62
     2
100
AcDbHatch
 10
0.0
 20
0.0
 30
0.0
210
0.0
220
0.0
230
1.0
  2
_USER
 70
     0
 71
     1
 91
        1
 92
        1
 93
       12
 72
     1
 10
-61.86081180820344
 20
20.13253822369771
 11
-61.86081180820344
 21
17.07872869988651
 72
     1
 10
-61.86081180820344
 20
17.07872869988651
 11
-63.05360451036984
 21
17.07872869988651
 72
     1
 10
-63.05360451036984
 20
17.07872869988651
 11
-63.05360451036984
 21
18.21300080873033
 72
     1
 10
-63.05360451036984
 20
18.21300080873033
 11
-64.10326208827732
 21
18.21300080873033
 72
     1
 10
-64.10326208827732
 20
18.21300080873033
 11
-64.10326208827732
 21
17.07872869988651
 72
     1
 10
-64.10326208827732
 20
17.07872869988651
 11
-65.29605479044392
 21
17.07872869988651
 72
     1
 10
-65.29605479044392
 20
17.07872869988651
 11
-65.29605479044392
 21
20.13253822369771
 72
     1
 10
-65.29605479044392
 20
20.13253822369771
 11
-64.10326208827732
 21
20.13253822369771
 72
     1
 10
-64.10326208827732
 20
20.13253822369771
 11
-64.10326208827732
 21
19.06370489036311
 72
     1
 10
-64.10326208827732
 20
19.06370489036311
 11
-63.05360451036984
 21
19.06370489036311
 72
     1
 10
-63.05360451036984
 20
19.06370489036311
 11
-63.05360451036984
 21
20.13253822369771
 72
     1
 10
-63.05360451036984
 20
20.13253822369771
 11
-61.86081180820344
 21
20.13253822369771
 97
       12
330
194
330
193
330
192
330
17A
330
17B
330
191
330
17C
330
190
330
18F
330
18E
330
178
330
179
 75
     1
 76
     0
 52
45.0
 41
0.1
 77
     0
 78
     1
 53
45.0
 43
0.0
 44
0.0
 45
-0.0707106781186548
 46
0.0707106781186548
 79
     0
 98
        1
 10
0.0
 20
0.0
  0
HATCH
  5
27D
330
71
100
AcDbEntity
  8
1
  6
Continuous
 62
     2
100
AcDbHatch
 10
0.0
 20
0.0
 30
0.0
210
0.0
220
0.0
230
1.0
  2
_USER
 70
     0
 71
     1
 91
        1
 92
        1
 93
       12
 72
     1
 10
-61.86081180820344
 20
20.13253822369771
 11
-61.86081180820344
 21
17.07872869988651
 72
     1
 10
-61.86081180820344
 20
17.07872869988651
 11
-63.05360451036984
 21
17.07872869988651
 72
     1
 10
-63.05360451036984
 20
17.07872869988651
 11
-63.05360451036984
 21
18.21300080873033
 72
     1
 10
-63.05360451036984
 20
18.21300080873033
 11
-64.10326208827732
 21
18.21300080873033
 72
     1
 10
-64.10326208827732
 20
18.21300080873033
 11
-64.10326208827732
 21
17.07872869988651
 72
     1
 10
-64.10326208827732
 20
17.07872869988651
 11
-65.29605479044392
 21
17.07872869988651
 72
     1
 10
-65.29605479044392
 20
17.07872869988651
 11
-65.29605479044392
 21
20.13253822369771
 72
     1
 10
-65.29605479044392
 20
20.13253822369771
 11
-64.10326208827732
 21
20.13253822369771
 72
     1
 10
-64.10326208827732
 20
20.13253822369771
 11
-64.10326208827732
 21
19.06370489036311
 72
     1
 10
-64.10326208827732
 20
19.06370489036311
 11
-63.05360451036984
 21
19.06370489036311
 72
     1
 10
-63.05360451036984
 20
19.06370489036311
 11
-63.05360451036984
 21
20.13253822369771
 72
     1
 10
-63.05360451036984
 20
20.13253822369771
 11
-61.86081180820344
 21
20.13253822369771
 97
       12
330
194
330
193
330
192
330
17A
330
17B
330
191
330
17C
330
190
330
18F
330
18E
330
178
330
179
 75
     1
 76
     0
 52
45.0
 41
0.1
 77
     0
 78
     1
 53
45.0
 43
0.0
 44
0.0
 45
-0.0707106781186548
 46
0.0707106781186548
 79
     0
 98
        1
 10
0.0
 20
0.0
  0
ENDBLK
  5
73
330
71
100
AcDbEntity
  8
0
100
AcDbBlockEnd
  0
BLOCK
  5
75
330
74
100
AcDbEntity
  8
0
100
AcDbBlockBegin
  2
_punkt
 70
     0
 10
50.01649200558548
 20
6.42603822369591
 30
0.0
  3
_punkt
  1

  0
LINE
  5
27E
330
74
100
AcDbEntity
  8
1
  6
Continuous
 62
     2
100
AcDbLine
 10
50.01649200558548
 20
6.42603822369591
 30
0.0
 11
50.01649200558548
 21
1.4260382236958
 31
0.0
  0
LINE
  5
27F
330
74
100
AcDbEntity
  8
1
  6
Continuous
 62
     2
100
AcDbLine
 10
50.01649200558548
 20
6.42603822369591
 30
0.0
 11
55.01649200558447
 21
6.42603822369591
 31
0.0
  0
ENDBLK
  5
76
330
74
100
AcDbEntity
  8
0
100
AcDbBlockEnd
  0
BLOCK
  5
7A
330
77
100
AcDbEntity
  8
0
100
AcDbBlockBegin
  2
A4I_CS
 70
     0
 10
50.01649200558548
 20
1.4260382236958
 30
0.0
  3
A4I_CS
  1

  0
INSERT
  5
78
330
77
100
AcDbEntity
  8
1
100
AcDbBlockReference
  2
_rahmen
 10
50.01649200558548
 20
1.4260382236958
 30
0.0
  0
INSERT
  5
79
330
77
100
AcDbEntity
  8
1
100
AcDbBlockReference
  2
_punkt
 10
50.01649200558548
 20
6.42603822369591
 30
0.0
  0
ENDBLK
  5
7B
330
77
100
AcDbEntity
  8
0
100
AcDbBlockEnd
  0
BLOCK
  5
84
330
7C
100
AcDbEntity
  8
0
100
AcDbBlockBegin
  2
1
 70
     0
 10
0.0
 20
0.0
 30
0.0
  3
1
  1

  0
INSERT
  5
7D
330
7C
100
AcDbEntity
  8
0
100
AcDbBlockReference
  2
AllgSicht1
 10
-32.0
 20
74.64999999999975
 30
0.0
  0
INSERT
  5
7E
330
7C
100
AcDbEntity
  8
0
100
AcDbBlockReference
  2
Drfsicht1
 10
-108.0000009628311
 20
84.64999999998932
 30
0.0
  0
INSERT
  5
7F
330
7C
100
AcDbEntity
  8
0
100
AcDbBlockReference
  2
Rckans1
 10
-31.99999999999995
 20
135.999999999995
 30
0.0
  0
INSERT
  5
80
330
7C
100
AcDbEntity
  8
0
100
AcDbBlockReference
  2
SA_Links1
 10
-70.0
 20
135.999999999995
 30
0.0
  0
INSERT
  5
81
330
7C
100
AcDbEntity
  8
0
100
AcDbBlockReference
  2
SA_Rechts1
 10
-155.0
 20
135.999999999995
 30
0.0
  0
INSERT
  5
82
330
7C
100
AcDbEntity
  8
0
100
AcDbBlockReference
  2
Vordans1
 10
-108.0000009628311
 20
136.00000019072
 30
0.0
  0
INSERT
  5
83
330
7C
100
AcDbEntity
  8
0
100
AcDbBlockReference
  2
A4I_CS
 10
50.01649200558548
 20
1.4260382236958
 30
0.0
  0
ENDBLK
  5
85
330
7C
100
AcDbEntity
  8
0
100
AcDbBlockEnd
  0
BLOCK
  5
C5
330
BB
100
AcDbEntity
  8
0
100
AcDbBlockBegin
  2
*D17
 70
     1
 10
0.0
 20
0.0
 30
0.0
  3
*D17
  1

  0
LINE
  5
BC
330
BB
100
AcDbEntity
  8
1
  6
Continuous
 62
     2
100
AcDbLine
 10
-126.092883202089
 20
74.64999999998932
 30
0.0
 11
-111.2000019256617
 21
74.64999999998932
 31
0.0
  0
LINE
  5
BD
330
BB
100
AcDbEntity
  8
1
  6
Continuous
 62
     2
100
AcDbLine
 10
-111.2000019256617
 20
74.64999999998932
 30
0.0
 11
-104.8000019256616
 21
74.64999999998932
 31
0.0
  0
LINE
  5
BE
330
BB
100
AcDbEntity
  8
1
  6
Continuous
 62
     2
100
AcDbLine
 10
-104.8000019256616
 20
74.64999999998932
 30
0.0
 11
-97.80000192566165
 21
74.64999999998932
 31
0.0
  0
LINE
  5
BF
330
BB
100
AcDbEntity
  8
1
  6
Continuous
 62
     2
100
AcDbLine
 10
-111.2000019256617
 20
84.64999999998932
 30
0.0
 11
-111.2000019256617
 21
73.14999999998932
 31
0.0
  0
LINE
  5
C0
330
BB
100
AcDbEntity
  8
1
  6
Continuous
 62
     2
100
AcDbLine
 10
-104.8000019256616
 20
84.64999999998932
 30
0.0
 11
-104.8000019256616
 21
73.14999999998932
 31
0.0
  0
SOLID
  5
C1
330
BB
100
AcDbEntity
  8
1
 62
     2
100
AcDbTrace
 10
-114.7000019256617
 20
74.18921625843343
 30
0.0
 11
-114.7000019256617
 21
75.1107837415452
 31
0.0
 12
-111.2000019256617
 22
74.64999999998932
 32
0.0
 13
-111.2000019256617
 23
74.64999999998932
 33
0.0
  0
SOLID
  5
C2
330
BB
100
AcDbEntity
  8
1
 62
     2
100
AcDbTrace
 10
-101.3000019256616
 20
75.1107837415452
 30
0.0
 11
-101.3000019256616
 21
74.18921625843343
 31
0.0
 12
-104.8000019256616
 22
74.64999999998932
 32
0.0
 13
-104.8000019256616
 23
74.64999999998932
 33
0.0
  0
MTEXT
  5
C4
330
BB
100
AcDbEntity
  8
1
 62
     3
100
AcDbMText
 10
-124.7628832020806
 20
76.49999304291299
 30
0.0
 40
3.5
 41
0.0
 71
     7
 72
     1
  1
\C3;{\Fgdt;n}\C3;6,4
  7
CONVERTER_11
 11
0.9999999999970619
 21
2.424068405545306E-6
 31
0.0
 73
     1
 44
0.60024009603842
  0
ENDBLK
  5
C6
330
BB
100
AcDbEntity
  8
0
100
AcDbBlockEnd
  0
BLOCK
  5
143
330
13C
100
AcDbEntity
  8
0
100
AcDbBlockBegin
  2
*D18
 70
     1
 10
0.0
 20
0.0
 30
0.0
  3
*D18
  1

  0
LINE
  5
13D
330
13C
100
AcDbEntity
  8
1
  6
Continuous
 62
     2
100
AcDbLine
 10
-121.0000019256617
 20
158.1500003814499
 30
0.0
 11
-121.0000019256617
 21
113.8500003814254
 31
0.0
  0
LINE
  5
13E
330
13C
100
AcDbEntity
  8
1
  6
Continuous
 62
     2
100
AcDbLine
 10
-111.0000019256617
 20
158.1500003814499
 30
0.0
 11
-122.5000019256617
 21
158.1500003814499
 31
0.0
  0
LINE
  5
13F
330
13C
100
AcDbEntity
  8
1
  6
Continuous
 62
     2
100
AcDbLine
 10
-109.5000019256617
 20
113.8500003814254
 30
0.0
 11
-122.5000019256617
 21
113.8500003814254
 31
0.0
  0
SOLID
  5
140
330
13C
100
AcDbEntity
  8
1
 62
     2
100
AcDbTrace
 10
-120.5392181841058
 20
154.6500003814499
 30
0.0
 11
-121.4607856672176
 21
154.6500003814499
 31
0.0
 12
-121.0000019256617
 22
158.1500003814499
 32
0.0
 13
-121.0000019256617
 23
158.1500003814499
 33
0.0
  0
SOLID
  5
141
330
13C
100
AcDbEntity
  8
1
 62
     2
100
AcDbTrace
 10
-121.4607856672176
 20
117.3500003814254
 30
0.0
 11
-120.5392181841058
 21
117.3500003814254
 31
0.0
 12
-121.0000019256617
 22
113.8500003814254
 32
0.0
 13
-121.0000019256617
 23
113.8500003814254
 33
0.0
  0
MTEXT
  5
142
330
13C
100
AcDbEntity
  8
1
 62
     3
100
AcDbMText
 10
-122.8500019256617
 20
130.60401927757
 30
0.0
 40
3.5
 41
0.0
 71
     7
 72
     1
  1
44,3
  7
CONVERTER_11
 11
0.0
 21
1.0
 31
0.0
 73
     1
 44
0.60024009603842
  0
ENDBLK
  5
144
330
13C
100
AcDbEntity
  8
0
100
AcDbBlockEnd
  0
ENDSEC
  0
SECTION
  2
ENTITIES
  0
INSERT
  5
86
330
1F
100
AcDbEntity
  8
1
100
AcDbBlockReference
  2
1
 10
0.0
 20
0.0
 30
0.0
  0
ENDSEC
  0
SECTION
  2
OBJECTS
  0
DICTIONARY
  5
C
330
0
100
AcDbDictionary
281
     1
  3
ACAD_GROUP
350
D
  3
ACAD_LAYOUT
350
1A
  3
ACAD_MATERIAL
350
3B
  3
ACAD_MLEADERSTYLE
350
2A7
  3
ACAD_MLINESTYLE
350
17
  3
ACAD_PLOTSETTINGS
350
19
  3
ACAD_PLOTSTYLENAME
350
E
  3
ACAD_TABLESTYLE
350
2A6
  3
ACAD_VISUALSTYLE
350
2A
  0
DICTIONARY
  5
D
102
{ACAD_REACTORS
330
C
102
}
330
C
100
AcDbDictionary
281
     1
  0
DICTIONARY
  5
1A
102
{ACAD_REACTORS
330
C
102
}
330
C
100
AcDbDictionary
281
     1
  3
Layout1
350
1E
  3
Layout2
350
26
  3
Model
350
22
  0
DICTIONARY
  5
3B
102
{ACAD_REACTORS
330
C
102
}
330
C
100
AcDbDictionary
281
     1
  3
ByBlock
350
3D
  3
ByLayer
350
3C
  3
Global
350
3E
  0
DICTIONARY
  5
2A7
102
{ACAD_REACTORS
330
C
102
}
330
C
100
AcDbDictionary
281
     1
  0
DICTIONARY
  5
17
102
{ACAD_REACTORS
330
C
102
}
330
C
100
AcDbDictionary
281
     1
  3
Standard
350
18
  0
DICTIONARY
  5
19
102
{ACAD_REACTORS
330
C
102
}
330
C
100
AcDbDictionary
281
     1
  0
ACDBDICTIONARYWDFLT
  5
E
102
{ACAD_REACTORS
330
C
102
}
330
C
100
AcDbDictionary
281
     1
  3
Normal
350
F
100
AcDbDictionaryWithDefault
340
F
  0
DICTIONARY
  5
2A6
102
{ACAD_REACTORS
330
C
102
}
330
C
100
AcDbDictionary
281
     1
  0
DICTIONARY
  5
2A
102
{ACAD_REACTORS
330
C
102
}
330
C
100
AcDbDictionary
281
     1
  3
2dWireframe
350
2F
  3
3D Hidden
350
31
  3
3dWireframe
350
30
  3
Basic
350
32
  3
Brighten
350
36
  3
ColorChange
350
3A
  3
Conceptual
350
34
  3
Dim
350
35
  3
Facepattern
350
39
  3
Flat
350
2B
  3
FlatWithEdges
350
2C
  3
Gouraud
350
2D
  3
GouraudWithEdges
350
2E
  3
Linepattern
350
38
  3
Realistic
350
33
  3
Thicken
350
37
  0
LAYOUT
  5
1E
102
{ACAD_REACTORS
330
1A
102
}
330
1A
100
AcDbPlotSettings
  1

  2
none_device
  4

  6

 40
0.0
 41
0.0
 42
0.0
 43
0.0
 44
0.0
 45
0.0
 46
0.0
 47
0.0
 48
0.0
 49
0.0
140
0.0
141
0.0
142
1.0
143
1.0
 70
   688
 72
     0
 73
     0
 74
     5
  7

 75
    16
 76
     0
 77
     2
 78
   300
147
1.0
148
0.0
149
0.0
100
AcDbLayout
  1
Layout1
 70
     1
 71
     1
 10
0.0
 20
0.0
 11
12.0
 21
9.0
 12
0.0
 22
0.0
 32
0.0
 14
1.00000000000000E+20
 24
1.00000000000000E+20
 34
1.00000000000000E+20
 15
-1.00000000000000E+20
 25
-1.00000000000000E+20
 35
-1.00000000000000E+20
146
0.0
 13
0.0
 23
0.0
 33
0.0
 16
1.0
 26
0.0
 36
0.0
 17
0.0
 27
1.0
 37
0.0
 76
     0
330
1B
  0
LAYOUT
  5
26
102
{ACAD_REACTORS
330
1A
102
}
330
1A
100
AcDbPlotSettings
  1

  2
none_device
  4

  6

 40
0.0
 41
0.0
 42
0.0
 43
0.0
 44
0.0
 45
0.0
 46
0.0
 47
0.0
 48
0.0
 49
0.0
140
0.0
141
0.0
142
1.0
143
1.0
 70
   688
 72
     0
 73
     0
 74
     5
  7

 75
    16
 76
     0
 77
     2
 78
   300
147
1.0
148
0.0
149
0.0
100
AcDbLayout
  1
Layout2
 70
     1
 71
     2
 10
0.0
 20
0.0
 11
0.0
 21
0.0
 12
0.0
 22
0.0
 32
0.0
 14
0.0
 24
0.0
 34
0.0
 15
0.0
 25
0.0
 35
0.0
146
0.0
 13
0.0
 23
0.0
 33
0.0
 16
1.0
 26
0.0
 36
0.0
 17
0.0
 27
1.0
 37
0.0
 76
     0
330
23
  0
LAYOUT
  5
22
102
{ACAD_REACTORS
330
1A
102
}
330
1A
100
AcDbPlotSettings
  1

  2
none_device
  4

  6

 40
0.0
 41
0.0
 42
0.0
 43
0.0
 44
0.0
 45
0.0
 46
0.0
 47
0.0
 48
0.0
 49
0.0
140
0.0
141
0.0
142
1.0
143
1.0
 70
  1712
 72
     0
 73
     0
 74
     0
  7

 75
     0
 76
     0
 77
     2
 78
   300
147
1.0
148
0.0
149
0.0
100
AcDbLayout
  1
Model
 70
     1
 71
     0
 10
0.0
 20
0.0
 11
12.0
 21
9.0
 12
0.0
 22
0.0
 32
0.0
 14
-241.9835079944136
 24
1.4260382236958
 34
0.0
 15
55.01649200558447
 25
211.4260382236959
 35
0.0
146
0.0
 13
0.0
 23
0.0
 33
0.0
 16
1.0
 26
0.0
 36
0.0
 17
0.0
 27
1.0
 37
0.0
 76
     0
330
1F
331
29
  0
MATERIAL
  5
3D
102
{ACAD_REACTORS
330
3B
102
}
102
{ACAD_XDICTIONARY
360
2A2
102
}
330
3B
100
AcDbMaterial
  1
ByBlock
  0
MATERIAL
  5
3C
102
{ACAD_REACTORS
330
3B
102
}
102
{ACAD_XDICTIONARY
360
2A0
102
}
330
3B
100
AcDbMaterial
  1
ByLayer
  0
MATERIAL
  5
3E
102
{ACAD_REACTORS
330
3B
102
}
102
{ACAD_XDICTIONARY
360
2A4
102
}
330
3B
100
AcDbMaterial
  1
Global
  0
MLINESTYLE
  5
18
102
{ACAD_REACTORS
330
17
102
}
330
17
100
AcDbMlineStyle
  2
Standard
 70
     0
  3

 62
   256
 51
90.0
 52
90.0
 71
     2
 49
0.5
 62
   256
  6
BYLAYER
 49
-0.5
 62
   256
  6
BYLAYER
  0
ACDBPLACEHOLDER
  5
F
102
{ACAD_REACTORS
330
E
102
}
330
E
  0
VISUALSTYLE
  5
2F
102
{ACAD_REACTORS
330
2A
102
}
102
{ACAD_XDICTIONARY
360
288
102
}
330
2A
100
AcDbVisualStyle
  2
2dWireframe
 70
     4
 71
     0
 72
     2
 73
     0
 90
        0
 40
-0.6
 41
-30.0
 62
     5
 63
     7
421
 16777215
 74
     1
 91
        4
 64
     7
 65
   257
 75
     1
175
     1
 42
1.0
 92
        0
 66
   257
 43
1.0
 76
     1
 77
     6
 78
     2
 67
     7
 79
     5
170
     0
171
     0
290
     0
174
     0
 93
        1
 44
0.0
173
     0
291
     0
 45
0.0
1001
ACAD
1000
AcDbSavedByObjectVersion
1070
     0
  0
VISUALSTYLE
  5
31
102
{ACAD_REACTORS
330
2A
102
}
102
{ACAD_XDICTIONARY
360
28C
102
}
330
2A
100
AcDbVisualStyle
  2
3D Hidden
 70
     6
 71
     1
 72
     2
 73
     2
 90
        0
 40
-0.6
 41
-30.0
 62
     5
 63
     7
421
 16777215
 74
     2
 91
        2
 64
     7
 65
   257
 75
     2
175
     1
 42
40.0
 92
        0
 66
   257
 43
1.0
 76
     1
 77
     6
 78
     2
 67
     7
 79
     3
170
     0
171
     0
290
     0
174
     0
 93
        1
 44
0.0
173
     0
291
     0
 45
0.0
1001
ACAD
1000
AcDbSavedByObjectVersion
1070
     0
  0
VISUALSTYLE
  5
30
102
{ACAD_REACTORS
330
2A
102
}
102
{ACAD_XDICTIONARY
360
28A
102
}
330
2A
100
AcDbVisualStyle
  2
3dWireframe
 70
     5
 71
     0
 72
     2
 73
     0
 90
        0
 40
-0.6
 41
-30.0
 62
     5
 63
     7
421
 16777215
 74
     1
 91
        4
 64
     7
 65
   257
 75
     1
175
     1
 42
1.0
 92
        0
 66
   257
 43
1.0
 76
     1
 77
     6
 78
     2
 67
     7
 79
     5
170
     0
171
     0
290
     0
174
     0
 93
        1
 44
0.0
173
     0
291
     0
 45
0.0
1001
ACAD
1000
AcDbSavedByObjectVersion
1070
     0
  0
VISUALSTYLE
  5
32
102
{ACAD_REACTORS
330
2A
102
}
102
{ACAD_XDICTIONARY
360
28E
102
}
330
2A
100
AcDbVisualStyle
  2
Basic
 70
     7
 71
     1
 72
     0
 73
     1
 90
        0
 40
-0.6
 41
-30.0
 62
     5
 63
     7
421
 16777215
 74
     0
 91
        4
 64
     7
 65
   257
 75
     1
175
     1
 42
1.0
 92
        8
 66
     7
 43
1.0
 76
     1
 77
     6
 78
     2
 67
     7
 79
     5
170
     0
171
     0
290
     0
174
     0
 93
        1
 44
0.0
173
     0
291
     1
 45
0.0
1001
ACAD
1000
AcDbSavedByObjectVersion
1070
     0
  0
VISUALSTYLE
  5
36
102
{ACAD_REACTORS
330
2A
102
}
102
{ACAD_XDICTIONARY
360
296
102
}
330
2A
100
AcDbVisualStyle
  2
Brighten
 70
    12
 71
     2
 72
     2
 73
     0
 90
        0
 40
-0.6
 41
-30.0
 62
     5
 63
     7
421
 16777215
 74
     1
 91
        4
 64
     7
 65
   257
 75
     1
175
     1
 42
1.0
 92
        8
 66
     7
 43
1.0
 76
     1
 77
     6
 78
     2
 67
     7
 79
     5
170
     0
171
     0
290
     0
174
     0
 93
        1
 44
50.0
173
     0
291
     1
 45
0.0
1001
ACAD
1000
AcDbSavedByObjectVersion
1070
     0
  0
VISUALSTYLE
  5
3A
102
{ACAD_REACTORS
330
2A
102
}
102
{ACAD_XDICTIONARY
360
29E
102
}
330
2A
100
AcDbVisualStyle
  2
ColorChange
 70
    16
 71
     2
 72
     2
 73
     3
 90
        0
 40
-0.6
 41
-30.0
 62
     5
 63
     8
421
  8421504
 74
     1
 91
        4
 64
     7
 65
   257
 75
     1
175
     1
 42
1.0
 92
        8
 66
     8
424
  8421504
 43
1.0
 76
     1
 77
     6
 78
     2
 67
     7
 79
     5
170
     0
171
     0
290
     0
174
     0
 93
        1
 44
0.0
173
     0
291
     1
 45
0.0
1001
ACAD
1000
AcDbSavedByObjectVersion
1070
     0
  0
VISUALSTYLE
  5
34
102
{ACAD_REACTORS
330
2A
102
}
102
{ACAD_XDICTIONARY
360
292
102
}
330
2A
100
AcDbVisualStyle
  2
Conceptual
 70
     9
 71
     3
 72
     2
 73
     0
 90
        0
 40
-0.6
 41
-30.0
 62
     5
 63
     7
421
 16777215
 74
     2
 91
        2
 64
     7
 65
   257
 75
     1
175
     1
 42
40.0
 92
        8
 66
     7
 43
1.0
 76
     1
 77
     6
 78
     2
 67
     7
 79
     3
170
     0
171
     0
290
     0
174
     0
 93
        1
 44
0.0
173
     0
291
     0
 45
0.0
1001
ACAD
1000
AcDbSavedByObjectVersion
1070
     0
  0
VISUALSTYLE
  5
35
102
{ACAD_REACTORS
330
2A
102
}
102
{ACAD_XDICTIONARY
360
294
102
}
330
2A
100
AcDbVisualStyle
  2
Dim
 70
    11
 71
     2
 72
     2
 73
     0
 90
        0
 40
-0.6
 41
-30.0
 62
     5
 63
     7
421
 16777215
 74
     1
 91
        4
 64
     7
 65
   257
 75
     1
175
     1
 42
1.0
 92
        8
 66
     7
 43
1.0
 76
     1
 77
     6
 78
     2
 67
     7
 79
     5
170
     0
171
     0
290
     0
174
     0
 93
        1
 44
-50.0
173
     0
291
     1
 45
0.0
1001
ACAD
1000
AcDbSavedByObjectVersion
1070
     0
  0
VISUALSTYLE
  5
39
102
{ACAD_REACTORS
330
2A
102
}
102
{ACAD_XDICTIONARY
360
29C
102
}
330
2A
100
AcDbVisualStyle
  2
Facepattern
 70
    15
 71
     2
 72
     2
 73
     0
 90
        0
 40
-0.6
 41
-30.0
 62
     5
 63
     7
421
 16777215
 74
     1
 91
        4
 64
     7
 65
   257
 75
     1
175
     1
 42
1.0
 92
        8
 66
     7
 43
1.0
 76
     1
 77
     6
 78
     2
 67
     7
 79
     5
170
     0
171
     0
290
     0
174
     0
 93
        1
 44
0.0
173
     0
291
     1
 45
0.0
1001
ACAD
1000
AcDbSavedByObjectVersion
1070
     0
  0
VISUALSTYLE
  5
2B
102
{ACAD_REACTORS
330
2A
102
}
102
{ACAD_XDICTIONARY
360
280
102
}
330
2A
100
AcDbVisualStyle
  2
Flat
 70
     0
 71
     2
 72
     1
 73
     1
 90
        2
 40
-0.6
 41
30.0
 62
     5
 63
     7
421
 16777215
 74
     0
 91
        4
 64
     7
 65
   257
 75
     1
175
     1
 42
1.0
 92
        8
 66
     7
 43
1.0
 76
     1
 77
     6
 78
     2
 67
     7
 79
     5
170
     0
171
     0
290
     0
174
     0
 93
       13
 44
0.0
173
     0
291
     1
 45
0.0
1001
ACAD
1000
AcDbSavedByObjectVersion
1070
     0
  0
VISUALSTYLE
  5
2C
102
{ACAD_REACTORS
330
2A
102
}
102
{ACAD_XDICTIONARY
360
282
102
}
330
2A
100
AcDbVisualStyle
  2
FlatWithEdges
 70
     1
 71
     2
 72
     1
 73
     1
 90
        2
 40
-0.6
 41
30.0
 62
     5
 63
     7
421
 16777215
 74
     1
 91
        4
 64
     7
 65
   257
 75
     1
175
     1
 42
1.0
 92
        0
 66
   257
 43
1.0
 76
     1
 77
     6
 78
     2
 67
     7
 79
     5
170
     0
171
     0
290
     0
174
     0
 93
       13
 44
0.0
173
     0
291
     1
 45
0.0
1001
ACAD
1000
AcDbSavedByObjectVersion
1070
     0
  0
VISUALSTYLE
  5
2D
102
{ACAD_REACTORS
330
2A
102
}
102
{ACAD_XDICTIONARY
360
284
102
}
330
2A
100
AcDbVisualStyle
  2
Gouraud
 70
     2
 71
     2
 72
     2
 73
     1
 90
        2
 40
-0.6
 41
30.0
 62
     5
 63
     7
421
 16777215
 74
     0
 91
        4
 64
     7
 65
   257
 75
     1
175
     1
 42
1.0
 92
        0
 66
     7
 43
1.0
 76
     1
 77
     6
 78
     2
 67
     7
 79
     5
170
     0
171
     0
290
     0
174
     0
 93
       13
 44
0.0
173
     0
291
     1
 45
0.0
1001
ACAD
1000
AcDbSavedByObjectVersion
1070
     0
  0
VISUALSTYLE
  5
2E
102
{ACAD_REACTORS
330
2A
102
}
102
{ACAD_XDICTIONARY
360
286
102
}
330
2A
100
AcDbVisualStyle
  2
GouraudWithEdges
 70
     3
 71
     2
 72
     2
 73
     1
 90
        2
 40
-0.6
 41
30.0
 62
     5
 63
     7
421
 16777215
 74
     1
 91
        4
 64
     7
 65
   257
 75
     1
175
     1
 42
1.0
 92
        0
 66
   257
 43
1.0
 76
     1
 77
     6
 78
     2
 67
     7
 79
     5
170
     0
171
     0
290
     0
174
     0
 93
       13
 44
0.0
173
     0
291
     1
 45
0.0
1001
ACAD
1000
AcDbSavedByObjectVersion
1070
     0
  0
VISUALSTYLE
  5
38
102
{ACAD_REACTORS
330
2A
102
}
102
{ACAD_XDICTIONARY
360
29A
102
}
330
2A
100
AcDbVisualStyle
  2
Linepattern
 70
    14
 71
     2
 72
     2
 73
     0
 90
        0
 40
-0.6
 41
-30.0
 62
     5
 63
     7
421
 16777215
 74
     1
 91
        4
 64
     7
 65
   257
 75
     7
175
     7
 42
1.0
 92
        8
 66
     7
 43
1.0
 76
     1
 77
     6
 78
     2
 67
     7
 79
     5
170
     0
171
     0
290
     0
174
     0
 93
        1
 44
0.0
173
     0
291
     1
 45
0.0
1001
ACAD
1000
AcDbSavedByObjectVersion
1070
     0
  0
VISUALSTYLE
  5
33
102
{ACAD_REACTORS
330
2A
102
}
102
{ACAD_XDICTIONARY
360
290
102
}
330
2A
100
AcDbVisualStyle
  2
Realistic
 70
     8
 71
     2
 72
     2
 73
     0
 90
        0
 40
-0.6
 41
-30.0
 62
     5
 63
     7
421
 16777215
 74
     1
 91
        0
 64
     7
 65
   257
 75
     1
175
     1
 42
1.0
 92
        8
 66
     8
424
  7895160
 43
1.0
 76
     1
 77
     6
 78
     2
 67
     7
 79
     5
170
     0
171
     0
290
     0
174
     0
 93
       13
 44
0.0
173
     0
291
     0
 45
0.0
1001
ACAD
1000
AcDbSavedByObjectVersion
1070
     0
  0
VISUALSTYLE
  5
37
102
{ACAD_REACTORS
330
2A
102
}
102
{ACAD_XDICTIONARY
360
298
102
}
330
2A
100
AcDbVisualStyle
  2
Thicken
 70
    13
 71
     2
 72
     2
 73
     0
 90
        0
 40
-0.6
 41
-30.0
 62
     5
 63
     7
421
 16777215
 74
     1
 91
        4
 64
     7
 65
   257
 75
     1
175
     1
 42
1.0
 92
       12
 66
     7
 43
1.0
 76
     1
 77
     6
 78
     2
 67
     7
 79
     5
170
     0
171
     0
290
     0
174
     0
 93
        1
 44
0.0
173
     0
291
     1
 45
0.0
1001
ACAD
1000
AcDbSavedByObjectVersion
1070
     0
  0
DICTIONARY
  5
2A2
330
3D
100
AcDbDictionary
280
     1
281
     1
  3
ACAD_XREC_ROUNDTRIP
360
2A3
  0
DICTIONARY
  5
2A0
330
3C
100
AcDbDictionary
280
     1
281
     1
  3
ACAD_XREC_ROUNDTRIP
360
2A1
  0
DICTIONARY
  5
2A4
330
3E
100
AcDbDictionary
280
     1
281
     1
  3
ACAD_XREC_ROUNDTRIP
360
2A5
  0
DICTIONARY
  5
288
330
2F
100
AcDbDictionary
280
     1
281
     1
  3
ACAD_XREC_ROUNDTRIP
360
289
  0
DICTIONARY
  5
28C
330
31
100
AcDbDictionary
280
     1
281
     1
  3
ACAD_XREC_ROUNDTRIP
360
28D
  0
DICTIONARY
  5
28A
330
30
100
AcDbDictionary
280
     1
281
     1
  3
ACAD_XREC_ROUNDTRIP
360
28B
  0
DICTIONARY
  5
28E
330
32
100
AcDbDictionary
280
     1
281
     1
  3
ACAD_XREC_ROUNDTRIP
360
28F
  0
DICTIONARY
  5
296
330
36
100
AcDbDictionary
280
     1
281
     1
  3
ACAD_XREC_ROUNDTRIP
360
297
  0
DICTIONARY
  5
29E
330
3A
100
AcDbDictionary
280
     1
281
     1
  3
ACAD_XREC_ROUNDTRIP
360
29F
  0
DICTIONARY
  5
292
330
34
100
AcDbDictionary
280
     1
281
     1
  3
ACAD_XREC_ROUNDTRIP
360
293
  0
DICTIONARY
  5
294
330
35
100
AcDbDictionary
280
     1
281
     1
  3
ACAD_XREC_ROUNDTRIP
360
295
  0
DICTIONARY
  5
29C
330
39
100
AcDbDictionary
280
     1
281
     1
  3
ACAD_XREC_ROUNDTRIP
360
29D
  0
DICTIONARY
  5
280
330
2B
100
AcDbDictionary
280
     1
281
     1
  3
ACAD_XREC_ROUNDTRIP
360
281
  0
DICTIONARY
  5
282
330
2C
100
AcDbDictionary
280
     1
281
     1
  3
ACAD_XREC_ROUNDTRIP
360
283
  0
DICTIONARY
  5
284
330
2D
100
AcDbDictionary
280
     1
281
     1
  3
ACAD_XREC_ROUNDTRIP
360
285
  0
DICTIONARY
  5
286
330
2E
100
AcDbDictionary
280
     1
281
     1
  3
ACAD_XREC_ROUNDTRIP
360
287
  0
DICTIONARY
  5
29A
330
38
100
AcDbDictionary
280
     1
281
     1
  3
ACAD_XREC_ROUNDTRIP
360
29B
  0
DICTIONARY
  5
290
330
33
100
AcDbDictionary
280
     1
281
     1
  3
ACAD_XREC_ROUNDTRIP
360
291
  0
DICTIONARY
  5
298
330
37
100
AcDbDictionary
280
     1
281
     1
  3
ACAD_XREC_ROUNDTRIP
360
299
  0
XRECORD
  5
2A3
102
{ACAD_REACTORS
330
2A2
102
}
330
2A2
100
AcDbXrecord
280
     1
102
MATERIAL
148
0.0
149
0.0
149
0.0
 93
        0
 94
      127
282
     0
 72
     1
 77
     1
171
     1
175
     1
179
     1
273
     0
  0
XRECORD
  5
2A1
102
{ACAD_REACTORS
330
2A0
102
}
330
2A0
100
AcDbXrecord
280
     1
102
MATERIAL
148
0.0
149
0.0
149
0.0
 93
        0
 94
      127
282
     0
 72
     1
 77
     1
171
     1
175
     1
179
     1
273
     0
  0
XRECORD
  5
2A5
102
{ACAD_REACTORS
330
2A4
102
}
330
2A4
100
AcDbXrecord
280
     1
102
MATERIAL
148
0.0
149
0.0
149
0.0
 93
        0
 94
      127
282
     0
 72
     1
 77
     1
171
     1
175
     1
179
     1
273
     0
  0
XRECORD
  5
289
102
{ACAD_REACTORS
330
288
102
}
330
288
100
AcDbXrecord
280
     1
102
RTVSPropertyOp0
 70
     1
102
RTVSPropertyOp1
 70
     1
102
RTVSPropertyOp2
 70
     1
102
RTVSPropertyOp3
 70
     1
102
RTVSPropertyOp4
 70
     1
102
RTVSPropertyOp5
 70
     1
102
RTVSPropertyOp6
 70
     1
102
RTVSPropertyOp7
 70
     1
102
RTVSPropertyOp8
 70
     1
102
RTVSPropertyOp9
 70
     1
102
RTVSPropertyOp10
 70
     1
102
RTVSPropertyOp11
 70
     1
102
RTVSPropertyOp12
 70
     1
102
RTVSPropertyOp13
 70
     1
102
RTVSPropertyOp14
 70
     1
102
RTVSPropertyOp15
 70
     1
102
RTVSPropertyOp16
 70
     1
102
RTVSPropertyOp17
 70
     1
102
RTVSPropertyOp18
 70
     1
102
RTVSPropertyOp19
 70
     1
102
RTVSPropertyOp20
 70
     1
102
RTVSPropertyOp21
 70
     1
102
RTVSPropertyOp22
 70
     1
102
RTVSPropertyOp23
 70
     1
102
RTVSPropertyOp24
 70
     1
102
RTVSPropertyOp25
 70
     1
102
RTVSPropertyOp26
 70
     1
102
RTVSPropertyOp27
 70
     1
102
RTVSPropertyOp28
 70
     1
102
RTVSPropertyOp29
 70
     1
102
RTVSPropertyOp30
 70
     1
102
RTVSPropertyOp31
 70
     1
102
RTVSPropertyOp32
 70
     1
  0
XRECORD
  5
28D
102
{ACAD_REACTORS
330
28C
102
}
330
28C
100
AcDbXrecord
280
     1
102
RTVSPropertyOp0
 70
     1
102
RTVSPropertyOp1
 70
     1
102
RTVSPropertyOp2
 70
     1
102
RTVSPropertyOp3
 70
     1
102
RTVSPropertyOp4
 70
     1
102
RTVSPropertyOp5
 70
     1
102
RTVSPropertyOp6
 70
     1
102
RTVSPropertyOp7
 70
     1
102
RTVSPropertyOp8
 70
     1
102
RTVSPropertyOp9
 70
     1
102
RTVSPropertyOp10
 70
     1
102
RTVSPropertyOp11
 70
     1
102
RTVSPropertyOp12
 70
     1
102
RTVSPropertyOp13
 70
     1
102
RTVSPropertyOp14
 70
     1
102
RTVSPropertyOp15
 70
     1
102
RTVSPropertyOp16
 70
     1
102
RTVSPropertyOp17
 70
     1
102
RTVSPropertyOp18
 70
     1
102
RTVSPropertyOp19
 70
     1
102
RTVSPropertyOp20
 70
     1
102
RTVSPropertyOp21
 70
     1
102
RTVSPropertyOp22
 70
     1
102
RTVSPropertyOp23
 70
     1
102
RTVSPropertyOp24
 70
     1
102
RTVSPropertyOp25
 70
     1
102
RTVSPropertyOp26
 70
     1
102
RTVSPropertyOp27
 70
     1
102
RTVSPropertyOp28
 70
     1
102
RTVSPropertyOp29
 70
     1
102
RTVSPropertyOp30
 70
     1
102
RTVSPropertyOp31
 70
     1
102
RTVSPropertyOp32
 70
     1
  0
XRECORD
  5
28B
102
{ACAD_REACTORS
330
28A
102
}
330
28A
100
AcDbXrecord
280
     1
102
RTVSPropertyOp0
 70
     1
102
RTVSPropertyOp1
 70
     1
102
RTVSPropertyOp2
 70
     1
102
RTVSPropertyOp3
 70
     1
102
RTVSPropertyOp4
 70
     1
102
RTVSPropertyOp5
 70
     1
102
RTVSPropertyOp6
 70
     1
102
RTVSPropertyOp7
 70
     1
102
RTVSPropertyOp8
 70
     1
102
RTVSPropertyOp9
 70
     1
102
RTVSPropertyOp10
 70
     1
102
RTVSPropertyOp11
 70
     1
102
RTVSPropertyOp12
 70
     1
102
RTVSPropertyOp13
 70
     1
102
RTVSPropertyOp14
 70
     1
102
RTVSPropertyOp15
 70
     1
102
RTVSPropertyOp16
 70
     1
102
RTVSPropertyOp17
 70
     1
102
RTVSPropertyOp18
 70
     1
102
RTVSPropertyOp19
 70
     1
102
RTVSPropertyOp20
 70
     1
102
RTVSPropertyOp21
 70
     1
102
RTVSPropertyOp22
 70
     1
102
RTVSPropertyOp23
 70
     1
102
RTVSPropertyOp24
 70
     1
102
RTVSPropertyOp25
 70
     1
102
RTVSPropertyOp26
 70
     1
102
RTVSPropertyOp27
 70
     1
102
RTVSPropertyOp28
 70
     1
102
RTVSPropertyOp29
 70
     1
102
RTVSPropertyOp30
 70
     1
102
RTVSPropertyOp31
 70
     1
102
RTVSPropertyOp32
 70
     1
  0
XRECORD
  5
28F
102
{ACAD_REACTORS
330
28E
102
}
330
28E
100
AcDbXrecord
280
     1
102
RTVSPropertyOp0
 70
     1
102
RTVSPropertyOp1
 70
     1
102
RTVSPropertyOp2
 70
     1
102
RTVSPropertyOp3
 70
     1
102
RTVSPropertyOp4
 70
     1
102
RTVSPropertyOp5
 70
     1
102
RTVSPropertyOp6
 70
     1
102
RTVSPropertyOp7
 70
     1
102
RTVSPropertyOp8
 70
     1
102
RTVSPropertyOp9
 70
     1
102
RTVSPropertyOp10
 70
     1
102
RTVSPropertyOp11
 70
     1
102
RTVSPropertyOp12
 70
     1
102
RTVSPropertyOp13
 70
     1
102
RTVSPropertyOp14
 70
     1
102
RTVSPropertyOp15
 70
     1
102
RTVSPropertyOp16
 70
     1
102
RTVSPropertyOp17
 70
     1
102
RTVSPropertyOp18
 70
     1
102
RTVSPropertyOp19
 70
     1
102
RTVSPropertyOp20
 70
     1
102
RTVSPropertyOp21
 70
     1
102
RTVSPropertyOp22
 70
     1
102
RTVSPropertyOp23
 70
     1
102
RTVSPropertyOp24
 70
     1
102
RTVSPropertyOp25
 70
     1
102
RTVSPropertyOp26
 70
     1
102
RTVSPropertyOp27
 70
     1
102
RTVSPropertyOp28
 70
     1
102
RTVSPropertyOp29
 70
     1
102
RTVSPropertyOp30
 70
     1
102
RTVSPropertyOp31
 70
     1
102
RTVSPropertyOp32
 70
     1
  0
XRECORD
  5
297
102
{ACAD_REACTORS
330
296
102
}
330
296
100
AcDbXrecord
280
     1
102
RTVSPropertyOp0
 70
     1
102
RTVSPropertyOp1
 70
     1
102
RTVSPropertyOp2
 70
     1
102
RTVSPropertyOp3
 70
     1
102
RTVSPropertyOp4
 70
     1
102
RTVSPropertyOp5
 70
     1
102
RTVSPropertyOp6
 70
     1
102
RTVSPropertyOp7
 70
     1
102
RTVSPropertyOp8
 70
     1
102
RTVSPropertyOp9
 70
     1
102
RTVSPropertyOp10
 70
     1
102
RTVSPropertyOp11
 70
     1
102
RTVSPropertyOp12
 70
     1
102
RTVSPropertyOp13
 70
     1
102
RTVSPropertyOp14
 70
     1
102
RTVSPropertyOp15
 70
     1
102
RTVSPropertyOp16
 70
     1
102
RTVSPropertyOp17
 70
     1
102
RTVSPropertyOp18
 70
     1
102
RTVSPropertyOp19
 70
     1
102
RTVSPropertyOp20
 70
     1
102
RTVSPropertyOp21
 70
     1
102
RTVSPropertyOp22
 70
     1
102
RTVSPropertyOp23
 70
     1
102
RTVSPropertyOp24
 70
     1
102
RTVSPropertyOp25
 70
     1
102
RTVSPropertyOp26
 70
     1
102
RTVSPropertyOp27
 70
     1
102
RTVSPropertyOp28
 70
     1
102
RTVSPropertyOp29
 70
     1
102
RTVSPropertyOp30
 70
     1
102
RTVSPropertyOp31
 70
     1
102
RTVSPropertyOp32
 70
     1
  0
XRECORD
  5
29F
102
{ACAD_REACTORS
330
29E
102
}
330
29E
100
AcDbXrecord
280
     1
102
RTVSPropertyOp0
 70
     1
102
RTVSPropertyOp1
 70
     1
102
RTVSPropertyOp2
 70
     1
102
RTVSPropertyOp3
 70
     1
102
RTVSPropertyOp4
 70
     1
102
RTVSPropertyOp5
 70
     1
102
RTVSPropertyOp6
 70
     1
102
RTVSPropertyOp7
 70
     1
102
RTVSPropertyOp8
 70
     1
102
RTVSPropertyOp9
 70
     1
102
RTVSPropertyOp10
 70
     1
102
RTVSPropertyOp11
 70
     1
102
RTVSPropertyOp12
 70
     1
102
RTVSPropertyOp13
 70
     1
102
RTVSPropertyOp14
 70
     1
102
RTVSPropertyOp15
 70
     1
102
RTVSPropertyOp16
 70
     1
102
RTVSPropertyOp17
 70
     1
102
RTVSPropertyOp18
 70
     1
102
RTVSPropertyOp19
 70
     1
102
RTVSPropertyOp20
 70
     1
102
RTVSPropertyOp21
 70
     1
102
RTVSPropertyOp22
 70
     1
102
RTVSPropertyOp23
 70
     1
102
RTVSPropertyOp24
 70
     1
102
RTVSPropertyOp25
 70
     1
102
RTVSPropertyOp26
 70
     1
102
RTVSPropertyOp27
 70
     1
102
RTVSPropertyOp28
 70
     1
102
RTVSPropertyOp29
 70
     1
102
RTVSPropertyOp30
 70
     1
102
RTVSPropertyOp31
 70
     1
102
RTVSPropertyOp32
 70
     1
  0
XRECORD
  5
293
102
{ACAD_REACTORS
330
292
102
}
330
292
100
AcDbXrecord
280
     1
102
RTVSPropertyOp0
 70
     1
102
RTVSPropertyOp1
 70
     1
102
RTVSPropertyOp2
 70
     1
102
RTVSPropertyOp3
 70
     1
102
RTVSPropertyOp4
 70
     1
102
RTVSPropertyOp5
 70
     1
102
RTVSPropertyOp6
 70
     1
102
RTVSPropertyOp7
 70
     1
102
RTVSPropertyOp8
 70
     1
102
RTVSPropertyOp9
 70
     1
102
RTVSPropertyOp10
 70
     1
102
RTVSPropertyOp11
 70
     1
102
RTVSPropertyOp12
 70
     1
102
RTVSPropertyOp13
 70
     1
102
RTVSPropertyOp14
 70
     1
102
RTVSPropertyOp15
 70
     1
102
RTVSPropertyOp16
 70
     1
102
RTVSPropertyOp17
 70
     1
102
RTVSPropertyOp18
 70
     1
102
RTVSPropertyOp19
 70
     1
102
RTVSPropertyOp20
 70
     1
102
RTVSPropertyOp21
 70
     1
102
RTVSPropertyOp22
 70
     1
102
RTVSPropertyOp23
 70
     1
102
RTVSPropertyOp24
 70
     1
102
RTVSPropertyOp25
 70
     1
102
RTVSPropertyOp26
 70
     1
102
RTVSPropertyOp27
 70
     1
102
RTVSPropertyOp28
 70
     1
102
RTVSPropertyOp29
 70
     1
102
RTVSPropertyOp30
 70
     1
102
RTVSPropertyOp31
 70
     1
102
RTVSPropertyOp32
 70
     1
  0
XRECORD
  5
295
102
{ACAD_REACTORS
330
294
102
}
330
294
100
AcDbXrecord
280
     1
102
RTVSPropertyOp0
 70
     1
102
RTVSPropertyOp1
 70
     1
102
RTVSPropertyOp2
 70
     1
102
RTVSPropertyOp3
 70
     1
102
RTVSPropertyOp4
 70
     1
102
RTVSPropertyOp5
 70
     1
102
RTVSPropertyOp6
 70
     1
102
RTVSPropertyOp7
 70
     1
102
RTVSPropertyOp8
 70
     1
102
RTVSPropertyOp9
 70
     1
102
RTVSPropertyOp10
 70
     1
102
RTVSPropertyOp11
 70
     1
102
RTVSPropertyOp12
 70
     1
102
RTVSPropertyOp13
 70
     1
102
RTVSPropertyOp14
 70
     1
102
RTVSPropertyOp15
 70
     1
102
RTVSPropertyOp16
 70
     1
102
RTVSPropertyOp17
 70
     1
102
RTVSPropertyOp18
 70
     1
102
RTVSPropertyOp19
 70
     1
102
RTVSPropertyOp20
 70
     1
102
RTVSPropertyOp21
 70
     1
102
RTVSPropertyOp22
 70
     1
102
RTVSPropertyOp23
 70
     1
102
RTVSPropertyOp24
 70
     1
102
RTVSPropertyOp25
 70
     1
102
RTVSPropertyOp26
 70
     1
102
RTVSPropertyOp27
 70
     1
102
RTVSPropertyOp28
 70
     1
102
RTVSPropertyOp29
 70
     1
102
RTVSPropertyOp30
 70
     1
102
RTVSPropertyOp31
 70
     1
102
RTVSPropertyOp32
 70
     1
  0
XRECORD
  5
29D
102
{ACAD_REACTORS
330
29C
102
}
330
29C
100
AcDbXrecord
280
     1
102
RTVSPropertyOp0
 70
     1
102
RTVSPropertyOp1
 70
     1
102
RTVSPropertyOp2
 70
     1
102
RTVSPropertyOp3
 70
     1
102
RTVSPropertyOp4
 70
     1
102
RTVSPropertyOp5
 70
     1
102
RTVSPropertyOp6
 70
     1
102
RTVSPropertyOp7
 70
     1
102
RTVSPropertyOp8
 70
     1
102
RTVSPropertyOp9
 70
     1
102
RTVSPropertyOp10
 70
     1
102
RTVSPropertyOp11
 70
     1
102
RTVSPropertyOp12
 70
     1
102
RTVSPropertyOp13
 70
     1
102
RTVSPropertyOp14
 70
     1
102
RTVSPropertyOp15
 70
     1
102
RTVSPropertyOp16
 70
     1
102
RTVSPropertyOp17
 70
     1
102
RTVSPropertyOp18
 70
     1
102
RTVSPropertyOp19
 70
     1
102
RTVSPropertyOp20
 70
     1
102
RTVSPropertyOp21
 70
     1
102
RTVSPropertyOp22
 70
     1
102
RTVSPropertyOp23
 70
     1
102
RTVSPropertyOp24
 70
     1
102
RTVSPropertyOp25
 70
     1
102
RTVSPropertyOp26
 70
     1
102
RTVSPropertyOp27
 70
     1
102
RTVSPropertyOp28
 70
     1
102
RTVSPropertyOp29
 70
     1
102
RTVSPropertyOp30
 70
     1
102
RTVSPropertyOp31
 70
     1
102
RTVSPropertyOp32
 70
     1
  0
XRECORD
  5
281
102
{ACAD_REACTORS
330
280
102
}
330
280
100
AcDbXrecord
280
     1
102
RTVSPropertyOp0
 70
     1
102
RTVSPropertyOp1
 70
     1
102
RTVSPropertyOp2
 70
     1
102
RTVSPropertyOp3
 70
     1
102
RTVSPropertyOp4
 70
     1
102
RTVSPropertyOp5
 70
     1
102
RTVSPropertyOp6
 70
     1
102
RTVSPropertyOp7
 70
     1
102
RTVSPropertyOp8
 70
     1
102
RTVSPropertyOp9
 70
     1
102
RTVSPropertyOp10
 70
     1
102
RTVSPropertyOp11
 70
     1
102
RTVSPropertyOp12
 70
     1
102
RTVSPropertyOp13
 70
     1
102
RTVSPropertyOp14
 70
     1
102
RTVSPropertyOp15
 70
     1
102
RTVSPropertyOp16
 70
     1
102
RTVSPropertyOp17
 70
     1
102
RTVSPropertyOp18
 70
     1
102
RTVSPropertyOp19
 70
     1
102
RTVSPropertyOp20
 70
     1
102
RTVSPropertyOp21
 70
     1
102
RTVSPropertyOp22
 70
     1
102
RTVSPropertyOp23
 70
     1
102
RTVSPropertyOp24
 70
     1
102
RTVSPropertyOp25
 70
     1
102
RTVSPropertyOp26
 70
     1
102
RTVSPropertyOp27
 70
     1
102
RTVSPropertyOp28
 70
     1
102
RTVSPropertyOp29
 70
     1
102
RTVSPropertyOp30
 70
     1
102
RTVSPropertyOp31
 70
     1
102
RTVSPropertyOp32
 70
     1
  0
XRECORD
  5
283
102
{ACAD_REACTORS
330
282
102
}
330
282
100
AcDbXrecord
280
     1
102
RTVSPropertyOp0
 70
     1
102
RTVSPropertyOp1
 70
     1
102
RTVSPropertyOp2
 70
     1
102
RTVSPropertyOp3
 70
     1
102
RTVSPropertyOp4
 70
     1
102
RTVSPropertyOp5
 70
     1
102
RTVSPropertyOp6
 70
     1
102
RTVSPropertyOp7
 70
     1
102
RTVSPropertyOp8
 70
     1
102
RTVSPropertyOp9
 70
     1
102
RTVSPropertyOp10
 70
     1
102
RTVSPropertyOp11
 70
     1
102
RTVSPropertyOp12
 70
     1
102
RTVSPropertyOp13
 70
     1
102
RTVSPropertyOp14
 70
     1
102
RTVSPropertyOp15
 70
     1
102
RTVSPropertyOp16
 70
     1
102
RTVSPropertyOp17
 70
     1
102
RTVSPropertyOp18
 70
     1
102
RTVSPropertyOp19
 70
     1
102
RTVSPropertyOp20
 70
     1
102
RTVSPropertyOp21
 70
     1
102
RTVSPropertyOp22
 70
     1
102
RTVSPropertyOp23
 70
     1
102
RTVSPropertyOp24
 70
     1
102
RTVSPropertyOp25
 70
     1
102
RTVSPropertyOp26
 70
     1
102
RTVSPropertyOp27
 70
     1
102
RTVSPropertyOp28
 70
     1
102
RTVSPropertyOp29
 70
     1
102
RTVSPropertyOp30
 70
     1
102
RTVSPropertyOp31
 70
     1
102
RTVSPropertyOp32
 70
     1
  0
XRECORD
  5
285
102
{ACAD_REACTORS
330
284
102
}
330
284
100
AcDbXrecord
280
     1
102
RTVSPropertyOp0
 70
     1
102
RTVSPropertyOp1
 70
     1
102
RTVSPropertyOp2
 70
     1
102
RTVSPropertyOp3
 70
     1
102
RTVSPropertyOp4
 70
     1
102
RTVSPropertyOp5
 70
     1
102
RTVSPropertyOp6
 70
     1
102
RTVSPropertyOp7
 70
     1
102
RTVSPropertyOp8
 70
     1
102
RTVSPropertyOp9
 70
     1
102
RTVSPropertyOp10
 70
     1
102
RTVSPropertyOp11
 70
     1
102
RTVSPropertyOp12
 70
     1
102
RTVSPropertyOp13
 70
     1
102
RTVSPropertyOp14
 70
     1
102
RTVSPropertyOp15
 70
     1
102
RTVSPropertyOp16
 70
     1
102
RTVSPropertyOp17
 70
     1
102
RTVSPropertyOp18
 70
     1
102
RTVSPropertyOp19
 70
     1
102
RTVSPropertyOp20
 70
     1
102
RTVSPropertyOp21
 70
     1
102
RTVSPropertyOp22
 70
     1
102
RTVSPropertyOp23
 70
     1
102
RTVSPropertyOp24
 70
     1
102
RTVSPropertyOp25
 70
     1
102
RTVSPropertyOp26
 70
     1
102
RTVSPropertyOp27
 70
     1
102
RTVSPropertyOp28
 70
     1
102
RTVSPropertyOp29
 70
     1
102
RTVSPropertyOp30
 70
     1
102
RTVSPropertyOp31
 70
     1
102
RTVSPropertyOp32
 70
     1
  0
XRECORD
  5
287
102
{ACAD_REACTORS
330
286
102
}
330
286
100
AcDbXrecord
280
     1
102
RTVSPropertyOp0
 70
     1
102
RTVSPropertyOp1
 70
     1
102
RTVSPropertyOp2
 70
     1
102
RTVSPropertyOp3
 70
     1
102
RTVSPropertyOp4
 70
     1
102
RTVSPropertyOp5
 70
     1
102
RTVSPropertyOp6
 70
     1
102
RTVSPropertyOp7
 70
     1
102
RTVSPropertyOp8
 70
     1
102
RTVSPropertyOp9
 70
     1
102
RTVSPropertyOp10
 70
     1
102
RTVSPropertyOp11
 70
     1
102
RTVSPropertyOp12
 70
     1
102
RTVSPropertyOp13
 70
     1
102
RTVSPropertyOp14
 70
     1
102
RTVSPropertyOp15
 70
     1
102
RTVSPropertyOp16
 70
     1
102
RTVSPropertyOp17
 70
     1
102
RTVSPropertyOp18
 70
     1
102
RTVSPropertyOp19
 70
     1
102
RTVSPropertyOp20
 70
     1
102
RTVSPropertyOp21
 70
     1
102
RTVSPropertyOp22
 70
     1
102
RTVSPropertyOp23
 70
     1
102
RTVSPropertyOp24
 70
     1
102
RTVSPropertyOp25
 70
     1
102
RTVSPropertyOp26
 70
     1
102
RTVSPropertyOp27
 70
     1
102
RTVSPropertyOp28
 70
     1
102
RTVSPropertyOp29
 70
     1
102
RTVSPropertyOp30
 70
     1
102
RTVSPropertyOp31
 70
     1
102
RTVSPropertyOp32
 70
     1
  0
XRECORD
  5
29B
102
{ACAD_REACTORS
330
29A
102
}
330
29A
100
AcDbXrecord
280
     1
102
RTVSPropertyOp0
 70
     1
102
RTVSPropertyOp1
 70
     1
102
RTVSPropertyOp2
 70
     1
102
RTVSPropertyOp3
 70
     1
102
RTVSPropertyOp4
 70
     1
102
RTVSPropertyOp5
 70
     1
102
RTVSPropertyOp6
 70
     1
102
RTVSPropertyOp7
 70
     1
102
RTVSPropertyOp8
 70
     1
102
RTVSPropertyOp9
 70
     1
102
RTVSPropertyOp10
 70
     1
102
RTVSPropertyOp11
 70
     1
102
RTVSPropertyOp12
 70
     1
102
RTVSPropertyOp13
 70
     1
102
RTVSPropertyOp14
 70
     1
102
RTVSPropertyOp15
 70
     1
102
RTVSPropertyOp16
 70
     1
102
RTVSPropertyOp17
 70
     1
102
RTVSPropertyOp18
 70
     1
102
RTVSPropertyOp19
 70
     1
102
RTVSPropertyOp20
 70
     1
102
RTVSPropertyOp21
 70
     1
102
RTVSPropertyOp22
 70
     1
102
RTVSPropertyOp23
 70
     1
102
RTVSPropertyOp24
 70
     1
102
RTVSPropertyOp25
 70
     1
102
RTVSPropertyOp26
 70
     1
102
RTVSPropertyOp27
 70
     1
102
RTVSPropertyOp28
 70
     1
102
RTVSPropertyOp29
 70
     1
102
RTVSPropertyOp30
 70
     1
102
RTVSPropertyOp31
 70
     1
102
RTVSPropertyOp32
 70
     1
  0
XRECORD
  5
291
102
{ACAD_REACTORS
330
290
102
}
330
290
100
AcDbXrecord
280
     1
102
RTVSPropertyOp0
 70
     1
102
RTVSPropertyOp1
 70
     1
102
RTVSPropertyOp2
 70
     1
102
RTVSPropertyOp3
 70
     1
102
RTVSPropertyOp4
 70
     1
102
RTVSPropertyOp5
 70
     1
102
RTVSPropertyOp6
 70
     1
102
RTVSPropertyOp7
 70
     1
102
RTVSPropertyOp8
 70
     1
102
RTVSPropertyOp9
 70
     1
102
RTVSPropertyOp10
 70
     1
102
RTVSPropertyOp11
 70
     1
102
RTVSPropertyOp12
 70
     1
102
RTVSPropertyOp13
 70
     1
102
RTVSPropertyOp14
 70
     1
102
RTVSPropertyOp15
 70
     1
102
RTVSPropertyOp16
 70
     1
102
RTVSPropertyOp17
 70
     1
102
RTVSPropertyOp18
 70
     1
102
RTVSPropertyOp19
 70
     1
102
RTVSPropertyOp20
 70
     1
102
RTVSPropertyOp21
 70
     1
102
RTVSPropertyOp22
 70
     1
102
RTVSPropertyOp23
 70
     1
102
RTVSPropertyOp24
 70
     1
102
RTVSPropertyOp25
 70
     1
102
RTVSPropertyOp26
 70
     1
102
RTVSPropertyOp27
 70
     1
102
RTVSPropertyOp28
 70
     1
102
RTVSPropertyOp29
 70
     1
102
RTVSPropertyOp30
 70
     1
102
RTVSPropertyOp31
 70
     1
102
RTVSPropertyOp32
 70
     1
  0
XRECORD
  5
299
102
{ACAD_REACTORS
330
298
102
}
330
298
100
AcDbXrecord
280
     1
102
RTVSPropertyOp0
 70
     1
102
RTVSPropertyOp1
 70
     1
102
RTVSPropertyOp2
 70
     1
102
RTVSPropertyOp3
 70
     1
102
RTVSPropertyOp4
 70
     1
102
RTVSPropertyOp5
 70
     1
102
RTVSPropertyOp6
 70
     1
102
RTVSPropertyOp7
 70
     1
102
RTVSPropertyOp8
 70
     1
102
RTVSPropertyOp9
 70
     1
102
RTVSPropertyOp10
 70
     1
102
RTVSPropertyOp11
 70
     1
102
RTVSPropertyOp12
 70
     1
102
RTVSPropertyOp13
 70
     1
102
RTVSPropertyOp14
 70
     1
102
RTVSPropertyOp15
 70
     1
102
RTVSPropertyOp16
 70
     1
102
RTVSPropertyOp17
 70
     1
102
RTVSPropertyOp18
 70
     1
102
RTVSPropertyOp19
 70
     1
102
RTVSPropertyOp20
 70
     1
102
RTVSPropertyOp21
 70
     1
102
RTVSPropertyOp22
 70
     1
102
RTVSPropertyOp23
 70
     1
102
RTVSPropertyOp24
 70
     1
102
RTVSPropertyOp25
 70
     1
102
RTVSPropertyOp26
 70
     1
102
RTVSPropertyOp27
 70
     1
102
RTVSPropertyOp28
 70
     1
102
RTVSPropertyOp29
 70
     1
102
RTVSPropertyOp30
 70
     1
102
RTVSPropertyOp31
 70
     1
102
RTVSPropertyOp32
 70
     1
  0
ENDSEC
  0
EOF
