  0
SECTION
  2
HEADER
  9
$ACADVER
  1
AC1018
  9
$ACADMAINTVER
 70
     0
  9
$DWGCODEPAGE
  3
ANSI_1252
  9
$INSBASE
 10
0.0
 20
0.0
 30
0.0
  9
$EXTMIN
 10
-229.9724044104708
 20
0.45211817846632
 30
0.0
  9
$EXTMAX
 10
67.0275955895273
 20
210.4521181784664
 30
0.0
  9
$LIMMIN
 10
0.0
 20
0.0
  9
$LIMMAX
 10
12.0
 20
9.0
  9
$ORTHOMODE
 70
     0
  9
$REGENMODE
 70
     1
  9
$FILLMODE
 70
     1
  9
$QTEXTMODE
 70
     0
  9
$MIRRTEXT
 70
     1
  9
$LTSCALE
 40
1.0
  9
$ATTMODE
 70
     1
  9
$TEXTSIZE
 40
0.2
  9
$TRACEWID
 40
0.05
  9
$TEXTSTYLE
  7
Standard
  9
$CLAYER
  8
0
  9
$CELTYPE
  6
ByLayer
  9
$CECOLOR
 62
   256
  9
$CELTSCALE
 40
1.0
  9
$DISPSILH
 70
     0
  9
$DIMSCALE
 40
1.0
  9
$DIMASZ
 40
0.18
  9
$DIMEXO
 40
0.0625
  9
$DIMDLI
 40
0.38
  9
$DIMRND
 40
0.0
  9
$DIMDLE
 40
0.0
  9
$DIMEXE
 40
0.18
  9
$DIMTP
 40
0.0
  9
$DIMTM
 40
0.0
  9
$DIMTXT
 40
0.18
  9
$DIMCEN
 40
0.09
  9
$DIMTSZ
 40
0.0
  9
$DIMTOL
 70
     0
  9
$DIMLIM
 70
     0
  9
$DIMTIH
 70
     1
  9
$DIMTOH
 70
     1
  9
$DIMSE1
 70
     0
  9
$DIMSE2
 70
     0
  9
$DIMTAD
 70
     0
  9
$DIMZIN
 70
     0
  9
$DIMBLK
  1

  9
$DIMASO
 70
     1
  9
$DIMSHO
 70
     1
  9
$DIMPOST
  1

  9
$DIMAPOST
  1

  9
$DIMALT
 70
     0
  9
$DIMALTD
 70
     2
  9
$DIMALTF
 40
25.4
  9
$DIMLFAC
 40
1.0
  9
$DIMTOFL
 70
     0
  9
$DIMTVP
 40
0.0
  9
$DIMTIX
 70
     0
  9
$DIMSOXD
 70
     0
  9
$DIMSAH
 70
     0
  9
$DIMBLK1
  1

  9
$DIMBLK2
  1

  9
$DIMSTYLE
  2
Standard
  9
$DIMCLRD
 70
     0
  9
$DIMCLRE
 70
     0
  9
$DIMCLRT
 70
     0
  9
$DIMTFAC
 40
1.0
  9
$DIMGAP
 40
0.09
  9
$DIMJUST
 70
     0
  9
$DIMSD1
 70
     0
  9
$DIMSD2
 70
     0
  9
$DIMTOLJ
 70
     1
  9
$DIMTZIN
 70
     0
  9
$DIMALTZ
 70
     0
  9
$DIMALTTZ
 70
     0
  9
$DIMUPT
 70
     0
  9
$DIMDEC
 70
     4
  9
$DIMTDEC
 70
     4
  9
$DIMALTU
 70
     2
  9
$DIMALTTD
 70
     2
  9
$DIMTXSTY
  7
Standard
  9
$DIMAUNIT
 70
     0
  9
$DIMADEC
 70
     0
  9
$DIMALTRND
 40
0.0
  9
$DIMAZIN
 70
     0
  9
$DIMDSEP
 70
    46
  9
$DIMATFIT
 70
     3
  9
$DIMFRAC
 70
     0
  9
$DIMLDRBLK
  1

  9
$DIMLUNIT
 70
     2
  9
$DIMLWD
 70
    -2
  9
$DIMLWE
 70
    -2
  9
$DIMTMOVE
 70
     0
  9
$LUNITS
 70
     2
  9
$LUPREC
 70
     4
  9
$SKETCHINC
 40
0.1
  9
$FILLETRAD
 40
0.5
  9
$AUNITS
 70
     0
  9
$AUPREC
 70
     0
  9
$MENU
  1
.
  9
$ELEVATION
 40
0.0
  9
$PELEVATION
 40
0.0
  9
$THICKNESS
 40
0.0
  9
$LIMCHECK
 70
     0
  9
$CHAMFERA
 40
0.5
  9
$CHAMFERB
 40
0.5
  9
$CHAMFERC
 40
1.0
  9
$CHAMFERD
 40
0.0
  9
$SKPOLY
 70
     0
  9
$TDCREATE
 40
2458127.399140972
  9
$TDUCREATE
 40
2458127.357474306
  9
$TDUPDATE
 40
2458127.399141504
  9
$TDUUPDATE
 40
2458127.357474838
  9
$TDINDWG
 40
0.0000000116
  9
$TDUSRTIMER
 40
0.0000000116
  9
$USRTIMER
 70
     1
  9
$ANGBASE
 50
0.0
  9
$ANGDIR
 70
     0
  9
$PDMODE
 70
     0
  9
$PDSIZE
 40
0.0
  9
$PLINEWID
 40
0.0
  9
$SPLFRAME
 70
     0
  9
$SPLINETYPE
 70
     6
  9
$SPLINESEGS
 70
     8
  9
$HANDSEED
  5
253
  9
$SURFTAB1
 70
     6
  9
$SURFTAB2
 70
     6
  9
$SURFTYPE
 70
     6
  9
$SURFU
 70
     6
  9
$SURFV
 70
     6
  9
$UCSBASE
  2

  9
$UCSNAME
  2

  9
$UCSORG
 10
0.0
 20
0.0
 30
0.0
  9
$UCSXDIR
 10
1.0
 20
0.0
 30
0.0
  9
$UCSYDIR
 10
0.0
 20
1.0
 30
0.0
  9
$UCSORTHOREF
  2

  9
$UCSORTHOVIEW
 70
     0
  9
$UCSORGTOP
 10
0.0
 20
0.0
 30
0.0
  9
$UCSORGBOTTOM
 10
0.0
 20
0.0
 30
0.0
  9
$UCSORGLEFT
 10
0.0
 20
0.0
 30
0.0
  9
$UCSORGRIGHT
 10
0.0
 20
0.0
 30
0.0
  9
$UCSORGFRONT
 10
0.0
 20
0.0
 30
0.0
  9
$UCSORGBACK
 10
0.0
 20
0.0
 30
0.0
  9
$PUCSBASE
  2

  9
$PUCSNAME
  2

  9
$PUCSORG
 10
0.0
 20
0.0
 30
0.0
  9
$PUCSXDIR
 10
1.0
 20
0.0
 30
0.0
  9
$PUCSYDIR
 10
0.0
 20
1.0
 30
0.0
  9
$PUCSORTHOREF
  2

  9
$PUCSORTHOVIEW
 70
     0
  9
$PUCSORGTOP
 10
0.0
 20
0.0
 30
0.0
  9
$PUCSORGBOTTOM
 10
0.0
 20
0.0
 30
0.0
  9
$PUCSORGLEFT
 10
0.0
 20
0.0
 30
0.0
  9
$PUCSORGRIGHT
 10
0.0
 20
0.0
 30
0.0
  9
$PUCSORGFRONT
 10
0.0
 20
0.0
 30
0.0
  9
$PUCSORGBACK
 10
0.0
 20
0.0
 30
0.0
  9
$USERI1
 70
     0
  9
$USERI2
 70
     0
  9
$USERI3
 70
     0
  9
$USERI4
 70
     0
  9
$USERI5
 70
     0
  9
$USERR1
 40
18.1
  9
$USERR2
 40
0.0
  9
$USERR3
 40
0.0
  9
$USERR4
 40
0.0
  9
$USERR5
 40
0.0
  9
$WORLDVIEW
 70
     1
  9
$SHADEDGE
 70
     3
  9
$SHADEDIF
 70
    70
  9
$TILEMODE
 70
     1
  9
$MAXACTVP
 70
    64
  9
$PINSBASE
 10
0.0
 20
0.0
 30
0.0
  9
$PLIMCHECK
 70
     0
  9
$PEXTMIN
 10
1.00000000000000E+20
 20
1.00000000000000E+20
 30
1.00000000000000E+20
  9
$PEXTMAX
 10
-1.00000000000000E+20
 20
-1.00000000000000E+20
 30
-1.00000000000000E+20
  9
$PLIMMIN
 10
0.0
 20
0.0
  9
$PLIMMAX
 10
12.0
 20
9.0
  9
$UNITMODE
 70
     0
  9
$VISRETAIN
 70
     1
  9
$PLINEGEN
 70
     0
  9
$PSLTSCALE
 70
     1
  9
$TREEDEPTH
 70
  3020
  9
$CMLSTYLE
  2
Standard
  9
$CMLJUST
 70
     0
  9
$CMLSCALE
 40
1.0
  9
$PROXYGRAPHICS
 70
     1
  9
$MEASUREMENT
 70
     1
  9
$CELWEIGHT
370
    -1
  9
$ENDCAPS
280
     0
  9
$JOINSTYLE
280
     0
  9
$LWDISPLAY
290
     0
  9
$INSUNITS
 70
     4
  9
$HYPERLINKBASE
  1

  9
$STYLESHEET
  1

  9
$XEDIT
290
     1
  9
$CEPSNTYPE
380
     0
  9
$PSTYLEMODE
290
     1
  9
$FINGERPRINTGUID
  2
{F6EE07BD-3D43-47AD-97A2-226BC0E15BE2}
  9
$VERSIONGUID
  2
{FAEB1C32-E019-11D5-929B-00C0DF256EC4}
  9
$EXTNAMES
290
     1
  9
$PSVPSCALE
 40
0.0
  9
$OLESTARTUP
290
     0
  9
$SORTENTS
280
   127
  9
$INDEXCTL
280
     0
  9
$HIDETEXT
280
     1
  9
$XCLIPFRAME
290
     0
  9
$HALOGAP
280
     0
  9
$OBSCOLOR
 70
   257
  9
$OBSLTYPE
280
     0
  9
$INTERSECTIONDISPLAY
280
     0
  9
$INTERSECTIONCOLOR
 70
   257
  9
$DIMASSOC
280
     2
  9
$PROJECTNAME
  1

  0
ENDSEC
  0
SECTION
  2
CLASSES
  0
CLASS
  1
ACDBDICTIONARYWDFLT
  2
AcDbDictionaryWithDefault
  3
ObjectDBX Classes
 90
        0
 91
        4
280
     0
281
     0
  0
CLASS
  1
VISUALSTYLE
  2
AcDbVisualStyle
  3
ObjectDBX Classes
 90
     4095
 91
        4
280
     0
281
     0
  0
CLASS
  1
MATERIAL
  2
AcDbMaterial
  3
ObjectDBX Classes
 90
     1153
 91
        4
280
     0
281
     0
  0
ENDSEC
  0
SECTION
  2
TABLES
  0
TABLE
  2
VPORT
  5
8
330
0
100
AcDbSymbolTable
 70
     1
  0
VPORT
  5
29
330
8
100
AcDbSymbolTableRecord
100
AcDbViewportTableRecord
  2
*Active
 70
     0
 10
0.0
 20
0.0
 11
1.0
 21
1.0
 12
-81.47240441047175
 22
105.4521181784664
 13
0.0
 23
0.0
 14
0.5
 24
0.5
 15
0.5
 25
0.5
 16
0.0
 26
0.0
 36
1.0
 17
0.0
 27
0.0
 37
0.0
 40
231.0000000000001
 41
1.60267857142857
 42
50.0
 43
0.0
 44
0.0
 50
0.0
 51
0.0
 71
     0
 72
   100
 73
     1
 74
     3
 75
     0
 76
     0
 77
     0
 78
     0
281
     0
 65
     1
110
0.0
120
0.0
130
0.0
111
1.0
121
0.0
131
0.0
112
0.0
122
1.0
132
0.0
 79
     0
146
0.0
  0
ENDTAB
  0
TABLE
  2
LTYPE
  5
5
330
0
100
AcDbSymbolTable
 70
     8
  0
LTYPE
  5
14
330
5
100
AcDbSymbolTableRecord
100
AcDbLinetypeTableRecord
  2
ByBlock
 70
     0
  3

 72
    65
 73
     0
 40
0.0
  0
LTYPE
  5
15
330
5
100
AcDbSymbolTableRecord
100
AcDbLinetypeTableRecord
  2
ByLayer
 70
     0
  3

 72
    65
 73
     0
 40
0.0
  0
LTYPE
  5
16
330
5
100
AcDbSymbolTableRecord
100
AcDbLinetypeTableRecord
  2
Continuous
 70
     0
  3
Solid line
 72
    65
 73
     0
 40
0.0
  0
LTYPE
  5
3F
330
5
100
AcDbSymbolTableRecord
100
AcDbLinetypeTableRecord
  2
DASHED
 70
     0
  3
Dashed
 72
    65
 73
     2
 40
15.0
 49
7.0
 74
     0
 49
-8.0
 74
     0
  0
LTYPE
  5
40
330
5
100
AcDbSymbolTableRecord
100
AcDbLinetypeTableRecord
  2
DOTTED
 70
     0
  3
Dotted
 72
    65
 73
     2
 40
1.0
 49
0.0
 74
     0
 49
-1.0
 74
     0
  0
LTYPE
  5
41
330
5
100
AcDbSymbolTableRecord
100
AcDbLinetypeTableRecord
  2
DOT_CENTER
 70
     0
  3
Dot_Center
 72
    65
 73
     4
 40
14.0
 49
12.0
 74
     0
 49
-1.0
 74
     0
 49
0.0
 74
     0
 49
-1.0
 74
     0
  0
LTYPE
  5
42
330
5
100
AcDbSymbolTableRecord
100
AcDbLinetypeTableRecord
  2
LONG_DASHED
 70
     0
  3
Long_Dashed
 72
    65
 73
     2
 40
15.0
 49
10.0
 74
     0
 49
-5.0
 74
     0
  0
LTYPE
  5
43
330
5
100
AcDbSymbolTableRecord
100
AcDbLinetypeTableRecord
  2
DASH_CENTER
 70
     0
  3
Dash_Center
 72
    65
 73
     4
 40
14.0
 49
11.0
 74
     0
 49
-1.0
 74
     0
 49
1.0
 74
     0
 49
-1.0
 74
     0
  0
LTYPE
  5
44
330
5
100
AcDbSymbolTableRecord
100
AcDbLinetypeTableRecord
  2
PHANTOM
 70
     0
  3
Phantom
 72
    65
 73
     6
 40
13.0
 49
10.0
 74
     0
 49
-1.0
 74
     0
 49
0.0
 74
     0
 49
-1.0
 74
     0
 49
0.0
 74
     0
 49
-1.0
 74
     0
  0
LTYPE
  5
45
330
5
100
AcDbSymbolTableRecord
100
AcDbLinetypeTableRecord
  2
CENTER_DASH_DASH
 70
     0
  3
Center_Dash_Dash
 72
    65
 73
     6
 40
14.0
 49
9.0
 74
     0
 49
-1.0
 74
     0
 49
1.0
 74
     0
 49
-1.0
 74
     0
 49
1.0
 74
     0
 49
-1.0
 74
     0
  0
ENDTAB
  0
TABLE
  2
LAYER
  5
2
330
0
100
AcDbSymbolTable
 70
     2
  0
LAYER
  5
10
330
2
100
AcDbSymbolTableRecord
100
AcDbLayerTableRecord
  2
0
 70
     0
 62
     7
  6
Continuous
370
    -3
390
F
  0
LAYER
  5
46
330
2
100
AcDbSymbolTableRecord
100
AcDbLayerTableRecord
  2
1
 70
     0
 62
     7
  6
Continuous
370
    -3
390
F
  0
ENDTAB
  0
TABLE
  2
STYLE
  5
3
330
0
100
AcDbSymbolTable
 70
     5
  0
STYLE
  5
11
330
3
100
AcDbSymbolTableRecord
100
AcDbTextStyleTableRecord
  2
Standard
 70
     0
 40
0.0
 41
1.0
 50
0.0
 71
     0
 42
0.2
  3
txt
  4

  0
STYLE
  5
9A
330
3
100
AcDbSymbolTableRecord
100
AcDbTextStyleTableRecord
  2
CONVERTER_11
 70
     0
 40
0.0
 41
0.9
 50
0.0
 71
     0
 42
0.2
  3
txt.shx
  4

  0
STYLE
  5
1EE
330
3
100
AcDbSymbolTableRecord
100
AcDbTextStyleTableRecord
  2
CONVERTER_12
 70
     0
 40
0.0
 41
0.81
 50
0.0
 71
     0
 42
0.2
  3
txt.shx
  4

  0
STYLE
  5
204
330
3
100
AcDbSymbolTableRecord
100
AcDbTextStyleTableRecord
  2
CONVERTER_13
 70
     0
 40
0.0
 41
0.72
 50
0.0
 71
     0
 42
0.2
  3
txt.shx
  4

  0
STYLE
  5
207
330
3
100
AcDbSymbolTableRecord
100
AcDbTextStyleTableRecord
  2
CONVERTER_14
 70
     0
 40
0.0
 41
0.855
 50
0.0
 71
     0
 42
0.2
  3
txt.shx
  4

  0
ENDTAB
  0
TABLE
  2
VIEW
  5
6
330
0
100
AcDbSymbolTable
 70
     0
  0
ENDTAB
  0
TABLE
  2
UCS
  5
7
330
0
100
AcDbSymbolTable
 70
     0
  0
ENDTAB
  0
TABLE
  2
APPID
  5
9
330
0
100
AcDbSymbolTable
 70
     1
  0
APPID
  5
12
330
9
100
AcDbSymbolTableRecord
100
AcDbRegAppTableRecord
  2
ACAD
 70
     0
  0
ENDTAB
  0
TABLE
  2
DIMSTYLE
  5
A
330
0
100
AcDbSymbolTable
 70
     4
100
AcDbDimStyleTable
  0
DIMSTYLE
105
27
330
A
100
AcDbSymbolTableRecord
100
AcDbDimStyleTableRecord
  2
Standard
 70
     0
178
     0
340
11
  0
DIMSTYLE
105
B2
102
{ACAD_REACTORS
330
B3
102
}
330
A
100
AcDbSymbolTableRecord
100
AcDbDimStyleTableRecord
  2
ME10_DIM_10
 70
     0
 41
3.5
 42
0.0
 44
1.5
 73
     0
 74
     0
 77
     1
 78
     8
140
3.5
147
1.5
172
     1
173
     1
174
     1
175
     1
176
     2
177
     2
178
     3
340
9A
  0
DIMSTYLE
105
E5
102
{ACAD_REACTORS
330
E6
102
}
330
A
100
AcDbSymbolTableRecord
100
AcDbDimStyleTableRecord
  2
ME10_DIM_11
 70
     0
 41
3.5
 42
0.0
 44
2.0
 73
     0
 74
     0
 77
     1
 78
     8
140
3.5
147
2.0
172
     1
173
     1
174
     1
175
     1
176
     2
177
     2
178
     3
340
9A
  0
DIMSTYLE
105
F0
102
{ACAD_REACTORS
330
F1
102
}
330
A
100
AcDbSymbolTableRecord
100
AcDbDimStyleTableRecord
  2
ME10_DIM_12
 70
     0
 41
3.5
 42
0.0
 44
2.0
 73
     0
 74
     0
 77
     1
 78
     8
140
3.5
147
2.0
172
     1
173
     1
174
     1
175
     1
176
     2
177
     2
178
     3
340
9A
  0
ENDTAB
  0
TABLE
  2
BLOCK_RECORD
  5
1
330
0
100
AcDbSymbolTable
 70
    20
  0
BLOCK_RECORD
  5
1F
330
1
100
AcDbSymbolTableRecord
100
AcDbBlockTableRecord
  2
*Model_Space
340
22
  0
BLOCK_RECORD
  5
1B
330
1
100
AcDbSymbolTableRecord
100
AcDbBlockTableRecord
  2
*Paper_Space
340
1E
  0
BLOCK_RECORD
  5
23
330
1
100
AcDbSymbolTableRecord
100
AcDbBlockTableRecord
  2
*Paper_Space0
340
26
  0
BLOCK_RECORD
  5
47
330
1
100
AcDbSymbolTableRecord
100
AcDbBlockTableRecord
  2
D_MTK_BU_select__1
340
0
102
{BLKREFS
331
4B
102
}
  0
BLOCK_RECORD
  5
4A
330
1
100
AcDbSymbolTableRecord
100
AcDbBlockTableRecord
  2
AllgSicht1
340
0
102
{BLKREFS
331
7D
102
}
  0
BLOCK_RECORD
  5
4E
330
1
100
AcDbSymbolTableRecord
100
AcDbBlockTableRecord
  2
D_MTK_BU_select__2
340
0
102
{BLKREFS
331
52
102
}
  0
BLOCK_RECORD
  5
51
330
1
100
AcDbSymbolTableRecord
100
AcDbBlockTableRecord
  2
Drfsicht1
340
0
102
{BLKREFS
331
7E
102
}
  0
BLOCK_RECORD
  5
55
330
1
100
AcDbSymbolTableRecord
100
AcDbBlockTableRecord
  2
D_MTK_BU_select__3
340
0
102
{BLKREFS
331
59
102
}
  0
BLOCK_RECORD
  5
58
330
1
100
AcDbSymbolTableRecord
100
AcDbBlockTableRecord
  2
Rckans1
340
0
102
{BLKREFS
331
7F
102
}
  0
BLOCK_RECORD
  5
5C
330
1
100
AcDbSymbolTableRecord
100
AcDbBlockTableRecord
  2
D_MTK_BU_select__4
340
0
102
{BLKREFS
331
60
102
}
  0
BLOCK_RECORD
  5
5F
330
1
100
AcDbSymbolTableRecord
100
AcDbBlockTableRecord
  2
SA_Links1
340
0
102
{BLKREFS
331
80
102
}
  0
BLOCK_RECORD
  5
63
330
1
100
AcDbSymbolTableRecord
100
AcDbBlockTableRecord
  2
D_MTK_BU_select__5
340
0
102
{BLKREFS
331
67
102
}
  0
BLOCK_RECORD
  5
66
330
1
100
AcDbSymbolTableRecord
100
AcDbBlockTableRecord
  2
SA_Rechts1
340
0
102
{BLKREFS
331
81
102
}
  0
BLOCK_RECORD
  5
6A
330
1
100
AcDbSymbolTableRecord
100
AcDbBlockTableRecord
  2
D_MTK_BU_select__6
340
0
102
{BLKREFS
331
6E
102
}
  0
BLOCK_RECORD
  5
6D
330
1
100
AcDbSymbolTableRecord
100
AcDbBlockTableRecord
  2
Vordans1
340
0
102
{BLKREFS
331
82
102
}
  0
BLOCK_RECORD
  5
71
330
1
100
AcDbSymbolTableRecord
100
AcDbBlockTableRecord
  2
_rahmen
340
0
102
{BLKREFS
331
78
102
}
  0
BLOCK_RECORD
  5
74
330
1
100
AcDbSymbolTableRecord
100
AcDbBlockTableRecord
  2
_punkt
340
0
102
{BLKREFS
331
79
102
}
  0
BLOCK_RECORD
  5
77
330
1
100
AcDbSymbolTableRecord
100
AcDbBlockTableRecord
  2
A4I_CS
340
0
102
{BLKREFS
331
83
102
}
  0
BLOCK_RECORD
  5
7C
330
1
100
AcDbSymbolTableRecord
100
AcDbBlockTableRecord
  2
1
340
0
102
{BLKREFS
331
86
102
}
  0
BLOCK_RECORD
  5
A7
330
1
100
AcDbSymbolTableRecord
100
AcDbBlockTableRecord
  2
*D17
340
0
  0
BLOCK_RECORD
  5
DC
330
1
100
AcDbSymbolTableRecord
100
AcDbBlockTableRecord
  2
*D18
340
0
  0
BLOCK_RECORD
  5
E7
330
1
100
AcDbSymbolTableRecord
100
AcDbBlockTableRecord
  2
*D19
340
0
  0
ENDTAB
  0
ENDSEC
  0
SECTION
  2
BLOCKS
  0
BLOCK
  5
20
330
1F
100
AcDbEntity
  8
0
100
AcDbBlockBegin
  2
*Model_Space
 70
     0
 10
0.0
 20
0.0
 30
0.0
  3
*Model_Space
  1

  0
ENDBLK
  5
21
330
1F
100
AcDbEntity
  8
0
100
AcDbBlockEnd
  0
BLOCK
  5
1C
330
1B
100
AcDbEntity
 67
     1
  8
0
100
AcDbBlockBegin
  2
*Paper_Space
 70
     0
 10
0.0
 20
0.0
 30
0.0
  3
*Paper_Space
  1

  0
ENDBLK
  5
1D
330
1B
100
AcDbEntity
 67
     1
  8
0
100
AcDbBlockEnd
  0
BLOCK
  5
24
330
23
100
AcDbEntity
  8
0
100
AcDbBlockBegin
  2
*Paper_Space0
 70
     0
 10
0.0
 20
0.0
 30
0.0
  3
*Paper_Space0
  1

  0
ENDBLK
  5
25
330
23
100
AcDbEntity
  8
0
100
AcDbBlockEnd
  0
BLOCK
  5
48
330
47
100
AcDbEntity
  8
0
100
AcDbBlockBegin
  2
D_MTK_BU_select__1
 70
     0
 10
-31.25518618696616
 20
59.86141494163977
 30
0.0
  3
D_MTK_BU_select__1
  1

  0
LINE
  5
87
330
47
100
AcDbEntity
  8
0
  6
Continuous
 62
     7
100
AcDbLine
 10
8.38390617576486
 20
59.86141494163977
 30
0.0
 11
8.88390617576486
 21
60.29442764353199
 31
0.0
  0
LINE
  5
88
330
47
100
AcDbEntity
  8
0
  6
Continuous
 62
     7
100
AcDbLine
 10
8.38390617576486
 20
59.86141494163977
 30
0.0
 11
8.75518746787498
 21
61.13987591072242
 31
0.0
  0
LINE
  5
89
330
47
100
AcDbEntity
  8
0
  6
Continuous
 62
     7
100
AcDbLine
 10
8.75518746787498
 20
61.13987591072242
 30
0.0
 11
9.25518746787498
 21
61.57288861261463
 31
0.0
  0
LINE
  5
8A
330
47
100
AcDbEntity
  8
0
  6
Continuous
 62
     7
100
AcDbLine
 10
8.88390617576486
 20
60.29442764353199
 30
0.0
 11
9.25518746787498
 21
61.57288861261463
 31
0.0
  0
LINE
  5
8B
330
47
100
AcDbEntity
  8
0
  6
Continuous
 62
     7
100
AcDbLine
 10
-24.7599956585828
 20
93.93775419176697
 30
0.0
 11
-24.2599956585828
 21
94.3707668936592
 31
0.0
  0
LINE
  5
8C
330
47
100
AcDbEntity
  8
0
  6
Continuous
 62
     7
100
AcDbLine
 10
-31.25518618696613
 20
90.73815519051854
 30
0.0
 11
-24.7599956585828
 21
93.93775419176697
 31
0.0
  0
LINE
  5
8D
330
47
100
AcDbEntity
  8
0
  6
Continuous
 62
     7
100
AcDbLine
 10
-30.75518618696613
 20
91.17116789241075
 30
0.0
 11
-24.2599956585828
 21
94.3707668936592
 31
0.0
  0
LINE
  5
8E
330
47
100
AcDbEntity
  8
0
  6
Continuous
 62
     7
100
AcDbLine
 10
-24.7599956585828
 20
93.93775419176697
 30
0.0
 11
2.25999693949167
 21
86.13775419176697
 31
0.0
  0
LINE
  5
8F
330
47
100
AcDbEntity
  8
0
  6
Continuous
 62
     7
100
AcDbLine
 10
-24.2599956585828
 20
94.3707668936592
 30
0.0
 11
2.75999693949167
 21
86.57076689365918
 31
0.0
  0
LINE
  5
90
330
47
100
AcDbEntity
  8
0
  6
Continuous
 62
     7
100
AcDbLine
 10
-31.25518618696613
 20
90.73815519051854
 30
0.0
 11
-30.75518618696613
 21
91.17116789241075
 31
0.0
  0
LINE
  5
91
330
47
100
AcDbEntity
  8
0
  6
Continuous
 62
     7
100
AcDbLine
 10
2.25999693949167
 20
86.13775419176697
 30
0.0
 11
2.75999693949167
 21
86.57076689365918
 31
0.0
  0
LINE
  5
92
330
47
100
AcDbEntity
  8
0
  6
Continuous
 62
     7
100
AcDbLine
 10
8.75518746787498
 20
79.18815519051851
 30
0.0
 11
2.25999693949167
 21
86.13775419176697
 31
0.0
  0
LINE
  5
93
330
47
100
AcDbEntity
  8
0
  6
Continuous
 62
     7
100
AcDbLine
 10
9.25518746787498
 20
79.62116789241074
 30
0.0
 11
2.75999693949167
 21
86.57076689365918
 31
0.0
  0
LINE
  5
94
330
47
100
AcDbEntity
  8
0
  6
Continuous
 62
     7
100
AcDbLine
 10
8.75518746787498
 20
79.18815519051851
 30
0.0
 11
8.75518746787498
 21
61.13987591072242
 31
0.0
  0
LINE
  5
95
330
47
100
AcDbEntity
  8
0
  6
Continuous
 62
     7
100
AcDbLine
 10
9.25518746787498
 20
79.62116789241074
 30
0.0
 11
9.25518746787498
 21
61.57288861261463
 31
0.0
  0
LINE
  5
96
330
47
100
AcDbEntity
  8
0
  6
Continuous
 62
     7
100
AcDbLine
 10
8.75518746787498
 20
79.18815519051851
 30
0.0
 11
9.25518746787498
 21
79.62116789241074
 31
0.0
  0
LINE
  5
97
330
47
100
AcDbEntity
  8
0
  6
Continuous
 62
     7
100
AcDbLine
 10
-31.25518618696616
 20
72.68987591072244
 30
0.0
 11
-30.88390489485595
 21
71.1970555876949
 31
0.0
  0
LINE
  5
98
330
47
100
AcDbEntity
  8
0
  6
Continuous
 62
     7
100
AcDbLine
 10
-31.25518618696616
 20
72.68987591072244
 30
0.0
 11
-31.25518618696613
 21
90.73815519051854
 31
0.0
  0
LINE
  5
99
330
47
100
AcDbEntity
  8
0
  6
Continuous
 62
     7
100
AcDbLine
 10
8.38390617576486
 20
59.86141494163977
 30
0.0
 11
-30.88390489485595
 21
71.1970555876949
 31
0.0
  0
ENDBLK
  5
49
330
47
100
AcDbEntity
  8
0
100
AcDbBlockEnd
  0
BLOCK
  5
4C
330
4A
100
AcDbEntity
  8
0
100
AcDbBlockBegin
  2
AllgSicht1
 70
     0
 10
-11.00000000000017
 20
78.0
 30
0.0
  3
AllgSicht1
  1

  0
INSERT
  5
4B
330
4A
100
AcDbEntity
  8
0
100
AcDbBlockReference
  2
D_MTK_BU_select__1
 10
-31.25518618696616
 20
59.86141494163977
 30
0.0
  0
MTEXT
  5
9B
330
4A
100
AcDbEntity
  8
1
 62
     6
100
AcDbMText
 10
-11.00000000000205
 20
54.75423489733419
 30
0.0
 40
5.0
 41
0.0
 71
     2
 72
     1
  1
 
  7
CONVERTER_11
 73
     1
 44
1.32052821128451
  0
ENDBLK
  5
4D
330
4A
100
AcDbEntity
  8
0
100
AcDbBlockEnd
  0
BLOCK
  5
4F
330
4E
100
AcDbEntity
  8
0
100
AcDbBlockBegin
  2
D_MTK_BU_select__2
 70
     0
 10
-148.1999957345846
 20
85.84999838145465
 30
0.0
  3
D_MTK_BU_select__2
  1

  0
LINE
  5
9C
330
4E
100
AcDbEntity
  8
0
  6
Continuous
 62
     7
100
AcDbLine
 10
-101.9999957345846
 20
85.84999838145465
 30
0.0
 11
-101.9999957345846
 21
86.84999838145465
 31
0.0
  0
LINE
  5
9D
330
4E
100
AcDbEntity
  8
0
  6
Continuous
 62
     7
100
AcDbLine
 10
-101.9999957345846
 20
85.84999838145465
 30
0.0
 11
-109.4999957345846
 21
85.84999838145465
 31
0.0
  0
LINE
  5
9E
330
4E
100
AcDbEntity
  8
0
  6
Continuous
 62
     7
100
AcDbLine
 10
-101.9999957345846
 20
86.84999838145465
 30
0.0
 11
-109.4999957345846
 21
86.84999838145465
 31
0.0
  0
LINE
  5
9F
330
4E
100
AcDbEntity
  8
0
  6
Continuous
 62
     7
100
AcDbLine
 10
-148.1999957345846
 20
85.84999838145465
 30
0.0
 11
-140.6999957345846
 21
85.84999838145465
 31
0.0
  0
LINE
  5
A0
330
4E
100
AcDbEntity
  8
0
  6
Continuous
 62
     7
100
AcDbLine
 10
-148.1999957345846
 20
85.84999838145465
 30
0.0
 11
-148.1999957345846
 21
86.84999838145465
 31
0.0
  0
LINE
  5
A1
330
4E
100
AcDbEntity
  8
0
  6
Continuous
 62
     7
100
AcDbLine
 10
-148.1999957345846
 20
86.84999838145465
 30
0.0
 11
-140.6999957345846
 21
86.84999838145465
 31
0.0
  0
LINE
  5
A2
330
4E
100
AcDbEntity
  8
0
  6
Continuous
 62
     7
100
AcDbLine
 10
-109.4999957345846
 20
85.84999838145465
 30
0.0
 11
-109.4999957345846
 21
86.84999838145465
 31
0.0
  0
LINE
  5
A3
330
4E
100
AcDbEntity
  8
0
  6
Continuous
 62
     7
100
AcDbLine
 10
-140.6999957345846
 20
85.84999838145465
 30
0.0
 11
-109.4999957345846
 21
85.84999838145465
 31
0.0
  0
LINE
  5
A4
330
4E
100
AcDbEntity
  8
0
  6
Continuous
 62
     7
100
AcDbLine
 10
-140.6999957345846
 20
85.84999838145465
 30
0.0
 11
-140.6999957345846
 21
86.84999838145465
 31
0.0
  0
LINE
  5
A5
330
4E
100
AcDbEntity
  8
0
  6
Continuous
 62
     7
100
AcDbLine
 10
-140.6999957345846
 20
86.84999838145465
 30
0.0
 11
-109.4999957345846
 21
86.84999838145465
 31
0.0
  0
ENDBLK
  5
50
330
4E
100
AcDbEntity
  8
0
100
AcDbBlockEnd
  0
BLOCK
  5
53
330
51
100
AcDbEntity
  8
0
100
AcDbBlockBegin
  2
Drfsicht1
 70
     0
 10
-125.0999964741208
 20
86.34999838145966
 30
0.0
  3
Drfsicht1
  1

  0
INSERT
  5
52
330
51
100
AcDbEntity
  8
0
100
AcDbBlockReference
  2
D_MTK_BU_select__2
 10
-148.1999957345846
 20
85.84999838145465
 30
0.0
  0
MTEXT
  5
A6
330
51
100
AcDbEntity
  8
1
 62
     6
100
AcDbMText
 10
-125.0999964741209
 20
80.84999838145973
 30
0.0
 40
5.0
 41
0.0
 71
     2
 72
     1
  1
 
  7
CONVERTER_11
 73
     1
 44
1.32052821128451
  0
DIMENSION
  5
B3
330
51
100
AcDbEntity
  8
1
100
AcDbDimension
  2
*D17
 10
-89.37621035621243
 20
85.84999838145465
 30
0.0
 11
-92.62621035621243
 21
95.42252695719498
 31
0.0
 70
    33
  1
<>
 71
     5
 42
-1.0
 53
90.0
  3
ME10_DIM_10
100
AcDbAlignedDimension
 13
-101.9999957345846
 23
86.84999838145465
 33
0.0
 14
-101.9999957345846
 24
85.84999838145465
 34
0.0
  0
ENDBLK
  5
54
330
51
100
AcDbEntity
  8
0
100
AcDbBlockEnd
  0
BLOCK
  5
56
330
55
100
AcDbEntity
  8
0
100
AcDbBlockBegin
  2
D_MTK_BU_select__3
 70
     0
 10
-42.44876539210542
 20
132.8500014595984
 30
0.0
  3
D_MTK_BU_select__3
  1

  0
LINE
  5
B4
330
55
100
AcDbEntity
  8
0
  6
Continuous
 62
     7
100
AcDbLine
 10
3.75123460789457
 20
134.4500014595984
 30
0.0
 11
3.32251590000477
 21
132.8500014595984
 31
0.0
  0
LINE
  5
B5
330
55
100
AcDbEntity
  8
0
  6
Continuous
 62
     7
100
AcDbLine
 10
-42.02004668421574
 20
132.8500014595984
 30
0.0
 11
3.32251590000477
 21
132.8500014595984
 31
0.0
  0
LINE
  5
B6
330
55
100
AcDbEntity
  8
0
  6
Continuous
 62
     7
100
AcDbLine
 10
-42.02004668421574
 20
132.8500014595984
 30
0.0
 11
-42.44876539210542
 21
134.4500014595984
 31
0.0
  0
LINE
  5
B7
330
55
100
AcDbEntity
  8
0
  6
Continuous
 62
     7
100
AcDbLine
 10
-42.44876539210542
 20
155.290359260798
 30
0.0
 11
-42.44876539210542
 21
134.4500014595984
 31
0.0
  0
LINE
  5
B8
330
55
100
AcDbEntity
  8
0
  6
Continuous
 62
     7
100
AcDbLine
 10
3.75123460789457
 20
155.290359260798
 30
0.0
 11
-3.74876539210543
 21
161.1500014595984
 31
0.0
  0
LINE
  5
B9
330
55
100
AcDbEntity
  8
0
  6
Continuous
 62
     7
100
AcDbLine
 10
-3.74876539210543
 20
161.1500014595984
 30
0.0
 11
-34.9487653921054
 21
161.1500014595984
 31
0.0
  0
LINE
  5
BA
330
55
100
AcDbEntity
  8
0
  6
Continuous
 62
     7
100
AcDbLine
 10
3.75123460789457
 20
134.4500014595984
 30
0.0
 11
3.75123460789457
 21
155.290359260798
 31
0.0
  0
LINE
  5
BB
330
55
100
AcDbEntity
  8
0
  6
Continuous
 62
     7
100
AcDbLine
 10
-42.44876539210542
 20
155.290359260798
 30
0.0
 11
-34.9487653921054
 21
161.1500014595984
 31
0.0
  0
ENDBLK
  5
57
330
55
100
AcDbEntity
  8
0
100
AcDbBlockEnd
  0
BLOCK
  5
5A
330
58
100
AcDbEntity
  8
0
100
AcDbBlockBegin
  2
Rckans1
 70
     0
 10
-19.34876465256927
 20
146.9999999999998
 30
0.0
  3
Rckans1
  1

  0
INSERT
  5
59
330
58
100
AcDbEntity
  8
0
100
AcDbBlockReference
  2
D_MTK_BU_select__3
 10
-42.44876539210542
 20
132.8500014595984
 30
0.0
  0
MTEXT
  5
BC
330
58
100
AcDbEntity
  8
1
 62
     6
100
AcDbMText
 10
-19.34876465256911
 20
127.8500003814697
 30
0.0
 40
5.0
 41
0.0
 71
     2
 72
     1
  1
 
  7
CONVERTER_11
 73
     1
 44
1.32052821128451
  0
ENDBLK
  5
5B
330
58
100
AcDbEntity
  8
0
100
AcDbBlockEnd
  0
BLOCK
  5
5D
330
5C
100
AcDbEntity
  8
0
100
AcDbBlockBegin
  2
D_MTK_BU_select__4
 70
     0
 10
-68.603455979779
 20
132.8500014595984
 30
0.0
  3
D_MTK_BU_select__4
  1

  0
LINE
  5
BD
330
5C
100
AcDbEntity
  8
0
  6
Continuous
 62
     7
100
AcDbLine
 10
-67.603455979779
 20
134.4500014595984
 30
0.0
 11
-67.603455979779
 21
132.8500014595984
 31
0.0
  0
LINE
  5
BE
330
5C
100
AcDbEntity
  8
0
  6
Continuous
 62
     7
100
AcDbLine
 10
-67.603455979779
 20
132.8500014595984
 30
0.0
 11
-68.603455979779
 21
132.8500014595984
 31
0.0
  0
LINE
  5
BF
330
5C
100
AcDbEntity
  8
0
  6
Continuous
 62
     7
100
AcDbLine
 10
-68.603455979779
 20
134.4500014595984
 30
0.0
 11
-68.603455979779
 21
132.8500014595984
 31
0.0
  0
LINE
  5
C0
330
5C
100
AcDbEntity
  8
0
  6
Continuous
 62
     7
100
AcDbLine
 10
-68.603455979779
 20
155.290359260798
 30
0.0
 11
-68.603455979779
 21
161.1500014595984
 31
0.0
  0
LINE
  5
C1
330
5C
100
AcDbEntity
  8
0
  6
Continuous
 62
     7
100
AcDbLine
 10
-68.603455979779
 20
134.4500014595984
 30
0.0
 11
-68.603455979779
 21
155.290359260798
 31
0.0
  0
LINE
  5
C2
330
5C
100
AcDbEntity
  8
0
  6
Continuous
 62
     7
100
AcDbLine
 10
-67.603455979779
 20
155.290359260798
 30
0.0
 11
-67.603455979779
 21
161.1500014595984
 31
0.0
  0
LINE
  5
C3
330
5C
100
AcDbEntity
  8
0
  6
Continuous
 62
     7
100
AcDbLine
 10
-67.603455979779
 20
161.1500014595984
 30
0.0
 11
-68.603455979779
 21
161.1500014595984
 31
0.0
  0
LINE
  5
C4
330
5C
100
AcDbEntity
  8
0
  6
Continuous
 62
     7
100
AcDbLine
 10
-67.603455979779
 20
134.4500014595984
 30
0.0
 11
-68.603455979779
 21
134.4500014595984
 31
0.0
  0
LINE
  5
C5
330
5C
100
AcDbEntity
  8
0
  6
Continuous
 62
     7
100
AcDbLine
 10
-67.603455979779
 20
155.290359260798
 30
0.0
 11
-68.603455979779
 21
155.290359260798
 31
0.0
  0
LINE
  5
C6
330
5C
100
AcDbEntity
  8
0
  6
Continuous
 62
     7
100
AcDbLine
 10
-67.603455979779
 20
134.4500014595984
 30
0.0
 11
-67.603455979779
 21
155.290359260798
 31
0.0
  0
ENDBLK
  5
5E
330
5C
100
AcDbEntity
  8
0
100
AcDbBlockEnd
  0
BLOCK
  5
61
330
5F
100
AcDbEntity
  8
0
100
AcDbBlockBegin
  2
SA_Links1
 70
     0
 10
-68.103455979784
 20
146.9999999999998
 30
0.0
  3
SA_Links1
  1

  0
INSERT
  5
60
330
5F
100
AcDbEntity
  8
0
100
AcDbBlockReference
  2
D_MTK_BU_select__4
 10
-68.603455979779
 20
132.8500014595984
 30
0.0
  0
MTEXT
  5
C7
330
5F
100
AcDbEntity
  8
1
 62
     6
100
AcDbMText
 10
-68.103455979784
 20
127.8500003814697
 30
0.0
 40
5.0
 41
0.0
 71
     2
 72
     1
  1
 
  7
CONVERTER_11
 73
     1
 44
1.32052821128451
  0
ENDBLK
  5
62
330
5F
100
AcDbEntity
  8
0
100
AcDbBlockEnd
  0
BLOCK
  5
64
330
63
100
AcDbEntity
  8
0
100
AcDbBlockBegin
  2
D_MTK_BU_select__5
 70
     0
 10
-170.6999962888235
 20
132.8500014595986
 30
0.0
  3
D_MTK_BU_select__5
  1

  0
LINE
  5
C8
330
63
100
AcDbEntity
  8
0
  6
Continuous
 62
     7
100
AcDbLine
 10
-170.6999962888235
 20
132.8500014595986
 30
0.0
 11
-169.6999962888235
 21
132.8500014595986
 31
0.0
  0
LINE
  5
C9
330
63
100
AcDbEntity
  8
0
  6
Continuous
 62
     7
100
AcDbLine
 10
-170.6999962888235
 20
132.8500014595986
 30
0.0
 11
-170.6999962888235
 21
134.4500014595986
 31
0.0
  0
LINE
  5
CA
330
63
100
AcDbEntity
  8
0
  6
Continuous
 62
     7
100
AcDbLine
 10
-169.6999962888235
 20
132.8500014595986
 30
0.0
 11
-169.6999962888235
 21
134.4500014595986
 31
0.0
  0
LINE
  5
CB
330
63
100
AcDbEntity
  8
0
  6
Continuous
 62
     7
100
AcDbLine
 10
-170.6999962888235
 20
155.2903592607982
 30
0.0
 11
-170.6999962888235
 21
161.1500014595986
 31
0.0
  0
LINE
  5
CC
330
63
100
AcDbEntity
  8
0
  6
Continuous
 62
     7
100
AcDbLine
 10
-170.6999962888235
 20
161.1500014595986
 30
0.0
 11
-169.6999962888235
 21
161.1500014595986
 31
0.0
  0
LINE
  5
CD
330
63
100
AcDbEntity
  8
0
  6
Continuous
 62
     7
100
AcDbLine
 10
-169.6999962888235
 20
155.2903592607982
 30
0.0
 11
-169.6999962888235
 21
161.1500014595986
 31
0.0
  0
LINE
  5
CE
330
63
100
AcDbEntity
  8
0
  6
Continuous
 62
     7
100
AcDbLine
 10
-170.6999962888235
 20
134.4500014595986
 30
0.0
 11
-169.6999962888235
 21
134.4500014595986
 31
0.0
  0
LINE
  5
CF
330
63
100
AcDbEntity
  8
0
  6
Continuous
 62
     7
100
AcDbLine
 10
-169.6999962888235
 20
155.2903592607982
 30
0.0
 11
-169.6999962888235
 21
134.4500014595986
 31
0.0
  0
LINE
  5
D0
330
63
100
AcDbEntity
  8
0
  6
Continuous
 62
     7
100
AcDbLine
 10
-170.6999962888235
 20
155.2903592607982
 30
0.0
 11
-169.6999962888235
 21
155.2903592607982
 31
0.0
  0
LINE
  5
D1
330
63
100
AcDbEntity
  8
0
  6
Continuous
 62
     7
100
AcDbLine
 10
-170.6999962888235
 20
155.2903592607982
 30
0.0
 11
-170.6999962888235
 21
134.4500014595986
 31
0.0
  0
ENDBLK
  5
65
330
63
100
AcDbEntity
  8
0
100
AcDbBlockEnd
  0
BLOCK
  5
68
330
66
100
AcDbEntity
  8
0
100
AcDbBlockBegin
  2
SA_Rechts1
 70
     0
 10
-170.1999962888185
 20
147.0
 30
0.0
  3
SA_Rechts1
  1

  0
INSERT
  5
67
330
66
100
AcDbEntity
  8
0
100
AcDbBlockReference
  2
D_MTK_BU_select__5
 10
-170.6999962888235
 20
132.8500014595986
 30
0.0
  0
MTEXT
  5
D2
330
66
100
AcDbEntity
  8
1
 62
     6
100
AcDbMText
 10
-170.1999962888185
 20
127.8500003814697
 30
0.0
 40
5.0
 41
0.0
 71
     2
 72
     1
  1
 
  7
CONVERTER_11
 73
     1
 44
1.32052821128451
  0
ENDBLK
  5
69
330
66
100
AcDbEntity
  8
0
100
AcDbBlockEnd
  0
BLOCK
  5
6B
330
6A
100
AcDbEntity
  8
0
100
AcDbBlockBegin
  2
D_MTK_BU_select__6
 70
     0
 10
-148.1999969716452
 20
132.8500014595986
 30
0.0
  3
D_MTK_BU_select__6
  1

  0
LINE
  5
D3
330
6A
100
AcDbEntity
  8
0
  6
Continuous
 62
     7
100
AcDbLine
 10
-148.1999969716452
 20
155.2903592607982
 30
0.0
 11
-140.6999969716451
 21
161.1500014595986
 31
0.0
  0
LINE
  5
D4
330
6A
100
AcDbEntity
  8
0
  6
Continuous
 62
     7
100
AcDbLine
 10
-140.6999969716451
 20
161.1500014595986
 30
0.0
 11
-109.4999969716452
 21
161.1500014595986
 31
0.0
  0
LINE
  5
D5
330
6A
100
AcDbEntity
  8
0
  6
Continuous
 62
     7
100
AcDbLine
 10
-148.1999969716452
 20
134.4500014595986
 30
0.0
 11
-147.7712782637554
 21
132.8500014595986
 31
0.0
  0
LINE
  5
D6
330
6A
100
AcDbEntity
  8
0
  6
Continuous
 62
     7
100
AcDbLine
 10
-101.9999969716452
 20
155.2903592607982
 30
0.0
 11
-101.9999969716452
 21
134.4500014595986
 31
0.0
  0
LINE
  5
D7
330
6A
100
AcDbEntity
  8
0
  6
Continuous
 62
     7
100
AcDbLine
 10
-102.4287156795349
 20
132.8500014595986
 30
0.0
 11
-101.9999969716452
 21
134.4500014595986
 31
0.0
  0
LINE
  5
D8
330
6A
100
AcDbEntity
  8
0
  6
Continuous
 62
     7
100
AcDbLine
 10
-102.4287156795349
 20
132.8500014595986
 30
0.0
 11
-147.7712782637554
 21
132.8500014595986
 31
0.0
  0
LINE
  5
D9
330
6A
100
AcDbEntity
  8
0
  6
Continuous
 62
     7
100
AcDbLine
 10
-148.1999969716452
 20
134.4500014595986
 30
0.0
 11
-148.1999969716452
 21
155.2903592607982
 31
0.0
  0
LINE
  5
DA
330
6A
100
AcDbEntity
  8
0
  6
Continuous
 62
     7
100
AcDbLine
 10
-101.9999969716452
 20
155.2903592607982
 30
0.0
 11
-109.4999969716452
 21
161.1500014595986
 31
0.0
  0
ENDBLK
  5
6C
330
6A
100
AcDbEntity
  8
0
100
AcDbBlockEnd
  0
BLOCK
  5
6F
330
6D
100
AcDbEntity
  8
0
100
AcDbBlockBegin
  2
Vordans1
 70
     0
 10
-125.0999977111814
 20
147.0
 30
0.0
  3
Vordans1
  1

  0
INSERT
  5
6E
330
6D
100
AcDbEntity
  8
0
100
AcDbBlockReference
  2
D_MTK_BU_select__6
 10
-148.1999969716452
 20
132.8500014595986
 30
0.0
  0
MTEXT
  5
DB
330
6D
100
AcDbEntity
  8
1
 62
     6
100
AcDbMText
 10
-125.0999977111815
 20
127.8500003814697
 30
0.0
 40
5.0
 41
0.0
 71
     2
 72
     1
  1
 
  7
CONVERTER_11
 73
     1
 44
1.32052821128451
  0
DIMENSION
  5
E6
330
6D
100
AcDbEntity
  8
1
100
AcDbDimension
  2
*D18
 10
-89.37621035621243
 20
132.8500014595986
 30
0.0
 11
-93.30121035621242
 21
147.203380679222
 31
0.0
 70
    32
  1
<>
 71
     5
 42
-1.0
 53
90.0
  3
ME10_DIM_11
100
AcDbAlignedDimension
 13
-109.4999969716452
 23
161.1500014595986
 33
0.0
 14
-102.4287156795349
 24
132.8500014595986
 34
0.0
 50
90.0
100
AcDbRotatedDimension
  0
DIMENSION
  5
F1
330
6D
100
AcDbEntity
  8
1
100
AcDbDimension
  2
*D19
 10
-101.9999969716452
 20
122.4107771306796
 30
0.0
 11
-126.0583847890929
 21
126.3357771306796
 31
0.0
 70
    32
  1
<>
 71
     5
 42
-1.0
 53
0.00013888888889
  3
ME10_DIM_12
100
AcDbAlignedDimension
 13
-148.1999969716452
 23
134.4500014595986
 33
0.0
 14
-101.9999969716452
 24
134.4500014595986
 34
0.0
100
AcDbRotatedDimension
  0
ENDBLK
  5
70
330
6D
100
AcDbEntity
  8
0
100
AcDbBlockEnd
  0
BLOCK
  5
72
330
71
100
AcDbEntity
  8
0
100
AcDbBlockBegin
  2
_rahmen
 70
     0
 10
62.0275955895283
 20
0.45211817846632
 30
0.0
  3
_rahmen
  1

  0
LINE
  5
F2
330
71
100
AcDbEntity
  8
1
  6
Continuous
 62
     6
100
AcDbLine
 10
-67.51720893722171
 20
30.95211817846644
 30
0.0
 11
62.02759558952999
 21
30.95211817846644
 31
0.0
  0
LINE
  5
F3
330
71
100
AcDbEntity
  8
1
  6
Continuous
 62
     7
100
AcDbLine
 10
-49.31720893722169
 20
9.70211817846643
 30
0.0
 11
-31.11720893722179
 21
9.70211817846643
 31
0.0
  0
LINE
  5
F4
330
71
100
AcDbEntity
  8
1
  6
Continuous
 62
     6
100
AcDbLine
 10
-49.31720893722169
 20
5.45211817846643
 30
0.0
 11
-67.51720893722171
 21
5.45211817846632
 31
0.0
  0
LINE
  5
F5
330
71
100
AcDbEntity
  8
1
  6
Continuous
 62
     7
100
AcDbLine
 10
-49.31720893722169
 20
9.70211817846643
 30
0.0
 11
-49.31720893722169
 21
5.45211817846643
 31
0.0
  0
LINE
  5
F6
330
71
100
AcDbEntity
  8
1
  6
Continuous
 62
     7
100
AcDbLine
 10
-31.11720893722179
 20
9.70211817846643
 30
0.0
 11
-31.11720893722179
 21
5.45211817846632
 31
0.0
  0
LINE
  5
F7
330
71
100
AcDbEntity
  8
1
  6
Continuous
 62
     7
100
AcDbLine
 10
-67.51720893722171
 20
9.70211817846632
 30
0.0
 11
-67.51720893722171
 21
5.45211817846632
 31
0.0
  0
LINE
  5
F8
330
71
100
AcDbEntity
  8
1
  6
Continuous
 62
     7
100
AcDbLine
 10
-67.51720893722171
 20
9.70211817846632
 30
0.0
 11
-49.31720893722169
 21
9.70211817846643
 31
0.0
  0
LINE
  5
F9
330
71
100
AcDbEntity
  8
1
  6
Continuous
 62
     2
100
AcDbLine
 10
-58.28055405065911
 20
29.07711817846635
 30
0.0
 11
-58.28055405065911
 21
24.07711817846635
 31
0.0
  0
LINE
  5
FA
330
71
100
AcDbEntity
  8
1
  6
Continuous
 62
     2
100
AcDbLine
 10
-58.28055405065911
 20
24.07711817846635
 30
0.0
 11
-63.28055405065911
 21
25.32711817846635
 31
0.0
  0
LINE
  5
FB
330
71
100
AcDbEntity
  8
1
  6
Continuous
 62
     2
100
AcDbLine
 10
-63.28055405065911
 20
25.32711817846635
 30
0.0
 11
-63.28055405065911
 21
27.82711817846635
 31
0.0
  0
LINE
  5
FC
330
71
100
AcDbEntity
  8
1
  6
Continuous
 62
     2
100
AcDbLine
 10
-63.28055405065911
 20
27.82711817846635
 30
0.0
 11
-58.28055405065911
 21
29.07711817846635
 31
0.0
  0
LINE
  5
FD
330
71
100
AcDbEntity
  8
1
  6
Continuous
 62
     6
100
AcDbLine
 10
-189.9724044104699
 20
5.45211817846643
 30
0.0
 11
-224.9724044104698
 21
5.45211817846643
 31
0.0
  0
LINE
  5
FE
330
71
100
AcDbEntity
  8
1
  6
Continuous
 62
     6
100
AcDbLine
 10
62.02759558952999
 20
22.45211817846644
 30
0.0
 11
62.0275955895296
 21
13.95211817846644
 31
0.0
  0
LINE
  5
FF
330
71
100
AcDbEntity
  8
1
  6
Continuous
 62
     6
100
AcDbLine
 10
-31.11720893722179
 20
5.45211817846632
 30
0.0
 11
-31.47240441047171
 21
5.45211817846643
 31
0.0
  0
LINE
  5
100
330
71
100
AcDbEntity
  8
1
  6
Continuous
 62
     6
100
AcDbLine
 10
-183.7724044104719
 20
5.45211817846632
 30
0.0
 11
-189.9724044104699
 21
5.45211817846643
 31
0.0
  0
LINE
  5
101
330
71
100
AcDbEntity
  8
1
  6
Continuous
 62
     7
100
AcDbLine
 10
-31.11720893722179
 20
22.45211817846644
 30
0.0
 11
-31.11720893722179
 21
9.70211817846643
 31
0.0
  0
LINE
  5
102
330
71
100
AcDbEntity
  8
1
  6
Continuous
 62
     7
100
AcDbLine
 10
-67.51720893722171
 20
22.45211817846644
 30
0.0
 11
-67.51720893722171
 21
9.70211817846632
 31
0.0
  0
LINE
  5
103
330
71
100
AcDbEntity
  8
1
  6
Continuous
 62
     6
100
AcDbLine
 10
-81.47240441047168
 20
5.45211817846643
 30
0.0
 11
-131.4724044104719
 21
5.45211817846643
 31
0.0
  0
LINE
  5
104
330
71
100
AcDbEntity
  8
1
  6
Continuous
 62
     6
100
AcDbLine
 10
-183.7724044104719
 20
5.45211817846632
 30
0.0
 11
-181.4724044104717
 21
5.45211817846643
 31
0.0
  0
LINE
  5
105
330
71
100
AcDbEntity
  8
1
  6
Continuous
 62
     6
100
AcDbLine
 10
-31.11720893722179
 20
5.45211817846632
 30
0.0
 11
18.52759558952829
 21
5.45211817846643
 31
0.0
  0
LINE
  5
106
330
71
100
AcDbEntity
  8
1
  6
Continuous
 62
     6
100
AcDbLine
 10
62.0275955895283
 20
5.45211817846643
 30
0.0
 11
62.0275955895296
 21
13.95211817846644
 31
0.0
  0
LINE
  5
107
330
71
100
AcDbEntity
  8
1
  6
Continuous
 62
     2
100
AcDbLine
 10
-229.9724044104708
 20
5.45211817846643
 30
0.0
 11
-229.9724044104708
 21
0.45211817846632
 31
0.0
  0
LINE
  5
108
330
71
100
AcDbEntity
  8
1
  6
Continuous
 62
     2
100
AcDbLine
 10
-224.9724044104698
 20
5.45211817846643
 30
0.0
 11
-229.9724044104708
 21
5.45211817846643
 31
0.0
  0
LINE
  5
109
330
71
100
AcDbEntity
  8
1
  6
Continuous
 62
     2
100
AcDbLine
 10
-224.9724044104698
 20
0.45211817846632
 30
0.0
 11
-181.4724044104717
 21
0.45211817846632
 31
0.0
  0
LINE
  5
10A
330
71
100
AcDbEntity
  8
1
  6
Continuous
 62
     2
100
AcDbLine
 10
-224.9724044104698
 20
5.45211817846643
 30
0.0
 11
-224.9724044104698
 21
0.45211817846632
 31
0.0
  0
LINE
  5
10B
330
71
100
AcDbEntity
  8
1
  6
Continuous
 62
     2
100
AcDbLine
 10
18.52759558952829
 20
0.45211817846632
 30
0.0
 11
-31.47240441047171
 21
0.45211817846632
 31
0.0
  0
LINE
  5
10C
330
71
100
AcDbEntity
  8
1
  6
Continuous
 62
     2
100
AcDbLine
 10
18.52759558952829
 20
0.45211817846632
 30
0.0
 11
18.52759558952829
 21
5.45211817846643
 31
0.0
  0
LINE
  5
10D
330
71
100
AcDbEntity
  8
1
  6
Continuous
 62
     2
100
AcDbLine
 10
-31.47240441047171
 20
0.45211817846632
 30
0.0
 11
-31.47240441047171
 21
5.45211817846643
 31
0.0
  0
LINE
  5
10E
330
71
100
AcDbEntity
  8
1
  6
Continuous
 62
     2
100
AcDbLine
 10
-81.47240441047168
 20
0.45211817846632
 30
0.0
 11
-31.47240441047171
 21
0.45211817846632
 31
0.0
  0
LINE
  5
10F
330
71
100
AcDbEntity
  8
1
  6
Continuous
 62
     2
100
AcDbLine
 10
-81.47240441047168
 20
0.45211817846632
 30
0.0
 11
-81.47240441047168
 21
5.45211817846643
 31
0.0
  0
LINE
  5
110
330
71
100
AcDbEntity
  8
1
  6
Continuous
 62
     2
100
AcDbLine
 10
-131.4724044104719
 20
0.45211817846632
 30
0.0
 11
-81.47240441047168
 21
0.45211817846632
 31
0.0
  0
LINE
  5
111
330
71
100
AcDbEntity
  8
1
  6
Continuous
 62
     2
100
AcDbLine
 10
-131.4724044104719
 20
0.45211817846632
 30
0.0
 11
-131.4724044104719
 21
5.45211817846643
 31
0.0
  0
LINE
  5
112
330
71
100
AcDbEntity
  8
1
  6
Continuous
 62
     2
100
AcDbLine
 10
-181.4724044104717
 20
0.45211817846632
 30
0.0
 11
-131.4724044104719
 21
0.45211817846632
 31
0.0
  0
LINE
  5
113
330
71
100
AcDbEntity
  8
1
  6
Continuous
 62
     2
100
AcDbLine
 10
-181.4724044104717
 20
0.45211817846632
 30
0.0
 11
-181.4724044104717
 21
5.45211817846643
 31
0.0
  0
LINE
  5
114
330
71
100
AcDbEntity
  8
1
  6
Continuous
 62
     6
100
AcDbLine
 10
-224.97240441047
 20
55.45211817846655
 30
0.0
 11
-224.9724044104698
 21
5.45211817846643
 31
0.0
  0
LINE
  5
115
330
71
100
AcDbEntity
  8
1
  6
Continuous
 62
     2
100
AcDbLine
 10
-229.9724044104708
 20
55.45211817846655
 30
0.0
 11
-229.9724044104708
 21
5.45211817846643
 31
0.0
  0
LINE
  5
116
330
71
100
AcDbEntity
  8
1
  6
Continuous
 62
     2
100
AcDbLine
 10
-229.9724044104708
 20
55.45211817846655
 30
0.0
 11
-224.97240441047
 21
55.45211817846655
 31
0.0
  0
LINE
  5
117
330
71
100
AcDbEntity
  8
1
  6
Continuous
 62
     6
100
AcDbLine
 10
-224.9724044104702
 20
105.4521181784664
 30
0.0
 11
-224.97240441047
 21
55.45211817846655
 31
0.0
  0
LINE
  5
118
330
71
100
AcDbEntity
  8
1
  6
Continuous
 62
     2
100
AcDbLine
 10
-229.9724044104708
 20
105.4521181784664
 30
0.0
 11
-229.9724044104708
 21
55.45211817846655
 31
0.0
  0
LINE
  5
119
330
71
100
AcDbEntity
  8
1
  6
Continuous
 62
     2
100
AcDbLine
 10
-229.9724044104708
 20
105.4521181784664
 30
0.0
 11
-224.9724044104702
 21
105.4521181784664
 31
0.0
  0
LINE
  5
11A
330
71
100
AcDbEntity
  8
1
  6
Continuous
 62
     6
100
AcDbLine
 10
-224.9724044104707
 20
155.4521181784664
 30
0.0
 11
-224.9724044104702
 21
105.4521181784664
 31
0.0
  0
LINE
  5
11B
330
71
100
AcDbEntity
  8
1
  6
Continuous
 62
     2
100
AcDbLine
 10
-229.9724044104708
 20
155.4521181784664
 30
0.0
 11
-229.9724044104708
 21
105.4521181784664
 31
0.0
  0
LINE
  5
11C
330
71
100
AcDbEntity
  8
1
  6
Continuous
 62
     2
100
AcDbLine
 10
-229.9724044104708
 20
155.4521181784664
 30
0.0
 11
-224.9724044104707
 21
155.4521181784664
 31
0.0
  0
LINE
  5
11D
330
71
100
AcDbEntity
  8
1
  6
Continuous
 62
     6
100
AcDbLine
 10
-224.9724044104708
 20
190.4521181784664
 30
0.0
 11
-224.9724044104707
 21
155.4521181784664
 31
0.0
  0
LINE
  5
11E
330
71
100
AcDbEntity
  8
1
  6
Continuous
 62
     2
100
AcDbLine
 10
-229.9724044104708
 20
210.4521181784664
 30
0.0
 11
-229.9724044104708
 21
155.4521181784664
 31
0.0
  0
LINE
  5
11F
330
71
100
AcDbEntity
  8
1
  6
Continuous
 62
     2
100
AcDbLine
 10
-229.9724044104708
 20
0.45211817846632
 30
0.0
 11
-224.9724044104698
 21
0.45211817846632
 31
0.0
  0
LINE
  5
120
330
71
100
AcDbEntity
  8
1
  6
Continuous
 62
     2
100
AcDbLine
 10
-81.47240441047168
 20
210.4521181784664
 30
0.0
 11
-81.47240441047168
 21
201.2434263337651
 31
0.0
  0
LINE
  5
121
330
71
100
AcDbEntity
  8
1
  6
Continuous
 62
     2
100
AcDbLine
 10
-81.47240441047168
 20
210.4521181784664
 30
0.0
 11
-229.9724044104708
 21
210.4521181784664
 31
0.0
  0
LINE
  5
122
330
71
100
AcDbEntity
  8
1
  6
Continuous
 62
     2
100
AcDbLine
 10
67.0275955895273
 20
5.45211817846643
 30
0.0
 11
67.0275955895273
 21
55.45211817846655
 31
0.0
  0
LINE
  5
123
330
71
100
AcDbEntity
  8
1
  6
Continuous
 62
     2
100
AcDbLine
 10
67.0275955895273
 20
155.4521181784664
 30
0.0
 11
67.0275955895273
 21
210.4521181784664
 31
0.0
  0
LINE
  5
124
330
71
100
AcDbEntity
  8
1
  6
Continuous
 62
     6
100
AcDbLine
 10
62.02759558952749
 20
155.4521181784664
 30
0.0
 11
62.02759558952729
 21
190.4521181784664
 31
0.0
  0
LINE
  5
125
330
71
100
AcDbEntity
  8
1
  6
Continuous
 62
     2
100
AcDbLine
 10
62.02759558952749
 20
155.4521181784664
 30
0.0
 11
67.0275955895273
 21
155.4521181784664
 31
0.0
  0
LINE
  5
126
330
71
100
AcDbEntity
  8
1
  6
Continuous
 62
     2
100
AcDbLine
 10
67.0275955895273
 20
105.4521181784664
 30
0.0
 11
67.0275955895273
 21
155.4521181784664
 31
0.0
  0
LINE
  5
127
330
71
100
AcDbEntity
  8
1
  6
Continuous
 62
     6
100
AcDbLine
 10
62.0275955895287
 20
105.4521181784664
 30
0.0
 11
62.02759558952749
 21
155.4521181784664
 31
0.0
  0
LINE
  5
128
330
71
100
AcDbEntity
  8
1
  6
Continuous
 62
     2
100
AcDbLine
 10
62.0275955895287
 20
105.4521181784664
 30
0.0
 11
67.0275955895273
 21
105.4521181784664
 31
0.0
  0
LINE
  5
129
330
71
100
AcDbEntity
  8
1
  6
Continuous
 62
     2
100
AcDbLine
 10
67.0275955895273
 20
55.45211817846655
 30
0.0
 11
67.0275955895273
 21
105.4521181784664
 31
0.0
  0
LINE
  5
12A
330
71
100
AcDbEntity
  8
1
  6
Continuous
 62
     6
100
AcDbLine
 10
62.0275955895292
 20
55.45211817846655
 30
0.0
 11
62.0275955895287
 21
105.4521181784664
 31
0.0
  0
LINE
  5
12B
330
71
100
AcDbEntity
  8
1
  6
Continuous
 62
     2
100
AcDbLine
 10
62.0275955895292
 20
55.45211817846655
 30
0.0
 11
67.0275955895273
 21
55.45211817846655
 31
0.0
  0
LINE
  5
12C
330
71
100
AcDbEntity
  8
1
  6
Continuous
 62
     6
100
AcDbLine
 10
62.02759558952729
 20
190.4521181784664
 30
0.0
 11
-224.9724044104708
 21
190.4521181784664
 31
0.0
  0
LINE
  5
12D
330
71
100
AcDbEntity
  8
1
  6
Continuous
 62
     2
100
AcDbLine
 10
67.0275955895273
 20
210.4521181784664
 30
0.0
 11
-81.47240441047168
 21
210.4521181784664
 31
0.0
  0
LINE
  5
12E
330
71
100
AcDbEntity
  8
1
  6
Continuous
 62
     6
100
AcDbLine
 10
62.02759558952999
 20
22.45211817846644
 30
0.0
 11
62.0275955895292
 21
55.45211817846655
 31
0.0
  0
LINE
  5
12F
330
71
100
AcDbEntity
  8
1
  6
Continuous
 62
     2
100
AcDbLine
 10
62.0275955895283
 20
0.45211817846632
 30
0.0
 11
18.52759558952829
 21
0.45211817846632
 31
0.0
  0
LINE
  5
130
330
71
100
AcDbEntity
  8
1
  6
Continuous
 62
     2
100
AcDbLine
 10
67.0275955895273
 20
0.45211817846632
 30
0.0
 11
62.0275955895283
 21
0.45211817846632
 31
0.0
  0
LINE
  5
131
330
71
100
AcDbEntity
  8
1
  6
Continuous
 62
     2
100
AcDbLine
 10
67.0275955895273
 20
0.45211817846632
 30
0.0
 11
67.0275955895273
 21
5.45211817846643
 31
0.0
  0
LINE
  5
132
330
71
100
AcDbEntity
  8
1
  6
Continuous
 62
     6
100
AcDbLine
 10
-67.51720893722171
 20
22.45211817846644
 30
0.0
 11
-31.11720893722179
 21
22.45211817846644
 31
0.0
  0
LINE
  5
133
330
71
100
AcDbEntity
  8
1
  6
Continuous
 62
     2
100
AcDbLine
 10
62.0275955895283
 20
5.45211817846643
 30
0.0
 11
62.0275955895283
 21
0.45211817846632
 31
0.0
  0
LINE
  5
134
330
71
100
AcDbEntity
  8
1
  6
Continuous
 62
     2
100
AcDbLine
 10
62.0275955895283
 20
5.45211817846643
 30
0.0
 11
67.0275955895273
 21
5.45211817846643
 31
0.0
  0
LINE
  5
135
330
71
100
AcDbEntity
  8
1
  6
Continuous
 62
     6
100
AcDbLine
 10
-31.47240441047171
 20
5.45211817846643
 30
0.0
 11
-49.31720893722169
 21
5.45211817846643
 31
0.0
  0
LINE
  5
136
330
71
100
AcDbEntity
  8
1
  6
Continuous
 62
     6
100
AcDbLine
 10
18.52759558952829
 20
5.45211817846643
 30
0.0
 11
62.0275955895283
 21
5.45211817846643
 31
0.0
  0
LINE
  5
137
330
71
100
AcDbEntity
  8
1
  6
Continuous
 62
     6
100
AcDbLine
 10
-131.4724044104719
 20
5.45211817846643
 30
0.0
 11
-136.5172089372217
 21
5.45211817846643
 31
0.0
  0
LINE
  5
138
330
71
100
AcDbEntity
  8
1
  6
Continuous
 62
     6
100
AcDbLine
 10
-81.47240441047168
 20
5.45211817846643
 30
0.0
 11
-67.51720893722171
 21
5.45211817846632
 31
0.0
  0
LINE
  5
139
102
{ACAD_REACTORS
330
223
330
224
102
}
330
71
100
AcDbEntity
  8
0
  6
Continuous
 62
     2
100
AcDbLine
 10
-60.0025829950749
 20
17.52463293467855
 30
0.0
 11
-60.0025829950749
 21
18.13016822318534
 31
0.0
  0
LINE
  5
13A
102
{ACAD_REACTORS
330
223
330
224
102
}
330
71
100
AcDbEntity
  8
0
  6
Continuous
 62
     2
100
AcDbLine
 10
-60.0025829950749
 20
14.72449832804725
 30
0.0
 11
-60.0025829950749
 21
15.30634973474233
 31
0.0
  0
LINE
  5
13B
102
{ACAD_REACTORS
330
225
330
226
102
}
330
71
100
AcDbEntity
  8
0
  6
Continuous
 62
     2
100
AcDbLine
 10
-37.3730965595957
 20
15.01416239617024
 30
0.0
 11
-37.3730965595957
 21
12.74561817848274
 31
0.0
  0
LINE
  5
13C
102
{ACAD_REACTORS
330
225
330
226
102
}
330
71
100
AcDbEntity
  8
0
  6
Continuous
 62
     2
100
AcDbLine
 10
-38.75415033858329
 20
15.79942770229334
 30
0.0
 11
-35.3692048199546
 21
15.79942770229383
 31
0.0
  0
LINE
  5
13D
102
{ACAD_REACTORS
330
225
330
226
102
}
330
71
100
AcDbEntity
  8
0
  6
Continuous
 62
     2
100
AcDbLine
 10
-35.3692048199546
 20
15.01416239617024
 30
0.0
 11
-35.3692048199546
 21
15.79942770229383
 31
0.0
  0
LINE
  5
13E
102
{ACAD_REACTORS
330
225
330
226
102
}
330
71
100
AcDbEntity
  8
0
  6
Continuous
 62
     2
100
AcDbLine
 10
-36.18030385742799
 20
15.01416239617024
 30
0.0
 11
-35.3692048199546
 21
15.01416239617024
 31
0.0
  0
LINE
  5
13F
102
{ACAD_REACTORS
330
225
330
226
102
}
330
71
100
AcDbEntity
  8
0
  6
Continuous
 62
     2
100
AcDbLine
 10
-36.18030385742799
 20
12.74561817848274
 30
0.0
 11
-36.18030385742799
 21
15.01416239617024
 31
0.0
  0
LINE
  5
140
102
{ACAD_REACTORS
330
225
330
226
102
}
330
71
100
AcDbEntity
  8
0
  6
Continuous
 62
     2
100
AcDbLine
 10
-37.3730965595957
 20
12.74561817848274
 30
0.0
 11
-36.18030385742799
 21
12.74561817848274
 31
0.0
  0
LINE
  5
141
102
{ACAD_REACTORS
330
21B
330
21C
102
}
330
71
100
AcDbEntity
  8
0
  6
Continuous
 62
     2
100
AcDbLine
 10
-38.0696874976602
 20
19.15861817846823
 30
0.0
 11
-39.47241171540949
 21
19.15861817846823
 31
0.0
  0
LINE
  5
142
102
{ACAD_REACTORS
330
21B
330
21C
102
}
330
71
100
AcDbEntity
  8
0
  6
Continuous
 62
     2
100
AcDbLine
 10
-38.0696874976602
 20
19.15861817846823
 30
0.0
 11
-37.4685199757684
 21
18.47879485691274
 31
0.0
  0
LINE
  5
143
102
{ACAD_REACTORS
330
21B
330
21C
102
}
330
71
100
AcDbEntity
  8
0
  6
Continuous
 62
     2
100
AcDbLine
 10
-37.4685199757684
 20
18.47879485691274
 30
0.0
 11
-36.86735245387561
 21
19.15861817846823
 31
0.0
  0
LINE
  5
144
102
{ACAD_REACTORS
330
21B
330
21C
102
}
330
71
100
AcDbEntity
  8
0
  6
Continuous
 62
     2
100
AcDbLine
 10
-36.76715786689491
 20
17.68566764843203
 30
0.0
 11
-35.46462823612839
 21
19.15861817846823
 31
0.0
  0
LINE
  5
145
102
{ACAD_REACTORS
330
21B
330
21C
102
}
330
71
100
AcDbEntity
  8
0
  6
Continuous
 62
     2
100
AcDbLine
 10
-36.76715786689491
 20
17.68566764843203
 30
0.0
 11
-35.3692048199546
 21
16.10480865465704
 31
0.0
  0
LINE
  5
146
102
{ACAD_REACTORS
330
21B
330
21C
102
}
330
71
100
AcDbEntity
  8
0
  6
Continuous
 62
     2
100
AcDbLine
 10
-36.7719290377029
 20
16.10480865465704
 30
0.0
 11
-35.3692048199546
 21
16.10480865465704
 31
0.0
  0
LINE
  5
147
102
{ACAD_REACTORS
330
21B
330
21C
102
}
330
71
100
AcDbEntity
  8
0
  6
Continuous
 62
     2
100
AcDbLine
 10
-37.4685199757684
 20
16.89254043995075
 30
0.0
 11
-36.7719290377029
 21
16.10480865465704
 31
0.0
  0
LINE
  5
148
102
{ACAD_REACTORS
330
219
330
21A
102
}
330
71
100
AcDbEntity
  8
0
  6
Continuous
 62
     2
100
AcDbLine
 10
-40.92761881205209
 20
19.15861817846823
 30
0.0
 11
-39.68711440179919
 21
19.15861817846823
 31
0.0
  0
LINE
  5
149
102
{ACAD_REACTORS
330
219
330
21A
102
}
330
71
100
AcDbEntity
  8
0
  6
Continuous
 62
     2
100
AcDbLine
 10
-39.68711440179919
 20
19.15861817846823
 30
0.0
 11
-39.68711440179919
 21
16.10480865465704
 31
0.0
  0
LINE
  5
14A
102
{ACAD_REACTORS
330
219
330
21A
102
}
330
71
100
AcDbEntity
  8
0
  6
Continuous
 62
     2
100
AcDbLine
 10
-40.92761881205209
 20
16.10480865465704
 30
0.0
 11
-40.92761881205209
 21
19.15861817846823
 31
0.0
  0
LINE
  5
14B
102
{ACAD_REACTORS
330
217
330
218
102
}
330
71
100
AcDbEntity
  8
0
  6
Continuous
 62
     2
100
AcDbLine
 10
-42.3959288945897
 20
13.96714198800723
 30
0.0
 11
-42.0957636573973
 21
14.73495695399393
 31
0.0
  0
LINE
  5
14C
102
{ACAD_REACTORS
330
217
330
218
102
}
330
71
100
AcDbEntity
  8
0
  6
Continuous
 62
     2
100
AcDbLine
 10
-42.87346449921051
 20
12.74561817848274
 30
0.0
 11
-42.6619844457347
 21
13.28657872270063
 31
0.0
  0
LINE
  5
14D
102
{ACAD_REACTORS
330
217
330
218
102
}
330
71
100
AcDbEntity
  8
0
  6
Continuous
 62
     2
100
AcDbLine
 10
-42.71601586252419
 20
15.79942770229383
 30
0.0
 11
-44.1139689094635
 21
12.74561817848274
 31
0.0
  0
LINE
  5
14E
102
{ACAD_REACTORS
330
217
330
218
102
}
330
71
100
AcDbEntity
  8
0
  6
Continuous
 62
     2
100
AcDbLine
 10
-40.07755840533119
 20
12.74561817848274
 30
0.0
 11
-41.31806281558511
 21
12.74561817848274
 31
0.0
  0
LINE
  5
14F
102
{ACAD_REACTORS
330
217
330
218
102
}
330
71
100
AcDbEntity
  8
0
  6
Continuous
 62
     2
100
AcDbLine
 10
-42.6619844457347
 20
13.28657872270063
 30
0.0
 11
-41.52954286906089
 21
13.28657872270063
 31
0.0
  0
LINE
  5
150
102
{ACAD_REACTORS
330
215
330
216
102
}
330
71
100
AcDbEntity
  8
0
  6
Continuous
 62
     2
100
AcDbLine
 10
-46.27148104864571
 20
15.01416239617024
 30
0.0
 11
-45.46038201117111
 21
15.01416239617024
 31
0.0
  0
LINE
  5
151
102
{ACAD_REACTORS
330
215
330
216
102
}
330
71
100
AcDbEntity
  8
0
  6
Continuous
 62
     2
100
AcDbLine
 10
-43.45649027153209
 20
15.79942770229383
 30
0.0
 11
-46.27148104864571
 21
15.79942770229383
 31
0.0
  0
LINE
  5
152
102
{ACAD_REACTORS
330
215
330
216
102
}
330
71
100
AcDbEntity
  8
0
  6
Continuous
 62
     2
100
AcDbLine
 10
-43.45649027153209
 20
15.01416239617024
 30
0.0
 11
-43.45649027153209
 21
15.79942770229383
 31
0.0
  0
LINE
  5
153
102
{ACAD_REACTORS
330
215
330
216
102
}
330
71
100
AcDbEntity
  8
0
  6
Continuous
 62
     2
100
AcDbLine
 10
-44.26758930900459
 20
15.01416239617024
 30
0.0
 11
-43.45649027153209
 21
15.01416239617024
 31
0.0
  0
LINE
  5
154
102
{ACAD_REACTORS
330
215
330
216
102
}
330
71
100
AcDbEntity
  8
0
  6
Continuous
 62
     2
100
AcDbLine
 10
-44.26758930900459
 20
12.74561817848274
 30
0.0
 11
-44.26758930900459
 21
15.01416239617024
 31
0.0
  0
LINE
  5
155
102
{ACAD_REACTORS
330
213
330
214
102
}
330
71
100
AcDbEntity
  8
0
  6
Continuous
 62
     2
100
AcDbLine
 10
-43.59947446490659
 20
16.10480865465704
 30
0.0
 11
-43.59947446490659
 21
17.41358416486173
 31
0.0
  0
LINE
  5
156
102
{ACAD_REACTORS
330
213
330
214
102
}
330
71
100
AcDbEntity
  8
0
  6
Continuous
 62
     2
100
AcDbLine
 10
-44.79226716707311
 20
19.15861817846823
 30
0.0
 11
-44.79226716707311
 21
16.10480865465704
 31
0.0
  0
LINE
  5
157
102
{ACAD_REACTORS
330
213
330
214
102
}
330
71
100
AcDbEntity
  8
0
  6
Continuous
 62
     2
100
AcDbLine
 10
-43.59947446490659
 20
19.15861817846823
 30
0.0
 11
-44.79226716707311
 21
19.15861817846823
 31
0.0
  0
LINE
  5
158
102
{ACAD_REACTORS
330
213
330
214
102
}
330
71
100
AcDbEntity
  8
0
  6
Continuous
 62
     2
100
AcDbLine
 10
-42.35897005465259
 20
19.15861817846823
 30
0.0
 11
-42.35897005465259
 21
17.84984266826305
 31
0.0
  0
LINE
  5
159
102
{ACAD_REACTORS
330
211
330
212
102
}
330
71
100
AcDbEntity
  8
0
  6
Continuous
 62
     2
100
AcDbLine
 10
-50.0407059874928
 20
15.79942770229383
 30
0.0
 11
-50.0407059874928
 21
12.74561817848274
 31
0.0
  0
LINE
  5
15A
102
{ACAD_REACTORS
330
211
330
212
102
}
330
71
100
AcDbEntity
  8
0
  6
Continuous
 62
     2
100
AcDbLine
 10
-48.84791328532521
 20
15.79942770229383
 30
0.0
 11
-50.0407059874928
 21
15.79942770229383
 31
0.0
  0
LINE
  5
15B
102
{ACAD_REACTORS
330
211
330
212
102
}
330
71
100
AcDbEntity
  8
0
  6
Continuous
 62
     2
100
AcDbLine
 10
-47.60740887507231
 20
12.74561817848274
 30
0.0
 11
-46.41461617290591
 21
12.74561817848274
 31
0.0
  0
LINE
  5
15C
102
{ACAD_REACTORS
330
211
330
212
102
}
330
71
100
AcDbEntity
  8
0
  6
Continuous
 62
     2
100
AcDbLine
 10
-50.0407059874928
 20
12.74561817848274
 30
0.0
 11
-48.84791328532521
 21
12.74561817848274
 31
0.0
  0
LINE
  5
15D
102
{ACAD_REACTORS
330
221
330
222
102
}
330
71
100
AcDbEntity
  8
0
  6
Continuous
 62
     2
100
AcDbLine
 10
-46.36675353393369
 20
17.98072021928354
 30
0.0
 11
-46.36675353393369
 21
18.46060457302525
 31
0.0
  0
LINE
  5
15E
102
{ACAD_REACTORS
330
221
330
222
102
}
330
71
100
AcDbEntity
  8
0
  6
Continuous
 62
     2
100
AcDbLine
 10
-45.03082570750601
 20
17.98072021928354
 30
0.0
 11
-46.36675353393369
 21
17.98072021928354
 31
0.0
  0
LINE
  5
15F
102
{ACAD_REACTORS
330
221
330
222
102
}
330
71
100
AcDbEntity
  8
0
  6
Continuous
 62
     2
100
AcDbLine
 10
-45.03082570750601
 20
17.28270661384124
 30
0.0
 11
-45.03082570750601
 21
17.98072021928354
 31
0.0
  0
LINE
  5
160
102
{ACAD_REACTORS
330
221
330
222
102
}
330
71
100
AcDbEntity
  8
0
  6
Continuous
 62
     2
100
AcDbLine
 10
-46.36675353393369
 20
17.28270661384124
 30
0.0
 11
-45.03082570750601
 21
17.28270661384124
 31
0.0
  0
LINE
  5
161
102
{ACAD_REACTORS
330
20F
330
210
102
}
330
71
100
AcDbEntity
  8
0
  6
Continuous
 62
     2
100
AcDbLine
 10
-49.84970822426061
 20
19.15861817846823
 30
0.0
 11
-49.84970822426061
 21
16.10480865465704
 31
0.0
  0
LINE
  5
162
102
{ACAD_REACTORS
330
20F
330
210
102
}
330
71
100
AcDbEntity
  8
0
  6
Continuous
 62
     2
100
AcDbLine
 10
-49.84970822426061
 20
16.10480865465704
 30
0.0
 11
-51.04250092642701
 21
16.10480865465704
 31
0.0
  0
LINE
  5
163
102
{ACAD_REACTORS
330
20F
330
210
102
}
330
71
100
AcDbEntity
  8
0
  6
Continuous
 62
     2
100
AcDbLine
 10
-51.04250092642701
 20
16.10480865465704
 30
0.0
 11
-51.04250092642701
 21
17.23908076350085
 31
0.0
  0
LINE
  5
164
102
{ACAD_REACTORS
330
20F
330
210
102
}
330
71
100
AcDbEntity
  8
0
  6
Continuous
 62
     2
100
AcDbLine
 10
-52.09215850433449
 20
16.10480865465704
 30
0.0
 11
-53.28495120650109
 21
16.10480865465704
 31
0.0
  0
LINE
  5
165
102
{ACAD_REACTORS
330
20F
330
210
102
}
330
71
100
AcDbEntity
  8
0
  6
Continuous
 62
     2
100
AcDbLine
 10
-53.28495120650109
 20
19.15861817846823
 30
0.0
 11
-52.09215850433449
 21
19.15861817846823
 31
0.0
  0
LINE
  5
166
102
{ACAD_REACTORS
330
20F
330
210
102
}
330
71
100
AcDbEntity
  8
0
  6
Continuous
 62
     2
100
AcDbLine
 10
-52.09215850433449
 20
19.15861817846823
 30
0.0
 11
-52.09215850433449
 21
18.08978484513364
 31
0.0
  0
LINE
  5
167
102
{ACAD_REACTORS
330
20F
330
210
102
}
330
71
100
AcDbEntity
  8
0
  6
Continuous
 62
     2
100
AcDbLine
 10
-52.09215850433449
 20
18.08978484513364
 30
0.0
 11
-51.04250092642701
 21
18.08978484513364
 31
0.0
  0
LINE
  5
168
102
{ACAD_REACTORS
330
21D
330
21E
102
}
330
71
100
AcDbEntity
  8
0
  6
Continuous
 62
     2
100
AcDbLine
 10
-55.24113123805469
 20
18.49551233302813
 30
0.0
 11
-54.92383617651279
 21
18.49551233302813
 31
0.0
  0
LINE
  5
169
102
{ACAD_REACTORS
330
21D
330
21E
102
}
330
71
100
AcDbEntity
  8
0
  6
Continuous
 62
     2
100
AcDbLine
 10
-55.24113123805469
 20
17.78978468368592
 30
0.0
 11
-54.92383617651279
 21
17.78978468368592
 31
0.0
  0
LINE
  5
16A
102
{ACAD_REACTORS
330
21D
330
21E
102
}
330
71
100
AcDbEntity
  8
0
  6
Continuous
 62
     2
100
AcDbLine
 10
-56.48163564830881
 20
19.15861817846823
 30
0.0
 11
-56.48163564830881
 21
16.10480865465704
 31
0.0
  0
LINE
  5
16B
102
{ACAD_REACTORS
330
21D
330
21E
102
}
330
71
100
AcDbEntity
  8
0
  6
Continuous
 62
     2
100
AcDbLine
 10
-56.48163564830881
 20
19.15861817846823
 30
0.0
 11
-54.48236365027441
 21
19.15861817846823
 31
0.0
  0
LINE
  5
16C
102
{ACAD_REACTORS
330
21D
330
21E
102
}
330
71
100
AcDbEntity
  8
0
  6
Continuous
 62
     2
100
AcDbLine
 10
-55.24113123805469
 20
17.04788689580084
 30
0.0
 11
-54.48236365027441
 21
17.04788689580084
 31
0.0
  0
LINE
  5
16D
102
{ACAD_REACTORS
330
223
330
224
102
}
330
71
100
AcDbEntity
  8
0
  6
Continuous
 62
     2
100
AcDbLine
 10
-62.5781316816055
 20
18.13034569983344
 30
0.0
 11
-62.5781316816055
 21
13.77389065711634
 31
0.0
  0
LINE
  5
16E
102
{ACAD_REACTORS
330
223
330
224
102
}
330
71
100
AcDbEntity
  8
0
  6
Continuous
 62
     2
100
AcDbLine
 10
-62.26241475852982
 20
18.44606262290964
 30
0.0
 11
-60.78658149752019
 21
18.44606262290964
 31
0.0
  0
LINE
  5
16F
102
{ACAD_REACTORS
330
223
330
224
102
}
330
71
100
AcDbEntity
  8
0
  6
Continuous
 62
     2
100
AcDbLine
 10
-60.4708645744436
 20
17.52632108077293
 30
0.0
 11
-60.4708645744436
 21
18.13034569983344
 31
0.0
  0
LINE
  5
170
102
{ACAD_REACTORS
330
223
330
224
102
}
330
71
100
AcDbEntity
  8
0
  6
Continuous
 62
     2
100
AcDbLine
 10
-60.4708645744436
 20
13.77389065711634
 30
0.0
 11
-60.4708645744436
 21
15.30466158864795
 31
0.0
  0
LINE
  5
171
102
{ACAD_REACTORS
330
223
330
224
102
}
330
71
100
AcDbEntity
  8
0
  6
Continuous
 62
     2
100
AcDbLine
 10
-57.3829973445595
 20
12.74561817848274
 30
0.0
 11
-62.8563094352763
 21
12.74561817848274
 31
0.0
  0
LINE
  5
172
102
{ACAD_REACTORS
330
223
330
224
102
}
330
71
100
AcDbEntity
  8
0
  6
Continuous
 62
     2
100
AcDbLine
 10
-56.95875272917562
 20
18.73437356306624
 30
0.0
 11
-56.95875272917562
 21
13.16986279386603
 31
0.0
  0
LINE
  5
173
102
{ACAD_REACTORS
330
223
330
224
102
}
330
71
100
AcDbEntity
  8
0
  6
Continuous
 62
     2
100
AcDbLine
 10
-62.8563094352763
 20
19.15861817845004
 30
0.0
 11
-57.3829973445595
 21
19.15861817845004
 31
0.0
  0
LINE
  5
174
102
{ACAD_REACTORS
330
223
330
224
102
}
330
71
100
AcDbEntity
  8
0
  6
Continuous
 62
     2
100
AcDbLine
 10
-63.28055405065911
 20
18.73437356306624
 30
0.0
 11
-63.28055405065911
 21
13.16986279386603
 31
0.0
  0
LINE
  5
175
102
{ACAD_REACTORS
330
223
330
224
102
}
330
71
100
AcDbEntity
  8
0
  6
Continuous
 62
     2
100
AcDbLine
 10
-60.78658149752019
 20
13.45817373403963
 30
0.0
 11
-62.26241475852982
 21
13.45817373403963
 31
0.0
  0
LINE
  5
176
102
{ACAD_REACTORS
330
21D
330
21E
102
}
330
71
100
AcDbEntity
  8
0
  6
Continuous
 62
     2
100
AcDbLine
 10
-55.24113123805469
 20
16.10480865465704
 30
0.0
 11
-55.24113123805469
 21
17.04788689580084
 31
0.0
  0
LINE
  5
177
102
{ACAD_REACTORS
330
21D
330
21E
102
}
330
71
100
AcDbEntity
  8
0
  6
Continuous
 62
     2
100
AcDbLine
 10
-56.48163564830881
 20
16.10480865465704
 30
0.0
 11
-55.24113123805469
 21
16.10480865465704
 31
0.0
  0
LINE
  5
178
102
{ACAD_REACTORS
330
21D
330
21E
102
}
330
71
100
AcDbEntity
  8
0
  6
Continuous
 62
     2
100
AcDbLine
 10
-55.24113123805469
 20
17.78978468368592
 30
0.0
 11
-55.24113123805469
 21
18.49551233302813
 31
0.0
  0
LINE
  5
179
102
{ACAD_REACTORS
330
20F
330
210
102
}
330
71
100
AcDbEntity
  8
0
  6
Continuous
 62
     2
100
AcDbLine
 10
-53.28495120650109
 20
19.15861817846823
 30
0.0
 11
-53.28495120650109
 21
16.10480865465704
 31
0.0
  0
LINE
  5
17A
102
{ACAD_REACTORS
330
20F
330
210
102
}
330
71
100
AcDbEntity
  8
0
  6
Continuous
 62
     2
100
AcDbLine
 10
-52.09215850433449
 20
17.23908076350085
 30
0.0
 11
-52.09215850433449
 21
16.10480865465704
 31
0.0
  0
LINE
  5
17B
102
{ACAD_REACTORS
330
20F
330
210
102
}
330
71
100
AcDbEntity
  8
0
  6
Continuous
 62
     2
100
AcDbLine
 10
-51.04250092642701
 20
17.23908076350085
 30
0.0
 11
-52.09215850433449
 21
17.23908076350085
 31
0.0
  0
LINE
  5
17C
102
{ACAD_REACTORS
330
20F
330
210
102
}
330
71
100
AcDbEntity
  8
0
  6
Continuous
 62
     2
100
AcDbLine
 10
-51.04250092642701
 20
19.15861817846823
 30
0.0
 11
-49.84970822426061
 21
19.15861817846823
 31
0.0
  0
LINE
  5
17D
102
{ACAD_REACTORS
330
20F
330
210
102
}
330
71
100
AcDbEntity
  8
0
  6
Continuous
 62
     2
100
AcDbLine
 10
-51.04250092642701
 20
18.08978484513364
 30
0.0
 11
-51.04250092642701
 21
19.15861817846823
 31
0.0
  0
LINE
  5
17E
102
{ACAD_REACTORS
330
221
330
222
102
}
330
71
100
AcDbEntity
  8
0
  6
Continuous
 62
     2
100
AcDbLine
 10
-45.03082570750601
 20
18.46060457302525
 30
0.0
 11
-45.03082570750601
 21
19.15861817846823
 31
0.0
  0
LINE
  5
17F
102
{ACAD_REACTORS
330
221
330
222
102
}
330
71
100
AcDbEntity
  8
0
  6
Continuous
 62
     2
100
AcDbLine
 10
-48.18114543128701
 20
19.15861817846823
 30
0.0
 11
-45.03082570750601
 21
19.15861817846823
 31
0.0
  0
LINE
  5
180
102
{ACAD_REACTORS
330
221
330
222
102
}
330
71
100
AcDbEntity
  8
0
  6
Continuous
 62
     2
100
AcDbLine
 10
-48.18114543128701
 20
16.10480865465704
 30
0.0
 11
-45.03082570750601
 21
16.10480865465704
 31
0.0
  0
LINE
  5
181
102
{ACAD_REACTORS
330
221
330
222
102
}
330
71
100
AcDbEntity
  8
0
  6
Continuous
 62
     2
100
AcDbLine
 10
-45.03082570750601
 20
16.10480865465704
 30
0.0
 11
-45.03082570750601
 21
16.80282226009953
 31
0.0
  0
LINE
  5
182
102
{ACAD_REACTORS
330
221
330
222
102
}
330
71
100
AcDbEntity
  8
0
  6
Continuous
 62
     2
100
AcDbLine
 10
-45.03082570750601
 20
16.80282226009953
 30
0.0
 11
-46.36675353393369
 21
16.80282226009953
 31
0.0
  0
LINE
  5
183
102
{ACAD_REACTORS
330
221
330
222
102
}
330
71
100
AcDbEntity
  8
0
  6
Continuous
 62
     2
100
AcDbLine
 10
-46.36675353393369
 20
16.80282226009953
 30
0.0
 11
-46.36675353393369
 21
17.28270661384124
 31
0.0
  0
LINE
  5
184
102
{ACAD_REACTORS
330
221
330
222
102
}
330
71
100
AcDbEntity
  8
0
  6
Continuous
 62
     2
100
AcDbLine
 10
-46.36675353393369
 20
18.46060457302525
 30
0.0
 11
-45.03082570750601
 21
18.46060457302525
 31
0.0
  0
LINE
  5
185
102
{ACAD_REACTORS
330
211
330
212
102
}
330
71
100
AcDbEntity
  8
0
  6
Continuous
 62
     2
100
AcDbLine
 10
-48.84791328532521
 20
12.74561817848274
 30
0.0
 11
-48.84791328532521
 21
14.05439368868733
 31
0.0
  0
LINE
  5
186
102
{ACAD_REACTORS
330
211
330
212
102
}
330
71
100
AcDbEntity
  8
0
  6
Continuous
 62
     2
100
AcDbLine
 10
-48.84791328532521
 20
14.05439368868733
 30
0.0
 11
-47.60740887507231
 21
12.74561817848274
 31
0.0
  0
LINE
  5
187
102
{ACAD_REACTORS
330
211
330
212
102
}
330
71
100
AcDbEntity
  8
0
  6
Continuous
 62
     2
100
AcDbLine
 10
-46.41461617290591
 20
12.74561817848274
 30
0.0
 11
-46.41461617290591
 21
15.79942770229383
 31
0.0
  0
LINE
  5
188
102
{ACAD_REACTORS
330
211
330
212
102
}
330
71
100
AcDbEntity
  8
0
  6
Continuous
 62
     2
100
AcDbLine
 10
-46.41461617290591
 20
15.79942770229383
 30
0.0
 11
-47.60740887507231
 21
15.79942770229383
 31
0.0
  0
LINE
  5
189
102
{ACAD_REACTORS
330
211
330
212
102
}
330
71
100
AcDbEntity
  8
0
  6
Continuous
 62
     2
100
AcDbLine
 10
-47.60740887507231
 20
15.79942770229383
 30
0.0
 11
-47.60740887507231
 21
14.49065219208873
 31
0.0
  0
LINE
  5
18A
102
{ACAD_REACTORS
330
211
330
212
102
}
330
71
100
AcDbEntity
  8
0
  6
Continuous
 62
     2
100
AcDbLine
 10
-47.60740887507231
 20
14.49065219208873
 30
0.0
 11
-48.84791328532521
 21
15.79942770229383
 31
0.0
  0
LINE
  5
18B
102
{ACAD_REACTORS
330
213
330
214
102
}
330
71
100
AcDbEntity
  8
0
  6
Continuous
 62
     2
100
AcDbLine
 10
-43.59947446490659
 20
17.41358416486173
 30
0.0
 11
-42.35897005465259
 21
16.10480865465704
 31
0.0
  0
LINE
  5
18C
102
{ACAD_REACTORS
330
213
330
214
102
}
330
71
100
AcDbEntity
  8
0
  6
Continuous
 62
     2
100
AcDbLine
 10
-42.35897005465259
 20
16.10480865465704
 30
0.0
 11
-41.16617735248599
 21
16.10480865465704
 31
0.0
  0
LINE
  5
18D
102
{ACAD_REACTORS
330
213
330
214
102
}
330
71
100
AcDbEntity
  8
0
  6
Continuous
 62
     2
100
AcDbLine
 10
-41.16617735248599
 20
16.10480865465704
 30
0.0
 11
-41.16617735248599
 21
19.15861817846823
 31
0.0
  0
LINE
  5
18E
102
{ACAD_REACTORS
330
213
330
214
102
}
330
71
100
AcDbEntity
  8
0
  6
Continuous
 62
     2
100
AcDbLine
 10
-41.16617735248599
 20
19.15861817846823
 30
0.0
 11
-42.35897005465259
 21
19.15861817846823
 31
0.0
  0
LINE
  5
18F
102
{ACAD_REACTORS
330
213
330
214
102
}
330
71
100
AcDbEntity
  8
0
  6
Continuous
 62
     2
100
AcDbLine
 10
-42.35897005465259
 20
17.84984266826305
 30
0.0
 11
-43.59947446490659
 21
19.15861817846823
 31
0.0
  0
LINE
  5
190
102
{ACAD_REACTORS
330
213
330
214
102
}
330
71
100
AcDbEntity
  8
0
  6
Continuous
 62
     2
100
AcDbLine
 10
-44.79226716707311
 20
16.10480865465704
 30
0.0
 11
-43.59947446490659
 21
16.10480865465704
 31
0.0
  0
LINE
  5
191
102
{ACAD_REACTORS
330
215
330
216
102
}
330
71
100
AcDbEntity
  8
0
  6
Continuous
 62
     2
100
AcDbLine
 10
-46.27148104864571
 20
15.79942770229383
 30
0.0
 11
-46.27148104864571
 21
15.01416239617024
 31
0.0
  0
LINE
  5
192
102
{ACAD_REACTORS
330
215
330
216
102
}
330
71
100
AcDbEntity
  8
0
  6
Continuous
 62
     2
100
AcDbLine
 10
-45.46038201117111
 20
15.01416239617024
 30
0.0
 11
-45.46038201117111
 21
12.74561817848274
 31
0.0
  0
LINE
  5
193
102
{ACAD_REACTORS
330
215
330
216
102
}
330
71
100
AcDbEntity
  8
0
  6
Continuous
 62
     2
100
AcDbLine
 10
-45.46038201117111
 20
12.74561817848274
 30
0.0
 11
-44.26758930900459
 21
12.74561817848274
 31
0.0
  0
LINE
  5
194
102
{ACAD_REACTORS
330
217
330
218
102
}
330
71
100
AcDbEntity
  8
0
  6
Continuous
 62
     2
100
AcDbLine
 10
-41.31806281558511
 20
12.74561817848274
 30
0.0
 11
-41.52954286906089
 21
13.28657872270063
 31
0.0
  0
LINE
  5
195
102
{ACAD_REACTORS
330
217
330
218
102
}
330
71
100
AcDbEntity
  8
0
  6
Continuous
 62
     2
100
AcDbLine
 10
-41.47551145227149
 20
15.79942770229383
 30
0.0
 11
-40.07755840533119
 21
12.74561817848274
 31
0.0
  0
LINE
  5
196
102
{ACAD_REACTORS
330
217
330
218
102
}
330
71
100
AcDbEntity
  8
0
  6
Continuous
 62
     2
100
AcDbLine
 10
-42.71601586252419
 20
15.79942770229383
 30
0.0
 11
-41.47551145227149
 21
15.79942770229383
 31
0.0
  0
LINE
  5
197
102
{ACAD_REACTORS
330
217
330
218
102
}
330
71
100
AcDbEntity
  8
0
  6
Continuous
 62
     2
100
AcDbLine
 10
-44.1139689094635
 20
12.74561817848274
 30
0.0
 11
-42.87346449921051
 21
12.74561817848274
 31
0.0
  0
LINE
  5
198
102
{ACAD_REACTORS
330
217
330
218
102
}
330
71
100
AcDbEntity
  8
0
  6
Continuous
 62
     2
100
AcDbLine
 10
-42.3959288945897
 20
13.96714198800723
 30
0.0
 11
-41.7955984202072
 21
13.96714198800723
 31
0.0
  0
LINE
  5
199
102
{ACAD_REACTORS
330
217
330
218
102
}
330
71
100
AcDbEntity
  8
0
  6
Continuous
 62
     2
100
AcDbLine
 10
-41.7955984202072
 20
13.96714198800723
 30
0.0
 11
-42.0957636573973
 21
14.73495695399393
 31
0.0
  0
LINE
  5
19A
102
{ACAD_REACTORS
330
219
330
21A
102
}
330
71
100
AcDbEntity
  8
0
  6
Continuous
 62
     2
100
AcDbLine
 10
-39.68711440179919
 20
16.10480865465704
 30
0.0
 11
-40.92761881205209
 21
16.10480865465704
 31
0.0
  0
LINE
  5
19B
102
{ACAD_REACTORS
330
21B
330
21C
102
}
330
71
100
AcDbEntity
  8
0
  6
Continuous
 62
     2
100
AcDbLine
 10
-38.1651109138341
 20
16.10480865465704
 30
0.0
 11
-39.56783513158231
 21
16.10480865465704
 31
0.0
  0
LINE
  5
19C
102
{ACAD_REACTORS
330
21B
330
21C
102
}
330
71
100
AcDbEntity
  8
0
  6
Continuous
 62
     2
100
AcDbLine
 10
-38.1651109138341
 20
16.10480865465704
 30
0.0
 11
-37.4685199757684
 21
16.89254043995075
 31
0.0
  0
LINE
  5
19D
102
{ACAD_REACTORS
330
21B
330
21C
102
}
330
71
100
AcDbEntity
  8
0
  6
Continuous
 62
     2
100
AcDbLine
 10
-36.86735245387561
 20
19.15861817846823
 30
0.0
 11
-35.46462823612839
 21
19.15861817846823
 31
0.0
  0
LINE
  5
19E
102
{ACAD_REACTORS
330
21B
330
21C
102
}
330
71
100
AcDbEntity
  8
0
  6
Continuous
 62
     2
100
AcDbLine
 10
-39.47241171540949
 20
19.15861817846823
 30
0.0
 11
-38.16988208464201
 21
17.68566764843203
 31
0.0
  0
LINE
  5
19F
102
{ACAD_REACTORS
330
21B
330
21C
102
}
330
71
100
AcDbEntity
  8
0
  6
Continuous
 62
     2
100
AcDbLine
 10
-39.56783513158231
 20
16.10480865465704
 30
0.0
 11
-38.16988208464201
 21
17.68566764843203
 31
0.0
  0
LINE
  5
1A0
102
{ACAD_REACTORS
330
225
330
226
102
}
330
71
100
AcDbEntity
  8
0
  6
Continuous
 62
     2
100
AcDbLine
 10
-37.70707851620239
 20
13.79263858664635
 30
0.0
 11
-37.70707851620239
 21
12.92012157984303
 31
0.0
  0
LINE
  5
1A1
102
{ACAD_REACTORS
330
225
330
226
102
}
330
71
100
AcDbEntity
  8
0
  6
Continuous
 62
     2
100
AcDbLine
 10
-38.4767358591638
 20
15.01416239617024
 30
0.0
 11
-37.3730965595957
 21
15.01416239617024
 31
0.0
  0
LINE
  5
1A2
102
{ACAD_REACTORS
330
227
330
228
102
}
330
71
100
AcDbEntity
  8
0
  6
Continuous
 62
     2
100
AcDbLine
 10
-53.80977999545431
 20
13.79263858664683
 30
0.0
 11
-53.80977999545431
 21
12.92012157984362
 31
0.0
  0
LINE
  5
1A3
102
{ACAD_REACTORS
330
227
330
228
102
}
330
71
100
AcDbEntity
  8
0
  6
Continuous
 62
     2
100
AcDbLine
 10
-53.80977999545431
 20
14.75240729412974
 30
0.0
 11
-53.80977999545431
 21
15.62492430093303
 31
0.0
  0
LINE
  5
1A4
330
71
100
AcDbEntity
  8
1
  6
Continuous
 62
     7
100
AcDbLine
 10
62.0275955895296
 20
13.95211817846644
 30
0.0
 11
-31.11720893722179
 21
13.95211817846644
 31
0.0
  0
LINE
  5
1A5
330
71
100
AcDbEntity
  8
1
  6
Continuous
 62
     6
100
AcDbLine
 10
-136.5172089372217
 20
5.45211817846643
 30
0.0
 11
-181.4724044104717
 21
5.45211817846643
 31
0.0
  0
LINE
  5
1A6
330
71
100
AcDbEntity
  8
1
  6
Continuous
 62
     7
100
AcDbLine
 10
53.10918730785079
 20
30.95211817846644
 30
0.0
 11
53.10918730785079
 21
22.45211817846644
 31
0.0
  0
LINE
  5
1A7
330
71
100
AcDbEntity
  8
1
  6
Continuous
 62
     7
100
AcDbLine
 10
26.60918730785119
 20
30.95211817846644
 30
0.0
 11
26.60918730785119
 21
22.45211817846644
 31
0.0
  0
LINE
  5
1A8
330
71
100
AcDbEntity
  8
1
  6
Continuous
 62
     7
100
AcDbLine
 10
-31.11720893722179
 20
22.45211817846644
 30
0.0
 11
-31.11720893722179
 21
30.95211817846644
 31
0.0
  0
LINE
  5
1A9
330
71
100
AcDbEntity
  8
1
  6
Continuous
 62
     7
100
AcDbLine
 10
-67.51720893722171
 20
22.45211817846644
 30
0.0
 11
-67.51720893722171
 21
30.95211817846644
 31
0.0
  0
LINE
  5
1AA
330
71
100
AcDbEntity
  8
1
  6
Continuous
 62
     6
100
AcDbLine
 10
-31.11720893722179
 20
22.45211817846644
 30
0.0
 11
62.02759558952999
 21
22.45211817846644
 31
0.0
  0
LINE
  5
1AB
330
71
100
AcDbEntity
  8
1
  6
Continuous
 62
     7
100
AcDbLine
 10
-3.2172089372217
 20
13.95211817846635
 30
0.0
 11
-3.2172089372217
 21
22.45211817846644
 31
0.0
  0
LINE
  5
1AC
330
71
100
AcDbEntity
  8
1
  6
PHANTOM
 62
     2
100
AcDbLine
 10
-52.03055405065911
 20
26.57711817846635
 30
0.0
 11
-57.53055405065911
 21
26.57711817846635
 31
0.0
  0
LINE
  5
1AD
330
71
100
AcDbEntity
  8
1
  6
PHANTOM
 62
     2
100
AcDbLine
 10
-54.78055405065911
 20
29.32711817846635
 30
0.0
 11
-54.78055405065911
 21
23.82711817846635
 31
0.0
  0
LINE
  5
1AE
330
71
100
AcDbEntity
  8
1
  6
DOT_CENTER
 62
     2
100
AcDbLine
 10
-63.53055405065911
 20
26.57711817846635
 30
0.0
 11
-58.03055405065911
 21
26.57711817846635
 31
0.0
  0
ARC
  5
1AF
102
{ACAD_REACTORS
330
227
330
228
102
}
330
71
100
AcDbEntity
  8
0
  6
Continuous
 62
     2
100
AcDbCircle
 10
-55.14570791257211
 20
10.95984199513214
 30
0.0
 40
4.852596863498063
100
AcDbArc
 50
74.02000874164744
 51
84.84185523037496
  0
ARC
  5
1B0
102
{ACAD_REACTORS
330
227
330
228
102
}
330
71
100
AcDbEntity
  8
0
  6
Continuous
 62
     2
100
AcDbCircle
 10
-54.56966730381839
 20
14.11560235101644
 30
0.0
 40
0.9059297849853228
100
AcDbArc
 50
71.55192388185348
 51
113.372277888129
  0
ARC
  5
1B1
102
{ACAD_REACTORS
330
227
330
228
102
}
330
71
100
AcDbEntity
  8
0
  6
Continuous
 62
     2
100
AcDbCircle
 10
-54.72610733652041
 20
14.06745151104954
 30
0.0
 40
0.5115800601948096
100
AcDbArc
 50
208.5214732576952
 51
246.6277221118264
  0
ARC
  5
1B2
102
{ACAD_REACTORS
330
227
330
228
102
}
330
71
100
AcDbEntity
  8
0
  6
Continuous
 62
     2
100
AcDbCircle
 10
-54.56966730381839
 20
14.42944352975954
 30
0.0
 40
0.905929784984916
100
AcDbArc
 50
246.6277221118709
 51
288.4480761181586
  0
ARC
  5
1B3
102
{ACAD_REACTORS
330
227
330
228
102
}
330
71
100
AcDbEntity
  8
0
  6
Continuous
 62
     2
100
AcDbCircle
 10
-54.98783503747919
 20
15.68298930579672
 30
0.0
 40
2.227384008972731
100
AcDbArc
 50
288.448076118133
 51
301.9309089499593
  0
ARC
  5
1B4
102
{ACAD_REACTORS
330
223
330
224
102
}
330
71
100
AcDbEntity
  8
0
  6
Continuous
 62
     2
100
AcDbCircle
 10
-60.21290877008599
 20
16.41549133471074
 30
0.0
 40
0.9118481501444573
100
AcDbArc
 50
295.3740086781765
 51
64.62599132180736
  0
ARC
  5
1B5
102
{ACAD_REACTORS
330
223
330
224
102
}
330
71
100
AcDbEntity
  8
0
  6
Continuous
 62
     2
100
AcDbCircle
 10
-59.68686607199811
 20
18.13016822318534
 30
0.0
 40
0.315716923076064
100
AcDbArc
 50
90.18896704254594
 51
180.0
  0
ARC
  5
1B6
102
{ACAD_REACTORS
330
225
330
226
102
}
330
71
100
AcDbEntity
  8
0
  6
Continuous
 62
     2
100
AcDbCircle
 10
-38.4767358591638
 20
14.05963938934414
 30
0.0
 40
0.9545230068261006
100
AcDbArc
 50
90.0
 51
109.337143219432
  0
ARC
  5
1B7
102
{ACAD_REACTORS
330
225
330
226
102
}
330
71
100
AcDbEntity
  8
0
  6
Continuous
 62
     2
100
AcDbCircle
 10
-38.24604859918611
 20
14.27252294038803
 30
0.0
 40
0.9410597353348915
100
AcDbArc
 50
151.4785267423625
 51
208.5214732576695
  0
ARC
  5
1B8
102
{ACAD_REACTORS
330
225
330
226
102
}
330
71
100
AcDbEntity
  8
0
  6
Continuous
 62
     2
100
AcDbCircle
 10
-38.4669658245644
 20
14.42944352975954
 30
0.0
 40
0.9059297849852768
100
AcDbArc
 50
246.6277221118181
 51
288.4480761180817
  0
ARC
  5
1B9
102
{ACAD_REACTORS
330
225
330
226
102
}
330
71
100
AcDbEntity
  8
0
  6
Continuous
 62
     2
100
AcDbCircle
 10
-38.8851335582263
 20
15.68298930579613
 30
0.0
 40
2.227384008972748
100
AcDbArc
 50
288.4480761181335
 51
301.9309089499397
  0
ARC
  5
1BA
102
{ACAD_REACTORS
330
225
330
226
102
}
330
71
100
AcDbEntity
  8
0
  6
Continuous
 62
     2
100
AcDbCircle
 10
-39.04300643331911
 20
17.58520388564443
 30
0.0
 40
4.852596863498823
100
AcDbArc
 50
275.1581447696364
 51
285.9799912583387
  0
ARC
  5
1BB
102
{ACAD_REACTORS
330
225
330
226
102
}
330
71
100
AcDbEntity
  8
0
  6
Continuous
 62
     2
100
AcDbCircle
 10
-38.75415033858329
 20
14.38531330242284
 30
0.0
 40
1.639695123940446
100
AcDbArc
 50
195.0618917771009
 51
275.1581447696762
  0
ARC
  5
1BC
102
{ACAD_REACTORS
330
21D
330
21E
102
}
330
71
100
AcDbEntity
  8
0
  6
Continuous
 62
     2
100
AcDbCircle
 10
-54.48236365027441
 20
18.10325253713455
 30
0.0
 40
1.055365641333712
100
AcDbArc
 50
270.0
 51
90.0
  0
ARC
  5
1BD
102
{ACAD_REACTORS
330
223
330
224
102
}
330
71
100
AcDbEntity
  8
0
  6
Continuous
 62
     2
100
AcDbCircle
 10
-62.26241475852982
 20
13.77389065711634
 30
0.0
 40
0.3157169230756764
100
AcDbArc
 50
180.0
 51
270.0
  0
ARC
  5
1BE
102
{ACAD_REACTORS
330
223
330
224
102
}
330
71
100
AcDbEntity
  8
0
  6
Continuous
 62
     2
100
AcDbCircle
 10
-60.78658149752019
 20
18.13034569983344
 30
0.0
 40
0.3157169230765859
100
AcDbArc
 50
0.0
 51
90.0
  0
ARC
  5
1BF
102
{ACAD_REACTORS
330
223
330
224
102
}
330
71
100
AcDbEntity
  8
0
  6
Continuous
 62
     2
100
AcDbCircle
 10
-60.78658149752019
 20
17.52632108077293
 30
0.0
 40
0.3157169230761203
100
AcDbArc
 50
295.1944106485397
 51
0.0
  0
ARC
  5
1C0
102
{ACAD_REACTORS
330
223
330
224
102
}
330
71
100
AcDbEntity
  8
0
  6
Continuous
 62
     2
100
AcDbCircle
 10
-60.78658149752019
 20
13.77389065711634
 30
0.0
 40
0.3157169230767103
100
AcDbArc
 50
270.0
 51
0.0
  0
ARC
  5
1C1
102
{ACAD_REACTORS
330
223
330
224
102
}
330
71
100
AcDbEntity
  8
0
  6
Continuous
 62
     2
100
AcDbCircle
 10
-62.8563094352763
 20
18.73437356306624
 30
0.0
 40
0.4242446153838024
100
AcDbArc
 50
90.0
 51
180.0
  0
ARC
  5
1C2
102
{ACAD_REACTORS
330
223
330
224
102
}
330
71
100
AcDbEntity
  8
0
  6
Continuous
 62
     2
100
AcDbCircle
 10
-57.3829973445595
 20
18.73437356306624
 30
0.0
 40
0.424244615383877
100
AcDbArc
 50
0.0
 51
90.0
  0
ARC
  5
1C3
102
{ACAD_REACTORS
330
223
330
224
102
}
330
71
100
AcDbEntity
  8
0
  6
Continuous
 62
     2
100
AcDbCircle
 10
-57.3829973445595
 20
13.16986279386603
 30
0.0
 40
0.4242446153832908
100
AcDbArc
 50
270.0
 51
0.0
  0
ARC
  5
1C4
102
{ACAD_REACTORS
330
221
330
222
102
}
330
71
100
AcDbEntity
  8
0
  6
Continuous
 62
     2
100
AcDbCircle
 10
-48.16461345746799
 20
17.63171341656235
 30
0.0
 40
0.7717997786796351
100
AcDbArc
 50
321.879580202844
 51
38.12041979715978
  0
ARC
  5
1C5
102
{ACAD_REACTORS
330
221
330
222
102
}
330
71
100
AcDbEntity
  8
0
  6
Continuous
 62
     2
100
AcDbCircle
 10
-47.96487342112181
 20
17.47498223844193
 30
0.0
 40
0.5179085730134393
100
AcDbArc
 50
218.1204197971514
 51
321.8795802028563
  0
ARC
  5
1C6
102
{ACAD_REACTORS
330
21F
330
220
102
}
330
71
100
AcDbEntity
  8
0
  6
Continuous
 62
     2
100
AcDbCircle
 10
-51.644881010082
 20
14.27252294038803
 30
0.0
 40
1.458034083651999
100
AcDbArc
 50
297.5481481757009
 51
62.45185182429923
  0
ARC
  5
1C7
102
{ACAD_REACTORS
330
21F
330
220
102
}
330
71
100
AcDbEntity
  8
0
  6
Continuous
 62
     2
100
AcDbCircle
 10
-52.2067607937486
 20
14.27252294038803
 30
0.0
 40
1.458034083651492
100
AcDbArc
 50
117.5481481756624
 51
242.4518518243375
  0
ARC
  5
1C8
102
{ACAD_REACTORS
330
21F
330
220
102
}
330
71
100
AcDbEntity
  8
0
  6
Continuous
 62
     2
100
AcDbCircle
 10
-51.9258209019153
 20
13.73394793008524
 30
0.0
 40
2.065479772208563
100
AcDbArc
 50
62.45185182430652
 51
117.5481481756664
  0
ARC
  5
1C9
102
{ACAD_REACTORS
330
21F
330
220
102
}
330
71
100
AcDbEntity
  8
0
  6
Continuous
 62
     2
100
AcDbCircle
 10
-51.9258209019153
 20
14.81109795069133
 30
0.0
 40
2.065479772208505
100
AcDbArc
 50
242.4518518243401
 51
297.5481481756869
  0
ARC
  5
1CA
102
{ACAD_REACTORS
330
221
330
222
102
}
330
71
100
AcDbEntity
  8
0
  6
Continuous
 62
     2
100
AcDbCircle
 10
-47.76513338477551
 20
17.63171341656235
 30
0.0
 40
0.7717997786796745
100
AcDbArc
 50
141.8795802028402
 51
218.120419797156
  0
ARC
  5
1CB
102
{ACAD_REACTORS
330
221
330
222
102
}
330
71
100
AcDbEntity
  8
0
  6
Continuous
 62
     2
100
AcDbCircle
 10
-47.96487342112181
 20
17.78844459468283
 30
0.0
 40
0.5179085730135288
100
AcDbArc
 50
38.12041979714365
 51
141.8795802028486
  0
ARC
  5
1CC
102
{ACAD_REACTORS
330
223
330
224
102
}
330
71
100
AcDbEntity
  8
0
  6
Continuous
 62
     2
100
AcDbCircle
 10
-62.8563094352763
 20
13.16986279386603
 30
0.0
 40
0.4242446153828112
100
AcDbArc
 50
180.0
 51
270.0
  0
ARC
  5
1CD
102
{ACAD_REACTORS
330
223
330
224
102
}
330
71
100
AcDbEntity
  8
0
  6
Continuous
 62
     2
100
AcDbCircle
 10
-60.78658149752019
 20
15.30466158864795
 30
0.0
 40
0.3157169230765859
100
AcDbArc
 50
0.0
 51
64.80558935146027
  0
ARC
  5
1CE
102
{ACAD_REACTORS
330
223
330
224
102
}
330
71
100
AcDbEntity
  8
0
  6
Continuous
 62
     2
100
AcDbCircle
 10
-60.2639970499452
 20
16.41549133471074
 30
0.0
 40
0.9118975235576114
100
AcDbArc
 50
115.1944106485283
 51
244.8055893514878
  0
ARC
  5
1CF
102
{ACAD_REACTORS
330
223
330
224
102
}
330
71
100
AcDbEntity
  8
0
  6
Continuous
 62
     2
100
AcDbCircle
 10
-62.26241475852982
 20
18.13034569983344
 30
0.0
 40
0.3157169230761987
100
AcDbArc
 50
90.0
 51
180.0
  0
ARC
  5
1D0
102
{ACAD_REACTORS
330
21D
330
21E
102
}
330
71
100
AcDbEntity
  8
0
  6
Continuous
 62
     2
100
AcDbCircle
 10
-54.92383617651279
 20
18.14264850835704
 30
0.0
 40
0.3528638246711218
100
AcDbArc
 50
270.0
 51
90.0
  0
ARC
  5
1D1
102
{ACAD_REACTORS
330
221
330
222
102
}
330
71
100
AcDbEntity
  8
0
  6
Continuous
 62
     2
100
AcDbCircle
 10
-48.18114543128701
 20
17.63171341656235
 30
0.0
 40
1.526904761905882
100
AcDbArc
 50
90.0
 51
270.0
  0
ARC
  5
1D2
102
{ACAD_REACTORS
330
225
330
226
102
}
330
71
100
AcDbEntity
  8
0
  6
Continuous
 62
     2
100
AcDbCircle
 10
-38.75415033858329
 20
14.15973257835313
 30
0.0
 40
1.639695123940209
100
AcDbArc
 50
90.0
 51
164.9381082228951
  0
ARC
  5
1D3
102
{ACAD_REACTORS
330
225
330
226
102
}
330
71
100
AcDbEntity
  8
0
  6
Continuous
 62
     2
100
AcDbCircle
 10
-39.1732781820449
 20
14.27252294038803
 30
0.0
 40
1.205656168392995
100
AcDbArc
 50
164.9381082229028
 51
195.0618917770958
  0
ARC
  5
1D4
102
{ACAD_REACTORS
330
225
330
226
102
}
330
71
100
AcDbEntity
  8
0
  6
Continuous
 62
     2
100
AcDbCircle
 10
-38.6234058572675
 20
14.06745151104954
 30
0.0
 40
0.5115800601960215
100
AcDbArc
 50
208.5214732576866
 51
246.6277221118447
  0
ARC
  5
1D5
102
{ACAD_REACTORS
330
225
330
226
102
}
330
71
100
AcDbEntity
  8
0
  6
Continuous
 62
     2
100
AcDbCircle
 10
-38.6234058572675
 20
14.47759436972703
 30
0.0
 40
0.5115800601944133
100
AcDbArc
 50
109.3371432194862
 51
151.4785267424226
  0
ARC
  5
1D6
102
{ACAD_REACTORS
330
223
330
224
102
}
330
71
100
AcDbEntity
  8
0
  6
Continuous
 62
     2
100
AcDbCircle
 10
-59.68686607199811
 20
14.72449832804725
 30
0.0
 40
0.315716923076792
100
AcDbArc
 50
180.0
 51
269.8110329574542
  0
ARC
  5
1D7
102
{ACAD_REACTORS
330
223
330
224
102
}
330
71
100
AcDbEntity
  8
0
  6
Continuous
 62
     2
100
AcDbCircle
 10
-59.68124993668809
 20
16.42733327561624
 30
0.0
 40
2.018561131933266
100
AcDbArc
 50
269.8110329575858
 51
90.18896704241416
  0
ARC
  5
1D8
102
{ACAD_REACTORS
330
223
330
224
102
}
330
71
100
AcDbEntity
  8
0
  6
Continuous
 62
     2
100
AcDbCircle
 10
-59.68686607199811
 20
17.52463293467855
 30
0.0
 40
0.315716923076792
100
AcDbArc
 50
180.0
 51
244.6259913216482
  0
ARC
  5
1D9
102
{ACAD_REACTORS
330
223
330
224
102
}
330
71
100
AcDbEntity
  8
0
  6
Continuous
 62
     2
100
AcDbCircle
 10
-59.68686607199811
 20
15.30634973474233
 30
0.0
 40
0.3157169230765344
100
AcDbArc
 50
115.3740086783517
 51
180.0
  0
ARC
  5
1DA
102
{ACAD_REACTORS
330
227
330
228
102
}
330
71
100
AcDbEntity
  8
0
  6
Continuous
 62
     2
100
AcDbCircle
 10
-54.8568518178362
 20
14.15973257835313
 30
0.0
 40
1.639695123940506
100
AcDbArc
 50
84.8418552303621
 51
164.9381082228866
  0
ARC
  5
1DB
102
{ACAD_REACTORS
330
227
330
228
102
}
330
71
100
AcDbEntity
  8
0
  6
Continuous
 62
     2
100
AcDbCircle
 10
-55.275979661299
 20
14.27252294038803
 30
0.0
 40
1.205656168390951
100
AcDbArc
 50
164.9381082228766
 51
195.0618917770948
  0
ARC
  5
1DC
102
{ACAD_REACTORS
330
227
330
228
102
}
330
71
100
AcDbEntity
  8
0
  6
Continuous
 62
     2
100
AcDbCircle
 10
-54.8568518178362
 20
14.38531330242284
 30
0.0
 40
1.639695123939387
100
AcDbArc
 50
195.0618917770895
 51
275.1581447696398
  0
ARC
  5
1DD
102
{ACAD_REACTORS
330
227
330
228
102
}
330
71
100
AcDbEntity
  8
0
  6
Continuous
 62
     2
100
AcDbCircle
 10
-55.14570791257211
 20
17.58520388564443
 30
0.0
 40
4.852596863498135
100
AcDbArc
 50
275.158144769625
 51
285.9799912583528
  0
ARC
  5
1DE
102
{ACAD_REACTORS
330
227
330
228
102
}
330
71
100
AcDbEntity
  8
0
  6
Continuous
 62
     2
100
AcDbCircle
 10
-54.34875007844011
 20
14.27252294038803
 30
0.0
 40
0.941059735333249
100
AcDbArc
 50
151.4785267422666
 51
208.5214732577059
  0
ARC
  5
1DF
102
{ACAD_REACTORS
330
227
330
228
102
}
330
71
100
AcDbEntity
  8
0
  6
Continuous
 62
     2
100
AcDbCircle
 10
-54.72610733652041
 20
14.47759436972703
 30
0.0
 40
0.5115800601948823
100
AcDbArc
 50
113.3722778881998
 51
151.4785267423047
  0
ARC
  5
1E0
102
{ACAD_REACTORS
330
227
330
228
102
}
330
71
100
AcDbEntity
  8
0
  6
Continuous
 62
     2
100
AcDbCircle
 10
-54.98783503747919
 20
12.86205657497985
 30
0.0
 40
2.227384008973476
100
AcDbArc
 50
58.0690910500407
 51
71.55192388186705
  0
ARC
  5
1E1
102
{ACAD_REACTORS
330
21F
330
220
102
}
330
71
100
AcDbEntity
  8
0
  6
Continuous
 62
     2
100
AcDbCircle
 10
-51.9258209019153
 20
14.42925411850854
 30
0.0
 40
0.517908573013291
100
AcDbArc
 50
38.12041979714706
 51
141.8795802028592
  0
ARC
  5
1E2
102
{ACAD_REACTORS
330
21F
330
220
102
}
330
71
100
AcDbEntity
  8
0
  6
Continuous
 62
     2
100
AcDbCircle
 10
-51.7260808655692
 20
14.27252294038803
 30
0.0
 40
0.771799778679461
100
AcDbArc
 50
141.8795802028365
 51
218.1204197971687
  0
ARC
  5
1E3
102
{ACAD_REACTORS
330
21F
330
220
102
}
330
71
100
AcDbEntity
  8
0
  6
Continuous
 62
     2
100
AcDbCircle
 10
-51.9258209019153
 20
14.11579176226803
 30
0.0
 40
0.5179085730137343
100
AcDbArc
 50
218.120419797193
 51
321.8795802028007
  0
ARC
  5
1E4
102
{ACAD_REACTORS
330
21F
330
220
102
}
330
71
100
AcDbEntity
  8
0
  6
Continuous
 62
     2
100
AcDbCircle
 10
-52.12556093826171
 20
14.27252294038803
 30
0.0
 40
0.7717997786796835
100
AcDbArc
 50
321.8795802028411
 51
38.12041979715372
  0
CIRCLE
  5
1E5
330
71
100
AcDbEntity
  8
1
  6
Continuous
 62
     2
100
AcDbCircle
 10
-54.78055405065911
 20
26.57711817846635
 30
0.0
 40
2.5
  0
CIRCLE
  5
1E6
330
71
100
AcDbEntity
  8
1
  6
Continuous
 62
     2
100
AcDbCircle
 10
-54.78055405065911
 20
26.57711817846635
 30
0.0
 40
1.249999999999922
  0
CIRCLE
  5
1E7
102
{ACAD_REACTORS
330
223
330
224
102
}
330
71
100
AcDbEntity
  8
0
  6
Continuous
 62
     2
100
AcDbCircle
 10
-60.23672378475879
 20
16.41549133471074
 30
0.0
 40
0.4709789327785003
  0
MTEXT
  5
1E8
330
71
100
AcDbEntity
  8
1
 62
     3
100
AcDbMText
 10
-224.9673366243999
 20
192.2434263337652
 30
0.0
 40
1.8
 41
0.0
 71
     7
 72
     1
  3
Weitergabe sowie Vervielf\U+00e4ltigung dieses Dokuments, Verwertung und \PMitteilung seines Inhalts sind verboten, soweit nicht ausdr\U+00fccklich gestattet. \PZuwiderhandlungen verpflichten zu Schadenersatz. Alle Rechte f\U+00fcr den Fall\Pder Pat
  1
ent-, Gebrauchsmuster- oder Designeintragung vorbehalten.
  7
CONVERTER_11
 73
     1
 44
0.99639855942377
  0
MTEXT
  5
1E9
330
71
100
AcDbEntity
  8
1
 62
     3
100
AcDbMText
 10
-42.11422678561181
 20
192.2434263337652
 30
0.0
 40
1.8
 41
0.0
 71
     7
 72
     1
  3
Transfer or duplication of this document as well as the utilisation or\Pcommunication of its content are not permitted unless express consent\Pis granted. Violations give rise to claims for damages. All rights reserved\Pin case of patent, utility mo
  1
del or design patent registrations.
  7
CONVERTER_11
 73
     1
 44
0.99639855942377
  0
TEXT
  5
1EA
330
71
100
AcDbEntity
  8
1
 62
     2
100
AcDbText
 10
-48.31720893722189
 20
6.69310096347482
 30
0.0
 40
1.8
  1
of
 41
0.9
  7
CONVERTER_11
100
AcDbText
  0
TEXT
  5
1EB
330
71
100
AcDbEntity
  8
1
 62
     2
100
AcDbText
 10
-66.51720893722171
 20
6.69310096347476
 30
0.0
 40
1.8
  1
page
 41
0.9
  7
CONVERTER_11
100
AcDbText
  0
TEXT
  5
1EC
330
71
100
AcDbEntity
  8
1
 62
     2
100
AcDbText
 10
-57.87094396687971
 20
6.65286952466442
 30
0.0
 40
1.8
  1
1
 41
0.9
  7
CONVERTER_11
100
AcDbText
  0
TEXT
  5
1ED
330
71
100
AcDbEntity
  8
1
 62
     2
100
AcDbText
 10
-43.0819001274082
 20
6.70211817846632
 30
0.0
 40
1.8
  1
1
 41
0.9
  7
CONVERTER_11
100
AcDbText
  0
MTEXT
  5
1EF
330
71
100
AcDbEntity
  8
1
 62
     7
100
AcDbMText
 10
15.45519332615379
 20
8.70211817846666
 30
0.0
 40
3.0
 41
0.0
 71
     5
 72
     1
  1
D-MTK BU
  7
CONVERTER_12
 73
     1
 44
1.20048019207683
  0
MTEXT
  5
1F0
330
71
100
AcDbEntity
  8
1
 62
     2
100
AcDbMText
 10
-30.11720893722179
 20
12.95211817846644
 30
0.0
 40
1.8
 41
0.0
 71
     1
 72
     1
  1
description
  7
CONVERTER_11
 73
     1
 44
1.20048019207683
  0
MTEXT
  5
1F1
330
71
100
AcDbEntity
  8
1
 62
     3
100
AcDbMText
 10
-41.31720893722181
 20
26.57711817846644
 30
0.0
 40
2.5
 41
0.0
 71
     5
 72
     1
  1
DIN A4
  7
CONVERTER_11
 73
     1
 44
1.20048019207683
  0
MTEXT
  5
1F2
330
71
100
AcDbEntity
  8
1
 62
     7
100
AcDbMText
 10
-227.4724044104708
 20
27.95211817846644
 30
0.0
 40
3.5
 41
0.0
 71
     5
 72
     1
  1
D
  7
CONVERTER_11
 73
     1
 44
1.20048019207683
  0
MTEXT
  5
1F3
330
71
100
AcDbEntity
  8
1
 62
     7
100
AcDbMText
 10
-227.4724044104708
 20
80.45211817846643
 30
0.0
 40
3.5
 41
0.0
 71
     5
 72
     1
  1
C
  7
CONVERTER_11
 73
     1
 44
1.20048019207683
  0
MTEXT
  5
1F4
330
71
100
AcDbEntity
  8
1
 62
     7
100
AcDbMText
 10
-227.4724044104708
 20
130.4521181784664
 30
0.0
 40
3.5
 41
0.0
 71
     5
 72
     1
  1
B
  7
CONVERTER_11
 73
     1
 44
1.20048019207683
  0
MTEXT
  5
1F5
330
71
100
AcDbEntity
  8
1
 62
     7
100
AcDbMText
 10
-227.4724044104708
 20
182.9521181784664
 30
0.0
 40
3.5
 41
0.0
 71
     5
 72
     1
  1
A
  7
CONVERTER_11
 73
     1
 44
1.20048019207683
  0
MTEXT
  5
1F6
330
71
100
AcDbEntity
  8
1
 62
     7
100
AcDbMText
 10
42.77759558952749
 20
2.95211817846632
 30
0.0
 40
3.5
 41
0.0
 71
     5
 72
     1
  1
6
  7
CONVERTER_11
 73
     1
 44
1.20048019207683
  0
MTEXT
  5
1F7
330
71
100
AcDbEntity
  8
1
 62
     7
100
AcDbMText
 10
-6.47240441047171
 20
2.95211817846632
 30
0.0
 40
3.5
 41
0.0
 71
     5
 72
     1
  1
5
  7
CONVERTER_11
 73
     1
 44
1.20048019207683
  0
MTEXT
  5
1F8
330
71
100
AcDbEntity
  8
1
 62
     7
100
AcDbMText
 10
-56.4724044104718
 20
2.95211817846632
 30
0.0
 40
3.5
 41
0.0
 71
     5
 72
     1
  1
4
  7
CONVERTER_11
 73
     1
 44
1.20048019207683
  0
MTEXT
  5
1F9
330
71
100
AcDbEntity
  8
1
 62
     7
100
AcDbMText
 10
-106.4724044104717
 20
2.95211817846632
 30
0.0
 40
3.5
 41
0.0
 71
     5
 72
     1
  1
3
  7
CONVERTER_11
 73
     1
 44
1.20048019207683
  0
MTEXT
  5
1FA
330
71
100
AcDbEntity
  8
1
 62
     7
100
AcDbMText
 10
-156.4724044104717
 20
2.95211817846632
 30
0.0
 40
3.5
 41
0.0
 71
     5
 72
     1
  1
2
  7
CONVERTER_11
 73
     1
 44
1.20048019207683
  0
MTEXT
  5
1FB
330
71
100
AcDbEntity
  8
1
 62
     7
100
AcDbMText
 10
-205.7224044104713
 20
2.95211817846632
 30
0.0
 40
3.5
 41
0.0
 71
     5
 72
     1
  1
1
  7
CONVERTER_11
 73
     1
 44
1.20048019207683
  0
MTEXT
  5
1FC
330
71
100
AcDbEntity
  8
1
 62
     7
100
AcDbMText
 10
64.5275955895273
 20
27.95211817846644
 30
0.0
 40
3.5
 41
0.0
 71
     5
 72
     1
  1
D
  7
CONVERTER_11
 73
     1
 44
1.20048019207683
  0
MTEXT
  5
1FD
330
71
100
AcDbEntity
  8
1
 62
     7
100
AcDbMText
 10
64.5275955895273
 20
130.4521181784683
 30
0.0
 40
3.5
 41
0.0
 71
     5
 72
     1
  1
B
  7
CONVERTER_11
 73
     1
 44
1.20048019207683
  0
MTEXT
  5
1FE
330
71
100
AcDbEntity
  8
1
 62
     7
100
AcDbMText
 10
64.5275955895273
 20
182.9521181784664
 30
0.0
 40
3.5
 41
0.0
 71
     5
 72
     1
  1
A
  7
CONVERTER_11
 73
     1
 44
1.20048019207683
  0
MTEXT
  5
1FF
330
71
100
AcDbEntity
  8
1
 62
     7
100
AcDbMText
 10
64.5275955895273
 20
80.45211817846834
 30
0.0
 40
3.5
 41
0.0
 71
     5
 72
     1
  1
C
  7
CONVERTER_11
 73
     1
 44
1.20048019207683
  0
MTEXT
  5
200
330
71
100
AcDbEntity
  8
1
 62
     2
100
AcDbMText
 10
-101.9552236622692
 20
18.20211817846635
 30
0.0
 40
2.0
 41
0.0
 71
     5
 72
     1
  1
General Information\P- Simplified representation\P- Document excluded from change process\P- Linear dimensions [mm]
  7
CONVERTER_11
 73
     1
 44
1.20048019207683
  0
TEXT
  5
201
330
71
100
AcDbEntity
  8
1
 62
     7
100
AcDbText
 10
-29.61720893722199
 20
15.25211817846633
 30
0.0
 40
2.5
  1
3101090
 41
0.81
  7
CONVERTER_12
100
AcDbText
  0
MTEXT
  5
202
330
71
100
AcDbEntity
  8
1
 62
     2
100
AcDbMText
 10
-30.01720893722171
 20
21.45211817846644
 30
0.0
 40
1.8
 41
0.0
 71
     1
 72
     1
  1
ident.-No.
  7
CONVERTER_11
 73
     1
 44
1.20048019207683
  0
MTEXT
  5
203
330
71
100
AcDbEntity
  8
1
 62
     2
100
AcDbMText
 10
54.20918730785101
 20
29.95211817846644
 30
0.0
 40
1.8
 41
0.0
 71
     1
 72
     1
  1
scale
  7
CONVERTER_11
 73
     1
 44
1.20048019207683
  0
MTEXT
  5
205
330
71
100
AcDbEntity
  8
1
 62
     3
100
AcDbMText
 10
57.56839144869061
 20
23.75211817846653
 30
0.0
 40
2.5
 41
0.0
 71
     8
 72
     1
  1
1:1
  7
CONVERTER_13
 73
     1
 44
1.32052821128451
  0
TEXT
  5
206
330
71
100
AcDbEntity
  8
1
 62
     7
100
AcDbText
 10
-30.01720893722171
 20
23.75211817846633
 30
0.0
 40
2.5
  1
01088404
 41
0.81
  7
CONVERTER_12
100
AcDbText
  0
MTEXT
  5
208
330
71
100
AcDbEntity
  8
1
 62
     2
100
AcDbMText
 10
-30.01720893722171
 20
29.95211817846644
 30
0.0
 40
1.8
 41
0.0
 71
     1
 72
     1
  1
document-No. / RI
  7
CONVERTER_14
 73
     1
 44
1.32052821128451
  0
TEXT
  5
209
330
71
100
AcDbEntity
  8
1
 62
     3
100
AcDbText
 10
-2.2172089372217
 20
15.25211817846633
 30
0.0
 40
2.5
  1
TECDOC 2D_Productdrawing
 41
0.81
  7
CONVERTER_12
100
AcDbText
  0
MTEXT
  5
20A
330
71
100
AcDbEntity
  8
1
 62
     2
100
AcDbMText
 10
-2.2172089372217
 20
21.45211817846635
 30
0.0
 40
1.8
 41
0.0
 71
     1
 72
     1
  1
document-type
  7
CONVERTER_11
 73
     1
 44
1.20048019207683
  0
MTEXT
  5
20B
330
71
100
AcDbEntity
  8
1
 62
     2
100
AcDbMText
 10
27.60918730785119
 20
29.95211817846635
 30
0.0
 40
1.8
 41
0.0
 71
     1
 72
     1
  1
date
  7
CONVERTER_11
 73
     1
 44
1.32052821128451
  0
TEXT
  5
20C
330
71
100
AcDbEntity
  8
1
 62
     3
100
AcDbText
 10
27.60918730785119
 20
23.75211817846633
 30
0.0
 40
2.5
  1
08.01.2018
 41
0.81
  7
CONVERTER_12
100
AcDbText
  0
TEXT
  5
20D
330
71
100
AcDbEntity
  8
1
 62
     7
100
AcDbText
 10
-9.98729671816591
 20
23.75211817846633
 30
0.0
 40
2.5
  1
00
 41
0.81
  7
CONVERTER_12
100
AcDbText
  0
TEXT
  5
20E
330
71
100
AcDbEntity
  8
1
 62
     7
100
AcDbText
 10
-12.14366121520791
 20
23.75211817846633
 30
0.0
 40
2.5
  1
/
 41
0.9
  7
CONVERTER_11
100
AcDbText
  0
HATCH
  5
20F
330
71
100
AcDbEntity
  8
1
  6
Continuous
 62
     2
100
AcDbHatch
 10
0.0
 20
0.0
 30
0.0
210
0.0
220
0.0
230
1.0
  2
_USER
 70
     0
 71
     1
 91
        1
 92
        1
 93
       12
 72
     1
 10
-49.84970822426061
 20
16.10480865465704
 11
-51.04250092642701
 21
16.10480865465704
 72
     1
 10
-51.04250092642701
 20
16.10480865465704
 11
-51.04250092642701
 21
17.23908076350085
 72
     1
 10
-51.04250092642701
 20
17.23908076350085
 11
-52.09215850433449
 21
17.23908076350085
 72
     1
 10
-52.09215850433449
 20
17.23908076350085
 11
-52.09215850433449
 21
16.10480865465704
 72
     1
 10
-52.09215850433449
 20
16.10480865465704
 11
-53.28495120650109
 21
16.10480865465704
 72
     1
 10
-53.28495120650109
 20
16.10480865465704
 11
-53.28495120650109
 21
19.15861817846823
 72
     1
 10
-53.28495120650109
 20
19.15861817846823
 11
-52.09215850433449
 21
19.15861817846823
 72
     1
 10
-52.09215850433449
 20
19.15861817846823
 11
-52.09215850433449
 21
18.08978484513364
 72
     1
 10
-52.09215850433449
 20
18.08978484513364
 11
-51.04250092642701
 21
18.08978484513364
 72
     1
 10
-51.04250092642701
 20
18.08978484513364
 11
-51.04250092642701
 21
19.15861817846823
 72
     1
 10
-51.04250092642701
 20
19.15861817846823
 11
-49.84970822426061
 21
19.15861817846823
 72
     1
 10
-49.84970822426061
 20
19.15861817846823
 11
-49.84970822426061
 21
16.10480865465704
 97
       12
330
17C
330
17D
330
167
330
166
330
165
330
179
330
164
330
17A
330
17B
330
163
330
162
330
161
 75
     1
 76
     0
 52
45.0
 41
0.1
 77
     0
 78
     1
 53
45.0
 43
0.0
 44
0.0
 45
-0.0707106781186548
 46
0.0707106781186548
 79
     0
 98
        1
 10
0.0
 20
0.0
  0
HATCH
  5
210
330
71
100
AcDbEntity
  8
1
  6
Continuous
 62
     2
100
AcDbHatch
 10
0.0
 20
0.0
 30
0.0
210
0.0
220
0.0
230
1.0
  2
_USER
 70
     0
 71
     1
 91
        1
 92
        1
 93
       12
 72
     1
 10
-49.84970822426061
 20
16.10480865465704
 11
-51.04250092642701
 21
16.10480865465704
 72
     1
 10
-51.04250092642701
 20
16.10480865465704
 11
-51.04250092642701
 21
17.23908076350085
 72
     1
 10
-51.04250092642701
 20
17.23908076350085
 11
-52.09215850433449
 21
17.23908076350085
 72
     1
 10
-52.09215850433449
 20
17.23908076350085
 11
-52.09215850433449
 21
16.10480865465704
 72
     1
 10
-52.09215850433449
 20
16.10480865465704
 11
-53.28495120650109
 21
16.10480865465704
 72
     1
 10
-53.28495120650109
 20
16.10480865465704
 11
-53.28495120650109
 21
19.15861817846823
 72
     1
 10
-53.28495120650109
 20
19.15861817846823
 11
-52.09215850433449
 21
19.15861817846823
 72
     1
 10
-52.09215850433449
 20
19.15861817846823
 11
-52.09215850433449
 21
18.08978484513364
 72
     1
 10
-52.09215850433449
 20
18.08978484513364
 11
-51.04250092642701
 21
18.08978484513364
 72
     1
 10
-51.04250092642701
 20
18.08978484513364
 11
-51.04250092642701
 21
19.15861817846823
 72
     1
 10
-51.04250092642701
 20
19.15861817846823
 11
-49.84970822426061
 21
19.15861817846823
 72
     1
 10
-49.84970822426061
 20
19.15861817846823
 11
-49.84970822426061
 21
16.10480865465704
 97
       12
330
17C
330
17D
330
167
330
166
330
165
330
179
330
164
330
17A
330
17B
330
163
330
162
330
161
 75
     1
 76
     0
 52
45.0
 41
0.1
 77
     0
 78
     1
 53
45.0
 43
0.0
 44
0.0
 45
-0.0707106781186548
 46
0.0707106781186548
 79
     0
 98
        1
 10
0.0
 20
0.0
  0
HATCH
  5
211
330
71
100
AcDbEntity
  8
1
  6
Continuous
 62
     2
100
AcDbHatch
 10
0.0
 20
0.0
 30
0.0
210
0.0
220
0.0
230
1.0
  2
_USER
 70
     0
 71
     1
 91
        1
 92
        1
 93
       10
 72
     1
 10
-47.60740887507231
 20
14.49065219208873
 11
-48.84791328532521
 21
15.79942770229383
 72
     1
 10
-48.84791328532521
 20
15.79942770229383
 11
-50.0407059874928
 21
15.79942770229383
 72
     1
 10
-50.0407059874928
 20
15.79942770229383
 11
-50.0407059874928
 21
12.74561817848274
 72
     1
 10
-50.0407059874928
 20
12.74561817848274
 11
-48.84791328532521
 21
12.74561817848274
 72
     1
 10
-48.84791328532521
 20
12.74561817848274
 11
-48.84791328532521
 21
14.05439368868733
 72
     1
 10
-48.84791328532521
 20
14.05439368868733
 11
-47.60740887507231
 21
12.74561817848274
 72
     1
 10
-47.60740887507231
 20
12.74561817848274
 11
-46.41461617290591
 21
12.74561817848274
 72
     1
 10
-46.41461617290591
 20
12.74561817848274
 11
-46.41461617290591
 21
15.79942770229383
 72
     1
 10
-46.41461617290591
 20
15.79942770229383
 11
-47.60740887507231
 21
15.79942770229383
 72
     1
 10
-47.60740887507231
 20
15.79942770229383
 11
-47.60740887507231
 21
14.49065219208873
 97
       10
330
18A
330
15A
330
159
330
15C
330
185
330
186
330
15B
330
187
330
188
330
189
 75
     1
 76
     0
 52
45.0
 41
0.1
 77
     0
 78
     1
 53
45.0
 43
0.0
 44
0.0
 45
-0.0707106781186548
 46
0.0707106781186548
 79
     0
 98
        1
 10
0.0
 20
0.0
  0
HATCH
  5
212
330
71
100
AcDbEntity
  8
1
  6
Continuous
 62
     2
100
AcDbHatch
 10
0.0
 20
0.0
 30
0.0
210
0.0
220
0.0
230
1.0
  2
_USER
 70
     0
 71
     1
 91
        1
 92
        1
 93
       10
 72
     1
 10
-47.60740887507231
 20
14.49065219208873
 11
-48.84791328532521
 21
15.79942770229383
 72
     1
 10
-48.84791328532521
 20
15.79942770229383
 11
-50.0407059874928
 21
15.79942770229383
 72
     1
 10
-50.0407059874928
 20
15.79942770229383
 11
-50.0407059874928
 21
12.74561817848274
 72
     1
 10
-50.0407059874928
 20
12.74561817848274
 11
-48.84791328532521
 21
12.74561817848274
 72
     1
 10
-48.84791328532521
 20
12.74561817848274
 11
-48.84791328532521
 21
14.05439368868733
 72
     1
 10
-48.84791328532521
 20
14.05439368868733
 11
-47.60740887507231
 21
12.74561817848274
 72
     1
 10
-47.60740887507231
 20
12.74561817848274
 11
-46.41461617290591
 21
12.74561817848274
 72
     1
 10
-46.41461617290591
 20
12.74561817848274
 11
-46.41461617290591
 21
15.79942770229383
 72
     1
 10
-46.41461617290591
 20
15.79942770229383
 11
-47.60740887507231
 21
15.79942770229383
 72
     1
 10
-47.60740887507231
 20
15.79942770229383
 11
-47.60740887507231
 21
14.49065219208873
 97
       10
330
18A
330
15A
330
159
330
15C
330
185
330
186
330
15B
330
187
330
188
330
189
 75
     1
 76
     0
 52
45.0
 41
0.1
 77
     0
 78
     1
 53
45.0
 43
0.0
 44
0.0
 45
-0.0707106781186548
 46
0.0707106781186548
 79
     0
 98
        1
 10
0.0
 20
0.0
  0
HATCH
  5
213
330
71
100
AcDbEntity
  8
1
  6
Continuous
 62
     2
100
AcDbHatch
 10
0.0
 20
0.0
 30
0.0
210
0.0
220
0.0
230
1.0
  2
_USER
 70
     0
 71
     1
 91
        1
 92
        1
 93
       10
 72
     1
 10
-42.35897005465259
 20
17.84984266826305
 11
-43.59947446490659
 21
19.15861817846823
 72
     1
 10
-43.59947446490659
 20
19.15861817846823
 11
-44.79226716707311
 21
19.15861817846823
 72
     1
 10
-44.79226716707311
 20
19.15861817846823
 11
-44.79226716707311
 21
16.10480865465704
 72
     1
 10
-44.79226716707311
 20
16.10480865465704
 11
-43.59947446490659
 21
16.10480865465704
 72
     1
 10
-43.59947446490659
 20
16.10480865465704
 11
-43.59947446490659
 21
17.41358416486173
 72
     1
 10
-43.59947446490659
 20
17.41358416486173
 11
-42.35897005465259
 21
16.10480865465704
 72
     1
 10
-42.35897005465259
 20
16.10480865465704
 11
-41.16617735248599
 21
16.10480865465704
 72
     1
 10
-41.16617735248599
 20
16.10480865465704
 11
-41.16617735248599
 21
19.15861817846823
 72
     1
 10
-41.16617735248599
 20
19.15861817846823
 11
-42.35897005465259
 21
19.15861817846823
 72
     1
 10
-42.35897005465259
 20
19.15861817846823
 11
-42.35897005465259
 21
17.84984266826305
 97
       10
330
18F
330
157
330
156
330
190
330
155
330
18B
330
18C
330
18D
330
18E
330
158
 75
     1
 76
     0
 52
45.0
 41
0.1
 77
     0
 78
     1
 53
45.0
 43
0.0
 44
0.0
 45
-0.0707106781186548
 46
0.0707106781186548
 79
     0
 98
        1
 10
0.0
 20
0.0
  0
HATCH
  5
214
330
71
100
AcDbEntity
  8
1
  6
Continuous
 62
     2
100
AcDbHatch
 10
0.0
 20
0.0
 30
0.0
210
0.0
220
0.0
230
1.0
  2
_USER
 70
     0
 71
     1
 91
        1
 92
        1
 93
       10
 72
     1
 10
-42.35897005465259
 20
17.84984266826305
 11
-43.59947446490659
 21
19.15861817846823
 72
     1
 10
-43.59947446490659
 20
19.15861817846823
 11
-44.79226716707311
 21
19.15861817846823
 72
     1
 10
-44.79226716707311
 20
19.15861817846823
 11
-44.79226716707311
 21
16.10480865465704
 72
     1
 10
-44.79226716707311
 20
16.10480865465704
 11
-43.59947446490659
 21
16.10480865465704
 72
     1
 10
-43.59947446490659
 20
16.10480865465704
 11
-43.59947446490659
 21
17.41358416486173
 72
     1
 10
-43.59947446490659
 20
17.41358416486173
 11
-42.35897005465259
 21
16.10480865465704
 72
     1
 10
-42.35897005465259
 20
16.10480865465704
 11
-41.16617735248599
 21
16.10480865465704
 72
     1
 10
-41.16617735248599
 20
16.10480865465704
 11
-41.16617735248599
 21
19.15861817846823
 72
     1
 10
-41.16617735248599
 20
19.15861817846823
 11
-42.35897005465259
 21
19.15861817846823
 72
     1
 10
-42.35897005465259
 20
19.15861817846823
 11
-42.35897005465259
 21
17.84984266826305
 97
       10
330
18F
330
157
330
156
330
190
330
155
330
18B
330
18C
330
18D
330
18E
330
158
 75
     1
 76
     0
 52
45.0
 41
0.1
 77
     0
 78
     1
 53
45.0
 43
0.0
 44
0.0
 45
-0.0707106781186548
 46
0.0707106781186548
 79
     0
 98
        1
 10
0.0
 20
0.0
  0
HATCH
  5
215
330
71
100
AcDbEntity
  8
1
  6
Continuous
 62
     2
100
AcDbHatch
 10
0.0
 20
0.0
 30
0.0
210
0.0
220
0.0
230
1.0
  2
_USER
 70
     0
 71
     1
 91
        1
 92
        1
 93
        8
 72
     1
 10
-43.45649027153209
 20
15.79942770229383
 11
-46.27148104864571
 21
15.79942770229383
 72
     1
 10
-46.27148104864571
 20
15.79942770229383
 11
-46.27148104864571
 21
15.01416239617024
 72
     1
 10
-46.27148104864571
 20
15.01416239617024
 11
-45.46038201117111
 21
15.01416239617024
 72
     1
 10
-45.46038201117111
 20
15.01416239617024
 11
-45.46038201117111
 21
12.74561817848274
 72
     1
 10
-45.46038201117111
 20
12.74561817848274
 11
-44.26758930900459
 21
12.74561817848274
 72
     1
 10
-44.26758930900459
 20
12.74561817848274
 11
-44.26758930900459
 21
15.01416239617024
 72
     1
 10
-44.26758930900459
 20
15.01416239617024
 11
-43.45649027153209
 21
15.01416239617024
 72
     1
 10
-43.45649027153209
 20
15.01416239617024
 11
-43.45649027153209
 21
15.79942770229383
 97
        8
330
151
330
191
330
150
330
192
330
193
330
154
330
153
330
152
 75
     1
 76
     0
 52
45.0
 41
0.1
 77
     0
 78
     1
 53
45.0
 43
0.0
 44
0.0
 45
-0.0707106781186548
 46
0.0707106781186548
 79
     0
 98
        1
 10
0.0
 20
0.0
  0
HATCH
  5
216
330
71
100
AcDbEntity
  8
1
  6
Continuous
 62
     2
100
AcDbHatch
 10
0.0
 20
0.0
 30
0.0
210
0.0
220
0.0
230
1.0
  2
_USER
 70
     0
 71
     1
 91
        1
 92
        1
 93
        8
 72
     1
 10
-43.45649027153209
 20
15.79942770229383
 11
-46.27148104864571
 21
15.79942770229383
 72
     1
 10
-46.27148104864571
 20
15.79942770229383
 11
-46.27148104864571
 21
15.01416239617024
 72
     1
 10
-46.27148104864571
 20
15.01416239617024
 11
-45.46038201117111
 21
15.01416239617024
 72
     1
 10
-45.46038201117111
 20
15.01416239617024
 11
-45.46038201117111
 21
12.74561817848274
 72
     1
 10
-45.46038201117111
 20
12.74561817848274
 11
-44.26758930900459
 21
12.74561817848274
 72
     1
 10
-44.26758930900459
 20
12.74561817848274
 11
-44.26758930900459
 21
15.01416239617024
 72
     1
 10
-44.26758930900459
 20
15.01416239617024
 11
-43.45649027153209
 21
15.01416239617024
 72
     1
 10
-43.45649027153209
 20
15.01416239617024
 11
-43.45649027153209
 21
15.79942770229383
 97
        8
330
151
330
191
330
150
330
192
330
193
330
154
330
153
330
152
 75
     1
 76
     0
 52
45.0
 41
0.1
 77
     0
 78
     1
 53
45.0
 43
0.0
 44
0.0
 45
-0.0707106781186548
 46
0.0707106781186548
 79
     0
 98
        1
 10
0.0
 20
0.0
  0
HATCH
  5
217
330
71
100
AcDbEntity
  8
1
  6
Continuous
 62
     2
100
AcDbHatch
 10
0.0
 20
0.0
 30
0.0
210
0.0
220
0.0
230
1.0
  2
_USER
 70
     0
 71
     1
 91
        2
 92
        1
 93
        8
 72
     1
 10
-41.31806281558511
 20
12.74561817848274
 11
-41.52954286906089
 21
13.28657872270063
 72
     1
 10
-41.52954286906089
 20
13.28657872270063
 11
-42.6619844457347
 21
13.28657872270063
 72
     1
 10
-42.6619844457347
 20
13.28657872270063
 11
-42.87346449921051
 21
12.74561817848274
 72
     1
 10
-42.87346449921051
 20
12.74561817848274
 11
-44.1139689094635
 21
12.74561817848274
 72
     1
 10
-44.1139689094635
 20
12.74561817848274
 11
-42.71601586252419
 21
15.79942770229383
 72
     1
 10
-42.71601586252419
 20
15.79942770229383
 11
-41.47551145227149
 21
15.79942770229383
 72
     1
 10
-41.47551145227149
 20
15.79942770229383
 11
-40.07755840533119
 21
12.74561817848274
 72
     1
 10
-40.07755840533119
 20
12.74561817848274
 11
-41.31806281558511
 21
12.74561817848274
 97
        8
330
195
330
196
330
14D
330
197
330
14C
330
14F
330
194
330
14E
 92
       16
 93
        3
 72
     1
 10
-42.3959288945897
 20
13.96714198800723
 11
-42.0957636573973
 21
14.73495695399393
 72
     1
 10
-42.0957636573973
 20
14.73495695399393
 11
-41.7955984202072
 21
13.96714198800723
 72
     1
 10
-41.7955984202072
 20
13.96714198800723
 11
-42.3959288945897
 21
13.96714198800723
 97
        3
330
14B
330
199
330
198
 75
     1
 76
     0
 52
45.0
 41
0.1
 77
     0
 78
     1
 53
45.0
 43
0.0
 44
0.0
 45
-0.0707106781186548
 46
0.0707106781186548
 79
     0
 98
        1
 10
0.0
 20
0.0
  0
HATCH
  5
218
330
71
100
AcDbEntity
  8
1
  6
Continuous
 62
     2
100
AcDbHatch
 10
0.0
 20
0.0
 30
0.0
210
0.0
220
0.0
230
1.0
  2
_USER
 70
     0
 71
     1
 91
        2
 92
        1
 93
        8
 72
     1
 10
-41.31806281558511
 20
12.74561817848274
 11
-41.52954286906089
 21
13.28657872270063
 72
     1
 10
-41.52954286906089
 20
13.28657872270063
 11
-42.6619844457347
 21
13.28657872270063
 72
     1
 10
-42.6619844457347
 20
13.28657872270063
 11
-42.87346449921051
 21
12.74561817848274
 72
     1
 10
-42.87346449921051
 20
12.74561817848274
 11
-44.1139689094635
 21
12.74561817848274
 72
     1
 10
-44.1139689094635
 20
12.74561817848274
 11
-42.71601586252419
 21
15.79942770229383
 72
     1
 10
-42.71601586252419
 20
15.79942770229383
 11
-41.47551145227149
 21
15.79942770229383
 72
     1
 10
-41.47551145227149
 20
15.79942770229383
 11
-40.07755840533119
 21
12.74561817848274
 72
     1
 10
-40.07755840533119
 20
12.74561817848274
 11
-41.31806281558511
 21
12.74561817848274
 97
        8
330
195
330
196
330
14D
330
197
330
14C
330
14F
330
194
330
14E
 92
       16
 93
        3
 72
     1
 10
-42.3959288945897
 20
13.96714198800723
 11
-42.0957636573973
 21
14.73495695399393
 72
     1
 10
-42.0957636573973
 20
14.73495695399393
 11
-41.7955984202072
 21
13.96714198800723
 72
     1
 10
-41.7955984202072
 20
13.96714198800723
 11
-42.3959288945897
 21
13.96714198800723
 97
        3
330
14B
330
199
330
198
 75
     1
 76
     0
 52
45.0
 41
0.1
 77
     0
 78
     1
 53
45.0
 43
0.0
 44
0.0
 45
-0.0707106781186548
 46
0.0707106781186548
 79
     0
 98
        1
 10
0.0
 20
0.0
  0
HATCH
  5
219
330
71
100
AcDbEntity
  8
1
  6
Continuous
 62
     2
100
AcDbHatch
 10
0.0
 20
0.0
 30
0.0
210
0.0
220
0.0
230
1.0
  2
_USER
 70
     0
 71
     1
 91
        1
 92
        1
 93
        4
 72
     1
 10
-39.68711440179919
 20
16.10480865465704
 11
-40.92761881205209
 21
16.10480865465704
 72
     1
 10
-40.92761881205209
 20
16.10480865465704
 11
-40.92761881205209
 21
19.15861817846823
 72
     1
 10
-40.92761881205209
 20
19.15861817846823
 11
-39.68711440179919
 21
19.15861817846823
 72
     1
 10
-39.68711440179919
 20
19.15861817846823
 11
-39.68711440179919
 21
16.10480865465704
 97
        4
330
148
330
14A
330
19A
330
149
 75
     1
 76
     0
 52
45.0
 41
0.1
 77
     0
 78
     1
 53
45.0
 43
0.0
 44
0.0
 45
-0.0707106781186548
 46
0.0707106781186548
 79
     0
 98
        1
 10
0.0
 20
0.0
  0
HATCH
  5
21A
330
71
100
AcDbEntity
  8
1
  6
Continuous
 62
     2
100
AcDbHatch
 10
0.0
 20
0.0
 30
0.0
210
0.0
220
0.0
230
1.0
  2
_USER
 70
     0
 71
     1
 91
        1
 92
        1
 93
        4
 72
     1
 10
-39.68711440179919
 20
16.10480865465704
 11
-40.92761881205209
 21
16.10480865465704
 72
     1
 10
-40.92761881205209
 20
16.10480865465704
 11
-40.92761881205209
 21
19.15861817846823
 72
     1
 10
-40.92761881205209
 20
19.15861817846823
 11
-39.68711440179919
 21
19.15861817846823
 72
     1
 10
-39.68711440179919
 20
19.15861817846823
 11
-39.68711440179919
 21
16.10480865465704
 97
        4
330
148
330
14A
330
19A
330
149
 75
     1
 76
     0
 52
45.0
 41
0.1
 77
     0
 78
     1
 53
45.0
 43
0.0
 44
0.0
 45
-0.0707106781186548
 46
0.0707106781186548
 79
     0
 98
        1
 10
0.0
 20
0.0
  0
HATCH
  5
21B
330
71
100
AcDbEntity
  8
1
  6
Continuous
 62
     2
100
AcDbHatch
 10
0.0
 20
0.0
 30
0.0
210
0.0
220
0.0
230
1.0
  2
_USER
 70
     0
 71
     1
 91
        1
 92
        1
 93
       12
 72
     1
 10
-35.46462823612839
 20
19.15861817846823
 11
-36.76715786689491
 21
17.68566764843203
 72
     1
 10
-36.76715786689491
 20
17.68566764843203
 11
-35.3692048199546
 21
16.10480865465704
 72
     1
 10
-35.3692048199546
 20
16.10480865465704
 11
-36.7719290377029
 21
16.10480865465704
 72
     1
 10
-36.7719290377029
 20
16.10480865465704
 11
-37.4685199757684
 21
16.89254043995075
 72
     1
 10
-37.4685199757684
 20
16.89254043995075
 11
-38.1651109138341
 21
16.10480865465704
 72
     1
 10
-38.1651109138341
 20
16.10480865465704
 11
-39.56783513158231
 21
16.10480865465704
 72
     1
 10
-39.56783513158231
 20
16.10480865465704
 11
-38.16988208464201
 21
17.68566764843203
 72
     1
 10
-38.16988208464201
 20
17.68566764843203
 11
-39.47241171540949
 21
19.15861817846823
 72
     1
 10
-39.47241171540949
 20
19.15861817846823
 11
-38.0696874976602
 21
19.15861817846823
 72
     1
 10
-38.0696874976602
 20
19.15861817846823
 11
-37.4685199757684
 21
18.47879485691274
 72
     1
 10
-37.4685199757684
 20
18.47879485691274
 11
-36.86735245387561
 21
19.15861817846823
 72
     1
 10
-36.86735245387561
 20
19.15861817846823
 11
-35.46462823612839
 21
19.15861817846823
 97
       12
330
143
330
142
330
141
330
19E
330
19F
330
19B
330
19C
330
147
330
146
330
145
330
144
330
19D
 75
     1
 76
     0
 52
45.0
 41
0.1
 77
     0
 78
     1
 53
45.0
 43
0.0
 44
0.0
 45
-0.0707106781186548
 46
0.0707106781186548
 79
     0
 98
        1
 10
0.0
 20
0.0
  0
HATCH
  5
21C
330
71
100
AcDbEntity
  8
1
  6
Continuous
 62
     2
100
AcDbHatch
 10
0.0
 20
0.0
 30
0.0
210
0.0
220
0.0
230
1.0
  2
_USER
 70
     0
 71
     1
 91
        1
 92
        1
 93
       12
 72
     1
 10
-35.46462823612839
 20
19.15861817846823
 11
-36.76715786689491
 21
17.68566764843203
 72
     1
 10
-36.76715786689491
 20
17.68566764843203
 11
-35.3692048199546
 21
16.10480865465704
 72
     1
 10
-35.3692048199546
 20
16.10480865465704
 11
-36.7719290377029
 21
16.10480865465704
 72
     1
 10
-36.7719290377029
 20
16.10480865465704
 11
-37.4685199757684
 21
16.89254043995075
 72
     1
 10
-37.4685199757684
 20
16.89254043995075
 11
-38.1651109138341
 21
16.10480865465704
 72
     1
 10
-38.1651109138341
 20
16.10480865465704
 11
-39.56783513158231
 21
16.10480865465704
 72
     1
 10
-39.56783513158231
 20
16.10480865465704
 11
-38.16988208464201
 21
17.68566764843203
 72
     1
 10
-38.16988208464201
 20
17.68566764843203
 11
-39.47241171540949
 21
19.15861817846823
 72
     1
 10
-39.47241171540949
 20
19.15861817846823
 11
-38.0696874976602
 21
19.15861817846823
 72
     1
 10
-38.0696874976602
 20
19.15861817846823
 11
-37.4685199757684
 21
18.47879485691274
 72
     1
 10
-37.4685199757684
 20
18.47879485691274
 11
-36.86735245387561
 21
19.15861817846823
 72
     1
 10
-36.86735245387561
 20
19.15861817846823
 11
-35.46462823612839
 21
19.15861817846823
 97
       12
330
143
330
142
330
141
330
19E
330
19F
330
19B
330
19C
330
147
330
146
330
145
330
144
330
19D
 75
     1
 76
     0
 52
45.0
 41
0.1
 77
     0
 78
     1
 53
45.0
 43
0.0
 44
0.0
 45
-0.0707106781186548
 46
0.0707106781186548
 79
     0
 98
        1
 10
0.0
 20
0.0
  0
HATCH
  5
21D
330
71
100
AcDbEntity
  8
1
  6
Continuous
 62
     2
100
AcDbHatch
 10
0.0
 20
0.0
 30
0.0
210
0.0
220
0.0
230
1.0
  2
_USER
 70
     0
 71
     1
 91
        2
 92
        1
 93
        6
 72
     1
 10
-54.48236365027441
 20
17.04788689580084
 11
-55.24113123805469
 21
17.04788689580084
 72
     1
 10
-55.24113123805469
 20
17.04788689580084
 11
-55.24113123805469
 21
16.10480865465704
 72
     1
 10
-55.24113123805469
 20
16.10480865465704
 11
-56.48163564830881
 21
16.10480865465704
 72
     1
 10
-56.48163564830881
 20
16.10480865465704
 11
-56.48163564830881
 21
19.15861817846823
 72
     1
 10
-56.48163564830881
 20
19.15861817846823
 11
-54.48236365027441
 21
19.15861817846823
 72
     2
 10
-54.48236365027441
 20
18.10325253713455
 40
1.055365641333712
 50
270.0
 51
450.0
 73
     0
 97
        6
330
16B
330
16A
330
177
330
176
330
16C
330
1BC
 92
       16
 93
        4
 72
     2
 10
-54.92383617651279
 20
18.14264850835704
 40
0.3528638246711218
 50
270.0
 51
450.0
 73
     1
 72
     1
 10
-54.92383617651279
 20
18.49551233302813
 11
-55.24113123805469
 21
18.49551233302813
 72
     1
 10
-55.24113123805469
 20
18.49551233302813
 11
-55.24113123805469
 21
17.78978468368592
 72
     1
 10
-55.24113123805469
 20
17.78978468368592
 11
-54.92383617651279
 21
17.78978468368592
 97
        4
330
1D0
330
168
330
178
330
169
 75
     1
 76
     0
 52
45.0
 41
0.1
 77
     0
 78
     1
 53
45.0
 43
0.0
 44
0.0
 45
-0.0707106781186548
 46
0.0707106781186548
 79
     0
 98
        1
 10
0.0
 20
0.0
  0
HATCH
  5
21E
330
71
100
AcDbEntity
  8
1
  6
Continuous
 62
     2
100
AcDbHatch
 10
0.0
 20
0.0
 30
0.0
210
0.0
220
0.0
230
1.0
  2
_USER
 70
     0
 71
     1
 91
        2
 92
        1
 93
        6
 72
     1
 10
-54.48236365027441
 20
17.04788689580084
 11
-55.24113123805469
 21
17.04788689580084
 72
     1
 10
-55.24113123805469
 20
17.04788689580084
 11
-55.24113123805469
 21
16.10480865465704
 72
     1
 10
-55.24113123805469
 20
16.10480865465704
 11
-56.48163564830881
 21
16.10480865465704
 72
     1
 10
-56.48163564830881
 20
16.10480865465704
 11
-56.48163564830881
 21
19.15861817846823
 72
     1
 10
-56.48163564830881
 20
19.15861817846823
 11
-54.48236365027441
 21
19.15861817846823
 72
     2
 10
-54.48236365027441
 20
18.10325253713455
 40
1.055365641333712
 50
270.0
 51
450.0
 73
     0
 97
        6
330
16B
330
16A
330
177
330
176
330
16C
330
1BC
 92
       16
 93
        4
 72
     2
 10
-54.92383617651279
 20
18.14264850835704
 40
0.3528638246711218
 50
270.0
 51
450.0
 73
     1
 72
     1
 10
-54.92383617651279
 20
18.49551233302813
 11
-55.24113123805469
 21
18.49551233302813
 72
     1
 10
-55.24113123805469
 20
18.49551233302813
 11
-55.24113123805469
 21
17.78978468368592
 72
     1
 10
-55.24113123805469
 20
17.78978468368592
 11
-54.92383617651279
 21
17.78978468368592
 97
        4
330
1D0
330
168
330
178
330
169
 75
     1
 76
     0
 52
45.0
 41
0.1
 77
     0
 78
     1
 53
45.0
 43
0.0
 44
0.0
 45
-0.0707106781186548
 46
0.0707106781186548
 79
     0
 98
        1
 10
0.0
 20
0.0
  0
HATCH
  5
21F
330
71
100
AcDbEntity
  8
1
  6
Continuous
 62
     2
100
AcDbHatch
 10
0.0
 20
0.0
 30
0.0
210
0.0
220
0.0
230
1.0
  2
_USER
 70
     0
 71
     1
 91
        2
 92
        1
 93
        4
 72
     2
 10
-51.9258209019153
 20
13.73394793008524
 40
2.065479772208563
 50
62.45185182430652
 51
117.5481481756664
 73
     1
 72
     2
 10
-52.2067607937486
 20
14.27252294038803
 40
1.458034083651492
 50
117.5481481756624
 51
242.4518518243375
 73
     1
 72
     2
 10
-51.9258209019153
 20
14.81109795069133
 40
2.065479772208505
 50
242.4518518243401
 51
297.5481481756869
 73
     1
 72
     2
 10
-51.644881010082
 20
14.27252294038803
 40
1.458034083651999
 50
297.5481481757009
 51
422.4518518242992
 73
     1
 97
        4
330
1C8
330
1C7
330
1C9
330
1C6
 92
       16
 93
        4
 72
     2
 10
-52.12556093826171
 20
14.27252294038803
 40
0.7717997786796835
 50
321.8795802028411
 51
398.1204197971538
 73
     1
 72
     2
 10
-51.9258209019153
 20
14.42925411850854
 40
0.517908573013291
 50
38.12041979714706
 51
141.8795802028592
 73
     1
 72
     2
 10
-51.7260808655692
 20
14.27252294038803
 40
0.771799778679461
 50
141.8795802028365
 51
218.1204197971687
 73
     1
 72
     2
 10
-51.9258209019153
 20
14.11579176226803
 40
0.5179085730137343
 50
218.120419797193
 51
321.8795802028007
 73
     1
 97
        4
330
1E4
330
1E1
330
1E2
330
1E3
 75
     1
 76
     0
 52
45.0
 41
0.1
 77
     0
 78
     1
 53
45.0
 43
0.0
 44
0.0
 45
-0.0707106781186548
 46
0.0707106781186548
 79
     0
 98
        1
 10
0.0
 20
0.0
  0
HATCH
  5
220
330
71
100
AcDbEntity
  8
1
  6
Continuous
 62
     2
100
AcDbHatch
 10
0.0
 20
0.0
 30
0.0
210
0.0
220
0.0
230
1.0
  2
_USER
 70
     0
 71
     1
 91
        2
 92
        1
 93
        4
 72
     2
 10
-51.9258209019153
 20
13.73394793008524
 40
2.065479772208563
 50
62.45185182430652
 51
117.5481481756664
 73
     1
 72
     2
 10
-52.2067607937486
 20
14.27252294038803
 40
1.458034083651492
 50
117.5481481756624
 51
242.4518518243375
 73
     1
 72
     2
 10
-51.9258209019153
 20
14.81109795069133
 40
2.065479772208505
 50
242.4518518243401
 51
297.5481481756869
 73
     1
 72
     2
 10
-51.644881010082
 20
14.27252294038803
 40
1.458034083651999
 50
297.5481481757009
 51
422.4518518242992
 73
     1
 97
        4
330
1C8
330
1C7
330
1C9
330
1C6
 92
       16
 93
        4
 72
     2
 10
-52.12556093826171
 20
14.27252294038803
 40
0.7717997786796835
 50
321.8795802028411
 51
398.1204197971538
 73
     1
 72
     2
 10
-51.9258209019153
 20
14.42925411850854
 40
0.517908573013291
 50
38.12041979714706
 51
141.8795802028592
 73
     1
 72
     2
 10
-51.7260808655692
 20
14.27252294038803
 40
0.771799778679461
 50
141.8795802028365
 51
218.1204197971687
 73
     1
 72
     2
 10
-51.9258209019153
 20
14.11579176226803
 40
0.5179085730137343
 50
218.120419797193
 51
321.8795802028007
 73
     1
 97
        4
330
1E4
330
1E1
330
1E2
330
1E3
 75
     1
 76
     0
 52
45.0
 41
0.1
 77
     0
 78
     1
 53
45.0
 43
0.0
 44
0.0
 45
-0.0707106781186548
 46
0.0707106781186548
 79
     0
 98
        1
 10
0.0
 20
0.0
  0
HATCH
  5
221
330
71
100
AcDbEntity
  8
1
  6
Continuous
 62
     2
100
AcDbHatch
 10
0.0
 20
0.0
 30
0.0
210
0.0
220
0.0
230
1.0
  2
_USER
 70
     0
 71
     1
 91
        2
 92
        1
 93
       12
 72
     1
 10
-45.03082570750601
 20
18.46060457302525
 11
-46.36675353393369
 21
18.46060457302525
 72
     1
 10
-46.36675353393369
 20
18.46060457302525
 11
-46.36675353393369
 21
17.98072021928354
 72
     1
 10
-46.36675353393369
 20
17.98072021928354
 11
-45.03082570750601
 21
17.98072021928354
 72
     1
 10
-45.03082570750601
 20
17.98072021928354
 11
-45.03082570750601
 21
17.28270661384124
 72
     1
 10
-45.03082570750601
 20
17.28270661384124
 11
-46.36675353393369
 21
17.28270661384124
 72
     1
 10
-46.36675353393369
 20
17.28270661384124
 11
-46.36675353393369
 21
16.80282226009953
 72
     1
 10
-46.36675353393369
 20
16.80282226009953
 11
-45.03082570750601
 21
16.80282226009953
 72
     1
 10
-45.03082570750601
 20
16.80282226009953
 11
-45.03082570750601
 21
16.10480865465704
 72
     1
 10
-45.03082570750601
 20
16.10480865465704
 11
-48.18114543128701
 21
16.10480865465704
 72
     2
 10
-48.18114543128701
 20
17.63171341656235
 40
1.526904761905882
 50
90.0
 51
270.0
 73
     0
 72
     1
 10
-48.18114543128701
 20
19.15861817846823
 11
-45.03082570750601
 21
19.15861817846823
 72
     1
 10
-45.03082570750601
 20
19.15861817846823
 11
-45.03082570750601
 21
18.46060457302525
 97
       12
330
17F
330
1D1
330
180
330
181
330
182
330
183
330
160
330
15F
330
15E
330
15D
330
184
330
17E
 92
       16
 93
        4
 72
     2
 10
-47.96487342112181
 20
17.78844459468283
 40
0.5179085730135288
 50
38.12041979714365
 51
141.8795802028486
 73
     1
 72
     2
 10
-47.76513338477551
 20
17.63171341656235
 40
0.7717997786796745
 50
141.8795802028402
 51
218.120419797156
 73
     1
 72
     2
 10
-47.96487342112181
 20
17.47498223844193
 40
0.5179085730134393
 50
218.1204197971514
 51
321.8795802028563
 73
     1
 72
     2
 10
-48.16461345746799
 20
17.63171341656235
 40
0.7717997786796351
 50
321.879580202844
 51
398.1204197971597
 73
     1
 97
        4
330
1CB
330
1CA
330
1C5
330
1C4
 75
     1
 76
     0
 52
45.0
 41
0.1
 77
     0
 78
     1
 53
45.0
 43
0.0
 44
0.0
 45
-0.0707106781186548
 46
0.0707106781186548
 79
     0
 98
        1
 10
0.0
 20
0.0
  0
HATCH
  5
222
330
71
100
AcDbEntity
  8
1
  6
Continuous
 62
     2
100
AcDbHatch
 10
0.0
 20
0.0
 30
0.0
210
0.0
220
0.0
230
1.0
  2
_USER
 70
     0
 71
     1
 91
        2
 92
        1
 93
       12
 72
     1
 10
-45.03082570750601
 20
18.46060457302525
 11
-46.36675353393369
 21
18.46060457302525
 72
     1
 10
-46.36675353393369
 20
18.46060457302525
 11
-46.36675353393369
 21
17.98072021928354
 72
     1
 10
-46.36675353393369
 20
17.98072021928354
 11
-45.03082570750601
 21
17.98072021928354
 72
     1
 10
-45.03082570750601
 20
17.98072021928354
 11
-45.03082570750601
 21
17.28270661384124
 72
     1
 10
-45.03082570750601
 20
17.28270661384124
 11
-46.36675353393369
 21
17.28270661384124
 72
     1
 10
-46.36675353393369
 20
17.28270661384124
 11
-46.36675353393369
 21
16.80282226009953
 72
     1
 10
-46.36675353393369
 20
16.80282226009953
 11
-45.03082570750601
 21
16.80282226009953
 72
     1
 10
-45.03082570750601
 20
16.80282226009953
 11
-45.03082570750601
 21
16.10480865465704
 72
     1
 10
-45.03082570750601
 20
16.10480865465704
 11
-48.18114543128701
 21
16.10480865465704
 72
     2
 10
-48.18114543128701
 20
17.63171341656235
 40
1.526904761905882
 50
90.0
 51
270.0
 73
     0
 72
     1
 10
-48.18114543128701
 20
19.15861817846823
 11
-45.03082570750601
 21
19.15861817846823
 72
     1
 10
-45.03082570750601
 20
19.15861817846823
 11
-45.03082570750601
 21
18.46060457302525
 97
       12
330
17F
330
1D1
330
180
330
181
330
182
330
183
330
160
330
15F
330
15E
330
15D
330
184
330
17E
 92
       16
 93
        4
 72
     2
 10
-47.96487342112181
 20
17.78844459468283
 40
0.5179085730135288
 50
38.12041979714365
 51
141.8795802028486
 73
     1
 72
     2
 10
-47.76513338477551
 20
17.63171341656235
 40
0.7717997786796745
 50
141.8795802028402
 51
218.120419797156
 73
     1
 72
     2
 10
-47.96487342112181
 20
17.47498223844193
 40
0.5179085730134393
 50
218.1204197971514
 51
321.8795802028563
 73
     1
 72
     2
 10
-48.16461345746799
 20
17.63171341656235
 40
0.7717997786796351
 50
321.879580202844
 51
398.1204197971597
 73
     1
 97
        4
330
1CB
330
1CA
330
1C5
330
1C4
 75
     1
 76
     0
 52
45.0
 41
0.1
 77
     0
 78
     1
 53
45.0
 43
0.0
 44
0.0
 45
-0.0707106781186548
 46
0.0707106781186548
 79
     0
 98
        1
 10
0.0
 20
0.0
  0
HATCH
  5
223
330
71
100
AcDbEntity
  8
1
  6
Continuous
 62
     2
100
AcDbHatch
 10
0.0
 20
0.0
 30
0.0
210
0.0
220
0.0
230
1.0
  2
_USER
 70
     0
 71
     1
 91
        4
 92
        1
 93
        8
 72
     1
 10
-56.95875272917562
 20
18.73437356306624
 11
-56.95875272917562
 21
13.16986279386603
 72
     2
 10
-57.3829973445595
 20
13.16986279386603
 40
0.4242446153832908
 50
0.0
 51
90.0
 73
     0
 72
     1
 10
-57.3829973445595
 20
12.74561817848274
 11
-62.8563094352763
 21
12.74561817848274
 72
     2
 10
-62.8563094352763
 20
13.16986279386603
 40
0.4242446153828112
 50
90.0
 51
180.0
 73
     0
 72
     1
 10
-63.28055405065911
 20
13.16986279386603
 11
-63.28055405065911
 21
18.73437356306624
 72
     2
 10
-62.8563094352763
 20
18.73437356306624
 40
0.4242446153838024
 50
180.0
 51
270.0
 73
     0
 72
     1
 10
-62.8563094352763
 20
19.15861817845004
 11
-57.3829973445595
 21
19.15861817845004
 72
     2
 10
-57.3829973445595
 20
18.73437356306624
 40
0.424244615383877
 50
270.0
 51
360.0
 73
     0
 97
        8
330
173
330
1C1
330
174
330
1CC
330
171
330
1C3
330
172
330
1C2
 92
       16
 93
        1
 72
     2
 10
-60.23672378475879
 20
16.41549133471074
 40
0.4709789327785003
 50
0.0
 51
360.0
 73
     1
 97
        1
330
1E7
 92
       16
 93
        8
 72
     2
 10
-59.68686607199811
 20
15.30634973474233
 40
0.3157169230765344
 50
115.3740086783517
 51
180.0
 73
     1
 72
     1
 10
-60.0025829950749
 20
15.30634973474233
 11
-60.0025829950749
 21
14.72449832804725
 72
     2
 10
-59.68686607199811
 20
14.72449832804725
 40
0.315716923076792
 50
180.0
 51
269.8110329574542
 73
     1
 72
     2
 10
-59.68124993668809
 20
16.42733327561624
 40
2.018561131933266
 50
269.8110329575858
 51
450.1889670424142
 73
     1
 72
     2
 10
-59.68686607199811
 20
18.13016822318534
 40
0.315716923076064
 50
90.18896704254594
 51
180.0
 73
     1
 72
     1
 10
-60.0025829950749
 20
18.13016822318534
 11
-60.0025829950749
 21
17.52463293467855
 72
     2
 10
-59.68686607199811
 20
17.52463293467855
 40
0.315716923076792
 50
180.0
 51
244.6259913216482
 73
     1
 72
     2
 10
-60.21290877008599
 20
16.41549133471074
 40
0.9118481501444573
 50
295.3740086781926
 51
424.6259913218234
 73
     0
 97
        8
330
1D9
330
13A
330
1D6
330
1D7
330
1B5
330
139
330
1D8
330
1B4
 92
       16
 93
       12
 72
     2
 10
-62.26241475852982
 20
13.77389065711634
 40
0.3157169230756764
 50
180.0
 51
270.0
 73
     1
 72
     1
 10
-62.26241475852982
 20
13.45817373403963
 11
-60.78658149752019
 21
13.45817373403963
 72
     2
 10
-60.78658149752019
 20
13.77389065711634
 40
0.3157169230767103
 50
270.0
 51
360.0
 73
     1
 72
     1
 10
-60.4708645744436
 20
13.77389065711634
 11
-60.4708645744436
 21
15.30466158864795
 72
     2
 10
-60.78658149752019
 20
15.30466158864795
 40
0.3157169230765859
 50
0.0
 51
64.80558935146027
 73
     1
 72
     2
 10
-60.2639970499452
 20
16.41549133471074
 40
0.9118975235576114
 50
115.1944106485122
 51
244.8055893514717
 73
     0
 72
     2
 10
-60.78658149752019
 20
17.52632108077293
 40
0.3157169230761203
 50
295.1944106485397
 51
360.0
 73
     1
 72
     1
 10
-60.4708645744436
 20
17.52632108077293
 11
-60.4708645744436
 21
18.13034569983344
 72
     2
 10
-60.78658149752019
 20
18.13034569983344
 40
0.3157169230765859
 50
0.0
 51
90.0
 73
     1
 72
     1
 10
-60.78658149752019
 20
18.44606262290964
 11
-62.26241475852982
 21
18.44606262290964
 72
     2
 10
-62.26241475852982
 20
18.13034569983344
 40
0.3157169230761987
 50
90.0
 51
180.0
 73
     1
 72
     1
 10
-62.5781316816055
 20
18.13034569983344
 11
-62.5781316816055
 21
13.77389065711634
 97
       12
330
1BD
330
175
330
1C0
330
170
330
1CD
330
1CE
330
1BF
330
16F
330
1BE
330
16E
330
1CF
330
16D
 75
     1
 76
     0
 52
45.0
 41
0.1
 77
     0
 78
     1
 53
45.0
 43
0.0
 44
0.0
 45
-0.0707106781186548
 46
0.0707106781186548
 79
     0
 98
        1
 10
0.0
 20
0.0
  0
HATCH
  5
224
330
71
100
AcDbEntity
  8
1
  6
Continuous
 62
     2
100
AcDbHatch
 10
0.0
 20
0.0
 30
0.0
210
0.0
220
0.0
230
1.0
  2
_USER
 70
     0
 71
     1
 91
        4
 92
        1
 93
        8
 72
     1
 10
-56.95875272917562
 20
18.73437356306624
 11
-56.95875272917562
 21
13.16986279386603
 72
     2
 10
-57.3829973445595
 20
13.16986279386603
 40
0.4242446153832908
 50
0.0
 51
90.0
 73
     0
 72
     1
 10
-57.3829973445595
 20
12.74561817848274
 11
-62.8563094352763
 21
12.74561817848274
 72
     2
 10
-62.8563094352763
 20
13.16986279386603
 40
0.4242446153828112
 50
90.0
 51
180.0
 73
     0
 72
     1
 10
-63.28055405065911
 20
13.16986279386603
 11
-63.28055405065911
 21
18.73437356306624
 72
     2
 10
-62.8563094352763
 20
18.73437356306624
 40
0.4242446153838024
 50
180.0
 51
270.0
 73
     0
 72
     1
 10
-62.8563094352763
 20
19.15861817845004
 11
-57.3829973445595
 21
19.15861817845004
 72
     2
 10
-57.3829973445595
 20
18.73437356306624
 40
0.424244615383877
 50
270.0
 51
360.0
 73
     0
 97
        8
330
173
330
1C1
330
174
330
1CC
330
171
330
1C3
330
172
330
1C2
 92
       16
 93
        1
 72
     2
 10
-60.23672378475879
 20
16.41549133471074
 40
0.4709789327785003
 50
0.0
 51
360.0
 73
     1
 97
        1
330
1E7
 92
       16
 93
        8
 72
     2
 10
-59.68686607199811
 20
15.30634973474233
 40
0.3157169230765344
 50
115.3740086783517
 51
180.0
 73
     1
 72
     1
 10
-60.0025829950749
 20
15.30634973474233
 11
-60.0025829950749
 21
14.72449832804725
 72
     2
 10
-59.68686607199811
 20
14.72449832804725
 40
0.315716923076792
 50
180.0
 51
269.8110329574542
 73
     1
 72
     2
 10
-59.68124993668809
 20
16.42733327561624
 40
2.018561131933266
 50
269.8110329575858
 51
450.1889670424142
 73
     1
 72
     2
 10
-59.68686607199811
 20
18.13016822318534
 40
0.315716923076064
 50
90.18896704254594
 51
180.0
 73
     1
 72
     1
 10
-60.0025829950749
 20
18.13016822318534
 11
-60.0025829950749
 21
17.52463293467855
 72
     2
 10
-59.68686607199811
 20
17.52463293467855
 40
0.315716923076792
 50
180.0
 51
244.6259913216482
 73
     1
 72
     2
 10
-60.21290877008599
 20
16.41549133471074
 40
0.9118481501444573
 50
295.3740086781926
 51
424.6259913218234
 73
     0
 97
        8
330
1D9
330
13A
330
1D6
330
1D7
330
1B5
330
139
330
1D8
330
1B4
 92
       16
 93
       12
 72
     2
 10
-62.26241475852982
 20
13.77389065711634
 40
0.3157169230756764
 50
180.0
 51
270.0
 73
     1
 72
     1
 10
-62.26241475852982
 20
13.45817373403963
 11
-60.78658149752019
 21
13.45817373403963
 72
     2
 10
-60.78658149752019
 20
13.77389065711634
 40
0.3157169230767103
 50
270.0
 51
360.0
 73
     1
 72
     1
 10
-60.4708645744436
 20
13.77389065711634
 11
-60.4708645744436
 21
15.30466158864795
 72
     2
 10
-60.78658149752019
 20
15.30466158864795
 40
0.3157169230765859
 50
0.0
 51
64.80558935146027
 73
     1
 72
     2
 10
-60.2639970499452
 20
16.41549133471074
 40
0.9118975235576114
 50
115.1944106485122
 51
244.8055893514717
 73
     0
 72
     2
 10
-60.78658149752019
 20
17.52632108077293
 40
0.3157169230761203
 50
295.1944106485397
 51
360.0
 73
     1
 72
     1
 10
-60.4708645744436
 20
17.52632108077293
 11
-60.4708645744436
 21
18.13034569983344
 72
     2
 10
-60.78658149752019
 20
18.13034569983344
 40
0.3157169230765859
 50
0.0
 51
90.0
 73
     1
 72
     1
 10
-60.78658149752019
 20
18.44606262290964
 11
-62.26241475852982
 21
18.44606262290964
 72
     2
 10
-62.26241475852982
 20
18.13034569983344
 40
0.3157169230761987
 50
90.0
 51
180.0
 73
     1
 72
     1
 10
-62.5781316816055
 20
18.13034569983344
 11
-62.5781316816055
 21
13.77389065711634
 97
       12
330
1BD
330
175
330
1C0
330
170
330
1CD
330
1CE
330
1BF
330
16F
330
1BE
330
16E
330
1CF
330
16D
 75
     1
 76
     0
 52
45.0
 41
0.1
 77
     0
 78
     1
 53
45.0
 43
0.0
 44
0.0
 45
-0.0707106781186548
 46
0.0707106781186548
 79
     0
 98
        1
 10
0.0
 20
0.0
  0
HATCH
  5
225
330
71
100
AcDbEntity
  8
1
  6
Continuous
 62
     2
100
AcDbHatch
 10
0.0
 20
0.0
 30
0.0
210
0.0
220
0.0
230
1.0
  2
_USER
 70
     0
 71
     1
 91
        1
 92
        1
 93
       18
 72
     1
 10
-35.3692048199546
 20
15.01416239617024
 11
-36.18030385742799
 21
15.01416239617024
 72
     1
 10
-36.18030385742799
 20
15.01416239617024
 11
-36.18030385742799
 21
12.74561817848274
 72
     1
 10
-36.18030385742799
 20
12.74561817848274
 11
-37.3730965595957
 21
12.74561817848274
 72
     1
 10
-37.3730965595957
 20
12.74561817848274
 11
-37.3730965595957
 21
15.01416239617024
 72
     1
 10
-37.3730965595957
 20
15.01416239617024
 11
-38.4767358591638
 21
15.01416239617024
 72
     2
 10
-38.4767358591638
 20
14.05963938934414
 40
0.9545230068261006
 50
90.0
 51
109.337143219432
 73
     1
 72
     2
 10
-38.6234058572675
 20
14.47759436972703
 40
0.5115800601944133
 50
109.3371432194862
 51
151.4785267424226
 73
     1
 72
     2
 10
-38.24604859918611
 20
14.27252294038803
 40
0.9410597353348915
 50
151.4785267423625
 51
208.5214732576695
 73
     1
 72
     2
 10
-38.6234058572675
 20
14.06745151104954
 40
0.5115800601960215
 50
208.5214732576866
 51
246.6277221118447
 73
     1
 72
     2
 10
-38.4669658245644
 20
14.42944352975954
 40
0.9059297849852768
 50
246.6277221118181
 51
288.4480761180817
 73
     1
 72
     2
 10
-38.8851335582263
 20
15.68298930579613
 40
2.227384008972748
 50
288.4480761181335
 51
301.9309089499397
 73
     1
 72
     1
 10
-37.70707851620239
 20
13.79263858664635
 11
-37.70707851620239
 21
12.92012157984303
 72
     2
 10
-39.04300643331911
 20
17.58520388564443
 40
4.852596863498823
 50
74.02000874166129
 51
84.84185523036365
 73
     0
 72
     2
 10
-38.75415033858329
 20
14.38531330242284
 40
1.639695123940446
 50
84.8418552303238
 51
164.9381082228991
 73
     0
 72
     2
 10
-39.1732781820449
 20
14.27252294038803
 40
1.205656168392995
 50
164.9381082229043
 51
195.0618917770972
 73
     0
 72
     2
 10
-38.75415033858329
 20
14.15973257835313
 40
1.639695123940209
 50
195.0618917771049
 51
270.0
 73
     0
 72
     1
 10
-38.75415033858329
 20
15.79942770229334
 11
-35.3692048199546
 21
15.79942770229383
 72
     1
 10
-35.3692048199546
 20
15.79942770229383
 11
-35.3692048199546
 21
15.01416239617024
 97
       18
330
13C
330
1D2
330
1D3
330
1BB
330
1BA
330
1A0
330
1B9
330
1B8
330
1D4
330
1B7
330
1D5
330
1B6
330
1A1
330
13B
330
140
330
13F
330
13E
330
13D
 75
     1
 76
     0
 52
45.0
 41
0.1
 77
     0
 78
     1
 53
45.0
 43
0.0
 44
0.0
 45
-0.0707106781186548
 46
0.0707106781186548
 79
     0
 98
        1
 10
0.0
 20
0.0
  0
HATCH
  5
226
330
71
100
AcDbEntity
  8
1
  6
Continuous
 62
     2
100
AcDbHatch
 10
0.0
 20
0.0
 30
0.0
210
0.0
220
0.0
230
1.0
  2
_USER
 70
     0
 71
     1
 91
        1
 92
        1
 93
       18
 72
     1
 10
-35.3692048199546
 20
15.01416239617024
 11
-36.18030385742799
 21
15.01416239617024
 72
     1
 10
-36.18030385742799
 20
15.01416239617024
 11
-36.18030385742799
 21
12.74561817848274
 72
     1
 10
-36.18030385742799
 20
12.74561817848274
 11
-37.3730965595957
 21
12.74561817848274
 72
     1
 10
-37.3730965595957
 20
12.74561817848274
 11
-37.3730965595957
 21
15.01416239617024
 72
     1
 10
-37.3730965595957
 20
15.01416239617024
 11
-38.4767358591638
 21
15.01416239617024
 72
     2
 10
-38.4767358591638
 20
14.05963938934414
 40
0.9545230068261006
 50
90.0
 51
109.337143219432
 73
     1
 72
     2
 10
-38.6234058572675
 20
14.47759436972703
 40
0.5115800601944133
 50
109.3371432194862
 51
151.4785267424226
 73
     1
 72
     2
 10
-38.24604859918611
 20
14.27252294038803
 40
0.9410597353348915
 50
151.4785267423625
 51
208.5214732576695
 73
     1
 72
     2
 10
-38.6234058572675
 20
14.06745151104954
 40
0.5115800601960215
 50
208.5214732576866
 51
246.6277221118447
 73
     1
 72
     2
 10
-38.4669658245644
 20
14.42944352975954
 40
0.9059297849852768
 50
246.6277221118181
 51
288.4480761180817
 73
     1
 72
     2
 10
-38.8851335582263
 20
15.68298930579613
 40
2.227384008972748
 50
288.4480761181335
 51
301.9309089499397
 73
     1
 72
     1
 10
-37.70707851620239
 20
13.79263858664635
 11
-37.70707851620239
 21
12.92012157984303
 72
     2
 10
-39.04300643331911
 20
17.58520388564443
 40
4.852596863498823
 50
74.02000874166129
 51
84.84185523036365
 73
     0
 72
     2
 10
-38.75415033858329
 20
14.38531330242284
 40
1.639695123940446
 50
84.8418552303238
 51
164.9381082228991
 73
     0
 72
     2
 10
-39.1732781820449
 20
14.27252294038803
 40
1.205656168392995
 50
164.9381082229043
 51
195.0618917770972
 73
     0
 72
     2
 10
-38.75415033858329
 20
14.15973257835313
 40
1.639695123940209
 50
195.0618917771049
 51
270.0
 73
     0
 72
     1
 10
-38.75415033858329
 20
15.79942770229334
 11
-35.3692048199546
 21
15.79942770229383
 72
     1
 10
-35.3692048199546
 20
15.79942770229383
 11
-35.3692048199546
 21
15.01416239617024
 97
       18
330
13C
330
1D2
330
1D3
330
1BB
330
1BA
330
1A0
330
1B9
330
1B8
330
1D4
330
1B7
330
1D5
330
1B6
330
1A1
330
13B
330
140
330
13F
330
13E
330
13D
 75
     1
 76
     0
 52
45.0
 41
0.1
 77
     0
 78
     1
 53
45.0
 43
0.0
 44
0.0
 45
-0.0707106781186548
 46
0.0707106781186548
 79
     0
 98
        1
 10
0.0
 20
0.0
  0
HATCH
  5
227
330
71
100
AcDbEntity
  8
1
  6
Continuous
 62
     2
100
AcDbHatch
 10
0.0
 20
0.0
 30
0.0
210
0.0
220
0.0
230
1.0
  2
_USER
 70
     0
 71
     1
 91
        1
 92
        1
 93
       14
 72
     2
 10
-54.8568518178362
 20
14.15973257835313
 40
1.639695123940506
 50
84.8418552303621
 51
164.9381082228866
 73
     1
 72
     2
 10
-55.275979661299
 20
14.27252294038803
 40
1.205656168390951
 50
164.9381082228766
 51
195.0618917770948
 73
     1
 72
     2
 10
-54.8568518178362
 20
14.38531330242284
 40
1.639695123939387
 50
195.0618917770895
 51
275.1581447696398
 73
     1
 72
     2
 10
-55.14570791257211
 20
17.58520388564443
 40
4.852596863498135
 50
275.158144769625
 51
285.9799912583528
 73
     1
 72
     1
 10
-53.80977999545431
 20
12.92012157984362
 11
-53.80977999545431
 21
13.79263858664683
 72
     2
 10
-54.98783503747919
 20
15.68298930579672
 40
2.227384008972731
 50
58.06909105004065
 51
71.55192388186698
 73
     0
 72
     2
 10
-54.56966730381839
 20
14.42944352975954
 40
0.905929784984916
 50
71.55192388184147
 51
113.3722778881291
 73
     0
 72
     2
 10
-54.72610733652041
 20
14.06745151104954
 40
0.5115800601948096
 50
113.3722778881736
 51
151.4785267423048
 73
     0
 72
     2
 10
-54.34875007844011
 20
14.27252294038803
 40
0.941059735333249
 50
151.4785267422941
 51
208.5214732577334
 73
     0
 72
     2
 10
-54.72610733652041
 20
14.47759436972703
 40
0.5115800601948823
 50
208.5214732576954
 51
246.6277221118002
 73
     0
 72
     2
 10
-54.56966730381839
 20
14.11560235101644
 40
0.9059297849853228
 50
246.6277221118709
 51
288.4480761181465
 73
     0
 72
     2
 10
-54.98783503747919
 20
12.86205657497985
 40
2.227384008973476
 50
288.4480761181329
 51
301.9309089499593
 73
     0
 72
     1
 10
-53.80977999545431
 20
14.75240729412974
 11
-53.80977999545431
 21
15.62492430093303
 72
     2
 10
-55.14570791257211
 20
10.95984199513214
 40
4.852596863498063
 50
74.02000874164744
 51
84.84185523037496
 73
     1
 97
       14
330
1DA
330
1DB
330
1DC
330
1DD
330
1A2
330
1B3
330
1B2
330
1B1
330
1DE
330
1DF
330
1B0
330
1E0
330
1A3
330
1AF
 75
     1
 76
     0
 52
45.0
 41
0.1
 77
     0
 78
     1
 53
45.0
 43
0.0
 44
0.0
 45
-0.0707106781186548
 46
0.0707106781186548
 79
     0
 98
        1
 10
0.0
 20
0.0
  0
HATCH
  5
228
330
71
100
AcDbEntity
  8
1
  6
Continuous
 62
     2
100
AcDbHatch
 10
0.0
 20
0.0
 30
0.0
210
0.0
220
0.0
230
1.0
  2
_USER
 70
     0
 71
     1
 91
        1
 92
        1
 93
       14
 72
     2
 10
-54.8568518178362
 20
14.15973257835313
 40
1.639695123940506
 50
84.8418552303621
 51
164.9381082228866
 73
     1
 72
     2
 10
-55.275979661299
 20
14.27252294038803
 40
1.205656168390951
 50
164.9381082228766
 51
195.0618917770948
 73
     1
 72
     2
 10
-54.8568518178362
 20
14.38531330242284
 40
1.639695123939387
 50
195.0618917770895
 51
275.1581447696398
 73
     1
 72
     2
 10
-55.14570791257211
 20
17.58520388564443
 40
4.852596863498135
 50
275.158144769625
 51
285.9799912583528
 73
     1
 72
     1
 10
-53.80977999545431
 20
12.92012157984362
 11
-53.80977999545431
 21
13.79263858664683
 72
     2
 10
-54.98783503747919
 20
15.68298930579672
 40
2.227384008972731
 50
58.06909105004065
 51
71.55192388186698
 73
     0
 72
     2
 10
-54.56966730381839
 20
14.42944352975954
 40
0.905929784984916
 50
71.55192388184147
 51
113.3722778881291
 73
     0
 72
     2
 10
-54.72610733652041
 20
14.06745151104954
 40
0.5115800601948096
 50
113.3722778881736
 51
151.4785267423048
 73
     0
 72
     2
 10
-54.34875007844011
 20
14.27252294038803
 40
0.941059735333249
 50
151.4785267422941
 51
208.5214732577334
 73
     0
 72
     2
 10
-54.72610733652041
 20
14.47759436972703
 40
0.5115800601948823
 50
208.5214732576954
 51
246.6277221118002
 73
     0
 72
     2
 10
-54.56966730381839
 20
14.11560235101644
 40
0.9059297849853228
 50
246.6277221118709
 51
288.4480761181465
 73
     0
 72
     2
 10
-54.98783503747919
 20
12.86205657497985
 40
2.227384008973476
 50
288.4480761181329
 51
301.9309089499593
 73
     0
 72
     1
 10
-53.80977999545431
 20
14.75240729412974
 11
-53.80977999545431
 21
15.62492430093303
 72
     2
 10
-55.14570791257211
 20
10.95984199513214
 40
4.852596863498063
 50
74.02000874164744
 51
84.84185523037496
 73
     1
 97
       14
330
1DA
330
1DB
330
1DC
330
1DD
330
1A2
330
1B3
330
1B2
330
1B1
330
1DE
330
1DF
330
1B0
330
1E0
330
1A3
330
1AF
 75
     1
 76
     0
 52
45.0
 41
0.1
 77
     0
 78
     1
 53
45.0
 43
0.0
 44
0.0
 45
-0.0707106781186548
 46
0.0707106781186548
 79
     0
 98
        1
 10
0.0
 20
0.0
  0
ENDBLK
  5
73
330
71
100
AcDbEntity
  8
0
100
AcDbBlockEnd
  0
BLOCK
  5
75
330
74
100
AcDbEntity
  8
0
100
AcDbBlockBegin
  2
_punkt
 70
     0
 10
62.0275955895283
 20
5.45211817846643
 30
0.0
  3
_punkt
  1

  0
LINE
  5
229
330
74
100
AcDbEntity
  8
1
  6
Continuous
 62
     2
100
AcDbLine
 10
62.0275955895283
 20
5.45211817846643
 30
0.0
 11
67.0275955895273
 21
5.45211817846643
 31
0.0
  0
LINE
  5
22A
330
74
100
AcDbEntity
  8
1
  6
Continuous
 62
     2
100
AcDbLine
 10
62.0275955895283
 20
5.45211817846643
 30
0.0
 11
62.0275955895283
 21
0.45211817846632
 31
0.0
  0
ENDBLK
  5
76
330
74
100
AcDbEntity
  8
0
100
AcDbBlockEnd
  0
BLOCK
  5
7A
330
77
100
AcDbEntity
  8
0
100
AcDbBlockBegin
  2
A4I_CS
 70
     0
 10
62.0275955895283
 20
0.45211817846632
 30
0.0
  3
A4I_CS
  1

  0
INSERT
  5
78
330
77
100
AcDbEntity
  8
1
100
AcDbBlockReference
  2
_rahmen
 10
62.0275955895283
 20
0.45211817846632
 30
0.0
  0
INSERT
  5
79
330
77
100
AcDbEntity
  8
1
100
AcDbBlockReference
  2
_punkt
 10
62.0275955895283
 20
5.45211817846643
 30
0.0
  0
ENDBLK
  5
7B
330
77
100
AcDbEntity
  8
0
100
AcDbBlockEnd
  0
BLOCK
  5
84
330
7C
100
AcDbEntity
  8
0
100
AcDbBlockBegin
  2
1
 70
     0
 10
0.0
 20
0.0
 30
0.0
  3
1
  1

  0
INSERT
  5
7D
330
7C
100
AcDbEntity
  8
0
100
AcDbBlockReference
  2
AllgSicht1
 10
-11.00000000000017
 20
78.0
 30
0.0
  0
INSERT
  5
7E
330
7C
100
AcDbEntity
  8
0
100
AcDbBlockReference
  2
Drfsicht1
 10
-125.0999964741208
 20
86.34999838145966
 30
0.0
  0
INSERT
  5
7F
330
7C
100
AcDbEntity
  8
0
100
AcDbBlockReference
  2
Rckans1
 10
-19.34876465256927
 20
146.9999999999998
 30
0.0
  0
INSERT
  5
80
330
7C
100
AcDbEntity
  8
0
100
AcDbBlockReference
  2
SA_Links1
 10
-68.103455979784
 20
146.9999999999998
 30
0.0
  0
INSERT
  5
81
330
7C
100
AcDbEntity
  8
0
100
AcDbBlockReference
  2
SA_Rechts1
 10
-170.1999962888185
 20
147.0
 30
0.0
  0
INSERT
  5
82
330
7C
100
AcDbEntity
  8
0
100
AcDbBlockReference
  2
Vordans1
 10
-125.0999977111814
 20
147.0
 30
0.0
  0
INSERT
  5
83
330
7C
100
AcDbEntity
  8
0
100
AcDbBlockReference
  2
A4I_CS
 10
62.0275955895283
 20
0.45211817846632
 30
0.0
  0
ENDBLK
  5
85
330
7C
100
AcDbEntity
  8
0
100
AcDbBlockEnd
  0
BLOCK
  5
B0
330
A7
100
AcDbEntity
  8
0
100
AcDbBlockBegin
  2
*D17
 70
     1
 10
0.0
 20
0.0
 30
0.0
  3
*D17
  1

  0
LINE
  5
A8
330
A7
100
AcDbEntity
  8
1
  6
Continuous
 62
     2
100
AcDbLine
 10
-89.37621035621243
 20
78.84999838145465
 30
0.0
 11
-89.37621035621243
 21
85.84999838145465
 31
0.0
  0
LINE
  5
A9
330
A7
100
AcDbEntity
  8
1
  6
Continuous
 62
     2
100
AcDbLine
 10
-89.37621035621243
 20
85.84999838145465
 30
0.0
 11
-89.37621035621243
 21
86.84999838145465
 31
0.0
  0
LINE
  5
AA
330
A7
100
AcDbEntity
  8
1
  6
Continuous
 62
     2
100
AcDbLine
 10
-89.37621035621243
 20
86.84999838145465
 30
0.0
 11
-89.37621035621243
 21
95.94752695719498
 31
0.0
  0
LINE
  5
AB
330
A7
100
AcDbEntity
  8
1
  6
Continuous
 62
     2
100
AcDbLine
 10
-101.9999957345846
 20
85.84999838145465
 30
0.0
 11
-87.87621035621243
 21
85.84999838145465
 31
0.0
  0
LINE
  5
AC
330
A7
100
AcDbEntity
  8
1
  6
Continuous
 62
     2
100
AcDbLine
 10
-101.9999957345846
 20
86.84999838145465
 30
0.0
 11
-87.87621035621243
 21
86.84999838145465
 31
0.0
  0
SOLID
  5
AD
330
A7
100
AcDbEntity
  8
1
 62
     2
100
AcDbTrace
 10
-88.91542661465654
 20
82.34999838145465
 30
0.0
 11
-89.83699409776831
 21
82.34999838145465
 31
0.0
 12
-89.37621035621243
 22
85.84999838145465
 32
0.0
 13
-89.37621035621243
 23
85.84999838145465
 33
0.0
  0
SOLID
  5
AE
330
A7
100
AcDbEntity
  8
1
 62
     2
100
AcDbTrace
 10
-89.83699409776831
 20
90.34999838145465
 30
0.0
 11
-88.91542661465654
 21
90.34999838145465
 31
0.0
 12
-89.37621035621243
 22
86.84999838145465
 32
0.0
 13
-89.37621035621243
 23
86.84999838145465
 33
0.0
  0
MTEXT
  5
AF
330
A7
100
AcDbEntity
  8
1
 62
     3
100
AcDbMText
 10
-90.87621035621243
 20
94.89752695719497
 30
0.0
 40
3.5
 41
0.0
 71
     7
 72
     1
  1
1
  7
CONVERTER_11
 11
0.0
 21
1.0
 31
0.0
 73
     1
 44
0.60024009603842
  0
ENDBLK
  5
B1
330
A7
100
AcDbEntity
  8
0
100
AcDbBlockEnd
  0
BLOCK
  5
E3
330
DC
100
AcDbEntity
  8
0
100
AcDbBlockBegin
  2
*D18
 70
     1
 10
0.0
 20
0.0
 30
0.0
  3
*D18
  1

  0
LINE
  5
DD
330
DC
100
AcDbEntity
  8
1
  6
Continuous
 62
     2
100
AcDbLine
 10
-89.37621035621243
 20
132.8500014595986
 30
0.0
 11
-89.37621035621243
 21
161.1500014595986
 31
0.0
  0
LINE
  5
DE
330
DC
100
AcDbEntity
  8
1
  6
Continuous
 62
     2
100
AcDbLine
 10
-102.4287156795348
 20
132.8500014595986
 30
0.0
 11
-87.37621035621243
 21
132.8500014595986
 31
0.0
  0
LINE
  5
DF
330
DC
100
AcDbEntity
  8
1
  6
Continuous
 62
     2
100
AcDbLine
 10
-109.4999969716452
 20
161.1500014595986
 30
0.0
 11
-87.37621035621243
 21
161.1500014595986
 31
0.0
  0
SOLID
  5
E0
330
DC
100
AcDbEntity
  8
1
 62
     2
100
AcDbTrace
 10
-89.83699409776831
 20
136.3500014595986
 30
0.0
 11
-88.91542661465654
 21
136.3500014595986
 31
0.0
 12
-89.37621035621243
 22
132.8500014595986
 32
0.0
 13
-89.37621035621243
 23
132.8500014595986
 33
0.0
  0
SOLID
  5
E1
330
DC
100
AcDbEntity
  8
1
 62
     2
100
AcDbTrace
 10
-88.91542661465654
 20
157.6500014595986
 30
0.0
 11
-89.83699409776831
 21
157.6500014595986
 31
0.0
 12
-89.37621035621243
 22
161.1500014595986
 32
0.0
 13
-89.37621035621243
 23
161.1500014595986
 33
0.0
  0
MTEXT
  5
E2
330
DC
100
AcDbEntity
  8
1
 62
     3
100
AcDbMText
 10
-91.72621035621242
 20
142.390880679222
 30
0.0
 40
3.5
 41
0.0
 71
     7
 72
     1
  1
28,3
  7
CONVERTER_11
 11
0.0
 21
1.0
 31
0.0
 73
     1
 44
0.60024009603842
  0
ENDBLK
  5
E4
330
DC
100
AcDbEntity
  8
0
100
AcDbBlockEnd
  0
BLOCK
  5
EE
330
E7
100
AcDbEntity
  8
0
100
AcDbBlockBegin
  2
*D19
 70
     1
 10
0.0
 20
0.0
 30
0.0
  3
*D19
  1

  0
LINE
  5
E8
330
E7
100
AcDbEntity
  8
1
  6
Continuous
 62
     2
100
AcDbLine
 10
-101.9999969716452
 20
122.4107771306796
 30
0.0
 11
-148.1999969716452
 21
122.4107771306796
 31
0.0
  0
LINE
  5
E9
330
E7
100
AcDbEntity
  8
1
  6
Continuous
 62
     2
100
AcDbLine
 10
-101.9999969716452
 20
134.4500014595986
 30
0.0
 11
-101.9999969716452
 21
120.4107771306796
 31
0.0
  0
LINE
  5
EA
330
E7
100
AcDbEntity
  8
1
  6
Continuous
 62
     2
100
AcDbLine
 10
-148.1999969716452
 20
134.4500014595986
 30
0.0
 11
-148.1999969716452
 21
120.4107771306796
 31
0.0
  0
SOLID
  5
EB
330
E7
100
AcDbEntity
  8
1
 62
     2
100
AcDbTrace
 10
-105.4999969716452
 20
121.9499933891237
 30
0.0
 11
-105.4999969716452
 21
122.8715608722355
 31
0.0
 12
-101.9999969716452
 22
122.4107771306796
 32
0.0
 13
-101.9999969716452
 23
122.4107771306796
 33
0.0
  0
SOLID
  5
EC
330
E7
100
AcDbEntity
  8
1
 62
     2
100
AcDbTrace
 10
-144.6999969716452
 20
122.8715608722355
 30
0.0
 11
-144.6999969716452
 21
121.9499933891237
 31
0.0
 12
-148.1999969716452
 22
122.4107771306796
 32
0.0
 13
-148.1999969716452
 23
122.4107771306796
 33
0.0
  0
MTEXT
  5
ED
330
E7
100
AcDbEntity
  8
1
 62
     3
100
AcDbMText
 10
-130.8708847890929
 20
124.7607771306796
 30
0.0
 40
3.5
 41
0.0
 71
     7
 72
     1
  1
46,2
  7
CONVERTER_11
 11
0.9999999999970619
 21
2.424068405545306E-6
 31
0.0
 73
     1
 44
0.60024009603842
  0
ENDBLK
  5
EF
330
E7
100
AcDbEntity
  8
0
100
AcDbBlockEnd
  0
ENDSEC
  0
SECTION
  2
ENTITIES
  0
INSERT
  5
86
330
1F
100
AcDbEntity
  8
1
100
AcDbBlockReference
  2
1
 10
0.0
 20
0.0
 30
0.0
  0
ENDSEC
  0
SECTION
  2
OBJECTS
  0
DICTIONARY
  5
C
330
0
100
AcDbDictionary
281
     1
  3
ACAD_GROUP
350
D
  3
ACAD_LAYOUT
350
1A
  3
ACAD_MATERIAL
350
3B
  3
ACAD_MLEADERSTYLE
350
252
  3
ACAD_MLINESTYLE
350
17
  3
ACAD_PLOTSETTINGS
350
19
  3
ACAD_PLOTSTYLENAME
350
E
  3
ACAD_TABLESTYLE
350
251
  3
ACAD_VISUALSTYLE
350
2A
  0
DICTIONARY
  5
D
102
{ACAD_REACTORS
330
C
102
}
330
C
100
AcDbDictionary
281
     1
  0
DICTIONARY
  5
1A
102
{ACAD_REACTORS
330
C
102
}
330
C
100
AcDbDictionary
281
     1
  3
Layout1
350
1E
  3
Layout2
350
26
  3
Model
350
22
  0
DICTIONARY
  5
3B
102
{ACAD_REACTORS
330
C
102
}
330
C
100
AcDbDictionary
281
     1
  3
ByBlock
350
3D
  3
ByLayer
350
3C
  3
Global
350
3E
  0
DICTIONARY
  5
252
102
{ACAD_REACTORS
330
C
102
}
330
C
100
AcDbDictionary
281
     1
  0
DICTIONARY
  5
17
102
{ACAD_REACTORS
330
C
102
}
330
C
100
AcDbDictionary
281
     1
  3
Standard
350
18
  0
DICTIONARY
  5
19
102
{ACAD_REACTORS
330
C
102
}
330
C
100
AcDbDictionary
281
     1
  0
ACDBDICTIONARYWDFLT
  5
E
102
{ACAD_REACTORS
330
C
102
}
330
C
100
AcDbDictionary
281
     1
  3
Normal
350
F
100
AcDbDictionaryWithDefault
340
F
  0
DICTIONARY
  5
251
102
{ACAD_REACTORS
330
C
102
}
330
C
100
AcDbDictionary
281
     1
  0
DICTIONARY
  5
2A
102
{ACAD_REACTORS
330
C
102
}
330
C
100
AcDbDictionary
281
     1
  3
2dWireframe
350
2F
  3
3D Hidden
350
31
  3
3dWireframe
350
30
  3
Basic
350
32
  3
Brighten
350
36
  3
ColorChange
350
3A
  3
Conceptual
350
34
  3
Dim
350
35
  3
Facepattern
350
39
  3
Flat
350
2B
  3
FlatWithEdges
350
2C
  3
Gouraud
350
2D
  3
GouraudWithEdges
350
2E
  3
Linepattern
350
38
  3
Realistic
350
33
  3
Thicken
350
37
  0
LAYOUT
  5
1E
102
{ACAD_REACTORS
330
1A
102
}
330
1A
100
AcDbPlotSettings
  1

  2
none_device
  4

  6

 40
0.0
 41
0.0
 42
0.0
 43
0.0
 44
0.0
 45
0.0
 46
0.0
 47
0.0
 48
0.0
 49
0.0
140
0.0
141
0.0
142
1.0
143
1.0
 70
   688
 72
     0
 73
     0
 74
     5
  7

 75
    16
 76
     0
 77
     2
 78
   300
147
1.0
148
0.0
149
0.0
100
AcDbLayout
  1
Layout1
 70
     1
 71
     1
 10
0.0
 20
0.0
 11
12.0
 21
9.0
 12
0.0
 22
0.0
 32
0.0
 14
1.00000000000000E+20
 24
1.00000000000000E+20
 34
1.00000000000000E+20
 15
-1.00000000000000E+20
 25
-1.00000000000000E+20
 35
-1.00000000000000E+20
146
0.0
 13
0.0
 23
0.0
 33
0.0
 16
1.0
 26
0.0
 36
0.0
 17
0.0
 27
1.0
 37
0.0
 76
     0
330
1B
  0
LAYOUT
  5
26
102
{ACAD_REACTORS
330
1A
102
}
330
1A
100
AcDbPlotSettings
  1

  2
none_device
  4

  6

 40
0.0
 41
0.0
 42
0.0
 43
0.0
 44
0.0
 45
0.0
 46
0.0
 47
0.0
 48
0.0
 49
0.0
140
0.0
141
0.0
142
1.0
143
1.0
 70
   688
 72
     0
 73
     0
 74
     5
  7

 75
    16
 76
     0
 77
     2
 78
   300
147
1.0
148
0.0
149
0.0
100
AcDbLayout
  1
Layout2
 70
     1
 71
     2
 10
0.0
 20
0.0
 11
0.0
 21
0.0
 12
0.0
 22
0.0
 32
0.0
 14
0.0
 24
0.0
 34
0.0
 15
0.0
 25
0.0
 35
0.0
146
0.0
 13
0.0
 23
0.0
 33
0.0
 16
1.0
 26
0.0
 36
0.0
 17
0.0
 27
1.0
 37
0.0
 76
     0
330
23
  0
LAYOUT
  5
22
102
{ACAD_REACTORS
330
1A
102
}
330
1A
100
AcDbPlotSettings
  1

  2
none_device
  4

  6

 40
0.0
 41
0.0
 42
0.0
 43
0.0
 44
0.0
 45
0.0
 46
0.0
 47
0.0
 48
0.0
 49
0.0
140
0.0
141
0.0
142
1.0
143
1.0
 70
  1712
 72
     0
 73
     0
 74
     0
  7

 75
     0
 76
     0
 77
     2
 78
   300
147
1.0
148
0.0
149
0.0
100
AcDbLayout
  1
Model
 70
     1
 71
     0
 10
0.0
 20
0.0
 11
12.0
 21
9.0
 12
0.0
 22
0.0
 32
0.0
 14
-229.9724044104708
 24
0.45211817846632
 34
0.0
 15
67.0275955895273
 25
210.4521181784664
 35
0.0
146
0.0
 13
0.0
 23
0.0
 33
0.0
 16
1.0
 26
0.0
 36
0.0
 17
0.0
 27
1.0
 37
0.0
 76
     0
330
1F
331
29
  0
MATERIAL
  5
3D
102
{ACAD_REACTORS
330
3B
102
}
102
{ACAD_XDICTIONARY
360
24D
102
}
330
3B
100
AcDbMaterial
  1
ByBlock
  0
MATERIAL
  5
3C
102
{ACAD_REACTORS
330
3B
102
}
102
{ACAD_XDICTIONARY
360
24B
102
}
330
3B
100
AcDbMaterial
  1
ByLayer
  0
MATERIAL
  5
3E
102
{ACAD_REACTORS
330
3B
102
}
102
{ACAD_XDICTIONARY
360
24F
102
}
330
3B
100
AcDbMaterial
  1
Global
  0
MLINESTYLE
  5
18
102
{ACAD_REACTORS
330
17
102
}
330
17
100
AcDbMlineStyle
  2
Standard
 70
     0
  3

 62
   256
 51
90.0
 52
90.0
 71
     2
 49
0.5
 62
   256
  6
BYLAYER
 49
-0.5
 62
   256
  6
BYLAYER
  0
ACDBPLACEHOLDER
  5
F
102
{ACAD_REACTORS
330
E
102
}
330
E
  0
VISUALSTYLE
  5
2F
102
{ACAD_REACTORS
330
2A
102
}
102
{ACAD_XDICTIONARY
360
233
102
}
330
2A
100
AcDbVisualStyle
  2
2dWireframe
 70
     4
 71
     0
 72
     2
 73
     0
 90
        0
 40
-0.6
 41
-30.0
 62
     5
 63
     7
421
 16777215
 74
     1
 91
        4
 64
     7
 65
   257
 75
     1
175
     1
 42
1.0
 92
        0
 66
   257
 43
1.0
 76
     1
 77
     6
 78
     2
 67
     7
 79
     5
170
     0
171
     0
290
     0
174
     0
 93
        1
 44
0.0
173
     0
291
     0
 45
0.0
1001
ACAD
1000
AcDbSavedByObjectVersion
1070
     0
  0
VISUALSTYLE
  5
31
102
{ACAD_REACTORS
330
2A
102
}
102
{ACAD_XDICTIONARY
360
237
102
}
330
2A
100
AcDbVisualStyle
  2
3D Hidden
 70
     6
 71
     1
 72
     2
 73
     2
 90
        0
 40
-0.6
 41
-30.0
 62
     5
 63
     7
421
 16777215
 74
     2
 91
        2
 64
     7
 65
   257
 75
     2
175
     1
 42
40.0
 92
        0
 66
   257
 43
1.0
 76
     1
 77
     6
 78
     2
 67
     7
 79
     3
170
     0
171
     0
290
     0
174
     0
 93
        1
 44
0.0
173
     0
291
     0
 45
0.0
1001
ACAD
1000
AcDbSavedByObjectVersion
1070
     0
  0
VISUALSTYLE
  5
30
102
{ACAD_REACTORS
330
2A
102
}
102
{ACAD_XDICTIONARY
360
235
102
}
330
2A
100
AcDbVisualStyle
  2
3dWireframe
 70
     5
 71
     0
 72
     2
 73
     0
 90
        0
 40
-0.6
 41
-30.0
 62
     5
 63
     7
421
 16777215
 74
     1
 91
        4
 64
     7
 65
   257
 75
     1
175
     1
 42
1.0
 92
        0
 66
   257
 43
1.0
 76
     1
 77
     6
 78
     2
 67
     7
 79
     5
170
     0
171
     0
290
     0
174
     0
 93
        1
 44
0.0
173
     0
291
     0
 45
0.0
1001
ACAD
1000
AcDbSavedByObjectVersion
1070
     0
  0
VISUALSTYLE
  5
32
102
{ACAD_REACTORS
330
2A
102
}
102
{ACAD_XDICTIONARY
360
239
102
}
330
2A
100
AcDbVisualStyle
  2
Basic
 70
     7
 71
     1
 72
     0
 73
     1
 90
        0
 40
-0.6
 41
-30.0
 62
     5
 63
     7
421
 16777215
 74
     0
 91
        4
 64
     7
 65
   257
 75
     1
175
     1
 42
1.0
 92
        8
 66
     7
 43
1.0
 76
     1
 77
     6
 78
     2
 67
     7
 79
     5
170
     0
171
     0
290
     0
174
     0
 93
        1
 44
0.0
173
     0
291
     1
 45
0.0
1001
ACAD
1000
AcDbSavedByObjectVersion
1070
     0
  0
VISUALSTYLE
  5
36
102
{ACAD_REACTORS
330
2A
102
}
102
{ACAD_XDICTIONARY
360
241
102
}
330
2A
100
AcDbVisualStyle
  2
Brighten
 70
    12
 71
     2
 72
     2
 73
     0
 90
        0
 40
-0.6
 41
-30.0
 62
     5
 63
     7
421
 16777215
 74
     1
 91
        4
 64
     7
 65
   257
 75
     1
175
     1
 42
1.0
 92
        8
 66
     7
 43
1.0
 76
     1
 77
     6
 78
     2
 67
     7
 79
     5
170
     0
171
     0
290
     0
174
     0
 93
        1
 44
50.0
173
     0
291
     1
 45
0.0
1001
ACAD
1000
AcDbSavedByObjectVersion
1070
     0
  0
VISUALSTYLE
  5
3A
102
{ACAD_REACTORS
330
2A
102
}
102
{ACAD_XDICTIONARY
360
249
102
}
330
2A
100
AcDbVisualStyle
  2
ColorChange
 70
    16
 71
     2
 72
     2
 73
     3
 90
        0
 40
-0.6
 41
-30.0
 62
     5
 63
     8
421
  8421504
 74
     1
 91
        4
 64
     7
 65
   257
 75
     1
175
     1
 42
1.0
 92
        8
 66
     8
424
  8421504
 43
1.0
 76
     1
 77
     6
 78
     2
 67
     7
 79
     5
170
     0
171
     0
290
     0
174
     0
 93
        1
 44
0.0
173
     0
291
     1
 45
0.0
1001
ACAD
1000
AcDbSavedByObjectVersion
1070
     0
  0
VISUALSTYLE
  5
34
102
{ACAD_REACTORS
330
2A
102
}
102
{ACAD_XDICTIONARY
360
23D
102
}
330
2A
100
AcDbVisualStyle
  2
Conceptual
 70
     9
 71
     3
 72
     2
 73
     0
 90
        0
 40
-0.6
 41
-30.0
 62
     5
 63
     7
421
 16777215
 74
     2
 91
        2
 64
     7
 65
   257
 75
     1
175
     1
 42
40.0
 92
        8
 66
     7
 43
1.0
 76
     1
 77
     6
 78
     2
 67
     7
 79
     3
170
     0
171
     0
290
     0
174
     0
 93
        1
 44
0.0
173
     0
291
     0
 45
0.0
1001
ACAD
1000
AcDbSavedByObjectVersion
1070
     0
  0
VISUALSTYLE
  5
35
102
{ACAD_REACTORS
330
2A
102
}
102
{ACAD_XDICTIONARY
360
23F
102
}
330
2A
100
AcDbVisualStyle
  2
Dim
 70
    11
 71
     2
 72
     2
 73
     0
 90
        0
 40
-0.6
 41
-30.0
 62
     5
 63
     7
421
 16777215
 74
     1
 91
        4
 64
     7
 65
   257
 75
     1
175
     1
 42
1.0
 92
        8
 66
     7
 43
1.0
 76
     1
 77
     6
 78
     2
 67
     7
 79
     5
170
     0
171
     0
290
     0
174
     0
 93
        1
 44
-50.0
173
     0
291
     1
 45
0.0
1001
ACAD
1000
AcDbSavedByObjectVersion
1070
     0
  0
VISUALSTYLE
  5
39
102
{ACAD_REACTORS
330
2A
102
}
102
{ACAD_XDICTIONARY
360
247
102
}
330
2A
100
AcDbVisualStyle
  2
Facepattern
 70
    15
 71
     2
 72
     2
 73
     0
 90
        0
 40
-0.6
 41
-30.0
 62
     5
 63
     7
421
 16777215
 74
     1
 91
        4
 64
     7
 65
   257
 75
     1
175
     1
 42
1.0
 92
        8
 66
     7
 43
1.0
 76
     1
 77
     6
 78
     2
 67
     7
 79
     5
170
     0
171
     0
290
     0
174
     0
 93
        1
 44
0.0
173
     0
291
     1
 45
0.0
1001
ACAD
1000
AcDbSavedByObjectVersion
1070
     0
  0
VISUALSTYLE
  5
2B
102
{ACAD_REACTORS
330
2A
102
}
102
{ACAD_XDICTIONARY
360
22B
102
}
330
2A
100
AcDbVisualStyle
  2
Flat
 70
     0
 71
     2
 72
     1
 73
     1
 90
        2
 40
-0.6
 41
30.0
 62
     5
 63
     7
421
 16777215
 74
     0
 91
        4
 64
     7
 65
   257
 75
     1
175
     1
 42
1.0
 92
        8
 66
     7
 43
1.0
 76
     1
 77
     6
 78
     2
 67
     7
 79
     5
170
     0
171
     0
290
     0
174
     0
 93
       13
 44
0.0
173
     0
291
     1
 45
0.0
1001
ACAD
1000
AcDbSavedByObjectVersion
1070
     0
  0
VISUALSTYLE
  5
2C
102
{ACAD_REACTORS
330
2A
102
}
102
{ACAD_XDICTIONARY
360
22D
102
}
330
2A
100
AcDbVisualStyle
  2
FlatWithEdges
 70
     1
 71
     2
 72
     1
 73
     1
 90
        2
 40
-0.6
 41
30.0
 62
     5
 63
     7
421
 16777215
 74
     1
 91
        4
 64
     7
 65
   257
 75
     1
175
     1
 42
1.0
 92
        0
 66
   257
 43
1.0
 76
     1
 77
     6
 78
     2
 67
     7
 79
     5
170
     0
171
     0
290
     0
174
     0
 93
       13
 44
0.0
173
     0
291
     1
 45
0.0
1001
ACAD
1000
AcDbSavedByObjectVersion
1070
     0
  0
VISUALSTYLE
  5
2D
102
{ACAD_REACTORS
330
2A
102
}
102
{ACAD_XDICTIONARY
360
22F
102
}
330
2A
100
AcDbVisualStyle
  2
Gouraud
 70
     2
 71
     2
 72
     2
 73
     1
 90
        2
 40
-0.6
 41
30.0
 62
     5
 63
     7
421
 16777215
 74
     0
 91
        4
 64
     7
 65
   257
 75
     1
175
     1
 42
1.0
 92
        0
 66
     7
 43
1.0
 76
     1
 77
     6
 78
     2
 67
     7
 79
     5
170
     0
171
     0
290
     0
174
     0
 93
       13
 44
0.0
173
     0
291
     1
 45
0.0
1001
ACAD
1000
AcDbSavedByObjectVersion
1070
     0
  0
VISUALSTYLE
  5
2E
102
{ACAD_REACTORS
330
2A
102
}
102
{ACAD_XDICTIONARY
360
231
102
}
330
2A
100
AcDbVisualStyle
  2
GouraudWithEdges
 70
     3
 71
     2
 72
     2
 73
     1
 90
        2
 40
-0.6
 41
30.0
 62
     5
 63
     7
421
 16777215
 74
     1
 91
        4
 64
     7
 65
   257
 75
     1
175
     1
 42
1.0
 92
        0
 66
   257
 43
1.0
 76
     1
 77
     6
 78
     2
 67
     7
 79
     5
170
     0
171
     0
290
     0
174
     0
 93
       13
 44
0.0
173
     0
291
     1
 45
0.0
1001
ACAD
1000
AcDbSavedByObjectVersion
1070
     0
  0
VISUALSTYLE
  5
38
102
{ACAD_REACTORS
330
2A
102
}
102
{ACAD_XDICTIONARY
360
245
102
}
330
2A
100
AcDbVisualStyle
  2
Linepattern
 70
    14
 71
     2
 72
     2
 73
     0
 90
        0
 40
-0.6
 41
-30.0
 62
     5
 63
     7
421
 16777215
 74
     1
 91
        4
 64
     7
 65
   257
 75
     7
175
     7
 42
1.0
 92
        8
 66
     7
 43
1.0
 76
     1
 77
     6
 78
     2
 67
     7
 79
     5
170
     0
171
     0
290
     0
174
     0
 93
        1
 44
0.0
173
     0
291
     1
 45
0.0
1001
ACAD
1000
AcDbSavedByObjectVersion
1070
     0
  0
VISUALSTYLE
  5
33
102
{ACAD_REACTORS
330
2A
102
}
102
{ACAD_XDICTIONARY
360
23B
102
}
330
2A
100
AcDbVisualStyle
  2
Realistic
 70
     8
 71
     2
 72
     2
 73
     0
 90
        0
 40
-0.6
 41
-30.0
 62
     5
 63
     7
421
 16777215
 74
     1
 91
        0
 64
     7
 65
   257
 75
     1
175
     1
 42
1.0
 92
        8
 66
     8
424
  7895160
 43
1.0
 76
     1
 77
     6
 78
     2
 67
     7
 79
     5
170
     0
171
     0
290
     0
174
     0
 93
       13
 44
0.0
173
     0
291
     0
 45
0.0
1001
ACAD
1000
AcDbSavedByObjectVersion
1070
     0
  0
VISUALSTYLE
  5
37
102
{ACAD_REACTORS
330
2A
102
}
102
{ACAD_XDICTIONARY
360
243
102
}
330
2A
100
AcDbVisualStyle
  2
Thicken
 70
    13
 71
     2
 72
     2
 73
     0
 90
        0
 40
-0.6
 41
-30.0
 62
     5
 63
     7
421
 16777215
 74
     1
 91
        4
 64
     7
 65
   257
 75
     1
175
     1
 42
1.0
 92
       12
 66
     7
 43
1.0
 76
     1
 77
     6
 78
     2
 67
     7
 79
     5
170
     0
171
     0
290
     0
174
     0
 93
        1
 44
0.0
173
     0
291
     1
 45
0.0
1001
ACAD
1000
AcDbSavedByObjectVersion
1070
     0
  0
DICTIONARY
  5
24D
330
3D
100
AcDbDictionary
280
     1
281
     1
  3
ACAD_XREC_ROUNDTRIP
360
24E
  0
DICTIONARY
  5
24B
330
3C
100
AcDbDictionary
280
     1
281
     1
  3
ACAD_XREC_ROUNDTRIP
360
24C
  0
DICTIONARY
  5
24F
330
3E
100
AcDbDictionary
280
     1
281
     1
  3
ACAD_XREC_ROUNDTRIP
360
250
  0
DICTIONARY
  5
233
330
2F
100
AcDbDictionary
280
     1
281
     1
  3
ACAD_XREC_ROUNDTRIP
360
234
  0
DICTIONARY
  5
237
330
31
100
AcDbDictionary
280
     1
281
     1
  3
ACAD_XREC_ROUNDTRIP
360
238
  0
DICTIONARY
  5
235
330
30
100
AcDbDictionary
280
     1
281
     1
  3
ACAD_XREC_ROUNDTRIP
360
236
  0
DICTIONARY
  5
239
330
32
100
AcDbDictionary
280
     1
281
     1
  3
ACAD_XREC_ROUNDTRIP
360
23A
  0
DICTIONARY
  5
241
330
36
100
AcDbDictionary
280
     1
281
     1
  3
ACAD_XREC_ROUNDTRIP
360
242
  0
DICTIONARY
  5
249
330
3A
100
AcDbDictionary
280
     1
281
     1
  3
ACAD_XREC_ROUNDTRIP
360
24A
  0
DICTIONARY
  5
23D
330
34
100
AcDbDictionary
280
     1
281
     1
  3
ACAD_XREC_ROUNDTRIP
360
23E
  0
DICTIONARY
  5
23F
330
35
100
AcDbDictionary
280
     1
281
     1
  3
ACAD_XREC_ROUNDTRIP
360
240
  0
DICTIONARY
  5
247
330
39
100
AcDbDictionary
280
     1
281
     1
  3
ACAD_XREC_ROUNDTRIP
360
248
  0
DICTIONARY
  5
22B
330
2B
100
AcDbDictionary
280
     1
281
     1
  3
ACAD_XREC_ROUNDTRIP
360
22C
  0
DICTIONARY
  5
22D
330
2C
100
AcDbDictionary
280
     1
281
     1
  3
ACAD_XREC_ROUNDTRIP
360
22E
  0
DICTIONARY
  5
22F
330
2D
100
AcDbDictionary
280
     1
281
     1
  3
ACAD_XREC_ROUNDTRIP
360
230
  0
DICTIONARY
  5
231
330
2E
100
AcDbDictionary
280
     1
281
     1
  3
ACAD_XREC_ROUNDTRIP
360
232
  0
DICTIONARY
  5
245
330
38
100
AcDbDictionary
280
     1
281
     1
  3
ACAD_XREC_ROUNDTRIP
360
246
  0
DICTIONARY
  5
23B
330
33
100
AcDbDictionary
280
     1
281
     1
  3
ACAD_XREC_ROUNDTRIP
360
23C
  0
DICTIONARY
  5
243
330
37
100
AcDbDictionary
280
     1
281
     1
  3
ACAD_XREC_ROUNDTRIP
360
244
  0
XRECORD
  5
24E
102
{ACAD_REACTORS
330
24D
102
}
330
24D
100
AcDbXrecord
280
     1
102
MATERIAL
148
0.0
149
0.0
149
0.0
 93
        0
 94
      127
282
     0
 72
     1
 77
     1
171
     1
175
     1
179
     1
273
     0
  0
XRECORD
  5
24C
102
{ACAD_REACTORS
330
24B
102
}
330
24B
100
AcDbXrecord
280
     1
102
MATERIAL
148
0.0
149
0.0
149
0.0
 93
        0
 94
      127
282
     0
 72
     1
 77
     1
171
     1
175
     1
179
     1
273
     0
  0
XRECORD
  5
250
102
{ACAD_REACTORS
330
24F
102
}
330
24F
100
AcDbXrecord
280
     1
102
MATERIAL
148
0.0
149
0.0
149
0.0
 93
        0
 94
      127
282
     0
 72
     1
 77
     1
171
     1
175
     1
179
     1
273
     0
  0
XRECORD
  5
234
102
{ACAD_REACTORS
330
233
102
}
330
233
100
AcDbXrecord
280
     1
102
RTVSPropertyOp0
 70
     1
102
RTVSPropertyOp1
 70
     1
102
RTVSPropertyOp2
 70
     1
102
RTVSPropertyOp3
 70
     1
102
RTVSPropertyOp4
 70
     1
102
RTVSPropertyOp5
 70
     1
102
RTVSPropertyOp6
 70
     1
102
RTVSPropertyOp7
 70
     1
102
RTVSPropertyOp8
 70
     1
102
RTVSPropertyOp9
 70
     1
102
RTVSPropertyOp10
 70
     1
102
RTVSPropertyOp11
 70
     1
102
RTVSPropertyOp12
 70
     1
102
RTVSPropertyOp13
 70
     1
102
RTVSPropertyOp14
 70
     1
102
RTVSPropertyOp15
 70
     1
102
RTVSPropertyOp16
 70
     1
102
RTVSPropertyOp17
 70
     1
102
RTVSPropertyOp18
 70
     1
102
RTVSPropertyOp19
 70
     1
102
RTVSPropertyOp20
 70
     1
102
RTVSPropertyOp21
 70
     1
102
RTVSPropertyOp22
 70
     1
102
RTVSPropertyOp23
 70
     1
102
RTVSPropertyOp24
 70
     1
102
RTVSPropertyOp25
 70
     1
102
RTVSPropertyOp26
 70
     1
102
RTVSPropertyOp27
 70
     1
102
RTVSPropertyOp28
 70
     1
102
RTVSPropertyOp29
 70
     1
102
RTVSPropertyOp30
 70
     1
102
RTVSPropertyOp31
 70
     1
102
RTVSPropertyOp32
 70
     1
  0
XRECORD
  5
238
102
{ACAD_REACTORS
330
237
102
}
330
237
100
AcDbXrecord
280
     1
102
RTVSPropertyOp0
 70
     1
102
RTVSPropertyOp1
 70
     1
102
RTVSPropertyOp2
 70
     1
102
RTVSPropertyOp3
 70
     1
102
RTVSPropertyOp4
 70
     1
102
RTVSPropertyOp5
 70
     1
102
RTVSPropertyOp6
 70
     1
102
RTVSPropertyOp7
 70
     1
102
RTVSPropertyOp8
 70
     1
102
RTVSPropertyOp9
 70
     1
102
RTVSPropertyOp10
 70
     1
102
RTVSPropertyOp11
 70
     1
102
RTVSPropertyOp12
 70
     1
102
RTVSPropertyOp13
 70
     1
102
RTVSPropertyOp14
 70
     1
102
RTVSPropertyOp15
 70
     1
102
RTVSPropertyOp16
 70
     1
102
RTVSPropertyOp17
 70
     1
102
RTVSPropertyOp18
 70
     1
102
RTVSPropertyOp19
 70
     1
102
RTVSPropertyOp20
 70
     1
102
RTVSPropertyOp21
 70
     1
102
RTVSPropertyOp22
 70
     1
102
RTVSPropertyOp23
 70
     1
102
RTVSPropertyOp24
 70
     1
102
RTVSPropertyOp25
 70
     1
102
RTVSPropertyOp26
 70
     1
102
RTVSPropertyOp27
 70
     1
102
RTVSPropertyOp28
 70
     1
102
RTVSPropertyOp29
 70
     1
102
RTVSPropertyOp30
 70
     1
102
RTVSPropertyOp31
 70
     1
102
RTVSPropertyOp32
 70
     1
  0
XRECORD
  5
236
102
{ACAD_REACTORS
330
235
102
}
330
235
100
AcDbXrecord
280
     1
102
RTVSPropertyOp0
 70
     1
102
RTVSPropertyOp1
 70
     1
102
RTVSPropertyOp2
 70
     1
102
RTVSPropertyOp3
 70
     1
102
RTVSPropertyOp4
 70
     1
102
RTVSPropertyOp5
 70
     1
102
RTVSPropertyOp6
 70
     1
102
RTVSPropertyOp7
 70
     1
102
RTVSPropertyOp8
 70
     1
102
RTVSPropertyOp9
 70
     1
102
RTVSPropertyOp10
 70
     1
102
RTVSPropertyOp11
 70
     1
102
RTVSPropertyOp12
 70
     1
102
RTVSPropertyOp13
 70
     1
102
RTVSPropertyOp14
 70
     1
102
RTVSPropertyOp15
 70
     1
102
RTVSPropertyOp16
 70
     1
102
RTVSPropertyOp17
 70
     1
102
RTVSPropertyOp18
 70
     1
102
RTVSPropertyOp19
 70
     1
102
RTVSPropertyOp20
 70
     1
102
RTVSPropertyOp21
 70
     1
102
RTVSPropertyOp22
 70
     1
102
RTVSPropertyOp23
 70
     1
102
RTVSPropertyOp24
 70
     1
102
RTVSPropertyOp25
 70
     1
102
RTVSPropertyOp26
 70
     1
102
RTVSPropertyOp27
 70
     1
102
RTVSPropertyOp28
 70
     1
102
RTVSPropertyOp29
 70
     1
102
RTVSPropertyOp30
 70
     1
102
RTVSPropertyOp31
 70
     1
102
RTVSPropertyOp32
 70
     1
  0
XRECORD
  5
23A
102
{ACAD_REACTORS
330
239
102
}
330
239
100
AcDbXrecord
280
     1
102
RTVSPropertyOp0
 70
     1
102
RTVSPropertyOp1
 70
     1
102
RTVSPropertyOp2
 70
     1
102
RTVSPropertyOp3
 70
     1
102
RTVSPropertyOp4
 70
     1
102
RTVSPropertyOp5
 70
     1
102
RTVSPropertyOp6
 70
     1
102
RTVSPropertyOp7
 70
     1
102
RTVSPropertyOp8
 70
     1
102
RTVSPropertyOp9
 70
     1
102
RTVSPropertyOp10
 70
     1
102
RTVSPropertyOp11
 70
     1
102
RTVSPropertyOp12
 70
     1
102
RTVSPropertyOp13
 70
     1
102
RTVSPropertyOp14
 70
     1
102
RTVSPropertyOp15
 70
     1
102
RTVSPropertyOp16
 70
     1
102
RTVSPropertyOp17
 70
     1
102
RTVSPropertyOp18
 70
     1
102
RTVSPropertyOp19
 70
     1
102
RTVSPropertyOp20
 70
     1
102
RTVSPropertyOp21
 70
     1
102
RTVSPropertyOp22
 70
     1
102
RTVSPropertyOp23
 70
     1
102
RTVSPropertyOp24
 70
     1
102
RTVSPropertyOp25
 70
     1
102
RTVSPropertyOp26
 70
     1
102
RTVSPropertyOp27
 70
     1
102
RTVSPropertyOp28
 70
     1
102
RTVSPropertyOp29
 70
     1
102
RTVSPropertyOp30
 70
     1
102
RTVSPropertyOp31
 70
     1
102
RTVSPropertyOp32
 70
     1
  0
XRECORD
  5
242
102
{ACAD_REACTORS
330
241
102
}
330
241
100
AcDbXrecord
280
     1
102
RTVSPropertyOp0
 70
     1
102
RTVSPropertyOp1
 70
     1
102
RTVSPropertyOp2
 70
     1
102
RTVSPropertyOp3
 70
     1
102
RTVSPropertyOp4
 70
     1
102
RTVSPropertyOp5
 70
     1
102
RTVSPropertyOp6
 70
     1
102
RTVSPropertyOp7
 70
     1
102
RTVSPropertyOp8
 70
     1
102
RTVSPropertyOp9
 70
     1
102
RTVSPropertyOp10
 70
     1
102
RTVSPropertyOp11
 70
     1
102
RTVSPropertyOp12
 70
     1
102
RTVSPropertyOp13
 70
     1
102
RTVSPropertyOp14
 70
     1
102
RTVSPropertyOp15
 70
     1
102
RTVSPropertyOp16
 70
     1
102
RTVSPropertyOp17
 70
     1
102
RTVSPropertyOp18
 70
     1
102
RTVSPropertyOp19
 70
     1
102
RTVSPropertyOp20
 70
     1
102
RTVSPropertyOp21
 70
     1
102
RTVSPropertyOp22
 70
     1
102
RTVSPropertyOp23
 70
     1
102
RTVSPropertyOp24
 70
     1
102
RTVSPropertyOp25
 70
     1
102
RTVSPropertyOp26
 70
     1
102
RTVSPropertyOp27
 70
     1
102
RTVSPropertyOp28
 70
     1
102
RTVSPropertyOp29
 70
     1
102
RTVSPropertyOp30
 70
     1
102
RTVSPropertyOp31
 70
     1
102
RTVSPropertyOp32
 70
     1
  0
XRECORD
  5
24A
102
{ACAD_REACTORS
330
249
102
}
330
249
100
AcDbXrecord
280
     1
102
RTVSPropertyOp0
 70
     1
102
RTVSPropertyOp1
 70
     1
102
RTVSPropertyOp2
 70
     1
102
RTVSPropertyOp3
 70
     1
102
RTVSPropertyOp4
 70
     1
102
RTVSPropertyOp5
 70
     1
102
RTVSPropertyOp6
 70
     1
102
RTVSPropertyOp7
 70
     1
102
RTVSPropertyOp8
 70
     1
102
RTVSPropertyOp9
 70
     1
102
RTVSPropertyOp10
 70
     1
102
RTVSPropertyOp11
 70
     1
102
RTVSPropertyOp12
 70
     1
102
RTVSPropertyOp13
 70
     1
102
RTVSPropertyOp14
 70
     1
102
RTVSPropertyOp15
 70
     1
102
RTVSPropertyOp16
 70
     1
102
RTVSPropertyOp17
 70
     1
102
RTVSPropertyOp18
 70
     1
102
RTVSPropertyOp19
 70
     1
102
RTVSPropertyOp20
 70
     1
102
RTVSPropertyOp21
 70
     1
102
RTVSPropertyOp22
 70
     1
102
RTVSPropertyOp23
 70
     1
102
RTVSPropertyOp24
 70
     1
102
RTVSPropertyOp25
 70
     1
102
RTVSPropertyOp26
 70
     1
102
RTVSPropertyOp27
 70
     1
102
RTVSPropertyOp28
 70
     1
102
RTVSPropertyOp29
 70
     1
102
RTVSPropertyOp30
 70
     1
102
RTVSPropertyOp31
 70
     1
102
RTVSPropertyOp32
 70
     1
  0
XRECORD
  5
23E
102
{ACAD_REACTORS
330
23D
102
}
330
23D
100
AcDbXrecord
280
     1
102
RTVSPropertyOp0
 70
     1
102
RTVSPropertyOp1
 70
     1
102
RTVSPropertyOp2
 70
     1
102
RTVSPropertyOp3
 70
     1
102
RTVSPropertyOp4
 70
     1
102
RTVSPropertyOp5
 70
     1
102
RTVSPropertyOp6
 70
     1
102
RTVSPropertyOp7
 70
     1
102
RTVSPropertyOp8
 70
     1
102
RTVSPropertyOp9
 70
     1
102
RTVSPropertyOp10
 70
     1
102
RTVSPropertyOp11
 70
     1
102
RTVSPropertyOp12
 70
     1
102
RTVSPropertyOp13
 70
     1
102
RTVSPropertyOp14
 70
     1
102
RTVSPropertyOp15
 70
     1
102
RTVSPropertyOp16
 70
     1
102
RTVSPropertyOp17
 70
     1
102
RTVSPropertyOp18
 70
     1
102
RTVSPropertyOp19
 70
     1
102
RTVSPropertyOp20
 70
     1
102
RTVSPropertyOp21
 70
     1
102
RTVSPropertyOp22
 70
     1
102
RTVSPropertyOp23
 70
     1
102
RTVSPropertyOp24
 70
     1
102
RTVSPropertyOp25
 70
     1
102
RTVSPropertyOp26
 70
     1
102
RTVSPropertyOp27
 70
     1
102
RTVSPropertyOp28
 70
     1
102
RTVSPropertyOp29
 70
     1
102
RTVSPropertyOp30
 70
     1
102
RTVSPropertyOp31
 70
     1
102
RTVSPropertyOp32
 70
     1
  0
XRECORD
  5
240
102
{ACAD_REACTORS
330
23F
102
}
330
23F
100
AcDbXrecord
280
     1
102
RTVSPropertyOp0
 70
     1
102
RTVSPropertyOp1
 70
     1
102
RTVSPropertyOp2
 70
     1
102
RTVSPropertyOp3
 70
     1
102
RTVSPropertyOp4
 70
     1
102
RTVSPropertyOp5
 70
     1
102
RTVSPropertyOp6
 70
     1
102
RTVSPropertyOp7
 70
     1
102
RTVSPropertyOp8
 70
     1
102
RTVSPropertyOp9
 70
     1
102
RTVSPropertyOp10
 70
     1
102
RTVSPropertyOp11
 70
     1
102
RTVSPropertyOp12
 70
     1
102
RTVSPropertyOp13
 70
     1
102
RTVSPropertyOp14
 70
     1
102
RTVSPropertyOp15
 70
     1
102
RTVSPropertyOp16
 70
     1
102
RTVSPropertyOp17
 70
     1
102
RTVSPropertyOp18
 70
     1
102
RTVSPropertyOp19
 70
     1
102
RTVSPropertyOp20
 70
     1
102
RTVSPropertyOp21
 70
     1
102
RTVSPropertyOp22
 70
     1
102
RTVSPropertyOp23
 70
     1
102
RTVSPropertyOp24
 70
     1
102
RTVSPropertyOp25
 70
     1
102
RTVSPropertyOp26
 70
     1
102
RTVSPropertyOp27
 70
     1
102
RTVSPropertyOp28
 70
     1
102
RTVSPropertyOp29
 70
     1
102
RTVSPropertyOp30
 70
     1
102
RTVSPropertyOp31
 70
     1
102
RTVSPropertyOp32
 70
     1
  0
XRECORD
  5
248
102
{ACAD_REACTORS
330
247
102
}
330
247
100
AcDbXrecord
280
     1
102
RTVSPropertyOp0
 70
     1
102
RTVSPropertyOp1
 70
     1
102
RTVSPropertyOp2
 70
     1
102
RTVSPropertyOp3
 70
     1
102
RTVSPropertyOp4
 70
     1
102
RTVSPropertyOp5
 70
     1
102
RTVSPropertyOp6
 70
     1
102
RTVSPropertyOp7
 70
     1
102
RTVSPropertyOp8
 70
     1
102
RTVSPropertyOp9
 70
     1
102
RTVSPropertyOp10
 70
     1
102
RTVSPropertyOp11
 70
     1
102
RTVSPropertyOp12
 70
     1
102
RTVSPropertyOp13
 70
     1
102
RTVSPropertyOp14
 70
     1
102
RTVSPropertyOp15
 70
     1
102
RTVSPropertyOp16
 70
     1
102
RTVSPropertyOp17
 70
     1
102
RTVSPropertyOp18
 70
     1
102
RTVSPropertyOp19
 70
     1
102
RTVSPropertyOp20
 70
     1
102
RTVSPropertyOp21
 70
     1
102
RTVSPropertyOp22
 70
     1
102
RTVSPropertyOp23
 70
     1
102
RTVSPropertyOp24
 70
     1
102
RTVSPropertyOp25
 70
     1
102
RTVSPropertyOp26
 70
     1
102
RTVSPropertyOp27
 70
     1
102
RTVSPropertyOp28
 70
     1
102
RTVSPropertyOp29
 70
     1
102
RTVSPropertyOp30
 70
     1
102
RTVSPropertyOp31
 70
     1
102
RTVSPropertyOp32
 70
     1
  0
XRECORD
  5
22C
102
{ACAD_REACTORS
330
22B
102
}
330
22B
100
AcDbXrecord
280
     1
102
RTVSPropertyOp0
 70
     1
102
RTVSPropertyOp1
 70
     1
102
RTVSPropertyOp2
 70
     1
102
RTVSPropertyOp3
 70
     1
102
RTVSPropertyOp4
 70
     1
102
RTVSPropertyOp5
 70
     1
102
RTVSPropertyOp6
 70
     1
102
RTVSPropertyOp7
 70
     1
102
RTVSPropertyOp8
 70
     1
102
RTVSPropertyOp9
 70
     1
102
RTVSPropertyOp10
 70
     1
102
RTVSPropertyOp11
 70
     1
102
RTVSPropertyOp12
 70
     1
102
RTVSPropertyOp13
 70
     1
102
RTVSPropertyOp14
 70
     1
102
RTVSPropertyOp15
 70
     1
102
RTVSPropertyOp16
 70
     1
102
RTVSPropertyOp17
 70
     1
102
RTVSPropertyOp18
 70
     1
102
RTVSPropertyOp19
 70
     1
102
RTVSPropertyOp20
 70
     1
102
RTVSPropertyOp21
 70
     1
102
RTVSPropertyOp22
 70
     1
102
RTVSPropertyOp23
 70
     1
102
RTVSPropertyOp24
 70
     1
102
RTVSPropertyOp25
 70
     1
102
RTVSPropertyOp26
 70
     1
102
RTVSPropertyOp27
 70
     1
102
RTVSPropertyOp28
 70
     1
102
RTVSPropertyOp29
 70
     1
102
RTVSPropertyOp30
 70
     1
102
RTVSPropertyOp31
 70
     1
102
RTVSPropertyOp32
 70
     1
  0
XRECORD
  5
22E
102
{ACAD_REACTORS
330
22D
102
}
330
22D
100
AcDbXrecord
280
     1
102
RTVSPropertyOp0
 70
     1
102
RTVSPropertyOp1
 70
     1
102
RTVSPropertyOp2
 70
     1
102
RTVSPropertyOp3
 70
     1
102
RTVSPropertyOp4
 70
     1
102
RTVSPropertyOp5
 70
     1
102
RTVSPropertyOp6
 70
     1
102
RTVSPropertyOp7
 70
     1
102
RTVSPropertyOp8
 70
     1
102
RTVSPropertyOp9
 70
     1
102
RTVSPropertyOp10
 70
     1
102
RTVSPropertyOp11
 70
     1
102
RTVSPropertyOp12
 70
     1
102
RTVSPropertyOp13
 70
     1
102
RTVSPropertyOp14
 70
     1
102
RTVSPropertyOp15
 70
     1
102
RTVSPropertyOp16
 70
     1
102
RTVSPropertyOp17
 70
     1
102
RTVSPropertyOp18
 70
     1
102
RTVSPropertyOp19
 70
     1
102
RTVSPropertyOp20
 70
     1
102
RTVSPropertyOp21
 70
     1
102
RTVSPropertyOp22
 70
     1
102
RTVSPropertyOp23
 70
     1
102
RTVSPropertyOp24
 70
     1
102
RTVSPropertyOp25
 70
     1
102
RTVSPropertyOp26
 70
     1
102
RTVSPropertyOp27
 70
     1
102
RTVSPropertyOp28
 70
     1
102
RTVSPropertyOp29
 70
     1
102
RTVSPropertyOp30
 70
     1
102
RTVSPropertyOp31
 70
     1
102
RTVSPropertyOp32
 70
     1
  0
XRECORD
  5
230
102
{ACAD_REACTORS
330
22F
102
}
330
22F
100
AcDbXrecord
280
     1
102
RTVSPropertyOp0
 70
     1
102
RTVSPropertyOp1
 70
     1
102
RTVSPropertyOp2
 70
     1
102
RTVSPropertyOp3
 70
     1
102
RTVSPropertyOp4
 70
     1
102
RTVSPropertyOp5
 70
     1
102
RTVSPropertyOp6
 70
     1
102
RTVSPropertyOp7
 70
     1
102
RTVSPropertyOp8
 70
     1
102
RTVSPropertyOp9
 70
     1
102
RTVSPropertyOp10
 70
     1
102
RTVSPropertyOp11
 70
     1
102
RTVSPropertyOp12
 70
     1
102
RTVSPropertyOp13
 70
     1
102
RTVSPropertyOp14
 70
     1
102
RTVSPropertyOp15
 70
     1
102
RTVSPropertyOp16
 70
     1
102
RTVSPropertyOp17
 70
     1
102
RTVSPropertyOp18
 70
     1
102
RTVSPropertyOp19
 70
     1
102
RTVSPropertyOp20
 70
     1
102
RTVSPropertyOp21
 70
     1
102
RTVSPropertyOp22
 70
     1
102
RTVSPropertyOp23
 70
     1
102
RTVSPropertyOp24
 70
     1
102
RTVSPropertyOp25
 70
     1
102
RTVSPropertyOp26
 70
     1
102
RTVSPropertyOp27
 70
     1
102
RTVSPropertyOp28
 70
     1
102
RTVSPropertyOp29
 70
     1
102
RTVSPropertyOp30
 70
     1
102
RTVSPropertyOp31
 70
     1
102
RTVSPropertyOp32
 70
     1
  0
XRECORD
  5
232
102
{ACAD_REACTORS
330
231
102
}
330
231
100
AcDbXrecord
280
     1
102
RTVSPropertyOp0
 70
     1
102
RTVSPropertyOp1
 70
     1
102
RTVSPropertyOp2
 70
     1
102
RTVSPropertyOp3
 70
     1
102
RTVSPropertyOp4
 70
     1
102
RTVSPropertyOp5
 70
     1
102
RTVSPropertyOp6
 70
     1
102
RTVSPropertyOp7
 70
     1
102
RTVSPropertyOp8
 70
     1
102
RTVSPropertyOp9
 70
     1
102
RTVSPropertyOp10
 70
     1
102
RTVSPropertyOp11
 70
     1
102
RTVSPropertyOp12
 70
     1
102
RTVSPropertyOp13
 70
     1
102
RTVSPropertyOp14
 70
     1
102
RTVSPropertyOp15
 70
     1
102
RTVSPropertyOp16
 70
     1
102
RTVSPropertyOp17
 70
     1
102
RTVSPropertyOp18
 70
     1
102
RTVSPropertyOp19
 70
     1
102
RTVSPropertyOp20
 70
     1
102
RTVSPropertyOp21
 70
     1
102
RTVSPropertyOp22
 70
     1
102
RTVSPropertyOp23
 70
     1
102
RTVSPropertyOp24
 70
     1
102
RTVSPropertyOp25
 70
     1
102
RTVSPropertyOp26
 70
     1
102
RTVSPropertyOp27
 70
     1
102
RTVSPropertyOp28
 70
     1
102
RTVSPropertyOp29
 70
     1
102
RTVSPropertyOp30
 70
     1
102
RTVSPropertyOp31
 70
     1
102
RTVSPropertyOp32
 70
     1
  0
XRECORD
  5
246
102
{ACAD_REACTORS
330
245
102
}
330
245
100
AcDbXrecord
280
     1
102
RTVSPropertyOp0
 70
     1
102
RTVSPropertyOp1
 70
     1
102
RTVSPropertyOp2
 70
     1
102
RTVSPropertyOp3
 70
     1
102
RTVSPropertyOp4
 70
     1
102
RTVSPropertyOp5
 70
     1
102
RTVSPropertyOp6
 70
     1
102
RTVSPropertyOp7
 70
     1
102
RTVSPropertyOp8
 70
     1
102
RTVSPropertyOp9
 70
     1
102
RTVSPropertyOp10
 70
     1
102
RTVSPropertyOp11
 70
     1
102
RTVSPropertyOp12
 70
     1
102
RTVSPropertyOp13
 70
     1
102
RTVSPropertyOp14
 70
     1
102
RTVSPropertyOp15
 70
     1
102
RTVSPropertyOp16
 70
     1
102
RTVSPropertyOp17
 70
     1
102
RTVSPropertyOp18
 70
     1
102
RTVSPropertyOp19
 70
     1
102
RTVSPropertyOp20
 70
     1
102
RTVSPropertyOp21
 70
     1
102
RTVSPropertyOp22
 70
     1
102
RTVSPropertyOp23
 70
     1
102
RTVSPropertyOp24
 70
     1
102
RTVSPropertyOp25
 70
     1
102
RTVSPropertyOp26
 70
     1
102
RTVSPropertyOp27
 70
     1
102
RTVSPropertyOp28
 70
     1
102
RTVSPropertyOp29
 70
     1
102
RTVSPropertyOp30
 70
     1
102
RTVSPropertyOp31
 70
     1
102
RTVSPropertyOp32
 70
     1
  0
XRECORD
  5
23C
102
{ACAD_REACTORS
330
23B
102
}
330
23B
100
AcDbXrecord
280
     1
102
RTVSPropertyOp0
 70
     1
102
RTVSPropertyOp1
 70
     1
102
RTVSPropertyOp2
 70
     1
102
RTVSPropertyOp3
 70
     1
102
RTVSPropertyOp4
 70
     1
102
RTVSPropertyOp5
 70
     1
102
RTVSPropertyOp6
 70
     1
102
RTVSPropertyOp7
 70
     1
102
RTVSPropertyOp8
 70
     1
102
RTVSPropertyOp9
 70
     1
102
RTVSPropertyOp10
 70
     1
102
RTVSPropertyOp11
 70
     1
102
RTVSPropertyOp12
 70
     1
102
RTVSPropertyOp13
 70
     1
102
RTVSPropertyOp14
 70
     1
102
RTVSPropertyOp15
 70
     1
102
RTVSPropertyOp16
 70
     1
102
RTVSPropertyOp17
 70
     1
102
RTVSPropertyOp18
 70
     1
102
RTVSPropertyOp19
 70
     1
102
RTVSPropertyOp20
 70
     1
102
RTVSPropertyOp21
 70
     1
102
RTVSPropertyOp22
 70
     1
102
RTVSPropertyOp23
 70
     1
102
RTVSPropertyOp24
 70
     1
102
RTVSPropertyOp25
 70
     1
102
RTVSPropertyOp26
 70
     1
102
RTVSPropertyOp27
 70
     1
102
RTVSPropertyOp28
 70
     1
102
RTVSPropertyOp29
 70
     1
102
RTVSPropertyOp30
 70
     1
102
RTVSPropertyOp31
 70
     1
102
RTVSPropertyOp32
 70
     1
  0
XRECORD
  5
244
102
{ACAD_REACTORS
330
243
102
}
330
243
100
AcDbXrecord
280
     1
102
RTVSPropertyOp0
 70
     1
102
RTVSPropertyOp1
 70
     1
102
RTVSPropertyOp2
 70
     1
102
RTVSPropertyOp3
 70
     1
102
RTVSPropertyOp4
 70
     1
102
RTVSPropertyOp5
 70
     1
102
RTVSPropertyOp6
 70
     1
102
RTVSPropertyOp7
 70
     1
102
RTVSPropertyOp8
 70
     1
102
RTVSPropertyOp9
 70
     1
102
RTVSPropertyOp10
 70
     1
102
RTVSPropertyOp11
 70
     1
102
RTVSPropertyOp12
 70
     1
102
RTVSPropertyOp13
 70
     1
102
RTVSPropertyOp14
 70
     1
102
RTVSPropertyOp15
 70
     1
102
RTVSPropertyOp16
 70
     1
102
RTVSPropertyOp17
 70
     1
102
RTVSPropertyOp18
 70
     1
102
RTVSPropertyOp19
 70
     1
102
RTVSPropertyOp20
 70
     1
102
RTVSPropertyOp21
 70
     1
102
RTVSPropertyOp22
 70
     1
102
RTVSPropertyOp23
 70
     1
102
RTVSPropertyOp24
 70
     1
102
RTVSPropertyOp25
 70
     1
102
RTVSPropertyOp26
 70
     1
102
RTVSPropertyOp27
 70
     1
102
RTVSPropertyOp28
 70
     1
102
RTVSPropertyOp29
 70
     1
102
RTVSPropertyOp30
 70
     1
102
RTVSPropertyOp31
 70
     1
102
RTVSPropertyOp32
 70
     1
  0
ENDSEC
  0
EOF
