  0
SECTION
  2
HEADER
  9
$ACADVER
  1
AC1018
  9
$ACADMAINTVER
 70
     0
  9
$DWGCODEPAGE
  3
ANSI_1252
  9
$INSBASE
 10
0.0
 20
0.0
 30
0.0
  9
$EXTMIN
 10
-242.8000002327282
 20
-1.80873083986739
 30
0.0
  9
$EXTMAX
 10
54.19999976726984
 20
208.1912691601327
 30
0.0
  9
$LIMMIN
 10
0.0
 20
0.0
  9
$LIMMAX
 10
12.0
 20
9.0
  9
$ORTHOMODE
 70
     0
  9
$REGENMODE
 70
     1
  9
$FILLMODE
 70
     1
  9
$QTEXTMODE
 70
     0
  9
$MIRRTEXT
 70
     1
  9
$LTSCALE
 40
1.0
  9
$ATTMODE
 70
     1
  9
$TEXTSIZE
 40
0.2
  9
$TRACEWID
 40
0.05
  9
$TEXTSTYLE
  7
Standard
  9
$CLAYER
  8
0
  9
$CELTYPE
  6
ByLayer
  9
$CECOLOR
 62
   256
  9
$CELTSCALE
 40
1.0
  9
$DISPSILH
 70
     0
  9
$DIMSCALE
 40
1.0
  9
$DIMASZ
 40
0.18
  9
$DIMEXO
 40
0.0625
  9
$DIMDLI
 40
0.38
  9
$DIMRND
 40
0.0
  9
$DIMDLE
 40
0.0
  9
$DIMEXE
 40
0.18
  9
$DIMTP
 40
0.0
  9
$DIMTM
 40
0.0
  9
$DIMTXT
 40
0.18
  9
$DIMCEN
 40
0.09
  9
$DIMTSZ
 40
0.0
  9
$DIMTOL
 70
     0
  9
$DIMLIM
 70
     0
  9
$DIMTIH
 70
     1
  9
$DIMTOH
 70
     1
  9
$DIMSE1
 70
     0
  9
$DIMSE2
 70
     0
  9
$DIMTAD
 70
     0
  9
$DIMZIN
 70
     0
  9
$DIMBLK
  1

  9
$DIMASO
 70
     1
  9
$DIMSHO
 70
     1
  9
$DIMPOST
  1

  9
$DIMAPOST
  1

  9
$DIMALT
 70
     0
  9
$DIMALTD
 70
     2
  9
$DIMALTF
 40
25.4
  9
$DIMLFAC
 40
1.0
  9
$DIMTOFL
 70
     0
  9
$DIMTVP
 40
0.0
  9
$DIMTIX
 70
     0
  9
$DIMSOXD
 70
     0
  9
$DIMSAH
 70
     0
  9
$DIMBLK1
  1

  9
$DIMBLK2
  1

  9
$DIMSTYLE
  2
Standard
  9
$DIMCLRD
 70
     0
  9
$DIMCLRE
 70
     0
  9
$DIMCLRT
 70
     0
  9
$DIMTFAC
 40
1.0
  9
$DIMGAP
 40
0.09
  9
$DIMJUST
 70
     0
  9
$DIMSD1
 70
     0
  9
$DIMSD2
 70
     0
  9
$DIMTOLJ
 70
     1
  9
$DIMTZIN
 70
     0
  9
$DIMALTZ
 70
     0
  9
$DIMALTTZ
 70
     0
  9
$DIMUPT
 70
     0
  9
$DIMDEC
 70
     4
  9
$DIMTDEC
 70
     4
  9
$DIMALTU
 70
     2
  9
$DIMALTTD
 70
     2
  9
$DIMTXSTY
  7
Standard
  9
$DIMAUNIT
 70
     0
  9
$DIMADEC
 70
     0
  9
$DIMALTRND
 40
0.0
  9
$DIMAZIN
 70
     0
  9
$DIMDSEP
 70
    46
  9
$DIMATFIT
 70
     3
  9
$DIMFRAC
 70
     0
  9
$DIMLDRBLK
  1

  9
$DIMLUNIT
 70
     2
  9
$DIMLWD
 70
    -2
  9
$DIMLWE
 70
    -2
  9
$DIMTMOVE
 70
     0
  9
$LUNITS
 70
     2
  9
$LUPREC
 70
     4
  9
$SKETCHINC
 40
0.1
  9
$FILLETRAD
 40
0.5
  9
$AUNITS
 70
     0
  9
$AUPREC
 70
     0
  9
$MENU
  1
.
  9
$ELEVATION
 40
0.0
  9
$PELEVATION
 40
0.0
  9
$THICKNESS
 40
0.0
  9
$LIMCHECK
 70
     0
  9
$CHAMFERA
 40
0.5
  9
$CHAMFERB
 40
0.5
  9
$CHAMFERC
 40
1.0
  9
$CHAMFERD
 40
0.0
  9
$SKPOLY
 70
     0
  9
$TDCREATE
 40
2458167.476486342
  9
$TDUCREATE
 40
2458167.434819676
  9
$TDUPDATE
 40
2458167.47648706
  9
$TDUUPDATE
 40
2458167.434820394
  9
$TDINDWG
 40
0.0000000116
  9
$TDUSRTIMER
 40
0.0000000116
  9
$USRTIMER
 70
     1
  9
$ANGBASE
 50
0.0
  9
$ANGDIR
 70
     0
  9
$PDMODE
 70
     0
  9
$PDSIZE
 40
0.0
  9
$PLINEWID
 40
0.0
  9
$SPLFRAME
 70
     0
  9
$SPLINETYPE
 70
     6
  9
$SPLINESEGS
 70
     8
  9
$HANDSEED
  5
4F7
  9
$SURFTAB1
 70
     6
  9
$SURFTAB2
 70
     6
  9
$SURFTYPE
 70
     6
  9
$SURFU
 70
     6
  9
$SURFV
 70
     6
  9
$UCSBASE
  2

  9
$UCSNAME
  2

  9
$UCSORG
 10
0.0
 20
0.0
 30
0.0
  9
$UCSXDIR
 10
1.0
 20
0.0
 30
0.0
  9
$UCSYDIR
 10
0.0
 20
1.0
 30
0.0
  9
$UCSORTHOREF
  2

  9
$UCSORTHOVIEW
 70
     0
  9
$UCSORGTOP
 10
0.0
 20
0.0
 30
0.0
  9
$UCSORGBOTTOM
 10
0.0
 20
0.0
 30
0.0
  9
$UCSORGLEFT
 10
0.0
 20
0.0
 30
0.0
  9
$UCSORGRIGHT
 10
0.0
 20
0.0
 30
0.0
  9
$UCSORGFRONT
 10
0.0
 20
0.0
 30
0.0
  9
$UCSORGBACK
 10
0.0
 20
0.0
 30
0.0
  9
$PUCSBASE
  2

  9
$PUCSNAME
  2

  9
$PUCSORG
 10
0.0
 20
0.0
 30
0.0
  9
$PUCSXDIR
 10
1.0
 20
0.0
 30
0.0
  9
$PUCSYDIR
 10
0.0
 20
1.0
 30
0.0
  9
$PUCSORTHOREF
  2

  9
$PUCSORTHOVIEW
 70
     0
  9
$PUCSORGTOP
 10
0.0
 20
0.0
 30
0.0
  9
$PUCSORGBOTTOM
 10
0.0
 20
0.0
 30
0.0
  9
$PUCSORGLEFT
 10
0.0
 20
0.0
 30
0.0
  9
$PUCSORGRIGHT
 10
0.0
 20
0.0
 30
0.0
  9
$PUCSORGFRONT
 10
0.0
 20
0.0
 30
0.0
  9
$PUCSORGBACK
 10
0.0
 20
0.0
 30
0.0
  9
$USERI1
 70
     0
  9
$USERI2
 70
     0
  9
$USERI3
 70
     0
  9
$USERI4
 70
     0
  9
$USERI5
 70
     0
  9
$USERR1
 40
18.1
  9
$USERR2
 40
0.0
  9
$USERR3
 40
0.0
  9
$USERR4
 40
0.0
  9
$USERR5
 40
0.0
  9
$WORLDVIEW
 70
     1
  9
$SHADEDGE
 70
     3
  9
$SHADEDIF
 70
    70
  9
$TILEMODE
 70
     1
  9
$MAXACTVP
 70
    64
  9
$PINSBASE
 10
0.0
 20
0.0
 30
0.0
  9
$PLIMCHECK
 70
     0
  9
$PEXTMIN
 10
1.00000000000000E+20
 20
1.00000000000000E+20
 30
1.00000000000000E+20
  9
$PEXTMAX
 10
-1.00000000000000E+20
 20
-1.00000000000000E+20
 30
-1.00000000000000E+20
  9
$PLIMMIN
 10
0.0
 20
0.0
  9
$PLIMMAX
 10
12.0
 20
9.0
  9
$UNITMODE
 70
     0
  9
$VISRETAIN
 70
     1
  9
$PLINEGEN
 70
     0
  9
$PSLTSCALE
 70
     1
  9
$TREEDEPTH
 70
  3020
  9
$CMLSTYLE
  2
Standard
  9
$CMLJUST
 70
     0
  9
$CMLSCALE
 40
1.0
  9
$PROXYGRAPHICS
 70
     1
  9
$MEASUREMENT
 70
     1
  9
$CELWEIGHT
370
    -1
  9
$ENDCAPS
280
     0
  9
$JOINSTYLE
280
     0
  9
$LWDISPLAY
290
     0
  9
$INSUNITS
 70
     4
  9
$HYPERLINKBASE
  1

  9
$STYLESHEET
  1

  9
$XEDIT
290
     1
  9
$CEPSNTYPE
380
     0
  9
$PSTYLEMODE
290
     1
  9
$FINGERPRINTGUID
  2
{AE8A2EA6-CCF2-44FA-92E7-786F06A48F2B}
  9
$VERSIONGUID
  2
{FAEB1C32-E019-11D5-929B-00C0DF256EC4}
  9
$EXTNAMES
290
     1
  9
$PSVPSCALE
 40
0.0
  9
$OLESTARTUP
290
     0
  9
$SORTENTS
280
   127
  9
$INDEXCTL
280
     0
  9
$HIDETEXT
280
     1
  9
$XCLIPFRAME
290
     0
  9
$HALOGAP
280
     0
  9
$OBSCOLOR
 70
   257
  9
$OBSLTYPE
280
     0
  9
$INTERSECTIONDISPLAY
280
     0
  9
$INTERSECTIONCOLOR
 70
   257
  9
$DIMASSOC
280
     2
  9
$PROJECTNAME
  1

  0
ENDSEC
  0
SECTION
  2
CLASSES
  0
CLASS
  1
ACDBDICTIONARYWDFLT
  2
AcDbDictionaryWithDefault
  3
ObjectDBX Classes
 90
        0
 91
        4
280
     0
281
     0
  0
CLASS
  1
VISUALSTYLE
  2
AcDbVisualStyle
  3
ObjectDBX Classes
 90
     4095
 91
        4
280
     0
281
     0
  0
CLASS
  1
MATERIAL
  2
AcDbMaterial
  3
ObjectDBX Classes
 90
     1153
 91
        4
280
     0
281
     0
  0
ENDSEC
  0
SECTION
  2
TABLES
  0
TABLE
  2
VPORT
  5
8
330
0
100
AcDbSymbolTable
 70
     1
  0
VPORT
  5
29
330
8
100
AcDbSymbolTableRecord
100
AcDbViewportTableRecord
  2
*Active
 70
     0
 10
0.0
 20
0.0
 11
1.0
 21
1.0
 12
-94.30000023272918
 22
103.1912691601326
 13
0.0
 23
0.0
 14
0.5
 24
0.5
 15
0.5
 25
0.5
 16
0.0
 26
0.0
 36
1.0
 17
0.0
 27
0.0
 37
0.0
 40
231.0000000000001
 41
1.60267857142857
 42
50.0
 43
0.0
 44
0.0
 50
0.0
 51
0.0
 71
     0
 72
   100
 73
     1
 74
     3
 75
     0
 76
     0
 77
     0
 78
     0
281
     0
 65
     1
110
0.0
120
0.0
130
0.0
111
1.0
121
0.0
131
0.0
112
0.0
122
1.0
132
0.0
 79
     0
146
0.0
  0
ENDTAB
  0
TABLE
  2
LTYPE
  5
5
330
0
100
AcDbSymbolTable
 70
     8
  0
LTYPE
  5
14
330
5
100
AcDbSymbolTableRecord
100
AcDbLinetypeTableRecord
  2
ByBlock
 70
     0
  3

 72
    65
 73
     0
 40
0.0
  0
LTYPE
  5
15
330
5
100
AcDbSymbolTableRecord
100
AcDbLinetypeTableRecord
  2
ByLayer
 70
     0
  3

 72
    65
 73
     0
 40
0.0
  0
LTYPE
  5
16
330
5
100
AcDbSymbolTableRecord
100
AcDbLinetypeTableRecord
  2
Continuous
 70
     0
  3
Solid line
 72
    65
 73
     0
 40
0.0
  0
LTYPE
  5
3F
330
5
100
AcDbSymbolTableRecord
100
AcDbLinetypeTableRecord
  2
DASHED
 70
     0
  3
Dashed
 72
    65
 73
     2
 40
15.0
 49
7.0
 74
     0
 49
-8.0
 74
     0
  0
LTYPE
  5
40
330
5
100
AcDbSymbolTableRecord
100
AcDbLinetypeTableRecord
  2
DOTTED
 70
     0
  3
Dotted
 72
    65
 73
     2
 40
1.0
 49
0.0
 74
     0
 49
-1.0
 74
     0
  0
LTYPE
  5
41
330
5
100
AcDbSymbolTableRecord
100
AcDbLinetypeTableRecord
  2
DOT_CENTER
 70
     0
  3
Dot_Center
 72
    65
 73
     4
 40
14.0
 49
12.0
 74
     0
 49
-1.0
 74
     0
 49
0.0
 74
     0
 49
-1.0
 74
     0
  0
LTYPE
  5
42
330
5
100
AcDbSymbolTableRecord
100
AcDbLinetypeTableRecord
  2
LONG_DASHED
 70
     0
  3
Long_Dashed
 72
    65
 73
     2
 40
15.0
 49
10.0
 74
     0
 49
-5.0
 74
     0
  0
LTYPE
  5
43
330
5
100
AcDbSymbolTableRecord
100
AcDbLinetypeTableRecord
  2
DASH_CENTER
 70
     0
  3
Dash_Center
 72
    65
 73
     4
 40
14.0
 49
11.0
 74
     0
 49
-1.0
 74
     0
 49
1.0
 74
     0
 49
-1.0
 74
     0
  0
LTYPE
  5
44
330
5
100
AcDbSymbolTableRecord
100
AcDbLinetypeTableRecord
  2
PHANTOM
 70
     0
  3
Phantom
 72
    65
 73
     6
 40
13.0
 49
10.0
 74
     0
 49
-1.0
 74
     0
 49
0.0
 74
     0
 49
-1.0
 74
     0
 49
0.0
 74
     0
 49
-1.0
 74
     0
  0
LTYPE
  5
45
330
5
100
AcDbSymbolTableRecord
100
AcDbLinetypeTableRecord
  2
CENTER_DASH_DASH
 70
     0
  3
Center_Dash_Dash
 72
    65
 73
     6
 40
14.0
 49
9.0
 74
     0
 49
-1.0
 74
     0
 49
1.0
 74
     0
 49
-1.0
 74
     0
 49
1.0
 74
     0
 49
-1.0
 74
     0
  0
ENDTAB
  0
TABLE
  2
LAYER
  5
2
330
0
100
AcDbSymbolTable
 70
     2
  0
LAYER
  5
10
330
2
100
AcDbSymbolTableRecord
100
AcDbLayerTableRecord
  2
0
 70
     0
 62
     7
  6
Continuous
370
    -3
390
F
  0
LAYER
  5
46
330
2
100
AcDbSymbolTableRecord
100
AcDbLayerTableRecord
  2
1
 70
     0
 62
     7
  6
Continuous
370
    -3
390
F
  0
ENDTAB
  0
TABLE
  2
STYLE
  5
3
330
0
100
AcDbSymbolTable
 70
     5
  0
STYLE
  5
11
330
3
100
AcDbSymbolTableRecord
100
AcDbTextStyleTableRecord
  2
Standard
 70
     0
 40
0.0
 41
1.0
 50
0.0
 71
     0
 42
0.2
  3
txt
  4

  0
STYLE
  5
17D
330
3
100
AcDbSymbolTableRecord
100
AcDbTextStyleTableRecord
  2
CONVERTER_11
 70
     0
 40
0.0
 41
0.9
 50
0.0
 71
     0
 42
0.2
  3
txt.shx
  4

  0
STYLE
  5
184
330
3
100
AcDbSymbolTableRecord
100
AcDbTextStyleTableRecord
  2
CONVERTER_12
 70
     0
 40
0.0
 41
0.81
 50
0.0
 71
     0
 42
0.2
  3
txt.shx
  4

  0
STYLE
  5
19A
330
3
100
AcDbSymbolTableRecord
100
AcDbTextStyleTableRecord
  2
CONVERTER_13
 70
     0
 40
0.0
 41
0.72
 50
0.0
 71
     0
 42
0.2
  3
txt.shx
  4

  0
STYLE
  5
19D
330
3
100
AcDbSymbolTableRecord
100
AcDbTextStyleTableRecord
  2
CONVERTER_14
 70
     0
 40
0.0
 41
0.855
 50
0.0
 71
     0
 42
0.2
  3
txt.shx
  4

  0
ENDTAB
  0
TABLE
  2
VIEW
  5
6
330
0
100
AcDbSymbolTable
 70
     0
  0
ENDTAB
  0
TABLE
  2
UCS
  5
7
330
0
100
AcDbSymbolTable
 70
     0
  0
ENDTAB
  0
TABLE
  2
APPID
  5
9
330
0
100
AcDbSymbolTable
 70
     1
  0
APPID
  5
12
330
9
100
AcDbSymbolTableRecord
100
AcDbRegAppTableRecord
  2
ACAD
 70
     0
  0
ENDTAB
  0
TABLE
  2
DIMSTYLE
  5
A
330
0
100
AcDbSymbolTable
 70
     5
100
AcDbDimStyleTable
  0
DIMSTYLE
105
27
330
A
100
AcDbSymbolTableRecord
100
AcDbDimStyleTableRecord
  2
Standard
 70
     0
178
     0
340
11
  0
DIMSTYLE
105
365
102
{ACAD_REACTORS
330
366
102
}
330
A
100
AcDbSymbolTableRecord
100
AcDbDimStyleTableRecord
  2
ME10_DIM_10
 70
     0
 41
3.5
 42
0.0
 44
1.5
 73
     0
 74
     0
 77
     1
 78
     8
140
3.5
147
1.5
172
     1
173
     1
174
     1
175
     1
176
     2
177
     2
178
     3
340
17D
  0
DIMSTYLE
105
370
102
{ACAD_REACTORS
330
371
102
}
330
A
100
AcDbSymbolTableRecord
100
AcDbDimStyleTableRecord
  2
ME10_DIM_11
 70
     0
 41
3.5
 42
0.0
 44
1.5
 73
     0
 74
     0
 77
     1
 78
     8
140
3.5
147
1.5
172
     1
173
     1
174
     1
175
     1
176
     2
177
     2
178
     3
340
17D
  0
DIMSTYLE
105
4C2
102
{ACAD_REACTORS
330
4C3
102
}
330
A
100
AcDbSymbolTableRecord
100
AcDbDimStyleTableRecord
  2
ME10_DIM_12
 70
     0
 41
3.5
 42
0.0
 44
2.0
 73
     0
 74
     0
 77
     1
 78
     8
140
3.5
147
2.0
172
     1
173
     1
174
     1
175
     1
176
     2
177
     2
271
     1
178
     3
271
     1
340
17D
  0
DIMSTYLE
105
4CD
102
{ACAD_REACTORS
330
4CE
102
}
330
A
100
AcDbSymbolTableRecord
100
AcDbDimStyleTableRecord
  2
ME10_DIM_13
 70
     0
 41
3.5
 42
0.0
 44
1.5
 73
     0
 74
     0
 77
     1
 78
     8
140
3.5
147
1.5
172
     1
173
     1
174
     1
175
     1
176
     2
177
     2
178
     3
340
17D
  0
ENDTAB
  0
TABLE
  2
BLOCK_RECORD
  5
1
330
0
100
AcDbSymbolTable
 70
    21
  0
BLOCK_RECORD
  5
1F
330
1
100
AcDbSymbolTableRecord
100
AcDbBlockTableRecord
  2
*Model_Space
340
22
  0
BLOCK_RECORD
  5
1B
330
1
100
AcDbSymbolTableRecord
100
AcDbBlockTableRecord
  2
*Paper_Space
340
1E
  0
BLOCK_RECORD
  5
23
330
1
100
AcDbSymbolTableRecord
100
AcDbBlockTableRecord
  2
*Paper_Space0
340
26
  0
BLOCK_RECORD
  5
47
330
1
100
AcDbSymbolTableRecord
100
AcDbBlockTableRecord
  2
_rahmen
340
0
102
{BLKREFS
331
4E
102
}
  0
BLOCK_RECORD
  5
4A
330
1
100
AcDbSymbolTableRecord
100
AcDbBlockTableRecord
  2
_punkt
340
0
102
{BLKREFS
331
4F
102
}
  0
BLOCK_RECORD
  5
4D
330
1
100
AcDbSymbolTableRecord
100
AcDbBlockTableRecord
  2
A4I_CS
340
0
102
{BLKREFS
331
7D
102
}
  0
BLOCK_RECORD
  5
52
330
1
100
AcDbSymbolTableRecord
100
AcDbBlockTableRecord
  2
RBO_6_F-select__1
340
0
102
{BLKREFS
331
56
102
}
  0
BLOCK_RECORD
  5
55
330
1
100
AcDbSymbolTableRecord
100
AcDbBlockTableRecord
  2
AllgSicht1
340
0
102
{BLKREFS
331
7E
102
}
  0
BLOCK_RECORD
  5
59
330
1
100
AcDbSymbolTableRecord
100
AcDbBlockTableRecord
  2
RBO_6_F-select__2
340
0
102
{BLKREFS
331
5D
102
}
  0
BLOCK_RECORD
  5
5C
330
1
100
AcDbSymbolTableRecord
100
AcDbBlockTableRecord
  2
Drfsicht1
340
0
102
{BLKREFS
331
7F
102
}
  0
BLOCK_RECORD
  5
60
330
1
100
AcDbSymbolTableRecord
100
AcDbBlockTableRecord
  2
RBO_6_F-select__3
340
0
102
{BLKREFS
331
64
102
}
  0
BLOCK_RECORD
  5
63
330
1
100
AcDbSymbolTableRecord
100
AcDbBlockTableRecord
  2
Rckans1
340
0
102
{BLKREFS
331
80
102
}
  0
BLOCK_RECORD
  5
67
330
1
100
AcDbSymbolTableRecord
100
AcDbBlockTableRecord
  2
RBO_6_F-select__4
340
0
102
{BLKREFS
331
6B
102
}
  0
BLOCK_RECORD
  5
6A
330
1
100
AcDbSymbolTableRecord
100
AcDbBlockTableRecord
  2
SA_Links1
340
0
102
{BLKREFS
331
81
102
}
  0
BLOCK_RECORD
  5
6E
330
1
100
AcDbSymbolTableRecord
100
AcDbBlockTableRecord
  2
RBO_6_F-select__5
340
0
102
{BLKREFS
331
72
102
}
  0
BLOCK_RECORD
  5
71
330
1
100
AcDbSymbolTableRecord
100
AcDbBlockTableRecord
  2
SA_Rechts1
340
0
102
{BLKREFS
331
82
102
}
  0
BLOCK_RECORD
  5
75
330
1
100
AcDbSymbolTableRecord
100
AcDbBlockTableRecord
  2
RBO_6_F-select__6
340
0
102
{BLKREFS
331
79
102
}
  0
BLOCK_RECORD
  5
78
330
1
100
AcDbSymbolTableRecord
100
AcDbBlockTableRecord
  2
Vordans1
340
0
102
{BLKREFS
331
83
102
}
  0
BLOCK_RECORD
  5
7C
330
1
100
AcDbSymbolTableRecord
100
AcDbBlockTableRecord
  2
1
340
0
102
{BLKREFS
331
86
102
}
  0
BLOCK_RECORD
  5
35C
330
1
100
AcDbSymbolTableRecord
100
AcDbBlockTableRecord
  2
*D17
340
0
  0
BLOCK_RECORD
  5
367
330
1
100
AcDbSymbolTableRecord
100
AcDbBlockTableRecord
  2
*D18
340
0
  0
BLOCK_RECORD
  5
4B9
330
1
100
AcDbSymbolTableRecord
100
AcDbBlockTableRecord
  2
*D19
340
0
  0
BLOCK_RECORD
  5
4C4
330
1
100
AcDbSymbolTableRecord
100
AcDbBlockTableRecord
  2
*D20
340
0
  0
ENDTAB
  0
ENDSEC
  0
SECTION
  2
BLOCKS
  0
BLOCK
  5
20
330
1F
100
AcDbEntity
  8
0
100
AcDbBlockBegin
  2
*Model_Space
 70
     0
 10
0.0
 20
0.0
 30
0.0
  3
*Model_Space
  1

  0
ENDBLK
  5
21
330
1F
100
AcDbEntity
  8
0
100
AcDbBlockEnd
  0
BLOCK
  5
1C
330
1B
100
AcDbEntity
 67
     1
  8
0
100
AcDbBlockBegin
  2
*Paper_Space
 70
     0
 10
0.0
 20
0.0
 30
0.0
  3
*Paper_Space
  1

  0
ENDBLK
  5
1D
330
1B
100
AcDbEntity
 67
     1
  8
0
100
AcDbBlockEnd
  0
BLOCK
  5
24
330
23
100
AcDbEntity
  8
0
100
AcDbBlockBegin
  2
*Paper_Space0
 70
     0
 10
0.0
 20
0.0
 30
0.0
  3
*Paper_Space0
  1

  0
ENDBLK
  5
25
330
23
100
AcDbEntity
  8
0
100
AcDbBlockEnd
  0
BLOCK
  5
48
330
47
100
AcDbEntity
  8
0
100
AcDbBlockBegin
  2
_rahmen
 70
     0
 10
49.19999976727085
 20
-1.80873083986739
 30
0.0
  3
_rahmen
  1

  0
LINE
  5
87
330
47
100
AcDbEntity
  8
1
  6
Continuous
 62
     6
100
AcDbLine
 10
-80.34480475947916
 20
28.69126916013272
 30
0.0
 11
49.19999976727254
 21
28.69126916013272
 31
0.0
  0
LINE
  5
88
330
47
100
AcDbEntity
  8
1
  6
Continuous
 62
     7
100
AcDbLine
 10
-62.14480475947914
 20
7.44126916013272
 30
0.0
 11
-43.94480475947924
 21
7.44126916013272
 31
0.0
  0
LINE
  5
89
330
47
100
AcDbEntity
  8
1
  6
Continuous
 62
     6
100
AcDbLine
 10
-62.14480475947914
 20
3.19126916013272
 30
0.0
 11
-80.34480475947916
 21
3.19126916013261
 31
0.0
  0
LINE
  5
8A
330
47
100
AcDbEntity
  8
1
  6
Continuous
 62
     7
100
AcDbLine
 10
-62.14480475947914
 20
7.44126916013272
 30
0.0
 11
-62.14480475947914
 21
3.19126916013272
 31
0.0
  0
LINE
  5
8B
330
47
100
AcDbEntity
  8
1
  6
Continuous
 62
     7
100
AcDbLine
 10
-43.94480475947924
 20
7.44126916013272
 30
0.0
 11
-43.94480475947924
 21
3.19126916013261
 31
0.0
  0
LINE
  5
8C
330
47
100
AcDbEntity
  8
1
  6
Continuous
 62
     7
100
AcDbLine
 10
-80.34480475947916
 20
7.44126916013261
 30
0.0
 11
-80.34480475947916
 21
3.19126916013261
 31
0.0
  0
LINE
  5
8D
330
47
100
AcDbEntity
  8
1
  6
Continuous
 62
     7
100
AcDbLine
 10
-80.34480475947916
 20
7.44126916013261
 30
0.0
 11
-62.14480475947914
 21
7.44126916013272
 31
0.0
  0
LINE
  5
8E
330
47
100
AcDbEntity
  8
1
  6
Continuous
 62
     2
100
AcDbLine
 10
-71.10814987291656
 20
26.81626916013263
 30
0.0
 11
-71.10814987291656
 21
21.81626916013263
 31
0.0
  0
LINE
  5
8F
330
47
100
AcDbEntity
  8
1
  6
Continuous
 62
     2
100
AcDbLine
 10
-71.10814987291656
 20
21.81626916013263
 30
0.0
 11
-76.10814987291656
 21
23.06626916013263
 31
0.0
  0
LINE
  5
90
330
47
100
AcDbEntity
  8
1
  6
Continuous
 62
     2
100
AcDbLine
 10
-76.10814987291656
 20
23.06626916013263
 30
0.0
 11
-76.10814987291656
 21
25.56626916013263
 31
0.0
  0
LINE
  5
91
330
47
100
AcDbEntity
  8
1
  6
Continuous
 62
     2
100
AcDbLine
 10
-76.10814987291656
 20
25.56626916013263
 30
0.0
 11
-71.10814987291656
 21
26.81626916013263
 31
0.0
  0
LINE
  5
92
330
47
100
AcDbEntity
  8
1
  6
Continuous
 62
     6
100
AcDbLine
 10
-202.8000002327274
 20
3.19126916013272
 30
0.0
 11
-237.8000002327273
 21
3.19126916013272
 31
0.0
  0
LINE
  5
93
330
47
100
AcDbEntity
  8
1
  6
Continuous
 62
     6
100
AcDbLine
 10
49.19999976727254
 20
20.19126916013272
 30
0.0
 11
49.19999976727215
 21
11.69126916013272
 31
0.0
  0
LINE
  5
94
330
47
100
AcDbEntity
  8
1
  6
Continuous
 62
     6
100
AcDbLine
 10
-43.94480475947924
 20
3.19126916013261
 30
0.0
 11
-44.30000023272916
 21
3.19126916013272
 31
0.0
  0
LINE
  5
95
330
47
100
AcDbEntity
  8
1
  6
Continuous
 62
     6
100
AcDbLine
 10
-196.6000002327294
 20
3.19126916013261
 30
0.0
 11
-202.8000002327274
 21
3.19126916013272
 31
0.0
  0
LINE
  5
96
330
47
100
AcDbEntity
  8
1
  6
Continuous
 62
     7
100
AcDbLine
 10
-43.94480475947924
 20
20.19126916013272
 30
0.0
 11
-43.94480475947924
 21
7.44126916013272
 31
0.0
  0
LINE
  5
97
330
47
100
AcDbEntity
  8
1
  6
Continuous
 62
     7
100
AcDbLine
 10
-80.34480475947916
 20
20.19126916013272
 30
0.0
 11
-80.34480475947916
 21
7.44126916013261
 31
0.0
  0
LINE
  5
98
330
47
100
AcDbEntity
  8
1
  6
Continuous
 62
     6
100
AcDbLine
 10
-94.30000023272913
 20
3.19126916013272
 30
0.0
 11
-144.3000002327294
 21
3.19126916013272
 31
0.0
  0
LINE
  5
99
330
47
100
AcDbEntity
  8
1
  6
Continuous
 62
     6
100
AcDbLine
 10
-196.6000002327294
 20
3.19126916013261
 30
0.0
 11
-194.3000002327291
 21
3.19126916013272
 31
0.0
  0
LINE
  5
9A
330
47
100
AcDbEntity
  8
1
  6
Continuous
 62
     6
100
AcDbLine
 10
-43.94480475947924
 20
3.19126916013261
 30
0.0
 11
5.69999976727084
 21
3.19126916013272
 31
0.0
  0
LINE
  5
9B
330
47
100
AcDbEntity
  8
1
  6
Continuous
 62
     6
100
AcDbLine
 10
49.19999976727085
 20
3.19126916013272
 30
0.0
 11
49.19999976727215
 21
11.69126916013272
 31
0.0
  0
LINE
  5
9C
330
47
100
AcDbEntity
  8
1
  6
Continuous
 62
     2
100
AcDbLine
 10
-242.8000002327282
 20
3.19126916013272
 30
0.0
 11
-242.8000002327282
 21
-1.80873083986739
 31
0.0
  0
LINE
  5
9D
330
47
100
AcDbEntity
  8
1
  6
Continuous
 62
     2
100
AcDbLine
 10
-237.8000002327273
 20
3.19126916013272
 30
0.0
 11
-242.8000002327282
 21
3.19126916013272
 31
0.0
  0
LINE
  5
9E
330
47
100
AcDbEntity
  8
1
  6
Continuous
 62
     2
100
AcDbLine
 10
-237.8000002327273
 20
-1.80873083986739
 30
0.0
 11
-194.3000002327291
 21
-1.80873083986739
 31
0.0
  0
LINE
  5
9F
330
47
100
AcDbEntity
  8
1
  6
Continuous
 62
     2
100
AcDbLine
 10
-237.8000002327273
 20
3.19126916013272
 30
0.0
 11
-237.8000002327273
 21
-1.80873083986739
 31
0.0
  0
LINE
  5
A0
330
47
100
AcDbEntity
  8
1
  6
Continuous
 62
     2
100
AcDbLine
 10
5.69999976727084
 20
-1.80873083986739
 30
0.0
 11
-44.30000023272916
 21
-1.80873083986739
 31
0.0
  0
LINE
  5
A1
330
47
100
AcDbEntity
  8
1
  6
Continuous
 62
     2
100
AcDbLine
 10
5.69999976727084
 20
-1.80873083986739
 30
0.0
 11
5.69999976727084
 21
3.19126916013272
 31
0.0
  0
LINE
  5
A2
330
47
100
AcDbEntity
  8
1
  6
Continuous
 62
     2
100
AcDbLine
 10
-44.30000023272916
 20
-1.80873083986739
 30
0.0
 11
-44.30000023272916
 21
3.19126916013272
 31
0.0
  0
LINE
  5
A3
330
47
100
AcDbEntity
  8
1
  6
Continuous
 62
     2
100
AcDbLine
 10
-94.30000023272913
 20
-1.80873083986739
 30
0.0
 11
-44.30000023272916
 21
-1.80873083986739
 31
0.0
  0
LINE
  5
A4
330
47
100
AcDbEntity
  8
1
  6
Continuous
 62
     2
100
AcDbLine
 10
-94.30000023272913
 20
-1.80873083986739
 30
0.0
 11
-94.30000023272913
 21
3.19126916013272
 31
0.0
  0
LINE
  5
A5
330
47
100
AcDbEntity
  8
1
  6
Continuous
 62
     2
100
AcDbLine
 10
-144.3000002327294
 20
-1.80873083986739
 30
0.0
 11
-94.30000023272913
 21
-1.80873083986739
 31
0.0
  0
LINE
  5
A6
330
47
100
AcDbEntity
  8
1
  6
Continuous
 62
     2
100
AcDbLine
 10
-144.3000002327294
 20
-1.80873083986739
 30
0.0
 11
-144.3000002327294
 21
3.19126916013272
 31
0.0
  0
LINE
  5
A7
330
47
100
AcDbEntity
  8
1
  6
Continuous
 62
     2
100
AcDbLine
 10
-194.3000002327291
 20
-1.80873083986739
 30
0.0
 11
-144.3000002327294
 21
-1.80873083986739
 31
0.0
  0
LINE
  5
A8
330
47
100
AcDbEntity
  8
1
  6
Continuous
 62
     2
100
AcDbLine
 10
-194.3000002327291
 20
-1.80873083986739
 30
0.0
 11
-194.3000002327291
 21
3.19126916013272
 31
0.0
  0
LINE
  5
A9
330
47
100
AcDbEntity
  8
1
  6
Continuous
 62
     6
100
AcDbLine
 10
-237.8000002327274
 20
53.19126916013283
 30
0.0
 11
-237.8000002327273
 21
3.19126916013272
 31
0.0
  0
LINE
  5
AA
330
47
100
AcDbEntity
  8
1
  6
Continuous
 62
     2
100
AcDbLine
 10
-242.8000002327282
 20
53.19126916013283
 30
0.0
 11
-242.8000002327282
 21
3.19126916013272
 31
0.0
  0
LINE
  5
AB
330
47
100
AcDbEntity
  8
1
  6
Continuous
 62
     2
100
AcDbLine
 10
-242.8000002327282
 20
53.19126916013283
 30
0.0
 11
-237.8000002327274
 21
53.19126916013283
 31
0.0
  0
LINE
  5
AC
330
47
100
AcDbEntity
  8
1
  6
Continuous
 62
     6
100
AcDbLine
 10
-237.8000002327277
 20
103.1912691601326
 30
0.0
 11
-237.8000002327274
 21
53.19126916013283
 31
0.0
  0
LINE
  5
AD
330
47
100
AcDbEntity
  8
1
  6
Continuous
 62
     2
100
AcDbLine
 10
-242.8000002327282
 20
103.1912691601326
 30
0.0
 11
-242.8000002327282
 21
53.19126916013283
 31
0.0
  0
LINE
  5
AE
330
47
100
AcDbEntity
  8
1
  6
Continuous
 62
     2
100
AcDbLine
 10
-242.8000002327282
 20
103.1912691601326
 30
0.0
 11
-237.8000002327277
 21
103.1912691601326
 31
0.0
  0
LINE
  5
AF
330
47
100
AcDbEntity
  8
1
  6
Continuous
 62
     6
100
AcDbLine
 10
-237.8000002327282
 20
153.1912691601327
 30
0.0
 11
-237.8000002327277
 21
103.1912691601326
 31
0.0
  0
LINE
  5
B0
330
47
100
AcDbEntity
  8
1
  6
Continuous
 62
     2
100
AcDbLine
 10
-242.8000002327282
 20
153.1912691601327
 30
0.0
 11
-242.8000002327282
 21
103.1912691601326
 31
0.0
  0
LINE
  5
B1
330
47
100
AcDbEntity
  8
1
  6
Continuous
 62
     2
100
AcDbLine
 10
-242.8000002327282
 20
153.1912691601327
 30
0.0
 11
-237.8000002327282
 21
153.1912691601327
 31
0.0
  0
LINE
  5
B2
330
47
100
AcDbEntity
  8
1
  6
Continuous
 62
     6
100
AcDbLine
 10
-237.8000002327282
 20
188.1912691601327
 30
0.0
 11
-237.8000002327282
 21
153.1912691601327
 31
0.0
  0
LINE
  5
B3
330
47
100
AcDbEntity
  8
1
  6
Continuous
 62
     2
100
AcDbLine
 10
-242.8000002327282
 20
208.1912691601327
 30
0.0
 11
-242.8000002327282
 21
153.1912691601327
 31
0.0
  0
LINE
  5
B4
330
47
100
AcDbEntity
  8
1
  6
Continuous
 62
     2
100
AcDbLine
 10
-242.8000002327282
 20
-1.80873083986739
 30
0.0
 11
-237.8000002327273
 21
-1.80873083986739
 31
0.0
  0
LINE
  5
B5
330
47
100
AcDbEntity
  8
1
  6
Continuous
 62
     2
100
AcDbLine
 10
-94.30000023272913
 20
208.1912691601327
 30
0.0
 11
-94.30000023272913
 21
198.9825773154314
 31
0.0
  0
LINE
  5
B6
330
47
100
AcDbEntity
  8
1
  6
Continuous
 62
     2
100
AcDbLine
 10
-94.30000023272913
 20
208.1912691601327
 30
0.0
 11
-242.8000002327282
 21
208.1912691601327
 31
0.0
  0
LINE
  5
B7
330
47
100
AcDbEntity
  8
1
  6
Continuous
 62
     2
100
AcDbLine
 10
54.19999976726984
 20
3.19126916013272
 30
0.0
 11
54.19999976726984
 21
53.19126916013283
 31
0.0
  0
LINE
  5
B8
330
47
100
AcDbEntity
  8
1
  6
Continuous
 62
     2
100
AcDbLine
 10
54.19999976726984
 20
153.1912691601327
 30
0.0
 11
54.19999976726984
 21
208.1912691601327
 31
0.0
  0
LINE
  5
B9
330
47
100
AcDbEntity
  8
1
  6
Continuous
 62
     6
100
AcDbLine
 10
49.19999976727004
 20
153.1912691601327
 30
0.0
 11
49.19999976726984
 21
188.1912691601327
 31
0.0
  0
LINE
  5
BA
330
47
100
AcDbEntity
  8
1
  6
Continuous
 62
     2
100
AcDbLine
 10
49.19999976727004
 20
153.1912691601327
 30
0.0
 11
54.19999976726984
 21
153.1912691601327
 31
0.0
  0
LINE
  5
BB
330
47
100
AcDbEntity
  8
1
  6
Continuous
 62
     2
100
AcDbLine
 10
54.19999976726984
 20
103.1912691601326
 30
0.0
 11
54.19999976726984
 21
153.1912691601327
 31
0.0
  0
LINE
  5
BC
330
47
100
AcDbEntity
  8
1
  6
Continuous
 62
     6
100
AcDbLine
 10
49.19999976727125
 20
103.1912691601326
 30
0.0
 11
49.19999976727004
 21
153.1912691601327
 31
0.0
  0
LINE
  5
BD
330
47
100
AcDbEntity
  8
1
  6
Continuous
 62
     2
100
AcDbLine
 10
49.19999976727125
 20
103.1912691601326
 30
0.0
 11
54.19999976726984
 21
103.1912691601326
 31
0.0
  0
LINE
  5
BE
330
47
100
AcDbEntity
  8
1
  6
Continuous
 62
     2
100
AcDbLine
 10
54.19999976726984
 20
53.19126916013283
 30
0.0
 11
54.19999976726984
 21
103.1912691601326
 31
0.0
  0
LINE
  5
BF
330
47
100
AcDbEntity
  8
1
  6
Continuous
 62
     6
100
AcDbLine
 10
49.19999976727175
 20
53.19126916013283
 30
0.0
 11
49.19999976727125
 21
103.1912691601326
 31
0.0
  0
LINE
  5
C0
330
47
100
AcDbEntity
  8
1
  6
Continuous
 62
     2
100
AcDbLine
 10
49.19999976727175
 20
53.19126916013283
 30
0.0
 11
54.19999976726984
 21
53.19126916013283
 31
0.0
  0
LINE
  5
C1
330
47
100
AcDbEntity
  8
1
  6
Continuous
 62
     6
100
AcDbLine
 10
49.19999976726984
 20
188.1912691601327
 30
0.0
 11
-237.8000002327282
 21
188.1912691601327
 31
0.0
  0
LINE
  5
C2
330
47
100
AcDbEntity
  8
1
  6
Continuous
 62
     2
100
AcDbLine
 10
54.19999976726984
 20
208.1912691601327
 30
0.0
 11
-94.30000023272913
 21
208.1912691601327
 31
0.0
  0
LINE
  5
C3
330
47
100
AcDbEntity
  8
1
  6
Continuous
 62
     6
100
AcDbLine
 10
49.19999976727254
 20
20.19126916013272
 30
0.0
 11
49.19999976727175
 21
53.19126916013283
 31
0.0
  0
LINE
  5
C4
330
47
100
AcDbEntity
  8
1
  6
Continuous
 62
     2
100
AcDbLine
 10
49.19999976727085
 20
-1.80873083986739
 30
0.0
 11
5.69999976727084
 21
-1.80873083986739
 31
0.0
  0
LINE
  5
C5
330
47
100
AcDbEntity
  8
1
  6
Continuous
 62
     2
100
AcDbLine
 10
54.19999976726984
 20
-1.80873083986739
 30
0.0
 11
49.19999976727085
 21
-1.80873083986739
 31
0.0
  0
LINE
  5
C6
330
47
100
AcDbEntity
  8
1
  6
Continuous
 62
     2
100
AcDbLine
 10
54.19999976726984
 20
-1.80873083986739
 30
0.0
 11
54.19999976726984
 21
3.19126916013272
 31
0.0
  0
LINE
  5
C7
330
47
100
AcDbEntity
  8
1
  6
Continuous
 62
     6
100
AcDbLine
 10
-80.34480475947916
 20
20.19126916013272
 30
0.0
 11
-43.94480475947924
 21
20.19126916013272
 31
0.0
  0
LINE
  5
C8
330
47
100
AcDbEntity
  8
1
  6
Continuous
 62
     2
100
AcDbLine
 10
49.19999976727085
 20
3.19126916013272
 30
0.0
 11
49.19999976727085
 21
-1.80873083986739
 31
0.0
  0
LINE
  5
C9
330
47
100
AcDbEntity
  8
1
  6
Continuous
 62
     2
100
AcDbLine
 10
49.19999976727085
 20
3.19126916013272
 30
0.0
 11
54.19999976726984
 21
3.19126916013272
 31
0.0
  0
LINE
  5
CA
330
47
100
AcDbEntity
  8
1
  6
Continuous
 62
     6
100
AcDbLine
 10
-44.30000023272916
 20
3.19126916013272
 30
0.0
 11
-62.14480475947914
 21
3.19126916013272
 31
0.0
  0
LINE
  5
CB
330
47
100
AcDbEntity
  8
1
  6
Continuous
 62
     6
100
AcDbLine
 10
5.69999976727084
 20
3.19126916013272
 30
0.0
 11
49.19999976727085
 21
3.19126916013272
 31
0.0
  0
LINE
  5
CC
330
47
100
AcDbEntity
  8
1
  6
Continuous
 62
     6
100
AcDbLine
 10
-144.3000002327294
 20
3.19126916013272
 30
0.0
 11
-149.3448047594791
 21
3.19126916013272
 31
0.0
  0
LINE
  5
CD
330
47
100
AcDbEntity
  8
1
  6
Continuous
 62
     6
100
AcDbLine
 10
-94.30000023272913
 20
3.19126916013272
 30
0.0
 11
-80.34480475947916
 21
3.19126916013261
 31
0.0
  0
LINE
  5
CE
102
{ACAD_REACTORS
330
1B9
330
1BA
102
}
330
47
100
AcDbEntity
  8
0
  6
Continuous
 62
     2
100
AcDbLine
 10
-72.83017881733235
 20
15.26378391634484
 30
0.0
 11
-72.83017881733235
 21
15.86931920485162
 31
0.0
  0
LINE
  5
CF
102
{ACAD_REACTORS
330
1B9
330
1BA
102
}
330
47
100
AcDbEntity
  8
0
  6
Continuous
 62
     2
100
AcDbLine
 10
-72.83017881733235
 20
12.46364930971353
 30
0.0
 11
-72.83017881733235
 21
13.04550071640861
 31
0.0
  0
LINE
  5
D0
102
{ACAD_REACTORS
330
1BB
330
1BC
102
}
330
47
100
AcDbEntity
  8
0
  6
Continuous
 62
     2
100
AcDbLine
 10
-50.20069238185315
 20
12.75331337783652
 30
0.0
 11
-50.20069238185315
 21
10.48476916014903
 31
0.0
  0
LINE
  5
D1
102
{ACAD_REACTORS
330
1BB
330
1BC
102
}
330
47
100
AcDbEntity
  8
0
  6
Continuous
 62
     2
100
AcDbLine
 10
-51.58174616084074
 20
13.53857868395963
 30
0.0
 11
-48.19680064221205
 21
13.53857868396011
 31
0.0
  0
LINE
  5
D2
102
{ACAD_REACTORS
330
1BB
330
1BC
102
}
330
47
100
AcDbEntity
  8
0
  6
Continuous
 62
     2
100
AcDbLine
 10
-48.19680064221205
 20
12.75331337783652
 30
0.0
 11
-48.19680064221205
 21
13.53857868396011
 31
0.0
  0
LINE
  5
D3
102
{ACAD_REACTORS
330
1BB
330
1BC
102
}
330
47
100
AcDbEntity
  8
0
  6
Continuous
 62
     2
100
AcDbLine
 10
-49.00789967968544
 20
12.75331337783652
 30
0.0
 11
-48.19680064221205
 21
12.75331337783652
 31
0.0
  0
LINE
  5
D4
102
{ACAD_REACTORS
330
1BB
330
1BC
102
}
330
47
100
AcDbEntity
  8
0
  6
Continuous
 62
     2
100
AcDbLine
 10
-49.00789967968544
 20
10.48476916014903
 30
0.0
 11
-49.00789967968544
 21
12.75331337783652
 31
0.0
  0
LINE
  5
D5
102
{ACAD_REACTORS
330
1BB
330
1BC
102
}
330
47
100
AcDbEntity
  8
0
  6
Continuous
 62
     2
100
AcDbLine
 10
-50.20069238185315
 20
10.48476916014903
 30
0.0
 11
-49.00789967968544
 21
10.48476916014903
 31
0.0
  0
LINE
  5
D6
102
{ACAD_REACTORS
330
1B1
330
1B2
102
}
330
47
100
AcDbEntity
  8
0
  6
Continuous
 62
     2
100
AcDbLine
 10
-50.89728331991765
 20
16.89776916013452
 30
0.0
 11
-52.30000753766694
 21
16.89776916013452
 31
0.0
  0
LINE
  5
D7
102
{ACAD_REACTORS
330
1B1
330
1B2
102
}
330
47
100
AcDbEntity
  8
0
  6
Continuous
 62
     2
100
AcDbLine
 10
-50.89728331991765
 20
16.89776916013452
 30
0.0
 11
-50.29611579802585
 21
16.21794583857903
 31
0.0
  0
LINE
  5
D8
102
{ACAD_REACTORS
330
1B1
330
1B2
102
}
330
47
100
AcDbEntity
  8
0
  6
Continuous
 62
     2
100
AcDbLine
 10
-50.29611579802585
 20
16.21794583857903
 30
0.0
 11
-49.69494827613306
 21
16.89776916013452
 31
0.0
  0
LINE
  5
D9
102
{ACAD_REACTORS
330
1B1
330
1B2
102
}
330
47
100
AcDbEntity
  8
0
  6
Continuous
 62
     2
100
AcDbLine
 10
-49.59475368915236
 20
15.42481863009832
 30
0.0
 11
-48.29222405838584
 21
16.89776916013452
 31
0.0
  0
LINE
  5
DA
102
{ACAD_REACTORS
330
1B1
330
1B2
102
}
330
47
100
AcDbEntity
  8
0
  6
Continuous
 62
     2
100
AcDbLine
 10
-49.59475368915236
 20
15.42481863009832
 30
0.0
 11
-48.19680064221205
 21
13.84395963632332
 31
0.0
  0
LINE
  5
DB
102
{ACAD_REACTORS
330
1B1
330
1B2
102
}
330
47
100
AcDbEntity
  8
0
  6
Continuous
 62
     2
100
AcDbLine
 10
-49.59952485996035
 20
13.84395963632332
 30
0.0
 11
-48.19680064221205
 21
13.84395963632332
 31
0.0
  0
LINE
  5
DC
102
{ACAD_REACTORS
330
1B1
330
1B2
102
}
330
47
100
AcDbEntity
  8
0
  6
Continuous
 62
     2
100
AcDbLine
 10
-50.29611579802585
 20
14.63169142161704
 30
0.0
 11
-49.59952485996035
 21
13.84395963632332
 31
0.0
  0
LINE
  5
DD
102
{ACAD_REACTORS
330
1AF
330
1B0
102
}
330
47
100
AcDbEntity
  8
0
  6
Continuous
 62
     2
100
AcDbLine
 10
-53.75521463430954
 20
16.89776916013452
 30
0.0
 11
-52.51471022405664
 21
16.89776916013452
 31
0.0
  0
LINE
  5
DE
102
{ACAD_REACTORS
330
1AF
330
1B0
102
}
330
47
100
AcDbEntity
  8
0
  6
Continuous
 62
     2
100
AcDbLine
 10
-52.51471022405664
 20
16.89776916013452
 30
0.0
 11
-52.51471022405664
 21
13.84395963632332
 31
0.0
  0
LINE
  5
DF
102
{ACAD_REACTORS
330
1AF
330
1B0
102
}
330
47
100
AcDbEntity
  8
0
  6
Continuous
 62
     2
100
AcDbLine
 10
-53.75521463430954
 20
13.84395963632332
 30
0.0
 11
-53.75521463430954
 21
16.89776916013452
 31
0.0
  0
LINE
  5
E0
102
{ACAD_REACTORS
330
1AD
330
1AE
102
}
330
47
100
AcDbEntity
  8
0
  6
Continuous
 62
     2
100
AcDbLine
 10
-55.22352471684715
 20
11.70629296967351
 30
0.0
 11
-54.92335947965475
 21
12.47410793566021
 31
0.0
  0
LINE
  5
E1
102
{ACAD_REACTORS
330
1AD
330
1AE
102
}
330
47
100
AcDbEntity
  8
0
  6
Continuous
 62
     2
100
AcDbLine
 10
-55.70106032146796
 20
10.48476916014903
 30
0.0
 11
-55.48958026799215
 21
11.02572970436691
 31
0.0
  0
LINE
  5
E2
102
{ACAD_REACTORS
330
1AD
330
1AE
102
}
330
47
100
AcDbEntity
  8
0
  6
Continuous
 62
     2
100
AcDbLine
 10
-55.54361168478164
 20
13.53857868396011
 30
0.0
 11
-56.94156473172095
 21
10.48476916014903
 31
0.0
  0
LINE
  5
E3
102
{ACAD_REACTORS
330
1AD
330
1AE
102
}
330
47
100
AcDbEntity
  8
0
  6
Continuous
 62
     2
100
AcDbLine
 10
-52.90515422758864
 20
10.48476916014903
 30
0.0
 11
-54.14565863784256
 21
10.48476916014903
 31
0.0
  0
LINE
  5
E4
102
{ACAD_REACTORS
330
1AD
330
1AE
102
}
330
47
100
AcDbEntity
  8
0
  6
Continuous
 62
     2
100
AcDbLine
 10
-55.48958026799215
 20
11.02572970436691
 30
0.0
 11
-54.35713869131834
 21
11.02572970436691
 31
0.0
  0
LINE
  5
E5
102
{ACAD_REACTORS
330
1AB
330
1AC
102
}
330
47
100
AcDbEntity
  8
0
  6
Continuous
 62
     2
100
AcDbLine
 10
-59.09907687090316
 20
12.75331337783652
 30
0.0
 11
-58.28797783342856
 21
12.75331337783652
 31
0.0
  0
LINE
  5
E6
102
{ACAD_REACTORS
330
1AB
330
1AC
102
}
330
47
100
AcDbEntity
  8
0
  6
Continuous
 62
     2
100
AcDbLine
 10
-56.28408609378954
 20
13.53857868396011
 30
0.0
 11
-59.09907687090316
 21
13.53857868396011
 31
0.0
  0
LINE
  5
E7
102
{ACAD_REACTORS
330
1AB
330
1AC
102
}
330
47
100
AcDbEntity
  8
0
  6
Continuous
 62
     2
100
AcDbLine
 10
-56.28408609378954
 20
12.75331337783652
 30
0.0
 11
-56.28408609378954
 21
13.53857868396011
 31
0.0
  0
LINE
  5
E8
102
{ACAD_REACTORS
330
1AB
330
1AC
102
}
330
47
100
AcDbEntity
  8
0
  6
Continuous
 62
     2
100
AcDbLine
 10
-57.09518513126204
 20
12.75331337783652
 30
0.0
 11
-56.28408609378954
 21
12.75331337783652
 31
0.0
  0
LINE
  5
E9
102
{ACAD_REACTORS
330
1AB
330
1AC
102
}
330
47
100
AcDbEntity
  8
0
  6
Continuous
 62
     2
100
AcDbLine
 10
-57.09518513126204
 20
10.48476916014903
 30
0.0
 11
-57.09518513126204
 21
12.75331337783652
 31
0.0
  0
LINE
  5
EA
102
{ACAD_REACTORS
330
1A9
330
1AA
102
}
330
47
100
AcDbEntity
  8
0
  6
Continuous
 62
     2
100
AcDbLine
 10
-56.42707028716404
 20
13.84395963632332
 30
0.0
 11
-56.42707028716404
 21
15.15273514652802
 31
0.0
  0
LINE
  5
EB
102
{ACAD_REACTORS
330
1A9
330
1AA
102
}
330
47
100
AcDbEntity
  8
0
  6
Continuous
 62
     2
100
AcDbLine
 10
-57.61986298933056
 20
16.89776916013452
 30
0.0
 11
-57.61986298933056
 21
13.84395963632332
 31
0.0
  0
LINE
  5
EC
102
{ACAD_REACTORS
330
1A9
330
1AA
102
}
330
47
100
AcDbEntity
  8
0
  6
Continuous
 62
     2
100
AcDbLine
 10
-56.42707028716404
 20
16.89776916013452
 30
0.0
 11
-57.61986298933056
 21
16.89776916013452
 31
0.0
  0
LINE
  5
ED
102
{ACAD_REACTORS
330
1A9
330
1AA
102
}
330
47
100
AcDbEntity
  8
0
  6
Continuous
 62
     2
100
AcDbLine
 10
-55.18656587691004
 20
16.89776916013452
 30
0.0
 11
-55.18656587691004
 21
15.58899364992934
 31
0.0
  0
LINE
  5
EE
102
{ACAD_REACTORS
330
1A7
330
1A8
102
}
330
47
100
AcDbEntity
  8
0
  6
Continuous
 62
     2
100
AcDbLine
 10
-62.86830180975025
 20
13.53857868396011
 30
0.0
 11
-62.86830180975025
 21
10.48476916014903
 31
0.0
  0
LINE
  5
EF
102
{ACAD_REACTORS
330
1A7
330
1A8
102
}
330
47
100
AcDbEntity
  8
0
  6
Continuous
 62
     2
100
AcDbLine
 10
-61.67550910758266
 20
13.53857868396011
 30
0.0
 11
-62.86830180975025
 21
13.53857868396011
 31
0.0
  0
LINE
  5
F0
102
{ACAD_REACTORS
330
1A7
330
1A8
102
}
330
47
100
AcDbEntity
  8
0
  6
Continuous
 62
     2
100
AcDbLine
 10
-60.43500469732976
 20
10.48476916014903
 30
0.0
 11
-59.24221199516336
 21
10.48476916014903
 31
0.0
  0
LINE
  5
F1
102
{ACAD_REACTORS
330
1A7
330
1A8
102
}
330
47
100
AcDbEntity
  8
0
  6
Continuous
 62
     2
100
AcDbLine
 10
-62.86830180975025
 20
10.48476916014903
 30
0.0
 11
-61.67550910758266
 21
10.48476916014903
 31
0.0
  0
LINE
  5
F2
102
{ACAD_REACTORS
330
1B7
330
1B8
102
}
330
47
100
AcDbEntity
  8
0
  6
Continuous
 62
     2
100
AcDbLine
 10
-59.19434935619114
 20
15.71987120094983
 30
0.0
 11
-59.19434935619114
 21
16.19975555469154
 31
0.0
  0
LINE
  5
F3
102
{ACAD_REACTORS
330
1B7
330
1B8
102
}
330
47
100
AcDbEntity
  8
0
  6
Continuous
 62
     2
100
AcDbLine
 10
-57.85842152976346
 20
15.71987120094983
 30
0.0
 11
-59.19434935619114
 21
15.71987120094983
 31
0.0
  0
LINE
  5
F4
102
{ACAD_REACTORS
330
1B7
330
1B8
102
}
330
47
100
AcDbEntity
  8
0
  6
Continuous
 62
     2
100
AcDbLine
 10
-57.85842152976346
 20
15.02185759550753
 30
0.0
 11
-57.85842152976346
 21
15.71987120094983
 31
0.0
  0
LINE
  5
F5
102
{ACAD_REACTORS
330
1B7
330
1B8
102
}
330
47
100
AcDbEntity
  8
0
  6
Continuous
 62
     2
100
AcDbLine
 10
-59.19434935619114
 20
15.02185759550753
 30
0.0
 11
-57.85842152976346
 21
15.02185759550753
 31
0.0
  0
LINE
  5
F6
102
{ACAD_REACTORS
330
1A5
330
1A6
102
}
330
47
100
AcDbEntity
  8
0
  6
Continuous
 62
     2
100
AcDbLine
 10
-62.67730404651806
 20
16.89776916013452
 30
0.0
 11
-62.67730404651806
 21
13.84395963632332
 31
0.0
  0
LINE
  5
F7
102
{ACAD_REACTORS
330
1A5
330
1A6
102
}
330
47
100
AcDbEntity
  8
0
  6
Continuous
 62
     2
100
AcDbLine
 10
-62.67730404651806
 20
13.84395963632332
 30
0.0
 11
-63.87009674868446
 21
13.84395963632332
 31
0.0
  0
LINE
  5
F8
102
{ACAD_REACTORS
330
1A5
330
1A6
102
}
330
47
100
AcDbEntity
  8
0
  6
Continuous
 62
     2
100
AcDbLine
 10
-63.87009674868446
 20
13.84395963632332
 30
0.0
 11
-63.87009674868446
 21
14.97823174516714
 31
0.0
  0
LINE
  5
F9
102
{ACAD_REACTORS
330
1A5
330
1A6
102
}
330
47
100
AcDbEntity
  8
0
  6
Continuous
 62
     2
100
AcDbLine
 10
-64.91975432659194
 20
13.84395963632332
 30
0.0
 11
-66.11254702875854
 21
13.84395963632332
 31
0.0
  0
LINE
  5
FA
102
{ACAD_REACTORS
330
1A5
330
1A6
102
}
330
47
100
AcDbEntity
  8
0
  6
Continuous
 62
     2
100
AcDbLine
 10
-66.11254702875854
 20
16.89776916013452
 30
0.0
 11
-64.91975432659194
 21
16.89776916013452
 31
0.0
  0
LINE
  5
FB
102
{ACAD_REACTORS
330
1A5
330
1A6
102
}
330
47
100
AcDbEntity
  8
0
  6
Continuous
 62
     2
100
AcDbLine
 10
-64.91975432659194
 20
16.89776916013452
 30
0.0
 11
-64.91975432659194
 21
15.82893582679992
 31
0.0
  0
LINE
  5
FC
102
{ACAD_REACTORS
330
1A5
330
1A6
102
}
330
47
100
AcDbEntity
  8
0
  6
Continuous
 62
     2
100
AcDbLine
 10
-64.91975432659194
 20
15.82893582679992
 30
0.0
 11
-63.87009674868446
 21
15.82893582679992
 31
0.0
  0
LINE
  5
FD
102
{ACAD_REACTORS
330
1B3
330
1B4
102
}
330
47
100
AcDbEntity
  8
0
  6
Continuous
 62
     2
100
AcDbLine
 10
-68.06872706031214
 20
16.23466331469442
 30
0.0
 11
-67.75143199877024
 21
16.23466331469442
 31
0.0
  0
LINE
  5
FE
102
{ACAD_REACTORS
330
1B3
330
1B4
102
}
330
47
100
AcDbEntity
  8
0
  6
Continuous
 62
     2
100
AcDbLine
 10
-68.06872706031214
 20
15.52893566535221
 30
0.0
 11
-67.75143199877024
 21
15.52893566535221
 31
0.0
  0
LINE
  5
FF
102
{ACAD_REACTORS
330
1B3
330
1B4
102
}
330
47
100
AcDbEntity
  8
0
  6
Continuous
 62
     2
100
AcDbLine
 10
-69.30923147056626
 20
16.89776916013452
 30
0.0
 11
-69.30923147056626
 21
13.84395963632332
 31
0.0
  0
LINE
  5
100
102
{ACAD_REACTORS
330
1B3
330
1B4
102
}
330
47
100
AcDbEntity
  8
0
  6
Continuous
 62
     2
100
AcDbLine
 10
-69.30923147056626
 20
16.89776916013452
 30
0.0
 11
-67.30995947253186
 21
16.89776916013452
 31
0.0
  0
LINE
  5
101
102
{ACAD_REACTORS
330
1B3
330
1B4
102
}
330
47
100
AcDbEntity
  8
0
  6
Continuous
 62
     2
100
AcDbLine
 10
-68.06872706031214
 20
14.78703787746713
 30
0.0
 11
-67.30995947253186
 21
14.78703787746713
 31
0.0
  0
LINE
  5
102
102
{ACAD_REACTORS
330
1B9
330
1BA
102
}
330
47
100
AcDbEntity
  8
0
  6
Continuous
 62
     2
100
AcDbLine
 10
-75.40572750386295
 20
15.86949668149973
 30
0.0
 11
-75.40572750386295
 21
11.51304163878262
 31
0.0
  0
LINE
  5
103
102
{ACAD_REACTORS
330
1B9
330
1BA
102
}
330
47
100
AcDbEntity
  8
0
  6
Continuous
 62
     2
100
AcDbLine
 10
-75.09001058078726
 20
16.18521360457592
 30
0.0
 11
-73.61417731977764
 21
16.18521360457592
 31
0.0
  0
LINE
  5
104
102
{ACAD_REACTORS
330
1B9
330
1BA
102
}
330
47
100
AcDbEntity
  8
0
  6
Continuous
 62
     2
100
AcDbLine
 10
-73.29846039670105
 20
15.26547206243922
 30
0.0
 11
-73.29846039670105
 21
15.86949668149973
 31
0.0
  0
LINE
  5
105
102
{ACAD_REACTORS
330
1B9
330
1BA
102
}
330
47
100
AcDbEntity
  8
0
  6
Continuous
 62
     2
100
AcDbLine
 10
-73.29846039670105
 20
11.51304163878262
 30
0.0
 11
-73.29846039670105
 21
13.04381257031423
 31
0.0
  0
LINE
  5
106
102
{ACAD_REACTORS
330
1B9
330
1BA
102
}
330
47
100
AcDbEntity
  8
0
  6
Continuous
 62
     2
100
AcDbLine
 10
-70.21059316681695
 20
10.48476916014903
 30
0.0
 11
-75.68390525753375
 21
10.48476916014903
 31
0.0
  0
LINE
  5
107
102
{ACAD_REACTORS
330
1B9
330
1BA
102
}
330
47
100
AcDbEntity
  8
0
  6
Continuous
 62
     2
100
AcDbLine
 10
-69.78634855143306
 20
16.47352454473253
 30
0.0
 11
-69.78634855143306
 21
10.90901377553232
 31
0.0
  0
LINE
  5
108
102
{ACAD_REACTORS
330
1B9
330
1BA
102
}
330
47
100
AcDbEntity
  8
0
  6
Continuous
 62
     2
100
AcDbLine
 10
-75.68390525753375
 20
16.89776916011633
 30
0.0
 11
-70.21059316681695
 21
16.89776916011633
 31
0.0
  0
LINE
  5
109
102
{ACAD_REACTORS
330
1B9
330
1BA
102
}
330
47
100
AcDbEntity
  8
0
  6
Continuous
 62
     2
100
AcDbLine
 10
-76.10814987291656
 20
16.47352454473253
 30
0.0
 11
-76.10814987291656
 21
10.90901377553232
 31
0.0
  0
LINE
  5
10A
102
{ACAD_REACTORS
330
1B9
330
1BA
102
}
330
47
100
AcDbEntity
  8
0
  6
Continuous
 62
     2
100
AcDbLine
 10
-73.61417731977764
 20
11.19732471570592
 30
0.0
 11
-75.09001058078726
 21
11.19732471570592
 31
0.0
  0
LINE
  5
10B
102
{ACAD_REACTORS
330
1B3
330
1B4
102
}
330
47
100
AcDbEntity
  8
0
  6
Continuous
 62
     2
100
AcDbLine
 10
-68.06872706031214
 20
13.84395963632332
 30
0.0
 11
-68.06872706031214
 21
14.78703787746713
 31
0.0
  0
LINE
  5
10C
102
{ACAD_REACTORS
330
1B3
330
1B4
102
}
330
47
100
AcDbEntity
  8
0
  6
Continuous
 62
     2
100
AcDbLine
 10
-69.30923147056626
 20
13.84395963632332
 30
0.0
 11
-68.06872706031214
 21
13.84395963632332
 31
0.0
  0
LINE
  5
10D
102
{ACAD_REACTORS
330
1B3
330
1B4
102
}
330
47
100
AcDbEntity
  8
0
  6
Continuous
 62
     2
100
AcDbLine
 10
-68.06872706031214
 20
15.52893566535221
 30
0.0
 11
-68.06872706031214
 21
16.23466331469442
 31
0.0
  0
LINE
  5
10E
102
{ACAD_REACTORS
330
1A5
330
1A6
102
}
330
47
100
AcDbEntity
  8
0
  6
Continuous
 62
     2
100
AcDbLine
 10
-66.11254702875854
 20
16.89776916013452
 30
0.0
 11
-66.11254702875854
 21
13.84395963632332
 31
0.0
  0
LINE
  5
10F
102
{ACAD_REACTORS
330
1A5
330
1A6
102
}
330
47
100
AcDbEntity
  8
0
  6
Continuous
 62
     2
100
AcDbLine
 10
-64.91975432659194
 20
14.97823174516714
 30
0.0
 11
-64.91975432659194
 21
13.84395963632332
 31
0.0
  0
LINE
  5
110
102
{ACAD_REACTORS
330
1A5
330
1A6
102
}
330
47
100
AcDbEntity
  8
0
  6
Continuous
 62
     2
100
AcDbLine
 10
-63.87009674868446
 20
14.97823174516714
 30
0.0
 11
-64.91975432659194
 21
14.97823174516714
 31
0.0
  0
LINE
  5
111
102
{ACAD_REACTORS
330
1A5
330
1A6
102
}
330
47
100
AcDbEntity
  8
0
  6
Continuous
 62
     2
100
AcDbLine
 10
-63.87009674868446
 20
16.89776916013452
 30
0.0
 11
-62.67730404651806
 21
16.89776916013452
 31
0.0
  0
LINE
  5
112
102
{ACAD_REACTORS
330
1A5
330
1A6
102
}
330
47
100
AcDbEntity
  8
0
  6
Continuous
 62
     2
100
AcDbLine
 10
-63.87009674868446
 20
15.82893582679992
 30
0.0
 11
-63.87009674868446
 21
16.89776916013452
 31
0.0
  0
LINE
  5
113
102
{ACAD_REACTORS
330
1B7
330
1B8
102
}
330
47
100
AcDbEntity
  8
0
  6
Continuous
 62
     2
100
AcDbLine
 10
-57.85842152976346
 20
16.19975555469154
 30
0.0
 11
-57.85842152976346
 21
16.89776916013452
 31
0.0
  0
LINE
  5
114
102
{ACAD_REACTORS
330
1B7
330
1B8
102
}
330
47
100
AcDbEntity
  8
0
  6
Continuous
 62
     2
100
AcDbLine
 10
-61.00874125354446
 20
16.89776916013452
 30
0.0
 11
-57.85842152976346
 21
16.89776916013452
 31
0.0
  0
LINE
  5
115
102
{ACAD_REACTORS
330
1B7
330
1B8
102
}
330
47
100
AcDbEntity
  8
0
  6
Continuous
 62
     2
100
AcDbLine
 10
-61.00874125354446
 20
13.84395963632332
 30
0.0
 11
-57.85842152976346
 21
13.84395963632332
 31
0.0
  0
LINE
  5
116
102
{ACAD_REACTORS
330
1B7
330
1B8
102
}
330
47
100
AcDbEntity
  8
0
  6
Continuous
 62
     2
100
AcDbLine
 10
-57.85842152976346
 20
13.84395963632332
 30
0.0
 11
-57.85842152976346
 21
14.54197324176582
 31
0.0
  0
LINE
  5
117
102
{ACAD_REACTORS
330
1B7
330
1B8
102
}
330
47
100
AcDbEntity
  8
0
  6
Continuous
 62
     2
100
AcDbLine
 10
-57.85842152976346
 20
14.54197324176582
 30
0.0
 11
-59.19434935619114
 21
14.54197324176582
 31
0.0
  0
LINE
  5
118
102
{ACAD_REACTORS
330
1B7
330
1B8
102
}
330
47
100
AcDbEntity
  8
0
  6
Continuous
 62
     2
100
AcDbLine
 10
-59.19434935619114
 20
14.54197324176582
 30
0.0
 11
-59.19434935619114
 21
15.02185759550753
 31
0.0
  0
LINE
  5
119
102
{ACAD_REACTORS
330
1B7
330
1B8
102
}
330
47
100
AcDbEntity
  8
0
  6
Continuous
 62
     2
100
AcDbLine
 10
-59.19434935619114
 20
16.19975555469154
 30
0.0
 11
-57.85842152976346
 21
16.19975555469154
 31
0.0
  0
LINE
  5
11A
102
{ACAD_REACTORS
330
1A7
330
1A8
102
}
330
47
100
AcDbEntity
  8
0
  6
Continuous
 62
     2
100
AcDbLine
 10
-61.67550910758266
 20
10.48476916014903
 30
0.0
 11
-61.67550910758266
 21
11.79354467035361
 31
0.0
  0
LINE
  5
11B
102
{ACAD_REACTORS
330
1A7
330
1A8
102
}
330
47
100
AcDbEntity
  8
0
  6
Continuous
 62
     2
100
AcDbLine
 10
-61.67550910758266
 20
11.79354467035361
 30
0.0
 11
-60.43500469732976
 21
10.48476916014903
 31
0.0
  0
LINE
  5
11C
102
{ACAD_REACTORS
330
1A7
330
1A8
102
}
330
47
100
AcDbEntity
  8
0
  6
Continuous
 62
     2
100
AcDbLine
 10
-59.24221199516336
 20
10.48476916014903
 30
0.0
 11
-59.24221199516336
 21
13.53857868396011
 31
0.0
  0
LINE
  5
11D
102
{ACAD_REACTORS
330
1A7
330
1A8
102
}
330
47
100
AcDbEntity
  8
0
  6
Continuous
 62
     2
100
AcDbLine
 10
-59.24221199516336
 20
13.53857868396011
 30
0.0
 11
-60.43500469732976
 21
13.53857868396011
 31
0.0
  0
LINE
  5
11E
102
{ACAD_REACTORS
330
1A7
330
1A8
102
}
330
47
100
AcDbEntity
  8
0
  6
Continuous
 62
     2
100
AcDbLine
 10
-60.43500469732976
 20
13.53857868396011
 30
0.0
 11
-60.43500469732976
 21
12.22980317375502
 31
0.0
  0
LINE
  5
11F
102
{ACAD_REACTORS
330
1A7
330
1A8
102
}
330
47
100
AcDbEntity
  8
0
  6
Continuous
 62
     2
100
AcDbLine
 10
-60.43500469732976
 20
12.22980317375502
 30
0.0
 11
-61.67550910758266
 21
13.53857868396011
 31
0.0
  0
LINE
  5
120
102
{ACAD_REACTORS
330
1A9
330
1AA
102
}
330
47
100
AcDbEntity
  8
0
  6
Continuous
 62
     2
100
AcDbLine
 10
-56.42707028716404
 20
15.15273514652802
 30
0.0
 11
-55.18656587691004
 21
13.84395963632332
 31
0.0
  0
LINE
  5
121
102
{ACAD_REACTORS
330
1A9
330
1AA
102
}
330
47
100
AcDbEntity
  8
0
  6
Continuous
 62
     2
100
AcDbLine
 10
-55.18656587691004
 20
13.84395963632332
 30
0.0
 11
-53.99377317474344
 21
13.84395963632332
 31
0.0
  0
LINE
  5
122
102
{ACAD_REACTORS
330
1A9
330
1AA
102
}
330
47
100
AcDbEntity
  8
0
  6
Continuous
 62
     2
100
AcDbLine
 10
-53.99377317474344
 20
13.84395963632332
 30
0.0
 11
-53.99377317474344
 21
16.89776916013452
 31
0.0
  0
LINE
  5
123
102
{ACAD_REACTORS
330
1A9
330
1AA
102
}
330
47
100
AcDbEntity
  8
0
  6
Continuous
 62
     2
100
AcDbLine
 10
-53.99377317474344
 20
16.89776916013452
 30
0.0
 11
-55.18656587691004
 21
16.89776916013452
 31
0.0
  0
LINE
  5
124
102
{ACAD_REACTORS
330
1A9
330
1AA
102
}
330
47
100
AcDbEntity
  8
0
  6
Continuous
 62
     2
100
AcDbLine
 10
-55.18656587691004
 20
15.58899364992934
 30
0.0
 11
-56.42707028716404
 21
16.89776916013452
 31
0.0
  0
LINE
  5
125
102
{ACAD_REACTORS
330
1A9
330
1AA
102
}
330
47
100
AcDbEntity
  8
0
  6
Continuous
 62
     2
100
AcDbLine
 10
-57.61986298933056
 20
13.84395963632332
 30
0.0
 11
-56.42707028716404
 21
13.84395963632332
 31
0.0
  0
LINE
  5
126
102
{ACAD_REACTORS
330
1AB
330
1AC
102
}
330
47
100
AcDbEntity
  8
0
  6
Continuous
 62
     2
100
AcDbLine
 10
-59.09907687090316
 20
13.53857868396011
 30
0.0
 11
-59.09907687090316
 21
12.75331337783652
 31
0.0
  0
LINE
  5
127
102
{ACAD_REACTORS
330
1AB
330
1AC
102
}
330
47
100
AcDbEntity
  8
0
  6
Continuous
 62
     2
100
AcDbLine
 10
-58.28797783342856
 20
12.75331337783652
 30
0.0
 11
-58.28797783342856
 21
10.48476916014903
 31
0.0
  0
LINE
  5
128
102
{ACAD_REACTORS
330
1AB
330
1AC
102
}
330
47
100
AcDbEntity
  8
0
  6
Continuous
 62
     2
100
AcDbLine
 10
-58.28797783342856
 20
10.48476916014903
 30
0.0
 11
-57.09518513126204
 21
10.48476916014903
 31
0.0
  0
LINE
  5
129
102
{ACAD_REACTORS
330
1AD
330
1AE
102
}
330
47
100
AcDbEntity
  8
0
  6
Continuous
 62
     2
100
AcDbLine
 10
-54.14565863784256
 20
10.48476916014903
 30
0.0
 11
-54.35713869131834
 21
11.02572970436691
 31
0.0
  0
LINE
  5
12A
102
{ACAD_REACTORS
330
1AD
330
1AE
102
}
330
47
100
AcDbEntity
  8
0
  6
Continuous
 62
     2
100
AcDbLine
 10
-54.30310727452894
 20
13.53857868396011
 30
0.0
 11
-52.90515422758864
 21
10.48476916014903
 31
0.0
  0
LINE
  5
12B
102
{ACAD_REACTORS
330
1AD
330
1AE
102
}
330
47
100
AcDbEntity
  8
0
  6
Continuous
 62
     2
100
AcDbLine
 10
-55.54361168478164
 20
13.53857868396011
 30
0.0
 11
-54.30310727452894
 21
13.53857868396011
 31
0.0
  0
LINE
  5
12C
102
{ACAD_REACTORS
330
1AD
330
1AE
102
}
330
47
100
AcDbEntity
  8
0
  6
Continuous
 62
     2
100
AcDbLine
 10
-56.94156473172095
 20
10.48476916014903
 30
0.0
 11
-55.70106032146796
 21
10.48476916014903
 31
0.0
  0
LINE
  5
12D
102
{ACAD_REACTORS
330
1AD
330
1AE
102
}
330
47
100
AcDbEntity
  8
0
  6
Continuous
 62
     2
100
AcDbLine
 10
-55.22352471684715
 20
11.70629296967351
 30
0.0
 11
-54.62319424246465
 21
11.70629296967351
 31
0.0
  0
LINE
  5
12E
102
{ACAD_REACTORS
330
1AD
330
1AE
102
}
330
47
100
AcDbEntity
  8
0
  6
Continuous
 62
     2
100
AcDbLine
 10
-54.62319424246465
 20
11.70629296967351
 30
0.0
 11
-54.92335947965475
 21
12.47410793566021
 31
0.0
  0
LINE
  5
12F
102
{ACAD_REACTORS
330
1AF
330
1B0
102
}
330
47
100
AcDbEntity
  8
0
  6
Continuous
 62
     2
100
AcDbLine
 10
-52.51471022405664
 20
13.84395963632332
 30
0.0
 11
-53.75521463430954
 21
13.84395963632332
 31
0.0
  0
LINE
  5
130
102
{ACAD_REACTORS
330
1B1
330
1B2
102
}
330
47
100
AcDbEntity
  8
0
  6
Continuous
 62
     2
100
AcDbLine
 10
-50.99270673609155
 20
13.84395963632332
 30
0.0
 11
-52.39543095383976
 21
13.84395963632332
 31
0.0
  0
LINE
  5
131
102
{ACAD_REACTORS
330
1B1
330
1B2
102
}
330
47
100
AcDbEntity
  8
0
  6
Continuous
 62
     2
100
AcDbLine
 10
-50.99270673609155
 20
13.84395963632332
 30
0.0
 11
-50.29611579802585
 21
14.63169142161704
 31
0.0
  0
LINE
  5
132
102
{ACAD_REACTORS
330
1B1
330
1B2
102
}
330
47
100
AcDbEntity
  8
0
  6
Continuous
 62
     2
100
AcDbLine
 10
-49.69494827613306
 20
16.89776916013452
 30
0.0
 11
-48.29222405838584
 21
16.89776916013452
 31
0.0
  0
LINE
  5
133
102
{ACAD_REACTORS
330
1B1
330
1B2
102
}
330
47
100
AcDbEntity
  8
0
  6
Continuous
 62
     2
100
AcDbLine
 10
-52.30000753766694
 20
16.89776916013452
 30
0.0
 11
-50.99747790689946
 21
15.42481863009832
 31
0.0
  0
LINE
  5
134
102
{ACAD_REACTORS
330
1B1
330
1B2
102
}
330
47
100
AcDbEntity
  8
0
  6
Continuous
 62
     2
100
AcDbLine
 10
-52.39543095383976
 20
13.84395963632332
 30
0.0
 11
-50.99747790689946
 21
15.42481863009832
 31
0.0
  0
LINE
  5
135
102
{ACAD_REACTORS
330
1BB
330
1BC
102
}
330
47
100
AcDbEntity
  8
0
  6
Continuous
 62
     2
100
AcDbLine
 10
-50.53467433845984
 20
11.53178956831263
 30
0.0
 11
-50.53467433845984
 21
10.65927256150931
 31
0.0
  0
LINE
  5
136
102
{ACAD_REACTORS
330
1BB
330
1BC
102
}
330
47
100
AcDbEntity
  8
0
  6
Continuous
 62
     2
100
AcDbLine
 10
-51.30433168142125
 20
12.75331337783652
 30
0.0
 11
-50.20069238185315
 21
12.75331337783652
 31
0.0
  0
LINE
  5
137
102
{ACAD_REACTORS
330
1BD
330
1BE
102
}
330
47
100
AcDbEntity
  8
0
  6
Continuous
 62
     2
100
AcDbLine
 10
-66.63737581771176
 20
11.53178956831312
 30
0.0
 11
-66.63737581771176
 21
10.65927256150991
 31
0.0
  0
LINE
  5
138
102
{ACAD_REACTORS
330
1BD
330
1BE
102
}
330
47
100
AcDbEntity
  8
0
  6
Continuous
 62
     2
100
AcDbLine
 10
-66.63737581771176
 20
12.49155827579602
 30
0.0
 11
-66.63737581771176
 21
13.36407528259932
 31
0.0
  0
LINE
  5
139
330
47
100
AcDbEntity
  8
1
  6
Continuous
 62
     7
100
AcDbLine
 10
49.19999976727215
 20
11.69126916013272
 30
0.0
 11
-43.94480475947924
 21
11.69126916013272
 31
0.0
  0
LINE
  5
13A
330
47
100
AcDbEntity
  8
1
  6
Continuous
 62
     6
100
AcDbLine
 10
-149.3448047594791
 20
3.19126916013272
 30
0.0
 11
-194.3000002327291
 21
3.19126916013272
 31
0.0
  0
LINE
  5
13B
330
47
100
AcDbEntity
  8
1
  6
Continuous
 62
     7
100
AcDbLine
 10
40.28159148559334
 20
28.69126916013272
 30
0.0
 11
40.28159148559334
 21
20.19126916013272
 31
0.0
  0
LINE
  5
13C
330
47
100
AcDbEntity
  8
1
  6
Continuous
 62
     7
100
AcDbLine
 10
13.78159148559374
 20
28.69126916013272
 30
0.0
 11
13.78159148559374
 21
20.19126916013272
 31
0.0
  0
LINE
  5
13D
330
47
100
AcDbEntity
  8
1
  6
Continuous
 62
     7
100
AcDbLine
 10
-43.94480475947924
 20
20.19126916013272
 30
0.0
 11
-43.94480475947924
 21
28.69126916013272
 31
0.0
  0
LINE
  5
13E
330
47
100
AcDbEntity
  8
1
  6
Continuous
 62
     7
100
AcDbLine
 10
-80.34480475947916
 20
20.19126916013272
 30
0.0
 11
-80.34480475947916
 21
28.69126916013272
 31
0.0
  0
LINE
  5
13F
330
47
100
AcDbEntity
  8
1
  6
Continuous
 62
     6
100
AcDbLine
 10
-43.94480475947924
 20
20.19126916013272
 30
0.0
 11
49.19999976727254
 21
20.19126916013272
 31
0.0
  0
LINE
  5
140
330
47
100
AcDbEntity
  8
1
  6
Continuous
 62
     7
100
AcDbLine
 10
-16.04480475947915
 20
11.69126916013263
 30
0.0
 11
-16.04480475947915
 21
20.19126916013272
 31
0.0
  0
LINE
  5
141
330
47
100
AcDbEntity
  8
1
  6
PHANTOM
 62
     2
100
AcDbLine
 10
-64.85814987291656
 20
24.31626916013263
 30
0.0
 11
-70.35814987291656
 21
24.31626916013263
 31
0.0
  0
LINE
  5
142
330
47
100
AcDbEntity
  8
1
  6
PHANTOM
 62
     2
100
AcDbLine
 10
-67.60814987291656
 20
27.06626916013263
 30
0.0
 11
-67.60814987291656
 21
21.56626916013263
 31
0.0
  0
LINE
  5
143
330
47
100
AcDbEntity
  8
1
  6
DOT_CENTER
 62
     2
100
AcDbLine
 10
-76.35814987291656
 20
24.31626916013263
 30
0.0
 11
-70.85814987291656
 21
24.31626916013263
 31
0.0
  0
ARC
  5
144
102
{ACAD_REACTORS
330
1BD
330
1BE
102
}
330
47
100
AcDbEntity
  8
0
  6
Continuous
 62
     2
100
AcDbCircle
 10
-67.97330373482956
 20
8.69899297679842
 30
0.0
 40
4.852596863498071
100
AcDbArc
 50
74.02000874164739
 51
84.84185523037506
  0
ARC
  5
145
102
{ACAD_REACTORS
330
1BD
330
1BE
102
}
330
47
100
AcDbEntity
  8
0
  6
Continuous
 62
     2
100
AcDbCircle
 10
-67.39726312607584
 20
11.85475333268272
 30
0.0
 40
0.9059297849853228
100
AcDbArc
 50
71.55192388185348
 51
113.372277888129
  0
ARC
  5
146
102
{ACAD_REACTORS
330
1BD
330
1BE
102
}
330
47
100
AcDbEntity
  8
0
  6
Continuous
 62
     2
100
AcDbCircle
 10
-67.55370315877786
 20
11.80660249271583
 30
0.0
 40
0.5115800601948034
100
AcDbArc
 50
208.5214732576956
 51
246.6277221118276
  0
ARC
  5
147
102
{ACAD_REACTORS
330
1BD
330
1BE
102
}
330
47
100
AcDbEntity
  8
0
  6
Continuous
 62
     2
100
AcDbCircle
 10
-67.39726312607584
 20
12.16859451142582
 30
0.0
 40
0.905929784984916
100
AcDbArc
 50
246.6277221118709
 51
288.4480761181586
  0
ARC
  5
148
102
{ACAD_REACTORS
330
1BD
330
1BE
102
}
330
47
100
AcDbEntity
  8
0
  6
Continuous
 62
     2
100
AcDbCircle
 10
-67.81543085973664
 20
13.42214028746301
 30
0.0
 40
2.227384008972739
100
AcDbArc
 50
288.4480761181328
 51
301.9309089499593
  0
ARC
  5
149
102
{ACAD_REACTORS
330
1B9
330
1BA
102
}
330
47
100
AcDbEntity
  8
0
  6
Continuous
 62
     2
100
AcDbCircle
 10
-73.04050459234344
 20
14.15464231637702
 30
0.0
 40
0.9118481501444573
100
AcDbArc
 50
295.3740086781765
 51
64.62599132180762
  0
ARC
  5
14A
102
{ACAD_REACTORS
330
1B9
330
1BA
102
}
330
47
100
AcDbEntity
  8
0
  6
Continuous
 62
     2
100
AcDbCircle
 10
-72.51446189425556
 20
15.86931920485162
 30
0.0
 40
0.3157169230760729
100
AcDbArc
 50
90.18896704254594
 51
180.0
  0
ARC
  5
14B
102
{ACAD_REACTORS
330
1BB
330
1BC
102
}
330
47
100
AcDbEntity
  8
0
  6
Continuous
 62
     2
100
AcDbCircle
 10
-51.30433168142125
 20
11.79879037101043
 30
0.0
 40
0.9545230068260899
100
AcDbArc
 50
90.0
 51
109.337143219432
  0
ARC
  5
14C
102
{ACAD_REACTORS
330
1BB
330
1BC
102
}
330
47
100
AcDbEntity
  8
0
  6
Continuous
 62
     2
100
AcDbCircle
 10
-51.07364442144356
 20
12.01167392205431
 30
0.0
 40
0.9410597353348958
100
AcDbArc
 50
151.478526742362
 51
208.5214732576695
  0
ARC
  5
14D
102
{ACAD_REACTORS
330
1BB
330
1BC
102
}
330
47
100
AcDbEntity
  8
0
  6
Continuous
 62
     2
100
AcDbCircle
 10
-51.29456164682185
 20
12.16859451142582
 30
0.0
 40
0.9059297849852768
100
AcDbArc
 50
246.6277221118181
 51
288.4480761180818
  0
ARC
  5
14E
102
{ACAD_REACTORS
330
1BB
330
1BC
102
}
330
47
100
AcDbEntity
  8
0
  6
Continuous
 62
     2
100
AcDbCircle
 10
-51.71272938048375
 20
13.42214028746241
 30
0.0
 40
2.227384008972746
100
AcDbArc
 50
288.4480761181335
 51
301.9309089499397
  0
ARC
  5
14F
102
{ACAD_REACTORS
330
1BB
330
1BC
102
}
330
47
100
AcDbEntity
  8
0
  6
Continuous
 62
     2
100
AcDbCircle
 10
-51.87060225557656
 20
15.32435486731072
 30
0.0
 40
4.852596863498825
100
AcDbArc
 50
275.1581447696364
 51
285.9799912583387
  0
ARC
  5
150
102
{ACAD_REACTORS
330
1BB
330
1BC
102
}
330
47
100
AcDbEntity
  8
0
  6
Continuous
 62
     2
100
AcDbCircle
 10
-51.58174616084074
 20
12.12446428408913
 30
0.0
 40
1.639695123940449
100
AcDbArc
 50
195.0618917771013
 51
275.1581447696762
  0
ARC
  5
151
102
{ACAD_REACTORS
330
1B3
330
1B4
102
}
330
47
100
AcDbEntity
  8
0
  6
Continuous
 62
     2
100
AcDbCircle
 10
-67.30995947253186
 20
15.84240351880084
 30
0.0
 40
1.05536564133371
100
AcDbArc
 50
270.0
 51
90.0
  0
ARC
  5
152
102
{ACAD_REACTORS
330
1B9
330
1BA
102
}
330
47
100
AcDbEntity
  8
0
  6
Continuous
 62
     2
100
AcDbCircle
 10
-75.09001058078726
 20
11.51304163878262
 30
0.0
 40
0.3157169230756836
100
AcDbArc
 50
180.0
 51
270.0
  0
ARC
  5
153
102
{ACAD_REACTORS
330
1B9
330
1BA
102
}
330
47
100
AcDbEntity
  8
0
  6
Continuous
 62
     2
100
AcDbCircle
 10
-73.61417731977764
 20
15.86949668149973
 30
0.0
 40
0.315716923076593
100
AcDbArc
 50
0.0
 51
90.0
  0
ARC
  5
154
102
{ACAD_REACTORS
330
1B9
330
1BA
102
}
330
47
100
AcDbEntity
  8
0
  6
Continuous
 62
     2
100
AcDbCircle
 10
-73.61417731977764
 20
15.26547206243922
 30
0.0
 40
0.3157169230761203
100
AcDbArc
 50
295.1944106485397
 51
0.0
  0
ARC
  5
155
102
{ACAD_REACTORS
330
1B9
330
1BA
102
}
330
47
100
AcDbEntity
  8
0
  6
Continuous
 62
     2
100
AcDbCircle
 10
-73.61417731977764
 20
11.51304163878262
 30
0.0
 40
0.3157169230767014
100
AcDbArc
 50
270.0
 51
0.0
  0
ARC
  5
156
102
{ACAD_REACTORS
330
1B9
330
1BA
102
}
330
47
100
AcDbEntity
  8
0
  6
Continuous
 62
     2
100
AcDbCircle
 10
-75.68390525753375
 20
16.47352454473253
 30
0.0
 40
0.4242446153837989
100
AcDbArc
 50
90.0
 51
180.0
  0
ARC
  5
157
102
{ACAD_REACTORS
330
1B9
330
1BA
102
}
330
47
100
AcDbEntity
  8
0
  6
Continuous
 62
     2
100
AcDbCircle
 10
-70.21059316681695
 20
16.47352454473253
 30
0.0
 40
0.4242446153838841
100
AcDbArc
 50
0.0
 51
90.0
  0
ARC
  5
158
102
{ACAD_REACTORS
330
1B9
330
1BA
102
}
330
47
100
AcDbEntity
  8
0
  6
Continuous
 62
     2
100
AcDbCircle
 10
-70.21059316681695
 20
10.90901377553232
 30
0.0
 40
0.4242446153832908
100
AcDbArc
 50
270.0
 51
0.0
  0
ARC
  5
159
102
{ACAD_REACTORS
330
1B7
330
1B8
102
}
330
47
100
AcDbEntity
  8
0
  6
Continuous
 62
     2
100
AcDbCircle
 10
-60.99220927972544
 20
15.37086439822863
 30
0.0
 40
0.7717997786796296
100
AcDbArc
 50
321.8795802028436
 51
38.12041979715989
  0
ARC
  5
15A
102
{ACAD_REACTORS
330
1B7
330
1B8
102
}
330
47
100
AcDbEntity
  8
0
  6
Continuous
 62
     2
100
AcDbCircle
 10
-60.79246924337926
 20
15.21413322010821
 30
0.0
 40
0.5179085730134372
100
AcDbArc
 50
218.1204197971511
 51
321.8795802028566
  0
ARC
  5
15B
102
{ACAD_REACTORS
330
1B5
330
1B6
102
}
330
47
100
AcDbEntity
  8
0
  6
Continuous
 62
     2
100
AcDbCircle
 10
-64.47247683233945
 20
12.01167392205431
 30
0.0
 40
1.458034083651992
100
AcDbArc
 50
297.5481481757009
 51
62.4518518242992
  0
ARC
  5
15C
102
{ACAD_REACTORS
330
1B5
330
1B6
102
}
330
47
100
AcDbEntity
  8
0
  6
Continuous
 62
     2
100
AcDbCircle
 10
-65.03435661600605
 20
12.01167392205431
 30
0.0
 40
1.45803408365149
100
AcDbArc
 50
117.5481481756624
 51
242.4518518243374
  0
ARC
  5
15D
102
{ACAD_REACTORS
330
1B5
330
1B6
102
}
330
47
100
AcDbEntity
  8
0
  6
Continuous
 62
     2
100
AcDbCircle
 10
-64.75341672417275
 20
11.47309891175152
 30
0.0
 40
2.065479772208561
100
AcDbArc
 50
62.45185182430649
 51
117.5481481756664
  0
ARC
  5
15E
102
{ACAD_REACTORS
330
1B5
330
1B6
102
}
330
47
100
AcDbEntity
  8
0
  6
Continuous
 62
     2
100
AcDbCircle
 10
-64.75341672417275
 20
12.55024893235762
 30
0.0
 40
2.065479772208505
100
AcDbArc
 50
242.4518518243401
 51
297.5481481756869
  0
ARC
  5
15F
102
{ACAD_REACTORS
330
1B7
330
1B8
102
}
330
47
100
AcDbEntity
  8
0
  6
Continuous
 62
     2
100
AcDbCircle
 10
-60.59272920703296
 20
15.37086439822863
 30
0.0
 40
0.7717997786796724
100
AcDbArc
 50
141.8795802028404
 51
218.120419797156
  0
ARC
  5
160
102
{ACAD_REACTORS
330
1B7
330
1B8
102
}
330
47
100
AcDbEntity
  8
0
  6
Continuous
 62
     2
100
AcDbCircle
 10
-60.79246924337926
 20
15.52759557634911
 30
0.0
 40
0.5179085730135266
100
AcDbArc
 50
38.12041979714334
 51
141.8795802028489
  0
ARC
  5
161
102
{ACAD_REACTORS
330
1B9
330
1BA
102
}
330
47
100
AcDbEntity
  8
0
  6
Continuous
 62
     2
100
AcDbCircle
 10
-75.68390525753375
 20
10.90901377553232
 30
0.0
 40
0.4242446153828041
100
AcDbArc
 50
180.0
 51
270.0
  0
ARC
  5
162
102
{ACAD_REACTORS
330
1B9
330
1BA
102
}
330
47
100
AcDbEntity
  8
0
  6
Continuous
 62
     2
100
AcDbCircle
 10
-73.61417731977764
 20
13.04381257031423
 30
0.0
 40
0.315716923076593
100
AcDbArc
 50
0.0
 51
64.80558935146027
  0
ARC
  5
163
102
{ACAD_REACTORS
330
1B9
330
1BA
102
}
330
47
100
AcDbEntity
  8
0
  6
Continuous
 62
     2
100
AcDbCircle
 10
-73.09159287220265
 20
14.15464231637702
 30
0.0
 40
0.911897523557621
100
AcDbArc
 50
115.194410648528
 51
244.8055893514877
  0
ARC
  5
164
102
{ACAD_REACTORS
330
1B9
330
1BA
102
}
330
47
100
AcDbEntity
  8
0
  6
Continuous
 62
     2
100
AcDbCircle
 10
-75.09001058078726
 20
15.86949668149973
 30
0.0
 40
0.3157169230761916
100
AcDbArc
 50
90.0
 51
180.0
  0
ARC
  5
165
102
{ACAD_REACTORS
330
1B3
330
1B4
102
}
330
47
100
AcDbEntity
  8
0
  6
Continuous
 62
     2
100
AcDbCircle
 10
-67.75143199877024
 20
15.88179949002333
 30
0.0
 40
0.35286382467112
100
AcDbArc
 50
270.0
 51
90.0
  0
ARC
  5
166
102
{ACAD_REACTORS
330
1B7
330
1B8
102
}
330
47
100
AcDbEntity
  8
0
  6
Continuous
 62
     2
100
AcDbCircle
 10
-61.00874125354446
 20
15.37086439822863
 30
0.0
 40
1.52690476190589
100
AcDbArc
 50
90.0
 51
270.0
  0
ARC
  5
167
102
{ACAD_REACTORS
330
1BB
330
1BC
102
}
330
47
100
AcDbEntity
  8
0
  6
Continuous
 62
     2
100
AcDbCircle
 10
-51.58174616084074
 20
11.89888356001941
 30
0.0
 40
1.63969512394022
100
AcDbArc
 50
90.0
 51
164.9381082228947
  0
ARC
  5
168
102
{ACAD_REACTORS
330
1BB
330
1BC
102
}
330
47
100
AcDbEntity
  8
0
  6
Continuous
 62
     2
100
AcDbCircle
 10
-52.00087400430235
 20
12.01167392205431
 30
0.0
 40
1.205656168393004
100
AcDbArc
 50
164.9381082229025
 51
195.0618917770958
  0
ARC
  5
169
102
{ACAD_REACTORS
330
1BB
330
1BC
102
}
330
47
100
AcDbEntity
  8
0
  6
Continuous
 62
     2
100
AcDbCircle
 10
-51.45100167952495
 20
11.80660249271583
 30
0.0
 40
0.5115800601960259
100
AcDbArc
 50
208.5214732576875
 51
246.6277221118451
  0
ARC
  5
16A
102
{ACAD_REACTORS
330
1BB
330
1BC
102
}
330
47
100
AcDbEntity
  8
0
  6
Continuous
 62
     2
100
AcDbCircle
 10
-51.45100167952495
 20
12.21674535139331
 30
0.0
 40
0.5115800601944217
100
AcDbArc
 50
109.3371432194858
 51
151.4785267424218
  0
ARC
  5
16B
102
{ACAD_REACTORS
330
1B9
330
1BA
102
}
330
47
100
AcDbEntity
  8
0
  6
Continuous
 62
     2
100
AcDbCircle
 10
-72.51446189425556
 20
12.46364930971353
 30
0.0
 40
0.315716923076792
100
AcDbArc
 50
180.0
 51
269.8110329574542
  0
ARC
  5
16C
102
{ACAD_REACTORS
330
1B9
330
1BA
102
}
330
47
100
AcDbEntity
  8
0
  6
Continuous
 62
     2
100
AcDbCircle
 10
-72.50884575894554
 20
14.16648425728252
 30
0.0
 40
2.018561131933266
100
AcDbArc
 50
269.8110329575858
 51
90.18896704241416
  0
ARC
  5
16D
102
{ACAD_REACTORS
330
1B9
330
1BA
102
}
330
47
100
AcDbEntity
  8
0
  6
Continuous
 62
     2
100
AcDbCircle
 10
-72.51446189425556
 20
15.26378391634484
 30
0.0
 40
0.315716923076792
100
AcDbArc
 50
180.0
 51
244.6259913216483
  0
ARC
  5
16E
102
{ACAD_REACTORS
330
1B9
330
1BA
102
}
330
47
100
AcDbEntity
  8
0
  6
Continuous
 62
     2
100
AcDbCircle
 10
-72.51446189425556
 20
13.04550071640861
 30
0.0
 40
0.3157169230765344
100
AcDbArc
 50
115.3740086783517
 51
180.0
  0
ARC
  5
16F
102
{ACAD_REACTORS
330
1BD
330
1BE
102
}
330
47
100
AcDbEntity
  8
0
  6
Continuous
 62
     2
100
AcDbCircle
 10
-67.68444764009365
 20
11.89888356001941
 30
0.0
 40
1.639695123940516
100
AcDbArc
 50
84.84185523036238
 51
164.9381082228862
  0
ARC
  5
170
102
{ACAD_REACTORS
330
1BD
330
1BE
102
}
330
47
100
AcDbEntity
  8
0
  6
Continuous
 62
     2
100
AcDbCircle
 10
-68.10357548355645
 20
12.01167392205431
 30
0.0
 40
1.205656168390946
100
AcDbArc
 50
164.9381082228761
 51
195.0618917770945
  0
ARC
  5
171
102
{ACAD_REACTORS
330
1BD
330
1BE
102
}
330
47
100
AcDbEntity
  8
0
  6
Continuous
 62
     2
100
AcDbCircle
 10
-67.68444764009365
 20
12.12446428408913
 30
0.0
 40
1.639695123939387
100
AcDbArc
 50
195.0618917770895
 51
275.1581447696395
  0
ARC
  5
172
102
{ACAD_REACTORS
330
1BD
330
1BE
102
}
330
47
100
AcDbEntity
  8
0
  6
Continuous
 62
     2
100
AcDbCircle
 10
-67.97330373482956
 20
15.32435486731072
 30
0.0
 40
4.852596863498145
100
AcDbArc
 50
275.1581447696249
 51
285.9799912583529
  0
ARC
  5
173
102
{ACAD_REACTORS
330
1BD
330
1BE
102
}
330
47
100
AcDbEntity
  8
0
  6
Continuous
 62
     2
100
AcDbCircle
 10
-67.17634590069756
 20
12.01167392205431
 30
0.0
 40
0.9410597353332545
100
AcDbArc
 50
151.4785267422669
 51
208.5214732577053
  0
ARC
  5
174
102
{ACAD_REACTORS
330
1BD
330
1BE
102
}
330
47
100
AcDbEntity
  8
0
  6
Continuous
 62
     2
100
AcDbCircle
 10
-67.55370315877786
 20
12.21674535139331
 30
0.0
 40
0.5115800601948796
100
AcDbArc
 50
113.3722778881991
 51
151.4785267423044
  0
ARC
  5
175
102
{ACAD_REACTORS
330
1BD
330
1BE
102
}
330
47
100
AcDbEntity
  8
0
  6
Continuous
 62
     2
100
AcDbCircle
 10
-67.81543085973664
 20
10.60120755664613
 30
0.0
 40
2.227384008973474
100
AcDbArc
 50
58.06909105004068
 51
71.55192388186722
  0
ARC
  5
176
102
{ACAD_REACTORS
330
1B5
330
1B6
102
}
330
47
100
AcDbEntity
  8
0
  6
Continuous
 62
     2
100
AcDbCircle
 10
-64.75341672417275
 20
12.16840510017482
 30
0.0
 40
0.5179085730133032
100
AcDbArc
 50
38.1204197971475
 51
141.8795802028583
  0
ARC
  5
177
102
{ACAD_REACTORS
330
1B5
330
1B6
102
}
330
47
100
AcDbEntity
  8
0
  6
Continuous
 62
     2
100
AcDbCircle
 10
-64.55367668782665
 20
12.01167392205431
 30
0.0
 40
0.7717997786794665
100
AcDbArc
 50
141.879580202836
 51
218.1204197971687
  0
ARC
  5
178
102
{ACAD_REACTORS
330
1B5
330
1B6
102
}
330
47
100
AcDbEntity
  8
0
  6
Continuous
 62
     2
100
AcDbCircle
 10
-64.75341672417275
 20
11.85494274393432
 30
0.0
 40
0.5179085730137397
100
AcDbArc
 50
218.1204197971938
 51
321.8795802028004
  0
ARC
  5
179
102
{ACAD_REACTORS
330
1B5
330
1B6
102
}
330
47
100
AcDbEntity
  8
0
  6
Continuous
 62
     2
100
AcDbCircle
 10
-64.95315676051916
 20
12.01167392205431
 30
0.0
 40
0.7717997786796947
100
AcDbArc
 50
321.8795802028417
 51
38.12041979715359
  0
CIRCLE
  5
17A
330
47
100
AcDbEntity
  8
1
  6
Continuous
 62
     2
100
AcDbCircle
 10
-67.60814987291656
 20
24.31626916013263
 30
0.0
 40
2.5
  0
CIRCLE
  5
17B
330
47
100
AcDbEntity
  8
1
  6
Continuous
 62
     2
100
AcDbCircle
 10
-67.60814987291656
 20
24.31626916013263
 30
0.0
 40
1.249999999999915
  0
CIRCLE
  5
17C
102
{ACAD_REACTORS
330
1B9
330
1BA
102
}
330
47
100
AcDbEntity
  8
0
  6
Continuous
 62
     2
100
AcDbCircle
 10
-73.06431960701624
 20
14.15464231637702
 30
0.0
 40
0.4709789327785074
  0
MTEXT
  5
17E
330
47
100
AcDbEntity
  8
1
 62
     3
100
AcDbMText
 10
-237.7949324466574
 20
189.9825773154315
 30
0.0
 40
1.8
 41
0.0
 71
     7
 72
     1
  3
Weitergabe sowie Vervielf\U+00e4ltigung dieses Dokuments, Verwertung und \PMitteilung seines Inhalts sind verboten, soweit nicht ausdr\U+00fccklich gestattet. \PZuwiderhandlungen verpflichten zu Schadenersatz. Alle Rechte f\U+00fcr den Fall\Pder Pat
  1
ent-, Gebrauchsmuster- oder Designeintragung vorbehalten.
  7
CONVERTER_11
 73
     1
 44
0.99639855942377
  0
MTEXT
  5
17F
330
47
100
AcDbEntity
  8
1
 62
     3
100
AcDbMText
 10
-54.94182260786926
 20
189.9825773154315
 30
0.0
 40
1.8
 41
0.0
 71
     7
 72
     1
  3
Transfer or duplication of this document as well as the utilisation or\Pcommunication of its content are not permitted unless express consent\Pis granted. Violations give rise to claims for damages. All rights reserved\Pin case of patent, utility mo
  1
del or design patent registrations.
  7
CONVERTER_11
 73
     1
 44
0.99639855942377
  0
TEXT
  5
180
330
47
100
AcDbEntity
  8
1
 62
     2
100
AcDbText
 10
-61.14480475947934
 20
4.4322519451411
 30
0.0
 40
1.8
  1
of
 41
0.9
  7
CONVERTER_11
100
AcDbText
  0
TEXT
  5
181
330
47
100
AcDbEntity
  8
1
 62
     2
100
AcDbText
 10
-79.34480475947916
 20
4.43225194514105
 30
0.0
 40
1.8
  1
page
 41
0.9
  7
CONVERTER_11
100
AcDbText
  0
TEXT
  5
182
330
47
100
AcDbEntity
  8
1
 62
     2
100
AcDbText
 10
-70.69853978913716
 20
4.39202050633071
 30
0.0
 40
1.8
  1
1
 41
0.9
  7
CONVERTER_11
100
AcDbText
  0
TEXT
  5
183
330
47
100
AcDbEntity
  8
1
 62
     2
100
AcDbText
 10
-55.90949594966565
 20
4.44126916013261
 30
0.0
 40
1.8
  1
1
 41
0.9
  7
CONVERTER_11
100
AcDbText
  0
MTEXT
  5
185
330
47
100
AcDbEntity
  8
1
 62
     7
100
AcDbMText
 10
2.62759750389634
 20
6.44126916013295
 30
0.0
 40
3.0
 41
0.0
 71
     5
 72
     1
  1
RBO 6-F
  7
CONVERTER_12
 73
     1
 44
1.20048019207683
  0
MTEXT
  5
186
330
47
100
AcDbEntity
  8
1
 62
     2
100
AcDbMText
 10
-42.94480475947924
 20
10.69126916013272
 30
0.0
 40
1.8
 41
0.0
 71
     1
 72
     1
  1
description
  7
CONVERTER_11
 73
     1
 44
1.20048019207683
  0
MTEXT
  5
187
330
47
100
AcDbEntity
  8
1
 62
     3
100
AcDbMText
 10
-54.14480475947926
 20
24.31626916013272
 30
0.0
 40
2.5
 41
0.0
 71
     5
 72
     1
  1
DIN A4
  7
CONVERTER_11
 73
     1
 44
1.20048019207683
  0
MTEXT
  5
188
330
47
100
AcDbEntity
  8
1
 62
     7
100
AcDbMText
 10
-240.3000002327282
 20
25.69126916013272
 30
0.0
 40
3.5
 41
0.0
 71
     5
 72
     1
  1
D
  7
CONVERTER_11
 73
     1
 44
1.20048019207683
  0
MTEXT
  5
189
330
47
100
AcDbEntity
  8
1
 62
     7
100
AcDbMText
 10
-240.3000002327282
 20
78.19126916013272
 30
0.0
 40
3.5
 41
0.0
 71
     5
 72
     1
  1
C
  7
CONVERTER_11
 73
     1
 44
1.20048019207683
  0
MTEXT
  5
18A
330
47
100
AcDbEntity
  8
1
 62
     7
100
AcDbMText
 10
-240.3000002327282
 20
128.1912691601327
 30
0.0
 40
3.5
 41
0.0
 71
     5
 72
     1
  1
B
  7
CONVERTER_11
 73
     1
 44
1.20048019207683
  0
MTEXT
  5
18B
330
47
100
AcDbEntity
  8
1
 62
     7
100
AcDbMText
 10
-240.3000002327282
 20
180.6912691601327
 30
0.0
 40
3.5
 41
0.0
 71
     5
 72
     1
  1
A
  7
CONVERTER_11
 73
     1
 44
1.20048019207683
  0
MTEXT
  5
18C
330
47
100
AcDbEntity
  8
1
 62
     7
100
AcDbMText
 10
29.94999976727004
 20
0.69126916013261
 30
0.0
 40
3.5
 41
0.0
 71
     5
 72
     1
  1
6
  7
CONVERTER_11
 73
     1
 44
1.20048019207683
  0
MTEXT
  5
18D
330
47
100
AcDbEntity
  8
1
 62
     7
100
AcDbMText
 10
-19.30000023272916
 20
0.69126916013261
 30
0.0
 40
3.5
 41
0.0
 71
     5
 72
     1
  1
5
  7
CONVERTER_11
 73
     1
 44
1.20048019207683
  0
MTEXT
  5
18E
330
47
100
AcDbEntity
  8
1
 62
     7
100
AcDbMText
 10
-69.30000023272925
 20
0.69126916013261
 30
0.0
 40
3.5
 41
0.0
 71
     5
 72
     1
  1
4
  7
CONVERTER_11
 73
     1
 44
1.20048019207683
  0
MTEXT
  5
18F
330
47
100
AcDbEntity
  8
1
 62
     7
100
AcDbMText
 10
-119.3000002327291
 20
0.69126916013261
 30
0.0
 40
3.5
 41
0.0
 71
     5
 72
     1
  1
3
  7
CONVERTER_11
 73
     1
 44
1.20048019207683
  0
MTEXT
  5
190
330
47
100
AcDbEntity
  8
1
 62
     7
100
AcDbMText
 10
-169.3000002327291
 20
0.69126916013261
 30
0.0
 40
3.5
 41
0.0
 71
     5
 72
     1
  1
2
  7
CONVERTER_11
 73
     1
 44
1.20048019207683
  0
MTEXT
  5
191
330
47
100
AcDbEntity
  8
1
 62
     7
100
AcDbMText
 10
-218.5500002327287
 20
0.69126916013261
 30
0.0
 40
3.5
 41
0.0
 71
     5
 72
     1
  1
1
  7
CONVERTER_11
 73
     1
 44
1.20048019207683
  0
MTEXT
  5
192
330
47
100
AcDbEntity
  8
1
 62
     7
100
AcDbMText
 10
51.69999976726984
 20
25.69126916013272
 30
0.0
 40
3.5
 41
0.0
 71
     5
 72
     1
  1
D
  7
CONVERTER_11
 73
     1
 44
1.20048019207683
  0
MTEXT
  5
193
330
47
100
AcDbEntity
  8
1
 62
     7
100
AcDbMText
 10
51.69999976726984
 20
128.1912691601346
 30
0.0
 40
3.5
 41
0.0
 71
     5
 72
     1
  1
B
  7
CONVERTER_11
 73
     1
 44
1.20048019207683
  0
MTEXT
  5
194
330
47
100
AcDbEntity
  8
1
 62
     7
100
AcDbMText
 10
51.69999976726984
 20
180.6912691601327
 30
0.0
 40
3.5
 41
0.0
 71
     5
 72
     1
  1
A
  7
CONVERTER_11
 73
     1
 44
1.20048019207683
  0
MTEXT
  5
195
330
47
100
AcDbEntity
  8
1
 62
     7
100
AcDbMText
 10
51.69999976726984
 20
78.19126916013462
 30
0.0
 40
3.5
 41
0.0
 71
     5
 72
     1
  1
C
  7
CONVERTER_11
 73
     1
 44
1.20048019207683
  0
MTEXT
  5
196
330
47
100
AcDbEntity
  8
1
 62
     2
100
AcDbMText
 10
-114.7828194845267
 20
15.94126916013263
 30
0.0
 40
2.0
 41
0.0
 71
     5
 72
     1
  1
General Information\P- Simplified representation\P- Document excluded from change process\P- Linear dimensions [mm]
  7
CONVERTER_11
 73
     1
 44
1.20048019207683
  0
TEXT
  5
197
330
47
100
AcDbEntity
  8
1
 62
     7
100
AcDbText
 10
-42.44480475947944
 20
12.99126916013262
 30
0.0
 40
2.5
  1
3075935
 41
0.81
  7
CONVERTER_12
100
AcDbText
  0
MTEXT
  5
198
330
47
100
AcDbEntity
  8
1
 62
     2
100
AcDbMText
 10
-42.84480475947916
 20
19.19126916013272
 30
0.0
 40
1.8
 41
0.0
 71
     1
 72
     1
  1
ident.-No.
  7
CONVERTER_11
 73
     1
 44
1.20048019207683
  0
MTEXT
  5
199
330
47
100
AcDbEntity
  8
1
 62
     2
100
AcDbMText
 10
41.38159148559356
 20
27.69126916013272
 30
0.0
 40
1.8
 41
0.0
 71
     1
 72
     1
  1
scale
  7
CONVERTER_11
 73
     1
 44
1.20048019207683
  0
MTEXT
  5
19B
330
47
100
AcDbEntity
  8
1
 62
     3
100
AcDbMText
 10
44.74079562643316
 20
21.49126916013282
 30
0.0
 40
2.5
 41
0.0
 71
     8
 72
     1
  1
1:1
  7
CONVERTER_13
 73
     1
 44
1.32052821128451
  0
TEXT
  5
19C
330
47
100
AcDbEntity
  8
1
 62
     7
100
AcDbText
 10
-42.84480475947916
 20
21.49126916013262
 30
0.0
 40
2.5
  1
00544596
 41
0.81
  7
CONVERTER_12
100
AcDbText
  0
MTEXT
  5
19E
330
47
100
AcDbEntity
  8
1
 62
     2
100
AcDbMText
 10
-42.84480475947916
 20
27.69126916013272
 30
0.0
 40
1.8
 41
0.0
 71
     1
 72
     1
  1
document-No. / RI
  7
CONVERTER_14
 73
     1
 44
1.32052821128451
  0
TEXT
  5
19F
330
47
100
AcDbEntity
  8
1
 62
     3
100
AcDbText
 10
-15.04480475947915
 20
12.99126916013262
 30
0.0
 40
2.5
  1
TECDOC 2D_Productdrawing
 41
0.81
  7
CONVERTER_12
100
AcDbText
  0
MTEXT
  5
1A0
330
47
100
AcDbEntity
  8
1
 62
     2
100
AcDbMText
 10
-15.04480475947915
 20
19.19126916013263
 30
0.0
 40
1.8
 41
0.0
 71
     1
 72
     1
  1
document-type
  7
CONVERTER_11
 73
     1
 44
1.20048019207683
  0
MTEXT
  5
1A1
330
47
100
AcDbEntity
  8
1
 62
     2
100
AcDbMText
 10
14.78159148559374
 20
27.69126916013263
 30
0.0
 40
1.8
 41
0.0
 71
     1
 72
     1
  1
date
  7
CONVERTER_11
 73
     1
 44
1.32052821128451
  0
TEXT
  5
1A2
330
47
100
AcDbEntity
  8
1
 62
     3
100
AcDbText
 10
14.78159148559374
 20
21.49126916013262
 30
0.0
 40
2.5
  1
17.02.2018
 41
0.81
  7
CONVERTER_12
100
AcDbText
  0
TEXT
  5
1A3
330
47
100
AcDbEntity
  8
1
 62
     7
100
AcDbText
 10
-22.81489254042336
 20
21.49126916013262
 30
0.0
 40
2.5
  1
01
 41
0.81
  7
CONVERTER_12
100
AcDbText
  0
TEXT
  5
1A4
330
47
100
AcDbEntity
  8
1
 62
     7
100
AcDbText
 10
-24.97125703746536
 20
21.49126916013262
 30
0.0
 40
2.5
  1
/
 41
0.9
  7
CONVERTER_11
100
AcDbText
  0
HATCH
  5
1A5
330
47
100
AcDbEntity
  8
1
  6
Continuous
 62
     2
100
AcDbHatch
 10
0.0
 20
0.0
 30
0.0
210
0.0
220
0.0
230
1.0
  2
_USER
 70
     0
 71
     1
 91
        1
 92
        1
 93
       12
 72
     1
 10
-62.67730404651806
 20
13.84395963632332
 11
-63.87009674868446
 21
13.84395963632332
 72
     1
 10
-63.87009674868446
 20
13.84395963632332
 11
-63.87009674868446
 21
14.97823174516714
 72
     1
 10
-63.87009674868446
 20
14.97823174516714
 11
-64.91975432659194
 21
14.97823174516714
 72
     1
 10
-64.91975432659194
 20
14.97823174516714
 11
-64.91975432659194
 21
13.84395963632332
 72
     1
 10
-64.91975432659194
 20
13.84395963632332
 11
-66.11254702875854
 21
13.84395963632332
 72
     1
 10
-66.11254702875854
 20
13.84395963632332
 11
-66.11254702875854
 21
16.89776916013452
 72
     1
 10
-66.11254702875854
 20
16.89776916013452
 11
-64.91975432659194
 21
16.89776916013452
 72
     1
 10
-64.91975432659194
 20
16.89776916013452
 11
-64.91975432659194
 21
15.82893582679992
 72
     1
 10
-64.91975432659194
 20
15.82893582679992
 11
-63.87009674868446
 21
15.82893582679992
 72
     1
 10
-63.87009674868446
 20
15.82893582679992
 11
-63.87009674868446
 21
16.89776916013452
 72
     1
 10
-63.87009674868446
 20
16.89776916013452
 11
-62.67730404651806
 21
16.89776916013452
 72
     1
 10
-62.67730404651806
 20
16.89776916013452
 11
-62.67730404651806
 21
13.84395963632332
 97
       12
330
111
330
112
330
FC
330
FB
330
FA
330
10E
330
F9
330
10F
330
110
330
F8
330
F7
330
F6
 75
     1
 76
     0
 52
45.0
 41
0.1
 77
     0
 78
     1
 53
45.0
 43
0.0
 44
0.0
 45
-0.0707106781186548
 46
0.0707106781186548
 79
     0
 98
        1
 10
0.0
 20
0.0
  0
HATCH
  5
1A6
330
47
100
AcDbEntity
  8
1
  6
Continuous
 62
     2
100
AcDbHatch
 10
0.0
 20
0.0
 30
0.0
210
0.0
220
0.0
230
1.0
  2
_USER
 70
     0
 71
     1
 91
        1
 92
        1
 93
       12
 72
     1
 10
-62.67730404651806
 20
13.84395963632332
 11
-63.87009674868446
 21
13.84395963632332
 72
     1
 10
-63.87009674868446
 20
13.84395963632332
 11
-63.87009674868446
 21
14.97823174516714
 72
     1
 10
-63.87009674868446
 20
14.97823174516714
 11
-64.91975432659194
 21
14.97823174516714
 72
     1
 10
-64.91975432659194
 20
14.97823174516714
 11
-64.91975432659194
 21
13.84395963632332
 72
     1
 10
-64.91975432659194
 20
13.84395963632332
 11
-66.11254702875854
 21
13.84395963632332
 72
     1
 10
-66.11254702875854
 20
13.84395963632332
 11
-66.11254702875854
 21
16.89776916013452
 72
     1
 10
-66.11254702875854
 20
16.89776916013452
 11
-64.91975432659194
 21
16.89776916013452
 72
     1
 10
-64.91975432659194
 20
16.89776916013452
 11
-64.91975432659194
 21
15.82893582679992
 72
     1
 10
-64.91975432659194
 20
15.82893582679992
 11
-63.87009674868446
 21
15.82893582679992
 72
     1
 10
-63.87009674868446
 20
15.82893582679992
 11
-63.87009674868446
 21
16.89776916013452
 72
     1
 10
-63.87009674868446
 20
16.89776916013452
 11
-62.67730404651806
 21
16.89776916013452
 72
     1
 10
-62.67730404651806
 20
16.89776916013452
 11
-62.67730404651806
 21
13.84395963632332
 97
       12
330
111
330
112
330
FC
330
FB
330
FA
330
10E
330
F9
330
10F
330
110
330
F8
330
F7
330
F6
 75
     1
 76
     0
 52
45.0
 41
0.1
 77
     0
 78
     1
 53
45.0
 43
0.0
 44
0.0
 45
-0.0707106781186548
 46
0.0707106781186548
 79
     0
 98
        1
 10
0.0
 20
0.0
  0
HATCH
  5
1A7
330
47
100
AcDbEntity
  8
1
  6
Continuous
 62
     2
100
AcDbHatch
 10
0.0
 20
0.0
 30
0.0
210
0.0
220
0.0
230
1.0
  2
_USER
 70
     0
 71
     1
 91
        1
 92
        1
 93
       10
 72
     1
 10
-60.43500469732976
 20
12.22980317375502
 11
-61.67550910758266
 21
13.53857868396011
 72
     1
 10
-61.67550910758266
 20
13.53857868396011
 11
-62.86830180975025
 21
13.53857868396011
 72
     1
 10
-62.86830180975025
 20
13.53857868396011
 11
-62.86830180975025
 21
10.48476916014903
 72
     1
 10
-62.86830180975025
 20
10.48476916014903
 11
-61.67550910758266
 21
10.48476916014903
 72
     1
 10
-61.67550910758266
 20
10.48476916014903
 11
-61.67550910758266
 21
11.79354467035361
 72
     1
 10
-61.67550910758266
 20
11.79354467035361
 11
-60.43500469732976
 21
10.48476916014903
 72
     1
 10
-60.43500469732976
 20
10.48476916014903
 11
-59.24221199516336
 21
10.48476916014903
 72
     1
 10
-59.24221199516336
 20
10.48476916014903
 11
-59.24221199516336
 21
13.53857868396011
 72
     1
 10
-59.24221199516336
 20
13.53857868396011
 11
-60.43500469732976
 21
13.53857868396011
 72
     1
 10
-60.43500469732976
 20
13.53857868396011
 11
-60.43500469732976
 21
12.22980317375502
 97
       10
330
11F
330
EF
330
EE
330
F1
330
11A
330
11B
330
F0
330
11C
330
11D
330
11E
 75
     1
 76
     0
 52
45.0
 41
0.1
 77
     0
 78
     1
 53
45.0
 43
0.0
 44
0.0
 45
-0.0707106781186548
 46
0.0707106781186548
 79
     0
 98
        1
 10
0.0
 20
0.0
  0
HATCH
  5
1A8
330
47
100
AcDbEntity
  8
1
  6
Continuous
 62
     2
100
AcDbHatch
 10
0.0
 20
0.0
 30
0.0
210
0.0
220
0.0
230
1.0
  2
_USER
 70
     0
 71
     1
 91
        1
 92
        1
 93
       10
 72
     1
 10
-60.43500469732976
 20
12.22980317375502
 11
-61.67550910758266
 21
13.53857868396011
 72
     1
 10
-61.67550910758266
 20
13.53857868396011
 11
-62.86830180975025
 21
13.53857868396011
 72
     1
 10
-62.86830180975025
 20
13.53857868396011
 11
-62.86830180975025
 21
10.48476916014903
 72
     1
 10
-62.86830180975025
 20
10.48476916014903
 11
-61.67550910758266
 21
10.48476916014903
 72
     1
 10
-61.67550910758266
 20
10.48476916014903
 11
-61.67550910758266
 21
11.79354467035361
 72
     1
 10
-61.67550910758266
 20
11.79354467035361
 11
-60.43500469732976
 21
10.48476916014903
 72
     1
 10
-60.43500469732976
 20
10.48476916014903
 11
-59.24221199516336
 21
10.48476916014903
 72
     1
 10
-59.24221199516336
 20
10.48476916014903
 11
-59.24221199516336
 21
13.53857868396011
 72
     1
 10
-59.24221199516336
 20
13.53857868396011
 11
-60.43500469732976
 21
13.53857868396011
 72
     1
 10
-60.43500469732976
 20
13.53857868396011
 11
-60.43500469732976
 21
12.22980317375502
 97
       10
330
11F
330
EF
330
EE
330
F1
330
11A
330
11B
330
F0
330
11C
330
11D
330
11E
 75
     1
 76
     0
 52
45.0
 41
0.1
 77
     0
 78
     1
 53
45.0
 43
0.0
 44
0.0
 45
-0.0707106781186548
 46
0.0707106781186548
 79
     0
 98
        1
 10
0.0
 20
0.0
  0
HATCH
  5
1A9
330
47
100
AcDbEntity
  8
1
  6
Continuous
 62
     2
100
AcDbHatch
 10
0.0
 20
0.0
 30
0.0
210
0.0
220
0.0
230
1.0
  2
_USER
 70
     0
 71
     1
 91
        1
 92
        1
 93
       10
 72
     1
 10
-55.18656587691004
 20
15.58899364992934
 11
-56.42707028716404
 21
16.89776916013452
 72
     1
 10
-56.42707028716404
 20
16.89776916013452
 11
-57.61986298933056
 21
16.89776916013452
 72
     1
 10
-57.61986298933056
 20
16.89776916013452
 11
-57.61986298933056
 21
13.84395963632332
 72
     1
 10
-57.61986298933056
 20
13.84395963632332
 11
-56.42707028716404
 21
13.84395963632332
 72
     1
 10
-56.42707028716404
 20
13.84395963632332
 11
-56.42707028716404
 21
15.15273514652802
 72
     1
 10
-56.42707028716404
 20
15.15273514652802
 11
-55.18656587691004
 21
13.84395963632332
 72
     1
 10
-55.18656587691004
 20
13.84395963632332
 11
-53.99377317474344
 21
13.84395963632332
 72
     1
 10
-53.99377317474344
 20
13.84395963632332
 11
-53.99377317474344
 21
16.89776916013452
 72
     1
 10
-53.99377317474344
 20
16.89776916013452
 11
-55.18656587691004
 21
16.89776916013452
 72
     1
 10
-55.18656587691004
 20
16.89776916013452
 11
-55.18656587691004
 21
15.58899364992934
 97
       10
330
124
330
EC
330
EB
330
125
330
EA
330
120
330
121
330
122
330
123
330
ED
 75
     1
 76
     0
 52
45.0
 41
0.1
 77
     0
 78
     1
 53
45.0
 43
0.0
 44
0.0
 45
-0.0707106781186548
 46
0.0707106781186548
 79
     0
 98
        1
 10
0.0
 20
0.0
  0
HATCH
  5
1AA
330
47
100
AcDbEntity
  8
1
  6
Continuous
 62
     2
100
AcDbHatch
 10
0.0
 20
0.0
 30
0.0
210
0.0
220
0.0
230
1.0
  2
_USER
 70
     0
 71
     1
 91
        1
 92
        1
 93
       10
 72
     1
 10
-55.18656587691004
 20
15.58899364992934
 11
-56.42707028716404
 21
16.89776916013452
 72
     1
 10
-56.42707028716404
 20
16.89776916013452
 11
-57.61986298933056
 21
16.89776916013452
 72
     1
 10
-57.61986298933056
 20
16.89776916013452
 11
-57.61986298933056
 21
13.84395963632332
 72
     1
 10
-57.61986298933056
 20
13.84395963632332
 11
-56.42707028716404
 21
13.84395963632332
 72
     1
 10
-56.42707028716404
 20
13.84395963632332
 11
-56.42707028716404
 21
15.15273514652802
 72
     1
 10
-56.42707028716404
 20
15.15273514652802
 11
-55.18656587691004
 21
13.84395963632332
 72
     1
 10
-55.18656587691004
 20
13.84395963632332
 11
-53.99377317474344
 21
13.84395963632332
 72
     1
 10
-53.99377317474344
 20
13.84395963632332
 11
-53.99377317474344
 21
16.89776916013452
 72
     1
 10
-53.99377317474344
 20
16.89776916013452
 11
-55.18656587691004
 21
16.89776916013452
 72
     1
 10
-55.18656587691004
 20
16.89776916013452
 11
-55.18656587691004
 21
15.58899364992934
 97
       10
330
124
330
EC
330
EB
330
125
330
EA
330
120
330
121
330
122
330
123
330
ED
 75
     1
 76
     0
 52
45.0
 41
0.1
 77
     0
 78
     1
 53
45.0
 43
0.0
 44
0.0
 45
-0.0707106781186548
 46
0.0707106781186548
 79
     0
 98
        1
 10
0.0
 20
0.0
  0
HATCH
  5
1AB
330
47
100
AcDbEntity
  8
1
  6
Continuous
 62
     2
100
AcDbHatch
 10
0.0
 20
0.0
 30
0.0
210
0.0
220
0.0
230
1.0
  2
_USER
 70
     0
 71
     1
 91
        1
 92
        1
 93
        8
 72
     1
 10
-56.28408609378954
 20
13.53857868396011
 11
-59.09907687090316
 21
13.53857868396011
 72
     1
 10
-59.09907687090316
 20
13.53857868396011
 11
-59.09907687090316
 21
12.75331337783652
 72
     1
 10
-59.09907687090316
 20
12.75331337783652
 11
-58.28797783342856
 21
12.75331337783652
 72
     1
 10
-58.28797783342856
 20
12.75331337783652
 11
-58.28797783342856
 21
10.48476916014903
 72
     1
 10
-58.28797783342856
 20
10.48476916014903
 11
-57.09518513126204
 21
10.48476916014903
 72
     1
 10
-57.09518513126204
 20
10.48476916014903
 11
-57.09518513126204
 21
12.75331337783652
 72
     1
 10
-57.09518513126204
 20
12.75331337783652
 11
-56.28408609378954
 21
12.75331337783652
 72
     1
 10
-56.28408609378954
 20
12.75331337783652
 11
-56.28408609378954
 21
13.53857868396011
 97
        8
330
E6
330
126
330
E5
330
127
330
128
330
E9
330
E8
330
E7
 75
     1
 76
     0
 52
45.0
 41
0.1
 77
     0
 78
     1
 53
45.0
 43
0.0
 44
0.0
 45
-0.0707106781186548
 46
0.0707106781186548
 79
     0
 98
        1
 10
0.0
 20
0.0
  0
HATCH
  5
1AC
330
47
100
AcDbEntity
  8
1
  6
Continuous
 62
     2
100
AcDbHatch
 10
0.0
 20
0.0
 30
0.0
210
0.0
220
0.0
230
1.0
  2
_USER
 70
     0
 71
     1
 91
        1
 92
        1
 93
        8
 72
     1
 10
-56.28408609378954
 20
13.53857868396011
 11
-59.09907687090316
 21
13.53857868396011
 72
     1
 10
-59.09907687090316
 20
13.53857868396011
 11
-59.09907687090316
 21
12.75331337783652
 72
     1
 10
-59.09907687090316
 20
12.75331337783652
 11
-58.28797783342856
 21
12.75331337783652
 72
     1
 10
-58.28797783342856
 20
12.75331337783652
 11
-58.28797783342856
 21
10.48476916014903
 72
     1
 10
-58.28797783342856
 20
10.48476916014903
 11
-57.09518513126204
 21
10.48476916014903
 72
     1
 10
-57.09518513126204
 20
10.48476916014903
 11
-57.09518513126204
 21
12.75331337783652
 72
     1
 10
-57.09518513126204
 20
12.75331337783652
 11
-56.28408609378954
 21
12.75331337783652
 72
     1
 10
-56.28408609378954
 20
12.75331337783652
 11
-56.28408609378954
 21
13.53857868396011
 97
        8
330
E6
330
126
330
E5
330
127
330
128
330
E9
330
E8
330
E7
 75
     1
 76
     0
 52
45.0
 41
0.1
 77
     0
 78
     1
 53
45.0
 43
0.0
 44
0.0
 45
-0.0707106781186548
 46
0.0707106781186548
 79
     0
 98
        1
 10
0.0
 20
0.0
  0
HATCH
  5
1AD
330
47
100
AcDbEntity
  8
1
  6
Continuous
 62
     2
100
AcDbHatch
 10
0.0
 20
0.0
 30
0.0
210
0.0
220
0.0
230
1.0
  2
_USER
 70
     0
 71
     1
 91
        2
 92
        1
 93
        8
 72
     1
 10
-54.14565863784256
 20
10.48476916014903
 11
-54.35713869131834
 21
11.02572970436691
 72
     1
 10
-54.35713869131834
 20
11.02572970436691
 11
-55.48958026799215
 21
11.02572970436691
 72
     1
 10
-55.48958026799215
 20
11.02572970436691
 11
-55.70106032146796
 21
10.48476916014903
 72
     1
 10
-55.70106032146796
 20
10.48476916014903
 11
-56.94156473172095
 21
10.48476916014903
 72
     1
 10
-56.94156473172095
 20
10.48476916014903
 11
-55.54361168478164
 21
13.53857868396011
 72
     1
 10
-55.54361168478164
 20
13.53857868396011
 11
-54.30310727452894
 21
13.53857868396011
 72
     1
 10
-54.30310727452894
 20
13.53857868396011
 11
-52.90515422758864
 21
10.48476916014903
 72
     1
 10
-52.90515422758864
 20
10.48476916014903
 11
-54.14565863784256
 21
10.48476916014903
 97
        8
330
12A
330
12B
330
E2
330
12C
330
E1
330
E4
330
129
330
E3
 92
       16
 93
        3
 72
     1
 10
-55.22352471684715
 20
11.70629296967351
 11
-54.92335947965475
 21
12.47410793566021
 72
     1
 10
-54.92335947965475
 20
12.47410793566021
 11
-54.62319424246465
 21
11.70629296967351
 72
     1
 10
-54.62319424246465
 20
11.70629296967351
 11
-55.22352471684715
 21
11.70629296967351
 97
        3
330
E0
330
12E
330
12D
 75
     1
 76
     0
 52
45.0
 41
0.1
 77
     0
 78
     1
 53
45.0
 43
0.0
 44
0.0
 45
-0.0707106781186548
 46
0.0707106781186548
 79
     0
 98
        1
 10
0.0
 20
0.0
  0
HATCH
  5
1AE
330
47
100
AcDbEntity
  8
1
  6
Continuous
 62
     2
100
AcDbHatch
 10
0.0
 20
0.0
 30
0.0
210
0.0
220
0.0
230
1.0
  2
_USER
 70
     0
 71
     1
 91
        2
 92
        1
 93
        8
 72
     1
 10
-54.14565863784256
 20
10.48476916014903
 11
-54.35713869131834
 21
11.02572970436691
 72
     1
 10
-54.35713869131834
 20
11.02572970436691
 11
-55.48958026799215
 21
11.02572970436691
 72
     1
 10
-55.48958026799215
 20
11.02572970436691
 11
-55.70106032146796
 21
10.48476916014903
 72
     1
 10
-55.70106032146796
 20
10.48476916014903
 11
-56.94156473172095
 21
10.48476916014903
 72
     1
 10
-56.94156473172095
 20
10.48476916014903
 11
-55.54361168478164
 21
13.53857868396011
 72
     1
 10
-55.54361168478164
 20
13.53857868396011
 11
-54.30310727452894
 21
13.53857868396011
 72
     1
 10
-54.30310727452894
 20
13.53857868396011
 11
-52.90515422758864
 21
10.48476916014903
 72
     1
 10
-52.90515422758864
 20
10.48476916014903
 11
-54.14565863784256
 21
10.48476916014903
 97
        8
330
12A
330
12B
330
E2
330
12C
330
E1
330
E4
330
129
330
E3
 92
       16
 93
        3
 72
     1
 10
-55.22352471684715
 20
11.70629296967351
 11
-54.92335947965475
 21
12.47410793566021
 72
     1
 10
-54.92335947965475
 20
12.47410793566021
 11
-54.62319424246465
 21
11.70629296967351
 72
     1
 10
-54.62319424246465
 20
11.70629296967351
 11
-55.22352471684715
 21
11.70629296967351
 97
        3
330
E0
330
12E
330
12D
 75
     1
 76
     0
 52
45.0
 41
0.1
 77
     0
 78
     1
 53
45.0
 43
0.0
 44
0.0
 45
-0.0707106781186548
 46
0.0707106781186548
 79
     0
 98
        1
 10
0.0
 20
0.0
  0
HATCH
  5
1AF
330
47
100
AcDbEntity
  8
1
  6
Continuous
 62
     2
100
AcDbHatch
 10
0.0
 20
0.0
 30
0.0
210
0.0
220
0.0
230
1.0
  2
_USER
 70
     0
 71
     1
 91
        1
 92
        1
 93
        4
 72
     1
 10
-52.51471022405664
 20
13.84395963632332
 11
-53.75521463430954
 21
13.84395963632332
 72
     1
 10
-53.75521463430954
 20
13.84395963632332
 11
-53.75521463430954
 21
16.89776916013452
 72
     1
 10
-53.75521463430954
 20
16.89776916013452
 11
-52.51471022405664
 21
16.89776916013452
 72
     1
 10
-52.51471022405664
 20
16.89776916013452
 11
-52.51471022405664
 21
13.84395963632332
 97
        4
330
DD
330
DF
330
12F
330
DE
 75
     1
 76
     0
 52
45.0
 41
0.1
 77
     0
 78
     1
 53
45.0
 43
0.0
 44
0.0
 45
-0.0707106781186548
 46
0.0707106781186548
 79
     0
 98
        1
 10
0.0
 20
0.0
  0
HATCH
  5
1B0
330
47
100
AcDbEntity
  8
1
  6
Continuous
 62
     2
100
AcDbHatch
 10
0.0
 20
0.0
 30
0.0
210
0.0
220
0.0
230
1.0
  2
_USER
 70
     0
 71
     1
 91
        1
 92
        1
 93
        4
 72
     1
 10
-52.51471022405664
 20
13.84395963632332
 11
-53.75521463430954
 21
13.84395963632332
 72
     1
 10
-53.75521463430954
 20
13.84395963632332
 11
-53.75521463430954
 21
16.89776916013452
 72
     1
 10
-53.75521463430954
 20
16.89776916013452
 11
-52.51471022405664
 21
16.89776916013452
 72
     1
 10
-52.51471022405664
 20
16.89776916013452
 11
-52.51471022405664
 21
13.84395963632332
 97
        4
330
DD
330
DF
330
12F
330
DE
 75
     1
 76
     0
 52
45.0
 41
0.1
 77
     0
 78
     1
 53
45.0
 43
0.0
 44
0.0
 45
-0.0707106781186548
 46
0.0707106781186548
 79
     0
 98
        1
 10
0.0
 20
0.0
  0
HATCH
  5
1B1
330
47
100
AcDbEntity
  8
1
  6
Continuous
 62
     2
100
AcDbHatch
 10
0.0
 20
0.0
 30
0.0
210
0.0
220
0.0
230
1.0
  2
_USER
 70
     0
 71
     1
 91
        1
 92
        1
 93
       12
 72
     1
 10
-48.29222405838584
 20
16.89776916013452
 11
-49.59475368915236
 21
15.42481863009832
 72
     1
 10
-49.59475368915236
 20
15.42481863009832
 11
-48.19680064221205
 21
13.84395963632332
 72
     1
 10
-48.19680064221205
 20
13.84395963632332
 11
-49.59952485996035
 21
13.84395963632332
 72
     1
 10
-49.59952485996035
 20
13.84395963632332
 11
-50.29611579802585
 21
14.63169142161704
 72
     1
 10
-50.29611579802585
 20
14.63169142161704
 11
-50.99270673609155
 21
13.84395963632332
 72
     1
 10
-50.99270673609155
 20
13.84395963632332
 11
-52.39543095383976
 21
13.84395963632332
 72
     1
 10
-52.39543095383976
 20
13.84395963632332
 11
-50.99747790689946
 21
15.42481863009832
 72
     1
 10
-50.99747790689946
 20
15.42481863009832
 11
-52.30000753766694
 21
16.89776916013452
 72
     1
 10
-52.30000753766694
 20
16.89776916013452
 11
-50.89728331991765
 21
16.89776916013452
 72
     1
 10
-50.89728331991765
 20
16.89776916013452
 11
-50.29611579802585
 21
16.21794583857903
 72
     1
 10
-50.29611579802585
 20
16.21794583857903
 11
-49.69494827613306
 21
16.89776916013452
 72
     1
 10
-49.69494827613306
 20
16.89776916013452
 11
-48.29222405838584
 21
16.89776916013452
 97
       12
330
D8
330
D7
330
D6
330
133
330
134
330
130
330
131
330
DC
330
DB
330
DA
330
D9
330
132
 75
     1
 76
     0
 52
45.0
 41
0.1
 77
     0
 78
     1
 53
45.0
 43
0.0
 44
0.0
 45
-0.0707106781186548
 46
0.0707106781186548
 79
     0
 98
        1
 10
0.0
 20
0.0
  0
HATCH
  5
1B2
330
47
100
AcDbEntity
  8
1
  6
Continuous
 62
     2
100
AcDbHatch
 10
0.0
 20
0.0
 30
0.0
210
0.0
220
0.0
230
1.0
  2
_USER
 70
     0
 71
     1
 91
        1
 92
        1
 93
       12
 72
     1
 10
-48.29222405838584
 20
16.89776916013452
 11
-49.59475368915236
 21
15.42481863009832
 72
     1
 10
-49.59475368915236
 20
15.42481863009832
 11
-48.19680064221205
 21
13.84395963632332
 72
     1
 10
-48.19680064221205
 20
13.84395963632332
 11
-49.59952485996035
 21
13.84395963632332
 72
     1
 10
-49.59952485996035
 20
13.84395963632332
 11
-50.29611579802585
 21
14.63169142161704
 72
     1
 10
-50.29611579802585
 20
14.63169142161704
 11
-50.99270673609155
 21
13.84395963632332
 72
     1
 10
-50.99270673609155
 20
13.84395963632332
 11
-52.39543095383976
 21
13.84395963632332
 72
     1
 10
-52.39543095383976
 20
13.84395963632332
 11
-50.99747790689946
 21
15.42481863009832
 72
     1
 10
-50.99747790689946
 20
15.42481863009832
 11
-52.30000753766694
 21
16.89776916013452
 72
     1
 10
-52.30000753766694
 20
16.89776916013452
 11
-50.89728331991765
 21
16.89776916013452
 72
     1
 10
-50.89728331991765
 20
16.89776916013452
 11
-50.29611579802585
 21
16.21794583857903
 72
     1
 10
-50.29611579802585
 20
16.21794583857903
 11
-49.69494827613306
 21
16.89776916013452
 72
     1
 10
-49.69494827613306
 20
16.89776916013452
 11
-48.29222405838584
 21
16.89776916013452
 97
       12
330
D8
330
D7
330
D6
330
133
330
134
330
130
330
131
330
DC
330
DB
330
DA
330
D9
330
132
 75
     1
 76
     0
 52
45.0
 41
0.1
 77
     0
 78
     1
 53
45.0
 43
0.0
 44
0.0
 45
-0.0707106781186548
 46
0.0707106781186548
 79
     0
 98
        1
 10
0.0
 20
0.0
  0
HATCH
  5
1B3
330
47
100
AcDbEntity
  8
1
  6
Continuous
 62
     2
100
AcDbHatch
 10
0.0
 20
0.0
 30
0.0
210
0.0
220
0.0
230
1.0
  2
_USER
 70
     0
 71
     1
 91
        2
 92
        1
 93
        6
 72
     1
 10
-67.30995947253186
 20
14.78703787746713
 11
-68.06872706031214
 21
14.78703787746713
 72
     1
 10
-68.06872706031214
 20
14.78703787746713
 11
-68.06872706031214
 21
13.84395963632332
 72
     1
 10
-68.06872706031214
 20
13.84395963632332
 11
-69.30923147056626
 21
13.84395963632332
 72
     1
 10
-69.30923147056626
 20
13.84395963632332
 11
-69.30923147056626
 21
16.89776916013452
 72
     1
 10
-69.30923147056626
 20
16.89776916013452
 11
-67.30995947253186
 21
16.89776916013452
 72
     2
 10
-67.30995947253186
 20
15.84240351880084
 40
1.05536564133371
 50
270.0
 51
450.0
 73
     0
 97
        6
330
100
330
FF
330
10C
330
10B
330
101
330
151
 92
       16
 93
        4
 72
     2
 10
-67.75143199877024
 20
15.88179949002333
 40
0.35286382467112
 50
270.0
 51
450.0
 73
     1
 72
     1
 10
-67.75143199877024
 20
16.23466331469442
 11
-68.06872706031214
 21
16.23466331469442
 72
     1
 10
-68.06872706031214
 20
16.23466331469442
 11
-68.06872706031214
 21
15.52893566535221
 72
     1
 10
-68.06872706031214
 20
15.52893566535221
 11
-67.75143199877024
 21
15.52893566535221
 97
        4
330
165
330
FD
330
10D
330
FE
 75
     1
 76
     0
 52
45.0
 41
0.1
 77
     0
 78
     1
 53
45.0
 43
0.0
 44
0.0
 45
-0.0707106781186548
 46
0.0707106781186548
 79
     0
 98
        1
 10
0.0
 20
0.0
  0
HATCH
  5
1B4
330
47
100
AcDbEntity
  8
1
  6
Continuous
 62
     2
100
AcDbHatch
 10
0.0
 20
0.0
 30
0.0
210
0.0
220
0.0
230
1.0
  2
_USER
 70
     0
 71
     1
 91
        2
 92
        1
 93
        6
 72
     1
 10
-67.30995947253186
 20
14.78703787746713
 11
-68.06872706031214
 21
14.78703787746713
 72
     1
 10
-68.06872706031214
 20
14.78703787746713
 11
-68.06872706031214
 21
13.84395963632332
 72
     1
 10
-68.06872706031214
 20
13.84395963632332
 11
-69.30923147056626
 21
13.84395963632332
 72
     1
 10
-69.30923147056626
 20
13.84395963632332
 11
-69.30923147056626
 21
16.89776916013452
 72
     1
 10
-69.30923147056626
 20
16.89776916013452
 11
-67.30995947253186
 21
16.89776916013452
 72
     2
 10
-67.30995947253186
 20
15.84240351880084
 40
1.05536564133371
 50
270.0
 51
450.0
 73
     0
 97
        6
330
100
330
FF
330
10C
330
10B
330
101
330
151
 92
       16
 93
        4
 72
     2
 10
-67.75143199877024
 20
15.88179949002333
 40
0.35286382467112
 50
270.0
 51
450.0
 73
     1
 72
     1
 10
-67.75143199877024
 20
16.23466331469442
 11
-68.06872706031214
 21
16.23466331469442
 72
     1
 10
-68.06872706031214
 20
16.23466331469442
 11
-68.06872706031214
 21
15.52893566535221
 72
     1
 10
-68.06872706031214
 20
15.52893566535221
 11
-67.75143199877024
 21
15.52893566535221
 97
        4
330
165
330
FD
330
10D
330
FE
 75
     1
 76
     0
 52
45.0
 41
0.1
 77
     0
 78
     1
 53
45.0
 43
0.0
 44
0.0
 45
-0.0707106781186548
 46
0.0707106781186548
 79
     0
 98
        1
 10
0.0
 20
0.0
  0
HATCH
  5
1B5
330
47
100
AcDbEntity
  8
1
  6
Continuous
 62
     2
100
AcDbHatch
 10
0.0
 20
0.0
 30
0.0
210
0.0
220
0.0
230
1.0
  2
_USER
 70
     0
 71
     1
 91
        2
 92
        1
 93
        4
 72
     2
 10
-64.75341672417275
 20
11.47309891175152
 40
2.065479772208561
 50
62.45185182430649
 51
117.5481481756664
 73
     1
 72
     2
 10
-65.03435661600605
 20
12.01167392205431
 40
1.45803408365149
 50
117.5481481756624
 51
242.4518518243374
 73
     1
 72
     2
 10
-64.75341672417275
 20
12.55024893235762
 40
2.065479772208505
 50
242.4518518243401
 51
297.5481481756869
 73
     1
 72
     2
 10
-64.47247683233945
 20
12.01167392205431
 40
1.458034083651992
 50
297.5481481757009
 51
422.4518518242992
 73
     1
 97
        4
330
15D
330
15C
330
15E
330
15B
 92
       16
 93
        4
 72
     2
 10
-64.95315676051916
 20
12.01167392205431
 40
0.7717997786796947
 50
321.8795802028417
 51
398.1204197971536
 73
     1
 72
     2
 10
-64.75341672417275
 20
12.16840510017482
 40
0.5179085730133032
 50
38.1204197971475
 51
141.8795802028583
 73
     1
 72
     2
 10
-64.55367668782665
 20
12.01167392205431
 40
0.7717997786794665
 50
141.879580202836
 51
218.1204197971687
 73
     1
 72
     2
 10
-64.75341672417275
 20
11.85494274393432
 40
0.5179085730137397
 50
218.1204197971938
 51
321.8795802028004
 73
     1
 97
        4
330
179
330
176
330
177
330
178
 75
     1
 76
     0
 52
45.0
 41
0.1
 77
     0
 78
     1
 53
45.0
 43
0.0
 44
0.0
 45
-0.0707106781186548
 46
0.0707106781186548
 79
     0
 98
        1
 10
0.0
 20
0.0
  0
HATCH
  5
1B6
330
47
100
AcDbEntity
  8
1
  6
Continuous
 62
     2
100
AcDbHatch
 10
0.0
 20
0.0
 30
0.0
210
0.0
220
0.0
230
1.0
  2
_USER
 70
     0
 71
     1
 91
        2
 92
        1
 93
        4
 72
     2
 10
-64.75341672417275
 20
11.47309891175152
 40
2.065479772208561
 50
62.45185182430649
 51
117.5481481756664
 73
     1
 72
     2
 10
-65.03435661600605
 20
12.01167392205431
 40
1.45803408365149
 50
117.5481481756624
 51
242.4518518243374
 73
     1
 72
     2
 10
-64.75341672417275
 20
12.55024893235762
 40
2.065479772208505
 50
242.4518518243401
 51
297.5481481756869
 73
     1
 72
     2
 10
-64.47247683233945
 20
12.01167392205431
 40
1.458034083651992
 50
297.5481481757009
 51
422.4518518242992
 73
     1
 97
        4
330
15D
330
15C
330
15E
330
15B
 92
       16
 93
        4
 72
     2
 10
-64.95315676051916
 20
12.01167392205431
 40
0.7717997786796947
 50
321.8795802028417
 51
398.1204197971536
 73
     1
 72
     2
 10
-64.75341672417275
 20
12.16840510017482
 40
0.5179085730133032
 50
38.1204197971475
 51
141.8795802028583
 73
     1
 72
     2
 10
-64.55367668782665
 20
12.01167392205431
 40
0.7717997786794665
 50
141.879580202836
 51
218.1204197971687
 73
     1
 72
     2
 10
-64.75341672417275
 20
11.85494274393432
 40
0.5179085730137397
 50
218.1204197971938
 51
321.8795802028004
 73
     1
 97
        4
330
179
330
176
330
177
330
178
 75
     1
 76
     0
 52
45.0
 41
0.1
 77
     0
 78
     1
 53
45.0
 43
0.0
 44
0.0
 45
-0.0707106781186548
 46
0.0707106781186548
 79
     0
 98
        1
 10
0.0
 20
0.0
  0
HATCH
  5
1B7
330
47
100
AcDbEntity
  8
1
  6
Continuous
 62
     2
100
AcDbHatch
 10
0.0
 20
0.0
 30
0.0
210
0.0
220
0.0
230
1.0
  2
_USER
 70
     0
 71
     1
 91
        2
 92
        1
 93
       12
 72
     1
 10
-57.85842152976346
 20
16.19975555469154
 11
-59.19434935619114
 21
16.19975555469154
 72
     1
 10
-59.19434935619114
 20
16.19975555469154
 11
-59.19434935619114
 21
15.71987120094983
 72
     1
 10
-59.19434935619114
 20
15.71987120094983
 11
-57.85842152976346
 21
15.71987120094983
 72
     1
 10
-57.85842152976346
 20
15.71987120094983
 11
-57.85842152976346
 21
15.02185759550753
 72
     1
 10
-57.85842152976346
 20
15.02185759550753
 11
-59.19434935619114
 21
15.02185759550753
 72
     1
 10
-59.19434935619114
 20
15.02185759550753
 11
-59.19434935619114
 21
14.54197324176582
 72
     1
 10
-59.19434935619114
 20
14.54197324176582
 11
-57.85842152976346
 21
14.54197324176582
 72
     1
 10
-57.85842152976346
 20
14.54197324176582
 11
-57.85842152976346
 21
13.84395963632332
 72
     1
 10
-57.85842152976346
 20
13.84395963632332
 11
-61.00874125354446
 21
13.84395963632332
 72
     2
 10
-61.00874125354446
 20
15.37086439822863
 40
1.52690476190589
 50
90.0
 51
270.0
 73
     0
 72
     1
 10
-61.00874125354446
 20
16.89776916013452
 11
-57.85842152976346
 21
16.89776916013452
 72
     1
 10
-57.85842152976346
 20
16.89776916013452
 11
-57.85842152976346
 21
16.19975555469154
 97
       12
330
114
330
166
330
115
330
116
330
117
330
118
330
F5
330
F4
330
F3
330
F2
330
119
330
113
 92
       16
 93
        4
 72
     2
 10
-60.79246924337926
 20
15.52759557634911
 40
0.5179085730135266
 50
38.12041979714334
 51
141.8795802028489
 73
     1
 72
     2
 10
-60.59272920703296
 20
15.37086439822863
 40
0.7717997786796724
 50
141.8795802028404
 51
218.120419797156
 73
     1
 72
     2
 10
-60.79246924337926
 20
15.21413322010821
 40
0.5179085730134372
 50
218.1204197971511
 51
321.8795802028566
 73
     1
 72
     2
 10
-60.99220927972544
 20
15.37086439822863
 40
0.7717997786796296
 50
321.8795802028436
 51
398.1204197971599
 73
     1
 97
        4
330
160
330
15F
330
15A
330
159
 75
     1
 76
     0
 52
45.0
 41
0.1
 77
     0
 78
     1
 53
45.0
 43
0.0
 44
0.0
 45
-0.0707106781186548
 46
0.0707106781186548
 79
     0
 98
        1
 10
0.0
 20
0.0
  0
HATCH
  5
1B8
330
47
100
AcDbEntity
  8
1
  6
Continuous
 62
     2
100
AcDbHatch
 10
0.0
 20
0.0
 30
0.0
210
0.0
220
0.0
230
1.0
  2
_USER
 70
     0
 71
     1
 91
        2
 92
        1
 93
       12
 72
     1
 10
-57.85842152976346
 20
16.19975555469154
 11
-59.19434935619114
 21
16.19975555469154
 72
     1
 10
-59.19434935619114
 20
16.19975555469154
 11
-59.19434935619114
 21
15.71987120094983
 72
     1
 10
-59.19434935619114
 20
15.71987120094983
 11
-57.85842152976346
 21
15.71987120094983
 72
     1
 10
-57.85842152976346
 20
15.71987120094983
 11
-57.85842152976346
 21
15.02185759550753
 72
     1
 10
-57.85842152976346
 20
15.02185759550753
 11
-59.19434935619114
 21
15.02185759550753
 72
     1
 10
-59.19434935619114
 20
15.02185759550753
 11
-59.19434935619114
 21
14.54197324176582
 72
     1
 10
-59.19434935619114
 20
14.54197324176582
 11
-57.85842152976346
 21
14.54197324176582
 72
     1
 10
-57.85842152976346
 20
14.54197324176582
 11
-57.85842152976346
 21
13.84395963632332
 72
     1
 10
-57.85842152976346
 20
13.84395963632332
 11
-61.00874125354446
 21
13.84395963632332
 72
     2
 10
-61.00874125354446
 20
15.37086439822863
 40
1.52690476190589
 50
90.0
 51
270.0
 73
     0
 72
     1
 10
-61.00874125354446
 20
16.89776916013452
 11
-57.85842152976346
 21
16.89776916013452
 72
     1
 10
-57.85842152976346
 20
16.89776916013452
 11
-57.85842152976346
 21
16.19975555469154
 97
       12
330
114
330
166
330
115
330
116
330
117
330
118
330
F5
330
F4
330
F3
330
F2
330
119
330
113
 92
       16
 93
        4
 72
     2
 10
-60.79246924337926
 20
15.52759557634911
 40
0.5179085730135266
 50
38.12041979714334
 51
141.8795802028489
 73
     1
 72
     2
 10
-60.59272920703296
 20
15.37086439822863
 40
0.7717997786796724
 50
141.8795802028404
 51
218.120419797156
 73
     1
 72
     2
 10
-60.79246924337926
 20
15.21413322010821
 40
0.5179085730134372
 50
218.1204197971511
 51
321.8795802028566
 73
     1
 72
     2
 10
-60.99220927972544
 20
15.37086439822863
 40
0.7717997786796296
 50
321.8795802028436
 51
398.1204197971599
 73
     1
 97
        4
330
160
330
15F
330
15A
330
159
 75
     1
 76
     0
 52
45.0
 41
0.1
 77
     0
 78
     1
 53
45.0
 43
0.0
 44
0.0
 45
-0.0707106781186548
 46
0.0707106781186548
 79
     0
 98
        1
 10
0.0
 20
0.0
  0
HATCH
  5
1B9
330
47
100
AcDbEntity
  8
1
  6
Continuous
 62
     2
100
AcDbHatch
 10
0.0
 20
0.0
 30
0.0
210
0.0
220
0.0
230
1.0
  2
_USER
 70
     0
 71
     1
 91
        4
 92
        1
 93
        8
 72
     1
 10
-69.78634855143306
 20
16.47352454473253
 11
-69.78634855143306
 21
10.90901377553232
 72
     2
 10
-70.21059316681695
 20
10.90901377553232
 40
0.4242446153832908
 50
0.0
 51
90.0
 73
     0
 72
     1
 10
-70.21059316681695
 20
10.48476916014903
 11
-75.68390525753375
 21
10.48476916014903
 72
     2
 10
-75.68390525753375
 20
10.90901377553232
 40
0.4242446153828041
 50
90.0
 51
180.0
 73
     0
 72
     1
 10
-76.10814987291656
 20
10.90901377553232
 11
-76.10814987291656
 21
16.47352454473253
 72
     2
 10
-75.68390525753375
 20
16.47352454473253
 40
0.4242446153837989
 50
180.0
 51
270.0
 73
     0
 72
     1
 10
-75.68390525753375
 20
16.89776916011633
 11
-70.21059316681695
 21
16.89776916011633
 72
     2
 10
-70.21059316681695
 20
16.47352454473253
 40
0.4242446153838841
 50
270.0
 51
360.0
 73
     0
 97
        8
330
108
330
156
330
109
330
161
330
106
330
158
330
107
330
157
 92
       16
 93
        1
 72
     2
 10
-73.06431960701624
 20
14.15464231637702
 40
0.4709789327785074
 50
0.0
 51
360.0
 73
     1
 97
        1
330
17C
 92
       16
 93
        8
 72
     2
 10
-72.51446189425556
 20
13.04550071640861
 40
0.3157169230765344
 50
115.3740086783517
 51
180.0
 73
     1
 72
     1
 10
-72.83017881733235
 20
13.04550071640861
 11
-72.83017881733235
 21
12.46364930971353
 72
     2
 10
-72.51446189425556
 20
12.46364930971353
 40
0.315716923076792
 50
180.0
 51
269.8110329574542
 73
     1
 72
     2
 10
-72.50884575894554
 20
14.16648425728252
 40
2.018561131933266
 50
269.8110329575858
 51
450.1889670424142
 73
     1
 72
     2
 10
-72.51446189425556
 20
15.86931920485162
 40
0.3157169230760729
 50
90.18896704254594
 51
180.0
 73
     1
 72
     1
 10
-72.83017881733235
 20
15.86931920485162
 11
-72.83017881733235
 21
15.26378391634484
 72
     2
 10
-72.51446189425556
 20
15.26378391634484
 40
0.315716923076792
 50
180.0
 51
244.6259913216483
 73
     1
 72
     2
 10
-73.04050459234344
 20
14.15464231637702
 40
0.9118481501444573
 50
295.3740086781924
 51
424.6259913218234
 73
     0
 97
        8
330
16E
330
CF
330
16B
330
16C
330
14A
330
CE
330
16D
330
149
 92
       16
 93
       12
 72
     2
 10
-75.09001058078726
 20
11.51304163878262
 40
0.3157169230756836
 50
180.0
 51
270.0
 73
     1
 72
     1
 10
-75.09001058078726
 20
11.19732471570592
 11
-73.61417731977764
 21
11.19732471570592
 72
     2
 10
-73.61417731977764
 20
11.51304163878262
 40
0.3157169230767014
 50
270.0
 51
360.0
 73
     1
 72
     1
 10
-73.29846039670105
 20
11.51304163878262
 11
-73.29846039670105
 21
13.04381257031423
 72
     2
 10
-73.61417731977764
 20
13.04381257031423
 40
0.315716923076593
 50
0.0
 51
64.80558935146027
 73
     1
 72
     2
 10
-73.09159287220265
 20
14.15464231637702
 40
0.911897523557621
 50
115.1944106485123
 51
244.805589351472
 73
     0
 72
     2
 10
-73.61417731977764
 20
15.26547206243922
 40
0.3157169230761203
 50
295.1944106485397
 51
360.0
 73
     1
 72
     1
 10
-73.29846039670105
 20
15.26547206243922
 11
-73.29846039670105
 21
15.86949668149973
 72
     2
 10
-73.61417731977764
 20
15.86949668149973
 40
0.315716923076593
 50
0.0
 51
90.0
 73
     1
 72
     1
 10
-73.61417731977764
 20
16.18521360457592
 11
-75.09001058078726
 21
16.18521360457592
 72
     2
 10
-75.09001058078726
 20
15.86949668149973
 40
0.3157169230761916
 50
90.0
 51
180.0
 73
     1
 72
     1
 10
-75.40572750386295
 20
15.86949668149973
 11
-75.40572750386295
 21
11.51304163878262
 97
       12
330
152
330
10A
330
155
330
105
330
162
330
163
330
154
330
104
330
153
330
103
330
164
330
102
 75
     1
 76
     0
 52
45.0
 41
0.1
 77
     0
 78
     1
 53
45.0
 43
0.0
 44
0.0
 45
-0.0707106781186548
 46
0.0707106781186548
 79
     0
 98
        1
 10
0.0
 20
0.0
  0
HATCH
  5
1BA
330
47
100
AcDbEntity
  8
1
  6
Continuous
 62
     2
100
AcDbHatch
 10
0.0
 20
0.0
 30
0.0
210
0.0
220
0.0
230
1.0
  2
_USER
 70
     0
 71
     1
 91
        4
 92
        1
 93
        8
 72
     1
 10
-69.78634855143306
 20
16.47352454473253
 11
-69.78634855143306
 21
10.90901377553232
 72
     2
 10
-70.21059316681695
 20
10.90901377553232
 40
0.4242446153832908
 50
0.0
 51
90.0
 73
     0
 72
     1
 10
-70.21059316681695
 20
10.48476916014903
 11
-75.68390525753375
 21
10.48476916014903
 72
     2
 10
-75.68390525753375
 20
10.90901377553232
 40
0.4242446153828041
 50
90.0
 51
180.0
 73
     0
 72
     1
 10
-76.10814987291656
 20
10.90901377553232
 11
-76.10814987291656
 21
16.47352454473253
 72
     2
 10
-75.68390525753375
 20
16.47352454473253
 40
0.4242446153837989
 50
180.0
 51
270.0
 73
     0
 72
     1
 10
-75.68390525753375
 20
16.89776916011633
 11
-70.21059316681695
 21
16.89776916011633
 72
     2
 10
-70.21059316681695
 20
16.47352454473253
 40
0.4242446153838841
 50
270.0
 51
360.0
 73
     0
 97
        8
330
108
330
156
330
109
330
161
330
106
330
158
330
107
330
157
 92
       16
 93
        1
 72
     2
 10
-73.06431960701624
 20
14.15464231637702
 40
0.4709789327785074
 50
0.0
 51
360.0
 73
     1
 97
        1
330
17C
 92
       16
 93
        8
 72
     2
 10
-72.51446189425556
 20
13.04550071640861
 40
0.3157169230765344
 50
115.3740086783517
 51
180.0
 73
     1
 72
     1
 10
-72.83017881733235
 20
13.04550071640861
 11
-72.83017881733235
 21
12.46364930971353
 72
     2
 10
-72.51446189425556
 20
12.46364930971353
 40
0.315716923076792
 50
180.0
 51
269.8110329574542
 73
     1
 72
     2
 10
-72.50884575894554
 20
14.16648425728252
 40
2.018561131933266
 50
269.8110329575858
 51
450.1889670424142
 73
     1
 72
     2
 10
-72.51446189425556
 20
15.86931920485162
 40
0.3157169230760729
 50
90.18896704254594
 51
180.0
 73
     1
 72
     1
 10
-72.83017881733235
 20
15.86931920485162
 11
-72.83017881733235
 21
15.26378391634484
 72
     2
 10
-72.51446189425556
 20
15.26378391634484
 40
0.315716923076792
 50
180.0
 51
244.6259913216483
 73
     1
 72
     2
 10
-73.04050459234344
 20
14.15464231637702
 40
0.9118481501444573
 50
295.3740086781924
 51
424.6259913218234
 73
     0
 97
        8
330
16E
330
CF
330
16B
330
16C
330
14A
330
CE
330
16D
330
149
 92
       16
 93
       12
 72
     2
 10
-75.09001058078726
 20
11.51304163878262
 40
0.3157169230756836
 50
180.0
 51
270.0
 73
     1
 72
     1
 10
-75.09001058078726
 20
11.19732471570592
 11
-73.61417731977764
 21
11.19732471570592
 72
     2
 10
-73.61417731977764
 20
11.51304163878262
 40
0.3157169230767014
 50
270.0
 51
360.0
 73
     1
 72
     1
 10
-73.29846039670105
 20
11.51304163878262
 11
-73.29846039670105
 21
13.04381257031423
 72
     2
 10
-73.61417731977764
 20
13.04381257031423
 40
0.315716923076593
 50
0.0
 51
64.80558935146027
 73
     1
 72
     2
 10
-73.09159287220265
 20
14.15464231637702
 40
0.911897523557621
 50
115.1944106485123
 51
244.805589351472
 73
     0
 72
     2
 10
-73.61417731977764
 20
15.26547206243922
 40
0.3157169230761203
 50
295.1944106485397
 51
360.0
 73
     1
 72
     1
 10
-73.29846039670105
 20
15.26547206243922
 11
-73.29846039670105
 21
15.86949668149973
 72
     2
 10
-73.61417731977764
 20
15.86949668149973
 40
0.315716923076593
 50
0.0
 51
90.0
 73
     1
 72
     1
 10
-73.61417731977764
 20
16.18521360457592
 11
-75.09001058078726
 21
16.18521360457592
 72
     2
 10
-75.09001058078726
 20
15.86949668149973
 40
0.3157169230761916
 50
90.0
 51
180.0
 73
     1
 72
     1
 10
-75.40572750386295
 20
15.86949668149973
 11
-75.40572750386295
 21
11.51304163878262
 97
       12
330
152
330
10A
330
155
330
105
330
162
330
163
330
154
330
104
330
153
330
103
330
164
330
102
 75
     1
 76
     0
 52
45.0
 41
0.1
 77
     0
 78
     1
 53
45.0
 43
0.0
 44
0.0
 45
-0.0707106781186548
 46
0.0707106781186548
 79
     0
 98
        1
 10
0.0
 20
0.0
  0
HATCH
  5
1BB
330
47
100
AcDbEntity
  8
1
  6
Continuous
 62
     2
100
AcDbHatch
 10
0.0
 20
0.0
 30
0.0
210
0.0
220
0.0
230
1.0
  2
_USER
 70
     0
 71
     1
 91
        1
 92
        1
 93
       18
 72
     1
 10
-48.19680064221205
 20
12.75331337783652
 11
-49.00789967968544
 21
12.75331337783652
 72
     1
 10
-49.00789967968544
 20
12.75331337783652
 11
-49.00789967968544
 21
10.48476916014903
 72
     1
 10
-49.00789967968544
 20
10.48476916014903
 11
-50.20069238185315
 21
10.48476916014903
 72
     1
 10
-50.20069238185315
 20
10.48476916014903
 11
-50.20069238185315
 21
12.75331337783652
 72
     1
 10
-50.20069238185315
 20
12.75331337783652
 11
-51.30433168142125
 21
12.75331337783652
 72
     2
 10
-51.30433168142125
 20
11.79879037101043
 40
0.9545230068260899
 50
90.0
 51
109.337143219432
 73
     1
 72
     2
 10
-51.45100167952495
 20
12.21674535139331
 40
0.5115800601944217
 50
109.3371432194858
 51
151.4785267424218
 73
     1
 72
     2
 10
-51.07364442144356
 20
12.01167392205431
 40
0.9410597353348958
 50
151.478526742362
 51
208.5214732576695
 73
     1
 72
     2
 10
-51.45100167952495
 20
11.80660249271583
 40
0.5115800601960259
 50
208.5214732576875
 51
246.6277221118451
 73
     1
 72
     2
 10
-51.29456164682185
 20
12.16859451142582
 40
0.9059297849852768
 50
246.6277221118181
 51
288.4480761180818
 73
     1
 72
     2
 10
-51.71272938048375
 20
13.42214028746241
 40
2.227384008972746
 50
288.4480761181335
 51
301.9309089499397
 73
     1
 72
     1
 10
-50.53467433845984
 20
11.53178956831263
 11
-50.53467433845984
 21
10.65927256150931
 72
     2
 10
-51.87060225557656
 20
15.32435486731072
 40
4.852596863498825
 50
74.02000874166134
 51
84.84185523036365
 73
     0
 72
     2
 10
-51.58174616084074
 20
12.12446428408913
 40
1.639695123940449
 50
84.8418552303238
 51
164.9381082228987
 73
     0
 72
     2
 10
-52.00087400430235
 20
12.01167392205431
 40
1.205656168393004
 50
164.9381082229043
 51
195.0618917770975
 73
     0
 72
     2
 10
-51.58174616084074
 20
11.89888356001941
 40
1.63969512394022
 50
195.0618917771053
 51
270.0
 73
     0
 72
     1
 10
-51.58174616084074
 20
13.53857868395963
 11
-48.19680064221205
 21
13.53857868396011
 72
     1
 10
-48.19680064221205
 20
13.53857868396011
 11
-48.19680064221205
 21
12.75331337783652
 97
       18
330
D1
330
167
330
168
330
150
330
14F
330
135
330
14E
330
14D
330
169
330
14C
330
16A
330
14B
330
136
330
D0
330
D5
330
D4
330
D3
330
D2
 75
     1
 76
     0
 52
45.0
 41
0.1
 77
     0
 78
     1
 53
45.0
 43
0.0
 44
0.0
 45
-0.0707106781186548
 46
0.0707106781186548
 79
     0
 98
        1
 10
0.0
 20
0.0
  0
HATCH
  5
1BC
330
47
100
AcDbEntity
  8
1
  6
Continuous
 62
     2
100
AcDbHatch
 10
0.0
 20
0.0
 30
0.0
210
0.0
220
0.0
230
1.0
  2
_USER
 70
     0
 71
     1
 91
        1
 92
        1
 93
       18
 72
     1
 10
-48.19680064221205
 20
12.75331337783652
 11
-49.00789967968544
 21
12.75331337783652
 72
     1
 10
-49.00789967968544
 20
12.75331337783652
 11
-49.00789967968544
 21
10.48476916014903
 72
     1
 10
-49.00789967968544
 20
10.48476916014903
 11
-50.20069238185315
 21
10.48476916014903
 72
     1
 10
-50.20069238185315
 20
10.48476916014903
 11
-50.20069238185315
 21
12.75331337783652
 72
     1
 10
-50.20069238185315
 20
12.75331337783652
 11
-51.30433168142125
 21
12.75331337783652
 72
     2
 10
-51.30433168142125
 20
11.79879037101043
 40
0.9545230068260899
 50
90.0
 51
109.337143219432
 73
     1
 72
     2
 10
-51.45100167952495
 20
12.21674535139331
 40
0.5115800601944217
 50
109.3371432194858
 51
151.4785267424218
 73
     1
 72
     2
 10
-51.07364442144356
 20
12.01167392205431
 40
0.9410597353348958
 50
151.478526742362
 51
208.5214732576695
 73
     1
 72
     2
 10
-51.45100167952495
 20
11.80660249271583
 40
0.5115800601960259
 50
208.5214732576875
 51
246.6277221118451
 73
     1
 72
     2
 10
-51.29456164682185
 20
12.16859451142582
 40
0.9059297849852768
 50
246.6277221118181
 51
288.4480761180818
 73
     1
 72
     2
 10
-51.71272938048375
 20
13.42214028746241
 40
2.227384008972746
 50
288.4480761181335
 51
301.9309089499397
 73
     1
 72
     1
 10
-50.53467433845984
 20
11.53178956831263
 11
-50.53467433845984
 21
10.65927256150931
 72
     2
 10
-51.87060225557656
 20
15.32435486731072
 40
4.852596863498825
 50
74.02000874166134
 51
84.84185523036365
 73
     0
 72
     2
 10
-51.58174616084074
 20
12.12446428408913
 40
1.639695123940449
 50
84.8418552303238
 51
164.9381082228987
 73
     0
 72
     2
 10
-52.00087400430235
 20
12.01167392205431
 40
1.205656168393004
 50
164.9381082229043
 51
195.0618917770975
 73
     0
 72
     2
 10
-51.58174616084074
 20
11.89888356001941
 40
1.63969512394022
 50
195.0618917771053
 51
270.0
 73
     0
 72
     1
 10
-51.58174616084074
 20
13.53857868395963
 11
-48.19680064221205
 21
13.53857868396011
 72
     1
 10
-48.19680064221205
 20
13.53857868396011
 11
-48.19680064221205
 21
12.75331337783652
 97
       18
330
D1
330
167
330
168
330
150
330
14F
330
135
330
14E
330
14D
330
169
330
14C
330
16A
330
14B
330
136
330
D0
330
D5
330
D4
330
D3
330
D2
 75
     1
 76
     0
 52
45.0
 41
0.1
 77
     0
 78
     1
 53
45.0
 43
0.0
 44
0.0
 45
-0.0707106781186548
 46
0.0707106781186548
 79
     0
 98
        1
 10
0.0
 20
0.0
  0
HATCH
  5
1BD
330
47
100
AcDbEntity
  8
1
  6
Continuous
 62
     2
100
AcDbHatch
 10
0.0
 20
0.0
 30
0.0
210
0.0
220
0.0
230
1.0
  2
_USER
 70
     0
 71
     1
 91
        1
 92
        1
 93
       14
 72
     2
 10
-67.68444764009365
 20
11.89888356001941
 40
1.639695123940516
 50
84.84185523036238
 51
164.9381082228862
 73
     1
 72
     2
 10
-68.10357548355645
 20
12.01167392205431
 40
1.205656168390946
 50
164.9381082228761
 51
195.0618917770945
 73
     1
 72
     2
 10
-67.68444764009365
 20
12.12446428408913
 40
1.639695123939387
 50
195.0618917770895
 51
275.1581447696395
 73
     1
 72
     2
 10
-67.97330373482956
 20
15.32435486731072
 40
4.852596863498145
 50
275.1581447696249
 51
285.9799912583529
 73
     1
 72
     1
 10
-66.63737581771176
 20
10.65927256150991
 11
-66.63737581771176
 21
11.53178956831312
 72
     2
 10
-67.81543085973664
 20
13.42214028746301
 40
2.227384008972739
 50
58.06909105004065
 51
71.55192388186722
 73
     0
 72
     2
 10
-67.39726312607584
 20
12.16859451142582
 40
0.905929784984916
 50
71.55192388184147
 51
113.3722778881291
 73
     0
 72
     2
 10
-67.55370315877786
 20
11.80660249271583
 40
0.5115800601948034
 50
113.3722778881724
 51
151.4785267423044
 73
     0
 72
     2
 10
-67.17634590069756
 20
12.01167392205431
 40
0.9410597353332545
 50
151.4785267422947
 51
208.5214732577331
 73
     0
 72
     2
 10
-67.55370315877786
 20
12.21674535139331
 40
0.5115800601948796
 50
208.5214732576956
 51
246.6277221118009
 73
     0
 72
     2
 10
-67.39726312607584
 20
11.85475333268272
 40
0.9059297849853228
 50
246.627722111871
 51
288.4480761181466
 73
     0
 72
     2
 10
-67.81543085973664
 20
10.60120755664613
 40
2.227384008973474
 50
288.4480761181328
 51
301.9309089499593
 73
     0
 72
     1
 10
-66.63737581771176
 20
12.49155827579602
 11
-66.63737581771176
 21
13.36407528259932
 72
     2
 10
-67.97330373482956
 20
8.698992976798422
 40
4.852596863498071
 50
74.02000874164739
 51
84.84185523037506
 73
     1
 97
       14
330
16F
330
170
330
171
330
172
330
137
330
148
330
147
330
146
330
173
330
174
330
145
330
175
330
138
330
144
 75
     1
 76
     0
 52
45.0
 41
0.1
 77
     0
 78
     1
 53
45.0
 43
0.0
 44
0.0
 45
-0.0707106781186548
 46
0.0707106781186548
 79
     0
 98
        1
 10
0.0
 20
0.0
  0
HATCH
  5
1BE
330
47
100
AcDbEntity
  8
1
  6
Continuous
 62
     2
100
AcDbHatch
 10
0.0
 20
0.0
 30
0.0
210
0.0
220
0.0
230
1.0
  2
_USER
 70
     0
 71
     1
 91
        1
 92
        1
 93
       14
 72
     2
 10
-67.68444764009365
 20
11.89888356001941
 40
1.639695123940516
 50
84.84185523036238
 51
164.9381082228862
 73
     1
 72
     2
 10
-68.10357548355645
 20
12.01167392205431
 40
1.205656168390946
 50
164.9381082228761
 51
195.0618917770945
 73
     1
 72
     2
 10
-67.68444764009365
 20
12.12446428408913
 40
1.639695123939387
 50
195.0618917770895
 51
275.1581447696395
 73
     1
 72
     2
 10
-67.97330373482956
 20
15.32435486731072
 40
4.852596863498145
 50
275.1581447696249
 51
285.9799912583529
 73
     1
 72
     1
 10
-66.63737581771176
 20
10.65927256150991
 11
-66.63737581771176
 21
11.53178956831312
 72
     2
 10
-67.81543085973664
 20
13.42214028746301
 40
2.227384008972739
 50
58.06909105004065
 51
71.55192388186722
 73
     0
 72
     2
 10
-67.39726312607584
 20
12.16859451142582
 40
0.905929784984916
 50
71.55192388184147
 51
113.3722778881291
 73
     0
 72
     2
 10
-67.55370315877786
 20
11.80660249271583
 40
0.5115800601948034
 50
113.3722778881724
 51
151.4785267423044
 73
     0
 72
     2
 10
-67.17634590069756
 20
12.01167392205431
 40
0.9410597353332545
 50
151.4785267422947
 51
208.5214732577331
 73
     0
 72
     2
 10
-67.55370315877786
 20
12.21674535139331
 40
0.5115800601948796
 50
208.5214732576956
 51
246.6277221118009
 73
     0
 72
     2
 10
-67.39726312607584
 20
11.85475333268272
 40
0.9059297849853228
 50
246.627722111871
 51
288.4480761181466
 73
     0
 72
     2
 10
-67.81543085973664
 20
10.60120755664613
 40
2.227384008973474
 50
288.4480761181328
 51
301.9309089499593
 73
     0
 72
     1
 10
-66.63737581771176
 20
12.49155827579602
 11
-66.63737581771176
 21
13.36407528259932
 72
     2
 10
-67.97330373482956
 20
8.698992976798422
 40
4.852596863498071
 50
74.02000874164739
 51
84.84185523037506
 73
     1
 97
       14
330
16F
330
170
330
171
330
172
330
137
330
148
330
147
330
146
330
173
330
174
330
145
330
175
330
138
330
144
 75
     1
 76
     0
 52
45.0
 41
0.1
 77
     0
 78
     1
 53
45.0
 43
0.0
 44
0.0
 45
-0.0707106781186548
 46
0.0707106781186548
 79
     0
 98
        1
 10
0.0
 20
0.0
  0
ENDBLK
  5
49
330
47
100
AcDbEntity
  8
0
100
AcDbBlockEnd
  0
BLOCK
  5
4B
330
4A
100
AcDbEntity
  8
0
100
AcDbBlockBegin
  2
_punkt
 70
     0
 10
49.19999976727085
 20
3.19126916013272
 30
0.0
  3
_punkt
  1

  0
LINE
  5
1BF
330
4A
100
AcDbEntity
  8
1
  6
Continuous
 62
     2
100
AcDbLine
 10
49.19999976727085
 20
3.19126916013272
 30
0.0
 11
54.19999976726984
 21
3.19126916013272
 31
0.0
  0
LINE
  5
1C0
330
4A
100
AcDbEntity
  8
1
  6
Continuous
 62
     2
100
AcDbLine
 10
49.19999976727085
 20
3.19126916013272
 30
0.0
 11
49.19999976727085
 21
-1.80873083986739
 31
0.0
  0
ENDBLK
  5
4C
330
4A
100
AcDbEntity
  8
0
100
AcDbBlockEnd
  0
BLOCK
  5
50
330
4D
100
AcDbEntity
  8
0
100
AcDbBlockBegin
  2
A4I_CS
 70
     0
 10
49.19999976727085
 20
-1.80873083986739
 30
0.0
  3
A4I_CS
  1

  0
INSERT
  5
4E
330
4D
100
AcDbEntity
  8
1
100
AcDbBlockReference
  2
_rahmen
 10
49.19999976727085
 20
-1.80873083986739
 30
0.0
  0
INSERT
  5
4F
330
4D
100
AcDbEntity
  8
1
100
AcDbBlockReference
  2
_punkt
 10
49.19999976727085
 20
3.19126916013272
 30
0.0
  0
ENDBLK
  5
51
330
4D
100
AcDbEntity
  8
0
100
AcDbBlockEnd
  0
BLOCK
  5
53
330
52
100
AcDbEntity
  8
0
100
AcDbBlockBegin
  2
RBO_6_F-select__1
 70
     0
 10
-54.09458346962367
 20
49.99980442828504
 30
0.0
  3
RBO_6_F-select__1
  1

  0
LINE
  5
1C1
330
52
100
AcDbEntity
  8
0
  6
Continuous
 62
     7
100
AcDbLine
 10
-5.83244006458668
 20
83.63251661231845
 30
0.0
 11
-5.83244006458668
 21
99.13187174399252
 31
0.0
  0
LINE
  5
1C2
330
52
100
AcDbEntity
  8
0
  6
Continuous
 62
     7
100
AcDbLine
 10
-6.19974953999727
 20
82.91332599055376
 30
0.0
 11
-6.19974953999716
 21
78.2367888101179
 31
0.0
  0
LINE
  5
1C3
330
52
100
AcDbEntity
  8
0
  6
Continuous
 62
     7
100
AcDbLine
 10
-8.21980043771535
 20
79.64705424264463
 30
0.0
 11
-6.19974953999727
 21
80.23019270743178
 31
0.0
  0
LINE
  5
1C4
330
52
100
AcDbEntity
  8
0
  6
Continuous
 62
     7
100
AcDbLine
 10
-8.21980043771535
 20
76.76030289669652
 30
0.0
 11
-8.21980043771535
 21
79.64705424264463
 31
0.0
  0
LINE
  5
1C5
330
52
100
AcDbEntity
  8
0
  6
Continuous
 62
     7
100
AcDbLine
 10
-0.19974953999727
 20
80.21861631623679
 30
0.0
 11
1.78019956228465
 21
79.64705424264464
 31
0.0
  0
LINE
  5
1C6
330
52
100
AcDbEntity
  8
0
  6
Continuous
 62
     7
100
AcDbLine
 10
-3.21980043771526
 20
75.31692722372244
 30
0.0
 11
-8.21980043771535
 21
76.76030289669652
 31
0.0
  0
LINE
  5
1C7
330
52
100
AcDbEntity
  8
0
  6
Continuous
 62
     7
100
AcDbLine
 10
-8.21980043771535
 20
76.76030289669652
 30
0.0
 11
-8.21980043771535
 21
72.60338095853113
 31
0.0
  0
LINE
  5
1C8
330
52
100
AcDbEntity
  8
0
  6
Continuous
 62
     7
100
AcDbLine
 10
1.78019956228474
 20
77.10231022844647
 30
0.0
 11
5.72899907593535
 21
75.96238999735543
 31
0.0
  0
LINE
  5
1C9
330
52
100
AcDbEntity
  8
0
  6
Continuous
 62
     7
100
AcDbLine
 10
1.78019956228474
 20
76.76030289669656
 30
0.0
 11
-3.21980043771526
 21
75.31692722372244
 31
0.0
  0
LINE
  5
1CA
330
52
100
AcDbEntity
  8
0
  6
Continuous
 62
     7
100
AcDbLine
 10
-3.21980043771526
 20
75.31692722372244
 30
0.0
 11
-3.21980043771526
 21
71.1600052855571
 31
0.0
  0
LINE
  5
1CB
330
52
100
AcDbEntity
  8
0
  6
Continuous
 62
     7
100
AcDbLine
 10
-1.17997552217835
 20
68.97904248128833
 30
0.0
 11
6.59502447971914
 21
75.71238999735564
 31
0.0
  0
LINE
  5
1CC
330
52
100
AcDbEntity
  8
0
  6
Continuous
 62
     7
100
AcDbLine
 10
1.78019956228465
 20
72.60338095853122
 30
0.0
 11
-3.21980043771526
 21
71.1600052855571
 31
0.0
  0
LINE
  5
1CD
330
52
100
AcDbEntity
  8
0
  6
Continuous
 62
     7
100
AcDbLine
 10
-3.21980043771526
 20
71.1600052855571
 30
0.0
 11
-8.21980043771535
 21
72.60338095853113
 31
0.0
  0
LINE
  5
1CE
330
52
100
AcDbEntity
  8
0
  6
Continuous
 62
     7
100
AcDbLine
 10
-8.21980043771535
 20
77.2323752662377
 30
0.0
 11
-13.10744006917707
 21
72.99955518084823
 31
0.0
  0
LINE
  5
1CF
330
52
100
AcDbEntity
  8
0
  6
Continuous
 62
     2
100
AcDbLine
 10
-1.54600092865496
 20
69.66205518084828
 30
0.0
 11
5.72899907593535
 21
75.96238999735543
 31
0.0
  0
LINE
  5
1D0
330
52
100
AcDbEntity
  8
0
  6
Continuous
 62
     2
100
AcDbLine
 10
-13.10744006917707
 20
72.99955518084823
 30
0.0
 11
-1.54600092865496
 21
69.66205518084828
 31
0.0
  0
LINE
  5
1D1
330
52
100
AcDbEntity
  8
0
  6
Continuous
 62
     7
100
AcDbLine
 10
-1.17997552217835
 20
68.97904248128833
 30
0.0
 11
-13.60744006648426
 21
72.56654248128805
 31
0.0
  0
LINE
  5
1D2
330
52
100
AcDbEntity
  8
0
  6
Continuous
 62
     7
100
AcDbLine
 10
-24.69256523492587
 20
75.76654248128824
 30
0.0
 11
-37.12002977923245
 21
79.35404248128822
 31
0.0
  0
LINE
  5
1D3
330
52
100
AcDbEntity
  8
0
  6
Continuous
 62
     7
100
AcDbLine
 10
-12.12801720307837
 20
77.6242974443731
 30
0.0
 11
-12.82801720307836
 21
77.01807966172402
 31
0.0
  0
LINE
  5
1D4
330
52
100
AcDbEntity
  8
0
  6
Continuous
 62
     7
100
AcDbLine
 10
-53.99768093875048
 20
72.32985448587365
 30
0.0
 11
-52.46603962866237
 21
69.23482715648711
 31
0.0
  0
LINE
  5
1D5
330
52
100
AcDbEntity
  8
0
  6
Continuous
 62
     7
100
AcDbLine
 10
-13.10744006917707
 20
72.99955518084823
 30
0.0
 11
-13.60744006648426
 21
72.56654248128805
 31
0.0
  0
LINE
  5
1D6
330
52
100
AcDbEntity
  8
0
  6
Continuous
 62
     7
100
AcDbLine
 10
-13.60744006648426
 20
72.56654248128805
 30
0.0
 11
-13.60744006648426
 21
77.24307966172404
 31
0.0
  0
LINE
  5
1D7
330
52
100
AcDbEntity
  8
0
  6
Continuous
 62
     7
100
AcDbLine
 10
-24.69256523492575
 20
80.44307966172416
 30
0.0
 11
-24.69256523492587
 21
75.76654248128824
 31
0.0
  0
LINE
  5
1D8
330
52
100
AcDbEntity
  8
0
  6
Continuous
 62
     7
100
AcDbLine
 10
-53.06371301731986
 20
72.81946780130367
 30
0.0
 11
-53.26794373316756
 21
72.7605114719181
 31
0.0
  0
LINE
  5
1D9
330
52
100
AcDbEntity
  8
0
  6
Continuous
 62
     7
100
AcDbLine
 10
-53.26794373316756
 20
72.7605114719181
 30
0.0
 11
-52.80462014214197
 21
71.82426147191546
 31
0.0
  0
LINE
  5
1DA
330
52
100
AcDbEntity
  8
0
  6
Continuous
 62
     7
100
AcDbLine
 10
-52.80462014214197
 20
71.82426147191546
 30
0.0
 11
-48.06087014213816
 21
73.19366414165069
 31
0.0
  0
LINE
  5
1DB
330
52
100
AcDbEntity
  8
0
  6
Continuous
 62
     7
100
AcDbLine
 10
-52.80462014214197
 20
71.82426147191546
 30
0.0
 11
-44.30462014214567
 21
79.18547740408914
 31
0.0
  0
LINE
  5
1DC
330
52
100
AcDbEntity
  8
0
  6
Continuous
 62
     7
100
AcDbLine
 10
-53.75994046516996
 20
73.14848424908286
 30
0.0
 11
-53.52270648132188
 21
73.21696780130081
 31
0.0
  0
LINE
  5
1DD
330
52
100
AcDbEntity
  8
0
  6
Continuous
 62
     2
100
AcDbLine
 10
-45.25994046517226
 20
80.50970018124706
 30
0.0
 11
-53.75994046516996
 21
73.14848424908286
 31
0.0
  0
LINE
  5
1DE
330
52
100
AcDbEntity
  8
0
  6
Continuous
 62
     7
100
AcDbLine
 10
-53.52270648132188
 20
73.21696780130081
 30
0.0
 11
-53.06371301731986
 21
72.81946780130367
 31
0.0
  0
LINE
  5
1DF
330
52
100
AcDbEntity
  8
0
  6
Continuous
 62
     7
100
AcDbLine
 10
-48.52419373316297
 20
74.12991414165224
 30
0.0
 11
-48.72842444901997
 21
74.07095781226316
 31
0.0
  0
LINE
  5
1E0
330
52
100
AcDbEntity
  8
0
  6
Continuous
 62
     7
100
AcDbLine
 10
-37.12002977923245
 20
79.35404248128822
 30
0.0
 11
-37.12002977923217
 21
71.5598138472398
 31
0.0
  0
LINE
  5
1E1
330
52
100
AcDbEntity
  8
0
  6
Continuous
 62
     7
100
AcDbLine
 10
-48.72842444901997
 20
74.07095781226316
 30
0.0
 11
-48.72842444902096
 21
74.91086874097074
 31
0.0
  0
LINE
  5
1E2
330
52
100
AcDbEntity
  8
0
  6
Continuous
 62
     7
100
AcDbLine
 10
-44.72709758999946
 20
80.03918854294707
 30
0.0
 11
-44.30462014214567
 21
79.18547740408914
 31
0.0
  0
LINE
  5
1E3
330
52
100
AcDbEntity
  8
0
  6
Continuous
 62
     7
100
AcDbLine
 10
-43.53648721546477
 20
79.40721828008549
 30
0.0
 11
-44.30462014214567
 21
79.18547740408914
 31
0.0
  0
LINE
  5
1E4
330
52
100
AcDbEntity
  8
0
  6
Continuous
 62
     7
100
AcDbLine
 10
-44.56371301731815
 20
80.18068373347587
 30
0.0
 11
-45.02270648131417
 21
80.57818373346792
 31
0.0
  0
LINE
  5
1E5
330
52
100
AcDbEntity
  8
0
  6
Continuous
 62
     7
100
AcDbLine
 10
-45.02270648131417
 20
80.57818373346792
 30
0.0
 11
-45.25994046517226
 21
80.50970018124706
 31
0.0
  0
LINE
  5
1E6
330
52
100
AcDbEntity
  8
0
  6
Continuous
 62
     7
100
AcDbLine
 10
-40.95342444712438
 20
81.64421625703835
 30
0.0
 11
-48.72842444902096
 21
74.91086874097074
 31
0.0
  0
LINE
  5
1E7
330
52
100
AcDbEntity
  8
0
  6
Continuous
 62
     7
100
AcDbLine
 10
-48.72842444902096
 20
74.91086874097074
 30
0.0
 11
-37.12002977923217
 21
71.5598138472398
 31
0.0
  0
LINE
  5
1E8
330
52
100
AcDbEntity
  8
0
  6
Continuous
 62
     7
100
AcDbLine
 10
-45.02270648131417
 20
80.57818373346792
 30
0.0
 11
-53.52270648132188
 21
73.21696780130081
 31
0.0
  0
LINE
  5
1E9
330
52
100
AcDbEntity
  8
0
  6
Continuous
 62
     7
100
AcDbLine
 10
-53.06371301731986
 20
72.81946780130367
 30
0.0
 11
-44.56371301731815
 21
80.18068373347587
 31
0.0
  0
LINE
  5
1EA
330
52
100
AcDbEntity
  8
0
  6
Continuous
 62
     7
100
AcDbLine
 10
-48.06087014213816
 20
73.19366414165069
 30
0.0
 11
-48.52419373316297
 21
74.12991414165224
 31
0.0
  0
LINE
  5
1EB
330
52
100
AcDbEntity
  8
0
  6
Continuous
 62
     2
100
AcDbLine
 10
-35.75400437814005
 20
79.53705518084821
 30
0.0
 11
-24.69256523492575
 21
76.34389274736851
 31
0.0
  0
LINE
  5
1EC
330
52
100
AcDbEntity
  8
0
  6
Continuous
 62
     7
100
AcDbLine
 10
-45.42617119177976
 20
80.42039689076225
 30
0.0
 11
-53.92617119178115
 21
73.05918095859687
 31
0.0
  0
LINE
  5
1ED
330
52
100
AcDbEntity
  8
0
  6
Continuous
 62
     7
100
AcDbLine
 10
-0.19974953999727
 20
82.91332599055377
 30
0.0
 11
-0.19974953999727
 21
78.23678881011787
 31
0.0
  0
LINE
  5
1EE
330
52
100
AcDbEntity
  8
0
  6
Continuous
 62
     7
100
AcDbLine
 10
14.46819503002322
 20
93.27158317569584
 30
0.0
 11
15.19319502812613
 21
93.89945159179636
 31
0.0
  0
LINE
  5
1EF
330
52
100
AcDbEntity
  8
0
  6
Continuous
 62
     7
100
AcDbLine
 10
1.78019956228465
 20
79.64705424264464
 30
0.0
 11
1.78019956228474
 21
76.76030289669656
 31
0.0
  0
LINE
  5
1F0
330
52
100
AcDbEntity
  8
0
  6
Continuous
 62
     7
100
AcDbLine
 10
1.78019956228474
 20
76.76030289669656
 30
0.0
 11
1.78019956228465
 21
72.60338095853122
 31
0.0
  0
LINE
  5
1F1
330
52
100
AcDbEntity
  8
0
  6
Continuous
 62
     7
100
AcDbLine
 10
10.42841849167112
 20
56.99384821415512
 30
0.0
 11
10.42841849167215
 21
57.83375914286194
 31
0.0
  0
LINE
  5
1F2
330
52
100
AcDbEntity
  8
0
  6
Continuous
 62
     7
100
AcDbLine
 10
6.59502447971914
 20
75.71238999735564
 30
0.0
 11
5.72899907593535
 21
75.96238999735543
 31
0.0
  0
LINE
  5
1F3
330
52
100
AcDbEntity
  8
0
  6
Continuous
 62
     7
100
AcDbLine
 10
-1.17997552217847
 20
61.18481384723991
 30
0.0
 11
-1.17997552217835
 21
68.97904248128833
 31
0.0
  0
LINE
  5
1F4
330
52
100
AcDbEntity
  8
0
  6
Continuous
 62
     7
100
AcDbLine
 10
6.59502447971914
 20
67.91816136330726
 30
0.0
 11
-1.17997552217847
 21
61.18481384723991
 31
0.0
  0
LINE
  5
1F5
330
52
100
AcDbEntity
  8
0
  6
Continuous
 62
     7
100
AcDbLine
 10
-1.17997552217847
 20
61.18481384723991
 30
0.0
 11
10.42841849167215
 21
57.83375914286194
 31
0.0
  0
LINE
  5
1F6
330
52
100
AcDbEntity
  8
0
  6
Continuous
 62
     7
100
AcDbLine
 10
9.76086418478923
 20
56.50196720231947
 30
0.0
 11
10.22418777581424
 21
57.1707172023209
 31
0.0
  0
LINE
  5
1F7
330
52
100
AcDbEntity
  8
0
  6
Continuous
 62
     7
100
AcDbLine
 10
-25.47198809833188
 20
80.6680796617242
 30
0.0
 11
-25.47198809833176
 21
95.82352422792798
 31
0.0
  0
LINE
  5
1F8
330
52
100
AcDbEntity
  8
0
  6
Continuous
 62
     7
100
AcDbLine
 10
-13.60744006648426
 20
77.24307966172404
 30
0.0
 11
-12.82801720307836
 21
77.01807966172402
 31
0.0
  0
LINE
  5
1F9
330
52
100
AcDbEntity
  8
0
  6
Continuous
 62
     7
100
AcDbLine
 10
-12.12801720307837
 20
77.6242974443731
 30
0.0
 11
-12.12801720307837
 21
92.77974201057437
 31
0.0
  0
LINE
  5
1FA
330
52
100
AcDbEntity
  8
0
  6
Continuous
 62
     7
100
AcDbLine
 10
-19.61279029186346
 20
88.1709779810203
 30
0.0
 11
-14.47346547026865
 21
86.68738269641997
 31
0.0
  0
LINE
  5
1FB
330
52
100
AcDbEntity
  8
0
  6
Continuous
 62
     7
100
AcDbLine
 10
-14.47346547026797
 20
83.77176383482036
 30
0.0
 11
-14.47346547026797
 21
89.35762768923342
 31
0.0
  0
LINE
  5
1FC
330
52
100
AcDbEntity
  8
0
  6
Continuous
 62
     7
100
AcDbLine
 10
-14.47346547026797
 20
89.35762768923342
 30
0.0
 11
-16.53183024993416
 21
89.9518264190487
 31
0.0
  0
LINE
  5
1FD
330
52
100
AcDbEntity
  8
0
  6
Continuous
 62
     7
100
AcDbLine
 10
-12.82801720307836
 20
77.01807966172402
 30
0.0
 11
-12.82801720307828
 21
92.17352422792526
 31
0.0
  0
LINE
  5
1FE
330
52
100
AcDbEntity
  8
0
  6
Continuous
 62
     7
100
AcDbLine
 10
-16.53183024993416
 20
89.9518264190487
 30
0.0
 11
-16.68183024993425
 21
90.25493531037318
 31
0.0
  0
LINE
  5
1FF
330
52
100
AcDbEntity
  8
0
  6
Continuous
 62
     7
100
AcDbLine
 10
-16.68183024993417
 20
90.51474293146852
 30
0.0
 11
-16.68183024993425
 21
90.25493531037318
 31
0.0
  0
LINE
  5
200
330
52
100
AcDbEntity
  8
0
  6
Continuous
 62
     7
100
AcDbLine
 10
-19.61279029186346
 20
88.1709779810203
 30
0.0
 11
-16.40037199370426
 21
90.95301383480816
 31
0.0
  0
LINE
  5
201
330
52
100
AcDbEntity
  8
0
  6
Continuous
 62
     7
100
AcDbLine
 10
-23.82653983109296
 20
86.4717638348068
 30
0.0
 11
-23.82653983111987
 21
92.05762768922712
 31
0.0
  0
LINE
  5
202
330
52
100
AcDbEntity
  8
0
  6
Continuous
 62
     7
100
AcDbLine
 10
-32.29976044155686
 20
83.76484594445077
 30
0.0
 11
-32.25038539407296
 21
86.65149172450501
 31
0.0
  0
LINE
  5
203
330
52
100
AcDbEntity
  8
0
  6
Continuous
 62
     7
100
AcDbLine
 10
-27.32463081079055
 20
82.30014303170661
 30
0.0
 11
-32.29976044155686
 21
83.76484594445077
 31
0.0
  0
LINE
  5
204
330
52
100
AcDbEntity
  8
0
  6
Continuous
 62
     7
100
AcDbLine
 10
-25.47198809833188
 20
82.82444388509383
 30
0.0
 11
-27.32463081079055
 21
82.30014303170661
 31
0.0
  0
LINE
  5
205
330
52
100
AcDbEntity
  8
0
  6
Continuous
 62
     7
100
AcDbLine
 10
-32.29976044155686
 20
83.76484594445077
 30
0.0
 11
-32.29976044155686
 21
79.60792400628549
 31
0.0
  0
LINE
  5
206
330
52
100
AcDbEntity
  8
0
  6
Continuous
 62
     7
100
AcDbLine
 10
-27.32463081079055
 20
82.30014303170661
 30
0.0
 11
-27.32463081079055
 21
78.14322109354124
 31
0.0
  0
LINE
  5
207
330
52
100
AcDbEntity
  8
0
  6
Continuous
 62
     7
100
AcDbLine
 10
-24.69256523492575
 20
78.88809986499398
 30
0.0
 11
-27.32463081079055
 21
78.14322109354124
 31
0.0
  0
LINE
  5
208
330
52
100
AcDbEntity
  8
0
  6
Continuous
 62
     7
100
AcDbLine
 10
-27.32463081079055
 20
78.14322109354124
 30
0.0
 11
-32.29976044155686
 21
79.60792400628549
 31
0.0
  0
LINE
  5
209
330
52
100
AcDbEntity
  8
0
  6
Continuous
 62
     7
100
AcDbLine
 10
-23.82653983109296
 20
86.4717638348068
 30
0.0
 11
-16.82653983109466
 21
92.53394166129713
 31
0.0
  0
LINE
  5
20A
330
52
100
AcDbEntity
  8
0
  6
Continuous
 62
     2
100
AcDbLine
 10
-35.75400437814005
 20
79.53705518084821
 30
0.0
 11
-32.29976044155686
 21
82.52851818079762
 31
0.0
  0
LINE
  5
20B
330
52
100
AcDbEntity
  8
0
  6
Continuous
 62
     7
100
AcDbLine
 10
-30.27525576520458
 20
89.86332599055375
 30
0.0
 11
-30.27525576520458
 21
85.18678881011785
 31
0.0
  0
LINE
  5
20C
330
52
100
AcDbEntity
  8
0
  6
Continuous
 62
     7
100
AcDbLine
 10
-16.16279029376506
 20
89.84529376003061
 30
0.0
 11
-16.16279029376506
 21
87.17504876721713
 31
0.0
  0
LINE
  5
20D
330
52
100
AcDbEntity
  8
0
  6
Continuous
 62
     7
100
AcDbLine
 10
-32.25038539407296
 20
86.65149172450501
 30
0.0
 11
-30.27525576520458
 21
87.2104565713166
 31
0.0
  0
LINE
  5
20E
330
52
100
AcDbEntity
  8
0
  6
Continuous
 62
     7
100
AcDbLine
 10
-25.47198809833188
 20
80.6680796617242
 30
0.0
 11
-24.69256523492575
 21
80.44307966172416
 31
0.0
  0
LINE
  5
20F
330
52
100
AcDbEntity
  8
0
  6
Continuous
 62
     7
100
AcDbLine
 10
-32.29976044155686
 20
83.52851818079846
 30
0.0
 11
-37.12002977923245
 21
79.35404248128822
 31
0.0
  0
LINE
  5
210
330
52
100
AcDbEntity
  8
0
  6
Continuous
 62
     7
100
AcDbLine
 10
-40.95342444712438
 20
81.64421625703835
 30
0.0
 11
-36.09502977732487
 21
80.24171852181925
 31
0.0
  0
LINE
  5
211
330
52
100
AcDbEntity
  8
0
  6
Continuous
 62
     7
100
AcDbLine
 10
-23.82653983109296
 20
86.4717638348068
 30
0.0
 11
-14.47346547026797
 21
83.77176383482036
 31
0.0
  0
LINE
  5
212
330
52
100
AcDbEntity
  8
0
  6
Continuous
 62
     7
100
AcDbLine
 10
-7.90647817216185
 20
98.8357020544154
 30
0.0
 11
-6.40647817216066
 21
100.1347401600931
 31
0.0
  0
LINE
  5
213
330
52
100
AcDbEntity
  8
0
  6
Continuous
 62
     7
100
AcDbLine
 10
-5.83244006458668
 20
99.13187174399252
 30
0.0
 11
-12.90744006648427
 21
93.00474201057433
 31
0.0
  0
LINE
  5
214
330
52
100
AcDbEntity
  8
0
  6
Continuous
 62
     7
100
AcDbLine
 10
-12.97346546836997
 20
93.94756233524555
 30
0.0
 11
-7.47346547027198
 21
98.71070205441335
 31
0.0
  0
LINE
  5
215
330
52
100
AcDbEntity
  8
0
  6
Continuous
 62
     7
100
AcDbLine
 10
-7.63772011013396
 20
99.4181439832254
 30
0.0
 11
-8.42764962355477
 21
98.85624747840686
 31
0.0
  0
LINE
  5
216
330
52
100
AcDbEntity
  8
0
  6
Continuous
 62
     7
100
AcDbLine
 10
-7.90647817216185
 20
98.8357020544154
 30
0.0
 11
-7.47346547027198
 21
98.71070205441335
 31
0.0
  0
LINE
  5
217
330
52
100
AcDbEntity
  8
0
  6
Continuous
 62
     2
100
AcDbLine
 10
-9.13772011014416
 20
98.11910587754898
 30
0.0
 11
-7.63772011013396
 21
99.4181439832254
 31
0.0
  0
LINE
  5
218
330
52
100
AcDbEntity
  8
0
  6
Continuous
 62
     7
100
AcDbLine
 10
-8.69420075830138
 20
97.80736113817487
 30
0.0
 11
-7.90647817216427
 21
98.48954890889961
 31
0.0
  0
LINE
  5
219
330
52
100
AcDbEntity
  8
0
  6
Continuous
 62
     7
100
AcDbLine
 10
-7.90647817216185
 20
98.8357020544154
 30
0.0
 11
-7.90647817216427
 21
98.33570205441319
 31
0.0
  0
LINE
  5
21A
330
52
100
AcDbEntity
  8
0
  6
Continuous
 62
     7
100
AcDbLine
 10
-12.82801720307828
 20
92.17352422792526
 30
0.0
 11
-12.12801720307837
 21
92.77974201057437
 31
0.0
  0
LINE
  5
21B
330
52
100
AcDbEntity
  8
0
  6
Continuous
 62
     7
100
AcDbLine
 10
-14.90647817216097
 20
92.77352422792522
 30
0.0
 11
-12.82801720307828
 21
92.17352422792526
 31
0.0
  0
LINE
  5
21C
330
52
100
AcDbEntity
  8
0
  6
Continuous
 62
     7
100
AcDbLine
 10
-12.90744006648427
 20
93.00474201057433
 30
0.0
 11
-12.12801720307837
 21
92.77974201057437
 31
0.0
  0
LINE
  5
21D
330
52
100
AcDbEntity
  8
0
  6
Continuous
 62
     7
100
AcDbLine
 10
-9.92764962356236
 20
97.55720937273222
 30
0.0
 11
-9.40037199367288
 21
97.40499743195494
 31
0.0
  0
LINE
  5
21E
330
52
100
AcDbEntity
  8
0
  6
Continuous
 62
     7
100
AcDbLine
 10
-9.13772011014416
 20
98.11910587754898
 30
0.0
 11
-9.92764962356236
 21
97.55720937273222
 31
0.0
  0
LINE
  5
21F
330
52
100
AcDbEntity
  8
0
  6
Continuous
 62
     7
100
AcDbLine
 10
-9.40037199367288
 20
97.40499743195494
 30
0.0
 11
-9.40037199367515
 21
97.04195205442795
 31
0.0
  0
LINE
  5
220
330
52
100
AcDbEntity
  8
0
  6
Continuous
 62
     7
100
AcDbLine
 10
-8.69420075830138
 20
97.80736113817487
 30
0.0
 11
-8.56096547401927
 21
97.76889942455242
 31
0.0
  0
LINE
  5
221
330
52
100
AcDbEntity
  8
0
  6
Continuous
 62
     7
100
AcDbLine
 10
-12.97346546836997
 20
93.94756233524555
 30
0.0
 11
-13.40647817026277
 21
94.07256233524573
 31
0.0
  0
LINE
  5
222
330
52
100
AcDbEntity
  8
0
  6
Continuous
 62
     7
100
AcDbLine
 10
-13.11817505147636
 20
93.98933639362593
 30
0.0
 11
-13.11817505147636
 21
99.30095886362224
 31
0.0
  0
LINE
  5
223
330
52
100
AcDbEntity
  8
0
  6
Continuous
 62
     7
100
AcDbLine
 10
-13.11817505147636
 20
99.30095886362224
 30
0.0
 11
-13.39963330774097
 21
99.3822088636323
 31
0.0
  0
LINE
  5
224
330
52
100
AcDbEntity
  8
0
  6
Continuous
 62
     7
100
AcDbLine
 10
-13.11817505147636
 20
99.30095886362224
 30
0.0
 11
-14.61817505147755
 21
98.00192075794561
 31
0.0
  0
LINE
  5
225
330
52
100
AcDbEntity
  8
0
  6
Continuous
 62
     7
100
AcDbLine
 10
-13.66228519127827
 20
101.1572861188971
 30
0.0
 11
-12.87235567785055
 21
100.1393235968649
 31
0.0
  0
LINE
  5
226
330
52
100
AcDbEntity
  8
0
  6
Continuous
 62
     7
100
AcDbLine
 10
-13.39963330774106
 20
99.68268777453002
 30
0.0
 11
-13.39963330774097
 21
99.3822088636323
 31
0.0
  0
LINE
  5
227
330
52
100
AcDbEntity
  8
0
  6
Continuous
 62
     7
100
AcDbLine
 10
-14.89352712923986
 20
102.5847401600907
 30
0.0
 11
-14.89352712923378
 21
101.3290033202737
 31
0.0
  0
LINE
  5
228
330
52
100
AcDbEntity
  8
0
  6
Continuous
 62
     7
100
AcDbLine
 10
-14.89352712923378
 20
101.3290033202737
 30
0.0
 11
-14.18969009917467
 21
101.1258230708885
 31
0.0
  0
LINE
  5
229
330
52
100
AcDbEntity
  8
0
  6
Continuous
 62
     7
100
AcDbLine
 10
-14.89963330773526
 20
98.99249743196373
 30
0.0
 11
-14.37235567784475
 21
98.84028549118631
 31
0.0
  0
LINE
  5
22A
330
52
100
AcDbEntity
  8
0
  6
Continuous
 62
     7
100
AcDbLine
 10
-15.16228519127478
 20
99.85824801321644
 30
0.0
 11
-14.37235567784475
 21
98.84028549118631
 31
0.0
  0
LINE
  5
22B
330
52
100
AcDbEntity
  8
0
  6
Continuous
 62
     7
100
AcDbLine
 10
-14.61817505147755
 20
93.36798083121789
 30
0.0
 11
-14.61817505147755
 21
98.00192075794561
 31
0.0
  0
LINE
  5
22C
330
52
100
AcDbEntity
  8
0
  6
Continuous
 62
     7
100
AcDbLine
 10
-14.61817505147755
 20
98.00192075794561
 30
0.0
 11
-14.89963330773526
 21
98.08317075795367
 31
0.0
  0
LINE
  5
22D
330
52
100
AcDbEntity
  8
0
  6
Continuous
 62
     7
100
AcDbLine
 10
-23.39352712923997
 20
95.22352422792277
 30
0.0
 11
-25.47198809833176
 21
95.82352422792798
 31
0.0
  0
LINE
  5
22E
330
52
100
AcDbEntity
  8
0
  6
Continuous
 62
     7
100
AcDbLine
 10
-22.32653982923767
 20
96.6475623352449
 30
0.0
 11
-21.89352712734186
 21
96.5225623352433
 31
0.0
  0
LINE
  5
22F
330
52
100
AcDbEntity
  8
0
  6
Continuous
 62
     7
100
AcDbLine
 10
-25.47198809833176
 20
95.82352422792798
 30
0.0
 11
-24.77198809833178
 21
96.4297420105771
 31
0.0
  0
LINE
  5
230
330
52
100
AcDbEntity
  8
0
  6
Continuous
 62
     7
100
AcDbLine
 10
-44.36820032763146
 20
97.0059988467512
 30
0.0
 11
-43.41820032763147
 21
96.73175746888614
 31
0.0
  0
LINE
  5
231
330
52
100
AcDbEntity
  8
0
  6
Continuous
 62
     7
100
AcDbLine
 10
-23.99256523492588
 20
96.20474201057614
 30
0.0
 11
-24.77198809833178
 21
96.4297420105771
 31
0.0
  0
LINE
  5
232
330
52
100
AcDbEntity
  8
0
  6
Continuous
 62
     7
100
AcDbLine
 10
-20.26817504957836
 20
92.76246706673791
 30
0.0
 11
-21.76817505147656
 21
91.46342895941848
 31
0.0
  0
LINE
  5
233
330
52
100
AcDbEntity
  8
0
  6
Continuous
 62
     7
100
AcDbLine
 10
-21.61817505147656
 20
91.67993531036456
 30
0.0
 11
-21.76817505147656
 21
91.46342895941848
 31
0.0
  0
LINE
  5
234
330
52
100
AcDbEntity
  8
0
  6
Continuous
 62
     7
100
AcDbLine
 10
-21.61817505147656
 20
91.67993531036456
 30
0.0
 11
-21.61817505147656
 21
91.93974293146042
 31
0.0
  0
LINE
  5
235
330
52
100
AcDbEntity
  8
0
  6
Continuous
 62
     7
100
AcDbLine
 10
-14.90647817216086
 20
91.51778738811561
 30
0.0
 11
-15.69420075833037
 21
91.745183311701
 31
0.0
  0
LINE
  5
236
330
52
100
AcDbEntity
  8
0
  6
Continuous
 62
     7
100
AcDbLine
 10
-16.92764962359377
 20
91.49503154625627
 30
0.0
 11
-16.13772011017147
 21
92.05692805107634
 31
0.0
  0
LINE
  5
237
330
52
100
AcDbEntity
  8
0
  6
Continuous
 62
     7
100
AcDbLine
 10
-21.89963330770198
 20
92.02099293145909
 30
0.0
 11
-21.89963330770198
 21
92.93031960546917
 31
0.0
  0
LINE
  5
238
330
52
100
AcDbEntity
  8
0
  6
Continuous
 62
     7
100
AcDbLine
 10
-21.89963330770198
 20
92.02099293145909
 30
0.0
 11
-21.61817505147656
 21
91.93974293146042
 31
0.0
  0
LINE
  5
239
330
52
100
AcDbEntity
  8
0
  6
Continuous
 62
     7
100
AcDbLine
 10
-15.42764962168866
 20
92.79406965357381
 30
0.0
 11
-14.63772010826816
 21
93.35596615839255
 31
0.0
  0
LINE
  5
23A
330
52
100
AcDbEntity
  8
0
  6
Continuous
 62
     7
100
AcDbLine
 10
-20.11817504957836
 20
93.23878103877983
 30
0.0
 11
-20.11817504957836
 21
92.97897341768402
 31
0.0
  0
LINE
  5
23B
330
52
100
AcDbEntity
  8
0
  6
Continuous
 62
     7
100
AcDbLine
 10
-20.26817504957836
 20
92.76246706673791
 30
0.0
 11
-20.11817504957836
 21
92.97897341768402
 31
0.0
  0
LINE
  5
23C
330
52
100
AcDbEntity
  8
0
  6
Continuous
 62
     7
100
AcDbLine
 10
-20.39963330581065
 20
93.32003103878054
 30
0.0
 11
-20.39963330581065
 21
93.62050994967828
 31
0.0
  0
LINE
  5
23D
330
52
100
AcDbEntity
  8
0
  6
Continuous
 62
     7
100
AcDbLine
 10
-20.39963330581065
 20
93.32003103878054
 30
0.0
 11
-20.11817504957836
 21
93.23878103877983
 31
0.0
  0
LINE
  5
23E
330
52
100
AcDbEntity
  8
0
  6
Continuous
 62
     7
100
AcDbLine
 10
-21.18969009724435
 20
95.06364524603676
 30
0.0
 11
-21.89352712733586
 21
95.26682549543123
 31
0.0
  0
LINE
  5
23F
330
52
100
AcDbEntity
  8
0
  6
Continuous
 62
     7
100
AcDbLine
 10
-23.39352712923397
 20
93.96778738811174
 30
0.0
 11
-23.39352712923997
 21
95.22352422792277
 31
0.0
  0
LINE
  5
240
330
52
100
AcDbEntity
  8
0
  6
Continuous
 62
     7
100
AcDbLine
 10
-21.89352712733586
 20
95.26682549543123
 30
0.0
 11
-23.39352712923397
 21
93.96778738811174
 31
0.0
  0
LINE
  5
241
330
52
100
AcDbEntity
  8
0
  6
Continuous
 62
     7
100
AcDbLine
 10
-22.60580454308575
 20
93.74039146453165
 30
0.0
 11
-23.39352712923397
 21
93.96778738811174
 31
0.0
  0
LINE
  5
242
330
52
100
AcDbEntity
  8
0
  6
Continuous
 62
     2
100
AcDbLine
 10
-16.13772011017147
 20
92.05692805107634
 30
0.0
 11
-14.63772010826816
 21
93.35596615839255
 31
0.0
  0
LINE
  5
243
330
52
100
AcDbEntity
  8
0
  6
Continuous
 62
     7
100
AcDbLine
 10
-21.89963330770198
 20
92.02099293145909
 30
0.0
 11
-20.39963330581065
 21
93.32003103878054
 31
0.0
  0
LINE
  5
244
330
52
100
AcDbEntity
  8
0
  6
Continuous
 62
     7
100
AcDbLine
 10
-15.42764962168866
 20
92.79406965357381
 30
0.0
 11
-16.92764962359377
 21
91.49503154625627
 31
0.0
  0
LINE
  5
245
330
52
100
AcDbEntity
  8
0
  6
Continuous
 62
     7
100
AcDbLine
 10
-16.40037199370426
 20
90.75849293146828
 30
0.0
 11
-16.68183024993417
 21
90.51474293146852
 31
0.0
  0
LINE
  5
246
330
52
100
AcDbEntity
  8
0
  6
Continuous
 62
     7
100
AcDbLine
 10
-21.61817505147656
 20
91.93974293146042
 30
0.0
 11
-20.11817504957836
 21
93.23878103877983
 31
0.0
  0
LINE
  5
247
330
52
100
AcDbEntity
  8
0
  6
Continuous
 62
     7
100
AcDbLine
 10
-20.11817504957836
 20
92.97897341768402
 30
0.0
 11
-21.61817505147656
 21
91.67993531036456
 31
0.0
  0
LINE
  5
248
330
52
100
AcDbEntity
  8
0
  6
Continuous
 62
     7
100
AcDbLine
 10
-14.89352712923378
 20
101.3290033202737
 30
0.0
 11
-16.39352712923497
 21
100.029965214597
 31
0.0
  0
LINE
  5
249
330
52
100
AcDbEntity
  8
0
  6
Continuous
 62
     7
100
AcDbLine
 10
-14.89963330773526
 20
98.08317075795367
 30
0.0
 11
-13.39963330774097
 21
99.3822088636323
 31
0.0
  0
LINE
  5
24A
330
52
100
AcDbEntity
  8
0
  6
Continuous
 62
     2
100
AcDbLine
 10
-15.16228519127478
 20
99.85824801321644
 30
0.0
 11
-13.66228519127827
 21
101.1572861188971
 31
0.0
  0
LINE
  5
24B
330
52
100
AcDbEntity
  8
0
  6
Continuous
 62
     7
100
AcDbLine
 10
-12.87235567785055
 20
100.1393235968649
 30
0.0
 11
-14.37235567784475
 21
98.84028549118631
 31
0.0
  0
LINE
  5
24C
330
52
100
AcDbEntity
  8
0
  6
Continuous
 62
     7
100
AcDbLine
 10
-15.54239302319877
 20
99.9543479749039
 30
0.0
 11
-14.04239302320215
 21
101.2533860805845
 31
0.0
  0
LINE
  5
24D
330
52
100
AcDbEntity
  8
0
  6
Continuous
 62
     7
100
AcDbLine
 10
-8.42764962355477
 20
98.85624747840686
 30
0.0
 11
-9.92764962356236
 21
97.55720937273222
 31
0.0
  0
LINE
  5
24E
330
52
100
AcDbEntity
  8
0
  6
Continuous
 62
     7
100
AcDbLine
 10
-14.90647817216097
 20
92.77352422792522
 30
0.0
 11
-13.40647817026277
 21
94.07256233524573
 31
0.0
  0
LINE
  5
24F
330
52
100
AcDbEntity
  8
0
  6
Continuous
 62
     7
100
AcDbLine
 10
-5.83244006458668
 20
99.13187174399252
 30
0.0
 11
14.46819503002322
 21
93.27158317569584
 31
0.0
  0
LINE
  5
250
330
52
100
AcDbEntity
  8
0
  6
Continuous
 62
     7
100
AcDbLine
 10
-6.40647817216066
 20
100.1347401600931
 30
0.0
 11
15.19319502812613
 21
93.89945159179636
 31
0.0
  0
LINE
  5
251
330
52
100
AcDbEntity
  8
0
  6
Continuous
 62
     7
100
AcDbLine
 10
-37.21820032762335
 20
108.1921603123117
 30
0.0
 11
-43.88683709083927
 21
98.56681223638559
 31
0.0
  0
LINE
  5
252
330
52
100
AcDbEntity
  8
0
  6
Continuous
 62
     7
100
AcDbLine
 10
-42.27249293308256
 20
98.38544365052445
 30
0.0
 11
-43.88683709083927
 21
98.56681223638559
 31
0.0
  0
LINE
  5
253
330
52
100
AcDbEntity
  8
0
  6
Continuous
 62
     7
100
AcDbLine
 10
-42.27249293308256
 20
98.38544365052445
 30
0.0
 11
-43.41820032763147
 21
96.73175746888614
 31
0.0
  0
LINE
  5
254
330
52
100
AcDbEntity
  8
0
  6
Continuous
 62
     7
100
AcDbLine
 10
-44.36820032763146
 20
97.0059988467512
 30
0.0
 11
-45.32319860455056
 21
95.62757756611396
 31
0.0
  0
LINE
  5
255
330
52
100
AcDbEntity
  8
0
  6
Continuous
 62
     7
100
AcDbLine
 10
-45.32319860455056
 20
95.62757756611396
 30
0.0
 11
-45.32319860455297
 21
87.11996741529126
 31
0.0
  0
LINE
  5
256
330
52
100
AcDbEntity
  8
0
  6
Continuous
 62
     7
100
AcDbLine
 10
-45.32319860455297
 20
87.11996741529126
 30
0.0
 11
-41.02557746303125
 21
81.58172991230333
 31
0.0
  0
LINE
  5
257
330
52
100
AcDbEntity
  8
0
  6
Continuous
 62
     7
100
AcDbLine
 10
-36.49320032952107
 20
108.820028728412
 30
0.0
 11
-37.21820032762335
 21
108.1921603123117
 31
0.0
  0
LINE
  5
258
330
52
100
AcDbEntity
  8
0
  6
Continuous
 62
     7
100
AcDbLine
 10
-16.39352712924105
 20
101.285702054413
 30
0.0
 11
-14.89352712923986
 21
102.5847401600907
 31
0.0
  0
LINE
  5
259
330
52
100
AcDbEntity
  8
0
  6
Continuous
 62
     7
100
AcDbLine
 10
-15.69420075833037
 20
91.745183311701
 30
0.0
 11
-14.90647817216086
 21
92.42737108245379
 31
0.0
  0
LINE
  5
25A
330
52
100
AcDbEntity
  8
0
  6
Continuous
 62
     7
100
AcDbLine
 10
-14.90647817216086
 20
91.51778738811561
 30
0.0
 11
-14.90647817216097
 21
92.77352422792522
 31
0.0
  0
LINE
  5
25B
330
52
100
AcDbEntity
  8
0
  6
Continuous
 62
     7
100
AcDbLine
 10
-16.39352712923497
 20
100.029965214597
 30
0.0
 11
-15.60580454311875
 21
99.80256929102654
 31
0.0
  0
LINE
  5
25C
330
52
100
AcDbEntity
  8
0
  6
Continuous
 62
     7
100
AcDbLine
 10
-16.00264962359026
 20
92.29610504475446
 30
0.0
 11
-16.82653983109466
 21
92.53394166129713
 31
0.0
  0
LINE
  5
25D
330
52
100
AcDbEntity
  8
0
  6
Continuous
 62
     7
100
AcDbLine
 10
-14.89963330773526
 20
98.99249743196373
 30
0.0
 11
-14.89963330773526
 21
98.08317075795367
 31
0.0
  0
LINE
  5
25E
330
52
100
AcDbEntity
  8
0
  6
Continuous
 62
     7
100
AcDbLine
 10
-16.39352712924105
 20
101.285702054413
 30
0.0
 11
-16.39352712923497
 21
100.029965214597
 31
0.0
  0
LINE
  5
25F
330
52
100
AcDbEntity
  8
0
  6
Continuous
 62
     7
100
AcDbLine
 10
-16.39352712924105
 20
101.285702054413
 30
0.0
 11
-16.82653983113735
 21
101.4107020544147
 31
0.0
  0
LINE
  5
260
330
52
100
AcDbEntity
  8
0
  6
Continuous
 62
     7
100
AcDbLine
 10
-16.82653983109466
 20
92.53394166129713
 30
0.0
 11
-16.82653983113735
 21
101.4107020544147
 31
0.0
  0
LINE
  5
261
330
52
100
AcDbEntity
  8
0
  6
Continuous
 62
     7
100
AcDbLine
 10
-22.32653982923767
 20
96.6475623352449
 30
0.0
 11
-16.82653983113735
 21
101.4107020544147
 31
0.0
  0
LINE
  5
262
330
52
100
AcDbEntity
  8
0
  6
Continuous
 62
     7
100
AcDbLine
 10
-43.64320032952887
 20
97.6338672628518
 30
0.0
 11
-44.36820032763146
 21
97.0059988467512
 31
0.0
  0
LINE
  5
263
330
52
100
AcDbEntity
  8
0
  6
Continuous
 62
     7
100
AcDbLine
 10
-19.87235567592018
 20
94.07714577201315
 30
0.0
 11
-20.66228518934776
 21
95.0951082940453
 31
0.0
  0
LINE
  5
264
330
52
100
AcDbEntity
  8
0
  6
Continuous
 62
     7
100
AcDbLine
 10
-21.37235567781147
 20
92.7781076646917
 30
0.0
 11
-21.89963330770198
 21
92.93031960546917
 31
0.0
  0
LINE
  5
265
330
52
100
AcDbEntity
  8
0
  6
Continuous
 62
     7
100
AcDbLine
 10
-16.40037199370417
 20
91.342819605479
 30
0.0
 11
-16.92764962359377
 21
91.49503154625627
 31
0.0
  0
LINE
  5
266
330
52
100
AcDbEntity
  8
0
  6
Continuous
 62
     7
100
AcDbLine
 10
-16.40037199370426
 20
90.43349293146849
 30
0.0
 11
-16.40037199370417
 21
91.342819605479
 31
0.0
  0
LINE
  5
267
330
52
100
AcDbEntity
  8
0
  6
Continuous
 62
     7
100
AcDbLine
 10
-19.87235567592018
 20
94.07714577201315
 30
0.0
 11
-21.37235567781147
 21
92.7781076646917
 31
0.0
  0
LINE
  5
268
330
52
100
AcDbEntity
  8
0
  6
Continuous
 62
     7
100
AcDbLine
 10
-21.37235567781147
 20
92.7781076646917
 30
0.0
 11
-22.16228519123678
 21
93.79607018672543
 31
0.0
  0
LINE
  5
269
330
52
100
AcDbEntity
  8
0
  6
Continuous
 62
     7
100
AcDbLine
 10
-16.68183024993417
 20
90.51474293146852
 30
0.0
 11
-16.40037199370426
 21
90.43349293146849
 31
0.0
  0
LINE
  5
26A
330
52
100
AcDbEntity
  8
0
  6
Continuous
 62
     7
100
AcDbLine
 10
-21.89352712733586
 20
95.26682549543123
 30
0.0
 11
-21.89352712734186
 21
96.5225623352433
 31
0.0
  0
LINE
  5
26B
330
52
100
AcDbEntity
  8
0
  6
Continuous
 62
     7
100
AcDbLine
 10
-23.39352712923997
 20
95.22352422792277
 30
0.0
 11
-21.89352712734186
 21
96.5225623352433
 31
0.0
  0
LINE
  5
26C
330
52
100
AcDbEntity
  8
0
  6
Continuous
 62
     2
100
AcDbLine
 10
-22.16228519123678
 20
93.79607018672543
 30
0.0
 11
-20.66228518934776
 21
95.0951082940453
 31
0.0
  0
LINE
  5
26D
330
52
100
AcDbEntity
  8
0
  6
Continuous
 62
     7
100
AcDbLine
 10
-43.64320032952887
 20
97.6338672628518
 30
0.0
 11
-42.93486699556306
 21
97.42938904233115
 31
0.0
  0
LINE
  5
26E
330
52
100
AcDbEntity
  8
0
  6
Continuous
 62
     7
100
AcDbLine
 10
-23.99256523492588
 20
96.20474201057614
 30
0.0
 11
-16.91756523302826
 21
102.3318717439943
 31
0.0
  0
LINE
  5
26F
330
52
100
AcDbEntity
  8
0
  6
Continuous
 62
     7
100
AcDbLine
 10
-23.82653983111987
 20
92.05762768922712
 30
0.0
 11
-21.76817505147656
 21
91.46342895941848
 31
0.0
  0
LINE
  5
270
330
52
100
AcDbEntity
  8
0
  6
Continuous
 62
     7
100
AcDbLine
 10
-22.54239302316307
 20
93.89217014841134
 30
0.0
 11
-21.04239302127175
 21
95.19120825573279
 31
0.0
  0
LINE
  5
271
330
52
100
AcDbEntity
  8
0
  6
Continuous
 62
     7
100
AcDbLine
 10
-16.91756523302826
 20
102.3318717439943
 30
0.0
 11
-37.21820032762335
 21
108.1921603123117
 31
0.0
  0
LINE
  5
272
330
52
100
AcDbEntity
  8
0
  6
Continuous
 62
     7
100
AcDbLine
 10
-14.89352712923986
 20
102.5847401600907
 30
0.0
 11
-36.49320032952107
 21
108.820028728412
 31
0.0
  0
LINE
  5
273
330
52
100
AcDbEntity
  8
0
  6
Continuous
 62
     7
100
AcDbLine
 10
19.52248763546714
 20
80.54676931761443
 30
0.0
 11
21.13683179322365
 21
79.79609586943022
 31
0.0
  0
LINE
  5
274
330
52
100
AcDbEntity
  8
0
  6
Continuous
 62
     7
100
AcDbLine
 10
22.34319502811883
 20
78.58523570155634
 30
0.0
 11
23.29819305020794
 21
76.65544642360544
 31
0.0
  0
LINE
  5
275
330
52
100
AcDbEntity
  8
0
  6
Continuous
 62
     7
100
AcDbLine
 10
20.86777443007694
 20
79.9212081124314
 30
0.0
 11
21.39319502811884
 21
78.85947707942138
 31
0.0
  0
LINE
  5
276
330
52
100
AcDbEntity
  8
0
  6
Continuous
 62
     7
100
AcDbLine
 10
21.86183179132652
 20
80.42396428553064
 30
0.0
 11
21.13683179322365
 21
79.79609586943022
 31
0.0
  0
LINE
  5
277
330
52
100
AcDbEntity
  8
0
  6
Continuous
 62
     7
100
AcDbLine
 10
22.34319502811883
 20
78.58523570155634
 30
0.0
 11
21.39319502811884
 21
78.85947707942138
 31
0.0
  0
LINE
  5
278
330
52
100
AcDbEntity
  8
0
  6
Continuous
 62
     7
100
AcDbLine
 10
22.34319502811883
 20
78.58523570155634
 30
0.0
 11
21.61819503001604
 21
77.95736728545573
 31
0.0
  0
LINE
  5
279
330
52
100
AcDbEntity
  8
0
  6
Continuous
 62
     7
100
AcDbLine
 10
21.39319502811884
 20
78.85947707942138
 30
0.0
 11
20.66819503001602
 21
78.23160866332074
 31
0.0
  0
LINE
  5
27A
330
52
100
AcDbEntity
  8
0
  6
Continuous
 62
     7
100
AcDbLine
 10
20.66819503001602
 20
78.23160866332074
 30
0.0
 11
21.61819503001604
 21
77.95736728545573
 31
0.0
  0
LINE
  5
27B
330
52
100
AcDbEntity
  8
0
  6
Continuous
 62
     7
100
AcDbLine
 10
23.29819305020794
 20
76.65544642360544
 30
0.0
 11
22.57319305210532
 21
76.02757800750494
 31
0.0
  0
LINE
  5
27C
330
52
100
AcDbEntity
  8
0
  6
Continuous
 62
     7
100
AcDbLine
 10
23.29819305020655
 20
68.15363816274774
 30
0.0
 11
23.29819305020794
 21
76.65544642360544
 31
0.0
  0
LINE
  5
27D
330
52
100
AcDbEntity
  8
0
  6
Continuous
 62
     7
100
AcDbLine
 10
22.57319305210405
 20
67.52576974664723
 30
0.0
 11
22.57319305210532
 21
76.02757800750494
 31
0.0
  0
LINE
  5
27E
330
52
100
AcDbEntity
  8
0
  6
Continuous
 62
     7
100
AcDbLine
 10
18.92841849167294
 20
64.93315097301635
 30
0.0
 11
18.92841849167223
 21
64.35506414632594
 31
0.0
  0
LINE
  5
27F
330
52
100
AcDbEntity
  8
0
  6
Continuous
 62
     7
100
AcDbLine
 10
18.20341849357044
 20
64.41744044694732
 30
0.0
 11
22.57319305210405
 21
67.52576974664723
 31
0.0
  0
LINE
  5
280
330
52
100
AcDbEntity
  8
0
  6
Continuous
 62
     7
100
AcDbLine
 10
18.20341849357064
 20
64.56710665892905
 30
0.0
 11
18.20341849357044
 21
64.41744044694732
 31
0.0
  0
LINE
  5
281
330
52
100
AcDbEntity
  8
0
  6
Continuous
 62
     7
100
AcDbLine
 10
6.59502447971914
 20
75.71238999735564
 30
0.0
 11
6.59502447971914
 21
67.91816136330726
 31
0.0
  0
LINE
  5
282
330
52
100
AcDbEntity
  8
0
  6
Continuous
 62
     7
100
AcDbLine
 10
6.59502447971914
 20
67.91816136330726
 30
0.0
 11
18.20341849357064
 21
64.56710665892905
 31
0.0
  0
LINE
  5
283
330
52
100
AcDbEntity
  8
0
  6
Continuous
 62
     7
100
AcDbLine
 10
10.42841849167215
 20
57.83375914286194
 30
0.0
 11
18.20341849357064
 21
64.56710665892905
 31
0.0
  0
LINE
  5
284
330
52
100
AcDbEntity
  8
0
  6
Continuous
 62
     7
100
AcDbLine
 10
22.66603367131353
 20
57.3610203604529
 30
0.0
 11
24.19767498140084
 21
59.57175416715687
 31
0.0
  0
LINE
  5
285
330
52
100
AcDbEntity
  8
0
  6
Continuous
 62
     7
100
AcDbLine
 10
15.69767498140155
 20
52.21053823499032
 30
0.0
 11
14.16603367131344
 21
49.99980442828504
 31
0.0
  0
LINE
  5
286
330
52
100
AcDbEntity
  8
0
  6
Continuous
 62
     7
100
AcDbLine
 10
14.96793777581843
 20
53.06250919311547
 30
0.0
 11
14.50461418479293
 21
52.39375919311371
 31
0.0
  0
LINE
  5
287
330
52
100
AcDbEntity
  8
0
  6
Continuous
 62
     7
100
AcDbLine
 10
23.72270052396513
 20
60.73309411344349
 30
0.0
 11
23.95993450781754
 21
60.52764345678665
 31
0.0
  0
LINE
  5
288
330
52
100
AcDbEntity
  8
0
  6
Continuous
 62
     7
100
AcDbLine
 10
23.26370705996934
 20
60.60059411344593
 30
0.0
 11
23.72270052396513
 21
60.73309411344349
 31
0.0
  0
LINE
  5
289
330
52
100
AcDbEntity
  8
0
  6
Continuous
 62
     7
100
AcDbLine
 10
10.22418777581424
 20
57.1707172023209
 30
0.0
 11
10.42841849167112
 21
56.99384821415512
 31
0.0
  0
LINE
  5
28A
330
52
100
AcDbEntity
  8
0
  6
Continuous
 62
     7
100
AcDbLine
 10
14.76370705997093
 20
53.23937818127281
 30
0.0
 11
14.96793777581843
 21
53.06250919311547
 31
0.0
  0
LINE
  5
28B
330
52
100
AcDbEntity
  8
0
  6
Continuous
 62
     7
100
AcDbLine
 10
15.45993450781853
 20
53.16642752462059
 30
0.0
 11
15.22270052397235
 21
53.37187818127203
 31
0.0
  0
LINE
  5
28C
330
52
100
AcDbEntity
  8
0
  6
Continuous
 62
     7
100
AcDbLine
 10
15.22270052397235
 20
53.37187818127203
 30
0.0
 11
14.76370705997093
 21
53.23937818127281
 31
0.0
  0
LINE
  5
28D
330
52
100
AcDbEntity
  8
0
  6
Continuous
 62
     7
100
AcDbLine
 10
14.50461418479293
 20
52.39375919311371
 30
0.0
 11
9.76086418478923
 21
56.50196720231947
 31
0.0
  0
LINE
  5
28E
330
52
100
AcDbEntity
  8
0
  6
Continuous
 62
     7
100
AcDbLine
 10
18.31065370364064
 20
63.8200641463269
 30
0.0
 11
22.64594227193703
 21
60.065594113446
 31
0.0
  0
LINE
  5
28F
330
52
100
AcDbEntity
  8
0
  6
Continuous
 62
     2
100
AcDbLine
 10
15.69767498140155
 20
52.21053823499032
 30
0.0
 11
24.19767498140084
 21
59.57175416715687
 31
0.0
  0
LINE
  5
290
330
52
100
AcDbEntity
  8
0
  6
Continuous
 62
     7
100
AcDbLine
 10
14.16603367131344
 20
49.99980442828504
 30
0.0
 11
22.66603367131353
 21
57.3610203604529
 31
0.0
  0
LINE
  5
291
330
52
100
AcDbEntity
  8
0
  6
Continuous
 62
     7
100
AcDbLine
 10
15.22270052397235
 20
53.37187818127203
 30
0.0
 11
23.72270052396513
 21
60.73309411344349
 31
0.0
  0
LINE
  5
292
330
52
100
AcDbEntity
  8
0
  6
Continuous
 62
     7
100
AcDbLine
 10
23.26370705996934
 20
60.60059411344593
 30
0.0
 11
14.76370705997093
 21
53.23937818127281
 31
0.0
  0
LINE
  5
293
330
52
100
AcDbEntity
  8
0
  6
Continuous
 62
     2
100
AcDbLine
 10
15.45993450781853
 20
53.16642752462059
 30
0.0
 11
23.95993450781754
 21
60.52764345678665
 31
0.0
  0
LINE
  5
294
330
52
100
AcDbEntity
  8
0
  6
Continuous
 62
     7
100
AcDbLine
 10
9.76086418478923
 20
56.50196720231947
 30
0.0
 11
10.37862897282292
 21
57.03696720232005
 31
0.0
  0
LINE
  5
295
330
52
100
AcDbEntity
  8
0
  6
Continuous
 62
     7
100
AcDbLine
 10
21.61819503001604
 20
77.95736728545573
 30
0.0
 11
22.57319305210532
 21
76.02757800750494
 31
0.0
  0
LINE
  5
296
330
52
100
AcDbEntity
  8
0
  6
Continuous
 62
     7
100
AcDbLine
 10
23.29819305020655
 20
68.15363816274774
 30
0.0
 11
22.57319305210405
 21
67.52576974664723
 31
0.0
  0
LINE
  5
297
330
52
100
AcDbEntity
  8
0
  6
Continuous
 62
     7
100
AcDbLine
 10
19.52248763546714
 20
80.54676931761443
 30
0.0
 11
20.66819503001602
 21
78.23160866332074
 31
0.0
  0
LINE
  5
298
330
52
100
AcDbEntity
  8
0
  6
Continuous
 62
     7
100
AcDbLine
 10
10.42841849167112
 20
56.99384821415512
 30
0.0
 11
18.92841849167223
 21
64.35506414632594
 31
0.0
  0
LINE
  5
299
330
52
100
AcDbEntity
  8
0
  6
Continuous
 62
     7
100
AcDbLine
 10
14.46819503002322
 20
93.27158317569584
 30
0.0
 11
21.13683179322365
 21
79.79609586943022
 31
0.0
  0
LINE
  5
29A
330
52
100
AcDbEntity
  8
0
  6
Continuous
 62
     7
100
AcDbLine
 10
15.19319502812613
 20
93.89945159179636
 30
0.0
 11
21.86183179132652
 21
80.42396428553064
 31
0.0
  0
LINE
  5
29B
330
52
100
AcDbEntity
  8
0
  6
Continuous
 62
     7
100
AcDbLine
 10
-52.46603962866237
 20
69.23482715648711
 30
0.0
 11
14.16603367131344
 21
49.99980442828504
 31
0.0
  0
SPLINE
  5
29C
330
52
100
AcDbEntity
  8
0
  6
Continuous
 62
     7
100
AcDbSpline
210
0.0
220
0.0
230
1.0
 70
     8
 71
     3
 72
    19
 73
    15
 74
    13
 42
0.000000001
 43
0.0000000001
 44
0.00000001
 40
0.0
 40
0.0
 40
0.0
 40
0.0
 40
0.4014610051777799
 40
0.8712471558980812
 40
1.440286931547126
 40
2.105766040141404
 40
2.844663649928968
 40
3.622801020616967
 40
4.400938391304932
 40
5.139836001092505
 40
5.805315109686823
 40
6.374354885335848
 40
6.844141036056117
 40
7.245602041233881
 40
7.245602041233881
 40
7.245602041233881
 40
7.245602041233881
 10
-0.1997495399972706
 20
78.23678881011787
 30
0.0
 10
-0.2226088597430458
 20
78.10236741530575
 30
0.0
 10
-0.2722179734234655
 20
77.81064728951888
 30
0.0
 10
-0.6161844318007108
 20
77.44546050764619
 30
0.0
 10
-1.096946119276395
 20
77.14298845862453
 30
0.0
 10
-1.718985540511762
 20
76.91332192714835
 30
0.0
 10
-2.433969445854214
 20
76.76925666388755
 30
0.0
 10
-3.199749539997243
 20
76.72013495991587
 30
0.0
 10
-3.96552963414028
 20
76.76925666388755
 30
0.0
 10
-4.680513539482727
 20
76.91332192714839
 30
0.0
 10
-5.302552960718122
 20
77.14298845862449
 30
0.0
 10
-5.783314648193777
 20
77.44546050764625
 30
0.0
 10
-6.127281106570962
 20
77.81064728951893
 30
0.0
 10
-6.176890220251382
 20
78.10236741530578
 30
0.0
 10
-6.199749539997157
 20
78.2367888101179
 30
0.0
 11
-0.1997495399972706
 21
78.23678881011787
 31
0.0
 11
-0.3019728336941867
 21
77.84856034596804
 31
0.0
 11
-0.6016733286439262
 21
77.48678881011784
 31
0.0
 11
-1.078429761993846
 21
77.17612892111615
 31
0.0
 11
-1.699749539997214
 21
76.93775070444119
 31
0.0
 11
-2.423292611697628
 21
76.78790045696634
 31
0.0
 11
-3.199749539997256
 21
76.73678881011784
 31
0.0
 11
-3.97620646829685
 21
76.78790045696634
 31
0.0
 11
-4.699749539997271
 21
76.9377507044412
 31
0.0
 11
-5.321069318000681
 21
77.17612892111616
 31
0.0
 11
-5.797825751350558
 21
77.48678881011789
 31
0.0
 11
-6.097526246300248
 21
77.84856034596808
 31
0.0
 11
-6.199749539997157
 21
78.2367888101179
 31
0.0
  0
SPLINE
  5
29D
330
52
100
AcDbEntity
  8
0
  6
Continuous
 62
     7
100
AcDbSpline
210
0.0
220
0.0
230
1.0
 70
     8
 71
     3
 72
    19
 73
    15
 74
    13
 42
0.000000001
 43
0.0000000001
 44
0.00000001
 40
0.0
 40
0.0
 40
0.0
 40
0.0
 40
0.401461005177777
 40
0.8712471558980401
 40
1.440286931547092
 40
2.105766040141366
 40
2.844663649928893
 40
3.622801020616888
 40
4.400938391304882
 40
5.139836001092411
 40
5.805315109686737
 40
6.374354885335787
 40
6.844141036056055
 40
7.24560204123383
 40
7.24560204123383
 40
7.24560204123383
 40
7.24560204123383
 10
-0.1997495399972706
 20
82.91332599055377
 30
0.0
 10
-0.2226088597430646
 20
82.77890459574164
 30
0.0
 10
-0.2722179734235233
 20
82.48718446995481
 30
0.0
 10
-0.6161844318007117
 20
82.12199768808212
 30
0.0
 10
-1.096946119276392
 20
81.81952563906042
 30
0.0
 10
-1.718985540511753
 20
81.58985910758427
 30
0.0
 10
-2.433969445854187
 20
81.44579384432346
 30
0.0
 10
-3.199749539997213
 20
81.39667214035182
 30
0.0
 10
-3.965529634140244
 20
81.44579384432345
 30
0.0
 10
-4.680513539482691
 20
81.5898591075843
 30
0.0
 10
-5.302552960718064
 20
81.81952563906043
 30
0.0
 10
-5.783314648193782
 20
82.1219976880821
 30
0.0
 10
-6.127281106570951
 20
82.48718446995483
 30
0.0
 10
-6.176890220251456
 20
82.77890459574162
 30
0.0
 10
-6.199749539997271
 20
82.91332599055376
 30
0.0
 11
-0.1997495399972706
 21
82.91332599055377
 31
0.0
 11
-0.3019728336942293
 21
82.52509752640395
 31
0.0
 11
-0.6016733286439262
 21
82.16332599055377
 31
0.0
 11
-1.078429761993846
 21
81.85266610155206
 31
0.0
 11
-1.699749539997214
 21
81.61428788487711
 31
0.0
 11
-2.42329261169759
 21
81.46443763740227
 31
0.0
 11
-3.199749539997214
 21
81.41332599055376
 31
0.0
 11
-3.976206468296837
 21
81.46443763740226
 31
0.0
 11
-4.699749539997214
 21
81.61428788487711
 31
0.0
 11
-5.321069318000632
 21
81.85266610155207
 31
0.0
 11
-5.797825751350558
 21
82.16332599055377
 31
0.0
 11
-6.097526246300262
 21
82.52509752640395
 31
0.0
 11
-6.199749539997271
 21
82.91332599055376
 31
0.0
  0
SPLINE
  5
29E
330
52
100
AcDbEntity
  8
0
  6
Continuous
 62
     7
100
AcDbSpline
210
0.0
220
0.0
230
1.0
 70
     8
 71
     3
 72
    15
 73
    11
 74
     9
 42
0.000000001
 43
0.0000000001
 44
0.00000001
 40
0.0
 40
0.0
 40
0.0
 40
0.0
 40
0.6801629633274262
 40
1.364165273656179
 40
2.025386414260911
 40
2.639394289076856
 40
3.186800110375498
 40
3.657024879303906
 40
4.053986603054079
 40
4.403500404290019
 40
4.403500404290019
 40
4.403500404290019
 40
4.403500404290019
 10
-3.976206675304752
 20
84.36221472998736
 30
0.0
 10
-3.750328475848715
 20
84.38445622733875
 30
0.0
 10
-3.297297051705726
 20
84.4290647653343
 30
0.0
 10
-2.620704401330174
 20
84.39724932182308
 30
0.0
 10
-1.974009762942543
 20
84.29668990248507
 30
0.0
 10
-1.389428638311383
 20
84.12528653973114
 30
0.0
 10
-0.8932402122033702
 20
83.89309417523474
 30
0.0
 10
-0.5156570215110099
 20
83.60918399857893
 30
0.0
 10
-0.2530705797576824
 20
83.28042930099156
 30
0.0
 10
-0.2167537518862625
 20
83.03039617731646
 30
0.0
 10
-0.1997495399972706
 20
82.91332599055377
 30
0.0
 11
-3.976206675304752
 21
84.36221472998736
 31
0.0
 11
-3.297906776720499
 21
84.41252269242685
 31
0.0
 11
-2.614478573948816
 21
84.3845039111586
 31
0.0
 11
-1.961628598694297
 21
84.27962156449236
 31
0.0
 11
-1.373465252971073
 21
84.10335600099062
 31
0.0
 11
-0.880718457323207
 21
83.86491580296527
 31
0.0
 11
-0.5091313153991592
 21
83.57675902588227
 31
0.0
 11
-0.2781189516653999
 21
83.25394034435932
 31
0.0
 11
-0.1997495399972706
 21
82.91332599055377
 31
0.0
  0
SPLINE
  5
29F
330
52
100
AcDbEntity
  8
0
  6
Continuous
 62
     7
100
AcDbSpline
210
0.0
220
0.0
230
1.0
 70
     8
 71
     3
 72
    13
 73
     9
 74
     7
 42
0.000000001
 43
0.0000000001
 44
0.00000001
 40
0.0
 40
0.0
 40
0.0
 40
0.0
 40
0.3323562362418507
 40
0.7061633244602201
 40
1.145241151296921
 40
1.65483960030009
 40
2.227465226265715
 40
2.847655214903376
 40
2.847655214903376
 40
2.847655214903376
 40
2.847655214903376
 10
-6.199749539997271
 20
82.91332599055376
 30
0.0
 10
-6.184471945974376
 20
83.0246447205962
 30
0.0
 10
-6.152011350508066
 20
83.2611656418471
 30
0.0
 10
-5.914286318992458
 20
83.5766847541999
 30
0.0
 10
-5.569281493878292
 20
83.85295198801768
 30
0.0
 10
-5.113499847149221
 20
84.0827756983618
 30
0.0
 10
-4.573160422964753
 20
84.26290236495254
 30
0.0
 10
-4.180411636440147
 20
84.3282421206642
 30
0.0
 10
-3.976206675304752
 20
84.36221472998736
 30
0.0
 11
-6.199749539997271
 21
82.91332599055376
 31
0.0
 11
-6.128637299924234
 21
83.23798538248178
 31
0.0
 11
-5.918672901107172
 21
83.54725338316481
 31
0.0
 11
-5.579809348426569
 21
83.82646805255969
 31
0.0
 11
-5.128112369056865
 21
84.06239265523223
 31
0.0
 11
-4.584995256055171
 21
84.2438421215591
 31
0.0
 11
-3.976206675304752
 21
84.36221472998736
 31
0.0
  0
SPLINE
  5
2A0
330
52
100
AcDbEntity
  8
0
  6
Continuous
 62
     7
100
AcDbSpline
210
0.0
220
0.0
230
1.0
 70
     8
 71
     3
 72
    13
 73
     9
 74
     7
 42
0.000000001
 43
0.0000000001
 44
0.00000001
 40
0.0
 40
0.0
 40
0.0
 40
0.0
 40
0.3323562362418286
 40
0.7061633244601869
 40
1.145241151296921
 40
1.654839600300125
 40
2.227465226265749
 40
2.847655214903405
 40
2.847655214903405
 40
2.847655214903405
 40
2.847655214903405
 10
-30.27525576520458
 20
89.86332599055375
 30
0.0
 10
-30.25997817118169
 20
89.97464472059619
 30
0.0
 10
-30.22751757571542
 20
90.21116564184707
 30
0.0
 10
-29.98979254419984
 20
90.52668475419988
 30
0.0
 10
-29.64478771908563
 20
90.8029519880177
 30
0.0
 10
-29.18900607235654
 20
91.0327756983618
 30
0.0
 10
-28.64866664817204
 20
91.21290236495247
 30
0.0
 10
-28.25591786164745
 20
91.27824212066417
 30
0.0
 10
-28.05171290051206
 20
91.31221472998735
 30
0.0
 11
-30.27525576520458
 21
89.86332599055375
 31
0.0
 11
-30.20414352513158
 21
90.18798538248176
 31
0.0
 11
-29.99417912631456
 21
90.4972533831648
 31
0.0
 11
-29.65531557363391
 21
90.77646805255968
 31
0.0
 11
-29.20361859426417
 21
91.01239265523222
 31
0.0
 11
-28.66050148126248
 21
91.19384212155907
 31
0.0
 11
-28.05171290051206
 21
91.31221472998735
 31
0.0
  0
SPLINE
  5
2A1
330
52
100
AcDbEntity
  8
0
  6
Continuous
 62
     7
100
AcDbSpline
210
0.0
220
0.0
230
1.0
 70
     8
 71
     3
 72
     9
 73
     5
 74
     3
 42
0.000000001
 43
0.0000000001
 44
0.00000001
 40
0.0
 40
0.0
 40
0.0
 40
0.0
 40
0.0958865027867524
 40
0.1898195077101011
 40
0.1898195077101011
 40
0.1898195077101011
 40
0.1898195077101011
 10
-45.25994046517226
 20
80.50970018124706
 30
0.0
 10
-45.29038799323022
 20
80.49922486525425
 30
0.0
 10
-45.35066273273233
 20
80.47848762921258
 30
0.0
 10
-45.40117498851073
 20
80.43962716701928
 30
0.0
 10
-45.42617119177976
 20
80.42039689076225
 30
0.0
 11
-45.25994046517226
 21
80.50970018124706
 31
0.0
 11
-45.34879193159635
 21
80.473649681404
 31
0.0
 11
-45.42617119177976
 21
80.42039689076225
 31
0.0
  0
SPLINE
  5
2A2
330
52
100
AcDbEntity
  8
0
  6
Continuous
 62
     7
100
AcDbSpline
210
0.0
220
0.0
230
1.0
 70
     8
 71
     3
 72
     9
 73
     5
 74
     3
 42
0.000000001
 43
0.0000000001
 44
0.00000001
 40
0.0
 40
0.0
 40
0.0
 40
0.0
 40
0.0958865027889205
 40
0.1898195077139656
 40
0.1898195077139656
 40
0.1898195077139656
 40
0.1898195077139656
 10
-53.75994046516996
 20
73.14848424908286
 30
0.0
 10
-53.79038799322868
 20
73.13800893309
 30
0.0
 10
-53.85066273273216
 20
73.11727169704824
 30
0.0
 10
-53.90117498851164
 20
73.07841123485424
 30
0.0
 10
-53.92617119178115
 20
73.05918095859687
 30
0.0
 11
-53.75994046516996
 21
73.14848424908286
 31
0.0
 11
-53.84879193159625
 21
73.11243374923944
 31
0.0
 11
-53.92617119178115
 21
73.05918095859687
 31
0.0
  0
SPLINE
  5
2A3
330
52
100
AcDbEntity
  8
0
  6
Continuous
 62
     7
100
AcDbSpline
210
0.0
220
0.0
230
1.0
 70
     8
 71
     3
 72
    11
 73
     7
 74
     5
 42
0.000000001
 43
0.0000000001
 44
0.00000001
 40
0.0
 40
0.0
 40
0.0
 40
0.0
 40
0.1748977580126005
 40
0.3612130685628144
 40
0.5647644018186077
 40
0.7844396601675433
 40
0.7844396601675433
 40
0.7844396601675433
 40
0.7844396601675433
 10
-53.92617119178115
 20
73.05918095859687
 30
0.0
 10
-53.96571075945293
 20
73.01522090450034
 30
0.0
 10
-54.04737107737618
 20
72.924431018343
 30
0.0
 10
-54.09182075598642
 20
72.73493060040242
 30
0.0
 10
-54.08025805219734
 20
72.52921349262799
 30
0.0
 10
-54.02589699028461
 20
72.3979741224225
 30
0.0
 10
-53.99768093875048
 20
72.32985448587365
 30
0.0
 11
-53.92617119178115
 21
73.05918095859687
 31
0.0
 11
-54.0323101081057
 21
72.92017104082532
 31
0.0
 11
-54.08176736993902
 21
72.74053981929156
 31
0.0
 11
-54.06984652776068
 21
72.53733785086332
 31
0.0
 11
-53.99768093875048
 21
72.32985448587365
 31
0.0
  0
SPLINE
  5
2A4
330
52
100
AcDbEntity
  8
0
  6
Continuous
 62
     7
100
AcDbSpline
210
0.0
220
0.0
230
1.0
 70
     8
 71
     3
 72
    17
 73
    13
 74
    11
 42
0.000000001
 43
0.0000000001
 44
0.00000001
 40
0.0
 40
0.0
 40
0.0
 40
0.0
 40
0.5954005429653462
 40
1.234793577725228
 40
1.89607757341218
 40
2.555183301725268
 40
3.188231897260728
 40
3.773715979697569
 40
4.295001824791438
 40
4.743687675107733
 40
5.124652325515815
 40
5.462348024027826
 40
5.462348024027826
 40
5.462348024027826
 40
5.462348024027826
 10
-25.47198809833256
 20
88.6645531053067
 30
0.0
 10
-25.66101263748488
 20
88.603129133537
 30
0.0
 10
-26.0530282156772
 20
88.47574275026498
 30
0.0
 10
-26.68065665469211
 20
88.3820792357459
 30
0.0
 10
-27.33403360150167
 20
88.35125875087417
 30
0.0
 10
-27.98527025001882
 20
88.3936572525094
 30
0.0
 10
-28.60278650762265
 20
88.50476370899229
 30
0.0
 10
-29.15719659916344
 20
88.67992776783464
 30
0.0
 10
-29.62540896009134
 20
88.91117182282879
 30
0.0
 10
-29.98047338172444
 20
89.1897874704602
 30
0.0
 10
-30.22581844771837
 20
89.50950904225289
 30
0.0
 10
-30.25945165635825
 20
89.75021785511956
 30
0.0
 10
-30.27525576520458
 20
89.86332599055375
 30
0.0
 11
-25.47198809833256
 21
88.6645531053067
 31
0.0
 11
-26.04294882527351
 21
88.49571695990231
 31
0.0
 11
-26.67415800394607
 21
88.39374429144596
 31
0.0
 11
-27.33475555282012
 21
88.36362118523759
 31
0.0
 11
-27.99244411046315
 21
88.40681982188971
 31
0.0
 11
-28.61506849393503
 21
88.52122874286529
 31
0.0
 11
-29.17218838343652
 21
88.7012538497329
 31
0.0
 11
-29.63656502612392
 21
88.93809401810353
 31
0.0
 11
-29.98549540910106
 21
89.22016950247092
 31
0.0
 11
-30.20191901676971
 21
89.53368965721883
 31
0.0
 11
-30.27525576520458
 21
89.86332599055375
 31
0.0
  0
SPLINE
  5
2A5
330
52
100
AcDbEntity
  8
0
  6
Continuous
 62
     7
100
AcDbSpline
210
0.0
220
0.0
230
1.0
 70
     8
 71
     3
 72
    17
 73
    13
 74
    11
 42
0.000000001
 43
0.0000000001
 44
0.00000001
 40
0.0
 40
0.0
 40
0.0
 40
0.0
 40
0.5954005429652864
 40
1.234793577725213
 40
1.896077573412237
 40
2.555183301725413
 40
3.188231897260994
 40
3.773715979697962
 40
4.295001824791935
 40
4.743687675108286
 40
5.124652325516457
 40
5.46234802402852
 40
5.46234802402852
 40
5.46234802402852
 40
5.46234802402852
 10
-25.47198809833188
 20
83.98801592487108
 30
0.0
 10
-25.66101263748418
 20
83.92659195310138
 30
0.0
 10
-26.05302821567645
 20
83.79920556982921
 30
0.0
 10
-26.68065665469138
 20
83.7055420553101
 30
0.0
 10
-27.33403360150098
 20
83.67472157043827
 30
0.0
 10
-27.98527025001825
 20
83.71712007207346
 30
0.0
 10
-28.60278650762221
 20
83.82822652855631
 30
0.0
 10
-29.1571965991631
 20
84.00339058739856
 30
0.0
 10
-29.62540896009114
 20
84.2346346423928
 30
0.0
 10
-29.9804733817243
 20
84.5132502900242
 30
0.0
 10
-30.22581844771831
 20
84.83297186181693
 30
0.0
 10
-30.25945165635824
 20
85.07368067468363
 30
0.0
 10
-30.27525576520458
 20
85.18678881011785
 30
0.0
 11
-25.47198809833188
 21
83.98801592487108
 31
0.0
 11
-26.04294882527273
 21
83.81917977946658
 31
0.0
 11
-26.67415800394532
 21
83.71720711101014
 31
0.0
 11
-27.33475555281944
 21
83.68708400480169
 31
0.0
 11
-27.99244411046257
 21
83.73028264145375
 31
0.0
 11
-28.61506849393458
 21
83.84469156242929
 31
0.0
 11
-29.17218838343621
 21
84.02471666929688
 31
0.0
 11
-29.63656502612372
 21
84.26155683766753
 31
0.0
 11
-29.98549540910092
 21
84.54363232203494
 31
0.0
 11
-30.20191901676967
 21
84.85715247678289
 31
0.0
 11
-30.27525576520458
 21
85.18678881011785
 31
0.0
  0
SPLINE
  5
2A6
330
52
100
AcDbEntity
  8
0
  6
Continuous
 62
     7
100
AcDbSpline
210
0.0
220
0.0
230
1.0
 70
     8
 71
     3
 72
    11
 73
     7
 74
     5
 42
0.000000001
 43
0.0000000001
 44
0.00000001
 40
0.0
 40
0.0
 40
0.0
 40
0.0
 40
0.0791263597209497
 40
0.165325371550047
 40
0.2602286795782689
 40
0.3615509415744857
 40
0.3615509415744857
 40
0.3615509415744857
 40
0.3615509415744857
 10
-7.637720110133955
 20
99.4181439832254
 30
0.0
 10
-7.613913887766221
 20
99.43046100926388
 30
0.0
 10
-7.564173535844628
 20
99.45619599620653
 30
0.0
 10
-7.474281351684903
 20
99.45080926608932
 30
0.0
 10
-7.384543864197278
 20
99.41822604958485
 30
0.0
 10
-7.334011174610246
 20
99.37591675837294
 30
0.0
 10
-7.30791831839997
 20
99.35407009345872
 30
0.0
 11
-7.637720110133955
 21
99.4181439832254
 31
0.0
 11
-7.564613469325355
 21
99.44841608870749
 31
0.0
 11
-7.478424419010054
 21
99.44710534649377
 31
0.0
 11
-7.389347300987819
 21
99.41436537876173
 31
0.0
 11
-7.30791831839997
 21
99.35407009345872
 31
0.0
  0
SPLINE
  5
2A7
330
52
100
AcDbEntity
  8
0
  6
Continuous
 62
     7
100
AcDbSpline
210
0.0
220
0.0
230
1.0
 70
     8
 71
     3
 72
    13
 73
     9
 74
     7
 42
0.000000001
 43
0.0000000001
 44
0.00000001
 40
0.0
 40
0.0
 40
0.0
 40
0.0
 40
0.0901532305541951
 40
0.1899766656725754
 40
0.3005897647888791
 40
0.4172471023374167
 40
0.5324912370472262
 40
0.6394683234399684
 40
0.6394683234399684
 40
0.6394683234399684
 40
0.6394683234399684
 10
-9.137720110144159
 20
98.11910587754898
 30
0.0
 10
-9.110211277339081
 20
98.13259141747406
 30
0.0
 10
-9.052242896920973
 20
98.16100899816641
 30
0.0
 10
-8.948146573214695
 20
98.14646205784284
 30
0.0
 10
-8.849552309637083
 20
98.09736903568239
 30
0.0
 10
-8.766735301665646
 20
98.01678421790716
 30
0.0
 10
-8.707336123777214
 20
97.91735261183456
 30
0.0
 10
-8.69846925399979
 20
97.84310423712394
 30
0.0
 10
-8.694200758301378
 20
97.80736113817487
 30
0.0
 11
-9.137720110144159
 21
98.11910587754898
 31
0.0
 11
-9.053432149336224
 21
98.15109252215818
 31
0.0
 11
-8.954008379410624
 21
98.14216875937859
 31
0.0
 11
-8.854584609488908
 21
98.09369018180897
 31
0.0
 11
-8.770296648692053
 21
98.01303986032411
 31
0.0
 11
-8.713978165668037
 21
97.91249415383797
 31
0.0
 11
-8.694200758301378
 21
97.80736113817487
 31
0.0
  0
SPLINE
  5
2A8
330
52
100
AcDbEntity
  8
0
  6
Continuous
 62
     7
100
AcDbSpline
210
0.0
220
0.0
230
1.0
 70
     8
 71
     3
 72
    13
 73
     9
 74
     7
 42
0.000000001
 43
0.0000000001
 44
0.00000001
 40
0.0
 40
0.0
 40
0.0
 40
0.0
 40
0.0817912585421143
 40
0.1616542625279729
 40
0.2373678596670155
 40
0.3076664593028802
 40
0.3727605627053516
 40
0.4346039991476085
 40
0.4346039991476085
 40
0.4346039991476085
 40
0.4346039991476085
 10
-13.66228519127827
 20
101.1572861188971
 30
0.0
 10
-13.68030191925259
 20
101.1778782830417
 30
0.0
 10
-13.71591063533444
 20
101.2185771348533
 30
0.0
 10
-13.78227731452623
 20
101.263189513838
 30
0.0
 10
-13.85276155809535
 20
101.2916055442511
 30
0.0
 10
-13.92323090912873
 20
101.3001425875234
 30
0.0
 10
-13.99005271554949
 20
101.2895328251133
 30
0.0
 10
-14.02524667655809
 20
101.265227526121
 30
0.0
 10
-14.04239302320215
 20
101.2533860805845
 30
0.0
 11
-13.66228519127827
 21
101.1572861188971
 31
0.0
 11
-13.71879012714506
 21
101.2164215719159
 31
0.0
 11
-13.78476801016787
 21
101.2614217764779
 31
0.0
 11
-13.85530562366211
 21
101.2889353027636
 31
0.0
 11
-13.92515002859666
 21
101.2969135644906
 31
0.0
 11
-13.98909988434897
 21
101.284762066716
 31
0.0
 11
-14.04239302320215
 21
101.2533860805845
 31
0.0
  0
SPLINE
  5
2A9
330
52
100
AcDbEntity
  8
0
  6
Continuous
 62
     7
100
AcDbSpline
210
0.0
220
0.0
230
1.0
 70
     8
 71
     3
 72
    13
 73
     9
 74
     7
 42
0.000000001
 43
0.0000000001
 44
0.00000001
 40
0.0
 40
0.0
 40
0.0
 40
0.0
 40
0.09015323055403
 40
0.1899766656722107
 40
0.3005897647882025
 40
0.4172471023363398
 40
0.532491237045691
 40
0.639468323438009
 40
0.639468323438009
 40
0.639468323438009
 40
0.639468323438009
 10
-16.13772011017147
 20
92.05692805107634
 30
0.0
 10
-16.1102112773663
 20
92.07041359100108
 30
0.0
 10
-16.052242896948
 20
92.09883117169272
 30
0.0
 10
-15.94814657324212
 20
92.08428423136849
 30
0.0
 10
-15.84955230966502
 20
92.03519120920774
 30
0.0
 10
-15.76673530169408
 20
91.95460639143255
 30
0.0
 10
-15.70733612380606
 20
91.85517478536028
 30
0.0
 10
-15.69846925402873
 20
91.78092641064991
 30
0.0
 10
-15.69420075833037
 20
91.745183311701
 30
0.0
 11
-16.13772011017147
 21
92.05692805107634
 31
0.0
 11
-16.05343214936335
 21
92.0889146956846
 31
0.0
 11
-15.95400837943801
 21
92.07999093290431
 31
0.0
 11
-15.8545846095168
 21
92.03151235533436
 31
0.0
 11
-15.77029664872046
 21
91.95086203384955
 31
0.0
 11
-15.71397816569685
 21
91.8503163273637
 31
0.0
 11
-15.69420075833037
 21
91.745183311701
 31
0.0
  0
SPLINE
  5
2AA
330
52
100
AcDbEntity
  8
0
  6
Continuous
 62
     7
100
AcDbSpline
210
0.0
220
0.0
230
1.0
 70
     8
 71
     3
 72
    11
 73
     7
 74
     5
 42
0.000000001
 43
0.0000000001
 44
0.00000001
 40
0.0
 40
0.0
 40
0.0
 40
0.0
 40
0.0791263597270545
 40
0.1653253715637391
 40
0.2602286796008184
 40
0.3615509416059885
 40
0.3615509416059885
 40
0.3615509416059885
 40
0.3615509416059885
 10
-14.63772010826816
 20
93.35596615839255
 30
0.0
 10
-14.61391388589836
 20
93.36828318443165
 30
0.0
 10
-14.56417353397218
 20
93.39401817137579
 30
0.0
 10
-14.47428134980453
 20
93.38863144125376
 30
0.0
 10
-14.38454386231069
 20
93.35604822474099
 30
0.0
 10
-14.33401117272222
 20
93.3137389335214
 30
0.0
 10
-14.30791831651126
 20
93.29189226860328
 30
0.0
 11
-14.63772010826816
 21
93.35596615839255
 31
0.0
 11
-14.56461346745334
 21
93.38623826387557
 31
0.0
 11
-14.47842441713051
 21
93.38492752165796
 31
0.0
 11
-14.38934729910192
 21
93.35218755391755
 31
0.0
 11
-14.30791831651126
 21
93.29189226860328
 31
0.0
  0
SPLINE
  5
2AB
330
52
100
AcDbEntity
  8
0
  6
Continuous
 62
     7
100
AcDbSpline
210
0.0
220
0.0
230
1.0
 70
     8
 71
     3
 72
     9
 73
     5
 74
     3
 42
0.000000001
 43
0.0000000001
 44
0.00000001
 40
0.0
 40
0.0
 40
0.0
 40
0.0
 40
0.0808410950259721
 40
0.1684190793848233
 40
0.1684190793848233
 40
0.1684190793848233
 40
0.1684190793848233
 10
-15.54239302319877
 20
99.9543479749039
 30
0.0
 10
-15.56062851323188
 20
99.93352709534129
 30
0.0
 10
-15.59861913042939
 20
99.89015021946528
 30
0.0
 10
-15.60334638072105
 20
99.83253120375987
 30
0.0
 10
-15.60580454311875
 20
99.80256929102654
 30
0.0
 11
-15.54239302319877
 21
99.9543479749039
 31
0.0
 11
-15.58943561870154
 21
99.8886039470327
 31
0.0
 11
-15.60580454311875
 21
99.80256929102654
 31
0.0
  0
SPLINE
  5
2AC
330
52
100
AcDbEntity
  8
0
  6
Continuous
 62
     7
100
AcDbSpline
210
0.0
220
0.0
230
1.0
 70
     8
 71
     3
 72
    13
 73
     9
 74
     7
 42
0.000000001
 43
0.0000000001
 44
0.00000001
 40
0.0
 40
0.0
 40
0.0
 40
0.0
 40
0.0817912585421631
 40
0.1616542625280497
 40
0.2373678596670923
 40
0.3076664593029588
 40
0.3727605627054441
 40
0.4346039991476722
 40
0.4346039991476722
 40
0.4346039991476722
 40
0.4346039991476722
 10
-15.16228519127478
 20
99.85824801321644
 30
0.0
 10
-15.18030191924911
 20
99.87884017736108
 30
0.0
 10
-15.21591063533097
 20
99.91953902917268
 30
0.0
 10
-15.28227731452283
 20
99.96415140815725
 30
0.0
 10
-15.35276155809195
 20
99.99256743857045
 30
0.0
 10
-15.42323090912535
 20
100.0011044818427
 30
0.0
 10
-15.49005271554608
 20
99.99049471943263
 30
0.0
 10
-15.5252466765547
 20
99.96618942044037
 30
0.0
 10
-15.54239302319877
 20
99.9543479749039
 30
0.0
 11
-15.16228519127478
 21
99.85824801321644
 31
0.0
 11
-15.21879012714161
 21
99.91738346623531
 31
0.0
 11
-15.28476801016447
 21
99.96238367079728
 31
0.0
 11
-15.35530562365872
 21
99.98989719708291
 31
0.0
 11
-15.42515002859327
 21
99.99787545880997
 31
0.0
 11
-15.48909988434559
 21
99.98572396103529
 31
0.0
 11
-15.54239302319877
 21
99.9543479749039
 31
0.0
  0
SPLINE
  5
2AD
330
52
100
AcDbEntity
  8
0
  6
Continuous
 62
     7
100
AcDbSpline
210
0.0
220
0.0
230
1.0
 70
     8
 71
     3
 72
    13
 73
     9
 74
     7
 42
0.000000001
 43
0.0000000001
 44
0.00000001
 40
0.0
 40
0.0
 40
0.0
 40
0.0
 40
0.0817912585422703
 40
0.1616542625281414
 40
0.2373678596671323
 40
0.3076664593029491
 40
0.3727605627054178
 40
0.4346039991476531
 40
0.4346039991476531
 40
0.4346039991476531
 40
0.4346039991476531
 10
-20.66228518934776
 20
95.0951082940453
 30
0.0
 10
-20.68030191732213
 20
95.11570045818993
 30
0.0
 10
-20.71591063340408
 20
95.15639931000146
 30
0.0
 10
-20.78227731259592
 20
95.20101168898623
 30
0.0
 10
-20.852761556165
 20
95.22942771939927
 30
0.0
 10
-20.92323090719835
 20
95.2379647626716
 30
0.0
 10
-20.99005271361907
 20
95.22735500026155
 30
0.0
 10
-21.02524667462768
 20
95.20304970126928
 30
0.0
 10
-21.04239302127175
 20
95.19120825573279
 30
0.0
 11
-20.66228518934776
 21
95.0951082940453
 31
0.0
 11
-20.71879012521473
 21
95.15424374706419
 31
0.0
 11
-20.78476800823756
 21
95.19924395162617
 31
0.0
 11
-20.85530562173176
 21
95.22675747791178
 31
0.0
 11
-20.92515002666626
 21
95.23473573963886
 31
0.0
 11
-20.98909988241857
 21
95.2225842418642
 31
0.0
 11
-21.04239302127175
 21
95.19120825573279
 31
0.0
  0
SPLINE
  5
2AE
330
52
100
AcDbEntity
  8
0
  6
Continuous
 62
     7
100
AcDbSpline
210
0.0
220
0.0
230
1.0
 70
     8
 71
     3
 72
    13
 73
     9
 74
     7
 42
0.000000001
 43
0.0000000001
 44
0.00000001
 40
0.0
 40
0.0
 40
0.0
 40
0.0
 40
0.0817912585450276
 40
0.1616542625307814
 40
0.2373678596691645
 40
0.3076664593044633
 40
0.3727605627064482
 40
0.4346039991482573
 40
0.4346039991482573
 40
0.4346039991482573
 40
0.4346039991482573
 10
-22.16228519123678
 20
93.79607018672543
 30
0.0
 10
-22.1803019192125
 20
93.81666235087008
 30
0.0
 10
-22.21591063529651
 20
93.8573612026809
 30
0.0
 10
-22.28227731448886
 20
93.90197358166577
 30
0.0
 10
-22.3527615580578
 20
93.93038961207827
 30
0.0
 10
-22.42323090909064
 20
93.93892665535019
 30
0.0
 10
-22.49005271551081
 20
93.9283168929399
 30
0.0
 10
-22.52524667651915
 20
93.90401159394779
 30
0.0
 10
-22.54239302316307
 20
93.89217014841134
 30
0.0
 11
-22.16228519123678
 21
93.79607018672543
 31
0.0
 11
-22.21879012710755
 21
93.8552056397445
 31
0.0
 11
-22.2847680101307
 21
93.9002058443058
 31
0.0
 11
-22.3553056236245
 21
93.92771937059078
 31
0.0
 11
-22.42515002855852
 21
93.93569763231744
 31
0.0
 11
-22.48909988431031
 21
93.92354613454262
 31
0.0
 11
-22.54239302316307
 21
93.89217014841134
 31
0.0
  0
SPLINE
  5
2AF
330
52
100
AcDbEntity
  8
0
  6
Continuous
 62
     7
100
AcDbSpline
210
0.0
220
0.0
230
1.0
 70
     8
 71
     3
 72
     9
 73
     5
 74
     3
 42
0.000000001
 43
0.0000000001
 44
0.00000001
 40
0.0
 40
0.0
 40
0.0
 40
0.0
 40
0.0808410950263996
 40
0.1684190793877026
 40
0.1684190793877026
 40
0.1684190793877026
 40
0.1684190793877026
 10
-22.54239302316307
 20
93.89217014841134
 30
0.0
 10
-22.56062851319615
 20
93.87134926884863
 30
0.0
 10
-22.59861913039402
 20
93.82797239297182
 30
0.0
 10
-22.60334638068721
 20
93.77035337726565
 30
0.0
 10
-22.60580454308575
 20
93.74039146453165
 30
0.0
 11
-22.54239302316307
 21
93.89217014841134
 31
0.0
 11
-22.58943561866618
 21
93.82642612053986
 31
0.0
 11
-22.60580454308575
 21
93.74039146453165
 31
0.0
  0
SPLINE
  5
2B0
330
52
100
AcDbEntity
  8
0
  6
Continuous
 62
     7
100
AcDbSpline
210
0.0
220
0.0
230
1.0
 70
     8
 71
     3
 72
    11
 73
     7
 74
     5
 42
0.000000001
 43
0.0000000001
 44
0.00000001
 40
0.0
 40
0.0
 40
0.0
 40
0.0
 40
0.6729516056182406
 40
1.349939255844591
 40
2.005154588248411
 40
2.614833446732205
 40
2.614833446732205
 40
2.614833446732205
 40
2.614833446732205
 10
-28.05171290051206
 20
91.31221472998735
 30
0.0
 10
-27.82820680786013
 20
91.33440685677807
 30
0.0
 10
-27.3798541380245
 20
91.37892419320599
 30
0.0
 10
-26.71054229724874
 20
91.34707740288863
 30
0.0
 10
-26.0673841453585
 20
91.25507656098517
 30
0.0
 10
-25.66563239502274
 20
91.12486219345051
 30
0.0
 10
-25.47198809833256
 20
91.06209887580077
 30
0.0
 11
-28.05171290051206
 21
91.31221472998735
 31
0.0
 11
-27.38063519342107
 21
91.36240013441883
 31
0.0
 11
-26.70416653623211
 21
91.33589662489965
 31
0.0
 11
-26.05691363701557
 21
91.23405941082466
 31
0.0
 11
-25.47198809833256
 21
91.06209887580077
 31
0.0
  0
SPLINE
  5
2B1
330
52
100
AcDbEntity
  8
0
  6
Continuous
 62
     7
100
AcDbSpline
210
0.0
220
0.0
230
1.0
 70
     8
 71
     3
 72
    13
 73
     9
 74
     7
 42
0.000000001
 43
0.0000000001
 44
0.00000001
 40
0.0
 40
0.0
 40
0.0
 40
0.0
 40
0.1956391561846852
 40
0.3896870737690509
 40
0.5766884363748017
 40
0.7525831815685258
 40
0.9158094853719521
 40
1.068231148319355
 40
1.068231148319355
 40
1.068231148319355
 40
1.068231148319355
 10
23.95993450781754
 20
60.52764345678665
 30
0.0
 10
24.00684583955189
 20
60.48203929535165
 30
0.0
 10
24.10028693749125
 20
60.39120188588762
 30
0.0
 10
24.20208109739751
 20
60.22600271635599
 30
0.0
 10
24.26854671185296
 20
60.05118059722093
 30
0.0
 10
24.29142192210678
 20
59.87618358388635
 30
0.0
 10
24.273577538088
 20
59.70958284095242
 30
0.0
 10
24.22239180806888
 20
59.61663653808924
 30
0.0
 10
24.19767498140084
 20
59.57175416715687
 30
0.0
 11
23.95993450781754
 21
60.52764345678665
 31
0.0
 11
24.09445418572469
 21
60.38559017498643
 31
0.0
 11
24.19767498139979
 21
60.22127321999575
 31
0.0
 11
24.26256204193839
 21
60.045890268855
 31
0.0
 11
24.28469403423868
 21
59.8713934567857
 31
0.0
 11
24.26256204193883
 21
59.70967455642855
 31
0.0
 11
24.19767498140084
 21
59.57175416715687
 31
0.0
  0
SPLINE
  5
2B2
330
52
100
AcDbEntity
  8
0
  6
Continuous
 62
     7
100
AcDbSpline
210
0.0
220
0.0
230
1.0
 70
     8
 71
     3
 72
    13
 73
     9
 74
     7
 42
0.000000001
 43
0.0000000001
 44
0.00000001
 40
0.0
 40
0.0
 40
0.0
 40
0.0
 40
0.1956391561854389
 40
0.3896870737697641
 40
0.5766884363753342
 40
0.752583181568856
 40
0.9158094853721825
 40
1.068231148320023
 40
1.068231148320023
 40
1.068231148320023
 40
1.068231148320023
 10
15.45993450781853
 20
53.16642752462059
 30
0.0
 10
15.50684583955304
 20
53.12082336318538
 30
0.0
 10
15.60028693749253
 20
53.02998595372119
 30
0.0
 10
15.70208109739889
 20
52.86478678418938
 30
0.0
 10
15.76854671185423
 20
52.68996466505443
 30
0.0
 10
15.79142192210789
 20
52.51496765171999
 30
0.0
 10
15.77357753808897
 20
52.34836690878603
 30
0.0
 10
15.72239180806971
 20
52.25542060592278
 30
0.0
 10
15.69767498140155
 20
52.21053823499032
 30
0.0
 11
15.45993450781853
 21
53.16642752462059
 31
0.0
 11
15.59445418572614
 21
53.02437424281977
 31
0.0
 11
15.69767498140118
 21
52.8600572878291
 31
0.0
 11
15.76256204193965
 21
52.6846743366885
 31
0.0
 11
15.78469403423979
 21
52.51017752461937
 31
0.0
 11
15.76256204193984
 21
52.34845862426234
 31
0.0
 11
15.69767498140155
 21
52.21053823499032
 31
0.0
  0
ENDBLK
  5
54
330
52
100
AcDbEntity
  8
0
100
AcDbBlockEnd
  0
BLOCK
  5
57
330
55
100
AcDbEntity
  8
0
100
AcDbBlockBegin
  2
AllgSicht1
 70
     0
 10
-12.00000076139446
 20
83.00000021984988
 30
0.0
  3
AllgSicht1
  1

  0
INSERT
  5
56
330
55
100
AcDbEntity
  8
0
100
AcDbBlockReference
  2
RBO_6_F-select__1
 10
-54.09458346962367
 20
49.99980442828504
 30
0.0
  0
MTEXT
  5
2B3
330
55
100
AcDbEntity
  8
1
 62
     6
100
AcDbMText
 10
-12.000000761396
 20
44.53253678422516
 30
0.0
 40
5.0
 41
0.0
 71
     2
 72
     1
  1
 
  7
CONVERTER_11
 73
     1
 44
1.32052821128451
  0
ENDBLK
  5
58
330
55
100
AcDbEntity
  8
0
100
AcDbBlockEnd
  0
BLOCK
  5
5A
330
59
100
AcDbEntity
  8
0
100
AcDbBlockBegin
  2
RBO_6_F-select__2
 70
     0
 10
-175.9782305482342
 20
69.54999964168753
 30
0.0
  3
RBO_6_F-select__2
  1

  0
LINE
  5
2B4
330
59
100
AcDbEntity
  8
0
  6
Continuous
 62
     7
100
AcDbLine
 10
-175.6032305482343
 20
69.54999964168833
 30
0.0
 11
-175.9782305482342
 21
69.54999964168839
 31
0.0
  0
LINE
  5
2B5
330
59
100
AcDbEntity
  8
0
  6
Continuous
 62
     2
100
AcDbLine
 10
-175.6032305482376
 20
86.54999964168863
 30
0.0
 11
-175.6032305482343
 21
69.54999964168833
 31
0.0
  0
LINE
  5
2B6
330
59
100
AcDbEntity
  8
0
  6
Continuous
 62
     7
100
AcDbLine
 10
-174.7992963393679
 20
69.54999964168833
 30
0.0
 11
-174.799296339366
 21
85.0999996454835
 31
0.0
  0
LINE
  5
2B7
330
59
100
AcDbEntity
  8
0
  6
Continuous
 62
     7
100
AcDbLine
 10
-174.5001216569096
 20
69.54999964168833
 30
0.0
 11
-174.5001216569137
 21
85.0999996454835
 31
0.0
  0
LINE
  5
2B8
330
59
100
AcDbEntity
  8
0
  6
Continuous
 62
     7
100
AcDbLine
 10
-175.3292963393548
 20
86.54999964168864
 30
0.0
 11
-175.3292963393635
 21
69.54999964168833
 31
0.0
  0
LINE
  5
2B9
330
59
100
AcDbEntity
  8
0
  6
Continuous
 62
     7
100
AcDbLine
 10
-175.9782305482327
 20
86.5499996416887
 30
0.0
 11
-175.9782305482342
 21
69.54999964168839
 31
0.0
  0
LINE
  5
2BA
330
59
100
AcDbEntity
  8
0
  6
Continuous
 62
     7
100
AcDbLine
 10
-175.6032305482376
 20
86.54999964168863
 30
0.0
 11
-175.9782305482327
 21
86.5499996416887
 31
0.0
  0
LINE
  5
2BB
330
59
100
AcDbEntity
  8
0
  6
Continuous
 62
     2
100
AcDbLine
 10
-128.3391167205993
 20
70.54999963630273
 30
0.0
 11
-115.8891167205995
 21
70.54999963630273
 31
0.0
  0
LINE
  5
2BC
330
59
100
AcDbEntity
  8
0
  6
Continuous
 62
     7
100
AcDbLine
 10
-130.7391167205993
 20
69.54999964168834
 30
0.0
 11
-128.3391167205993
 21
69.54999964168834
 31
0.0
  0
LINE
  5
2BD
330
59
100
AcDbEntity
  8
0
  6
Continuous
 62
     7
100
AcDbLine
 10
-96.77811254170268
 20
69.54999964168833
 30
0.0
 11
-101.4848979030886
 21
69.54999964168833
 31
0.0
  0
LINE
  5
2BE
330
59
100
AcDbEntity
  8
0
  6
Continuous
 62
     7
100
AcDbLine
 10
-95.94893785924948
 20
69.54999964168832
 30
0.0
 11
-96.47893785924458
 21
69.54999964168832
 31
0.0
  0
LINE
  5
2BF
330
59
100
AcDbEntity
  8
0
  6
Continuous
 62
     7
100
AcDbLine
 10
-96.47893785924458
 20
69.54999964168832
 30
0.0
 11
-96.77811254170268
 21
69.54999964168833
 31
0.0
  0
LINE
  5
2C0
330
59
100
AcDbEntity
  8
0
  6
Continuous
 62
     7
100
AcDbLine
 10
-114.8891167206003
 20
69.54999964168833
 30
0.0
 11
-101.4848979030886
 21
69.54999964168833
 31
0.0
  0
LINE
  5
2C1
330
59
100
AcDbEntity
  8
0
  6
Continuous
 62
     7
100
AcDbLine
 10
-95.67500365038038
 20
69.54999964168833
 30
0.0
 11
-95.94893785924948
 21
69.54999964168832
 31
0.0
  0
LINE
  5
2C2
330
59
100
AcDbEntity
  8
0
  6
Continuous
 62
     7
100
AcDbLine
 10
-114.8891167206003
 20
69.54999964168833
 30
0.0
 11
-128.3391167205993
 21
69.54999964168834
 31
0.0
  0
LINE
  5
2C3
330
59
100
AcDbEntity
  8
0
  6
Continuous
 62
     7
100
AcDbLine
 10
-115.9498683750483
 20
77.30762557033142
 30
0.0
 11
-118.8366197209965
 21
72.30762557033138
 31
0.0
  0
LINE
  5
2C4
330
59
100
AcDbEntity
  8
0
  6
Continuous
 62
     7
100
AcDbLine
 10
-130.4391170993374
 20
98.29999964168849
 30
0.0
 11
-129.2391170993375
 21
98.29999964168847
 31
0.0
  0
LINE
  5
2C5
330
59
100
AcDbEntity
  8
0
  6
Continuous
 62
     7
100
AcDbLine
 10
-130.4391170993374
 20
94.79999964168853
 30
0.0
 11
-130.4391170993374
 21
98.29999964168849
 31
0.0
  0
LINE
  5
2C6
330
59
100
AcDbEntity
  8
0
  6
Continuous
 62
     7
100
AcDbLine
 10
-130.4391170993374
 20
86.54999964168863
 30
0.0
 11
-130.4391170993374
 21
94.79999964168853
 31
0.0
  0
LINE
  5
2C7
330
59
100
AcDbEntity
  8
0
  6
Continuous
 62
     7
100
AcDbLine
 10
-129.2391170993375
 20
94.79999964168853
 30
0.0
 11
-129.2391170993375
 21
98.29999964168847
 31
0.0
  0
LINE
  5
2C8
330
59
100
AcDbEntity
  8
0
  6
Continuous
 62
     7
100
AcDbLine
 10
-130.4391170993374
 20
94.79999964168853
 30
0.0
 11
-129.2391170993375
 21
94.79999964168853
 31
0.0
  0
LINE
  5
2C9
330
59
100
AcDbEntity
  8
0
  6
Continuous
 62
     7
100
AcDbLine
 10
-138.1891167404586
 20
93.54999964168849
 30
0.0
 11
-138.1891167404586
 21
98.29999964168849
 31
0.0
  0
LINE
  5
2CA
330
59
100
AcDbEntity
  8
0
  6
Continuous
 62
     7
100
AcDbLine
 10
-133.0891167404586
 20
98.29999964168849
 30
0.0
 11
-133.0891167404586
 21
93.54999964168849
 31
0.0
  0
LINE
  5
2CB
330
59
100
AcDbEntity
  8
0
  6
Continuous
 62
     7
100
AcDbLine
 10
-130.4391170993374
 20
98.29999964168849
 30
0.0
 11
-133.0891167404586
 21
98.29999964168849
 31
0.0
  0
LINE
  5
2CC
330
59
100
AcDbEntity
  8
0
  6
Continuous
 62
     7
100
AcDbLine
 10
-127.4968737588409
 20
77.30762557033138
 30
0.0
 11
-124.6101224128928
 21
82.30762557033134
 31
0.0
  0
LINE
  5
2CD
330
59
100
AcDbEntity
  8
0
  6
Continuous
 62
     7
100
AcDbLine
 10
-124.6101224128928
 20
82.30762557033134
 30
0.0
 11
-118.8366197209965
 21
82.3076255703314
 31
0.0
  0
LINE
  5
2CE
330
59
100
AcDbEntity
  8
0
  6
Continuous
 62
     7
100
AcDbLine
 10
-118.8366197209965
 20
72.30762557033138
 30
0.0
 11
-124.6101224128927
 21
72.30762557033137
 31
0.0
  0
LINE
  5
2CF
330
59
100
AcDbEntity
  8
0
  6
Continuous
 62
     7
100
AcDbLine
 10
-124.6101224128927
 20
72.30762557033137
 30
0.0
 11
-127.4968737588409
 21
77.30762557033138
 31
0.0
  0
LINE
  5
2D0
330
59
100
AcDbEntity
  8
0
  6
Continuous
 62
     7
100
AcDbLine
 10
-130.7391167205993
 20
69.54999964168834
 30
0.0
 11
-130.7391167205992
 21
72.54999964548468
 31
0.0
  0
LINE
  5
2D1
330
59
100
AcDbEntity
  8
0
  6
Continuous
 62
     7
100
AcDbLine
 10
-130.2391167205986
 20
72.54999964548468
 30
0.0
 11
-130.7391167205992
 21
72.54999964548468
 31
0.0
  0
LINE
  5
2D2
330
59
100
AcDbEntity
  8
0
  6
Continuous
 62
     7
100
AcDbLine
 10
-132.1608324492571
 20
83.54999964168633
 30
0.0
 11
-133.0729644836882
 21
83.54999964168633
 31
0.0
  0
LINE
  5
2D3
330
59
100
AcDbEntity
  8
0
  6
Continuous
 62
     7
100
AcDbLine
 10
-140.5391167205896
 20
83.54999964168633
 30
0.0
 11
-141.0391167205943
 21
83.54999964168633
 31
0.0
  0
LINE
  5
2D4
330
59
100
AcDbEntity
  8
0
  6
Continuous
 62
     7
100
AcDbLine
 10
-140.5391167205896
 20
83.54999964168633
 30
0.0
 11
-139.6295330263007
 21
83.54999964168633
 31
0.0
  0
LINE
  5
2D5
330
59
100
AcDbEntity
  8
0
  6
Continuous
 62
     7
100
AcDbLine
 10
-132.1608324492571
 20
83.54999964168633
 30
0.0
 11
-131.6487004149048
 21
83.54999964168633
 31
0.0
  0
LINE
  5
2D6
330
59
100
AcDbEntity
  8
0
  6
Continuous
 62
     7
100
AcDbLine
 10
-139.1174009919394
 20
83.54999964168633
 30
0.0
 11
-139.6295330263007
 21
83.54999964168633
 31
0.0
  0
LINE
  5
2D7
330
59
100
AcDbEntity
  8
0
  6
Continuous
 62
     7
100
AcDbLine
 10
-139.0891167206
 20
74.59999964548471
 30
0.0
 11
-139.0891167206
 21
81.49999964168163
 31
0.0
  0
LINE
  5
2D8
330
59
100
AcDbEntity
  8
0
  6
Continuous
 62
     7
100
AcDbLine
 10
-139.6295330262634
 20
69.54999964168755
 30
0.0
 11
-140.5391167205895
 21
69.54999964168834
 31
0.0
  0
LINE
  5
2D9
330
59
100
AcDbEntity
  8
0
  6
Continuous
 62
     7
100
AcDbLine
 10
-139.1174009919394
 20
83.54999964168633
 30
0.0
 11
-138.2052689575055
 21
83.54999964168633
 31
0.0
  0
LINE
  5
2DA
330
59
100
AcDbEntity
  8
0
  6
Continuous
 62
     7
100
AcDbLine
 10
-139.0891167206
 20
81.49999964168163
 30
0.0
 11
-132.1891167206
 21
81.49999964168163
 31
0.0
  0
LINE
  5
2DB
330
59
100
AcDbEntity
  8
0
  6
Continuous
 62
     7
100
AcDbLine
 10
-132.1891167206
 20
81.49999964168163
 30
0.0
 11
-132.1891167206
 21
74.59999964548471
 31
0.0
  0
LINE
  5
2DC
330
59
100
AcDbEntity
  8
0
  6
Continuous
 62
     7
100
AcDbLine
 10
-139.6295330262713
 20
72.54999964548388
 30
0.0
 11
-140.5391167205896
 21
72.54999964548468
 31
0.0
  0
LINE
  5
2DD
330
59
100
AcDbEntity
  8
0
  6
Continuous
 62
     7
100
AcDbLine
 10
-139.0891167206
 20
74.59999964548471
 30
0.0
 11
-132.1891167206
 21
74.59999964548471
 31
0.0
  0
LINE
  5
2DE
330
59
100
AcDbEntity
  8
0
  6
Continuous
 62
     7
100
AcDbLine
 10
-141.0391167205937
 20
72.54999964548468
 30
0.0
 11
-141.0391167205943
 21
83.54999964168633
 31
0.0
  0
LINE
  5
2DF
330
59
100
AcDbEntity
  8
0
  6
Continuous
 62
     7
100
AcDbLine
 10
-141.0391167205937
 20
72.54999964548468
 30
0.0
 11
-140.5391167205896
 21
72.54999964548468
 31
0.0
  0
LINE
  5
2E0
330
59
100
AcDbEntity
  8
0
  6
Continuous
 62
     7
100
AcDbLine
 10
-140.5391167205895
 20
69.54999964168834
 30
0.0
 11
-140.5391167205896
 21
72.54999964548468
 31
0.0
  0
LINE
  5
2E1
330
59
100
AcDbEntity
  8
0
  6
Continuous
 62
     7
100
AcDbLine
 10
-140.5391167205895
 20
69.54999964168834
 30
0.0
 11
-142.9391167206001
 21
69.54999964168834
 31
0.0
  0
LINE
  5
2E2
330
59
100
AcDbEntity
  8
0
  6
Continuous
 62
     7
100
AcDbLine
 10
-139.6295330262634
 20
69.54999964168755
 30
0.0
 11
-139.6295330262713
 21
72.54999964548388
 31
0.0
  0
LINE
  5
2E3
330
59
100
AcDbEntity
  8
0
  6
Continuous
 62
     7
100
AcDbLine
 10
-139.1174009919021
 20
69.54999964168833
 30
0.0
 11
-139.6295330262634
 21
69.54999964168755
 31
0.0
  0
LINE
  5
2E4
330
59
100
AcDbEntity
  8
0
  6
Continuous
 62
     7
100
AcDbLine
 10
-139.1174009919131
 20
72.54999964548533
 30
0.0
 11
-139.6295330262713
 21
72.54999964548388
 31
0.0
  0
LINE
  5
2E5
330
59
100
AcDbEntity
  8
0
  6
Continuous
 62
     7
100
AcDbLine
 10
-138.2052689574682
 20
69.54999964168833
 30
0.0
 11
-139.1174009919021
 21
69.54999964168833
 31
0.0
  0
LINE
  5
2E6
330
59
100
AcDbEntity
  8
0
  6
Continuous
 62
     2
100
AcDbLine
 10
-139.1174009919021
 20
69.54999964168833
 30
0.0
 11
-139.1174009919131
 21
72.54999964548533
 31
0.0
  0
LINE
  5
2E7
330
59
100
AcDbEntity
  8
0
  6
Continuous
 62
     7
100
AcDbLine
 10
-138.2052689574762
 20
72.54999964548468
 30
0.0
 11
-139.1174009919131
 21
72.54999964548533
 31
0.0
  0
LINE
  5
2E8
330
59
100
AcDbEntity
  8
0
  6
Continuous
 62
     7
100
AcDbLine
 10
-130.7391167205992
 20
72.54999964548468
 30
0.0
 11
-131.6487004149342
 21
72.54999964548388
 31
0.0
  0
LINE
  5
2E9
330
59
100
AcDbEntity
  8
0
  6
Continuous
 62
     7
100
AcDbLine
 10
-133.0729644837255
 20
69.54999964168832
 30
0.0
 11
-132.1608324492956
 21
69.549999641689
 31
0.0
  0
LINE
  5
2EA
330
59
100
AcDbEntity
  8
0
  6
Continuous
 62
     7
100
AcDbLine
 10
-133.0729644837175
 20
72.54999964548468
 30
0.0
 11
-132.1608324492896
 21
72.54999964548533
 31
0.0
  0
LINE
  5
2EB
330
59
100
AcDbEntity
  8
0
  6
Continuous
 62
     7
100
AcDbLine
 10
-132.1608324492956
 20
69.549999641689
 30
0.0
 11
-131.6487004149422
 21
69.54999964168753
 31
0.0
  0
LINE
  5
2EC
330
59
100
AcDbEntity
  8
0
  6
Continuous
 62
     7
100
AcDbLine
 10
-132.1608324492896
 20
72.54999964548533
 30
0.0
 11
-131.6487004149342
 21
72.54999964548388
 31
0.0
  0
LINE
  5
2ED
330
59
100
AcDbEntity
  8
0
  6
Continuous
 62
     2
100
AcDbLine
 10
-132.1608324492956
 20
69.549999641689
 30
0.0
 11
-132.1608324492896
 21
72.54999964548533
 31
0.0
  0
LINE
  5
2EE
330
59
100
AcDbEntity
  8
0
  6
Continuous
 62
     7
100
AcDbLine
 10
-131.6487004149422
 20
69.54999964168753
 30
0.0
 11
-131.6487004149342
 21
72.54999964548388
 31
0.0
  0
LINE
  5
2EF
330
59
100
AcDbEntity
  8
0
  6
Continuous
 62
     7
100
AcDbLine
 10
-133.0729644837175
 20
72.54999964548468
 30
0.0
 11
-133.0729644837255
 21
69.54999964168832
 31
0.0
  0
LINE
  5
2F0
330
59
100
AcDbEntity
  8
0
  6
Continuous
 62
     7
100
AcDbLine
 10
-130.7391167205993
 20
69.54999964168834
 30
0.0
 11
-131.6487004149422
 21
69.54999964168753
 31
0.0
  0
LINE
  5
2F1
330
59
100
AcDbEntity
  8
0
  6
Continuous
 62
     7
100
AcDbLine
 10
-138.2052689574762
 20
72.54999964548468
 30
0.0
 11
-138.2052689574682
 21
69.54999964168833
 31
0.0
  0
LINE
  5
2F2
330
59
100
AcDbEntity
  8
0
  6
Continuous
 62
     7
100
AcDbLine
 10
-138.2052689574682
 20
69.54999964168833
 30
0.0
 11
-133.0729644837255
 21
69.54999964168832
 31
0.0
  0
LINE
  5
2F3
330
59
100
AcDbEntity
  8
0
  6
Continuous
 62
     7
100
AcDbLine
 10
-142.0391167206001
 20
70.94999964168834
 30
0.0
 11
-142.0391167206001
 21
85.09999964548345
 31
0.0
  0
LINE
  5
2F4
330
59
100
AcDbEntity
  8
0
  6
Continuous
 62
     7
100
AcDbLine
 10
-130.2391167205986
 20
72.54999964548468
 30
0.0
 11
-130.2391167205991
 21
83.54999964168164
 31
0.0
  0
LINE
  5
2F5
330
59
100
AcDbEntity
  8
0
  6
Continuous
 62
     7
100
AcDbLine
 10
-129.2391167205992
 20
85.09999964548345
 30
0.0
 11
-129.2391167205993
 21
70.94999964168835
 31
0.0
  0
LINE
  5
2F6
330
59
100
AcDbEntity
  8
0
  6
Continuous
 62
     7
100
AcDbLine
 10
-129.2391170993375
 20
86.54999964168863
 30
0.0
 11
-129.2391170993375
 21
94.79999964168853
 31
0.0
  0
LINE
  5
2F7
330
59
100
AcDbEntity
  8
0
  6
Continuous
 62
     7
100
AcDbLine
 10
-174.7992963393679
 20
69.54999964168833
 30
0.0
 11
-174.5001216569096
 21
69.54999964168833
 31
0.0
  0
LINE
  5
2F8
330
59
100
AcDbEntity
  8
0
  6
Continuous
 62
     7
100
AcDbLine
 10
-175.3292963393635
 20
69.54999964168833
 30
0.0
 11
-174.7992963393679
 21
69.54999964168833
 31
0.0
  0
LINE
  5
2F9
330
59
100
AcDbEntity
  8
0
  6
Continuous
 62
     7
100
AcDbLine
 10
-169.7933362955237
 20
69.54999964168833
 30
0.0
 11
-156.3891167206001
 21
69.54999964168834
 31
0.0
  0
LINE
  5
2FA
330
59
100
AcDbEntity
  8
0
  6
Continuous
 62
     7
100
AcDbLine
 10
-142.9391167206001
 20
69.54999964168834
 30
0.0
 11
-156.3891167206001
 21
69.54999964168834
 31
0.0
  0
LINE
  5
2FB
330
59
100
AcDbEntity
  8
0
  6
Continuous
 62
     7
100
AcDbLine
 10
-95.67500365038038
 20
69.54999964168833
 30
0.0
 11
-95.30000365037807
 21
69.54999964168839
 31
0.0
  0
LINE
  5
2FC
330
59
100
AcDbEntity
  8
0
  6
Continuous
 62
     7
100
AcDbLine
 10
-130.7391167205992
 20
86.54999964168864
 30
0.0
 11
-130.4391170993374
 21
86.54999964168863
 31
0.0
  0
LINE
  5
2FD
330
59
100
AcDbEntity
  8
0
  6
Continuous
 62
     7
100
AcDbLine
 10
-131.6487004148968
 20
86.54999964168785
 30
0.0
 11
-130.7391167205992
 21
86.54999964168864
 31
0.0
  0
LINE
  5
2FE
330
59
100
AcDbEntity
  8
0
  6
Continuous
 62
     7
100
AcDbLine
 10
-130.4391170993374
 20
86.54999964168863
 30
0.0
 11
-129.2391170993375
 21
86.54999964168863
 31
0.0
  0
LINE
  5
2FF
330
59
100
AcDbEntity
  8
0
  6
Continuous
 62
     7
100
AcDbLine
 10
-132.1608324492524
 20
86.54999964168931
 30
0.0
 11
-133.0729644836807
 21
86.54999964168864
 31
0.0
  0
LINE
  5
300
330
59
100
AcDbEntity
  8
0
  6
Continuous
 62
     7
100
AcDbLine
 10
-132.1608324492524
 20
86.54999964168931
 30
0.0
 11
-131.6487004148968
 21
86.54999964168785
 31
0.0
  0
LINE
  5
301
330
59
100
AcDbEntity
  8
0
  6
Continuous
 62
     7
100
AcDbLine
 10
-131.6487004149048
 20
83.54999964168633
 30
0.0
 11
-130.7391167205992
 21
83.54999964168633
 31
0.0
  0
LINE
  5
302
330
59
100
AcDbEntity
  8
0
  6
Continuous
 62
     7
100
AcDbLine
 10
-131.6487004149048
 20
83.54999964168633
 30
0.0
 11
-131.6487004148968
 21
86.54999964168785
 31
0.0
  0
LINE
  5
303
330
59
100
AcDbEntity
  8
0
  6
Continuous
 62
     2
100
AcDbLine
 10
-132.1608324492571
 20
83.54999964168633
 30
0.0
 11
-132.1608324492524
 21
86.54999964168931
 31
0.0
  0
LINE
  5
304
330
59
100
AcDbEntity
  8
0
  6
Continuous
 62
     7
100
AcDbLine
 10
-130.7391167205992
 20
83.54999964168633
 30
0.0
 11
-130.2391167205991
 21
83.54999964168164
 31
0.0
  0
LINE
  5
305
330
59
100
AcDbEntity
  8
0
  6
Continuous
 62
     7
100
AcDbLine
 10
-130.7391167205992
 20
83.54999964168633
 30
0.0
 11
-130.7391167205992
 21
86.54999964168864
 31
0.0
  0
LINE
  5
306
330
59
100
AcDbEntity
  8
0
  6
Continuous
 62
     7
100
AcDbLine
 10
-115.8891167205995
 20
85.09999964548344
 30
0.0
 11
-114.8891167206002
 21
85.09999964548344
 31
0.0
  0
LINE
  5
307
330
59
100
AcDbEntity
  8
0
  6
Continuous
 62
     7
100
AcDbLine
 10
-114.8891167206002
 20
85.09999964548344
 30
0.0
 11
-105.7979624474124
 21
85.09999964548345
 31
0.0
  0
LINE
  5
308
330
59
100
AcDbEntity
  8
0
  6
Continuous
 62
     7
100
AcDbLine
 10
-129.2391167205992
 20
85.09999964548345
 30
0.0
 11
-115.8891167205995
 21
85.09999964548344
 31
0.0
  0
LINE
  5
309
330
59
100
AcDbEntity
  8
0
  6
Continuous
 62
     7
100
AcDbLine
 10
-105.7979624474124
 20
85.09999964548345
 30
0.0
 11
-105.7979624474121
 21
86.54999964168864
 31
0.0
  0
LINE
  5
30A
330
59
100
AcDbEntity
  8
0
  6
Continuous
 62
     7
100
AcDbLine
 10
-133.0729644836807
 20
86.54999964168864
 30
0.0
 11
-133.0729644836882
 21
83.54999964168633
 31
0.0
  0
LINE
  5
30B
330
59
100
AcDbEntity
  8
0
  6
Continuous
 62
     7
100
AcDbLine
 10
-139.1174009919506
 20
86.5499996416893
 30
0.0
 11
-139.6295330263087
 21
86.54999964168785
 31
0.0
  0
LINE
  5
30C
330
59
100
AcDbEntity
  8
0
  6
Continuous
 62
     7
100
AcDbLine
 10
-138.2052689575136
 20
86.54999964168866
 30
0.0
 11
-138.2052689575055
 21
83.54999964168633
 31
0.0
  0
LINE
  5
30D
330
59
100
AcDbEntity
  8
0
  6
Continuous
 62
     7
100
AcDbLine
 10
-140.5391167205895
 20
86.54999964168864
 30
0.0
 11
-139.6295330263087
 21
86.54999964168785
 31
0.0
  0
LINE
  5
30E
330
59
100
AcDbEntity
  8
0
  6
Continuous
 62
     7
100
AcDbLine
 10
-139.1174009919506
 20
86.5499996416893
 30
0.0
 11
-138.2052689575136
 21
86.54999964168866
 31
0.0
  0
LINE
  5
30F
330
59
100
AcDbEntity
  8
0
  6
Continuous
 62
     7
100
AcDbLine
 10
-140.5391167205895
 20
86.54999964168864
 30
0.0
 11
-140.8391167305545
 21
86.54999964168863
 31
0.0
  0
LINE
  5
310
330
59
100
AcDbEntity
  8
0
  6
Continuous
 62
     7
100
AcDbLine
 10
-140.5391167205896
 20
83.54999964168633
 30
0.0
 11
-140.5391167205895
 21
86.54999964168864
 31
0.0
  0
LINE
  5
311
330
59
100
AcDbEntity
  8
0
  6
Continuous
 62
     7
100
AcDbLine
 10
-155.3891167205992
 20
85.09999964548345
 30
0.0
 11
-156.3891167206
 21
85.09999964548345
 31
0.0
  0
LINE
  5
312
330
59
100
AcDbEntity
  8
0
  6
Continuous
 62
     7
100
AcDbLine
 10
-165.4802709937702
 20
86.54999964168866
 30
0.0
 11
-173.1805494545109
 21
86.54999964168866
 31
0.0
  0
LINE
  5
313
330
59
100
AcDbEntity
  8
0
  6
Continuous
 62
     7
100
AcDbLine
 10
-165.4802709937702
 20
86.54999964168866
 30
0.0
 11
-165.4802709937699
 21
85.09999964548345
 31
0.0
  0
LINE
  5
314
330
59
100
AcDbEntity
  8
0
  6
Continuous
 62
     7
100
AcDbLine
 10
-169.7933362955248
 20
85.09999964548344
 30
0.0
 11
-173.1805494545108
 21
85.09999964548344
 31
0.0
  0
LINE
  5
315
330
59
100
AcDbEntity
  8
0
  6
Continuous
 62
     7
100
AcDbLine
 10
-173.1805494545108
 20
85.09999964548344
 30
0.0
 11
-173.1805494545109
 21
86.54999964168866
 31
0.0
  0
LINE
  5
316
330
59
100
AcDbEntity
  8
0
  6
Continuous
 62
     7
100
AcDbLine
 10
-173.7363798431908
 20
85.09999964548344
 30
0.0
 11
-173.1805494545108
 21
85.09999964548344
 31
0.0
  0
LINE
  5
317
330
59
100
AcDbEntity
  8
0
  6
Continuous
 62
     7
100
AcDbLine
 10
-173.7363798431908
 20
86.54999964168864
 30
0.0
 11
-173.1805494545109
 21
86.54999964168866
 31
0.0
  0
LINE
  5
318
330
59
100
AcDbEntity
  8
0
  6
Continuous
 62
     7
100
AcDbLine
 10
-173.7363798431908
 20
86.54999964168864
 30
0.0
 11
-174.8391168677006
 21
86.54999964168866
 31
0.0
  0
LINE
  5
319
330
59
100
AcDbEntity
  8
0
  6
Continuous
 62
     7
100
AcDbLine
 10
-174.8391168677006
 20
86.54999964168866
 30
0.0
 11
-174.8391168677006
 21
85.09999964548344
 31
0.0
  0
LINE
  5
31A
330
59
100
AcDbEntity
  8
0
  6
Continuous
 62
     7
100
AcDbLine
 10
-174.8391168677006
 20
86.54999964168866
 30
0.0
 11
-175.3292963393548
 21
86.54999964168864
 31
0.0
  0
LINE
  5
31B
330
59
100
AcDbEntity
  8
0
  6
Continuous
 62
     7
100
AcDbLine
 10
-173.7363798431908
 20
85.09999964548344
 30
0.0
 11
-174.8391168677006
 21
85.09999964548344
 31
0.0
  0
LINE
  5
31C
330
59
100
AcDbEntity
  8
0
  6
Continuous
 62
     7
100
AcDbLine
 10
-175.3292963393548
 20
86.54999964168864
 30
0.0
 11
-175.6032305482376
 21
86.54999964168863
 31
0.0
  0
LINE
  5
31D
330
59
100
AcDbEntity
  8
0
  6
Continuous
 62
     7
100
AcDbLine
 10
-173.7363798431908
 20
86.54999964168864
 30
0.0
 11
-173.7363798431908
 21
85.09999964548344
 31
0.0
  0
LINE
  5
31E
330
59
100
AcDbEntity
  8
0
  6
Continuous
 62
     7
100
AcDbLine
 10
-165.4802709937699
 20
85.09999964548345
 30
0.0
 11
-169.7933362955248
 21
85.09999964548344
 31
0.0
  0
LINE
  5
31F
330
59
100
AcDbEntity
  8
0
  6
Continuous
 62
     7
100
AcDbLine
 10
-156.3891167206
 20
85.09999964548345
 30
0.0
 11
-165.4802709937699
 21
85.09999964548345
 31
0.0
  0
LINE
  5
320
330
59
100
AcDbEntity
  8
0
  6
Continuous
 62
     7
100
AcDbLine
 10
-142.0391167206001
 20
85.09999964548345
 30
0.0
 11
-155.3891167205992
 21
85.09999964548345
 31
0.0
  0
LINE
  5
321
330
59
100
AcDbEntity
  8
0
  6
Continuous
 62
     7
100
AcDbLine
 10
-142.0391167305545
 20
86.54999964168864
 30
0.0
 11
-165.4802709937702
 21
86.54999964168866
 31
0.0
  0
LINE
  5
322
330
59
100
AcDbEntity
  8
0
  6
Continuous
 62
     7
100
AcDbLine
 10
-140.8391167305545
 20
86.54999964168863
 30
0.0
 11
-142.0391167305545
 21
86.54999964168864
 31
0.0
  0
LINE
  5
323
330
59
100
AcDbEntity
  8
0
  6
Continuous
 62
     2
100
AcDbLine
 10
-139.1174009919394
 20
83.54999964168633
 30
0.0
 11
-139.1174009919506
 21
86.5499996416893
 31
0.0
  0
LINE
  5
324
330
59
100
AcDbEntity
  8
0
  6
Continuous
 62
     7
100
AcDbLine
 10
-139.6295330263007
 20
83.54999964168633
 30
0.0
 11
-139.6295330263087
 21
86.54999964168785
 31
0.0
  0
LINE
  5
325
330
59
100
AcDbEntity
  8
0
  6
Continuous
 62
     7
100
AcDbLine
 10
-138.2052689575136
 20
86.54999964168866
 30
0.0
 11
-133.0729644836807
 21
86.54999964168864
 31
0.0
  0
LINE
  5
326
330
59
100
AcDbEntity
  8
0
  6
Continuous
 62
     7
100
AcDbLine
 10
-129.2391170993375
 20
86.54999964168863
 30
0.0
 11
-105.7979624474121
 21
86.54999964168864
 31
0.0
  0
LINE
  5
327
330
59
100
AcDbEntity
  8
0
  6
Continuous
 62
     7
100
AcDbLine
 10
-95.67500365038178
 20
86.54999964168864
 30
0.0
 11
-95.30000365037958
 21
86.5499996416887
 31
0.0
  0
LINE
  5
328
330
59
100
AcDbEntity
  8
0
  6
Continuous
 62
     7
100
AcDbLine
 10
-129.2391167205993
 20
70.94999964168835
 30
0.0
 11
-128.3391167205994
 21
70.94999964168835
 31
0.0
  0
LINE
  5
329
330
59
100
AcDbEntity
  8
0
  6
Continuous
 62
     7
100
AcDbLine
 10
-142.9391167206001
 20
69.54999964168834
 30
0.0
 11
-142.9391167206001
 21
70.94999964168835
 31
0.0
  0
LINE
  5
32A
330
59
100
AcDbEntity
  8
0
  6
Continuous
 62
     7
100
AcDbLine
 10
-142.0391167206001
 20
70.94999964168834
 30
0.0
 11
-142.9391167206001
 21
70.94999964168835
 31
0.0
  0
LINE
  5
32B
330
59
100
AcDbEntity
  8
0
  6
Continuous
 62
     2
100
AcDbLine
 10
-155.3891167205992
 20
70.54999963630273
 30
0.0
 11
-142.9391167206001
 21
70.54999963630273
 31
0.0
  0
LINE
  5
32C
330
59
100
AcDbEntity
  8
0
  6
Continuous
 62
     7
100
AcDbLine
 10
-128.3391167205993
 20
69.54999964168834
 30
0.0
 11
-128.3391167205994
 21
70.94999964168835
 31
0.0
  0
LINE
  5
32D
330
59
100
AcDbEntity
  8
0
  6
Continuous
 62
     7
100
AcDbLine
 10
-146.6952309859786
 20
72.3504949634405
 30
0.0
 11
-152.468522546087
 21
72.39987001092437
 31
0.0
  0
LINE
  5
32E
330
59
100
AcDbEntity
  8
0
  6
Continuous
 62
     7
100
AcDbLine
 10
-156.3891167206
 20
85.09999964548345
 30
0.0
 11
-156.3891167206001
 21
69.54999964168834
 31
0.0
  0
LINE
  5
32F
330
59
100
AcDbEntity
  8
0
  6
Continuous
 62
     7
100
AcDbLine
 10
-142.0391167305546
 20
98.29999964168847
 30
0.0
 11
-140.8391167305546
 21
98.29999964168849
 31
0.0
  0
LINE
  5
330
330
59
100
AcDbEntity
  8
0
  6
Continuous
 62
     7
100
AcDbLine
 10
-140.8391167305545
 20
94.79999964168853
 30
0.0
 11
-140.8391167305546
 21
98.29999964168849
 31
0.0
  0
LINE
  5
331
330
59
100
AcDbEntity
  8
0
  6
Continuous
 62
     7
100
AcDbLine
 10
-142.0391167305546
 20
94.79999964168853
 30
0.0
 11
-142.0391167305546
 21
98.29999964168847
 31
0.0
  0
LINE
  5
332
330
59
100
AcDbEntity
  8
0
  6
Continuous
 62
     7
100
AcDbLine
 10
-143.7658251604903
 20
77.32562459420674
 30
0.0
 11
-146.6952309859786
 21
72.3504949634405
 31
0.0
  0
LINE
  5
333
330
59
100
AcDbEntity
  8
0
  6
Continuous
 62
     7
100
AcDbLine
 10
-152.3830024552188
 20
82.39950431994079
 30
0.0
 11
-146.6097108951103
 21
82.35012927245687
 31
0.0
  0
LINE
  5
334
330
59
100
AcDbEntity
  8
0
  6
Continuous
 62
     7
100
AcDbLine
 10
-146.6097108951103
 20
82.35012927245687
 30
0.0
 11
-143.7658251604903
 21
77.32562459420674
 31
0.0
  0
LINE
  5
335
330
59
100
AcDbEntity
  8
0
  6
Continuous
 62
     2
100
AcDbLine
 10
-155.3891167205992
 20
70.54999963630273
 30
0.0
 11
-155.3891167205992
 21
85.09999964548345
 31
0.0
  0
LINE
  5
336
330
59
100
AcDbEntity
  8
0
  6
Continuous
 62
     7
100
AcDbLine
 10
-152.468522546087
 20
72.39987001092437
 30
0.0
 11
-155.3124082807071
 21
77.42437468917456
 31
0.0
  0
LINE
  5
337
330
59
100
AcDbEntity
  8
0
  6
Continuous
 62
     7
100
AcDbLine
 10
-155.3124082807071
 20
77.42437468917456
 30
0.0
 11
-152.3830024552188
 21
82.39950431994079
 31
0.0
  0
LINE
  5
338
330
59
100
AcDbEntity
  8
0
  6
Continuous
 62
     7
100
AcDbLine
 10
-142.0391167305546
 20
94.79999964168853
 30
0.0
 11
-140.8391167305545
 21
94.79999964168853
 31
0.0
  0
LINE
  5
339
330
59
100
AcDbEntity
  8
0
  6
Continuous
 62
     7
100
AcDbLine
 10
-142.0391167305545
 20
86.54999964168864
 30
0.0
 11
-142.0391167305546
 21
94.79999964168853
 31
0.0
  0
LINE
  5
33A
330
59
100
AcDbEntity
  8
0
  6
Continuous
 62
     7
100
AcDbLine
 10
-140.8391167305545
 20
86.54999964168863
 30
0.0
 11
-140.8391167305545
 21
94.79999964168853
 31
0.0
  0
LINE
  5
33B
330
59
100
AcDbEntity
  8
0
  6
Continuous
 62
     7
100
AcDbLine
 10
-138.1891167404586
 20
98.29999964168849
 30
0.0
 11
-140.8391167305546
 21
98.29999964168849
 31
0.0
  0
LINE
  5
33C
330
59
100
AcDbEntity
  8
0
  6
Continuous
 62
     7
100
AcDbLine
 10
-174.5001216569096
 20
69.54999964168833
 30
0.0
 11
-169.7933362955237
 21
69.54999964168833
 31
0.0
  0
LINE
  5
33D
330
59
100
AcDbEntity
  8
0
  6
Continuous
 62
     7
100
AcDbLine
 10
-175.6032305482343
 20
69.54999964168833
 30
0.0
 11
-175.3292963393635
 21
69.54999964168833
 31
0.0
  0
LINE
  5
33E
330
59
100
AcDbEntity
  8
0
  6
Continuous
 62
     7
100
AcDbLine
 10
-169.7933362955248
 20
85.09999964548344
 30
0.0
 11
-169.7933362955237
 21
69.54999964168833
 31
0.0
  0
LINE
  5
33F
330
59
100
AcDbEntity
  8
0
  6
Continuous
 62
     7
100
AcDbLine
 10
-105.7979624474124
 20
85.09999964548345
 30
0.0
 11
-101.4848979030874
 21
85.09999964548344
 31
0.0
  0
LINE
  5
340
330
59
100
AcDbEntity
  8
0
  6
Continuous
 62
     7
100
AcDbLine
 10
-105.7979624474121
 20
86.54999964168864
 30
0.0
 11
-98.09768398668888
 21
86.54999964168864
 31
0.0
  0
LINE
  5
341
330
59
100
AcDbEntity
  8
0
  6
Continuous
 62
     7
100
AcDbLine
 10
-95.94893785925808
 20
86.54999964168863
 30
0.0
 11
-95.67500365038178
 21
86.54999964168864
 31
0.0
  0
LINE
  5
342
330
59
100
AcDbEntity
  8
0
  6
Continuous
 62
     7
100
AcDbLine
 10
-96.43911686775148
 20
86.54999964168864
 30
0.0
 11
-96.43911686775148
 21
85.09999964548344
 31
0.0
  0
LINE
  5
343
330
59
100
AcDbEntity
  8
0
  6
Continuous
 62
     7
100
AcDbLine
 10
-98.09768398668888
 20
86.54999964168864
 30
0.0
 11
-98.09768398668918
 21
85.09999964548344
 31
0.0
  0
LINE
  5
344
330
59
100
AcDbEntity
  8
0
  6
Continuous
 62
     7
100
AcDbLine
 10
-97.54185359800877
 20
86.54999964168864
 30
0.0
 11
-97.54185359800917
 21
85.09999964548344
 31
0.0
  0
LINE
  5
345
330
59
100
AcDbEntity
  8
0
  6
Continuous
 62
     7
100
AcDbLine
 10
-96.43911686775148
 20
86.54999964168864
 30
0.0
 11
-95.94893785925808
 21
86.54999964168863
 31
0.0
  0
LINE
  5
346
330
59
100
AcDbEntity
  8
0
  6
Continuous
 62
     7
100
AcDbLine
 10
-98.09768398668888
 20
86.54999964168864
 30
0.0
 11
-97.54185359800877
 21
86.54999964168864
 31
0.0
  0
LINE
  5
347
330
59
100
AcDbEntity
  8
0
  6
Continuous
 62
     7
100
AcDbLine
 10
-97.54185359800877
 20
86.54999964168864
 30
0.0
 11
-96.43911686775148
 21
86.54999964168864
 31
0.0
  0
LINE
  5
348
330
59
100
AcDbEntity
  8
0
  6
Continuous
 62
     7
100
AcDbLine
 10
-97.54185359800917
 20
85.09999964548344
 30
0.0
 11
-96.43911686775148
 21
85.09999964548344
 31
0.0
  0
LINE
  5
349
330
59
100
AcDbEntity
  8
0
  6
Continuous
 62
     7
100
AcDbLine
 10
-98.09768398668918
 20
85.09999964548344
 30
0.0
 11
-97.54185359800917
 21
85.09999964548344
 31
0.0
  0
LINE
  5
34A
330
59
100
AcDbEntity
  8
0
  6
Continuous
 62
     7
100
AcDbLine
 10
-101.4848979030874
 20
85.09999964548344
 30
0.0
 11
-98.09768398668918
 21
85.09999964548344
 31
0.0
  0
LINE
  5
34B
330
59
100
AcDbEntity
  8
0
  6
Continuous
 62
     7
100
AcDbLine
 10
-101.4848979030886
 20
69.54999964168833
 30
0.0
 11
-101.4848979030874
 21
85.09999964548344
 31
0.0
  0
LINE
  5
34C
330
59
100
AcDbEntity
  8
0
  6
Continuous
 62
     7
100
AcDbLine
 10
-96.77811254169858
 20
85.0999996454835
 30
0.0
 11
-96.77811254170268
 21
69.54999964168833
 31
0.0
  0
LINE
  5
34D
330
59
100
AcDbEntity
  8
0
  6
Continuous
 62
     7
100
AcDbLine
 10
-96.47893785924627
 20
85.0999996454835
 30
0.0
 11
-96.47893785924458
 21
69.54999964168832
 31
0.0
  0
LINE
  5
34E
330
59
100
AcDbEntity
  8
0
  6
Continuous
 62
     7
100
AcDbLine
 10
-95.94893785924948
 20
69.54999964168832
 30
0.0
 11
-95.94893785925808
 21
86.54999964168863
 31
0.0
  0
LINE
  5
34F
330
59
100
AcDbEntity
  8
0
  6
Continuous
 62
     2
100
AcDbLine
 10
-95.67500365038038
 20
69.54999964168833
 30
0.0
 11
-95.67500365038178
 21
86.54999964168864
 31
0.0
  0
LINE
  5
350
330
59
100
AcDbEntity
  8
0
  6
Continuous
 62
     7
100
AcDbLine
 10
-114.8891167206003
 20
69.54999964168833
 30
0.0
 11
-114.8891167206002
 21
85.09999964548344
 31
0.0
  0
LINE
  5
351
330
59
100
AcDbEntity
  8
0
  6
Continuous
 62
     2
100
AcDbLine
 10
-115.8891167205995
 20
70.54999963630273
 30
0.0
 11
-115.8891167205995
 21
85.09999964548344
 31
0.0
  0
LINE
  5
352
330
59
100
AcDbEntity
  8
0
  6
Continuous
 62
     7
100
AcDbLine
 10
-118.8366197209965
 20
82.3076255703314
 30
0.0
 11
-115.9498683750483
 21
77.30762557033142
 31
0.0
  0
LINE
  5
353
330
59
100
AcDbEntity
  8
0
  6
Continuous
 62
     7
100
AcDbLine
 10
-95.30000365037807
 20
69.54999964168839
 30
0.0
 11
-95.30000365037958
 21
86.5499996416887
 31
0.0
  0
LINE
  5
354
330
59
100
AcDbEntity
  8
1
  6
DOT_CENTER
 62
     2
100
AcDbLine
 10
-146.2391167205993
 20
77.37499963789597
 30
0.0
 11
-152.8391167205993
 21
77.37499963789597
 31
0.0
  0
LINE
  5
355
330
59
100
AcDbEntity
  8
1
  6
DOT_CENTER
 62
     2
100
AcDbLine
 10
-149.5391167205993
 20
80.67499963789597
 30
0.0
 11
-149.5391167205993
 21
74.07499963789597
 31
0.0
  0
LINE
  5
356
330
59
100
AcDbEntity
  8
1
  6
DOT_CENTER
 62
     2
100
AcDbLine
 10
-118.4391167205993
 20
77.37499963789597
 30
0.0
 11
-125.0391167205994
 21
77.37499963789597
 31
0.0
  0
LINE
  5
357
330
59
100
AcDbEntity
  8
1
  6
DOT_CENTER
 62
     2
100
AcDbLine
 10
-121.7391167205994
 20
80.67499963789597
 30
0.0
 11
-121.7391167205994
 21
74.07499963789597
 31
0.0
  0
ARC
  5
358
330
59
100
AcDbEntity
  8
0
  6
Continuous
 62
     7
100
AcDbCircle
 10
-135.6391167404586
 20
93.54999964168849
 30
0.0
 40
2.549999999999983
100
AcDbArc
 50
180.0
 51
0.0
  0
CIRCLE
  5
359
330
59
100
AcDbEntity
  8
0
  6
Continuous
 62
     7
100
AcDbCircle
 10
-121.7391167205994
 20
77.37499963789597
 30
0.0
 40
2.999999999999974
  0
CIRCLE
  5
35A
330
59
100
AcDbEntity
  8
0
  6
Continuous
 62
     7
100
AcDbCircle
 10
-149.5391167205993
 20
77.37499963789597
 30
0.0
 40
2.999999999999974
  0
ENDBLK
  5
5B
330
59
100
AcDbEntity
  8
0
100
AcDbBlockEnd
  0
BLOCK
  5
5E
330
5C
100
AcDbEntity
  8
0
100
AcDbBlockBegin
  2
Drfsicht1
 70
     0
 10
-135.6391150345583
 20
83.8500005000001
 30
0.0
  3
Drfsicht1
  1

  0
INSERT
  5
5D
330
5C
100
AcDbEntity
  8
0
100
AcDbBlockReference
  2
RBO_6_F-select__2
 10
-175.9782305482342
 20
69.54999964168753
 30
0.0
  0
MTEXT
  5
35B
330
5C
100
AcDbEntity
  8
1
 62
     6
100
AcDbMText
 10
-135.6391150345585
 20
64.54999983242806
 30
0.0
 40
5.0
 41
0.0
 71
     2
 72
     1
  1
 
  7
CONVERTER_11
 73
     1
 44
1.32052821128451
  0
DIMENSION
  5
366
330
5C
100
AcDbEntity
  8
1
100
AcDbDimension
  2
*D17
 10
-185.083707910592
 20
86.54999964168866
 30
0.0
 11
-188.333707910592
 21
77.9784931480131
 31
0.0
 70
    32
  1
<>
 71
     5
 42
-1.0
 53
90.0
  3
ME10_DIM_10
100
AcDbAlignedDimension
 13
-169.7933362955237
 23
69.54999964168833
 33
0.0
 14
-173.1805494545109
 24
86.54999964168866
 34
0.0
 50
90.0
100
AcDbRotatedDimension
  0
DIMENSION
  5
371
330
5C
100
AcDbEntity
  8
1
100
AcDbDimension
  2
*D18
 10
-193.083707910592
 20
69.54999964168833
 30
0.0
 11
-196.508707910592
 21
83.6551567508731
 31
0.0
 70
    32
  1
<>
 71
     5
 42
-1.0
 53
90.0
  3
ME10_DIM_11
100
AcDbAlignedDimension
 13
-140.8391167305546
 23
98.29999964168849
 33
0.0
 14
-169.7933362955237
 24
69.54999964168833
 34
0.0
 50
90.0
100
AcDbRotatedDimension
  0
ENDBLK
  5
5F
330
5C
100
AcDbEntity
  8
0
100
AcDbBlockEnd
  0
BLOCK
  5
61
330
60
100
AcDbEntity
  8
0
100
AcDbBlockBegin
  2
RBO_6_F-select__3
 70
     0
 10
-40.69999651370512
 20
134.1500015360397
 30
0.0
  3
RBO_6_F-select__3
  1

  0
LINE
  5
372
330
60
100
AcDbEntity
  8
0
  6
Continuous
 62
     7
100
AcDbLine
 10
-5.56088306474723
 20
137.9500015360397
 30
0.0
 11
-2.91088342362602
 21
137.9500015360397
 31
0.0
  0
LINE
  5
373
330
60
100
AcDbEntity
  8
0
  6
Continuous
 62
     7
100
AcDbLine
 10
-2.91088342362602
 20
137.9500015360397
 30
0.0
 11
-2.91088342362602
 21
134.1500015360397
 31
0.0
  0
LINE
  5
374
330
60
100
AcDbEntity
  8
0
  6
Continuous
 62
     7
100
AcDbLine
 10
-6.76088306474722
 20
134.1500015360398
 30
0.0
 11
-2.91088342362602
 21
134.1500015360397
 31
0.0
  0
LINE
  5
375
330
60
100
AcDbEntity
  8
0
  6
Continuous
 62
     7
100
AcDbLine
 10
4.53911655649799
 20
172.4000015310179
 30
0.0
 11
4.53911655650487
 21
173.8500015360096
 31
0.0
  0
LINE
  5
376
330
60
100
AcDbEntity
  8
0
  6
Continuous
 62
     7
100
AcDbLine
 10
-6.76088306474722
 20
138.7500015360397
 30
0.0
 11
-6.76088306474722
 21
134.1500015360398
 31
0.0
  0
LINE
  5
377
330
60
100
AcDbEntity
  8
0
  6
Continuous
 62
     7
100
AcDbLine
 10
38.10916239162538
 20
134.1500015360401
 30
0.0
 11
39.87774943698628
 21
137.2132841562155
 31
0.0
  0
LINE
  5
378
330
60
100
AcDbEntity
  8
0
  6
Continuous
 62
     7
100
AcDbLine
 10
6.03911656646989
 20
134.1500015360397
 30
0.0
 11
38.10916239162538
 21
134.1500015360401
 31
0.0
  0
LINE
  5
379
330
60
100
AcDbEntity
  8
0
  6
Continuous
 62
     7
100
AcDbLine
 10
33.02251081388846
 20
140.189662563011
 30
0.0
 11
38.50012149282946
 21
137.0271625630085
 31
0.0
  0
LINE
  5
37A
330
60
100
AcDbEntity
  8
0
  6
Continuous
 62
     7
100
AcDbLine
 10
-36.03823210930503
 20
160.8414163251219
 30
0.0
 11
-37.90231617739582
 21
160.5127280096087
 31
0.0
  0
LINE
  5
37B
330
60
100
AcDbEntity
  8
0
  6
Continuous
 62
     7
100
AcDbLine
 10
-30.20203771667252
 20
173.8500015360097
 30
0.0
 11
-37.90231617739582
 21
160.5127280096087
 31
0.0
  0
LINE
  5
37C
330
60
100
AcDbEntity
  8
0
  6
Continuous
 62
     7
100
AcDbLine
 10
-36.03823210930503
 20
160.8414163251219
 30
0.0
 11
-37.36118105461551
 21
158.5500015360243
 31
0.0
  0
LINE
  5
37D
330
60
100
AcDbEntity
  8
0
  6
Continuous
 62
     7
100
AcDbLine
 10
-38.45814656607584
 20
158.5500015360244
 30
0.0
 11
-37.36118105461551
 21
158.5500015360243
 31
0.0
  0
LINE
  5
37E
330
60
100
AcDbEntity
  8
0
  6
Continuous
 62
     7
100
AcDbLine
 10
39.03512149282898
 20
137.9538097450579
 30
0.0
 11
38.50012149282946
 21
137.0271625630085
 31
0.0
  0
LINE
  5
37F
330
60
100
AcDbEntity
  8
0
  6
Continuous
 62
     7
100
AcDbLine
 10
37.73637967910617
 20
158.5500015360243
 30
0.0
 11
36.63941416764578
 21
158.5500015360243
 31
0.0
  0
LINE
  5
380
330
60
100
AcDbEntity
  8
0
  6
Continuous
 62
     7
100
AcDbLine
 10
35.31646522233527
 20
160.8414163251218
 30
0.0
 11
37.18054929042629
 21
160.5127280096087
 31
0.0
  0
LINE
  5
381
330
60
100
AcDbEntity
  8
0
  6
Continuous
 62
     7
100
AcDbLine
 10
33.02251081388846
 20
140.189662563011
 30
0.0
 11
33.55751081388706
 21
141.1163097450594
 31
0.0
  0
LINE
  5
382
330
60
100
AcDbEntity
  8
0
  6
Continuous
 62
     7
100
AcDbLine
 10
38.83911670361599
 20
156.6400049821859
 30
0.0
 11
38.83911670361869
 21
146.8162629607094
 31
0.0
  0
LINE
  5
383
330
60
100
AcDbEntity
  8
0
  6
Continuous
 62
     7
100
AcDbLine
 10
33.79333613143999
 20
141.7704823885307
 30
0.0
 11
33.79333613143908
 21
140.9801559344882
 31
0.0
  0
LINE
  5
384
330
60
100
AcDbEntity
  8
0
  6
Continuous
 62
     7
100
AcDbLine
 10
33.79333613143908
 20
140.9801559344882
 30
0.0
 11
33.55751081388706
 21
141.1163097450594
 31
0.0
  0
LINE
  5
385
330
60
100
AcDbEntity
  8
0
  6
Continuous
 62
     7
100
AcDbLine
 10
38.79929617528129
 20
138.0899635556256
 30
0.0
 11
39.03512149282898
 21
137.9538097450579
 31
0.0
  0
LINE
  5
386
330
60
100
AcDbEntity
  8
0
  6
Continuous
 62
     7
100
AcDbLine
 10
38.79929617528129
 20
138.0899635556256
 30
0.0
 11
39.32929617527017
 21
138.3959591982902
 31
0.0
  0
LINE
  5
387
330
60
100
AcDbEntity
  8
0
  6
Continuous
 62
     7
100
AcDbLine
 10
39.32929617527017
 20
138.3959591982902
 30
0.0
 11
39.60323038415297
 21
138.2378032090513
 31
0.0
  0
LINE
  5
388
330
60
100
AcDbEntity
  8
0
  6
Continuous
 62
     7
100
AcDbLine
 10
37.73637967910617
 20
158.5500015360243
 30
0.0
 11
38.83911670361599
 21
156.6400049821859
 31
0.0
  0
LINE
  5
389
330
60
100
AcDbEntity
  8
0
  6
Continuous
 62
     7
100
AcDbLine
 10
35.31646522233527
 20
160.8414163251218
 30
0.0
 11
36.63941416764578
 21
158.5500015360243
 31
0.0
  0
LINE
  5
38A
330
60
100
AcDbEntity
  8
0
  6
Continuous
 62
     7
100
AcDbLine
 10
4.53911655650487
 20
173.8500015360096
 30
0.0
 11
29.48027082968548
 21
173.8500015360398
 31
0.0
  0
LINE
  5
38B
330
60
100
AcDbEntity
  8
0
  6
Continuous
 62
     7
100
AcDbLine
 10
-5.26088344348543
 20
173.8500015360096
 30
0.0
 11
-30.20203771667252
 21
173.8500015360097
 31
0.0
  0
LINE
  5
38C
330
60
100
AcDbEntity
  8
0
  6
Continuous
 62
     7
100
AcDbLine
 10
-39.52106230483824
 20
138.0899635556256
 30
0.0
 11
-39.75688762238562
 21
137.9538097450573
 31
0.0
  0
LINE
  5
38D
330
60
100
AcDbEntity
  8
0
  6
Continuous
 62
     7
100
AcDbLine
 10
-5.56088306474723
 20
138.7500015360398
 30
0.0
 11
-5.56088306474723
 21
137.9500015360397
 31
0.0
  0
LINE
  5
38E
330
60
100
AcDbEntity
  8
0
  6
Continuous
 62
     7
100
AcDbLine
 10
-5.26088344348543
 20
172.4000015310176
 30
0.0
 11
-4.35129974915051
 21
172.4000015310175
 31
0.0
  0
LINE
  5
38F
330
60
100
AcDbEntity
  8
0
  6
Continuous
 62
     7
100
AcDbLine
 10
-38.45814656607584
 20
158.5500015360244
 30
0.0
 11
-39.56088329633312
 21
156.6400054918456
 31
0.0
  0
LINE
  5
390
330
60
100
AcDbEntity
  8
0
  6
Continuous
 62
     7
100
AcDbLine
 10
-39.56088329633164
 20
146.8229629158356
 30
0.0
 11
-39.56088329633312
 21
156.6400054918456
 31
0.0
  0
LINE
  5
391
330
60
100
AcDbEntity
  8
0
  6
Continuous
 62
     7
100
AcDbLine
 10
-34.51510226099714
 20
141.7771818805011
 30
0.0
 11
-39.56088329633164
 21
146.8229629158356
 31
0.0
  0
LINE
  5
392
330
60
100
AcDbEntity
  8
0
  6
Continuous
 62
     7
100
AcDbLine
 10
-33.74427694344541
 20
140.1896625630111
 30
0.0
 11
-39.22188762238642
 21
137.0271625630085
 31
0.0
  0
LINE
  5
393
330
60
100
AcDbEntity
  8
0
  6
Continuous
 62
     7
100
AcDbLine
 10
-39.75688762238562
 20
137.9538097450573
 30
0.0
 11
-39.22188762238642
 21
137.0271625630085
 31
0.0
  0
LINE
  5
394
330
60
100
AcDbEntity
  8
0
  6
Continuous
 62
     7
100
AcDbLine
 10
-38.83092852118242
 20
134.15000153604
 30
0.0
 11
-40.59951556654403
 21
137.2132841562166
 31
0.0
  0
LINE
  5
395
330
60
100
AcDbEntity
  8
0
  6
Continuous
 62
     7
100
AcDbLine
 10
-38.83092852118242
 20
134.15000153604
 30
0.0
 11
-6.76088306474722
 21
134.1500015360398
 31
0.0
  0
LINE
  5
396
330
60
100
AcDbEntity
  8
0
  6
Continuous
 62
     7
100
AcDbLine
 10
-2.91088342362602
 20
134.1500015360397
 30
0.0
 11
2.18911657637398
 21
134.1500015360397
 31
0.0
  0
LINE
  5
397
330
60
100
AcDbEntity
  8
0
  6
Continuous
 62
     7
100
AcDbLine
 10
2.18911657637398
 20
134.1500015360397
 30
0.0
 11
6.03911656646989
 21
134.1500015360397
 31
0.0
  0
LINE
  5
398
330
60
100
AcDbEntity
  8
0
  6
Continuous
 62
     7
100
AcDbLine
 10
6.03911656646989
 20
142.2500015360397
 30
0.0
 11
6.03911656646989
 21
138.7500015360397
 31
0.0
  0
LINE
  5
399
330
60
100
AcDbEntity
  8
0
  6
Continuous
 62
     7
100
AcDbLine
 10
4.83911656646987
 20
137.9500015360397
 30
0.0
 11
4.83911656646987
 21
138.7500015360397
 31
0.0
  0
LINE
  5
39A
330
60
100
AcDbEntity
  8
0
  6
Continuous
 62
     7
100
AcDbLine
 10
4.83911656646987
 20
142.2500015360397
 30
0.0
 11
4.83911656646987
 21
138.7500015360397
 31
0.0
  0
LINE
  5
39B
330
60
100
AcDbEntity
  8
0
  6
Continuous
 62
     7
100
AcDbLine
 10
6.03911656646989
 20
138.7500015360397
 30
0.0
 11
6.03911656646989
 21
134.1500015360397
 31
0.0
  0
LINE
  5
39C
330
60
100
AcDbEntity
  8
0
  6
Continuous
 62
     7
100
AcDbLine
 10
-3.53588344347594
 20
170.6500015309843
 30
0.0
 11
-3.53588344347594
 21
171.700001531027
 31
0.0
  0
LINE
  5
39D
330
60
100
AcDbEntity
  8
0
  6
Continuous
 62
     7
100
AcDbLine
 10
-3.21088344346782
 20
170.6500015309843
 30
0.0
 11
-3.53588344347594
 21
170.6500015309843
 31
0.0
  0
LINE
  5
39E
330
60
100
AcDbEntity
  8
0
  6
Continuous
 62
     7
100
AcDbLine
 10
2.18911657637398
 20
134.1500015360397
 30
0.0
 11
2.18911657637398
 21
137.9500015360397
 31
0.0
  0
LINE
  5
39F
330
60
100
AcDbEntity
  8
0
  6
Continuous
 62
     7
100
AcDbLine
 10
2.18911657637398
 20
137.9500015360397
 30
0.0
 11
4.83911656646987
 21
137.9500015360397
 31
0.0
  0
LINE
  5
3A0
330
60
100
AcDbEntity
  8
0
  6
Continuous
 62
     7
100
AcDbLine
 10
-2.91088342362602
 20
137.9500015360397
 30
0.0
 11
2.18911657637398
 21
137.9500015360397
 31
0.0
  0
LINE
  5
3A1
330
60
100
AcDbEntity
  8
0
  6
Continuous
 62
     7
100
AcDbLine
 10
-3.53588344347594
 20
171.700001531027
 30
0.0
 11
-2.92703568036714
 21
171.7000015310271
 31
0.0
  0
LINE
  5
3A2
330
60
100
AcDbEntity
  8
0
  6
Continuous
 62
     7
100
AcDbLine
 10
-3.21088344346782
 20
170.6500015309843
 30
0.0
 11
-3.21088344346782
 21
163.6000015310281
 31
0.0
  0
LINE
  5
3A3
330
60
100
AcDbEntity
  8
0
  6
Continuous
 62
     7
100
AcDbLine
 10
-2.92703568036714
 20
171.7000015310271
 30
0.0
 11
-3.83916771479514
 21
172.6121335654611
 31
0.0
  0
LINE
  5
3A4
330
60
100
AcDbEntity
  8
0
  6
Continuous
 62
     7
100
AcDbLine
 10
-5.56088306474723
 20
142.2500015360397
 30
0.0
 11
-5.56088306474723
 21
138.7500015360398
 31
0.0
  0
LINE
  5
3A5
330
60
100
AcDbEntity
  8
0
  6
Continuous
 62
     7
100
AcDbLine
 10
-5.56088306474723
 20
138.7500015360398
 30
0.0
 11
-6.76088306474722
 21
138.7500015360397
 31
0.0
  0
LINE
  5
3A6
330
60
100
AcDbEntity
  8
0
  6
Continuous
 62
     7
100
AcDbLine
 10
-6.76088306474722
 20
142.2500015360397
 30
0.0
 11
-6.76088306474722
 21
138.7500015360397
 31
0.0
  0
LINE
  5
3A7
330
60
100
AcDbEntity
  8
0
  6
Continuous
 62
     7
100
AcDbLine
 10
-5.56088306474723
 20
142.2500015360397
 30
0.0
 11
-6.76088306474722
 21
142.2500015360397
 31
0.0
  0
LINE
  5
3A8
330
60
100
AcDbEntity
  8
0
  6
Continuous
 62
     7
100
AcDbLine
 10
-34.51510226099714
 20
141.7771818805011
 30
0.0
 11
-34.51510226099612
 21
140.9801559344885
 31
0.0
  0
LINE
  5
3A9
330
60
100
AcDbEntity
  8
0
  6
Continuous
 62
     7
100
AcDbLine
 10
-5.26088344348543
 20
172.4000015310176
 30
0.0
 11
-5.26088344348543
 21
173.8500015360096
 31
0.0
  0
LINE
  5
3AA
330
60
100
AcDbEntity
  8
0
  6
Continuous
 62
     7
100
AcDbLine
 10
-34.51510226099612
 20
140.9801559344885
 30
0.0
 11
-34.27927694344422
 21
141.1163097450595
 31
0.0
  0
LINE
  5
3AB
330
60
100
AcDbEntity
  8
0
  6
Continuous
 62
     7
100
AcDbLine
 10
-33.74427694344541
 20
140.1896625630111
 30
0.0
 11
-34.27927694344422
 21
141.1163097450595
 31
0.0
  0
LINE
  5
3AC
330
60
100
AcDbEntity
  8
0
  6
Continuous
 62
     7
100
AcDbLine
 10
-39.52106230483824
 20
138.0899635556256
 30
0.0
 11
-40.05106230482662
 21
138.3959591982899
 31
0.0
  0
LINE
  5
3AD
330
60
100
AcDbEntity
  8
0
  6
Continuous
 62
     7
100
AcDbLine
 10
-40.05106230482662
 20
138.3959591982899
 30
0.0
 11
-40.32499651370293
 21
138.2378032090554
 31
0.0
  0
LINE
  5
3AE
330
60
100
AcDbEntity
  8
0
  6
Continuous
 62
     7
100
AcDbLine
 10
2.48911655649869
 20
163.600001531028
 30
0.0
 11
-3.21088344346782
 21
163.6000015310281
 31
0.0
  0
LINE
  5
3AF
330
60
100
AcDbEntity
  8
0
  6
Continuous
 62
     7
100
AcDbLine
 10
38.83911670361869
 20
146.8162629607094
 30
0.0
 11
33.79333613143999
 21
141.7704823885307
 31
0.0
  0
LINE
  5
3B0
330
60
100
AcDbEntity
  8
0
  6
Continuous
 62
     7
100
AcDbLine
 10
6.03911656646989
 20
142.2500015360397
 30
0.0
 11
4.83911656646987
 21
142.2500015360397
 31
0.0
  0
LINE
  5
3B1
330
60
100
AcDbEntity
  8
0
  6
Continuous
 62
     7
100
AcDbLine
 10
6.03911656646989
 20
138.7500015360397
 30
0.0
 11
4.83911656646987
 21
138.7500015360397
 31
0.0
  0
LINE
  5
3B2
330
60
100
AcDbEntity
  8
0
  6
Continuous
 62
     7
100
AcDbLine
 10
2.48911655649869
 20
170.6500015309846
 30
0.0
 11
2.48911655649869
 21
163.600001531028
 31
0.0
  0
LINE
  5
3B3
330
60
100
AcDbEntity
  8
0
  6
Continuous
 62
     7
100
AcDbLine
 10
2.81411655650146
 20
170.6500015309847
 30
0.0
 11
2.48911655649869
 21
170.6500015309846
 31
0.0
  0
LINE
  5
3B4
330
60
100
AcDbEntity
  8
0
  6
Continuous
 62
     7
100
AcDbLine
 10
2.81411655650146
 20
170.6500015309847
 30
0.0
 11
2.81411655650146
 21
171.7000015310267
 31
0.0
  0
LINE
  5
3B5
330
60
100
AcDbEntity
  8
0
  6
Continuous
 62
     7
100
AcDbLine
 10
2.20526879339158
 20
171.7000015310267
 30
0.0
 11
2.81411655650146
 21
171.7000015310267
 31
0.0
  0
LINE
  5
3B6
330
60
100
AcDbEntity
  8
0
  6
Continuous
 62
     7
100
AcDbLine
 10
3.62953286218678
 20
172.400001531018
 30
0.0
 11
4.53911655649799
 21
172.4000015310179
 31
0.0
  0
LINE
  5
3B7
330
60
100
AcDbEntity
  8
0
  6
Continuous
 62
     7
100
AcDbLine
 10
2.20526879339158
 20
171.7000015310267
 30
0.0
 11
3.11740082782848
 21
172.6121335654575
 31
0.0
  0
LINE
  5
3B8
330
60
100
AcDbEntity
  8
0
  6
Continuous
 62
     7
100
AcDbLine
 10
29.48027082968548
 20
173.8500015360398
 30
0.0
 11
37.18054929042629
 21
160.5127280096087
 31
0.0
  0
ARC
  5
3B9
330
60
100
AcDbEntity
  8
0
  6
Continuous
 62
     7
100
AcDbCircle
 10
-4.05129974915053
 20
172.4000015311046
 30
0.0
 40
0.2999999999999746
100
AcDbArc
 50
45.00000000014963
 51
180.0000000166372
  0
ARC
  5
3BA
330
60
100
AcDbEntity
  8
0
  6
Continuous
 62
     7
100
AcDbCircle
 10
39.22823038414808
 20
137.5882841562158
 30
0.0
 40
0.7500000000000314
100
AcDbArc
 50
329.9999999999764
 51
59.99999999956809
  0
ARC
  5
3BB
330
60
100
AcDbEntity
  8
0
  6
Continuous
 62
     7
100
AcDbCircle
 10
-39.94999651370512
 20
137.5882841562157
 30
0.0
 40
0.7500000000000714
100
AcDbArc
 50
119.9999999998032
 51
209.9999999999197
  0
ARC
  5
3BC
330
60
100
AcDbEntity
  8
0
  6
Continuous
 62
     7
100
AcDbCircle
 10
3.32953286218668
 20
172.4000015311038
 30
0.0
 40
0.3000000000000962
100
AcDbArc
 50
359.9999999836124
 51
135.0000000006104
  0
ENDBLK
  5
62
330
60
100
AcDbEntity
  8
0
100
AcDbBlockEnd
  0
BLOCK
  5
65
330
63
100
AcDbEntity
  8
0
100
AcDbBlockBegin
  2
Rckans1
 70
     0
 10
-0.36088512952634
 20
154.0000000000701
 30
0.0
  3
Rckans1
  1

  0
INSERT
  5
64
330
63
100
AcDbEntity
  8
0
100
AcDbBlockReference
  2
RBO_6_F-select__3
 10
-40.69999651370512
 20
134.1500015360397
 30
0.0
  0
MTEXT
  5
3BD
330
63
100
AcDbEntity
  8
1
 62
     6
100
AcDbMText
 10
-0.36088512952699
 20
129.1500015259489
 30
0.0
 40
5.0
 41
0.0
 71
     2
 72
     1
  1
 
  7
CONVERTER_11
 73
     1
 44
1.32052821128451
  0
ENDBLK
  5
66
330
63
100
AcDbEntity
  8
0
100
AcDbBlockEnd
  0
BLOCK
  5
68
330
67
100
AcDbEntity
  8
0
100
AcDbBlockBegin
  2
RBO_6_F-select__4
 70
     0
 10
-83.44999914168838
 20
134.1500015360397
 30
0.0
  3
RBO_6_F-select__4
  1

  0
LINE
  5
3BE
330
67
100
AcDbEntity
  8
0
  6
Continuous
 62
     7
100
AcDbLine
 10
-64.64631948145552
 20
161.1500015360401
 30
0.0
 11
-65.52499913789586
 21
161.1500015360401
 31
0.0
  0
LINE
  5
3BF
330
67
100
AcDbEntity
  8
0
  6
Continuous
 62
     7
100
AcDbLine
 10
-62.57437418917445
 20
155.7500015360401
 30
0.0
 11
-65.52499913789586
 21
155.7500015360401
 31
0.0
  0
LINE
  5
3C0
330
67
100
AcDbEntity
  8
0
  6
Continuous
 62
     7
100
AcDbLine
 10
-65.52499913789586
 20
155.7500015360401
 30
0.0
 11
-67.54950381994068
 21
155.7500015360401
 31
0.0
  0
LINE
  5
3C1
330
67
100
AcDbEntity
  8
0
  6
Continuous
 62
     7
100
AcDbLine
 10
-70.24999914548334
 20
173.8500015360114
 30
0.0
 11
-70.24999914548333
 21
160.5127280096087
 31
0.0
  0
LINE
  5
3C2
330
67
100
AcDbEntity
  8
0
  6
Continuous
 62
     7
100
AcDbLine
 10
-70.24999914548333
 20
160.5127280096087
 30
0.0
 11
-70.24999914548333
 21
158.5500015360242
 31
0.0
  0
LINE
  5
3C3
330
67
100
AcDbEntity
  8
0
  6
Continuous
 62
     7
100
AcDbLine
 10
-70.24999914548333
 20
158.5500015360242
 30
0.0
 11
-70.24999914548333
 21
156.6400049821859
 31
0.0
  0
LINE
  5
3C4
330
67
100
AcDbEntity
  8
0
  6
Continuous
 62
     7
100
AcDbLine
 10
-71.69999914168854
 20
158.5500015360243
 30
0.0
 11
-71.69999914168855
 21
156.6400049821859
 31
0.0
  0
LINE
  5
3C5
330
67
100
AcDbEntity
  8
0
  6
Continuous
 62
     7
100
AcDbLine
 10
-71.69999914168855
 20
173.8500015360398
 30
0.0
 11
-71.69999914168855
 21
160.5127280096086
 31
0.0
  0
LINE
  5
3C6
330
67
100
AcDbEntity
  8
0
  6
Continuous
 62
     7
100
AcDbLine
 10
-70.24999914548333
 20
160.5127280096087
 30
0.0
 11
-71.69999914168855
 21
160.5127280096086
 31
0.0
  0
LINE
  5
3C7
330
67
100
AcDbEntity
  8
0
  6
Continuous
 62
     7
100
AcDbLine
 10
-71.69999914168854
 20
158.5500015360243
 30
0.0
 11
-70.24999914548333
 21
158.5500015360242
 31
0.0
  0
LINE
  5
3C8
330
67
100
AcDbEntity
  8
0
  6
Continuous
 62
     7
100
AcDbLine
 10
-71.69999914168855
 20
160.5127280096086
 30
0.0
 11
-71.69999914168854
 21
158.5500015360243
 31
0.0
  0
LINE
  5
3C9
330
67
100
AcDbEntity
  8
0
  6
Continuous
 62
     7
100
AcDbLine
 10
-65.52499913789586
 20
161.1500015360401
 30
0.0
 11
-65.52499913789586
 21
155.7500015360401
 31
0.0
  0
LINE
  5
3CA
330
67
100
AcDbEntity
  8
0
  6
Continuous
 62
     7
100
AcDbLine
 10
-59.52499913789587
 20
155.7500015360401
 30
0.0
 11
-62.57437418917445
 21
155.7500015360401
 31
0.0
  0
LINE
  5
3CB
330
67
100
AcDbEntity
  8
0
  6
Continuous
 62
     7
100
AcDbLine
 10
-70.24999914548333
 20
146.8162629607094
 30
0.0
 11
-71.69999914168855
 21
146.8162629607094
 31
0.0
  0
LINE
  5
3CC
330
67
100
AcDbEntity
  8
0
  6
Continuous
 62
     7
100
AcDbLine
 10
-71.69999914168854
 20
142.2500015360397
 30
0.0
 11
-79.94999914168842
 21
142.2500015360396
 31
0.0
  0
LINE
  5
3CD
330
67
100
AcDbEntity
  8
0
  6
Continuous
 62
     7
100
AcDbLine
 10
-83.44999914168838
 20
138.7500015360397
 30
0.0
 11
-83.44999914168838
 21
134.1500015360397
 31
0.0
  0
LINE
  5
3CE
330
67
100
AcDbEntity
  8
0
  6
Continuous
 62
     7
100
AcDbLine
 10
-71.69999914168854
 20
138.3959591982901
 30
0.0
 11
-54.69999914168823
 21
138.3959591982885
 31
0.0
  0
LINE
  5
3CF
330
67
100
AcDbEntity
  8
0
  6
Continuous
 62
     7
100
AcDbLine
 10
-71.69999914168852
 20
140.189662563011
 30
0.0
 11
-54.69999914168822
 21
140.1896625630056
 31
0.0
  0
LINE
  5
3D0
330
67
100
AcDbEntity
  8
0
  6
Continuous
 62
     7
100
AcDbLine
 10
-54.69999914168823
 20
140.9801559344847
 30
0.0
 11
-71.69999914168854
 21
140.9801559344885
 31
0.0
  0
LINE
  5
3D1
330
67
100
AcDbEntity
  8
0
  6
Continuous
 62
     7
100
AcDbLine
 10
-70.24999914548333
 20
141.9500015360535
 30
0.0
 11
-54.69999914168823
 21
141.9500015360535
 31
0.0
  0
LINE
  5
3D2
330
67
100
AcDbEntity
  8
0
  6
Continuous
 62
     7
100
AcDbLine
 10
-59.52499913789587
 20
161.1500015360401
 30
0.0
 11
-64.64631948145552
 21
161.1500015360401
 31
0.0
  0
LINE
  5
3D3
330
67
100
AcDbEntity
  8
0
  6
Continuous
 62
     2
100
AcDbLine
 10
-71.69999914168852
 20
138.2378032090512
 30
0.0
 11
-54.69999914168823
 21
138.2378032090565
 31
0.0
  0
LINE
  5
3D4
330
67
100
AcDbEntity
  8
0
  6
Continuous
 62
     2
100
AcDbLine
 10
-71.69999914168854
 20
137.2132841562155
 30
0.0
 11
-54.69999914168822
 21
137.213284156218
 31
0.0
  0
LINE
  5
3D5
330
67
100
AcDbEntity
  8
0
  6
Continuous
 62
     7
100
AcDbLine
 10
-62.57437418917445
 20
150.9500015360401
 30
0.0
 11
-57.54986951092431
 21
150.9500015360401
 31
0.0
  0
LINE
  5
3D6
330
67
100
AcDbEntity
  8
0
  6
Continuous
 62
     7
100
AcDbLine
 10
-57.50049446344038
 20
155.7500015360401
 30
0.0
 11
-57.54986951092426
 21
155.7500015360401
 31
0.0
  0
LINE
  5
3D7
330
67
100
AcDbEntity
  8
0
  6
Continuous
 62
     7
100
AcDbLine
 10
-57.54986951092426
 20
155.7500015360401
 30
0.0
 11
-59.52499913789587
 21
155.7500015360401
 31
0.0
  0
LINE
  5
3D8
330
67
100
AcDbEntity
  8
0
  6
Continuous
 62
     7
100
AcDbLine
 10
-57.50049446344038
 20
155.7500015360401
 30
0.0
 11
-57.50049446344038
 21
150.9500015360401
 31
0.0
  0
LINE
  5
3D9
330
67
100
AcDbEntity
  8
0
  6
Continuous
 62
     7
100
AcDbLine
 10
-57.54986951092426
 20
155.7500015360401
 30
0.0
 11
-57.54986951092431
 21
150.9500015360401
 31
0.0
  0
LINE
  5
3DA
330
67
100
AcDbEntity
  8
0
  6
Continuous
 62
     7
100
AcDbLine
 10
-57.50049446344038
 20
150.9500015360401
 30
0.0
 11
-54.69999914168823
 21
150.9500015360401
 31
0.0
  0
LINE
  5
3DB
330
67
100
AcDbEntity
  8
0
  6
Continuous
 62
     7
100
AcDbLine
 10
-57.54986951092431
 20
150.9500015360401
 30
0.0
 11
-57.50049446344038
 21
150.9500015360401
 31
0.0
  0
LINE
  5
3DC
330
67
100
AcDbEntity
  8
0
  6
Continuous
 62
     7
100
AcDbLine
 10
-54.69999914168822
 20
140.1896625630056
 30
0.0
 11
-54.69999914168823
 21
140.9801559344847
 31
0.0
  0
LINE
  5
3DD
330
67
100
AcDbEntity
  8
0
  6
Continuous
 62
     7
100
AcDbLine
 10
-54.69999914168823
 20
141.9500015360535
 30
0.0
 11
-54.69999914168823
 21
140.9801559344847
 31
0.0
  0
LINE
  5
3DE
330
67
100
AcDbEntity
  8
0
  6
Continuous
 62
     7
100
AcDbLine
 10
-54.69999914168823
 20
156.3500015360401
 30
0.0
 11
-56.09999914168822
 21
156.3500015360401
 31
0.0
  0
LINE
  5
3DF
330
67
100
AcDbEntity
  8
0
  6
Continuous
 62
     7
100
AcDbLine
 10
-54.69999914168822
 20
137.213284156218
 30
0.0
 11
-54.69999914168822
 21
134.1500015360401
 31
0.0
  0
LINE
  5
3E0
330
67
100
AcDbEntity
  8
0
  6
Continuous
 62
     7
100
AcDbLine
 10
-54.69999914168823
 20
138.3959591982885
 30
0.0
 11
-54.69999914168822
 21
140.1896625630056
 31
0.0
  0
LINE
  5
3E1
330
67
100
AcDbEntity
  8
0
  6
Continuous
 62
     7
100
AcDbLine
 10
-59.52499913789587
 20
161.1500015360401
 30
0.0
 11
-59.52499913789587
 21
155.7500015360401
 31
0.0
  0
LINE
  5
3E2
330
67
100
AcDbEntity
  8
0
  6
Continuous
 62
     7
100
AcDbLine
 10
-71.69999914168855
 20
173.8500015360398
 30
0.0
 11
-70.24999914548334
 21
173.8500015360114
 31
0.0
  0
LINE
  5
3E3
330
67
100
AcDbEntity
  8
0
  6
Continuous
 62
     7
100
AcDbLine
 10
-54.69999914168823
 20
156.3500015360401
 30
0.0
 11
-54.69999914168825
 21
173.8500015360096
 31
0.0
  0
LINE
  5
3E4
330
67
100
AcDbEntity
  8
0
  6
Continuous
 62
     7
100
AcDbLine
 10
-54.69999914168825
 20
173.8500015360096
 30
0.0
 11
-56.09999914168824
 21
173.8500015360125
 31
0.0
  0
LINE
  5
3E5
330
67
100
AcDbEntity
  8
0
  6
Continuous
 62
     7
100
AcDbLine
 10
-56.09999914168824
 20
173.8500015360125
 30
0.0
 11
-70.24999914548334
 21
173.8500015360114
 31
0.0
  0
LINE
  5
3E6
330
67
100
AcDbEntity
  8
0
  6
Continuous
 62
     7
100
AcDbLine
 10
-54.69999914168823
 20
156.3500015360401
 30
0.0
 11
-54.69999914168823
 21
150.9500015360401
 31
0.0
  0
LINE
  5
3E7
330
67
100
AcDbEntity
  8
0
  6
Continuous
 62
     7
100
AcDbLine
 10
-54.69999914168823
 20
138.2378032090565
 30
0.0
 11
-54.69999914168822
 21
137.213284156218
 31
0.0
  0
LINE
  5
3E8
330
67
100
AcDbEntity
  8
0
  6
Continuous
 62
     7
100
AcDbLine
 10
-54.69999914168823
 20
138.2378032090565
 30
0.0
 11
-54.69999914168823
 21
138.3959591982885
 31
0.0
  0
LINE
  5
3E9
330
67
100
AcDbEntity
  8
0
  6
Continuous
 62
     7
100
AcDbLine
 10
-54.69999914168823
 20
150.9500015360401
 30
0.0
 11
-54.69999914168823
 21
141.9500015360535
 31
0.0
  0
LINE
  5
3EA
330
67
100
AcDbEntity
  8
0
  6
Continuous
 62
     7
100
AcDbLine
 10
-56.09999914168822
 20
156.3500015360401
 30
0.0
 11
-56.09999914168824
 21
173.8500015360125
 31
0.0
  0
LINE
  5
3EB
330
67
100
AcDbEntity
  8
0
  6
Continuous
 62
     7
100
AcDbLine
 10
-67.54950381994068
 20
150.9500015360401
 30
0.0
 11
-62.57437418917445
 21
150.9500015360401
 31
0.0
  0
LINE
  5
3EC
330
67
100
AcDbEntity
  8
0
  6
Continuous
 62
     7
100
AcDbLine
 10
-62.57437418917445
 20
155.7500015360401
 30
0.0
 11
-62.57437418917445
 21
150.9500015360401
 31
0.0
  0
LINE
  5
3ED
330
67
100
AcDbEntity
  8
0
  6
Continuous
 62
     7
100
AcDbLine
 10
-67.54950381994068
 20
155.7500015360401
 30
0.0
 11
-67.54950381994068
 21
150.9500015360401
 31
0.0
  0
LINE
  5
3EE
330
67
100
AcDbEntity
  8
0
  6
Continuous
 62
     7
100
AcDbLine
 10
-70.24999914548334
 20
150.9500015360401
 30
0.0
 11
-67.54950381994068
 21
150.9500015360401
 31
0.0
  0
LINE
  5
3EF
330
67
100
AcDbEntity
  8
0
  6
Continuous
 62
     7
100
AcDbLine
 10
-70.24999914548333
 20
141.9500015360535
 30
0.0
 11
-70.24999914548333
 21
141.7704823885307
 31
0.0
  0
LINE
  5
3F0
330
67
100
AcDbEntity
  8
0
  6
Continuous
 62
     7
100
AcDbLine
 10
-71.69999914168854
 20
141.7704823885307
 30
0.0
 11
-70.24999914548333
 21
141.7704823885307
 31
0.0
  0
LINE
  5
3F1
330
67
100
AcDbEntity
  8
0
  6
Continuous
 62
     7
100
AcDbLine
 10
-71.69999914168855
 20
156.6400049821859
 30
0.0
 11
-70.24999914548333
 21
156.6400049821859
 31
0.0
  0
LINE
  5
3F2
330
67
100
AcDbEntity
  8
0
  6
Continuous
 62
     7
100
AcDbLine
 10
-71.69999914168852
 20
140.189662563011
 30
0.0
 11
-71.69999914168854
 21
140.9801559344885
 31
0.0
  0
LINE
  5
3F3
330
67
100
AcDbEntity
  8
0
  6
Continuous
 62
     7
100
AcDbLine
 10
-71.69999914168854
 20
140.9801559344885
 30
0.0
 11
-71.69999914168854
 21
141.7704823885307
 31
0.0
  0
LINE
  5
3F4
330
67
100
AcDbEntity
  8
0
  6
Continuous
 62
     7
100
AcDbLine
 10
-71.69999914168854
 20
142.2500015360397
 30
0.0
 11
-71.69999914168854
 21
141.7704823885307
 31
0.0
  0
LINE
  5
3F5
330
67
100
AcDbEntity
  8
0
  6
Continuous
 62
     7
100
AcDbLine
 10
-71.69999914168855
 20
146.8162629607094
 30
0.0
 11
-71.69999914168854
 21
142.2500015360397
 31
0.0
  0
LINE
  5
3F6
330
67
100
AcDbEntity
  8
0
  6
Continuous
 62
     7
100
AcDbLine
 10
-71.69999914168852
 20
140.189662563011
 30
0.0
 11
-71.69999914168854
 21
138.3959591982901
 31
0.0
  0
LINE
  5
3F7
330
67
100
AcDbEntity
  8
0
  6
Continuous
 62
     7
100
AcDbLine
 10
-71.69999914168852
 20
138.2378032090512
 30
0.0
 11
-71.69999914168854
 21
137.2132841562155
 31
0.0
  0
LINE
  5
3F8
330
67
100
AcDbEntity
  8
0
  6
Continuous
 62
     7
100
AcDbLine
 10
-71.69999914168854
 20
138.3959591982901
 30
0.0
 11
-71.69999914168852
 21
138.2378032090512
 31
0.0
  0
LINE
  5
3F9
330
67
100
AcDbEntity
  8
0
  6
Continuous
 62
     7
100
AcDbLine
 10
-71.69999914168855
 20
156.6400049821859
 30
0.0
 11
-71.69999914168855
 21
146.8162629607094
 31
0.0
  0
LINE
  5
3FA
330
67
100
AcDbEntity
  8
0
  6
Continuous
 62
     7
100
AcDbLine
 10
-70.24999914548334
 20
150.9500015360401
 30
0.0
 11
-70.24999914548333
 21
146.8162629607094
 31
0.0
  0
LINE
  5
3FB
330
67
100
AcDbEntity
  8
0
  6
Continuous
 62
     7
100
AcDbLine
 10
-70.24999914548333
 20
146.8162629607094
 30
0.0
 11
-70.24999914548333
 21
141.9500015360535
 31
0.0
  0
LINE
  5
3FC
330
67
100
AcDbEntity
  8
0
  6
Continuous
 62
     7
100
AcDbLine
 10
-70.24999914548333
 20
156.6400049821859
 30
0.0
 11
-70.24999914548334
 21
150.9500015360401
 31
0.0
  0
LINE
  5
3FD
330
67
100
AcDbEntity
  8
0
  6
Continuous
 62
     7
100
AcDbLine
 10
-71.69999914168852
 20
134.1500015360401
 30
0.0
 11
-83.44999914168838
 21
134.1500015360397
 31
0.0
  0
LINE
  5
3FE
330
67
100
AcDbEntity
  8
0
  6
Continuous
 62
     7
100
AcDbLine
 10
-71.69999914168852
 20
134.1500015360401
 30
0.0
 11
-71.69999914168854
 21
137.2132841562155
 31
0.0
  0
LINE
  5
3FF
330
67
100
AcDbEntity
  8
0
  6
Continuous
 62
     7
100
AcDbLine
 10
-54.69999914168822
 20
134.1500015360401
 30
0.0
 11
-71.69999914168852
 21
134.1500015360401
 31
0.0
  0
LINE
  5
400
330
67
100
AcDbEntity
  8
0
  6
Continuous
 62
     7
100
AcDbLine
 10
-79.94999914168842
 20
142.2500015360396
 30
0.0
 11
-83.44999914168838
 21
138.7500015360397
 31
0.0
  0
LINE
  5
401
330
67
100
AcDbEntity
  8
1
  6
DOT_CENTER
 62
     2
100
AcDbLine
 10
-62.52499913789586
 20
161.1500015360401
 30
0.0
 11
-62.52499913789586
 21
155.7500015360401
 31
0.0
  0
ENDBLK
  5
69
330
67
100
AcDbEntity
  8
0
100
AcDbBlockEnd
  0
BLOCK
  5
6C
330
6A
100
AcDbEntity
  8
0
100
AcDbBlockBegin
  2
SA_Links1
 70
     0
 10
-69.0
 20
154.00000000007
 30
0.0
  3
SA_Links1
  1

  0
INSERT
  5
6B
330
6A
100
AcDbEntity
  8
0
100
AcDbBlockReference
  2
RBO_6_F-select__4
 10
-83.44999914168838
 20
134.1500015360397
 30
0.0
  0
MTEXT
  5
402
330
6A
100
AcDbEntity
  8
1
 62
     6
100
AcDbMText
 10
-69.0
 20
129.1500015259489
 30
0.0
 40
5.0
 41
0.0
 71
     2
 72
     1
  1
 
  7
CONVERTER_11
 73
     1
 44
1.32052821128451
  0
ENDBLK
  5
6D
330
6A
100
AcDbEntity
  8
0
100
AcDbBlockEnd
  0
BLOCK
  5
6F
330
6E
100
AcDbEntity
  8
0
100
AcDbBlockBegin
  2
RBO_6_F-select__5
 70
     0
 10
-228.5782308496065
 20
134.1500015360396
 30
0.0
  3
RBO_6_F-select__5
  1

  0
LINE
  5
403
330
6E
100
AcDbEntity
  8
0
  6
Continuous
 62
     7
100
AcDbLine
 10
-228.5782308496065
 20
156.3500015360401
 30
0.0
 11
-228.5782308496065
 21
173.8500015360095
 31
0.0
  0
LINE
  5
404
330
6E
100
AcDbEntity
  8
0
  6
Continuous
 62
     7
100
AcDbLine
 10
-228.5782308496065
 20
173.8500015360095
 30
0.0
 11
-227.1782308496065
 21
173.8500015360096
 31
0.0
  0
LINE
  5
405
330
6E
100
AcDbEntity
  8
0
  6
Continuous
 62
     7
100
AcDbLine
 10
-213.0282308458114
 20
173.8500015360095
 30
0.0
 11
-211.5782308496061
 21
173.8500015360095
 31
0.0
  0
LINE
  5
406
330
6E
100
AcDbEntity
  8
0
  6
Continuous
 62
     7
100
AcDbLine
 10
-227.1782308496065
 20
173.8500015360096
 30
0.0
 11
-213.0282308458114
 21
173.8500015360095
 31
0.0
  0
LINE
  5
407
330
6E
100
AcDbEntity
  8
0
  6
Continuous
 62
     7
100
AcDbLine
 10
-211.5782308496061
 20
173.8500015360095
 30
0.0
 11
-211.5782308496061
 21
160.5127280096086
 31
0.0
  0
LINE
  5
408
330
6E
100
AcDbEntity
  8
0
  6
Continuous
 62
     7
100
AcDbLine
 10
-223.7532308533988
 20
161.15000153604
 30
0.0
 11
-223.7532308533988
 21
155.7500015360401
 31
0.0
  0
LINE
  5
409
330
6E
100
AcDbEntity
  8
0
  6
Continuous
 62
     7
100
AcDbLine
 10
-217.7532308533988
 20
161.15000153604
 30
0.0
 11
-217.7532308533988
 21
155.7500015360401
 31
0.0
  0
LINE
  5
40A
330
6E
100
AcDbEntity
  8
0
  6
Continuous
 62
     7
100
AcDbLine
 10
-223.7532308533988
 20
155.7500015360401
 30
0.0
 11
-225.8206049209634
 21
155.7500015360401
 31
0.0
  0
LINE
  5
40B
330
6E
100
AcDbEntity
  8
0
  6
Continuous
 62
     7
100
AcDbLine
 10
-217.7532308533988
 20
161.15000153604
 30
0.0
 11
-223.7532308533988
 21
161.15000153604
 31
0.0
  0
LINE
  5
40C
330
6E
100
AcDbEntity
  8
0
  6
Continuous
 62
     7
100
AcDbLine
 10
-227.1782308496065
 20
156.3500015360401
 30
0.0
 11
-228.5782308496065
 21
156.3500015360401
 31
0.0
  0
LINE
  5
40D
330
6E
100
AcDbEntity
  8
0
  6
Continuous
 62
     7
100
AcDbLine
 10
-227.1782308496065
 20
156.3500015360401
 30
0.0
 11
-227.1782308496065
 21
173.8500015360096
 31
0.0
  0
LINE
  5
40E
330
6E
100
AcDbEntity
  8
0
  6
Continuous
 62
     7
100
AcDbLine
 10
-228.5782308496065
 20
141.9500015360535
 30
0.0
 11
-213.0282308458114
 21
141.9500015360535
 31
0.0
  0
LINE
  5
40F
330
6E
100
AcDbEntity
  8
0
  6
Continuous
 62
     2
100
AcDbLine
 10
-228.5782308496065
 20
138.2378032090578
 30
0.0
 11
-211.5782308496061
 21
138.2378032090553
 31
0.0
  0
LINE
  5
410
330
6E
100
AcDbEntity
  8
0
  6
Continuous
 62
     7
100
AcDbLine
 10
-211.5782308496061
 20
140.189662563011
 30
0.0
 11
-211.5782308496061
 21
140.9801559344882
 31
0.0
  0
LINE
  5
411
330
6E
100
AcDbEntity
  8
0
  6
Continuous
 62
     7
100
AcDbLine
 10
-211.5782308496062
 20
137.2132841562166
 30
0.0
 11
-211.5782308496061
 21
138.2378032090553
 31
0.0
  0
LINE
  5
412
330
6E
100
AcDbEntity
  8
0
  6
Continuous
 62
     7
100
AcDbLine
 10
-211.5782308496061
 20
138.2378032090553
 30
0.0
 11
-211.5782308496061
 21
138.3959591982901
 31
0.0
  0
LINE
  5
413
330
6E
100
AcDbEntity
  8
0
  6
Continuous
 62
     7
100
AcDbLine
 10
-228.5782308496065
 20
138.3959591982885
 30
0.0
 11
-228.5782308496065
 21
138.2378032090578
 31
0.0
  0
LINE
  5
414
330
6E
100
AcDbEntity
  8
0
  6
Continuous
 62
     7
100
AcDbLine
 10
-228.5782308496065
 20
138.3959591982885
 30
0.0
 11
-228.5782308496065
 21
140.1896625630056
 31
0.0
  0
LINE
  5
415
330
6E
100
AcDbEntity
  8
0
  6
Continuous
 62
     7
100
AcDbLine
 10
-228.5782308496065
 20
140.1896625630056
 30
0.0
 11
-211.5782308496061
 21
140.189662563011
 31
0.0
  0
LINE
  5
416
330
6E
100
AcDbEntity
  8
0
  6
Continuous
 62
     7
100
AcDbLine
 10
-211.5782308496061
 20
140.9801559344882
 30
0.0
 11
-228.5782308496065
 21
140.9801559344845
 31
0.0
  0
LINE
  5
417
330
6E
100
AcDbEntity
  8
0
  6
Continuous
 62
     7
100
AcDbLine
 10
-199.8282308496063
 20
138.7500015360397
 30
0.0
 11
-199.8282308496063
 21
134.1500015360396
 31
0.0
  0
LINE
  5
418
330
6E
100
AcDbEntity
  8
0
  6
Continuous
 62
     7
100
AcDbLine
 10
-203.3282308496063
 20
142.2500015360396
 30
0.0
 11
-199.8282308496063
 21
138.7500015360397
 31
0.0
  0
LINE
  5
419
330
6E
100
AcDbEntity
  8
0
  6
Continuous
 62
     7
100
AcDbLine
 10
-228.5782308496065
 20
140.1896625630056
 30
0.0
 11
-228.5782308496065
 21
140.9801559344845
 31
0.0
  0
LINE
  5
41A
330
6E
100
AcDbEntity
  8
0
  6
Continuous
 62
     7
100
AcDbLine
 10
-228.5782308496065
 20
134.1500015360399
 30
0.0
 11
-228.5782308496065
 21
137.2132841562184
 31
0.0
  0
LINE
  5
41B
330
6E
100
AcDbEntity
  8
0
  6
Continuous
 62
     7
100
AcDbLine
 10
-228.5782308496065
 20
141.9500015360535
 30
0.0
 11
-228.5782308496065
 21
140.9801559344845
 31
0.0
  0
LINE
  5
41C
330
6E
100
AcDbEntity
  8
0
  6
Continuous
 62
     7
100
AcDbLine
 10
-228.5782308496065
 20
141.9500015360535
 30
0.0
 11
-228.5782308496065
 21
150.9500015360402
 31
0.0
  0
LINE
  5
41D
330
6E
100
AcDbEntity
  8
0
  6
Continuous
 62
     7
100
AcDbLine
 10
-228.5782308496065
 20
150.9500015360402
 30
0.0
 11
-228.5782308496065
 21
156.3500015360401
 31
0.0
  0
LINE
  5
41E
330
6E
100
AcDbEntity
  8
0
  6
Continuous
 62
     7
100
AcDbLine
 10
-213.0282308458114
 20
160.5127280096086
 30
0.0
 11
-213.0282308458114
 21
158.550001536024
 31
0.0
  0
LINE
  5
41F
330
6E
100
AcDbEntity
  8
0
  6
Continuous
 62
     7
100
AcDbLine
 10
-213.0282308458114
 20
158.550001536024
 30
0.0
 11
-213.0282308458114
 21
156.6400054918456
 31
0.0
  0
LINE
  5
420
330
6E
100
AcDbEntity
  8
0
  6
Continuous
 62
     7
100
AcDbLine
 10
-211.5782308496061
 20
156.6400054918456
 30
0.0
 11
-213.0282308458114
 21
156.6400054918456
 31
0.0
  0
LINE
  5
421
330
6E
100
AcDbEntity
  8
0
  6
Continuous
 62
     7
100
AcDbLine
 10
-211.5782308496061
 20
158.5500015360243
 30
0.0
 11
-213.0282308458114
 21
158.550001536024
 31
0.0
  0
LINE
  5
422
330
6E
100
AcDbEntity
  8
0
  6
Continuous
 62
     7
100
AcDbLine
 10
-213.0282308458114
 20
146.8229629158356
 30
0.0
 11
-213.0282308458114
 21
150.9500015360401
 31
0.0
  0
LINE
  5
423
330
6E
100
AcDbEntity
  8
0
  6
Continuous
 62
     7
100
AcDbLine
 10
-213.0282308458114
 20
150.9500015360401
 30
0.0
 11
-213.0282308458114
 21
156.6400054918456
 31
0.0
  0
LINE
  5
424
330
6E
100
AcDbEntity
  8
0
  6
Continuous
 62
     7
100
AcDbLine
 10
-213.0282308458114
 20
141.7771818805009
 30
0.0
 11
-213.0282308458114
 21
141.9500015360535
 31
0.0
  0
LINE
  5
425
330
6E
100
AcDbEntity
  8
0
  6
Continuous
 62
     7
100
AcDbLine
 10
-213.0282308458114
 20
141.9500015360535
 30
0.0
 11
-213.0282308458114
 21
146.8229629158356
 31
0.0
  0
LINE
  5
426
330
6E
100
AcDbEntity
  8
0
  6
Continuous
 62
     7
100
AcDbLine
 10
-211.5782308496061
 20
146.8229629158356
 30
0.0
 11
-213.0282308458114
 21
146.8229629158356
 31
0.0
  0
LINE
  5
427
330
6E
100
AcDbEntity
  8
0
  6
Continuous
 62
     7
100
AcDbLine
 10
-211.5782308496061
 20
141.777181880501
 30
0.0
 11
-213.0282308458114
 21
141.7771818805009
 31
0.0
  0
LINE
  5
428
330
6E
100
AcDbEntity
  8
0
  6
Continuous
 62
     7
100
AcDbLine
 10
-213.0282308458114
 20
173.8500015360095
 30
0.0
 11
-213.0282308458114
 21
160.5127280096086
 31
0.0
  0
LINE
  5
429
330
6E
100
AcDbEntity
  8
0
  6
Continuous
 62
     7
100
AcDbLine
 10
-211.5782308496061
 20
141.777181880501
 30
0.0
 11
-211.5782308496062
 21
142.2500015360398
 31
0.0
  0
LINE
  5
42A
330
6E
100
AcDbEntity
  8
0
  6
Continuous
 62
     7
100
AcDbLine
 10
-211.5782308496061
 20
140.189662563011
 30
0.0
 11
-211.5782308496061
 21
138.3959591982901
 31
0.0
  0
LINE
  5
42B
330
6E
100
AcDbEntity
  8
0
  6
Continuous
 62
     7
100
AcDbLine
 10
-211.5782308496061
 20
140.9801559344882
 30
0.0
 11
-211.5782308496061
 21
141.777181880501
 31
0.0
  0
LINE
  5
42C
330
6E
100
AcDbEntity
  8
0
  6
Continuous
 62
     7
100
AcDbLine
 10
-213.0282308458114
 20
160.5127280096086
 30
0.0
 11
-211.5782308496061
 21
160.5127280096086
 31
0.0
  0
LINE
  5
42D
330
6E
100
AcDbEntity
  8
0
  6
Continuous
 62
     7
100
AcDbLine
 10
-211.5782308496061
 20
158.5500015360243
 30
0.0
 11
-211.5782308496061
 21
156.6400054918456
 31
0.0
  0
LINE
  5
42E
330
6E
100
AcDbEntity
  8
0
  6
Continuous
 62
     7
100
AcDbLine
 10
-211.5782308496061
 20
160.5127280096086
 30
0.0
 11
-211.5782308496061
 21
158.5500015360243
 31
0.0
  0
LINE
  5
42F
330
6E
100
AcDbEntity
  8
0
  6
Continuous
 62
     7
100
AcDbLine
 10
-211.5782308496062
 20
142.2500015360398
 30
0.0
 11
-211.5782308496061
 21
146.8229629158356
 31
0.0
  0
LINE
  5
430
330
6E
100
AcDbEntity
  8
0
  6
Continuous
 62
     7
100
AcDbLine
 10
-211.5782308496061
 20
146.8229629158356
 30
0.0
 11
-211.5782308496061
 21
156.6400054918456
 31
0.0
  0
LINE
  5
431
330
6E
100
AcDbEntity
  8
0
  6
Continuous
 62
     7
100
AcDbLine
 10
-220.8206049209634
 20
155.7500015360402
 30
0.0
 11
-220.8206049209634
 21
150.9500015360402
 31
0.0
  0
LINE
  5
432
330
6E
100
AcDbEntity
  8
0
  6
Continuous
 62
     7
100
AcDbLine
 10
-215.8206049209634
 20
155.7500015360401
 30
0.0
 11
-215.8206049209635
 21
150.9500015360401
 31
0.0
  0
LINE
  5
433
330
6E
100
AcDbEntity
  8
0
  6
Continuous
 62
     7
100
AcDbLine
 10
-215.8206049209634
 20
155.7500015360401
 30
0.0
 11
-217.7532308533988
 21
155.7500015360401
 31
0.0
  0
LINE
  5
434
330
6E
100
AcDbEntity
  8
0
  6
Continuous
 62
     7
100
AcDbLine
 10
-225.8206049209634
 20
155.7500015360401
 30
0.0
 11
-225.8206049209634
 21
150.9500015360401
 31
0.0
  0
LINE
  5
435
330
6E
100
AcDbEntity
  8
0
  6
Continuous
 62
     7
100
AcDbLine
 10
-217.7532308533988
 20
155.7500015360401
 30
0.0
 11
-220.8206049209634
 21
155.7500015360402
 31
0.0
  0
LINE
  5
436
330
6E
100
AcDbEntity
  8
0
  6
Continuous
 62
     7
100
AcDbLine
 10
-215.8206049209635
 20
150.9500015360401
 30
0.0
 11
-213.0282308458114
 21
150.9500015360401
 31
0.0
  0
LINE
  5
437
330
6E
100
AcDbEntity
  8
0
  6
Continuous
 62
     7
100
AcDbLine
 10
-220.8206049209634
 20
150.9500015360402
 30
0.0
 11
-215.8206049209635
 21
150.9500015360401
 31
0.0
  0
LINE
  5
438
330
6E
100
AcDbEntity
  8
0
  6
Continuous
 62
     7
100
AcDbLine
 10
-225.8206049209634
 20
150.9500015360401
 30
0.0
 11
-220.8206049209634
 21
150.9500015360402
 31
0.0
  0
LINE
  5
439
330
6E
100
AcDbEntity
  8
0
  6
Continuous
 62
     7
100
AcDbLine
 10
-228.5782308496065
 20
150.9500015360402
 30
0.0
 11
-225.8206049209634
 21
150.9500015360401
 31
0.0
  0
LINE
  5
43A
330
6E
100
AcDbEntity
  8
0
  6
Continuous
 62
     7
100
AcDbLine
 10
-220.8206049209634
 20
155.7500015360402
 30
0.0
 11
-223.7532308533988
 21
155.7500015360401
 31
0.0
  0
LINE
  5
43B
330
6E
100
AcDbEntity
  8
0
  6
Continuous
 62
     7
100
AcDbLine
 10
-211.5782308496062
 20
134.1500015360399
 30
0.0
 11
-199.8282308496063
 21
134.1500015360396
 31
0.0
  0
LINE
  5
43C
330
6E
100
AcDbEntity
  8
0
  6
Continuous
 62
     7
100
AcDbLine
 10
-211.5782308496062
 20
134.1500015360399
 30
0.0
 11
-211.5782308496062
 21
137.2132841562166
 31
0.0
  0
LINE
  5
43D
330
6E
100
AcDbEntity
  8
0
  6
Continuous
 62
     7
100
AcDbLine
 10
-228.5782308496065
 20
137.2132841562184
 30
0.0
 11
-228.5782308496065
 21
138.2378032090578
 31
0.0
  0
LINE
  5
43E
330
6E
100
AcDbEntity
  8
0
  6
Continuous
 62
     2
100
AcDbLine
 10
-228.5782308496065
 20
137.2132841562184
 30
0.0
 11
-211.5782308496062
 21
137.2132841562166
 31
0.0
  0
LINE
  5
43F
330
6E
100
AcDbEntity
  8
0
  6
Continuous
 62
     7
100
AcDbLine
 10
-228.5782308496065
 20
134.1500015360399
 30
0.0
 11
-211.5782308496062
 21
134.1500015360399
 31
0.0
  0
LINE
  5
440
330
6E
100
AcDbEntity
  8
0
  6
Continuous
 62
     7
100
AcDbLine
 10
-211.5782308496061
 20
138.3959591982901
 30
0.0
 11
-228.5782308496065
 21
138.3959591982885
 31
0.0
  0
LINE
  5
441
330
6E
100
AcDbEntity
  8
0
  6
Continuous
 62
     7
100
AcDbLine
 10
-211.5782308496062
 20
142.2500015360398
 30
0.0
 11
-203.3282308496063
 21
142.2500015360396
 31
0.0
  0
LINE
  5
442
330
6E
100
AcDbEntity
  8
1
  6
DOT_CENTER
 62
     2
100
AcDbLine
 10
-220.7532308533988
 20
161.15000153604
 30
0.0
 11
-220.7532308533988
 21
155.7500015360401
 31
0.0
  0
ENDBLK
  5
70
330
6E
100
AcDbEntity
  8
0
100
AcDbBlockEnd
  0
BLOCK
  5
73
330
71
100
AcDbEntity
  8
0
100
AcDbBlockBegin
  2
SA_Rechts1
 70
     0
 10
-214.2782299912947
 20
154.00000000007
 30
0.0
  3
SA_Rechts1
  1

  0
INSERT
  5
72
330
71
100
AcDbEntity
  8
0
100
AcDbBlockReference
  2
RBO_6_F-select__5
 10
-228.5782308496065
 20
134.1500015360396
 30
0.0
  0
MTEXT
  5
443
330
71
100
AcDbEntity
  8
1
 62
     6
100
AcDbMText
 10
-214.2782299912947
 20
129.1500015259489
 30
0.0
 40
5.0
 41
0.0
 71
     2
 72
     1
  1
 
  7
CONVERTER_11
 73
     1
 44
1.32052821128451
  0
ENDBLK
  5
74
330
71
100
AcDbEntity
  8
0
100
AcDbBlockEnd
  0
BLOCK
  5
76
330
75
100
AcDbEntity
  8
0
100
AcDbBlockBegin
  2
RBO_6_F-select__6
 70
     0
 10
-175.9782304791172
 20
134.1500015360399
 30
0.0
  3
RBO_6_F-select__6
  1

  0
LINE
  5
444
330
75
100
AcDbEntity
  8
0
  6
Continuous
 62
     7
100
AcDbLine
 10
-171.3164653173029
 20
160.8414163251219
 30
0.0
 11
-172.6394142626135
 21
158.5500015360242
 31
0.0
  0
LINE
  5
445
330
75
100
AcDbEntity
  8
0
  6
Continuous
 62
     7
100
AcDbLine
 10
-99.96176798566309
 20
160.8414163251218
 30
0.0
 11
-98.63881904035239
 21
158.550001536024
 31
0.0
  0
LINE
  5
446
330
75
100
AcDbEntity
  8
0
  6
Continuous
 62
     7
100
AcDbLine
 10
-152.5391166514824
 20
161.15000153604
 30
0.0
 11
-152.5391166514824
 21
155.7500015360401
 31
0.0
  0
LINE
  5
447
330
75
100
AcDbEntity
  8
0
  6
Continuous
 62
     7
100
AcDbLine
 10
-124.7391166514824
 20
161.15000153604
 30
0.0
 11
-124.7391166514824
 21
155.7500015360401
 31
0.0
  0
LINE
  5
448
330
75
100
AcDbEntity
  8
0
  6
Continuous
 62
     7
100
AcDbLine
 10
-118.7391166514824
 20
161.15000153604
 30
0.0
 11
-118.7391166514824
 21
155.7500015360401
 31
0.0
  0
LINE
  5
449
330
75
100
AcDbEntity
  8
0
  6
Continuous
 62
     7
100
AcDbLine
 10
-114.8891166514833
 20
141.9500015360535
 30
0.0
 11
-114.8891166514833
 21
150.9500015360402
 31
0.0
  0
LINE
  5
44A
330
75
100
AcDbEntity
  8
0
  6
Continuous
 62
     7
100
AcDbLine
 10
-140.5391166514656
 20
172.4000015310134
 30
0.0
 11
-139.6295329571838
 21
172.4000015310134
 31
0.0
  0
LINE
  5
44B
330
75
100
AcDbEntity
  8
0
  6
Continuous
 62
     7
100
AcDbLine
 10
-140.5391166514726
 20
173.8500015360095
 30
0.0
 11
-140.5391166514656
 21
172.4000015310134
 31
0.0
  0
LINE
  5
44C
330
75
100
AcDbEntity
  8
0
  6
Continuous
 62
     7
100
AcDbLine
 10
-139.1174009228224
 20
172.6121335654561
 30
0.0
 11
-138.2052688883886
 21
171.7000015310222
 31
0.0
  0
LINE
  5
44D
330
75
100
AcDbEntity
  8
0
  6
Continuous
 62
     7
100
AcDbLine
 10
-96.47893779012759
 20
138.08996355562
 30
0.0
 11
-96.24311247258488
 21
137.9538097450546
 31
0.0
  0
LINE
  5
44E
330
75
100
AcDbEntity
  8
0
  6
Continuous
 62
     7
100
AcDbLine
 10
-96.24311247258488
 20
137.9538097450546
 30
0.0
 11
-96.77811247258579
 21
137.027162563003
 31
0.0
  0
LINE
  5
44F
330
75
100
AcDbEntity
  8
0
  6
Continuous
 62
     7
100
AcDbLine
 10
-95.40048452842258
 20
137.2132841562184
 30
0.0
 11
-97.16907157378529
 21
134.1500015360399
 31
0.0
  0
LINE
  5
450
330
75
100
AcDbEntity
  8
0
  6
Continuous
 62
     7
100
AcDbLine
 10
-95.94893779013249
 20
138.3959591982882
 30
0.0
 11
-96.47893779012759
 21
138.08996355562
 31
0.0
  0
LINE
  5
451
330
75
100
AcDbEntity
  8
0
  6
Continuous
 62
     7
100
AcDbLine
 10
-95.67500358126348
 20
138.2378032090578
 30
0.0
 11
-95.94893779013249
 21
138.3959591982882
 31
0.0
  0
LINE
  5
452
330
75
100
AcDbEntity
  8
0
  6
Continuous
 62
     7
100
AcDbLine
 10
-169.0225109088517
 20
140.1896625630055
 30
0.0
 11
-169.5575109088519
 21
141.1163097450566
 31
0.0
  0
LINE
  5
453
330
75
100
AcDbEntity
  8
0
  6
Continuous
 62
     7
100
AcDbLine
 10
-169.5575109088519
 20
141.1163097450566
 30
0.0
 11
-169.7933362264055
 21
140.9801559344845
 31
0.0
  0
LINE
  5
454
330
75
100
AcDbEntity
  8
0
  6
Continuous
 62
     7
100
AcDbLine
 10
-169.7933362264076
 20
141.7704823885306
 30
0.0
 11
-169.7933362264067
 21
141.9500015360534
 31
0.0
  0
LINE
  5
455
330
75
100
AcDbEntity
  8
0
  6
Continuous
 62
     7
100
AcDbLine
 10
-169.7933362264055
 20
140.9801559344845
 30
0.0
 11
-169.7933362264076
 21
141.7704823885306
 31
0.0
  0
LINE
  5
456
330
75
100
AcDbEntity
  8
0
  6
Continuous
 62
     7
100
AcDbLine
 10
-101.4848978339728
 20
140.9801559344847
 30
0.0
 11
-101.4848978339707
 21
141.7771818805009
 31
0.0
  0
LINE
  5
457
330
75
100
AcDbEntity
  8
0
  6
Continuous
 62
     7
100
AcDbLine
 10
-101.7207231515263
 20
141.1163097450567
 30
0.0
 11
-101.4848978339728
 21
140.9801559344847
 31
0.0
  0
LINE
  5
458
330
75
100
AcDbEntity
  8
0
  6
Continuous
 62
     7
100
AcDbLine
 10
-174.1091624865931
 20
134.1500015360401
 30
0.0
 11
-97.16907157378529
 21
134.1500015360399
 31
0.0
  0
LINE
  5
459
330
75
100
AcDbEntity
  8
0
  6
Continuous
 62
     7
100
AcDbLine
 10
-169.7933362264067
 20
141.9500015360534
 30
0.0
 11
-156.3891166514828
 21
141.9500015360535
 31
0.0
  0
LINE
  5
45A
330
75
100
AcDbEntity
  8
0
  6
Continuous
 62
     7
100
AcDbLine
 10
-114.8891166514833
 20
141.9500015360535
 30
0.0
 11
-101.4848978339716
 21
141.9500015360534
 31
0.0
  0
LINE
  5
45B
330
75
100
AcDbEntity
  8
0
  6
Continuous
 62
     7
100
AcDbLine
 10
-101.4848978339707
 20
141.7771818805009
 30
0.0
 11
-101.4848978339716
 21
141.9500015360534
 31
0.0
  0
LINE
  5
45C
330
75
100
AcDbEntity
  8
0
  6
Continuous
 62
     7
100
AcDbLine
 10
-174.8391167985864
 20
146.8162629607093
 30
0.0
 11
-169.7933362264076
 21
141.7704823885306
 31
0.0
  0
LINE
  5
45D
330
75
100
AcDbEntity
  8
0
  6
Continuous
 62
     7
100
AcDbLine
 10
-101.4848978339707
 20
141.7771818805009
 30
0.0
 11
-96.43911679863608
 21
146.8229629158356
 31
0.0
  0
LINE
  5
45E
330
75
100
AcDbEntity
  8
0
  6
Continuous
 62
     7
100
AcDbLine
 10
-102.2557231515267
 20
140.1896625630056
 30
0.0
 11
-101.7207231515263
 21
141.1163097450567
 31
0.0
  0
LINE
  5
45F
330
75
100
AcDbEntity
  8
0
  6
Continuous
 62
     7
100
AcDbLine
 10
-174.5001215877927
 20
137.027162563003
 30
0.0
 11
-169.0225109088517
 21
140.1896625630055
 31
0.0
  0
LINE
  5
460
330
75
100
AcDbEntity
  8
0
  6
Continuous
 62
     7
100
AcDbLine
 10
-96.77811247258579
 20
137.027162563003
 30
0.0
 11
-102.2557231515267
 21
140.1896625630056
 31
0.0
  0
LINE
  5
461
330
75
100
AcDbEntity
  8
0
  6
Continuous
 62
     7
100
AcDbLine
 10
-130.7391166514823
 20
173.8500015360095
 30
0.0
 11
-128.3391166514824
 21
173.8500015360096
 31
0.0
  0
LINE
  5
462
330
75
100
AcDbEntity
  8
0
  6
Continuous
 62
     7
100
AcDbLine
 10
-140.5391166514726
 20
173.8500015360095
 30
0.0
 11
-142.9391166514832
 21
173.8500015360125
 31
0.0
  0
LINE
  5
463
330
75
100
AcDbEntity
  8
0
  6
Continuous
 62
     7
100
AcDbLine
 10
-142.9391166514832
 20
173.8500015360125
 30
0.0
 11
-165.4802709246529
 21
173.8500015360401
 31
0.0
  0
LINE
  5
464
330
75
100
AcDbEntity
  8
0
  6
Continuous
 62
     7
100
AcDbLine
 10
-128.3391166514824
 20
173.8500015360096
 30
0.0
 11
-105.7979623782954
 21
173.8500015360095
 31
0.0
  0
LINE
  5
465
330
75
100
AcDbEntity
  8
0
  6
Continuous
 62
     7
100
AcDbLine
 10
-130.2391166514815
 20
163.600001531028
 30
0.0
 11
-130.2391166514815
 21
170.0500015310319
 31
0.0
  0
LINE
  5
466
330
75
100
AcDbEntity
  8
0
  6
Continuous
 62
     7
100
AcDbLine
 10
-118.7391166514824
 20
161.15000153604
 30
0.0
 11
-124.7391166514824
 21
161.15000153604
 31
0.0
  0
LINE
  5
467
330
75
100
AcDbEntity
  8
0
  6
Continuous
 62
     7
100
AcDbLine
 10
-132.6159115707429
 20
170.0500015310319
 30
0.0
 11
-132.7891166514999
 21
170.3500015310318
 31
0.0
  0
LINE
  5
468
330
75
100
AcDbEntity
  8
0
  6
Continuous
 62
     7
100
AcDbLine
 10
-138.4891166514664
 20
163.6000015310279
 30
0.0
 11
-132.7891166514999
 21
163.6000015310279
 31
0.0
  0
LINE
  5
469
330
75
100
AcDbEntity
  8
0
  6
Continuous
 62
     7
100
AcDbLine
 10
-130.2391166514815
 20
170.0500015310319
 30
0.0
 11
-132.6159115707429
 21
170.0500015310319
 31
0.0
  0
LINE
  5
46A
330
75
100
AcDbEntity
  8
0
  6
Continuous
 62
     7
100
AcDbLine
 10
-132.7891166514999
 20
163.6000015310279
 30
0.0
 11
-130.2391166514815
 21
163.600001531028
 31
0.0
  0
LINE
  5
46B
330
75
100
AcDbEntity
  8
0
  6
Continuous
 62
     7
100
AcDbLine
 10
-132.4641166514624
 20
170.6500015309797
 30
0.0
 11
-132.7891166514998
 21
170.6500015309798
 31
0.0
  0
LINE
  5
46C
330
75
100
AcDbEntity
  8
0
  6
Continuous
 62
     7
100
AcDbLine
 10
-132.4641166514624
 20
171.7000015310224
 30
0.0
 11
-132.4641166514624
 21
170.6500015309797
 31
0.0
  0
LINE
  5
46D
330
75
100
AcDbEntity
  8
0
  6
Continuous
 62
     7
100
AcDbLine
 10
-133.0729644145712
 20
171.7000015310225
 30
0.0
 11
-132.4641166514624
 21
171.7000015310224
 31
0.0
  0
LINE
  5
46E
330
75
100
AcDbEntity
  8
0
  6
Continuous
 62
     7
100
AcDbLine
 10
-132.1608323801401
 20
172.6121335654536
 30
0.0
 11
-133.0729644145712
 21
171.7000015310225
 31
0.0
  0
LINE
  5
46F
330
75
100
AcDbEntity
  8
0
  6
Continuous
 62
     7
100
AcDbLine
 10
-131.6487003457878
 20
172.400001531013
 30
0.0
 11
-130.7391166514823
 21
172.400001531013
 31
0.0
  0
LINE
  5
470
330
75
100
AcDbEntity
  8
0
  6
Continuous
 62
     7
100
AcDbLine
 10
-132.7891166514999
 20
170.3500015310318
 30
0.0
 11
-132.7891166514999
 21
163.6000015310279
 31
0.0
  0
LINE
  5
471
330
75
100
AcDbEntity
  8
0
  6
Continuous
 62
     7
100
AcDbLine
 10
-132.7891166514998
 20
170.6500015309798
 30
0.0
 11
-132.7891166514999
 21
170.3500015310318
 31
0.0
  0
LINE
  5
472
330
75
100
AcDbEntity
  8
0
  6
Continuous
 62
     7
100
AcDbLine
 10
-138.8141166514985
 20
171.7000015310222
 30
0.0
 11
-138.2052688883886
 21
171.7000015310222
 31
0.0
  0
LINE
  5
473
330
75
100
AcDbEntity
  8
0
  6
Continuous
 62
     7
100
AcDbLine
 10
-138.4891166514664
 20
170.3500015310314
 30
0.0
 11
-138.4891166514664
 21
170.6500015309801
 31
0.0
  0
LINE
  5
474
330
75
100
AcDbEntity
  8
0
  6
Continuous
 62
     7
100
AcDbLine
 10
-138.4891166514664
 20
170.6500015309801
 30
0.0
 11
-138.8141166514985
 21
170.6500015309801
 31
0.0
  0
LINE
  5
475
330
75
100
AcDbEntity
  8
0
  6
Continuous
 62
     7
100
AcDbLine
 10
-138.8141166514985
 20
171.7000015310222
 30
0.0
 11
-138.8141166514985
 21
170.6500015309801
 31
0.0
  0
LINE
  5
476
330
75
100
AcDbEntity
  8
0
  6
Continuous
 62
     7
100
AcDbLine
 10
-138.4891166514664
 20
163.6000015310279
 30
0.0
 11
-138.4891166514664
 21
170.3500015310314
 31
0.0
  0
LINE
  5
477
330
75
100
AcDbEntity
  8
0
  6
Continuous
 62
     7
100
AcDbLine
 10
-138.4891166514664
 20
170.3500015310314
 30
0.0
 11
-138.6623217322233
 21
170.0500015310315
 31
0.0
  0
LINE
  5
478
330
75
100
AcDbEntity
  8
0
  6
Continuous
 62
     7
100
AcDbLine
 10
-105.7979623782954
 20
173.8500015360095
 30
0.0
 11
-98.09768391757228
 21
160.5127280096087
 31
0.0
  0
LINE
  5
479
330
75
100
AcDbEntity
  8
0
  6
Continuous
 62
     7
100
AcDbLine
 10
-174.7992962702509
 20
138.08996355562
 30
0.0
 11
-175.0351215877938
 21
137.9538097450551
 31
0.0
  0
LINE
  5
47A
330
75
100
AcDbEntity
  8
0
  6
Continuous
 62
     7
100
AcDbLine
 10
-173.7363797740738
 20
158.5500015360242
 30
0.0
 11
-174.8391167985836
 21
156.6400049821859
 31
0.0
  0
LINE
  5
47B
330
75
100
AcDbEntity
  8
0
  6
Continuous
 62
     7
100
AcDbLine
 10
-156.3891166514831
 20
150.9500015360401
 30
0.0
 11
-156.3891166514828
 21
141.9500015360535
 31
0.0
  0
LINE
  5
47C
330
75
100
AcDbEntity
  8
0
  6
Continuous
 62
     7
100
AcDbLine
 10
-175.0351215877938
 20
137.9538097450551
 30
0.0
 11
-174.5001215877927
 21
137.027162563003
 31
0.0
  0
LINE
  5
47D
330
75
100
AcDbEntity
  8
0
  6
Continuous
 62
     7
100
AcDbLine
 10
-175.3292962702465
 20
138.3959591982885
 30
0.0
 11
-174.7992962702509
 21
138.08996355562
 31
0.0
  0
LINE
  5
47E
330
75
100
AcDbEntity
  8
0
  6
Continuous
 62
     7
100
AcDbLine
 10
-175.6032304791173
 20
138.2378032090565
 30
0.0
 11
-175.3292962702465
 21
138.3959591982885
 31
0.0
  0
LINE
  5
47F
330
75
100
AcDbEntity
  8
0
  6
Continuous
 62
     7
100
AcDbLine
 10
-175.8777495319554
 20
137.2132841562179
 30
0.0
 11
-174.1091624865931
 21
134.1500015360401
 31
0.0
  0
LINE
  5
480
330
75
100
AcDbEntity
  8
0
  6
Continuous
 62
     7
100
AcDbLine
 10
-124.7391166514824
 20
155.7500015360401
 30
0.0
 11
-127.4968736897239
 21
155.7500015360401
 31
0.0
  0
LINE
  5
481
330
75
100
AcDbEntity
  8
0
  6
Continuous
 62
     7
100
AcDbLine
 10
-118.7391166514824
 20
155.7500015360401
 30
0.0
 11
-118.8366196518795
 21
155.7500015360401
 31
0.0
  0
LINE
  5
482
330
75
100
AcDbEntity
  8
0
  6
Continuous
 62
     7
100
AcDbLine
 10
-129.2391166514823
 20
156.3500015360401
 30
0.0
 11
-128.3391166514824
 21
156.3500015360401
 31
0.0
  0
LINE
  5
483
330
75
100
AcDbEntity
  8
0
  6
Continuous
 62
     7
100
AcDbLine
 10
-118.8366196518795
 20
155.7500015360401
 30
0.0
 11
-124.6101223437758
 21
155.7500015360401
 31
0.0
  0
LINE
  5
484
330
75
100
AcDbEntity
  8
0
  6
Continuous
 62
     7
100
AcDbLine
 10
-124.6101223437758
 20
155.7500015360401
 30
0.0
 11
-124.7391166514824
 21
155.7500015360401
 31
0.0
  0
LINE
  5
485
330
75
100
AcDbEntity
  8
0
  6
Continuous
 62
     7
100
AcDbLine
 10
-124.6101223437758
 20
155.7500015360401
 30
0.0
 11
-124.6101223437758
 21
150.9500015360401
 31
0.0
  0
LINE
  5
486
330
75
100
AcDbEntity
  8
0
  6
Continuous
 62
     7
100
AcDbLine
 10
-124.6101223437758
 20
150.9500015360401
 30
0.0
 11
-127.4968736897239
 21
150.9500015360401
 31
0.0
  0
LINE
  5
487
330
75
100
AcDbEntity
  8
0
  6
Continuous
 62
     7
100
AcDbLine
 10
-118.8366196518795
 20
150.9500015360401
 30
0.0
 11
-124.6101223437758
 21
150.9500015360401
 31
0.0
  0
LINE
  5
488
330
75
100
AcDbEntity
  8
0
  6
Continuous
 62
     7
100
AcDbLine
 10
-114.8891166514833
 20
150.9500015360402
 30
0.0
 11
-115.9498683059314
 21
150.9500015360402
 31
0.0
  0
LINE
  5
489
330
75
100
AcDbEntity
  8
0
  6
Continuous
 62
     7
100
AcDbLine
 10
-118.8366196518795
 20
155.7500015360401
 30
0.0
 11
-118.8366196518795
 21
150.9500015360401
 31
0.0
  0
LINE
  5
48A
330
75
100
AcDbEntity
  8
0
  6
Continuous
 62
     7
100
AcDbLine
 10
-115.9498683059314
 20
155.7500015360402
 30
0.0
 11
-115.9498683059314
 21
150.9500015360402
 31
0.0
  0
LINE
  5
48B
330
75
100
AcDbEntity
  8
0
  6
Continuous
 62
     7
100
AcDbLine
 10
-115.9498683059314
 20
155.7500015360402
 30
0.0
 11
-118.7391166514824
 21
155.7500015360401
 31
0.0
  0
LINE
  5
48C
330
75
100
AcDbEntity
  8
0
  6
Continuous
 62
     7
100
AcDbLine
 10
-115.9498683059314
 20
150.9500015360402
 30
0.0
 11
-118.8366196518795
 21
150.9500015360401
 31
0.0
  0
LINE
  5
48D
330
75
100
AcDbEntity
  8
0
  6
Continuous
 62
     7
100
AcDbLine
 10
-146.6952309168616
 20
155.7500015360401
 30
0.0
 11
-146.6952309168616
 21
150.9500015360401
 31
0.0
  0
LINE
  5
48E
330
75
100
AcDbEntity
  8
0
  6
Continuous
 62
     7
100
AcDbLine
 10
-143.7658250913733
 20
150.9500015360401
 30
0.0
 11
-146.6952309168616
 21
150.9500015360401
 31
0.0
  0
LINE
  5
48F
330
75
100
AcDbEntity
  8
0
  6
Continuous
 62
     7
100
AcDbLine
 10
-152.4685224769701
 20
155.7500015360401
 30
0.0
 11
-152.5391166514824
 21
155.7500015360401
 31
0.0
  0
LINE
  5
490
330
75
100
AcDbEntity
  8
0
  6
Continuous
 62
     7
100
AcDbLine
 10
-146.6952309168616
 20
155.7500015360401
 30
0.0
 11
-152.4685224769701
 21
155.7500015360401
 31
0.0
  0
LINE
  5
491
330
75
100
AcDbEntity
  8
0
  6
Continuous
 62
     7
100
AcDbLine
 10
-152.5391166514824
 20
155.7500015360401
 30
0.0
 11
-155.3124082115902
 21
155.7500015360401
 31
0.0
  0
LINE
  5
492
330
75
100
AcDbEntity
  8
0
  6
Continuous
 62
     7
100
AcDbLine
 10
-146.6952309168616
 20
150.9500015360401
 30
0.0
 11
-152.4685224769701
 21
150.9500015360401
 31
0.0
  0
LINE
  5
493
330
75
100
AcDbEntity
  8
0
  6
Continuous
 62
     7
100
AcDbLine
 10
-127.4968736897239
 20
155.7500015360401
 30
0.0
 11
-127.4968736897239
 21
150.9500015360401
 31
0.0
  0
LINE
  5
494
330
75
100
AcDbEntity
  8
0
  6
Continuous
 62
     7
100
AcDbLine
 10
-127.4968736897239
 20
150.9500015360401
 30
0.0
 11
-129.2391166514823
 21
150.9500015360401
 31
0.0
  0
LINE
  5
495
330
75
100
AcDbEntity
  8
0
  6
Continuous
 62
     7
100
AcDbLine
 10
-129.2391166514823
 20
150.9500015360401
 30
0.0
 11
-129.2391166514823
 21
156.3500015360401
 31
0.0
  0
LINE
  5
496
330
75
100
AcDbEntity
  8
0
  6
Continuous
 62
     7
100
AcDbLine
 10
-143.7658250913733
 20
155.7500015360401
 30
0.0
 11
-143.7658250913733
 21
150.9500015360401
 31
0.0
  0
LINE
  5
497
330
75
100
AcDbEntity
  8
0
  6
Continuous
 62
     7
100
AcDbLine
 10
-142.0391166514831
 20
156.35000153604
 30
0.0
 11
-142.0391166514832
 21
150.9500015360401
 31
0.0
  0
LINE
  5
498
330
75
100
AcDbEntity
  8
0
  6
Continuous
 62
     7
100
AcDbLine
 10
-142.0391166514832
 20
150.9500015360401
 30
0.0
 11
-143.7658250913733
 21
150.9500015360401
 31
0.0
  0
LINE
  5
499
330
75
100
AcDbEntity
  8
0
  6
Continuous
 62
     7
100
AcDbLine
 10
-142.9391166514832
 20
156.3500015360401
 30
0.0
 11
-142.0391166514831
 21
156.35000153604
 31
0.0
  0
LINE
  5
49A
330
75
100
AcDbEntity
  8
0
  6
Continuous
 62
     7
100
AcDbLine
 10
-146.5391166514824
 20
155.7500015360401
 30
0.0
 11
-146.6952309168616
 21
155.7500015360401
 31
0.0
  0
LINE
  5
49B
330
75
100
AcDbEntity
  8
0
  6
Continuous
 62
     7
100
AcDbLine
 10
-143.7658250913733
 20
155.7500015360401
 30
0.0
 11
-146.5391166514824
 21
155.7500015360401
 31
0.0
  0
LINE
  5
49C
330
75
100
AcDbEntity
  8
0
  6
Continuous
 62
     7
100
AcDbLine
 10
-155.3124082115901
 20
150.9500015360401
 30
0.0
 11
-156.3891166514831
 21
150.9500015360401
 31
0.0
  0
LINE
  5
49D
330
75
100
AcDbEntity
  8
0
  6
Continuous
 62
     7
100
AcDbLine
 10
-152.4685224769701
 20
155.7500015360401
 30
0.0
 11
-152.4685224769701
 21
150.9500015360401
 31
0.0
  0
LINE
  5
49E
330
75
100
AcDbEntity
  8
0
  6
Continuous
 62
     7
100
AcDbLine
 10
-155.3124082115902
 20
155.7500015360401
 30
0.0
 11
-155.3124082115901
 21
150.9500015360401
 31
0.0
  0
LINE
  5
49F
330
75
100
AcDbEntity
  8
0
  6
Continuous
 62
     7
100
AcDbLine
 10
-152.4685224769701
 20
150.9500015360401
 30
0.0
 11
-155.3124082115901
 21
150.9500015360401
 31
0.0
  0
LINE
  5
4A0
330
75
100
AcDbEntity
  8
0
  6
Continuous
 62
     7
100
AcDbLine
 10
-174.8391167985836
 20
156.6400049821859
 30
0.0
 11
-174.8391167985864
 21
146.8162629607093
 31
0.0
  0
LINE
  5
4A1
330
75
100
AcDbEntity
  8
0
  6
Continuous
 62
     7
100
AcDbLine
 10
-96.43911679863608
 20
146.8229629158356
 30
0.0
 11
-96.43911679863459
 21
156.6400054918456
 31
0.0
  0
LINE
  5
4A2
330
75
100
AcDbEntity
  8
0
  6
Continuous
 62
     7
100
AcDbLine
 10
-173.7363797740738
 20
158.5500015360242
 30
0.0
 11
-172.6394142626135
 21
158.5500015360242
 31
0.0
  0
LINE
  5
4A3
330
75
100
AcDbEntity
  8
0
  6
Continuous
 62
     7
100
AcDbLine
 10
-97.54185352889218
 20
158.5500015360241
 30
0.0
 11
-96.43911679863459
 21
156.6400054918456
 31
0.0
  0
LINE
  5
4A4
330
75
100
AcDbEntity
  8
0
  6
Continuous
 62
     7
100
AcDbLine
 10
-98.63881904035239
 20
158.550001536024
 30
0.0
 11
-97.54185352889218
 21
158.5500015360241
 31
0.0
  0
LINE
  5
4A5
330
75
100
AcDbEntity
  8
0
  6
Continuous
 62
     7
100
AcDbLine
 10
-171.3164653173029
 20
160.8414163251219
 30
0.0
 11
-173.1805493853939
 21
160.5127280096086
 31
0.0
  0
LINE
  5
4A6
330
75
100
AcDbEntity
  8
0
  6
Continuous
 62
     7
100
AcDbLine
 10
-99.96176798566309
 20
160.8414163251218
 30
0.0
 11
-98.09768391757228
 21
160.5127280096087
 31
0.0
  0
LINE
  5
4A7
330
75
100
AcDbEntity
  8
0
  6
Continuous
 62
     7
100
AcDbLine
 10
-146.5391166514824
 20
161.15000153604
 30
0.0
 11
-152.5391166514824
 21
161.15000153604
 31
0.0
  0
LINE
  5
4A8
330
75
100
AcDbEntity
  8
0
  6
Continuous
 62
     7
100
AcDbLine
 10
-141.0391166514583
 20
170.0500015310313
 30
0.0
 11
-138.6623217322233
 21
170.0500015310315
 31
0.0
  0
LINE
  5
4A9
330
75
100
AcDbEntity
  8
0
  6
Continuous
 62
     7
100
AcDbLine
 10
-141.0391166514273
 20
163.6000015310279
 30
0.0
 11
-141.0391166514583
 21
170.0500015310313
 31
0.0
  0
LINE
  5
4AA
330
75
100
AcDbEntity
  8
0
  6
Continuous
 62
     7
100
AcDbLine
 10
-141.0391166514273
 20
163.6000015310279
 30
0.0
 11
-138.4891166514664
 21
163.6000015310279
 31
0.0
  0
LINE
  5
4AB
330
75
100
AcDbEntity
  8
0
  6
Continuous
 62
     7
100
AcDbLine
 10
-130.7391166514823
 20
173.8500015360095
 30
0.0
 11
-130.7391166514823
 21
172.400001531013
 31
0.0
  0
LINE
  5
4AC
330
75
100
AcDbEntity
  8
0
  6
Continuous
 62
     7
100
AcDbLine
 10
-128.3391166514824
 20
156.3500015360401
 30
0.0
 11
-128.3391166514824
 21
173.8500015360096
 31
0.0
  0
LINE
  5
4AD
330
75
100
AcDbEntity
  8
0
  6
Continuous
 62
     7
100
AcDbLine
 10
-142.9391166514832
 20
156.3500015360401
 30
0.0
 11
-142.9391166514832
 21
173.8500015360125
 31
0.0
  0
LINE
  5
4AE
330
75
100
AcDbEntity
  8
0
  6
Continuous
 62
     7
100
AcDbLine
 10
-146.5391166514824
 20
161.15000153604
 30
0.0
 11
-146.5391166514824
 21
155.7500015360401
 31
0.0
  0
LINE
  5
4AF
330
75
100
AcDbEntity
  8
0
  6
Continuous
 62
     7
100
AcDbLine
 10
-165.4802709246529
 20
173.8500015360401
 30
0.0
 11
-173.1805493853939
 21
160.5127280096086
 31
0.0
  0
LINE
  5
4B0
330
75
100
AcDbEntity
  8
1
  6
DOT_CENTER
 62
     2
100
AcDbLine
 10
-149.5391166514824
 20
161.15000153604
 30
0.0
 11
-149.5391166514824
 21
155.7500015360401
 31
0.0
  0
LINE
  5
4B1
330
75
100
AcDbEntity
  8
1
  6
DOT_CENTER
 62
     2
100
AcDbLine
 10
-121.7391166514824
 20
161.15000153604
 30
0.0
 11
-121.7391166514824
 21
155.7500015360401
 31
0.0
  0
ARC
  5
4B2
330
75
100
AcDbEntity
  8
0
  6
Continuous
 62
     7
100
AcDbCircle
 10
-139.3295329571816
 20
172.4000015311001
 30
0.0
 40
0.3000000000023257
100
AcDbArc
 50
44.99999999957011
 51
180.0000000165558
  0
ARC
  5
4B3
330
75
100
AcDbEntity
  8
0
  6
Continuous
 62
     7
100
AcDbCircle
 10
-96.05000358126108
 20
137.5882841562181
 30
0.0
 40
0.7499999999999005
100
AcDbArc
 50
0.0
 51
60.00000000021154
  0
ARC
  5
4B4
330
75
100
AcDbEntity
  8
0
  6
Continuous
 62
     7
100
AcDbCircle
 10
-131.9487003457857
 20
172.4000015310991
 30
0.0
 40
0.2999999999979082
100
AcDbArc
 50
359.9999999835582
 51
134.9999999999847
  0
ARC
  5
4B5
330
75
100
AcDbEntity
  8
0
  6
Continuous
 62
     7
100
AcDbCircle
 10
-175.2282304791172
 20
137.5882841562182
 30
0.0
 40
0.75
100
AcDbArc
 50
180.0
 51
210.0000000000256
  0
ARC
  5
4B6
330
75
100
AcDbEntity
  8
0
  6
Continuous
 62
     7
100
AcDbCircle
 10
-175.2282304791172
 20
137.5882841562182
 30
0.0
 40
0.7500000000000058
100
AcDbArc
 50
120.0000000000073
 51
180.0
  0
ARC
  5
4B7
330
75
100
AcDbEntity
  8
0
  6
Continuous
 62
     7
100
AcDbCircle
 10
-96.05000358126108
 20
137.5882841562181
 30
0.0
 40
0.7499999999999915
100
AcDbArc
 50
330.0000000000272
 51
0.0
  0
ENDBLK
  5
77
330
75
100
AcDbEntity
  8
0
100
AcDbBlockEnd
  0
BLOCK
  5
7A
330
78
100
AcDbEntity
  8
0
100
AcDbBlockBegin
  2
Vordans1
 70
     0
 10
-135.6391149654413
 20
154.00000000007
 30
0.0
  3
Vordans1
  1

  0
INSERT
  5
79
330
78
100
AcDbEntity
  8
0
100
AcDbBlockReference
  2
RBO_6_F-select__6
 10
-175.9782304791172
 20
134.1500015360399
 30
0.0
  0
MTEXT
  5
4B8
330
78
100
AcDbEntity
  8
1
 62
     6
100
AcDbMText
 10
-135.6391149654414
 20
129.1500015259489
 30
0.0
 40
5.0
 41
0.0
 71
     2
 72
     1
  1
 
  7
CONVERTER_11
 73
     1
 44
1.32052821128451
  0
DIMENSION
  5
4C3
330
78
100
AcDbEntity
  8
1
100
AcDbDimension
  2
*D19
 10
-95.30000358126118
 20
122.4977248890713
 30
0.0
 11
-133.8903783197323
 21
126.4227248890713
 31
0.0
 70
    33
  1
<>
 71
     5
 42
-1.0
 53
0.00013888888889
  3
ME10_DIM_12
100
AcDbAlignedDimension
 13
-175.9782304791172
 23
137.5882841562182
 33
0.0
 14
-95.30000358126118
 24
137.5882841562181
 34
0.0
  0
DIMENSION
  5
4CE
330
78
100
AcDbEntity
  8
1
100
AcDbDimension
  2
*D20
 10
-187.056514875646
 20
134.1500015360401
 30
0.0
 11
-190.481514875646
 21
153.465517858889
 31
0.0
 70
    32
  1
<>
 71
     5
 42
-1.0
 53
90.0
  3
ME10_DIM_13
100
AcDbAlignedDimension
 13
-142.9391166514832
 23
173.8500015360125
 33
0.0
 14
-174.1091624865931
 24
134.1500015360401
 34
0.0
 50
90.0
100
AcDbRotatedDimension
  0
ENDBLK
  5
7B
330
78
100
AcDbEntity
  8
0
100
AcDbBlockEnd
  0
BLOCK
  5
84
330
7C
100
AcDbEntity
  8
0
100
AcDbBlockBegin
  2
1
 70
     0
 10
0.0
 20
0.0
 30
0.0
  3
1
  1

  0
INSERT
  5
7D
330
7C
100
AcDbEntity
  8
0
100
AcDbBlockReference
  2
A4I_CS
 10
49.19999976727085
 20
-1.80873083986739
 30
0.0
  0
INSERT
  5
7E
330
7C
100
AcDbEntity
  8
0
100
AcDbBlockReference
  2
AllgSicht1
 10
-12.00000076139446
 20
83.00000021984988
 30
0.0
  0
INSERT
  5
7F
330
7C
100
AcDbEntity
  8
0
100
AcDbBlockReference
  2
Drfsicht1
 10
-135.6391150345583
 20
83.8500005000001
 30
0.0
  0
INSERT
  5
80
330
7C
100
AcDbEntity
  8
0
100
AcDbBlockReference
  2
Rckans1
 10
-0.36088512952634
 20
154.0000000000701
 30
0.0
  0
INSERT
  5
81
330
7C
100
AcDbEntity
  8
0
100
AcDbBlockReference
  2
SA_Links1
 10
-69.0
 20
154.00000000007
 30
0.0
  0
INSERT
  5
82
330
7C
100
AcDbEntity
  8
0
100
AcDbBlockReference
  2
SA_Rechts1
 10
-214.2782299912947
 20
154.00000000007
 30
0.0
  0
INSERT
  5
83
330
7C
100
AcDbEntity
  8
0
100
AcDbBlockReference
  2
Vordans1
 10
-135.6391149654413
 20
154.00000000007
 30
0.0
  0
ENDBLK
  5
85
330
7C
100
AcDbEntity
  8
0
100
AcDbBlockEnd
  0
BLOCK
  5
363
330
35C
100
AcDbEntity
  8
0
100
AcDbBlockBegin
  2
*D17
 70
     1
 10
0.0
 20
0.0
 30
0.0
  3
*D17
  1

  0
LINE
  5
35D
330
35C
100
AcDbEntity
  8
1
  6
Continuous
 62
     2
100
AcDbLine
 10
-185.083707910592
 20
86.54999964168866
 30
0.0
 11
-185.083707910592
 21
69.54999964168833
 31
0.0
  0
LINE
  5
35E
330
35C
100
AcDbEntity
  8
1
  6
Continuous
 62
     2
100
AcDbLine
 10
-173.1805494545109
 20
86.54999964168866
 30
0.0
 11
-186.583707910592
 21
86.54999964168866
 31
0.0
  0
LINE
  5
35F
330
35C
100
AcDbEntity
  8
1
  6
Continuous
 62
     2
100
AcDbLine
 10
-169.7933362955237
 20
69.54999964168833
 30
0.0
 11
-186.583707910592
 21
69.54999964168833
 31
0.0
  0
SOLID
  5
360
330
35C
100
AcDbEntity
  8
1
 62
     2
100
AcDbTrace
 10
-184.6229241690361
 20
83.04999964168866
 30
0.0
 11
-185.5444916521479
 21
83.04999964168866
 31
0.0
 12
-185.083707910592
 22
86.54999964168866
 32
0.0
 13
-185.083707910592
 23
86.54999964168866
 33
0.0
  0
SOLID
  5
361
330
35C
100
AcDbEntity
  8
1
 62
     2
100
AcDbTrace
 10
-185.5444916521479
 20
73.04999964168833
 30
0.0
 11
-184.6229241690361
 21
73.04999964168833
 31
0.0
 12
-185.083707910592
 22
69.54999964168833
 32
0.0
 13
-185.083707910592
 23
69.54999964168833
 33
0.0
  0
MTEXT
  5
362
330
35C
100
AcDbEntity
  8
1
 62
     3
100
AcDbMText
 10
-186.583707910592
 20
75.8784931480131
 30
0.0
 40
3.5
 41
0.0
 71
     7
 72
     1
  1
17
  7
CONVERTER_11
 11
0.0
 21
1.0
 31
0.0
 73
     1
 44
0.60024009603842
  0
ENDBLK
  5
364
330
35C
100
AcDbEntity
  8
0
100
AcDbBlockEnd
  0
BLOCK
  5
36E
330
367
100
AcDbEntity
  8
0
100
AcDbBlockBegin
  2
*D18
 70
     1
 10
0.0
 20
0.0
 30
0.0
  3
*D18
  1

  0
LINE
  5
368
330
367
100
AcDbEntity
  8
1
  6
Continuous
 62
     2
100
AcDbLine
 10
-193.083707910592
 20
69.54999964168833
 30
0.0
 11
-193.083707910592
 21
98.29999964168849
 31
0.0
  0
LINE
  5
369
330
367
100
AcDbEntity
  8
1
  6
Continuous
 62
     2
100
AcDbLine
 10
-169.7933362955237
 20
69.54999964168833
 30
0.0
 11
-194.583707910592
 21
69.54999964168833
 31
0.0
  0
LINE
  5
36A
330
367
100
AcDbEntity
  8
1
  6
Continuous
 62
     2
100
AcDbLine
 10
-140.8391167305545
 20
98.29999964168849
 30
0.0
 11
-194.583707910592
 21
98.29999964168849
 31
0.0
  0
SOLID
  5
36B
330
367
100
AcDbEntity
  8
1
 62
     2
100
AcDbTrace
 10
-193.5444916521479
 20
73.04999964168833
 30
0.0
 11
-192.6229241690361
 21
73.04999964168833
 31
0.0
 12
-193.083707910592
 22
69.54999964168833
 32
0.0
 13
-193.083707910592
 23
69.54999964168833
 33
0.0
  0
SOLID
  5
36C
330
367
100
AcDbEntity
  8
1
 62
     2
100
AcDbTrace
 10
-192.6229241690361
 20
94.79999964168849
 30
0.0
 11
-193.5444916521479
 21
94.79999964168849
 31
0.0
 12
-193.083707910592
 22
98.29999964168849
 32
0.0
 13
-193.083707910592
 23
98.29999964168849
 33
0.0
  0
MTEXT
  5
36D
330
367
100
AcDbEntity
  8
1
 62
     3
100
AcDbMText
 10
-194.933707910592
 20
77.2676567508731
 30
0.0
 40
3.5
 41
0.0
 71
     7
 72
     1
  1
28,75
  7
CONVERTER_11
 11
0.0
 21
1.0
 31
0.0
 73
     1
 44
0.60024009603842
  0
ENDBLK
  5
36F
330
367
100
AcDbEntity
  8
0
100
AcDbBlockEnd
  0
BLOCK
  5
4C0
330
4B9
100
AcDbEntity
  8
0
100
AcDbBlockBegin
  2
*D19
 70
     1
 10
0.0
 20
0.0
 30
0.0
  3
*D19
  1

  0
LINE
  5
4BA
330
4B9
100
AcDbEntity
  8
1
  6
Continuous
 62
     2
100
AcDbLine
 10
-95.30000358126118
 20
122.4977248890713
 30
0.0
 11
-175.9782304791172
 21
122.4977248890713
 31
0.0
  0
LINE
  5
4BB
330
4B9
100
AcDbEntity
  8
1
  6
Continuous
 62
     2
100
AcDbLine
 10
-95.30000358126118
 20
137.5882841562182
 30
0.0
 11
-95.30000358126118
 21
120.4977248890713
 31
0.0
  0
LINE
  5
4BC
330
4B9
100
AcDbEntity
  8
1
  6
Continuous
 62
     2
100
AcDbLine
 10
-175.9782304791172
 20
137.5882841562182
 30
0.0
 11
-175.9782304791172
 21
120.4977248890713
 31
0.0
  0
SOLID
  5
4BD
330
4B9
100
AcDbEntity
  8
1
 62
     2
100
AcDbTrace
 10
-98.80000358126118
 20
122.0369411475154
 30
0.0
 11
-98.80000358126118
 21
122.9585086306272
 31
0.0
 12
-95.30000358126118
 22
122.4977248890713
 32
0.0
 13
-95.30000358126118
 23
122.4977248890713
 33
0.0
  0
SOLID
  5
4BE
330
4B9
100
AcDbEntity
  8
1
 62
     2
100
AcDbTrace
 10
-172.4782304791172
 20
122.9585086306272
 30
0.0
 11
-172.4782304791172
 21
122.0369411475154
 31
0.0
 12
-175.9782304791172
 22
122.4977248890713
 32
0.0
 13
-175.9782304791172
 23
122.4977248890713
 33
0.0
  0
MTEXT
  5
4BF
330
4B9
100
AcDbEntity
  8
1
 62
     3
100
AcDbMText
 10
-138.7028783197323
 20
124.8477248890713
 30
0.0
 40
3.5
 41
0.0
 71
     7
 72
     1
  1
80,7
  7
CONVERTER_11
 11
0.9999999999970619
 21
2.424068405545306E-6
 31
0.0
 73
     1
 44
0.60024009603842
  0
ENDBLK
  5
4C1
330
4B9
100
AcDbEntity
  8
0
100
AcDbBlockEnd
  0
BLOCK
  5
4CB
330
4C4
100
AcDbEntity
  8
0
100
AcDbBlockBegin
  2
*D20
 70
     1
 10
0.0
 20
0.0
 30
0.0
  3
*D20
  1

  0
LINE
  5
4C5
330
4C4
100
AcDbEntity
  8
1
  6
Continuous
 62
     2
100
AcDbLine
 10
-187.056514875646
 20
134.1500015360401
 30
0.0
 11
-187.056514875646
 21
173.8500015360125
 31
0.0
  0
LINE
  5
4C6
330
4C4
100
AcDbEntity
  8
1
  6
Continuous
 62
     2
100
AcDbLine
 10
-174.109162486593
 20
134.1500015360401
 30
0.0
 11
-188.556514875646
 21
134.1500015360401
 31
0.0
  0
LINE
  5
4C7
330
4C4
100
AcDbEntity
  8
1
  6
Continuous
 62
     2
100
AcDbLine
 10
-142.9391166514831
 20
173.8500015360125
 30
0.0
 11
-188.556514875646
 21
173.8500015360125
 31
0.0
  0
SOLID
  5
4C8
330
4C4
100
AcDbEntity
  8
1
 62
     2
100
AcDbTrace
 10
-187.5172986172019
 20
137.6500015360401
 30
0.0
 11
-186.5957311340901
 21
137.6500015360401
 31
0.0
 12
-187.056514875646
 22
134.1500015360401
 32
0.0
 13
-187.056514875646
 23
134.1500015360401
 33
0.0
  0
SOLID
  5
4C9
330
4C4
100
AcDbEntity
  8
1
 62
     2
100
AcDbTrace
 10
-186.5957311340901
 20
170.3500015360125
 30
0.0
 11
-187.5172986172019
 21
170.3500015360125
 31
0.0
 12
-187.056514875646
 22
173.8500015360125
 32
0.0
 13
-187.056514875646
 23
173.8500015360125
 33
0.0
  0
MTEXT
  5
4CA
330
4C4
100
AcDbEntity
  8
1
 62
     3
100
AcDbMText
 10
-188.906514875646
 20
148.653017858889
 30
0.0
 40
3.5
 41
0.0
 71
     7
 72
     1
  1
39,7
  7
CONVERTER_11
 11
0.0
 21
1.0
 31
0.0
 73
     1
 44
0.60024009603842
  0
ENDBLK
  5
4CC
330
4C4
100
AcDbEntity
  8
0
100
AcDbBlockEnd
  0
ENDSEC
  0
SECTION
  2
ENTITIES
  0
INSERT
  5
86
330
1F
100
AcDbEntity
  8
1
100
AcDbBlockReference
  2
1
 10
0.0
 20
0.0
 30
0.0
  0
ENDSEC
  0
SECTION
  2
OBJECTS
  0
DICTIONARY
  5
C
330
0
100
AcDbDictionary
281
     1
  3
ACAD_GROUP
350
D
  3
ACAD_LAYOUT
350
1A
  3
ACAD_MATERIAL
350
3B
  3
ACAD_MLEADERSTYLE
350
4F6
  3
ACAD_MLINESTYLE
350
17
  3
ACAD_PLOTSETTINGS
350
19
  3
ACAD_PLOTSTYLENAME
350
E
  3
ACAD_TABLESTYLE
350
4F5
  3
ACAD_VISUALSTYLE
350
2A
  0
DICTIONARY
  5
D
102
{ACAD_REACTORS
330
C
102
}
330
C
100
AcDbDictionary
281
     1
  0
DICTIONARY
  5
1A
102
{ACAD_REACTORS
330
C
102
}
330
C
100
AcDbDictionary
281
     1
  3
Layout1
350
1E
  3
Layout2
350
26
  3
Model
350
22
  0
DICTIONARY
  5
3B
102
{ACAD_REACTORS
330
C
102
}
330
C
100
AcDbDictionary
281
     1
  3
ByBlock
350
3D
  3
ByLayer
350
3C
  3
Global
350
3E
  0
DICTIONARY
  5
4F6
102
{ACAD_REACTORS
330
C
102
}
330
C
100
AcDbDictionary
281
     1
  0
DICTIONARY
  5
17
102
{ACAD_REACTORS
330
C
102
}
330
C
100
AcDbDictionary
281
     1
  3
Standard
350
18
  0
DICTIONARY
  5
19
102
{ACAD_REACTORS
330
C
102
}
330
C
100
AcDbDictionary
281
     1
  0
ACDBDICTIONARYWDFLT
  5
E
102
{ACAD_REACTORS
330
C
102
}
330
C
100
AcDbDictionary
281
     1
  3
Normal
350
F
100
AcDbDictionaryWithDefault
340
F
  0
DICTIONARY
  5
4F5
102
{ACAD_REACTORS
330
C
102
}
330
C
100
AcDbDictionary
281
     1
  0
DICTIONARY
  5
2A
102
{ACAD_REACTORS
330
C
102
}
330
C
100
AcDbDictionary
281
     1
  3
2dWireframe
350
2F
  3
3D Hidden
350
31
  3
3dWireframe
350
30
  3
Basic
350
32
  3
Brighten
350
36
  3
ColorChange
350
3A
  3
Conceptual
350
34
  3
Dim
350
35
  3
Facepattern
350
39
  3
Flat
350
2B
  3
FlatWithEdges
350
2C
  3
Gouraud
350
2D
  3
GouraudWithEdges
350
2E
  3
Linepattern
350
38
  3
Realistic
350
33
  3
Thicken
350
37
  0
LAYOUT
  5
1E
102
{ACAD_REACTORS
330
1A
102
}
330
1A
100
AcDbPlotSettings
  1

  2
none_device
  4

  6

 40
0.0
 41
0.0
 42
0.0
 43
0.0
 44
0.0
 45
0.0
 46
0.0
 47
0.0
 48
0.0
 49
0.0
140
0.0
141
0.0
142
1.0
143
1.0
 70
   688
 72
     0
 73
     0
 74
     5
  7

 75
    16
 76
     0
 77
     2
 78
   300
147
1.0
148
0.0
149
0.0
100
AcDbLayout
  1
Layout1
 70
     1
 71
     1
 10
0.0
 20
0.0
 11
12.0
 21
9.0
 12
0.0
 22
0.0
 32
0.0
 14
1.00000000000000E+20
 24
1.00000000000000E+20
 34
1.00000000000000E+20
 15
-1.00000000000000E+20
 25
-1.00000000000000E+20
 35
-1.00000000000000E+20
146
0.0
 13
0.0
 23
0.0
 33
0.0
 16
1.0
 26
0.0
 36
0.0
 17
0.0
 27
1.0
 37
0.0
 76
     0
330
1B
  0
LAYOUT
  5
26
102
{ACAD_REACTORS
330
1A
102
}
330
1A
100
AcDbPlotSettings
  1

  2
none_device
  4

  6

 40
0.0
 41
0.0
 42
0.0
 43
0.0
 44
0.0
 45
0.0
 46
0.0
 47
0.0
 48
0.0
 49
0.0
140
0.0
141
0.0
142
1.0
143
1.0
 70
   688
 72
     0
 73
     0
 74
     5
  7

 75
    16
 76
     0
 77
     2
 78
   300
147
1.0
148
0.0
149
0.0
100
AcDbLayout
  1
Layout2
 70
     1
 71
     2
 10
0.0
 20
0.0
 11
0.0
 21
0.0
 12
0.0
 22
0.0
 32
0.0
 14
0.0
 24
0.0
 34
0.0
 15
0.0
 25
0.0
 35
0.0
146
0.0
 13
0.0
 23
0.0
 33
0.0
 16
1.0
 26
0.0
 36
0.0
 17
0.0
 27
1.0
 37
0.0
 76
     0
330
23
  0
LAYOUT
  5
22
102
{ACAD_REACTORS
330
1A
102
}
330
1A
100
AcDbPlotSettings
  1

  2
none_device
  4

  6

 40
0.0
 41
0.0
 42
0.0
 43
0.0
 44
0.0
 45
0.0
 46
0.0
 47
0.0
 48
0.0
 49
0.0
140
0.0
141
0.0
142
1.0
143
1.0
 70
  1712
 72
     0
 73
     0
 74
     0
  7

 75
     0
 76
     0
 77
     2
 78
   300
147
1.0
148
0.0
149
0.0
100
AcDbLayout
  1
Model
 70
     1
 71
     0
 10
0.0
 20
0.0
 11
12.0
 21
9.0
 12
0.0
 22
0.0
 32
0.0
 14
-242.8000002327282
 24
-1.80873083986739
 34
0.0
 15
54.19999976726984
 25
208.1912691601327
 35
0.0
146
0.0
 13
0.0
 23
0.0
 33
0.0
 16
1.0
 26
0.0
 36
0.0
 17
0.0
 27
1.0
 37
0.0
 76
     0
330
1F
331
29
  0
MATERIAL
  5
3D
102
{ACAD_REACTORS
330
3B
102
}
102
{ACAD_XDICTIONARY
360
4F1
102
}
330
3B
100
AcDbMaterial
  1
ByBlock
  0
MATERIAL
  5
3C
102
{ACAD_REACTORS
330
3B
102
}
102
{ACAD_XDICTIONARY
360
4EF
102
}
330
3B
100
AcDbMaterial
  1
ByLayer
  0
MATERIAL
  5
3E
102
{ACAD_REACTORS
330
3B
102
}
102
{ACAD_XDICTIONARY
360
4F3
102
}
330
3B
100
AcDbMaterial
  1
Global
  0
MLINESTYLE
  5
18
102
{ACAD_REACTORS
330
17
102
}
330
17
100
AcDbMlineStyle
  2
Standard
 70
     0
  3

 62
   256
 51
90.0
 52
90.0
 71
     2
 49
0.5
 62
   256
  6
BYLAYER
 49
-0.5
 62
   256
  6
BYLAYER
  0
ACDBPLACEHOLDER
  5
F
102
{ACAD_REACTORS
330
E
102
}
330
E
  0
VISUALSTYLE
  5
2F
102
{ACAD_REACTORS
330
2A
102
}
102
{ACAD_XDICTIONARY
360
4D7
102
}
330
2A
100
AcDbVisualStyle
  2
2dWireframe
 70
     4
 71
     0
 72
     2
 73
     0
 90
        0
 40
-0.6
 41
-30.0
 62
     5
 63
     7
421
 16777215
 74
     1
 91
        4
 64
     7
 65
   257
 75
     1
175
     1
 42
1.0
 92
        0
 66
   257
 43
1.0
 76
     1
 77
     6
 78
     2
 67
     7
 79
     5
170
     0
171
     0
290
     0
174
     0
 93
        1
 44
0.0
173
     0
291
     0
 45
0.0
1001
ACAD
1000
AcDbSavedByObjectVersion
1070
     0
  0
VISUALSTYLE
  5
31
102
{ACAD_REACTORS
330
2A
102
}
102
{ACAD_XDICTIONARY
360
4DB
102
}
330
2A
100
AcDbVisualStyle
  2
3D Hidden
 70
     6
 71
     1
 72
     2
 73
     2
 90
        0
 40
-0.6
 41
-30.0
 62
     5
 63
     7
421
 16777215
 74
     2
 91
        2
 64
     7
 65
   257
 75
     2
175
     1
 42
40.0
 92
        0
 66
   257
 43
1.0
 76
     1
 77
     6
 78
     2
 67
     7
 79
     3
170
     0
171
     0
290
     0
174
     0
 93
        1
 44
0.0
173
     0
291
     0
 45
0.0
1001
ACAD
1000
AcDbSavedByObjectVersion
1070
     0
  0
VISUALSTYLE
  5
30
102
{ACAD_REACTORS
330
2A
102
}
102
{ACAD_XDICTIONARY
360
4D9
102
}
330
2A
100
AcDbVisualStyle
  2
3dWireframe
 70
     5
 71
     0
 72
     2
 73
     0
 90
        0
 40
-0.6
 41
-30.0
 62
     5
 63
     7
421
 16777215
 74
     1
 91
        4
 64
     7
 65
   257
 75
     1
175
     1
 42
1.0
 92
        0
 66
   257
 43
1.0
 76
     1
 77
     6
 78
     2
 67
     7
 79
     5
170
     0
171
     0
290
     0
174
     0
 93
        1
 44
0.0
173
     0
291
     0
 45
0.0
1001
ACAD
1000
AcDbSavedByObjectVersion
1070
     0
  0
VISUALSTYLE
  5
32
102
{ACAD_REACTORS
330
2A
102
}
102
{ACAD_XDICTIONARY
360
4DD
102
}
330
2A
100
AcDbVisualStyle
  2
Basic
 70
     7
 71
     1
 72
     0
 73
     1
 90
        0
 40
-0.6
 41
-30.0
 62
     5
 63
     7
421
 16777215
 74
     0
 91
        4
 64
     7
 65
   257
 75
     1
175
     1
 42
1.0
 92
        8
 66
     7
 43
1.0
 76
     1
 77
     6
 78
     2
 67
     7
 79
     5
170
     0
171
     0
290
     0
174
     0
 93
        1
 44
0.0
173
     0
291
     1
 45
0.0
1001
ACAD
1000
AcDbSavedByObjectVersion
1070
     0
  0
VISUALSTYLE
  5
36
102
{ACAD_REACTORS
330
2A
102
}
102
{ACAD_XDICTIONARY
360
4E5
102
}
330
2A
100
AcDbVisualStyle
  2
Brighten
 70
    12
 71
     2
 72
     2
 73
     0
 90
        0
 40
-0.6
 41
-30.0
 62
     5
 63
     7
421
 16777215
 74
     1
 91
        4
 64
     7
 65
   257
 75
     1
175
     1
 42
1.0
 92
        8
 66
     7
 43
1.0
 76
     1
 77
     6
 78
     2
 67
     7
 79
     5
170
     0
171
     0
290
     0
174
     0
 93
        1
 44
50.0
173
     0
291
     1
 45
0.0
1001
ACAD
1000
AcDbSavedByObjectVersion
1070
     0
  0
VISUALSTYLE
  5
3A
102
{ACAD_REACTORS
330
2A
102
}
102
{ACAD_XDICTIONARY
360
4ED
102
}
330
2A
100
AcDbVisualStyle
  2
ColorChange
 70
    16
 71
     2
 72
     2
 73
     3
 90
        0
 40
-0.6
 41
-30.0
 62
     5
 63
     8
421
  8421504
 74
     1
 91
        4
 64
     7
 65
   257
 75
     1
175
     1
 42
1.0
 92
        8
 66
     8
424
  8421504
 43
1.0
 76
     1
 77
     6
 78
     2
 67
     7
 79
     5
170
     0
171
     0
290
     0
174
     0
 93
        1
 44
0.0
173
     0
291
     1
 45
0.0
1001
ACAD
1000
AcDbSavedByObjectVersion
1070
     0
  0
VISUALSTYLE
  5
34
102
{ACAD_REACTORS
330
2A
102
}
102
{ACAD_XDICTIONARY
360
4E1
102
}
330
2A
100
AcDbVisualStyle
  2
Conceptual
 70
     9
 71
     3
 72
     2
 73
     0
 90
        0
 40
-0.6
 41
-30.0
 62
     5
 63
     7
421
 16777215
 74
     2
 91
        2
 64
     7
 65
   257
 75
     1
175
     1
 42
40.0
 92
        8
 66
     7
 43
1.0
 76
     1
 77
     6
 78
     2
 67
     7
 79
     3
170
     0
171
     0
290
     0
174
     0
 93
        1
 44
0.0
173
     0
291
     0
 45
0.0
1001
ACAD
1000
AcDbSavedByObjectVersion
1070
     0
  0
VISUALSTYLE
  5
35
102
{ACAD_REACTORS
330
2A
102
}
102
{ACAD_XDICTIONARY
360
4E3
102
}
330
2A
100
AcDbVisualStyle
  2
Dim
 70
    11
 71
     2
 72
     2
 73
     0
 90
        0
 40
-0.6
 41
-30.0
 62
     5
 63
     7
421
 16777215
 74
     1
 91
        4
 64
     7
 65
   257
 75
     1
175
     1
 42
1.0
 92
        8
 66
     7
 43
1.0
 76
     1
 77
     6
 78
     2
 67
     7
 79
     5
170
     0
171
     0
290
     0
174
     0
 93
        1
 44
-50.0
173
     0
291
     1
 45
0.0
1001
ACAD
1000
AcDbSavedByObjectVersion
1070
     0
  0
VISUALSTYLE
  5
39
102
{ACAD_REACTORS
330
2A
102
}
102
{ACAD_XDICTIONARY
360
4EB
102
}
330
2A
100
AcDbVisualStyle
  2
Facepattern
 70
    15
 71
     2
 72
     2
 73
     0
 90
        0
 40
-0.6
 41
-30.0
 62
     5
 63
     7
421
 16777215
 74
     1
 91
        4
 64
     7
 65
   257
 75
     1
175
     1
 42
1.0
 92
        8
 66
     7
 43
1.0
 76
     1
 77
     6
 78
     2
 67
     7
 79
     5
170
     0
171
     0
290
     0
174
     0
 93
        1
 44
0.0
173
     0
291
     1
 45
0.0
1001
ACAD
1000
AcDbSavedByObjectVersion
1070
     0
  0
VISUALSTYLE
  5
2B
102
{ACAD_REACTORS
330
2A
102
}
102
{ACAD_XDICTIONARY
360
4CF
102
}
330
2A
100
AcDbVisualStyle
  2
Flat
 70
     0
 71
     2
 72
     1
 73
     1
 90
        2
 40
-0.6
 41
30.0
 62
     5
 63
     7
421
 16777215
 74
     0
 91
        4
 64
     7
 65
   257
 75
     1
175
     1
 42
1.0
 92
        8
 66
     7
 43
1.0
 76
     1
 77
     6
 78
     2
 67
     7
 79
     5
170
     0
171
     0
290
     0
174
     0
 93
       13
 44
0.0
173
     0
291
     1
 45
0.0
1001
ACAD
1000
AcDbSavedByObjectVersion
1070
     0
  0
VISUALSTYLE
  5
2C
102
{ACAD_REACTORS
330
2A
102
}
102
{ACAD_XDICTIONARY
360
4D1
102
}
330
2A
100
AcDbVisualStyle
  2
FlatWithEdges
 70
     1
 71
     2
 72
     1
 73
     1
 90
        2
 40
-0.6
 41
30.0
 62
     5
 63
     7
421
 16777215
 74
     1
 91
        4
 64
     7
 65
   257
 75
     1
175
     1
 42
1.0
 92
        0
 66
   257
 43
1.0
 76
     1
 77
     6
 78
     2
 67
     7
 79
     5
170
     0
171
     0
290
     0
174
     0
 93
       13
 44
0.0
173
     0
291
     1
 45
0.0
1001
ACAD
1000
AcDbSavedByObjectVersion
1070
     0
  0
VISUALSTYLE
  5
2D
102
{ACAD_REACTORS
330
2A
102
}
102
{ACAD_XDICTIONARY
360
4D3
102
}
330
2A
100
AcDbVisualStyle
  2
Gouraud
 70
     2
 71
     2
 72
     2
 73
     1
 90
        2
 40
-0.6
 41
30.0
 62
     5
 63
     7
421
 16777215
 74
     0
 91
        4
 64
     7
 65
   257
 75
     1
175
     1
 42
1.0
 92
        0
 66
     7
 43
1.0
 76
     1
 77
     6
 78
     2
 67
     7
 79
     5
170
     0
171
     0
290
     0
174
     0
 93
       13
 44
0.0
173
     0
291
     1
 45
0.0
1001
ACAD
1000
AcDbSavedByObjectVersion
1070
     0
  0
VISUALSTYLE
  5
2E
102
{ACAD_REACTORS
330
2A
102
}
102
{ACAD_XDICTIONARY
360
4D5
102
}
330
2A
100
AcDbVisualStyle
  2
GouraudWithEdges
 70
     3
 71
     2
 72
     2
 73
     1
 90
        2
 40
-0.6
 41
30.0
 62
     5
 63
     7
421
 16777215
 74
     1
 91
        4
 64
     7
 65
   257
 75
     1
175
     1
 42
1.0
 92
        0
 66
   257
 43
1.0
 76
     1
 77
     6
 78
     2
 67
     7
 79
     5
170
     0
171
     0
290
     0
174
     0
 93
       13
 44
0.0
173
     0
291
     1
 45
0.0
1001
ACAD
1000
AcDbSavedByObjectVersion
1070
     0
  0
VISUALSTYLE
  5
38
102
{ACAD_REACTORS
330
2A
102
}
102
{ACAD_XDICTIONARY
360
4E9
102
}
330
2A
100
AcDbVisualStyle
  2
Linepattern
 70
    14
 71
     2
 72
     2
 73
     0
 90
        0
 40
-0.6
 41
-30.0
 62
     5
 63
     7
421
 16777215
 74
     1
 91
        4
 64
     7
 65
   257
 75
     7
175
     7
 42
1.0
 92
        8
 66
     7
 43
1.0
 76
     1
 77
     6
 78
     2
 67
     7
 79
     5
170
     0
171
     0
290
     0
174
     0
 93
        1
 44
0.0
173
     0
291
     1
 45
0.0
1001
ACAD
1000
AcDbSavedByObjectVersion
1070
     0
  0
VISUALSTYLE
  5
33
102
{ACAD_REACTORS
330
2A
102
}
102
{ACAD_XDICTIONARY
360
4DF
102
}
330
2A
100
AcDbVisualStyle
  2
Realistic
 70
     8
 71
     2
 72
     2
 73
     0
 90
        0
 40
-0.6
 41
-30.0
 62
     5
 63
     7
421
 16777215
 74
     1
 91
        0
 64
     7
 65
   257
 75
     1
175
     1
 42
1.0
 92
        8
 66
     8
424
  7895160
 43
1.0
 76
     1
 77
     6
 78
     2
 67
     7
 79
     5
170
     0
171
     0
290
     0
174
     0
 93
       13
 44
0.0
173
     0
291
     0
 45
0.0
1001
ACAD
1000
AcDbSavedByObjectVersion
1070
     0
  0
VISUALSTYLE
  5
37
102
{ACAD_REACTORS
330
2A
102
}
102
{ACAD_XDICTIONARY
360
4E7
102
}
330
2A
100
AcDbVisualStyle
  2
Thicken
 70
    13
 71
     2
 72
     2
 73
     0
 90
        0
 40
-0.6
 41
-30.0
 62
     5
 63
     7
421
 16777215
 74
     1
 91
        4
 64
     7
 65
   257
 75
     1
175
     1
 42
1.0
 92
       12
 66
     7
 43
1.0
 76
     1
 77
     6
 78
     2
 67
     7
 79
     5
170
     0
171
     0
290
     0
174
     0
 93
        1
 44
0.0
173
     0
291
     1
 45
0.0
1001
ACAD
1000
AcDbSavedByObjectVersion
1070
     0
  0
DICTIONARY
  5
4F1
330
3D
100
AcDbDictionary
280
     1
281
     1
  3
ACAD_XREC_ROUNDTRIP
360
4F2
  0
DICTIONARY
  5
4EF
330
3C
100
AcDbDictionary
280
     1
281
     1
  3
ACAD_XREC_ROUNDTRIP
360
4F0
  0
DICTIONARY
  5
4F3
330
3E
100
AcDbDictionary
280
     1
281
     1
  3
ACAD_XREC_ROUNDTRIP
360
4F4
  0
DICTIONARY
  5
4D7
330
2F
100
AcDbDictionary
280
     1
281
     1
  3
ACAD_XREC_ROUNDTRIP
360
4D8
  0
DICTIONARY
  5
4DB
330
31
100
AcDbDictionary
280
     1
281
     1
  3
ACAD_XREC_ROUNDTRIP
360
4DC
  0
DICTIONARY
  5
4D9
330
30
100
AcDbDictionary
280
     1
281
     1
  3
ACAD_XREC_ROUNDTRIP
360
4DA
  0
DICTIONARY
  5
4DD
330
32
100
AcDbDictionary
280
     1
281
     1
  3
ACAD_XREC_ROUNDTRIP
360
4DE
  0
DICTIONARY
  5
4E5
330
36
100
AcDbDictionary
280
     1
281
     1
  3
ACAD_XREC_ROUNDTRIP
360
4E6
  0
DICTIONARY
  5
4ED
330
3A
100
AcDbDictionary
280
     1
281
     1
  3
ACAD_XREC_ROUNDTRIP
360
4EE
  0
DICTIONARY
  5
4E1
330
34
100
AcDbDictionary
280
     1
281
     1
  3
ACAD_XREC_ROUNDTRIP
360
4E2
  0
DICTIONARY
  5
4E3
330
35
100
AcDbDictionary
280
     1
281
     1
  3
ACAD_XREC_ROUNDTRIP
360
4E4
  0
DICTIONARY
  5
4EB
330
39
100
AcDbDictionary
280
     1
281
     1
  3
ACAD_XREC_ROUNDTRIP
360
4EC
  0
DICTIONARY
  5
4CF
330
2B
100
AcDbDictionary
280
     1
281
     1
  3
ACAD_XREC_ROUNDTRIP
360
4D0
  0
DICTIONARY
  5
4D1
330
2C
100
AcDbDictionary
280
     1
281
     1
  3
ACAD_XREC_ROUNDTRIP
360
4D2
  0
DICTIONARY
  5
4D3
330
2D
100
AcDbDictionary
280
     1
281
     1
  3
ACAD_XREC_ROUNDTRIP
360
4D4
  0
DICTIONARY
  5
4D5
330
2E
100
AcDbDictionary
280
     1
281
     1
  3
ACAD_XREC_ROUNDTRIP
360
4D6
  0
DICTIONARY
  5
4E9
330
38
100
AcDbDictionary
280
     1
281
     1
  3
ACAD_XREC_ROUNDTRIP
360
4EA
  0
DICTIONARY
  5
4DF
330
33
100
AcDbDictionary
280
     1
281
     1
  3
ACAD_XREC_ROUNDTRIP
360
4E0
  0
DICTIONARY
  5
4E7
330
37
100
AcDbDictionary
280
     1
281
     1
  3
ACAD_XREC_ROUNDTRIP
360
4E8
  0
XRECORD
  5
4F2
102
{ACAD_REACTORS
330
4F1
102
}
330
4F1
100
AcDbXrecord
280
     1
102
MATERIAL
148
0.0
149
0.0
149
0.0
 93
        0
 94
      127
282
     0
 72
     1
 77
     1
171
     1
175
     1
179
     1
273
     0
  0
XRECORD
  5
4F0
102
{ACAD_REACTORS
330
4EF
102
}
330
4EF
100
AcDbXrecord
280
     1
102
MATERIAL
148
0.0
149
0.0
149
0.0
 93
        0
 94
      127
282
     0
 72
     1
 77
     1
171
     1
175
     1
179
     1
273
     0
  0
XRECORD
  5
4F4
102
{ACAD_REACTORS
330
4F3
102
}
330
4F3
100
AcDbXrecord
280
     1
102
MATERIAL
148
0.0
149
0.0
149
0.0
 93
        0
 94
      127
282
     0
 72
     1
 77
     1
171
     1
175
     1
179
     1
273
     0
  0
XRECORD
  5
4D8
102
{ACAD_REACTORS
330
4D7
102
}
330
4D7
100
AcDbXrecord
280
     1
102
RTVSPropertyOp0
 70
     1
102
RTVSPropertyOp1
 70
     1
102
RTVSPropertyOp2
 70
     1
102
RTVSPropertyOp3
 70
     1
102
RTVSPropertyOp4
 70
     1
102
RTVSPropertyOp5
 70
     1
102
RTVSPropertyOp6
 70
     1
102
RTVSPropertyOp7
 70
     1
102
RTVSPropertyOp8
 70
     1
102
RTVSPropertyOp9
 70
     1
102
RTVSPropertyOp10
 70
     1
102
RTVSPropertyOp11
 70
     1
102
RTVSPropertyOp12
 70
     1
102
RTVSPropertyOp13
 70
     1
102
RTVSPropertyOp14
 70
     1
102
RTVSPropertyOp15
 70
     1
102
RTVSPropertyOp16
 70
     1
102
RTVSPropertyOp17
 70
     1
102
RTVSPropertyOp18
 70
     1
102
RTVSPropertyOp19
 70
     1
102
RTVSPropertyOp20
 70
     1
102
RTVSPropertyOp21
 70
     1
102
RTVSPropertyOp22
 70
     1
102
RTVSPropertyOp23
 70
     1
102
RTVSPropertyOp24
 70
     1
102
RTVSPropertyOp25
 70
     1
102
RTVSPropertyOp26
 70
     1
102
RTVSPropertyOp27
 70
     1
102
RTVSPropertyOp28
 70
     1
102
RTVSPropertyOp29
 70
     1
102
RTVSPropertyOp30
 70
     1
102
RTVSPropertyOp31
 70
     1
102
RTVSPropertyOp32
 70
     1
  0
XRECORD
  5
4DC
102
{ACAD_REACTORS
330
4DB
102
}
330
4DB
100
AcDbXrecord
280
     1
102
RTVSPropertyOp0
 70
     1
102
RTVSPropertyOp1
 70
     1
102
RTVSPropertyOp2
 70
     1
102
RTVSPropertyOp3
 70
     1
102
RTVSPropertyOp4
 70
     1
102
RTVSPropertyOp5
 70
     1
102
RTVSPropertyOp6
 70
     1
102
RTVSPropertyOp7
 70
     1
102
RTVSPropertyOp8
 70
     1
102
RTVSPropertyOp9
 70
     1
102
RTVSPropertyOp10
 70
     1
102
RTVSPropertyOp11
 70
     1
102
RTVSPropertyOp12
 70
     1
102
RTVSPropertyOp13
 70
     1
102
RTVSPropertyOp14
 70
     1
102
RTVSPropertyOp15
 70
     1
102
RTVSPropertyOp16
 70
     1
102
RTVSPropertyOp17
 70
     1
102
RTVSPropertyOp18
 70
     1
102
RTVSPropertyOp19
 70
     1
102
RTVSPropertyOp20
 70
     1
102
RTVSPropertyOp21
 70
     1
102
RTVSPropertyOp22
 70
     1
102
RTVSPropertyOp23
 70
     1
102
RTVSPropertyOp24
 70
     1
102
RTVSPropertyOp25
 70
     1
102
RTVSPropertyOp26
 70
     1
102
RTVSPropertyOp27
 70
     1
102
RTVSPropertyOp28
 70
     1
102
RTVSPropertyOp29
 70
     1
102
RTVSPropertyOp30
 70
     1
102
RTVSPropertyOp31
 70
     1
102
RTVSPropertyOp32
 70
     1
  0
XRECORD
  5
4DA
102
{ACAD_REACTORS
330
4D9
102
}
330
4D9
100
AcDbXrecord
280
     1
102
RTVSPropertyOp0
 70
     1
102
RTVSPropertyOp1
 70
     1
102
RTVSPropertyOp2
 70
     1
102
RTVSPropertyOp3
 70
     1
102
RTVSPropertyOp4
 70
     1
102
RTVSPropertyOp5
 70
     1
102
RTVSPropertyOp6
 70
     1
102
RTVSPropertyOp7
 70
     1
102
RTVSPropertyOp8
 70
     1
102
RTVSPropertyOp9
 70
     1
102
RTVSPropertyOp10
 70
     1
102
RTVSPropertyOp11
 70
     1
102
RTVSPropertyOp12
 70
     1
102
RTVSPropertyOp13
 70
     1
102
RTVSPropertyOp14
 70
     1
102
RTVSPropertyOp15
 70
     1
102
RTVSPropertyOp16
 70
     1
102
RTVSPropertyOp17
 70
     1
102
RTVSPropertyOp18
 70
     1
102
RTVSPropertyOp19
 70
     1
102
RTVSPropertyOp20
 70
     1
102
RTVSPropertyOp21
 70
     1
102
RTVSPropertyOp22
 70
     1
102
RTVSPropertyOp23
 70
     1
102
RTVSPropertyOp24
 70
     1
102
RTVSPropertyOp25
 70
     1
102
RTVSPropertyOp26
 70
     1
102
RTVSPropertyOp27
 70
     1
102
RTVSPropertyOp28
 70
     1
102
RTVSPropertyOp29
 70
     1
102
RTVSPropertyOp30
 70
     1
102
RTVSPropertyOp31
 70
     1
102
RTVSPropertyOp32
 70
     1
  0
XRECORD
  5
4DE
102
{ACAD_REACTORS
330
4DD
102
}
330
4DD
100
AcDbXrecord
280
     1
102
RTVSPropertyOp0
 70
     1
102
RTVSPropertyOp1
 70
     1
102
RTVSPropertyOp2
 70
     1
102
RTVSPropertyOp3
 70
     1
102
RTVSPropertyOp4
 70
     1
102
RTVSPropertyOp5
 70
     1
102
RTVSPropertyOp6
 70
     1
102
RTVSPropertyOp7
 70
     1
102
RTVSPropertyOp8
 70
     1
102
RTVSPropertyOp9
 70
     1
102
RTVSPropertyOp10
 70
     1
102
RTVSPropertyOp11
 70
     1
102
RTVSPropertyOp12
 70
     1
102
RTVSPropertyOp13
 70
     1
102
RTVSPropertyOp14
 70
     1
102
RTVSPropertyOp15
 70
     1
102
RTVSPropertyOp16
 70
     1
102
RTVSPropertyOp17
 70
     1
102
RTVSPropertyOp18
 70
     1
102
RTVSPropertyOp19
 70
     1
102
RTVSPropertyOp20
 70
     1
102
RTVSPropertyOp21
 70
     1
102
RTVSPropertyOp22
 70
     1
102
RTVSPropertyOp23
 70
     1
102
RTVSPropertyOp24
 70
     1
102
RTVSPropertyOp25
 70
     1
102
RTVSPropertyOp26
 70
     1
102
RTVSPropertyOp27
 70
     1
102
RTVSPropertyOp28
 70
     1
102
RTVSPropertyOp29
 70
     1
102
RTVSPropertyOp30
 70
     1
102
RTVSPropertyOp31
 70
     1
102
RTVSPropertyOp32
 70
     1
  0
XRECORD
  5
4E6
102
{ACAD_REACTORS
330
4E5
102
}
330
4E5
100
AcDbXrecord
280
     1
102
RTVSPropertyOp0
 70
     1
102
RTVSPropertyOp1
 70
     1
102
RTVSPropertyOp2
 70
     1
102
RTVSPropertyOp3
 70
     1
102
RTVSPropertyOp4
 70
     1
102
RTVSPropertyOp5
 70
     1
102
RTVSPropertyOp6
 70
     1
102
RTVSPropertyOp7
 70
     1
102
RTVSPropertyOp8
 70
     1
102
RTVSPropertyOp9
 70
     1
102
RTVSPropertyOp10
 70
     1
102
RTVSPropertyOp11
 70
     1
102
RTVSPropertyOp12
 70
     1
102
RTVSPropertyOp13
 70
     1
102
RTVSPropertyOp14
 70
     1
102
RTVSPropertyOp15
 70
     1
102
RTVSPropertyOp16
 70
     1
102
RTVSPropertyOp17
 70
     1
102
RTVSPropertyOp18
 70
     1
102
RTVSPropertyOp19
 70
     1
102
RTVSPropertyOp20
 70
     1
102
RTVSPropertyOp21
 70
     1
102
RTVSPropertyOp22
 70
     1
102
RTVSPropertyOp23
 70
     1
102
RTVSPropertyOp24
 70
     1
102
RTVSPropertyOp25
 70
     1
102
RTVSPropertyOp26
 70
     1
102
RTVSPropertyOp27
 70
     1
102
RTVSPropertyOp28
 70
     1
102
RTVSPropertyOp29
 70
     1
102
RTVSPropertyOp30
 70
     1
102
RTVSPropertyOp31
 70
     1
102
RTVSPropertyOp32
 70
     1
  0
XRECORD
  5
4EE
102
{ACAD_REACTORS
330
4ED
102
}
330
4ED
100
AcDbXrecord
280
     1
102
RTVSPropertyOp0
 70
     1
102
RTVSPropertyOp1
 70
     1
102
RTVSPropertyOp2
 70
     1
102
RTVSPropertyOp3
 70
     1
102
RTVSPropertyOp4
 70
     1
102
RTVSPropertyOp5
 70
     1
102
RTVSPropertyOp6
 70
     1
102
RTVSPropertyOp7
 70
     1
102
RTVSPropertyOp8
 70
     1
102
RTVSPropertyOp9
 70
     1
102
RTVSPropertyOp10
 70
     1
102
RTVSPropertyOp11
 70
     1
102
RTVSPropertyOp12
 70
     1
102
RTVSPropertyOp13
 70
     1
102
RTVSPropertyOp14
 70
     1
102
RTVSPropertyOp15
 70
     1
102
RTVSPropertyOp16
 70
     1
102
RTVSPropertyOp17
 70
     1
102
RTVSPropertyOp18
 70
     1
102
RTVSPropertyOp19
 70
     1
102
RTVSPropertyOp20
 70
     1
102
RTVSPropertyOp21
 70
     1
102
RTVSPropertyOp22
 70
     1
102
RTVSPropertyOp23
 70
     1
102
RTVSPropertyOp24
 70
     1
102
RTVSPropertyOp25
 70
     1
102
RTVSPropertyOp26
 70
     1
102
RTVSPropertyOp27
 70
     1
102
RTVSPropertyOp28
 70
     1
102
RTVSPropertyOp29
 70
     1
102
RTVSPropertyOp30
 70
     1
102
RTVSPropertyOp31
 70
     1
102
RTVSPropertyOp32
 70
     1
  0
XRECORD
  5
4E2
102
{ACAD_REACTORS
330
4E1
102
}
330
4E1
100
AcDbXrecord
280
     1
102
RTVSPropertyOp0
 70
     1
102
RTVSPropertyOp1
 70
     1
102
RTVSPropertyOp2
 70
     1
102
RTVSPropertyOp3
 70
     1
102
RTVSPropertyOp4
 70
     1
102
RTVSPropertyOp5
 70
     1
102
RTVSPropertyOp6
 70
     1
102
RTVSPropertyOp7
 70
     1
102
RTVSPropertyOp8
 70
     1
102
RTVSPropertyOp9
 70
     1
102
RTVSPropertyOp10
 70
     1
102
RTVSPropertyOp11
 70
     1
102
RTVSPropertyOp12
 70
     1
102
RTVSPropertyOp13
 70
     1
102
RTVSPropertyOp14
 70
     1
102
RTVSPropertyOp15
 70
     1
102
RTVSPropertyOp16
 70
     1
102
RTVSPropertyOp17
 70
     1
102
RTVSPropertyOp18
 70
     1
102
RTVSPropertyOp19
 70
     1
102
RTVSPropertyOp20
 70
     1
102
RTVSPropertyOp21
 70
     1
102
RTVSPropertyOp22
 70
     1
102
RTVSPropertyOp23
 70
     1
102
RTVSPropertyOp24
 70
     1
102
RTVSPropertyOp25
 70
     1
102
RTVSPropertyOp26
 70
     1
102
RTVSPropertyOp27
 70
     1
102
RTVSPropertyOp28
 70
     1
102
RTVSPropertyOp29
 70
     1
102
RTVSPropertyOp30
 70
     1
102
RTVSPropertyOp31
 70
     1
102
RTVSPropertyOp32
 70
     1
  0
XRECORD
  5
4E4
102
{ACAD_REACTORS
330
4E3
102
}
330
4E3
100
AcDbXrecord
280
     1
102
RTVSPropertyOp0
 70
     1
102
RTVSPropertyOp1
 70
     1
102
RTVSPropertyOp2
 70
     1
102
RTVSPropertyOp3
 70
     1
102
RTVSPropertyOp4
 70
     1
102
RTVSPropertyOp5
 70
     1
102
RTVSPropertyOp6
 70
     1
102
RTVSPropertyOp7
 70
     1
102
RTVSPropertyOp8
 70
     1
102
RTVSPropertyOp9
 70
     1
102
RTVSPropertyOp10
 70
     1
102
RTVSPropertyOp11
 70
     1
102
RTVSPropertyOp12
 70
     1
102
RTVSPropertyOp13
 70
     1
102
RTVSPropertyOp14
 70
     1
102
RTVSPropertyOp15
 70
     1
102
RTVSPropertyOp16
 70
     1
102
RTVSPropertyOp17
 70
     1
102
RTVSPropertyOp18
 70
     1
102
RTVSPropertyOp19
 70
     1
102
RTVSPropertyOp20
 70
     1
102
RTVSPropertyOp21
 70
     1
102
RTVSPropertyOp22
 70
     1
102
RTVSPropertyOp23
 70
     1
102
RTVSPropertyOp24
 70
     1
102
RTVSPropertyOp25
 70
     1
102
RTVSPropertyOp26
 70
     1
102
RTVSPropertyOp27
 70
     1
102
RTVSPropertyOp28
 70
     1
102
RTVSPropertyOp29
 70
     1
102
RTVSPropertyOp30
 70
     1
102
RTVSPropertyOp31
 70
     1
102
RTVSPropertyOp32
 70
     1
  0
XRECORD
  5
4EC
102
{ACAD_REACTORS
330
4EB
102
}
330
4EB
100
AcDbXrecord
280
     1
102
RTVSPropertyOp0
 70
     1
102
RTVSPropertyOp1
 70
     1
102
RTVSPropertyOp2
 70
     1
102
RTVSPropertyOp3
 70
     1
102
RTVSPropertyOp4
 70
     1
102
RTVSPropertyOp5
 70
     1
102
RTVSPropertyOp6
 70
     1
102
RTVSPropertyOp7
 70
     1
102
RTVSPropertyOp8
 70
     1
102
RTVSPropertyOp9
 70
     1
102
RTVSPropertyOp10
 70
     1
102
RTVSPropertyOp11
 70
     1
102
RTVSPropertyOp12
 70
     1
102
RTVSPropertyOp13
 70
     1
102
RTVSPropertyOp14
 70
     1
102
RTVSPropertyOp15
 70
     1
102
RTVSPropertyOp16
 70
     1
102
RTVSPropertyOp17
 70
     1
102
RTVSPropertyOp18
 70
     1
102
RTVSPropertyOp19
 70
     1
102
RTVSPropertyOp20
 70
     1
102
RTVSPropertyOp21
 70
     1
102
RTVSPropertyOp22
 70
     1
102
RTVSPropertyOp23
 70
     1
102
RTVSPropertyOp24
 70
     1
102
RTVSPropertyOp25
 70
     1
102
RTVSPropertyOp26
 70
     1
102
RTVSPropertyOp27
 70
     1
102
RTVSPropertyOp28
 70
     1
102
RTVSPropertyOp29
 70
     1
102
RTVSPropertyOp30
 70
     1
102
RTVSPropertyOp31
 70
     1
102
RTVSPropertyOp32
 70
     1
  0
XRECORD
  5
4D0
102
{ACAD_REACTORS
330
4CF
102
}
330
4CF
100
AcDbXrecord
280
     1
102
RTVSPropertyOp0
 70
     1
102
RTVSPropertyOp1
 70
     1
102
RTVSPropertyOp2
 70
     1
102
RTVSPropertyOp3
 70
     1
102
RTVSPropertyOp4
 70
     1
102
RTVSPropertyOp5
 70
     1
102
RTVSPropertyOp6
 70
     1
102
RTVSPropertyOp7
 70
     1
102
RTVSPropertyOp8
 70
     1
102
RTVSPropertyOp9
 70
     1
102
RTVSPropertyOp10
 70
     1
102
RTVSPropertyOp11
 70
     1
102
RTVSPropertyOp12
 70
     1
102
RTVSPropertyOp13
 70
     1
102
RTVSPropertyOp14
 70
     1
102
RTVSPropertyOp15
 70
     1
102
RTVSPropertyOp16
 70
     1
102
RTVSPropertyOp17
 70
     1
102
RTVSPropertyOp18
 70
     1
102
RTVSPropertyOp19
 70
     1
102
RTVSPropertyOp20
 70
     1
102
RTVSPropertyOp21
 70
     1
102
RTVSPropertyOp22
 70
     1
102
RTVSPropertyOp23
 70
     1
102
RTVSPropertyOp24
 70
     1
102
RTVSPropertyOp25
 70
     1
102
RTVSPropertyOp26
 70
     1
102
RTVSPropertyOp27
 70
     1
102
RTVSPropertyOp28
 70
     1
102
RTVSPropertyOp29
 70
     1
102
RTVSPropertyOp30
 70
     1
102
RTVSPropertyOp31
 70
     1
102
RTVSPropertyOp32
 70
     1
  0
XRECORD
  5
4D2
102
{ACAD_REACTORS
330
4D1
102
}
330
4D1
100
AcDbXrecord
280
     1
102
RTVSPropertyOp0
 70
     1
102
RTVSPropertyOp1
 70
     1
102
RTVSPropertyOp2
 70
     1
102
RTVSPropertyOp3
 70
     1
102
RTVSPropertyOp4
 70
     1
102
RTVSPropertyOp5
 70
     1
102
RTVSPropertyOp6
 70
     1
102
RTVSPropertyOp7
 70
     1
102
RTVSPropertyOp8
 70
     1
102
RTVSPropertyOp9
 70
     1
102
RTVSPropertyOp10
 70
     1
102
RTVSPropertyOp11
 70
     1
102
RTVSPropertyOp12
 70
     1
102
RTVSPropertyOp13
 70
     1
102
RTVSPropertyOp14
 70
     1
102
RTVSPropertyOp15
 70
     1
102
RTVSPropertyOp16
 70
     1
102
RTVSPropertyOp17
 70
     1
102
RTVSPropertyOp18
 70
     1
102
RTVSPropertyOp19
 70
     1
102
RTVSPropertyOp20
 70
     1
102
RTVSPropertyOp21
 70
     1
102
RTVSPropertyOp22
 70
     1
102
RTVSPropertyOp23
 70
     1
102
RTVSPropertyOp24
 70
     1
102
RTVSPropertyOp25
 70
     1
102
RTVSPropertyOp26
 70
     1
102
RTVSPropertyOp27
 70
     1
102
RTVSPropertyOp28
 70
     1
102
RTVSPropertyOp29
 70
     1
102
RTVSPropertyOp30
 70
     1
102
RTVSPropertyOp31
 70
     1
102
RTVSPropertyOp32
 70
     1
  0
XRECORD
  5
4D4
102
{ACAD_REACTORS
330
4D3
102
}
330
4D3
100
AcDbXrecord
280
     1
102
RTVSPropertyOp0
 70
     1
102
RTVSPropertyOp1
 70
     1
102
RTVSPropertyOp2
 70
     1
102
RTVSPropertyOp3
 70
     1
102
RTVSPropertyOp4
 70
     1
102
RTVSPropertyOp5
 70
     1
102
RTVSPropertyOp6
 70
     1
102
RTVSPropertyOp7
 70
     1
102
RTVSPropertyOp8
 70
     1
102
RTVSPropertyOp9
 70
     1
102
RTVSPropertyOp10
 70
     1
102
RTVSPropertyOp11
 70
     1
102
RTVSPropertyOp12
 70
     1
102
RTVSPropertyOp13
 70
     1
102
RTVSPropertyOp14
 70
     1
102
RTVSPropertyOp15
 70
     1
102
RTVSPropertyOp16
 70
     1
102
RTVSPropertyOp17
 70
     1
102
RTVSPropertyOp18
 70
     1
102
RTVSPropertyOp19
 70
     1
102
RTVSPropertyOp20
 70
     1
102
RTVSPropertyOp21
 70
     1
102
RTVSPropertyOp22
 70
     1
102
RTVSPropertyOp23
 70
     1
102
RTVSPropertyOp24
 70
     1
102
RTVSPropertyOp25
 70
     1
102
RTVSPropertyOp26
 70
     1
102
RTVSPropertyOp27
 70
     1
102
RTVSPropertyOp28
 70
     1
102
RTVSPropertyOp29
 70
     1
102
RTVSPropertyOp30
 70
     1
102
RTVSPropertyOp31
 70
     1
102
RTVSPropertyOp32
 70
     1
  0
XRECORD
  5
4D6
102
{ACAD_REACTORS
330
4D5
102
}
330
4D5
100
AcDbXrecord
280
     1
102
RTVSPropertyOp0
 70
     1
102
RTVSPropertyOp1
 70
     1
102
RTVSPropertyOp2
 70
     1
102
RTVSPropertyOp3
 70
     1
102
RTVSPropertyOp4
 70
     1
102
RTVSPropertyOp5
 70
     1
102
RTVSPropertyOp6
 70
     1
102
RTVSPropertyOp7
 70
     1
102
RTVSPropertyOp8
 70
     1
102
RTVSPropertyOp9
 70
     1
102
RTVSPropertyOp10
 70
     1
102
RTVSPropertyOp11
 70
     1
102
RTVSPropertyOp12
 70
     1
102
RTVSPropertyOp13
 70
     1
102
RTVSPropertyOp14
 70
     1
102
RTVSPropertyOp15
 70
     1
102
RTVSPropertyOp16
 70
     1
102
RTVSPropertyOp17
 70
     1
102
RTVSPropertyOp18
 70
     1
102
RTVSPropertyOp19
 70
     1
102
RTVSPropertyOp20
 70
     1
102
RTVSPropertyOp21
 70
     1
102
RTVSPropertyOp22
 70
     1
102
RTVSPropertyOp23
 70
     1
102
RTVSPropertyOp24
 70
     1
102
RTVSPropertyOp25
 70
     1
102
RTVSPropertyOp26
 70
     1
102
RTVSPropertyOp27
 70
     1
102
RTVSPropertyOp28
 70
     1
102
RTVSPropertyOp29
 70
     1
102
RTVSPropertyOp30
 70
     1
102
RTVSPropertyOp31
 70
     1
102
RTVSPropertyOp32
 70
     1
  0
XRECORD
  5
4EA
102
{ACAD_REACTORS
330
4E9
102
}
330
4E9
100
AcDbXrecord
280
     1
102
RTVSPropertyOp0
 70
     1
102
RTVSPropertyOp1
 70
     1
102
RTVSPropertyOp2
 70
     1
102
RTVSPropertyOp3
 70
     1
102
RTVSPropertyOp4
 70
     1
102
RTVSPropertyOp5
 70
     1
102
RTVSPropertyOp6
 70
     1
102
RTVSPropertyOp7
 70
     1
102
RTVSPropertyOp8
 70
     1
102
RTVSPropertyOp9
 70
     1
102
RTVSPropertyOp10
 70
     1
102
RTVSPropertyOp11
 70
     1
102
RTVSPropertyOp12
 70
     1
102
RTVSPropertyOp13
 70
     1
102
RTVSPropertyOp14
 70
     1
102
RTVSPropertyOp15
 70
     1
102
RTVSPropertyOp16
 70
     1
102
RTVSPropertyOp17
 70
     1
102
RTVSPropertyOp18
 70
     1
102
RTVSPropertyOp19
 70
     1
102
RTVSPropertyOp20
 70
     1
102
RTVSPropertyOp21
 70
     1
102
RTVSPropertyOp22
 70
     1
102
RTVSPropertyOp23
 70
     1
102
RTVSPropertyOp24
 70
     1
102
RTVSPropertyOp25
 70
     1
102
RTVSPropertyOp26
 70
     1
102
RTVSPropertyOp27
 70
     1
102
RTVSPropertyOp28
 70
     1
102
RTVSPropertyOp29
 70
     1
102
RTVSPropertyOp30
 70
     1
102
RTVSPropertyOp31
 70
     1
102
RTVSPropertyOp32
 70
     1
  0
XRECORD
  5
4E0
102
{ACAD_REACTORS
330
4DF
102
}
330
4DF
100
AcDbXrecord
280
     1
102
RTVSPropertyOp0
 70
     1
102
RTVSPropertyOp1
 70
     1
102
RTVSPropertyOp2
 70
     1
102
RTVSPropertyOp3
 70
     1
102
RTVSPropertyOp4
 70
     1
102
RTVSPropertyOp5
 70
     1
102
RTVSPropertyOp6
 70
     1
102
RTVSPropertyOp7
 70
     1
102
RTVSPropertyOp8
 70
     1
102
RTVSPropertyOp9
 70
     1
102
RTVSPropertyOp10
 70
     1
102
RTVSPropertyOp11
 70
     1
102
RTVSPropertyOp12
 70
     1
102
RTVSPropertyOp13
 70
     1
102
RTVSPropertyOp14
 70
     1
102
RTVSPropertyOp15
 70
     1
102
RTVSPropertyOp16
 70
     1
102
RTVSPropertyOp17
 70
     1
102
RTVSPropertyOp18
 70
     1
102
RTVSPropertyOp19
 70
     1
102
RTVSPropertyOp20
 70
     1
102
RTVSPropertyOp21
 70
     1
102
RTVSPropertyOp22
 70
     1
102
RTVSPropertyOp23
 70
     1
102
RTVSPropertyOp24
 70
     1
102
RTVSPropertyOp25
 70
     1
102
RTVSPropertyOp26
 70
     1
102
RTVSPropertyOp27
 70
     1
102
RTVSPropertyOp28
 70
     1
102
RTVSPropertyOp29
 70
     1
102
RTVSPropertyOp30
 70
     1
102
RTVSPropertyOp31
 70
     1
102
RTVSPropertyOp32
 70
     1
  0
XRECORD
  5
4E8
102
{ACAD_REACTORS
330
4E7
102
}
330
4E7
100
AcDbXrecord
280
     1
102
RTVSPropertyOp0
 70
     1
102
RTVSPropertyOp1
 70
     1
102
RTVSPropertyOp2
 70
     1
102
RTVSPropertyOp3
 70
     1
102
RTVSPropertyOp4
 70
     1
102
RTVSPropertyOp5
 70
     1
102
RTVSPropertyOp6
 70
     1
102
RTVSPropertyOp7
 70
     1
102
RTVSPropertyOp8
 70
     1
102
RTVSPropertyOp9
 70
     1
102
RTVSPropertyOp10
 70
     1
102
RTVSPropertyOp11
 70
     1
102
RTVSPropertyOp12
 70
     1
102
RTVSPropertyOp13
 70
     1
102
RTVSPropertyOp14
 70
     1
102
RTVSPropertyOp15
 70
     1
102
RTVSPropertyOp16
 70
     1
102
RTVSPropertyOp17
 70
     1
102
RTVSPropertyOp18
 70
     1
102
RTVSPropertyOp19
 70
     1
102
RTVSPropertyOp20
 70
     1
102
RTVSPropertyOp21
 70
     1
102
RTVSPropertyOp22
 70
     1
102
RTVSPropertyOp23
 70
     1
102
RTVSPropertyOp24
 70
     1
102
RTVSPropertyOp25
 70
     1
102
RTVSPropertyOp26
 70
     1
102
RTVSPropertyOp27
 70
     1
102
RTVSPropertyOp28
 70
     1
102
RTVSPropertyOp29
 70
     1
102
RTVSPropertyOp30
 70
     1
102
RTVSPropertyOp31
 70
     1
102
RTVSPropertyOp32
 70
     1
  0
ENDSEC
  0
EOF
