  0
SECTION
  2
HEADER
  9
$ACADVER
  1
AC1018
  9
$ACADMAINTVER
 70
     0
  9
$DWGCODEPAGE
  3
ANSI_1252
  9
$INSBASE
 10
0.0
 20
0.0
 30
0.0
  9
$EXTMIN
 10
-212.7589140673655
 20
-3.33668281132339
 30
0.0
  9
$EXTMAX
 10
84.24108593263253
 20
206.6633171886767
 30
0.0
  9
$LIMMIN
 10
0.0
 20
0.0
  9
$LIMMAX
 10
12.0
 20
9.0
  9
$ORTHOMODE
 70
     0
  9
$REGENMODE
 70
     1
  9
$FILLMODE
 70
     1
  9
$QTEXTMODE
 70
     0
  9
$MIRRTEXT
 70
     1
  9
$LTSCALE
 40
1.0
  9
$ATTMODE
 70
     1
  9
$TEXTSIZE
 40
0.2
  9
$TRACEWID
 40
0.05
  9
$TEXTSTYLE
  7
Standard
  9
$CLAYER
  8
0
  9
$CELTYPE
  6
ByLayer
  9
$CECOLOR
 62
   256
  9
$CELTSCALE
 40
1.0
  9
$DISPSILH
 70
     0
  9
$DIMSCALE
 40
1.0
  9
$DIMASZ
 40
0.18
  9
$DIMEXO
 40
0.0625
  9
$DIMDLI
 40
0.38
  9
$DIMRND
 40
0.0
  9
$DIMDLE
 40
0.0
  9
$DIMEXE
 40
0.18
  9
$DIMTP
 40
0.0
  9
$DIMTM
 40
0.0
  9
$DIMTXT
 40
0.18
  9
$DIMCEN
 40
0.09
  9
$DIMTSZ
 40
0.0
  9
$DIMTOL
 70
     0
  9
$DIMLIM
 70
     0
  9
$DIMTIH
 70
     1
  9
$DIMTOH
 70
     1
  9
$DIMSE1
 70
     0
  9
$DIMSE2
 70
     0
  9
$DIMTAD
 70
     0
  9
$DIMZIN
 70
     0
  9
$DIMBLK
  1

  9
$DIMASO
 70
     1
  9
$DIMSHO
 70
     1
  9
$DIMPOST
  1

  9
$DIMAPOST
  1

  9
$DIMALT
 70
     0
  9
$DIMALTD
 70
     2
  9
$DIMALTF
 40
25.4
  9
$DIMLFAC
 40
1.0
  9
$DIMTOFL
 70
     0
  9
$DIMTVP
 40
0.0
  9
$DIMTIX
 70
     0
  9
$DIMSOXD
 70
     0
  9
$DIMSAH
 70
     0
  9
$DIMBLK1
  1

  9
$DIMBLK2
  1

  9
$DIMSTYLE
  2
Standard
  9
$DIMCLRD
 70
     0
  9
$DIMCLRE
 70
     0
  9
$DIMCLRT
 70
     0
  9
$DIMTFAC
 40
1.0
  9
$DIMGAP
 40
0.09
  9
$DIMJUST
 70
     0
  9
$DIMSD1
 70
     0
  9
$DIMSD2
 70
     0
  9
$DIMTOLJ
 70
     1
  9
$DIMTZIN
 70
     0
  9
$DIMALTZ
 70
     0
  9
$DIMALTTZ
 70
     0
  9
$DIMUPT
 70
     0
  9
$DIMDEC
 70
     4
  9
$DIMTDEC
 70
     4
  9
$DIMALTU
 70
     2
  9
$DIMALTTD
 70
     2
  9
$DIMTXSTY
  7
Standard
  9
$DIMAUNIT
 70
     0
  9
$DIMADEC
 70
     0
  9
$DIMALTRND
 40
0.0
  9
$DIMAZIN
 70
     0
  9
$DIMDSEP
 70
    46
  9
$DIMATFIT
 70
     3
  9
$DIMFRAC
 70
     0
  9
$DIMLDRBLK
  1

  9
$DIMLUNIT
 70
     2
  9
$DIMLWD
 70
    -2
  9
$DIMLWE
 70
    -2
  9
$DIMTMOVE
 70
     0
  9
$LUNITS
 70
     2
  9
$LUPREC
 70
     4
  9
$SKETCHINC
 40
0.1
  9
$FILLETRAD
 40
0.5
  9
$AUNITS
 70
     0
  9
$AUPREC
 70
     0
  9
$MENU
  1
.
  9
$ELEVATION
 40
0.0
  9
$PELEVATION
 40
0.0
  9
$THICKNESS
 40
0.0
  9
$LIMCHECK
 70
     0
  9
$CHAMFERA
 40
0.5
  9
$CHAMFERB
 40
0.5
  9
$CHAMFERC
 40
1.0
  9
$CHAMFERD
 40
0.0
  9
$SKPOLY
 70
     0
  9
$TDCREATE
 40
2458105.594042083
  9
$TDUCREATE
 40
2458105.552375417
  9
$TDUPDATE
 40
2458105.594042627
  9
$TDUUPDATE
 40
2458105.552375961
  9
$TDINDWG
 40
0.0000000116
  9
$TDUSRTIMER
 40
0.0000000116
  9
$USRTIMER
 70
     1
  9
$ANGBASE
 50
0.0
  9
$ANGDIR
 70
     0
  9
$PDMODE
 70
     0
  9
$PDSIZE
 40
0.0
  9
$PLINEWID
 40
0.0
  9
$SPLFRAME
 70
     0
  9
$SPLINETYPE
 70
     6
  9
$SPLINESEGS
 70
     8
  9
$HANDSEED
  5
404
  9
$SURFTAB1
 70
     6
  9
$SURFTAB2
 70
     6
  9
$SURFTYPE
 70
     6
  9
$SURFU
 70
     6
  9
$SURFV
 70
     6
  9
$UCSBASE
  2

  9
$UCSNAME
  2

  9
$UCSORG
 10
0.0
 20
0.0
 30
0.0
  9
$UCSXDIR
 10
1.0
 20
0.0
 30
0.0
  9
$UCSYDIR
 10
0.0
 20
1.0
 30
0.0
  9
$UCSORTHOREF
  2

  9
$UCSORTHOVIEW
 70
     0
  9
$UCSORGTOP
 10
0.0
 20
0.0
 30
0.0
  9
$UCSORGBOTTOM
 10
0.0
 20
0.0
 30
0.0
  9
$UCSORGLEFT
 10
0.0
 20
0.0
 30
0.0
  9
$UCSORGRIGHT
 10
0.0
 20
0.0
 30
0.0
  9
$UCSORGFRONT
 10
0.0
 20
0.0
 30
0.0
  9
$UCSORGBACK
 10
0.0
 20
0.0
 30
0.0
  9
$PUCSBASE
  2

  9
$PUCSNAME
  2

  9
$PUCSORG
 10
0.0
 20
0.0
 30
0.0
  9
$PUCSXDIR
 10
1.0
 20
0.0
 30
0.0
  9
$PUCSYDIR
 10
0.0
 20
1.0
 30
0.0
  9
$PUCSORTHOREF
  2

  9
$PUCSORTHOVIEW
 70
     0
  9
$PUCSORGTOP
 10
0.0
 20
0.0
 30
0.0
  9
$PUCSORGBOTTOM
 10
0.0
 20
0.0
 30
0.0
  9
$PUCSORGLEFT
 10
0.0
 20
0.0
 30
0.0
  9
$PUCSORGRIGHT
 10
0.0
 20
0.0
 30
0.0
  9
$PUCSORGFRONT
 10
0.0
 20
0.0
 30
0.0
  9
$PUCSORGBACK
 10
0.0
 20
0.0
 30
0.0
  9
$USERI1
 70
     0
  9
$USERI2
 70
     0
  9
$USERI3
 70
     0
  9
$USERI4
 70
     0
  9
$USERI5
 70
     0
  9
$USERR1
 40
18.1
  9
$USERR2
 40
0.0
  9
$USERR3
 40
0.0
  9
$USERR4
 40
0.0
  9
$USERR5
 40
0.0
  9
$WORLDVIEW
 70
     1
  9
$SHADEDGE
 70
     3
  9
$SHADEDIF
 70
    70
  9
$TILEMODE
 70
     1
  9
$MAXACTVP
 70
    64
  9
$PINSBASE
 10
0.0
 20
0.0
 30
0.0
  9
$PLIMCHECK
 70
     0
  9
$PEXTMIN
 10
1.00000000000000E+20
 20
1.00000000000000E+20
 30
1.00000000000000E+20
  9
$PEXTMAX
 10
-1.00000000000000E+20
 20
-1.00000000000000E+20
 30
-1.00000000000000E+20
  9
$PLIMMIN
 10
0.0
 20
0.0
  9
$PLIMMAX
 10
12.0
 20
9.0
  9
$UNITMODE
 70
     0
  9
$VISRETAIN
 70
     1
  9
$PLINEGEN
 70
     0
  9
$PSLTSCALE
 70
     1
  9
$TREEDEPTH
 70
  3020
  9
$CMLSTYLE
  2
Standard
  9
$CMLJUST
 70
     0
  9
$CMLSCALE
 40
1.0
  9
$PROXYGRAPHICS
 70
     1
  9
$MEASUREMENT
 70
     1
  9
$CELWEIGHT
370
    -1
  9
$ENDCAPS
280
     0
  9
$JOINSTYLE
280
     0
  9
$LWDISPLAY
290
     0
  9
$INSUNITS
 70
     4
  9
$HYPERLINKBASE
  1

  9
$STYLESHEET
  1

  9
$XEDIT
290
     1
  9
$CEPSNTYPE
380
     0
  9
$PSTYLEMODE
290
     1
  9
$FINGERPRINTGUID
  2
{17F6157F-D7BE-45EC-B3A8-7438DBAFBF37}
  9
$VERSIONGUID
  2
{FAEB1C32-E019-11D5-929B-00C0DF256EC4}
  9
$EXTNAMES
290
     1
  9
$PSVPSCALE
 40
0.0
  9
$OLESTARTUP
290
     0
  9
$SORTENTS
280
   127
  9
$INDEXCTL
280
     0
  9
$HIDETEXT
280
     1
  9
$XCLIPFRAME
290
     0
  9
$HALOGAP
280
     0
  9
$OBSCOLOR
 70
   257
  9
$OBSLTYPE
280
     0
  9
$INTERSECTIONDISPLAY
280
     0
  9
$INTERSECTIONCOLOR
 70
   257
  9
$DIMASSOC
280
     2
  9
$PROJECTNAME
  1

  0
ENDSEC
  0
SECTION
  2
CLASSES
  0
CLASS
  1
ACDBDICTIONARYWDFLT
  2
AcDbDictionaryWithDefault
  3
ObjectDBX Classes
 90
        0
 91
        4
280
     0
281
     0
  0
CLASS
  1
VISUALSTYLE
  2
AcDbVisualStyle
  3
ObjectDBX Classes
 90
     4095
 91
        4
280
     0
281
     0
  0
CLASS
  1
MATERIAL
  2
AcDbMaterial
  3
ObjectDBX Classes
 90
     1153
 91
        4
280
     0
281
     0
  0
ENDSEC
  0
SECTION
  2
TABLES
  0
TABLE
  2
VPORT
  5
8
330
0
100
AcDbSymbolTable
 70
     1
  0
VPORT
  5
29
330
8
100
AcDbSymbolTableRecord
100
AcDbViewportTableRecord
  2
*Active
 70
     0
 10
0.0
 20
0.0
 11
1.0
 21
1.0
 12
-64.25891406736649
 22
101.6633171886767
 13
0.0
 23
0.0
 14
0.5
 24
0.5
 15
0.5
 25
0.5
 16
0.0
 26
0.0
 36
1.0
 17
0.0
 27
0.0
 37
0.0
 40
231.0000000000001
 41
1.60267857142857
 42
50.0
 43
0.0
 44
0.0
 50
0.0
 51
0.0
 71
     0
 72
   100
 73
     1
 74
     3
 75
     0
 76
     0
 77
     0
 78
     0
281
     0
 65
     1
110
0.0
120
0.0
130
0.0
111
1.0
121
0.0
131
0.0
112
0.0
122
1.0
132
0.0
 79
     0
146
0.0
  0
ENDTAB
  0
TABLE
  2
LTYPE
  5
5
330
0
100
AcDbSymbolTable
 70
     8
  0
LTYPE
  5
14
330
5
100
AcDbSymbolTableRecord
100
AcDbLinetypeTableRecord
  2
ByBlock
 70
     0
  3

 72
    65
 73
     0
 40
0.0
  0
LTYPE
  5
15
330
5
100
AcDbSymbolTableRecord
100
AcDbLinetypeTableRecord
  2
ByLayer
 70
     0
  3

 72
    65
 73
     0
 40
0.0
  0
LTYPE
  5
16
330
5
100
AcDbSymbolTableRecord
100
AcDbLinetypeTableRecord
  2
Continuous
 70
     0
  3
Solid line
 72
    65
 73
     0
 40
0.0
  0
LTYPE
  5
3F
330
5
100
AcDbSymbolTableRecord
100
AcDbLinetypeTableRecord
  2
DASHED
 70
     0
  3
Dashed
 72
    65
 73
     2
 40
15.0
 49
7.0
 74
     0
 49
-8.0
 74
     0
  0
LTYPE
  5
40
330
5
100
AcDbSymbolTableRecord
100
AcDbLinetypeTableRecord
  2
DOTTED
 70
     0
  3
Dotted
 72
    65
 73
     2
 40
1.0
 49
0.0
 74
     0
 49
-1.0
 74
     0
  0
LTYPE
  5
41
330
5
100
AcDbSymbolTableRecord
100
AcDbLinetypeTableRecord
  2
DOT_CENTER
 70
     0
  3
Dot_Center
 72
    65
 73
     4
 40
14.0
 49
12.0
 74
     0
 49
-1.0
 74
     0
 49
0.0
 74
     0
 49
-1.0
 74
     0
  0
LTYPE
  5
42
330
5
100
AcDbSymbolTableRecord
100
AcDbLinetypeTableRecord
  2
LONG_DASHED
 70
     0
  3
Long_Dashed
 72
    65
 73
     2
 40
15.0
 49
10.0
 74
     0
 49
-5.0
 74
     0
  0
LTYPE
  5
43
330
5
100
AcDbSymbolTableRecord
100
AcDbLinetypeTableRecord
  2
DASH_CENTER
 70
     0
  3
Dash_Center
 72
    65
 73
     4
 40
14.0
 49
11.0
 74
     0
 49
-1.0
 74
     0
 49
1.0
 74
     0
 49
-1.0
 74
     0
  0
LTYPE
  5
44
330
5
100
AcDbSymbolTableRecord
100
AcDbLinetypeTableRecord
  2
PHANTOM
 70
     0
  3
Phantom
 72
    65
 73
     6
 40
13.0
 49
10.0
 74
     0
 49
-1.0
 74
     0
 49
0.0
 74
     0
 49
-1.0
 74
     0
 49
0.0
 74
     0
 49
-1.0
 74
     0
  0
LTYPE
  5
45
330
5
100
AcDbSymbolTableRecord
100
AcDbLinetypeTableRecord
  2
CENTER_DASH_DASH
 70
     0
  3
Center_Dash_Dash
 72
    65
 73
     6
 40
14.0
 49
9.0
 74
     0
 49
-1.0
 74
     0
 49
1.0
 74
     0
 49
-1.0
 74
     0
 49
1.0
 74
     0
 49
-1.0
 74
     0
  0
ENDTAB
  0
TABLE
  2
LAYER
  5
2
330
0
100
AcDbSymbolTable
 70
     2
  0
LAYER
  5
10
330
2
100
AcDbSymbolTableRecord
100
AcDbLayerTableRecord
  2
0
 70
     0
 62
     7
  6
Continuous
370
    -3
390
F
  0
LAYER
  5
46
330
2
100
AcDbSymbolTableRecord
100
AcDbLayerTableRecord
  2
1
 70
     0
 62
     7
  6
Continuous
370
    -3
390
F
  0
ENDTAB
  0
TABLE
  2
STYLE
  5
3
330
0
100
AcDbSymbolTable
 70
     5
  0
STYLE
  5
11
330
3
100
AcDbSymbolTableRecord
100
AcDbTextStyleTableRecord
  2
Standard
 70
     0
 40
0.0
 41
1.0
 50
0.0
 71
     0
 42
0.2
  3
txt
  4

  0
STYLE
  5
17E
330
3
100
AcDbSymbolTableRecord
100
AcDbTextStyleTableRecord
  2
CONVERTER_11
 70
     0
 40
0.0
 41
0.9
 50
0.0
 71
     0
 42
0.2
  3
txt.shx
  4

  0
STYLE
  5
39F
330
3
100
AcDbSymbolTableRecord
100
AcDbTextStyleTableRecord
  2
CONVERTER_12
 70
     0
 40
0.0
 41
0.81
 50
0.0
 71
     0
 42
0.2
  3
txt.shx
  4

  0
STYLE
  5
3B5
330
3
100
AcDbSymbolTableRecord
100
AcDbTextStyleTableRecord
  2
CONVERTER_13
 70
     0
 40
0.0
 41
0.72
 50
0.0
 71
     0
 42
0.2
  3
txt.shx
  4

  0
STYLE
  5
3B8
330
3
100
AcDbSymbolTableRecord
100
AcDbTextStyleTableRecord
  2
CONVERTER_14
 70
     0
 40
0.0
 41
0.855
 50
0.0
 71
     0
 42
0.2
  3
txt.shx
  4

  0
ENDTAB
  0
TABLE
  2
VIEW
  5
6
330
0
100
AcDbSymbolTable
 70
     0
  0
ENDTAB
  0
TABLE
  2
UCS
  5
7
330
0
100
AcDbSymbolTable
 70
     0
  0
ENDTAB
  0
TABLE
  2
APPID
  5
9
330
0
100
AcDbSymbolTable
 70
     1
  0
APPID
  5
12
330
9
100
AcDbSymbolTableRecord
100
AcDbRegAppTableRecord
  2
ACAD
 70
     0
  0
ENDTAB
  0
TABLE
  2
DIMSTYLE
  5
A
330
0
100
AcDbSymbolTable
 70
     8
100
AcDbDimStyleTable
  0
DIMSTYLE
105
27
330
A
100
AcDbSymbolTableRecord
100
AcDbDimStyleTableRecord
  2
Standard
 70
     0
178
     0
340
11
  0
DIMSTYLE
105
182
102
{ACAD_REACTORS
330
183
102
}
330
A
100
AcDbSymbolTableRecord
100
AcDbDimStyleTableRecord
  2
ME10_DIM_10
 70
     0
 41
3.5
 42
0.0
 44
1.5
 73
     0
 74
     0
 77
     1
 78
     8
140
3.5
147
1.5
172
     1
173
     1
174
     1
175
     1
176
     2
177
     2
178
     3
340
17E
  0
DIMSTYLE
105
18F
102
{ACAD_REACTORS
330
190
102
}
330
A
100
AcDbSymbolTableRecord
100
AcDbDimStyleTableRecord
  2
ME10_DIM_11
 70
     0
 41
3.5
 42
0.0
 44
1.5
 73
     0
 74
     0
 77
     1
 78
     8
140
3.5
147
1.5
172
     1
173
     1
174
     1
175
     1
176
     2
177
     2
178
     3
340
17E
  0
DIMSTYLE
105
275
102
{ACAD_REACTORS
330
276
102
}
330
A
100
AcDbSymbolTableRecord
100
AcDbDimStyleTableRecord
  2
ME10_DIM_12
 70
     0
 41
3.5
 42
0.0
 44
1.5
 73
     0
 74
     0
 77
     1
 78
     8
140
3.5
147
1.5
172
     1
173
     1
174
     1
175
     1
176
     2
177
     2
178
     3
340
17E
  0
DIMSTYLE
105
280
102
{ACAD_REACTORS
330
281
102
}
330
A
100
AcDbSymbolTableRecord
100
AcDbDimStyleTableRecord
  2
ME10_DIM_13
 70
     0
 41
3.5
 42
0.0
 44
1.5
 73
     0
 74
     0
 77
     1
 78
     8
140
3.5
147
1.5
172
     1
173
     1
174
     1
175
     1
176
     2
177
     2
178
     3
340
17E
  0
DIMSTYLE
105
28B
102
{ACAD_REACTORS
330
28C
102
}
330
A
100
AcDbSymbolTableRecord
100
AcDbDimStyleTableRecord
  2
ME10_DIM_14
 70
     0
 41
3.5
 42
0.0
 44
1.5
 73
     0
 74
     0
 77
     1
 78
     8
140
3.5
147
1.5
172
     1
173
     1
174
     1
175
     1
176
     2
177
     2
178
     3
340
17E
  0
DIMSTYLE
105
296
102
{ACAD_REACTORS
330
297
102
}
330
A
100
AcDbSymbolTableRecord
100
AcDbDimStyleTableRecord
  2
ME10_DIM_15
 70
     0
 41
3.5
 42
0.0
 44
1.5
 73
     0
 74
     0
 77
     1
 78
     8
140
3.5
147
1.5
172
     1
173
     1
174
     1
175
     1
176
     2
177
     2
178
     3
340
17E
  0
DIMSTYLE
105
2A1
102
{ACAD_REACTORS
330
2A2
102
}
330
A
100
AcDbSymbolTableRecord
100
AcDbDimStyleTableRecord
  2
ME10_DIM_16
 70
     0
 41
3.5
 42
0.0
 44
1.5
 73
     0
 74
     0
 77
     1
 78
     8
140
3.5
147
1.5
172
     1
173
     1
174
     1
175
     1
176
     2
177
     2
178
     3
340
17E
  0
ENDTAB
  0
TABLE
  2
BLOCK_RECORD
  5
1
330
0
100
AcDbSymbolTable
 70
    24
  0
BLOCK_RECORD
  5
1F
330
1
100
AcDbSymbolTableRecord
100
AcDbBlockTableRecord
  2
*Model_Space
340
22
  0
BLOCK_RECORD
  5
1B
330
1
100
AcDbSymbolTableRecord
100
AcDbBlockTableRecord
  2
*Paper_Space
340
1E
  0
BLOCK_RECORD
  5
23
330
1
100
AcDbSymbolTableRecord
100
AcDbBlockTableRecord
  2
*Paper_Space0
340
26
  0
BLOCK_RECORD
  5
47
330
1
100
AcDbSymbolTableRecord
100
AcDbBlockTableRecord
  2
DF_UP_6-select__1
340
0
102
{BLKREFS
331
4B
102
}
  0
BLOCK_RECORD
  5
4A
330
1
100
AcDbSymbolTableRecord
100
AcDbBlockTableRecord
  2
AllgSicht1
340
0
102
{BLKREFS
331
7D
102
}
  0
BLOCK_RECORD
  5
4E
330
1
100
AcDbSymbolTableRecord
100
AcDbBlockTableRecord
  2
DF_UP_6-select__2
340
0
102
{BLKREFS
331
52
102
}
  0
BLOCK_RECORD
  5
51
330
1
100
AcDbSymbolTableRecord
100
AcDbBlockTableRecord
  2
Drfsicht1
340
0
102
{BLKREFS
331
7E
102
}
  0
BLOCK_RECORD
  5
55
330
1
100
AcDbSymbolTableRecord
100
AcDbBlockTableRecord
  2
DF_UP_6-select__3
340
0
102
{BLKREFS
331
59
102
}
  0
BLOCK_RECORD
  5
58
330
1
100
AcDbSymbolTableRecord
100
AcDbBlockTableRecord
  2
Rckans1
340
0
102
{BLKREFS
331
7F
102
}
  0
BLOCK_RECORD
  5
5C
330
1
100
AcDbSymbolTableRecord
100
AcDbBlockTableRecord
  2
DF_UP_6-select__4
340
0
102
{BLKREFS
331
60
102
}
  0
BLOCK_RECORD
  5
5F
330
1
100
AcDbSymbolTableRecord
100
AcDbBlockTableRecord
  2
SA_Links1
340
0
102
{BLKREFS
331
80
102
}
  0
BLOCK_RECORD
  5
63
330
1
100
AcDbSymbolTableRecord
100
AcDbBlockTableRecord
  2
DF_UP_6-select__5
340
0
102
{BLKREFS
331
67
102
}
  0
BLOCK_RECORD
  5
66
330
1
100
AcDbSymbolTableRecord
100
AcDbBlockTableRecord
  2
SA_Rechts1
340
0
102
{BLKREFS
331
81
102
}
  0
BLOCK_RECORD
  5
6A
330
1
100
AcDbSymbolTableRecord
100
AcDbBlockTableRecord
  2
DF_UP_6-select__6
340
0
102
{BLKREFS
331
6E
102
}
  0
BLOCK_RECORD
  5
6D
330
1
100
AcDbSymbolTableRecord
100
AcDbBlockTableRecord
  2
Vordans1
340
0
102
{BLKREFS
331
82
102
}
  0
BLOCK_RECORD
  5
71
330
1
100
AcDbSymbolTableRecord
100
AcDbBlockTableRecord
  2
_rahmen
340
0
102
{BLKREFS
331
78
102
}
  0
BLOCK_RECORD
  5
74
330
1
100
AcDbSymbolTableRecord
100
AcDbBlockTableRecord
  2
_punkt
340
0
102
{BLKREFS
331
79
102
}
  0
BLOCK_RECORD
  5
77
330
1
100
AcDbSymbolTableRecord
100
AcDbBlockTableRecord
  2
A4I_CS
340
0
102
{BLKREFS
331
83
102
}
  0
BLOCK_RECORD
  5
7C
330
1
100
AcDbSymbolTableRecord
100
AcDbBlockTableRecord
  2
1
340
0
102
{BLKREFS
331
86
102
}
  0
BLOCK_RECORD
  5
176
330
1
100
AcDbSymbolTableRecord
100
AcDbBlockTableRecord
  2
*D17
340
0
  0
BLOCK_RECORD
  5
184
330
1
100
AcDbSymbolTableRecord
100
AcDbBlockTableRecord
  2
*D18
340
0
  0
BLOCK_RECORD
  5
26C
330
1
100
AcDbSymbolTableRecord
100
AcDbBlockTableRecord
  2
*D19
340
0
  0
BLOCK_RECORD
  5
277
330
1
100
AcDbSymbolTableRecord
100
AcDbBlockTableRecord
  2
*D20
340
0
  0
BLOCK_RECORD
  5
282
330
1
100
AcDbSymbolTableRecord
100
AcDbBlockTableRecord
  2
*D21
340
0
  0
BLOCK_RECORD
  5
28D
330
1
100
AcDbSymbolTableRecord
100
AcDbBlockTableRecord
  2
*D22
340
0
  0
BLOCK_RECORD
  5
298
330
1
100
AcDbSymbolTableRecord
100
AcDbBlockTableRecord
  2
*D23
340
0
  0
ENDTAB
  0
ENDSEC
  0
SECTION
  2
BLOCKS
  0
BLOCK
  5
20
330
1F
100
AcDbEntity
  8
0
100
AcDbBlockBegin
  2
*Model_Space
 70
     0
 10
0.0
 20
0.0
 30
0.0
  3
*Model_Space
  1

  0
ENDBLK
  5
21
330
1F
100
AcDbEntity
  8
0
100
AcDbBlockEnd
  0
BLOCK
  5
1C
330
1B
100
AcDbEntity
 67
     1
  8
0
100
AcDbBlockBegin
  2
*Paper_Space
 70
     0
 10
0.0
 20
0.0
 30
0.0
  3
*Paper_Space
  1

  0
ENDBLK
  5
1D
330
1B
100
AcDbEntity
 67
     1
  8
0
100
AcDbBlockEnd
  0
BLOCK
  5
24
330
23
100
AcDbEntity
  8
0
100
AcDbBlockBegin
  2
*Paper_Space0
 70
     0
 10
0.0
 20
0.0
 30
0.0
  3
*Paper_Space0
  1

  0
ENDBLK
  5
25
330
23
100
AcDbEntity
  8
0
100
AcDbBlockEnd
  0
BLOCK
  5
48
330
47
100
AcDbEntity
  8
0
100
AcDbBlockBegin
  2
DF_UP_6-select__1
 70
     0
 10
-16.3585222379285
 20
55.7084522941964
 30
0.0
  3
DF_UP_6-select__1
  1

  0
LINE
  5
87
330
47
100
AcDbEntity
  8
0
  6
Continuous
 62
     7
100
AcDbLine
 10
7.64591267710099
 20
84.88363019706671
 30
0.0
 11
23.66970801607741
 21
80.25795891975062
 31
0.0
  0
LINE
  5
88
330
47
100
AcDbEntity
  8
0
  6
Continuous
 62
     7
100
AcDbLine
 10
-14.88355851458107
 20
91.38732832742667
 30
0.0
 11
1.14023682439532
 21
86.76165705011448
 31
0.0
  0
LINE
  5
89
330
47
100
AcDbEntity
  8
0
  6
Continuous
 62
     7
100
AcDbLine
 10
-10.64730061465437
 20
89.70254579236949
 30
0.0
 11
-15.28355851462549
 21
91.04091816603427
 31
0.0
  0
LINE
  5
8A
330
47
100
AcDbEntity
  8
0
  6
Continuous
 62
     7
100
AcDbLine
 10
-2.37612796322939
 20
87.45920148068437
 30
0.0
 11
-6.79483314990603
 21
88.73477179549008
 31
0.0
  0
LINE
  5
8B
330
47
100
AcDbEntity
  8
0
  6
Continuous
 62
     7
100
AcDbLine
 10
-6.91983314989614
 20
88.62651862007581
 30
0.0
 11
-8.99276026273817
 21
89.22492113348308
 31
0.0
  0
LINE
  5
8C
330
47
100
AcDbEntity
  8
0
  6
Continuous
 62
     7
100
AcDbLine
 10
-6.91983314989614
 20
88.62651862007581
 30
0.0
 11
-6.79483314990603
 21
88.73477179549008
 31
0.0
  0
LINE
  5
8D
330
47
100
AcDbEntity
  8
0
  6
Continuous
 62
     7
100
AcDbLine
 10
23.26970801603143
 20
79.91154875835866
 30
0.0
 11
24.34467173811942
 21
72.69630606775756
 31
0.0
  0
LINE
  5
8E
330
47
100
AcDbEntity
  8
0
  6
Continuous
 62
     7
100
AcDbLine
 10
-13.91621581662778
 20
72.95041478960277
 30
0.0
 11
-12.20160028987283
 21
74.56277619112221
 31
0.0
  0
LINE
  5
8F
330
47
100
AcDbEntity
  8
0
  6
Continuous
 62
     7
100
AcDbLine
 10
-12.52258537195689
 20
72.83479496707164
 30
0.0
 11
-12.77086327901672
 21
72.61977999210848
 31
0.0
  0
LINE
  5
90
330
47
100
AcDbEntity
  8
0
  6
Continuous
 62
     7
100
AcDbLine
 10
-7.43846059174156
 20
73.18777619733906
 30
0.0
 11
-8.99276026371803
 21
73.63646386448477
 31
0.0
  0
LINE
  5
91
330
47
100
AcDbEntity
  8
0
  6
Continuous
 62
     7
100
AcDbLine
 10
-9.37384469078311
 20
71.6391451952907
 30
0.0
 11
-10.51919722839553
 21
71.96977999278538
 31
0.0
  0
LINE
  5
92
330
47
100
AcDbEntity
  8
0
  6
Continuous
 62
     7
100
AcDbLine
 10
-10.27091932133632
 20
72.18479496774802
 30
0.0
 11
-10.51919722839553
 21
71.96977999278538
 31
0.0
  0
LINE
  5
93
330
47
100
AcDbEntity
  8
0
  6
Continuous
 62
     7
100
AcDbLine
 10
-7.43846059174156
 20
73.18777619733906
 30
0.0
 11
-9.37384469078311
 21
71.6391451952907
 31
0.0
  0
LINE
  5
94
330
47
100
AcDbEntity
  8
0
  6
Continuous
 62
     7
100
AcDbLine
 10
-10.6473006157543
 20
74.1140885233873
 30
0.0
 11
-12.20160028987283
 21
74.56277619112221
 31
0.0
  0
LINE
  5
95
330
47
100
AcDbEntity
  8
0
  6
Continuous
 62
     7
100
AcDbLine
 10
-13.91621581662778
 20
72.95041478960277
 30
0.0
 11
-12.77086327901672
 21
72.61977999210848
 31
0.0
  0
LINE
  5
96
330
47
100
AcDbEntity
  8
0
  6
Continuous
 62
     7
100
AcDbLine
 10
2.22801124084907
 20
75.25426527917716
 30
0.0
 11
1.8280112407902
 21
74.90785511777659
 31
0.0
  0
LINE
  5
97
330
47
100
AcDbEntity
  8
0
  6
Continuous
 62
     7
100
AcDbLine
 10
6.15813825948499
 20
74.11973533282445
 30
0.0
 11
2.22801124084907
 21
75.25426527917716
 31
0.0
  0
LINE
  5
98
330
47
100
AcDbEntity
  8
0
  6
Continuous
 62
     7
100
AcDbLine
 10
2.22801124113519
 20
79.4942742448306
 30
0.0
 11
2.22801124084907
 21
75.25426527917716
 31
0.0
  0
LINE
  5
99
330
47
100
AcDbEntity
  8
0
  6
Continuous
 62
     7
100
AcDbLine
 10
13.14281561685476
 20
65.13914503286065
 30
0.0
 11
15.07819991876079
 21
66.68777619237139
 31
0.0
  0
LINE
  5
9A
330
47
100
AcDbEntity
  8
0
  6
Continuous
 62
     7
100
AcDbLine
 10
6.15813825974279
 20
77.89786408588917
 30
0.0
 11
7.24591267697856
 21
84.53722003569682
 31
0.0
  0
LINE
  5
9B
330
47
100
AcDbEntity
  8
0
  6
Continuous
 62
     7
100
AcDbLine
 10
0.74023682442736
 20
86.41524688870001
 30
0.0
 11
-2.50112796321952
 21
87.3509483052701
 31
0.0
  0
LINE
  5
9C
330
47
100
AcDbEntity
  8
0
  6
Continuous
 62
     7
100
AcDbLine
 10
-2.37612796322939
 20
87.45920148068437
 30
0.0
 11
-2.50112796321952
 21
87.3509483052701
 31
0.0
  0
LINE
  5
9D
330
47
100
AcDbEntity
  8
0
  6
Continuous
 62
     7
100
AcDbLine
 10
0.74023682442736
 20
86.41524688870001
 30
0.0
 11
1.14023682439532
 21
86.76165705011448
 31
0.0
  0
LINE
  5
9E
330
47
100
AcDbEntity
  8
0
  6
Continuous
 62
     7
100
AcDbLine
 10
1.14023682439532
 20
86.76165705011448
 30
0.0
 11
1.33329537252702
 21
85.4718396472468
 31
0.0
  0
LINE
  5
9F
330
47
100
AcDbEntity
  8
0
  6
Continuous
 62
     7
100
AcDbLine
 10
1.33329537252702
 20
85.4718396472468
 30
0.0
 11
0.98329555772084
 21
85.16873091637252
 31
0.0
  0
LINE
  5
A0
330
47
100
AcDbEntity
  8
0
  6
Continuous
 62
     7
100
AcDbLine
 10
11.99746308017691
 20
65.46977983116312
 30
0.0
 11
11.99746307986123
 21
60.53343502931841
 31
0.0
  0
LINE
  5
A1
330
47
100
AcDbEntity
  8
0
  6
Continuous
 62
     7
100
AcDbLine
 10
11.99746307986123
 20
60.53343502931841
 30
0.0
 11
10.87163005546736
 21
60.85843502977453
 31
0.0
  0
LINE
  5
A2
330
47
100
AcDbEntity
  8
0
  6
Continuous
 62
     7
100
AcDbLine
 10
11.86936045318745
 20
83.20254562624343
 30
0.0
 11
11.86936045216362
 21
67.6140883574651
 31
0.0
  0
LINE
  5
A3
330
47
100
AcDbEntity
  8
0
  6
Continuous
 62
     7
100
AcDbLine
 10
12.24574098784362
 20
65.6847948059511
 30
0.0
 11
11.99746308017691
 21
65.46977983116312
 31
0.0
  0
LINE
  5
A4
330
47
100
AcDbEntity
  8
0
  6
Continuous
 62
     7
100
AcDbLine
 10
13.52389966355079
 20
82.72492129687491
 30
0.0
 11
13.52389966255066
 21
67.13646402809918
 31
0.0
  0
LINE
  5
A5
330
47
100
AcDbEntity
  8
0
  6
Continuous
 62
     7
100
AcDbLine
 10
7.64591267710099
 20
84.88363019706671
 30
0.0
 11
7.24591267697856
 21
84.53722003569682
 31
0.0
  0
LINE
  5
A6
330
47
100
AcDbEntity
  8
0
  6
Continuous
 62
     7
100
AcDbLine
 10
6.15813825974279
 20
77.89786408588917
 30
0.0
 11
6.15813825945347
 21
73.65785511755026
 31
0.0
  0
LINE
  5
A7
330
47
100
AcDbEntity
  8
0
  6
Continuous
 62
     7
100
AcDbLine
 10
2.22801124018151
 20
65.36126215188865
 30
0.0
 11
2.22801124073025
 21
73.49334695814983
 31
0.0
  0
LINE
  5
A8
330
47
100
AcDbEntity
  8
0
  6
Continuous
 62
     7
100
AcDbLine
 10
1.82801124011058
 20
65.01485199046923
 30
0.0
 11
1.82801124070097
 21
73.60881701202402
 31
0.0
  0
LINE
  5
A9
330
47
100
AcDbEntity
  8
0
  6
Continuous
 62
     7
100
AcDbLine
 10
15.59001591261418
 20
82.12848491049486
 30
0.0
 11
13.52389966355079
 21
82.72492129687491
 31
0.0
  0
LINE
  5
AA
330
47
100
AcDbEntity
  8
0
  6
Continuous
 62
     7
100
AcDbLine
 10
15.07819991876079
 20
66.68777619237139
 30
0.0
 11
15.07819972192148
 21
60.79880328890172
 31
0.0
  0
LINE
  5
AB
330
47
100
AcDbEntity
  8
0
  6
Continuous
 62
     7
100
AcDbLine
 10
15.7150159126335
 20
82.23673808593445
 30
0.0
 11
15.59001591261418
 21
82.12848491049486
 31
0.0
  0
LINE
  5
AC
330
47
100
AcDbEntity
  8
0
  6
Continuous
 62
     7
100
AcDbLine
 10
15.71501591110612
 20
59.97988520754153
 30
0.0
 11
15.7150159126335
 21
82.23673808593445
 31
0.0
  0
LINE
  5
AD
330
47
100
AcDbEntity
  8
0
  6
Continuous
 62
     7
100
AcDbLine
 10
15.07819972192148
 20
60.79880328890172
 30
0.0
 11
15.07819991823493
 21
60.01938058276257
 31
0.0
  0
LINE
  5
AE
330
47
100
AcDbEntity
  8
0
  6
Continuous
 62
     7
100
AcDbLine
 10
1.8280112407902
 20
74.90785511777659
 30
0.0
 11
6.15813825945347
 21
73.65785511755026
 31
0.0
  0
LINE
  5
AF
330
47
100
AcDbEntity
  8
0
  6
Continuous
 62
     7
100
AcDbLine
 10
8.6004444947111
 20
66.4504146303779
 30
0.0
 11
9.74579703139032
 21
66.11977983207504
 31
0.0
  0
LINE
  5
B0
330
47
100
AcDbEntity
  8
0
  6
Continuous
 62
     7
100
AcDbLine
 10
6.15813825877837
 20
63.76485199014854
 30
0.0
 11
6.15813825936482
 21
72.35881701179751
 31
0.0
  0
LINE
  5
B1
330
47
100
AcDbEntity
  8
0
  6
Continuous
 62
     7
100
AcDbLine
 10
1.82801124108149
 20
79.14786408392499
 30
0.0
 11
1.8280112407902
 21
74.90785511777659
 31
0.0
  0
LINE
  5
B2
330
47
100
AcDbEntity
  8
0
  6
Continuous
 62
     7
100
AcDbLine
 10
1.82801124070097
 20
73.60881701202402
 30
0.0
 11
6.15813825936482
 21
72.35881701179751
 31
0.0
  0
LINE
  5
B3
330
47
100
AcDbEntity
  8
0
  6
Continuous
 62
     7
100
AcDbLine
 10
10.3150601981624
 20
68.06277619256679
 30
0.0
 11
8.6004444947111
 21
66.4504146303779
 31
0.0
  0
LINE
  5
B4
330
47
100
AcDbEntity
  8
0
  6
Continuous
 62
     7
100
AcDbLine
 10
11.99746308002642
 20
63.11662648813373
 30
0.0
 11
9.99407493883575
 21
62.84822337111748
 31
0.0
  0
LINE
  5
B5
330
47
100
AcDbEntity
  8
0
  6
Continuous
 62
     7
100
AcDbLine
 10
10.0842497118488
 20
62.49795783683999
 30
0.0
 11
11.99746308000324
 21
62.75427982506171
 31
0.0
  0
LINE
  5
B6
330
47
100
AcDbEntity
  8
0
  6
Continuous
 62
     7
100
AcDbLine
 10
13.14281561685476
 20
65.13914503286065
 30
0.0
 11
11.99746308017691
 21
65.46977983116312
 31
0.0
  0
LINE
  5
B7
330
47
100
AcDbEntity
  8
0
  6
Continuous
 62
     7
100
AcDbLine
 10
11.86936045216362
 20
67.6140883574651
 30
0.0
 11
10.3150601981624
 21
68.06277619256679
 31
0.0
  0
LINE
  5
B8
330
47
100
AcDbEntity
  8
0
  6
Continuous
 62
     7
100
AcDbLine
 10
10.0842497118488
 20
62.49795783683999
 30
0.0
 11
10.08424971180449
 21
61.80513751377622
 31
0.0
  0
LINE
  5
B9
330
47
100
AcDbEntity
  8
0
  6
Continuous
 62
     7
100
AcDbLine
 10
9.99407493905872
 20
66.334794806859
 30
0.0
 11
9.99407493877077
 21
61.91806524732222
 31
0.0
  0
LINE
  5
BA
330
47
100
AcDbEntity
  8
0
  6
Continuous
 62
     7
100
AcDbLine
 10
9.99407493879144
 20
62.15540304805689
 30
0.0
 11
10.08424971182767
 21
62.16748417685123
 31
0.0
  0
LINE
  5
BB
330
47
100
AcDbEntity
  8
0
  6
Continuous
 62
     7
100
AcDbLine
 10
9.99407493877077
 20
61.91806524732222
 30
0.0
 11
9.99407493873998
 21
61.39845000501164
 31
0.0
  0
LINE
  5
BC
330
47
100
AcDbEntity
  8
0
  6
Continuous
 62
     7
100
AcDbLine
 10
9.74579703139032
 20
66.11977983207504
 30
0.0
 11
9.74579703107464
 21
61.18343503023034
 31
0.0
  0
LINE
  5
BD
330
47
100
AcDbEntity
  8
0
  6
Continuous
 62
     7
100
AcDbLine
 10
9.74579703139032
 20
66.11977983207504
 30
0.0
 11
9.99407493905872
 21
66.334794806859
 31
0.0
  0
LINE
  5
BE
330
47
100
AcDbEntity
  8
0
  6
Continuous
 62
     7
100
AcDbLine
 10
15.07819991876079
 20
66.68777619237139
 30
0.0
 11
13.52389966255066
 21
67.13646402809918
 31
0.0
  0
LINE
  5
BF
330
47
100
AcDbEntity
  8
0
  6
Continuous
 62
     7
100
AcDbLine
 10
20.02102857111818
 20
58.5925088557687
 30
0.0
 11
20.02102857264478
 21
80.84936173416024
 31
0.0
  0
LINE
  5
C0
330
47
100
AcDbEntity
  8
0
  6
Continuous
 62
     7
100
AcDbLine
 10
15.59001591108756
 20
59.87163203210245
 30
0.0
 11
15.59001591261418
 21
82.12848491049486
 31
0.0
  0
LINE
  5
C1
330
47
100
AcDbEntity
  8
0
  6
Continuous
 62
     7
100
AcDbLine
 10
15.07819991823493
 20
60.01938058276257
 30
0.0
 11
15.59001591108756
 21
59.87163203210245
 31
0.0
  0
LINE
  5
C2
330
47
100
AcDbEntity
  8
0
  6
Continuous
 62
     7
100
AcDbLine
 10
15.59001591108756
 20
59.87163203210245
 30
0.0
 11
15.71501591110612
 21
59.97988520754153
 31
0.0
  0
LINE
  5
C3
330
47
100
AcDbEntity
  8
0
  6
Continuous
 62
     7
100
AcDbLine
 10
-2.50112796321952
 20
87.3509483052701
 30
0.0
 11
-2.50112796467591
 21
65.09409542667056
 31
0.0
  0
LINE
  5
C4
330
47
100
AcDbEntity
  8
0
  6
Continuous
 62
     7
100
AcDbLine
 10
-6.91983315135254
 20
66.36966574147648
 30
0.0
 11
-6.91983314989614
 21
88.62651862007581
 31
0.0
  0
LINE
  5
C5
330
47
100
AcDbEntity
  8
0
  6
Continuous
 62
     7
100
AcDbLine
 10
-6.79483315134588
 20
66.47791891690525
 30
0.0
 11
-6.79483314990603
 21
88.73477179549008
 31
0.0
  0
LINE
  5
C6
330
47
100
AcDbEntity
  8
0
  6
Continuous
 62
     7
100
AcDbLine
 10
-14.40996507173944
 20
75.50338509983273
 30
0.0
 11
-16.3585222379285
 21
76.06588510447314
 31
0.0
  0
LINE
  5
C7
330
47
100
AcDbEntity
  8
0
  6
Continuous
 62
     7
100
AcDbLine
 10
-16.35852223728848
 20
84.446306072452
 30
0.0
 11
-15.28355851462549
 21
91.04091816603427
 31
0.0
  0
LINE
  5
C8
330
47
100
AcDbEntity
  8
0
  6
Continuous
 62
     7
100
AcDbLine
 10
-13.91621581685853
 20
69.34197539383753
 30
0.0
 11
-14.409965079988
 21
69.48450852886187
 31
0.0
  0
LINE
  5
C9
330
47
100
AcDbEntity
  8
0
  6
Continuous
 62
     7
100
AcDbLine
 10
-15.28355851462549
 20
91.04091816603427
 30
0.0
 11
-14.88355851458107
 21
91.38732832742667
 31
0.0
  0
LINE
  5
CA
330
47
100
AcDbEntity
  8
0
  6
Continuous
 62
     7
100
AcDbLine
 10
-14.409965079988
 20
69.48450852886187
 30
0.0
 11
-14.40996507173944
 21
75.50338509983273
 31
0.0
  0
LINE
  5
CB
330
47
100
AcDbEntity
  8
0
  6
Continuous
 62
     7
100
AcDbLine
 10
-13.91621581705422
 20
66.28201918009302
 30
0.0
 11
-13.91621581662778
 21
72.95041478960277
 31
0.0
  0
LINE
  5
CC
330
47
100
AcDbEntity
  8
0
  6
Continuous
 62
     7
100
AcDbLine
 10
-16.3585222379285
 20
76.06588510447314
 30
0.0
 11
-16.35852223728848
 21
84.446306072452
 31
0.0
  0
LINE
  5
CD
330
47
100
AcDbEntity
  8
0
  6
Continuous
 62
     7
100
AcDbLine
 10
-10.64730061465437
 20
89.70254579236949
 30
0.0
 11
-10.6473006157543
 21
74.1140885233873
 31
0.0
  0
LINE
  5
CE
330
47
100
AcDbEntity
  8
0
  6
Continuous
 62
     7
100
AcDbLine
 10
-8.99276026273817
 20
89.22492113348308
 30
0.0
 11
-8.99276026371803
 21
73.63646386448477
 31
0.0
  0
LINE
  5
CF
330
47
100
AcDbEntity
  8
0
  6
Continuous
 62
     7
100
AcDbLine
 10
-7.43846059174156
 20
73.18777619733906
 30
0.0
 11
-7.43846059219995
 21
66.51938058780374
 31
0.0
  0
LINE
  5
D0
330
47
100
AcDbEntity
  8
0
  6
Continuous
 62
     7
100
AcDbLine
 10
23.66970801607741
 20
80.25795891975062
 30
0.0
 11
24.74467173817305
 21
73.04271622916187
 31
0.0
  0
LINE
  5
D1
330
47
100
AcDbEntity
  8
0
  6
Continuous
 62
     7
100
AcDbLine
 10
20.02102857264478
 20
80.84936173416024
 30
0.0
 11
23.26970801603143
 21
79.91154875835866
 31
0.0
  0
LINE
  5
D2
330
47
100
AcDbEntity
  8
0
  6
Continuous
 62
     7
100
AcDbLine
 10
7.06188614102301
 20
83.41399296116805
 30
0.0
 11
0.98329555772084
 21
85.16873091637252
 31
0.0
  0
LINE
  5
D3
330
47
100
AcDbEntity
  8
0
  6
Continuous
 62
     7
100
AcDbLine
 10
1.82801124108149
 20
79.14786408392499
 30
0.0
 11
0.74023682442736
 21
86.41524688870001
 31
0.0
  0
LINE
  5
D4
330
47
100
AcDbEntity
  8
0
  6
Continuous
 62
     7
100
AcDbLine
 10
1.82801124108149
 20
79.14786408392499
 30
0.0
 11
2.22801124113519
 21
79.4942742448306
 31
0.0
  0
LINE
  5
D5
330
47
100
AcDbEntity
  8
0
  6
Continuous
 62
     7
100
AcDbLine
 10
1.59973871543145
 20
83.69174099902766
 30
0.0
 11
2.22801124113519
 21
79.4942742448306
 31
0.0
  0
LINE
  5
D6
330
47
100
AcDbEntity
  8
0
  6
Continuous
 62
     7
100
AcDbLine
 10
0.98329555772084
 20
85.16873091637252
 30
0.0
 11
1.18651508206858
 21
83.8110283870352
 31
0.0
  0
LINE
  5
D7
330
47
100
AcDbEntity
  8
0
  6
Continuous
 62
     7
100
AcDbLine
 10
20.14602857266411
 20
80.95761490959981
 30
0.0
 11
15.7150159126335
 21
82.23673808593445
 31
0.0
  0
LINE
  5
D8
330
47
100
AcDbEntity
  8
0
  6
Continuous
 62
     7
100
AcDbLine
 10
7.24591267697856
 20
84.53722003569682
 30
0.0
 11
11.86936045318745
 21
83.20254562624343
 31
0.0
  0
LINE
  5
D9
330
47
100
AcDbEntity
  8
0
  6
Continuous
 62
     7
100
AcDbLine
 10
7.12510995963263
 20
83.79988679136315
 30
0.0
 11
1.33329537252702
 21
85.4718396472468
 31
0.0
  0
LINE
  5
DA
330
47
100
AcDbEntity
  8
0
  6
Continuous
 62
     7
100
AcDbLine
 10
1.18651508206858
 20
83.8110283870352
 30
0.0
 11
6.85866661649712
 21
82.17361927899718
 31
0.0
  0
LINE
  5
DB
330
47
100
AcDbEntity
  8
0
  6
Continuous
 62
     7
100
AcDbLine
 10
23.66970801607741
 20
80.25795891975062
 30
0.0
 11
23.26970801603143
 21
79.91154875835866
 31
0.0
  0
LINE
  5
DC
330
47
100
AcDbEntity
  8
0
  6
Continuous
 62
     7
100
AcDbLine
 10
20.02102857264478
 20
80.84936173416024
 30
0.0
 11
20.14602857266411
 21
80.95761490959981
 31
0.0
  0
LINE
  5
DD
330
47
100
AcDbEntity
  8
0
  6
Continuous
 62
     7
100
AcDbLine
 10
24.74467173760948
 20
64.66229526355949
 30
0.0
 11
24.74467173817305
 21
73.04271622916187
 31
0.0
  0
LINE
  5
DE
330
47
100
AcDbEntity
  8
0
  6
Continuous
 62
     7
100
AcDbLine
 10
24.34467173811942
 20
72.69630606775756
 30
0.0
 11
24.34467173754561
 21
64.3158851021462
 31
0.0
  0
LINE
  5
DF
330
47
100
AcDbEntity
  8
0
  6
Continuous
 62
     7
100
AcDbLine
 10
24.34467173811942
 20
72.69630606775756
 30
0.0
 11
24.74467173817305
 21
73.04271622916187
 31
0.0
  0
LINE
  5
E0
330
47
100
AcDbEntity
  8
0
  6
Continuous
 62
     7
100
AcDbLine
 10
-9.37384469120956
 20
64.97074958578094
 30
0.0
 11
-13.91621581705422
 21
66.28201918009302
 31
0.0
  0
LINE
  5
E1
330
47
100
AcDbEntity
  8
0
  6
Continuous
 62
     7
100
AcDbLine
 10
-10.51919722854601
 20
69.61662665009202
 30
0.0
 11
-12.52258537217984
 21
69.34822353274829
 31
0.0
  0
LINE
  5
E2
330
47
100
AcDbEntity
  8
0
  6
Continuous
 62
     7
100
AcDbLine
 10
-12.43241060002352
 20
68.99795799835601
 30
0.0
 11
-10.51919722856918
 21
69.25427998701998
 31
0.0
  0
LINE
  5
E3
330
47
100
AcDbEntity
  8
0
  6
Continuous
 62
     7
100
AcDbLine
 10
-11.64503025402124
 20
67.35843519060205
 30
0.0
 11
-10.51919722871121
 21
67.03343519094065
 31
0.0
  0
LINE
  5
E4
330
47
100
AcDbEntity
  8
0
  6
Continuous
 62
     7
100
AcDbLine
 10
-12.52258537195689
 20
72.83479496707164
 30
0.0
 11
-12.52258537223933
 21
68.41806540752634
 31
0.0
  0
LINE
  5
E5
330
47
100
AcDbEntity
  8
0
  6
Continuous
 62
     7
100
AcDbLine
 10
-12.43241060002352
 20
68.99795799835601
 30
0.0
 11
-12.43241060005892
 21
68.30513767529344
 31
0.0
  0
LINE
  5
E6
330
47
100
AcDbEntity
  8
0
  6
Continuous
 62
     7
100
AcDbLine
 10
-10.51919722871121
 20
67.03343519094065
 30
0.0
 11
-10.51919722839553
 21
71.96977999278538
 31
0.0
  0
LINE
  5
E7
330
47
100
AcDbEntity
  8
0
  6
Continuous
 62
     7
100
AcDbLine
 10
-12.43241060004465
 20
68.66748433836727
 30
0.0
 11
-12.52258537222416
 21
68.6554032096877
 31
0.0
  0
LINE
  5
E8
330
47
100
AcDbEntity
  8
0
  6
Continuous
 62
     7
100
AcDbLine
 10
-12.52258537223933
 20
68.41806540752634
 30
0.0
 11
-12.52258537227809
 21
67.89845016522214
 31
0.0
  0
LINE
  5
E9
330
47
100
AcDbEntity
  8
0
  6
Continuous
 62
     7
100
AcDbLine
 10
-12.77086327901672
 20
72.61977999210848
 30
0.0
 11
-12.7708632793324
 21
67.68343519026376
 31
0.0
  0
LINE
  5
EA
330
47
100
AcDbEntity
  8
0
  6
Continuous
 62
     7
100
AcDbLine
 10
-12.52258537227809
 20
67.89845016522214
 30
0.0
 11
-12.7708632793324
 21
67.68343519026376
 31
0.0
  0
LINE
  5
EB
330
47
100
AcDbEntity
  8
0
  6
Continuous
 62
     7
100
AcDbLine
 10
-12.7708632793324
 20
67.68343519026376
 30
0.0
 11
-11.64503025402124
 21
67.35843519060205
 31
0.0
  0
LINE
  5
EC
330
47
100
AcDbEntity
  8
0
  6
Continuous
 62
     7
100
AcDbLine
 10
-9.37384469120956
 20
64.97074958578094
 30
0.0
 11
-9.37384469078311
 21
71.6391451952907
 31
0.0
  0
LINE
  5
ED
330
47
100
AcDbEntity
  8
0
  6
Continuous
 62
     7
100
AcDbLine
 10
-9.420030255405
 20
62.83345245553043
 30
0.0
 11
-9.42003025525769
 21
64.98408220968037
 31
0.0
  0
LINE
  5
EE
330
47
100
AcDbEntity
  8
0
  6
Continuous
 62
     7
100
AcDbLine
 10
-11.920030255405
 20
62.83345245570167
 30
0.0
 11
-11.92003025520825
 21
65.70577004515106
 31
0.0
  0
LINE
  5
EF
330
47
100
AcDbEntity
  8
0
  6
Continuous
 62
     7
100
AcDbLine
 10
10.59663005646806
 20
56.33345229418583
 30
0.0
 11
10.59663005666481
 21
59.20576988387439
 31
0.0
  0
LINE
  5
F0
330
47
100
AcDbEntity
  8
0
  6
Continuous
 62
     7
100
AcDbLine
 10
13.14281561642832
 20
58.47074942333137
 30
0.0
 11
15.07819991823493
 21
60.01938058276257
 31
0.0
  0
LINE
  5
F1
330
47
100
AcDbEntity
  8
0
  6
Continuous
 62
     7
100
AcDbLine
 10
15.71501591110612
 20
59.97988520754153
 30
0.0
 11
20.02102857112806
 21
58.73684642304332
 31
0.0
  0
LINE
  5
F2
330
47
100
AcDbEntity
  8
0
  6
Continuous
 62
     7
100
AcDbLine
 10
8.60044449428466
 20
59.78201902084863
 30
0.0
 11
13.14281561642832
 21
58.47074942333137
 31
0.0
  0
LINE
  5
F3
330
47
100
AcDbEntity
  8
0
  6
Continuous
 62
     7
100
AcDbLine
 10
22.3961145784734
 20
58.85950852680122
 30
0.0
 11
22.79611457854458
 21
59.20591868822087
 31
0.0
  0
LINE
  5
F4
330
47
100
AcDbEntity
  8
0
  6
Continuous
 62
     7
100
AcDbLine
 10
21.81707261187661
 20
59.02666354448489
 30
0.0
 11
22.3961145784734
 21
58.85950852680122
 31
0.0
  0
LINE
  5
F5
330
47
100
AcDbEntity
  8
0
  6
Continuous
 62
     7
100
AcDbLine
 10
8.60044449444838
 20
62.34223537604201
 30
0.0
 11
6.15813825877837
 21
63.76485199014854
 31
0.0
  0
LINE
  5
F6
330
47
100
AcDbEntity
  8
0
  6
Continuous
 62
     7
100
AcDbLine
 10
-2.50112796466647
 20
65.23843299393157
 30
0.0
 11
-6.79483315134588
 21
66.47791891690525
 31
0.0
  0
LINE
  5
F7
330
47
100
AcDbEntity
  8
0
  6
Continuous
 62
     7
100
AcDbLine
 10
-9.37384469120956
 20
64.97074958578094
 30
0.0
 11
-7.43846059219995
 21
66.51938058780374
 31
0.0
  0
LINE
  5
F8
330
47
100
AcDbEntity
  8
0
  6
Continuous
 62
     7
100
AcDbLine
 10
-6.79483315134588
 20
66.47791891690525
 30
0.0
 11
-6.91983315135254
 21
66.36966574147648
 31
0.0
  0
LINE
  5
F9
330
47
100
AcDbEntity
  8
0
  6
Continuous
 62
     7
100
AcDbLine
 10
-7.43846059219995
 20
66.51938058780374
 30
0.0
 11
-6.91983315135254
 21
66.36966574147648
 31
0.0
  0
LINE
  5
FA
330
47
100
AcDbEntity
  8
0
  6
Continuous
 62
     7
100
AcDbLine
 10
-2.15570561712578
 20
64.99438058397544
 30
0.0
 11
-2.50112796467591
 21
65.09409542667056
 31
0.0
  0
LINE
  5
FB
330
47
100
AcDbEntity
  8
0
  6
Continuous
 62
     7
100
AcDbLine
 10
1.82801124011058
 20
65.01485199046923
 30
0.0
 11
-2.15570561712578
 21
64.99438058397544
 31
0.0
  0
LINE
  5
FC
330
47
100
AcDbEntity
  8
0
  6
Continuous
 62
     7
100
AcDbLine
 10
1.82801124011058
 20
65.01485199046923
 30
0.0
 11
2.22801124018151
 21
65.36126215188865
 31
0.0
  0
LINE
  5
FD
330
47
100
AcDbEntity
  8
0
  6
Continuous
 62
     7
100
AcDbLine
 10
10.87163005546736
 20
60.85843502977453
 30
0.0
 11
9.74579703107464
 21
61.18343503023034
 31
0.0
  0
LINE
  5
FE
330
47
100
AcDbEntity
  8
0
  6
Continuous
 62
     7
100
AcDbLine
 10
9.74579703107464
 20
61.18343503023034
 30
0.0
 11
9.99407493873998
 21
61.39845000501164
 31
0.0
  0
LINE
  5
FF
330
47
100
AcDbEntity
  8
0
  6
Continuous
 62
     7
100
AcDbLine
 10
8.60044449428466
 20
59.78201902084863
 30
0.0
 11
8.6004444947111
 21
66.4504146303779
 31
0.0
  0
LINE
  5
100
330
47
100
AcDbEntity
  8
0
  6
Continuous
 62
     7
100
AcDbLine
 10
22.3961145784734
 20
58.85950852680122
 30
0.0
 11
22.39611457104994
 21
64.87838510229619
 31
0.0
  0
LINE
  5
101
330
47
100
AcDbEntity
  8
0
  6
Continuous
 62
     7
100
AcDbLine
 10
22.79611457854458
 20
59.20591868822087
 30
0.0
 11
22.796114571684
 21
64.76291504871737
 31
0.0
  0
LINE
  5
102
330
47
100
AcDbEntity
  8
0
  6
Continuous
 62
     7
100
AcDbLine
 10
21.81765310387951
 20
58.07386802683254
 30
0.0
 11
21.81707261187661
 21
59.02666354448489
 31
0.0
  0
LINE
  5
103
330
47
100
AcDbEntity
  8
0
  6
Continuous
 62
     7
100
AcDbLine
 10
22.21765310395185
 20
58.42027818824874
 30
0.0
 11
22.21735406261644
 21
58.91111224278891
 31
0.0
  0
LINE
  5
104
330
47
100
AcDbEntity
  8
0
  6
Continuous
 62
     7
100
AcDbLine
 10
13.14281561642832
 20
58.47074942333137
 30
0.0
 11
13.14281561685476
 21
65.13914503286065
 31
0.0
  0
LINE
  5
105
330
47
100
AcDbEntity
  8
0
  6
Continuous
 62
     7
100
AcDbLine
 10
20.02102857111818
 20
58.5925088557687
 30
0.0
 11
21.81765310387951
 21
58.07386802683254
 31
0.0
  0
LINE
  5
106
330
47
100
AcDbEntity
  8
0
  6
Continuous
 62
     7
100
AcDbLine
 10
21.81765310387951
 20
58.07386802683254
 30
0.0
 11
22.21765310395185
 21
58.42027818824874
 31
0.0
  0
LINE
  5
107
330
47
100
AcDbEntity
  8
0
  6
Continuous
 62
     7
100
AcDbLine
 10
22.39611457104994
 20
64.87838510229619
 30
0.0
 11
24.34467173754561
 21
64.3158851021462
 31
0.0
  0
LINE
  5
108
330
47
100
AcDbEntity
  8
0
  6
Continuous
 62
     7
100
AcDbLine
 10
24.34467173754561
 20
64.3158851021462
 30
0.0
 11
24.74467173760948
 21
64.66229526355949
 31
0.0
  0
LINE
  5
109
330
47
100
AcDbEntity
  8
0
  6
Continuous
 62
     7
100
AcDbLine
 10
13.09663005646806
 20
56.33345229401458
 30
0.0
 11
13.0966300566154
 21
58.48408204605164
 31
0.0
  0
SPLINE
  5
10A
330
47
100
AcDbEntity
  8
0
  6
Continuous
 62
     7
100
AcDbSpline
210
0.0
220
0.0
230
1.0
 70
     8
 71
     3
 72
    11
 73
     7
 74
     5
 42
0.000000001
 43
0.0000000001
 44
0.00000001
 40
0.0
 40
0.0
 40
0.0
 40
0.0
 40
0.4941524051941025
 40
0.9633937123969072
 40
1.386996023574807
 40
1.750851034142379
 40
1.750851034142379
 40
1.750851034142379
 40
1.750851034142379
 10
-10.64730061465437
 20
89.70254579236949
 30
0.0
 10
-10.4823940898872
 20
89.6957797192649
 30
0.0
 10
-10.16089427162828
 20
89.68258864819245
 30
0.0
 10
-9.707788478279369
 20
89.58510066724688
 30
0.0
 10
-9.308210481600955
 20
89.44629150091603
 30
0.0
 10
-9.092453574880446
 20
89.29488192508786
 30
0.0
 10
-8.992760262738166
 20
89.22492113348308
 30
0.0
 11
-10.64730061465437
 21
89.70254579236949
 31
0.0
 11
-10.15436404847815
 21
89.66790275550414
 31
0.0
 11
-9.695030253542367
 21
89.5719867986833
 31
0.0
 11
-9.29923204567961
 21
89.42104740944181
 31
0.0
 11
-8.992760262738166
 21
89.22492113348308
 31
0.0
  0
SPLINE
  5
10B
330
47
100
AcDbEntity
  8
0
  6
Continuous
 62
     7
100
AcDbSpline
210
0.0
220
0.0
230
1.0
 70
     8
 71
     3
 72
    13
 73
     9
 74
     7
 42
0.000000001
 43
0.0000000001
 44
0.00000001
 40
0.0
 40
0.0
 40
0.0
 40
0.0
 40
0.2629695374321296
 40
0.571245217011116
 40
0.9450911247866554
 40
1.382325010168316
 40
1.867399207267087
 40
2.377433743625119
 40
2.377433743625119
 40
2.377433743625119
 40
2.377433743625119
 10
-12.62003025471539
 20
73.13915476137211
 30
0.0
 10
-12.60492449395977
 20
73.22720236269963
 30
0.0
 10
-12.57211043706654
 20
73.41846698687353
 30
0.0
 10
-12.34519324612695
 20
73.65710475734957
 30
0.0
 10
-12.0285662261523
 20
73.85445002980495
 30
0.0
 10
-11.61929350056749
 20
74.0025965465021
 30
0.0
 10
-11.14959141577452
 20
74.0983382531361
 30
0.0
 10
-10.81750743970671
 20
74.10875137060206
 30
0.0
 10
-10.6473006157543
 20
74.1140885233873
 30
0.0
 11
-12.62003025471539
 21
73.13915476137211
 31
0.0
 11
-12.55260103793642
 21
73.39333241896308
 31
0.0
 11
-12.35497869507792
 21
73.62993188818922
 31
0.0
 11
-12.04082839978947
 21
73.83259010892844
 31
0.0
 11
-11.63187768726207
 21
73.98729235560641
 31
0.0
 11
-11.15640736548148
 21
74.08333895746937
 31
0.0
 11
-10.6473006157543
 21
74.1140885233873
 31
0.0
  0
SPLINE
  5
10C
330
47
100
AcDbEntity
  8
0
  6
Continuous
 62
     7
100
AcDbSpline
210
0.0
220
0.0
230
1.0
 70
     8
 71
     3
 72
    13
 73
     9
 74
     7
 42
0.000000001
 43
0.0000000001
 44
0.00000001
 40
0.0
 40
0.0
 40
0.0
 40
0.0
 40
0.2255144778054423
 40
0.4812679682719907
 40
0.7838508602384414
 40
1.135956440874659
 40
1.531028796799771
 40
1.956866912558445
 40
1.956866912558445
 40
1.956866912558445
 40
1.956866912558445
 10
-8.720030254715383
 20
73.13915476112271
 30
0.0
 10
-8.73091062787654
 20
73.0636173833357
 30
0.0
 10
-8.754130326986292
 20
72.9024138998924
 30
0.0
 10
-8.922351022585257
 20
72.69000784972887
 30
0.0
 10
-9.164564086323463
 20
72.50608077323042
 30
0.0
 10
-9.483176181374002
 20
72.35577722014699
 30
0.0
 10
-9.858633794116745
 20
72.2414980342341
 30
0.0
 10
-10.13009951671099
 20
72.20416240479508
 30
0.0
 10
-10.27091932133632
 20
72.18479496774802
 30
0.0
 11
-8.720030254715383
 21
73.13915476112271
 31
0.0
 11
-8.770251172427095
 21
72.91930335289968
 31
0.0
 11
-8.918326266205746
 21
72.71077609211126
 31
0.0
 11
-9.156629238792181
 21
72.52431403120603
 31
0.0
 11
-9.472884753783529
 21
72.36952130154648
 31
0.0
 11
-9.85080359767171
 21
72.25437133971977
 31
0.0
 11
-10.27091932133632
 21
72.18479496774802
 31
0.0
  0
SPLINE
  5
10D
330
47
100
AcDbEntity
  8
0
  6
Continuous
 62
     7
100
AcDbSpline
210
0.0
220
0.0
230
1.0
 70
     8
 71
     3
 72
     9
 73
     5
 74
     3
 42
0.000000001
 43
0.0000000001
 44
0.00000001
 40
0.0
 40
0.0
 40
0.0
 40
0.0
 40
0.3141405062467079
 40
0.5811552092624868
 40
0.5811552092624868
 40
0.5811552092624868
 40
0.5811552092624868
 10
-8.992760263718033
 20
73.63646386448477
 30
0.0
 10
-8.914031098874947
 20
73.56239194054031
 30
0.0
 10
-8.768383344784347
 20
73.42535998542004
 30
0.0
 10
-8.735252418285576
 20
73.22925581712099
 30
0.0
 10
-8.720030254715383
 20
73.13915476112271
 30
0.0
 11
-8.992760263718033
 21
73.63646386448477
 31
0.0
 11
-8.789448937911805
 21
73.39698784514732
 31
0.0
 11
-8.720030254715383
 21
73.13915476112271
 31
0.0
  0
SPLINE
  5
10E
330
47
100
AcDbEntity
  8
0
  6
Continuous
 62
     7
100
AcDbSpline
210
0.0
220
0.0
230
1.0
 70
     8
 71
     3
 72
     9
 73
     5
 74
     3
 42
0.000000001
 43
0.0000000001
 44
0.00000001
 40
0.0
 40
0.0
 40
0.0
 40
0.0
 40
0.1670074169175634
 40
0.323062507897992
 40
0.323062507897992
 40
0.323062507897992
 40
0.323062507897992
 10
-12.52258537195689
 20
72.83479496707164
 30
0.0
 10
-12.55091826841179
 20
72.8836099539947
 30
0.0
 10
-12.60572597516319
 20
72.97803865414832
 30
0.0
 10
-12.6153711633723
 20
73.08667706170614
 30
0.0
 10
-12.62003025471539
 20
73.13915476137211
 30
0.0
 11
-12.52258537195689
 21
72.83479496707164
 31
0.0
 11
-12.59551490569723
 21
72.9850373076531
 31
0.0
 11
-12.62003025471539
 21
73.13915476137211
 31
0.0
  0
SPLINE
  5
10F
330
47
100
AcDbEntity
  8
0
  6
Continuous
 62
     7
100
AcDbSpline
210
0.0
220
0.0
230
1.0
 70
     8
 71
     3
 72
    11
 73
     7
 74
     5
 42
0.000000001
 43
0.0000000001
 44
0.00000001
 40
0.0
 40
0.0
 40
0.0
 40
0.0
 40
0.363854808582869
 40
0.7874568212358719
 40
1.256697761384219
 40
1.750849779316855
 40
1.750849779316855
 40
1.750849779316855
 40
1.750849779316855
 10
13.52389966355079
 20
82.72492129687491
 30
0.0
 10
13.42420638571906
 20
82.79488201786936
 30
0.0
 10
13.20844957061735
 20
82.94629142869695
 30
0.0
 10
12.80887185433798
 20
83.085100486938
 30
0.0
 10
12.35576641036557
 20
83.1825884162948
 30
0.0
 10
12.034266847063
 20
83.19577953084348
 30
0.0
 10
11.86936045318745
 20
83.20254562624343
 30
0.0
 11
13.52389966355079
 21
82.72492129687491
 31
0.0
 11
13.2174279973761
 21
82.92104738057263
 31
0.0
 11
12.82163005834388
 21
83.07198663695817
 31
0.0
 11
12.36229662794412
 21
83.167902543804
 31
0.0
 11
11.86936045318745
 21
83.20254562624343
 31
0.0
  0
SPLINE
  5
110
330
47
100
AcDbEntity
  8
0
  6
Continuous
 62
     7
100
AcDbSpline
210
0.0
220
0.0
230
1.0
 70
     8
 71
     3
 72
    13
 73
     9
 74
     7
 42
0.000000001
 43
0.0000000001
 44
0.00000001
 40
0.0
 40
0.0
 40
0.0
 40
0.0
 40
0.5100351963935964
 40
0.9951094860268331
 40
1.432343371429142
 40
1.806189279222259
 40
2.114464958814151
 40
2.377434496255186
 40
2.377434496255186
 40
2.377434496255186
 40
2.377434496255186
 10
11.86936045216362
 20
67.6140883574651
 30
0.0
 10
11.69915340707187
 20
67.60875121633647
 30
0.0
 10
11.36706917815256
 20
67.59833812721367
 30
0.0
 10
10.89736683957828
 20
67.50259639991876
 30
0.0
 10
10.48809408597192
 20
67.35444986736795
 30
0.0
 10
10.17146706571975
 20
67.15710459603955
 30
0.0
 10
9.944549874817152
 20
66.91846682533216
 30
0.0
 10
9.911735817915728
 20
66.72720220117571
 30
0.0
 10
9.8966300571564
 20
66.63915459985662
 30
0.0
 11
11.86936045216362
 21
67.6140883574651
 31
0.0
 11
11.36025304096453
 21
67.58333879541354
 31
0.0
 11
10.88478262466792
 21
67.48729219410743
 31
0.0
 11
10.475831912118
 21
67.3325899474306
 31
0.0
 11
10.1616816168107
 21
67.12993172668818
 31
0.0
 11
9.964059273939723
 21
66.89333225745565
 31
0.0
 11
9.8966300571564
 21
66.63915459985662
 31
0.0
  0
SPLINE
  5
111
330
47
100
AcDbEntity
  8
0
  6
Continuous
 62
     7
100
AcDbSpline
210
0.0
220
0.0
230
1.0
 70
     8
 71
     3
 72
    13
 73
     9
 74
     7
 42
0.000000001
 43
0.0000000001
 44
0.00000001
 40
0.0
 40
0.0
 40
0.0
 40
0.0
 40
0.2658546809524603
 40
0.5785262418167177
 40
0.9369414412646204
 40
1.332959318993959
 40
1.75412308837957
 40
2.185550940887488
 40
2.185550940887488
 40
2.185550940887488
 40
2.185550940887488
 10
9.994074938859498
 20
63.21960515636515
 30
0.0
 10
10.05073101376264
 20
63.28844051129038
 30
0.0
 10
10.17402028246191
 20
63.4382330825146
 30
0.0
 10
10.44513626723538
 20
63.60259838394818
 30
0.0
 10
10.77382287675994
 20
63.73936499072737
 30
0.0
 10
11.15533069964779
 20
63.83464844085869
 30
0.0
 10
11.56900003208345
 20
63.89032302837214
 30
0.0
 10
11.85350039374561
 20
63.88833183254515
 30
0.0
 10
11.9974630800757
 20
63.88732424350349
 30
0.0
 11
9.994074938859498
 21
63.21960515636515
 31
0.0
 11
10.17335909031472
 21
63.41591080116908
 31
0.0
 11
10.43461733386678
 21
63.58768868236712
 31
0.0
 11
10.76505108562575
 21
63.72652308679563
 31
0.0
 11
11.14847174504781
 21
63.8256127301226
 31
0.0
 11
11.56609567703541
 21
63.88010282825414
 31
0.0
 11
11.9974630800757
 21
63.88732424350349
 31
0.0
  0
SPLINE
  5
112
330
47
100
AcDbEntity
  8
0
  6
Continuous
 62
     7
100
AcDbSpline
210
0.0
220
0.0
230
1.0
 70
     8
 71
     3
 72
    13
 73
     9
 74
     7
 42
0.000000001
 43
0.0000000001
 44
0.00000001
 40
0.0
 40
0.0
 40
0.0
 40
0.0
 40
0.3911993208030305
 40
0.7751644960311136
 40
1.140639843286766
 40
1.477797333920803
 40
1.779310281829656
 40
2.041810799444151
 40
2.041810799444151
 40
2.041810799444151
 40
2.041810799444151
 10
11.99746307995137
 20
61.94316648297673
 30
0.0
 10
11.86695481155979
 20
61.94187367532841
 30
0.0
 10
11.60835166321854
 20
61.93931198049999
 30
0.0
 10
11.22985294572744
 20
61.98402370790647
 30
0.0
 10
10.87522870013354
 20
62.06196908520728
 30
0.0
 10
10.55990807282869
 20
62.17532768213967
 30
0.0
 10
10.28981897403862
 20
62.31304416928434
 30
0.0
 10
10.14953842598334
 20
62.43922932462368
 30
0.0
 10
10.0842497118488
 20
62.49795783683999
 30
0.0
 11
11.99746307995137
 21
61.94316648297673
 31
0.0
 11
11.60628979506523
 21
61.94767932647332
 31
0.0
 11
11.22479317503561
 21
61.99114865687915
 31
0.0
 11
10.8683333050815
 21
62.07182449426011
 31
0.0
 11
10.55126196589179
 21
62.18645844177819
 31
0.0
 11
10.28634547324766
 21
62.3304352226709
 31
0.0
 11
10.0842497118488
 21
62.49795783683999
 31
0.0
  0
SPLINE
  5
113
330
47
100
AcDbEntity
  8
0
  6
Continuous
 62
     7
100
AcDbSpline
210
0.0
220
0.0
230
1.0
 70
     8
 71
     3
 72
     9
 73
     5
 74
     3
 42
0.000000001
 43
0.0000000001
 44
0.00000001
 40
0.0
 40
0.0
 40
0.0
 40
0.0
 40
0.0706795715078641
 40
0.1446546436236
 40
0.1446546436236
 40
0.1446546436236
 40
0.1446546436236
 10
9.994074938770765
 20
61.91806524732222
 30
0.0
 10
10.00753163552239
 20
61.89869256069169
 30
0.0
 10
10.03507247590523
 20
61.85904393002529
 30
0.0
 10
10.06761020470101
 20
61.82337716647383
 30
0.0
 10
10.08424971180449
 20
61.80513751377622
 30
0.0
 11
9.994074938770765
 21
61.91806524732222
 31
0.0
 11
10.03563798802978
 21
61.86089781929483
 31
0.0
 11
10.08424971180449
 21
61.80513751377622
 31
0.0
  0
SPLINE
  5
114
330
47
100
AcDbEntity
  8
0
  6
Continuous
 62
     7
100
AcDbSpline
210
0.0
220
0.0
230
1.0
 70
     8
 71
     3
 72
    11
 73
     7
 74
     5
 42
0.000000001
 43
0.0000000001
 44
0.00000001
 40
0.0
 40
0.0
 40
0.0
 40
0.0
 40
0.2713041493235192
 40
0.5543942009768701
 40
0.8447236425400679
 40
1.137447872628263
 40
1.137447872628263
 40
1.137447872628263
 40
1.137447872628263
 10
10.87163005546736
 20
60.85843502977453
 30
0.0
 10
10.95922406186261
 20
60.83570343875375
 30
0.0
 10
11.13821730707438
 20
60.7892527734303
 30
0.0
 10
11.41728172769426
 20
60.74859493305846
 30
0.0
 10
11.70542028482566
 20
60.72566876910989
 30
0.0
 10
11.89984928739779
 20
60.72903891566418
 30
0.0
 10
11.99746307987384
 20
60.73073091760043
 30
0.0
 11
10.87163005546736
 21
60.85843502977453
 31
0.0
 11
11.13540770932811
 21
60.79497408881482
 31
0.0
 11
11.41521246068404
 21
60.75197084511861
 31
0.0
 11
11.70473904301241
 21
60.73039439456169
 31
0.0
 11
11.99746307987384
 21
60.73073091760043
 31
0.0
  0
SPLINE
  5
115
330
47
100
AcDbEntity
  8
0
  6
Continuous
 62
     7
100
AcDbSpline
210
0.0
220
0.0
230
1.0
 70
     8
 71
     3
 72
     9
 73
     5
 74
     3
 42
0.000000001
 43
0.0000000001
 44
0.00000001
 40
0.0
 40
0.0
 40
0.0
 40
0.0
 40
0.1560550902777335
 40
0.3230625063531081
 40
0.3230625063531081
 40
0.3230625063531081
 40
0.3230625063531081
 10
9.8966300571564
 20
66.63915459985662
 30
0.0
 10
9.901289148453934
 20
66.58667690042955
 30
0.0
 10
9.910934336566063
 20
66.47803849339665
 30
0.0
 10
9.965742042851888
 20
66.38360979358995
 30
0.0
 10
9.99407493905872
 20
66.334794806859
 30
0.0
 11
9.8966300571564
 21
66.63915459985662
 31
0.0
 11
9.921145405957787
 21
66.48503714681466
 31
0.0
 11
9.99407493905872
 21
66.334794806859
 31
0.0
  0
SPLINE
  5
116
330
47
100
AcDbEntity
  8
0
  6
Continuous
 62
     7
100
AcDbSpline
210
0.0
220
0.0
230
1.0
 70
     8
 71
     3
 72
     9
 73
     5
 74
     3
 42
0.000000001
 43
0.0000000001
 44
0.00000001
 40
0.0
 40
0.0
 40
0.0
 40
0.0
 40
0.2670149050268558
 40
0.5811557050261619
 40
0.5811557050261619
 40
0.5811557050261619
 40
0.5811557050261619
 10
13.79663005715642
 20
66.63915459960722
 30
0.0
 10
13.78140786807273
 20
66.72925572341217
 30
0.0
 10
13.74827688284651
 20
66.92536005821819
 30
0.0
 10
13.60262893732772
 20
67.06239206834486
 30
0.0
 10
13.52389966255066
 20
67.13646402809918
 30
0.0
 11
13.79663005715642
 21
66.63915459960722
 31
0.0
 11
13.72721127399123
 21
66.89698786592119
 31
0.0
 11
13.52389966255066
 21
67.13646402809918
 31
0.0
  0
SPLINE
  5
117
330
47
100
AcDbEntity
  8
0
  6
Continuous
 62
     7
100
AcDbSpline
210
0.0
220
0.0
230
1.0
 70
     8
 71
     3
 72
    13
 73
     9
 74
     7
 42
0.000000001
 43
0.0000000001
 44
0.00000001
 40
0.0
 40
0.0
 40
0.0
 40
0.0
 40
0.4258381163299341
 40
0.8209104728363402
 40
1.173016054006435
 40
1.47559894641368
 40
1.731352437207242
 40
1.956866915253362
 40
1.956866915253362
 40
1.956866915253362
 40
1.956866915253362
 10
12.24574098784362
 20
65.6847948059511
 30
0.0
 10
12.38656079267168
 20
65.70416224292481
 30
0.0
 10
12.65802651567371
 20
65.7414978722249
 30
0.0
 10
13.03348412903128
 20
65.85577705805673
 30
0.0
 10
13.35209622465328
 20
66.00608061115602
 30
0.0
 10
13.59430928885246
 20
66.19000768776
 30
0.0
 10
13.76252998480541
 20
66.40241373810598
 30
0.0
 10
13.78574968397054
 20
66.56361722173955
 30
0.0
 10
13.79663005715642
 20
66.63915459960722
 30
0.0
 11
12.24574098784362
 21
65.6847948059511
 31
0.0
 11
12.66585671212039
 21
65.75437117772289
 31
0.0
 11
13.04377555664104
 21
65.86952113946823
 31
0.0
 11
13.3600310722125
 21
66.02431386915697
 31
0.0
 11
13.59833404526329
 21
66.21077593018404
 31
0.0
 11
13.74640913934135
 21
66.41930319116092
 31
0.0
 11
13.79663005715642
 21
66.63915459960722
 31
0.0
  0
SPLINE
  5
118
330
47
100
AcDbEntity
  8
0
  6
Continuous
 62
     7
100
AcDbSpline
210
0.0
220
0.0
230
1.0
 70
     8
 71
     3
 72
    13
 73
     9
 74
     7
 42
0.000000001
 43
0.0000000001
 44
0.00000001
 40
0.0
 40
0.0
 40
0.0
 40
0.0
 40
0.4314278526198683
 40
0.8525916222289769
 40
1.248609500271829
 40
1.607024700092013
 40
1.91969626134432
 40
2.185550942640857
 40
2.185550942640857
 40
2.185550942640857
 40
2.185550942640857
 10
-10.51919722849673
 20
70.38732440490298
 30
0.0
 10
-10.66315991486332
 20
70.38833199406447
 30
0.0
 10
-10.94766027663573
 20
70.39032319012865
 30
0.0
 10
-11.36132960933261
 20
70.33464860292882
 30
0.0
 10
-11.7428374325986
 20
70.23936515307126
 30
0.0
 10
-12.07152404260166
 20
70.10259854650779
 30
0.0
 10
-12.34264002789669
 20
69.93823324524826
 30
0.0
 10
-12.46592929704499
 20
69.7884406740815
 30
0.0
 10
-12.5225853721561
 20
69.71960531918074
 30
0.0
 11
-10.51919722849673
 21
70.38732440490298
 31
0.0
 11
-10.95056463165497
 21
70.38010299001131
 31
0.0
 11
-11.3681885639104
 21
70.32561289220504
 31
0.0
 11
-11.75160922372815
 21
70.2265232491562
 31
0.0
 11
-12.08204297598314
 21
70.08768884494712
 31
0.0
 11
-12.34330122010017
 21
69.91591096390204
 31
0.0
 11
-12.5225853721561
 21
69.71960531918074
 31
0.0
  0
SPLINE
  5
119
330
47
100
AcDbEntity
  8
0
  6
Continuous
 62
     7
100
AcDbSpline
210
0.0
220
0.0
230
1.0
 70
     8
 71
     3
 72
    13
 73
     9
 74
     7
 42
0.000000001
 43
0.0000000001
 44
0.00000001
 40
0.0
 40
0.0
 40
0.0
 40
0.0
 40
0.3911993213624048
 40
0.7751644972115532
 40
1.140639845096719
 40
1.47779733631817
 40
1.779310284731503
 40
2.04181080274847
 40
2.04181080274847
 40
2.04181080274847
 40
2.04181080274847
 10
-10.51919722862106
 20
68.44316664460924
 30
0.0
 10
-10.64970549719851
 20
68.44187383685386
 30
0.0
 10
-10.90830864593208
 20
68.439312141813
 30
0.0
 10
-11.28680736405475
 20
68.48402386904596
 30
0.0
 10
-11.64143161029444
 20
68.56196924627635
 30
0.0
 10
-11.95675223819331
 20
68.67532784325346
 30
0.0
 10
-12.22684133749168
 20
68.81304433052192
 30
0.0
 10
-12.36712188578369
 20
68.93922948605424
 30
0.0
 10
-12.43241060002352
 20
68.99795799835601
 30
0.0
 11
-10.51919722862106
 21
68.44316664460924
 31
0.0
 11
-10.91037051407007
 21
68.44767948780661
 31
0.0
 11
-11.29186713474557
 21
68.4911488180299
 31
0.0
 11
-11.64832700535948
 21
68.57182465534738
 31
0.0
 11
-11.96539834515608
 21
68.68645860291451
 31
0.0
 11
-12.23031483829392
 21
68.83043538395526
 31
0.0
 11
-12.43241060002352
 21
68.99795799835601
 31
0.0
  0
SPLINE
  5
11A
330
47
100
AcDbEntity
  8
0
  6
Continuous
 62
     7
100
AcDbSpline
210
0.0
220
0.0
230
1.0
 70
     8
 71
     3
 72
    11
 73
     7
 74
     5
 42
0.000000001
 43
0.0000000001
 44
0.00000001
 40
0.0
 40
0.0
 40
0.0
 40
0.0
 40
0.2927242302630815
 40
0.583053672050966
 40
0.8661437239515675
 40
1.137447873449543
 40
1.137447873449543
 40
1.137447873449543
 40
1.137447873449543
 10
-10.51919722869859
 20
67.23073107924391
 30
0.0
 10
-10.6168110212316
 20
67.22903907722534
 30
0.0
 10
-10.81124002393427
 20
67.22566893050674
 30
0.0
 10
-11.09937858129915
 20
67.24859509424716
 30
0.0
 10
-11.37844300216435
 20
67.2892529344297
 30
0.0
 10
-11.5574362475508
 20
67.33570359963952
 30
0.0
 10
-11.64503025402124
 20
67.35843519060205
 30
0.0
 11
-10.51919722869859
 21
67.23073107924391
 31
0.0
 11
-10.81192126573463
 21
67.23039455596319
 31
0.0
 11
-11.1014478483042
 21
67.25197100630702
 31
0.0
 11
-11.38125259993864
 21
67.29497424981861
 31
0.0
 11
-11.64503025402124
 21
67.35843519060205
 31
0.0
  0
SPLINE
  5
11B
330
47
100
AcDbEntity
  8
0
  6
Continuous
 62
     7
100
AcDbSpline
210
0.0
220
0.0
230
1.0
 70
     8
 71
     3
 72
     9
 73
     5
 74
     3
 42
0.000000001
 43
0.0000000001
 44
0.00000001
 40
0.0
 40
0.0
 40
0.0
 40
0.0
 40
0.0739750712947689
 40
0.1446546420608136
 40
0.1446546420608136
 40
0.1446546420608136
 40
0.1446546420608136
 10
-12.43241060005892
 20
68.30513767529344
 30
0.0
 10
-12.44905010698523
 20
68.32337732778099
 30
0.0
 10
-12.48158783544414
 20
68.35904409093214
 30
0.0
 10
-12.50912867559628
 20
68.39869272112247
 30
0.0
 10
-12.52258537223933
 20
68.41806540752634
 30
0.0
 11
-12.43241060005892
 21
68.30513767529344
 31
0.0
 11
-12.48102232333065
 21
68.3608979801614
 31
0.0
 11
-12.52258537223933
 21
68.41806540752634
 31
0.0
  0
SPLINE
  5
11C
330
47
100
AcDbEntity
  8
0
  6
Continuous
 62
     7
100
AcDbSpline
210
0.0
220
0.0
230
1.0
 70
     8
 71
     3
 72
    11
 73
     7
 74
     5
 42
0.000000001
 43
0.0000000001
 44
0.00000001
 40
0.0
 40
0.0
 40
0.0
 40
0.0
 40
0.3077511399316473
 40
0.5865967107747283
 40
0.8334701918893199
 40
1.049105934362524
 40
1.049105934362524
 40
1.049105934362524
 40
1.049105934362524
 10
-11.64503025402124
 20
67.35843519060205
 30
0.0
 10
-11.74288760558171
 20
67.38985491695554
 30
0.0
 10
-11.92941103817477
 20
67.44974328085891
 30
0.0
 10
-12.17700642922354
 20
67.57714486200317
 30
0.0
 10
-12.38183516005788
 20
67.72022582448207
 30
0.0
 10
-12.47782978821821
 20
67.8417785947611
 30
0.0
 10
-12.52258537227809
 20
67.89845016522214
 30
0.0
 11
-11.64503025402124
 21
67.35843519060205
 31
0.0
 11
-11.93522623272824
 21
67.46089033691516
 31
0.0
 11
-12.18343144334058
 21
67.58796915838099
 31
0.0
 11
-12.3814079864625
 21
67.73545409184418
 31
0.0
 11
-12.52258537227809
 21
67.89845016522214
 31
0.0
  0
SPLINE
  5
11D
330
47
100
AcDbEntity
  8
0
  6
Continuous
 62
     7
100
AcDbSpline
210
0.0
220
0.0
230
1.0
 70
     8
 71
     3
 72
    17
 73
    13
 74
    11
 42
0.000000001
 43
0.0000000001
 44
0.00000001
 40
0.0
 40
0.0
 40
0.0
 40
0.0
 40
0.1672754116480816
 40
0.3630196425042572
 40
0.6001195494420478
 40
0.8774025111471204
 40
1.185276514538044
 40
1.509500417891559
 40
1.833724321024721
 40
2.141598323514268
 40
2.418881285838219
 40
2.655981198463331
 40
2.655981198463331
 40
2.655981198463331
 40
2.655981198463331
 10
-11.920030255405
 20
62.83345245570167
 30
0.0
 10
-11.91050553197064
 20
62.77744353079143
 30
0.0
 10
-11.88983504911588
 20
62.65589345450352
 30
0.0
 10
-11.74651584691798
 20
62.50373254173864
 30
0.0
 10
-11.5461977541293
 20
62.37770125655121
 30
0.0
 10
-11.28701803027263
 20
62.28201278728005
 30
0.0
 10
-10.98909350376996
 20
62.22195998331676
 30
0.0
 10
-10.67007672020405
 20
62.20159503080684
 30
0.0
 10
-10.3507858855766
 20
62.22168298704054
 30
0.0
 10
-10.05361687465115
 20
62.28301293639134
 30
0.0
 10
-9.792075654462728
 20
62.37456120445928
 30
0.0
 10
-9.652044521643894
 20
62.47476463064615
 30
0.0
 10
-9.587498500739642
 20
62.5209524555596
 30
0.0
 11
-11.920030255405
 21
62.83345245570167
 31
0.0
 11
-11.87743721637793
 21
62.67169059566935
 31
0.0
 11
-11.75256201016571
 21
62.5209524557534
 31
0.0
 11
-11.5539134962886
 21
62.39151083534717
 31
0.0
 11
-11.29503025547241
 21
62.29218657839868
 31
0.0
 11
-10.99355397561348
 21
62.22974897527152
 31
0.0
 11
-10.67003025550035
 21
62.20845245572728
 31
0.0
 11
-10.34650653538072
 21
62.22974897521361
 31
0.0
 11
-10.04503025550274
 21
62.29218657828679
 31
0.0
 11
-9.78614701465625
 21
62.39151083518892
 31
0.0
 11
-9.587498500739642
 21
62.5209524555596
 31
0.0
  0
SPLINE
  5
11E
330
47
100
AcDbEntity
  8
0
  6
Continuous
 62
     7
100
AcDbSpline
210
0.0
220
0.0
230
1.0
 70
     8
 71
     3
 72
     9
 73
     5
 74
     3
 42
0.000000001
 43
0.0000000001
 44
0.00000001
 40
0.0
 40
0.0
 40
0.0
 40
0.0
 40
0.1957442288397593
 40
0.3630196473062677
 40
0.3630196473062677
 40
0.3630196473062677
 40
0.3630196473062677
 10
-9.587498500739642
 20
62.5209524555596
 30
0.0
 10
-9.53913030947027
 20
62.56773369544665
 30
0.0
 10
-9.449428556012414
 20
62.65449237706193
 30
0.0
 10
-9.42930360209383
 20
62.77700157553418
 30
0.0
 10
-9.420030255405003
 20
62.83345245553043
 30
0.0
 11
-9.587498500739642
 21
62.5209524555596
 31
0.0
 11
-9.462623294467825
 21
62.67169059547857
 31
0.0
 11
-9.420030255405003
 21
62.83345245553043
 31
0.0
  0
SPLINE
  5
11F
330
47
100
AcDbEntity
  8
0
  6
Continuous
 62
     7
100
AcDbSpline
210
0.0
220
0.0
230
1.0
 70
     8
 71
     3
 72
    19
 73
    15
 74
    13
 42
0.000000001
 43
0.0000000001
 44
0.00000001
 40
0.0
 40
0.0
 40
0.0
 40
0.0
 40
0.1672754162737637
 40
0.3630196435991039
 40
0.6001195515911416
 40
0.8774025149244581
 40
1.185276520767098
 40
1.509500427361622
 40
1.833724333956148
 40
2.141598339798791
 40
2.418881303132111
 40
2.655981211124154
 40
2.851725438449484
 40
3.019000854723263
 40
3.019000854723263
 40
3.019000854723263
 40
3.019000854723263
 10
13.09663005646806
 20
56.33345229401458
 30
0.0
 10
13.08710534004659
 20
56.2774433803642
 30
0.0
 10
13.06643486561688
 20
56.15589333387445
 30
0.0
 10
12.92311552766245
 20
56.00373216212547
 30
0.0
 10
12.72279815166937
 20
55.87770214540875
 30
0.0
 10
12.46361506039046
 20
55.78200775461769
 30
0.0
 10
12.16570509753098
 20
55.72198056114546
 30
0.0
 10
11.84663005642478
 20
55.70151318392676
 30
0.0
 10
11.52755501532139
 20
55.72198056118917
 30
0.0
 10
11.22964505247012
 20
55.78200775470222
 30
0.0
 10
10.97046196120431
 20
55.87770214552879
 30
0.0
 10
10.77014458522851
 20
56.00373216227292
 30
0.0
 10
10.62682524729493
 20
56.15589333404158
 30
0.0
 10
10.60615477288186
 20
56.27744338053415
 30
0.0
 10
10.59663005646806
 20
56.33345229418583
 30
0.0
 11
13.09663005646806
 21
56.33345229401458
 31
0.0
 11
13.05403701741657
 21
56.17169043398386
 31
0.0
 11
12.9291618111772
 21
56.02095229408167
 31
0.0
 11
12.73051329727254
 21
55.89151067370094
 31
0.0
 11
12.47163005643099
 21
55.79218641678844
 31
0.0
 11
12.17015377655155
 21
55.72974881370569
 31
0.0
 11
11.84663005642525
 21
55.70845229421143
 31
0.0
 11
11.52310633630188
 21
55.72974881375001
 31
0.0
 11
11.22163005643099
 21
55.79218641687407
 31
0.0
 11
10.96274681560304
 21
55.89151067382202
 31
0.0
 11
10.76409830171611
 21
56.02095229422997
 31
0.0
 11
10.6392230954974
 21
56.17169043414927
 31
0.0
 11
10.59663005646806
 21
56.33345229418583
 31
0.0
  0
SPLINE
  5
120
330
47
100
AcDbEntity
  8
0
  6
Continuous
 62
     7
100
AcDbSpline
210
0.0
220
0.0
230
1.0
 70
     8
 71
     3
 72
    11
 73
     7
 74
     5
 42
0.000000001
 43
0.0000000001
 44
0.00000001
 40
0.0
 40
0.0
 40
0.0
 40
0.0
 40
0.2156357422673402
 40
0.4625092231613198
 40
0.7413547937852054
 40
1.049105933437255
 40
1.049105933437255
 40
1.049105933437255
 40
1.049105933437255
 10
9.994074938739985
 20
61.39845000501164
 30
0.0
 10
10.03883052264405
 20
61.34177843451348
 30
0.0
 10
10.13482515047331
 20
61.22022566415079
 30
0.0
 10
10.33965388094555
 20
61.0771447015124
 30
0.0
 10
10.58724927164003
 20
60.94974312020261
 30
0.0
 10
10.77377270402288
 20
60.88985475618573
 30
0.0
 10
10.87163005546736
 20
60.85843502977453
 30
0.0
 11
9.994074938739985
 21
61.39845000501164
 31
0.0
 11
10.13525232410912
 21
61.23545393151933
 31
0.0
 11
10.33322886684292
 21
61.08796899790443
 31
0.0
 11
10.58143407711807
 21
60.96089017626099
 31
0.0
 11
10.87163005546736
 21
60.85843502977453
 31
0.0
  0
ENDBLK
  5
49
330
47
100
AcDbEntity
  8
0
100
AcDbBlockEnd
  0
BLOCK
  5
4C
330
4A
100
AcDbEntity
  8
0
100
AcDbBlockBegin
  2
AllgSicht1
 70
     0
 10
-7.99999999829003
 20
78.0624999991569
 30
0.0
  3
AllgSicht1
  1

  0
INSERT
  5
4B
330
4A
100
AcDbEntity
  8
0
100
AcDbBlockReference
  2
DF_UP_6-select__1
 10
-16.3585222379285
 20
55.7084522941964
 30
0.0
  0
ENDBLK
  5
4D
330
4A
100
AcDbEntity
  8
0
100
AcDbBlockEnd
  0
BLOCK
  5
4F
330
4E
100
AcDbEntity
  8
0
100
AcDbBlockBegin
  2
DF_UP_6-select__2
 70
     0
 10
-109.9864994238676
 20
78.97499993982825
 30
0.0
  3
DF_UP_6-select__2
  1

  0
LINE
  5
121
330
4E
100
AcDbEntity
  8
1
  6
DOT_CENTER
 62
     2
100
AcDbLine
 10
-102.4364994238281
 20
83.07000031715742
 30
0.0
 11
-102.4364994238281
 21
78.78000031480096
 31
0.0
  0
LINE
  5
122
330
4E
100
AcDbEntity
  8
1
  6
DOT_CENTER
 62
     2
100
AcDbLine
 10
-100.2914994226498
 20
80.92500031597919
 30
0.0
 11
-104.5814994250063
 21
80.92500031597919
 31
0.0
  0
LINE
  5
123
330
4E
100
AcDbEntity
  8
1
  6
DOT_CENTER
 62
     2
100
AcDbLine
 10
-76.43649942372042
 20
83.0699999440571
 30
0.0
 11
-76.43649942372042
 21
78.77999994175458
 31
0.0
  0
LINE
  5
124
330
4E
100
AcDbEntity
  8
1
  6
DOT_CENTER
 62
     2
100
AcDbLine
 10
-74.29149942256916
 20
80.92499994290584
 30
0.0
 11
-78.58149942487168
 21
80.92499994290584
 31
0.0
  0
LINE
  5
125
330
4E
100
AcDbEntity
  8
0
  6
Continuous
 62
     7
100
AcDbLine
 10
-77.54547804743379
 20
79.32104657155577
 30
0.0
 11
-74.83254605389399
 21
82.03397856452884
 31
0.0
  0
LINE
  5
126
330
4E
100
AcDbEntity
  8
0
  6
Continuous
 62
     7
100
AcDbLine
 10
-99.08764005295092
 20
82.62499994650143
 30
0.0
 11
-99.08764005292484
 21
82.8749999464365
 31
0.0
  0
LINE
  5
127
330
4E
100
AcDbEntity
  8
0
  6
Continuous
 62
     7
100
AcDbLine
 10
-108.7452382350417
 20
82.62499994750874
 30
0.0
 11
-108.7452382349591
 21
83.42499994745455
 31
0.0
  0
LINE
  5
128
330
4E
100
AcDbEntity
  8
0
  6
Continuous
 62
     7
100
AcDbLine
 10
-109.9864994237841
 20
83.4249999466553
 30
0.0
 11
-109.9864994238676
 21
82.62499994669267
 31
0.0
  0
LINE
  5
129
330
4E
100
AcDbEntity
  8
0
  6
Continuous
 62
     7
100
AcDbLine
 10
-82.7304457189574
 20
83.42499994474117
 30
0.0
 11
-65.9051194947121
 21
83.42499994012084
 31
0.0
  0
LINE
  5
12A
330
4E
100
AcDbEntity
  8
0
  6
Continuous
 62
     7
100
AcDbLine
 10
-108.7452382349591
 20
83.42499994745455
 30
0.0
 11
-90.24255312904991
 21
83.42499994552469
 31
0.0
  0
LINE
  5
12B
330
4E
100
AcDbEntity
  8
0
  6
Continuous
 62
     7
100
AcDbLine
 10
-90.24255312904991
 20
83.42499994552469
 30
0.0
 11
-90.01962831947426
 21
83.42499994533546
 31
0.0
  0
LINE
  5
12C
330
4E
100
AcDbEntity
  8
0
  6
Continuous
 62
     7
100
AcDbLine
 10
-108.7452382349591
 20
83.42499994745455
 30
0.0
 11
-109.9864994237841
 21
83.4249999466553
 31
0.0
  0
LINE
  5
12D
330
4E
100
AcDbEntity
  8
0
  6
Continuous
 62
     7
100
AcDbLine
 10
-65.90444920020846
 20
83.42499993999266
 30
0.0
 11
-65.9051194947121
 21
83.42499994012084
 31
0.0
  0
LINE
  5
12E
330
4E
100
AcDbEntity
  8
0
  6
Continuous
 62
     7
100
AcDbLine
 10
-90.2425531290442
 20
82.62499994557888
 30
0.0
 11
-90.24255312904991
 21
83.42499994552469
 31
0.0
  0
LINE
  5
12F
330
4E
100
AcDbEntity
  8
0
  6
Continuous
 62
     7
100
AcDbLine
 10
-99.68649943807169
 20
82.62499994442925
 30
0.0
 11
-99.81396023152364
 21
78.97500031657796
 31
0.0
  0
LINE
  5
130
330
4E
100
AcDbEntity
  8
0
  6
Continuous
 62
     7
100
AcDbLine
 10
-82.95337052865005
 20
82.72500031497827
 30
0.0
 11
-90.01962831947004
 21
82.72500031571582
 31
0.0
  0
LINE
  5
131
330
4E
100
AcDbEntity
  8
0
  6
Continuous
 62
     7
100
AcDbLine
 10
-90.01962831947426
 20
83.42499994533546
 30
0.0
 11
-90.01962831947004
 21
82.72500031571582
 31
0.0
  0
LINE
  5
132
330
4E
100
AcDbEntity
  8
0
  6
Continuous
 62
     7
100
AcDbLine
 10
-82.95337052849976
 20
83.42499994459843
 30
0.0
 11
-90.01962831947426
 21
83.42499994533546
 31
0.0
  0
LINE
  5
133
330
4E
100
AcDbEntity
  8
0
  6
Continuous
 62
     7
100
AcDbLine
 10
-99.81396023152364
 20
78.97500031657796
 30
0.0
 11
-101.1364994228797
 21
78.97500031515142
 31
0.0
  0
LINE
  5
134
330
4E
100
AcDbEntity
  8
0
  6
Continuous
 62
     7
100
AcDbLine
 10
-101.1364994231782
 20
79.47155612994206
 30
0.0
 11
-101.1364994228797
 21
78.97500031515142
 31
0.0
  0
LINE
  5
135
330
4E
100
AcDbEntity
  8
0
  6
Continuous
 62
     7
100
AcDbLine
 10
-76.43649942563005
 20
78.97499994132113
 30
0.0
 11
-77.73649942562942
 21
78.97499994237413
 31
0.0
  0
LINE
  5
136
330
4E
100
AcDbEntity
  8
0
  6
Continuous
 62
     7
100
AcDbLine
 10
-79.05903861698543
 20
78.97499994407673
 30
0.0
 11
-77.73649942562942
 21
78.97499994237413
 31
0.0
  0
LINE
  5
137
330
4E
100
AcDbEntity
  8
0
  6
Continuous
 62
     7
100
AcDbLine
 10
-77.73649942562942
 20
78.97499994237413
 30
0.0
 11
-77.73649942522174
 21
79.47155575763614
 31
0.0
  0
LINE
  5
138
330
4E
100
AcDbEntity
  8
0
  6
Continuous
 62
     7
100
AcDbLine
 10
-82.73044571913005
 20
82.62499994479535
 30
0.0
 11
-79.18649942260788
 21
82.62499994229105
 31
0.0
  0
LINE
  5
139
330
4E
100
AcDbEntity
  8
0
  6
Continuous
 62
     7
100
AcDbLine
 10
-109.9864994238676
 20
82.62499994669267
 30
0.0
 11
-108.7452382350417
 21
82.62499994750874
 31
0.0
  0
LINE
  5
13A
330
4E
100
AcDbEntity
  8
0
  6
Continuous
 62
     7
100
AcDbLine
 10
-93.9853587946229
 20
82.87499994590432
 30
0.0
 11
-99.08764005292484
 21
82.8749999464365
 31
0.0
  0
LINE
  5
13B
330
4E
100
AcDbEntity
  8
0
  6
Continuous
 62
     7
100
AcDbLine
 10
-105.1864994122107
 20
82.62499994500291
 30
0.0
 11
-108.7452382350417
 21
82.62499994750874
 31
0.0
  0
LINE
  5
13C
330
4E
100
AcDbEntity
  8
0
  6
Continuous
 62
     7
100
AcDbLine
 10
-99.08764005295092
 20
82.62499994650143
 30
0.0
 11
-99.68649943807169
 21
82.62499994442925
 31
0.0
  0
LINE
  5
13D
330
4E
100
AcDbEntity
  8
0
  6
Continuous
 62
     7
100
AcDbLine
 10
-99.68649943807169
 20
82.62499994442925
 30
0.0
 11
-101.4812501062428
 21
82.62499994466694
 31
0.0
  0
LINE
  5
13E
330
4E
100
AcDbEntity
  8
0
  6
Continuous
 62
     7
100
AcDbLine
 10
-90.2425531290442
 20
82.62499994557888
 30
0.0
 11
-93.98535879464897
 21
82.62499994596926
 31
0.0
  0
LINE
  5
13F
330
4E
100
AcDbEntity
  8
0
  6
Continuous
 62
     7
100
AcDbLine
 10
-88.98649942387311
 20
82.6249999444957
 30
0.0
 11
-90.2425531290442
 21
82.62499994557888
 31
0.0
  0
LINE
  5
140
330
4E
100
AcDbEntity
  8
0
  6
Continuous
 62
     7
100
AcDbLine
 10
-103.3917487415054
 20
82.62499994685996
 30
0.0
 11
-105.1864994122107
 21
82.62499994500291
 31
0.0
  0
LINE
  5
141
330
4E
100
AcDbEntity
  8
0
  6
Continuous
 62
     7
100
AcDbLine
 10
-93.9853587946229
 20
82.87499994590432
 30
0.0
 11
-93.98535879464897
 21
82.62499994596926
 31
0.0
  0
LINE
  5
142
330
4E
100
AcDbEntity
  8
0
  6
Continuous
 62
     7
100
AcDbLine
 10
-67.97901251565864
 20
82.62499994325674
 30
0.0
 11
-67.97901251563258
 21
82.87499994325026
 31
0.0
  0
LINE
  5
143
330
4E
100
AcDbEntity
  8
0
  6
Continuous
 62
     7
100
AcDbLine
 10
-73.68649942259958
 20
82.6249999418446
 30
0.0
 11
-75.481250765314
 21
82.62499994395196
 31
0.0
  0
LINE
  5
144
330
4E
100
AcDbEntity
  8
0
  6
Continuous
 62
     7
100
AcDbLine
 10
-73.09550522006936
 20
82.6249999437904
 30
0.0
 11
-73.68649942259958
 21
82.6249999418446
 31
0.0
  0
LINE
  5
145
330
4E
100
AcDbEntity
  8
0
  6
Continuous
 62
     7
100
AcDbLine
 10
-73.0955052200433
 20
82.8749999437839
 30
0.0
 11
-73.09550522006936
 21
82.6249999437904
 31
0.0
  0
LINE
  5
146
330
4E
100
AcDbEntity
  8
0
  6
Continuous
 62
     7
100
AcDbLine
 10
-67.97901251563258
 20
82.87499994325026
 30
0.0
 11
-73.0955052200433
 21
82.8749999437839
 31
0.0
  0
LINE
  5
147
330
4E
100
AcDbEntity
  8
0
  6
Continuous
 62
     7
100
AcDbLine
 10
-67.97901251565864
 20
82.62499994325674
 30
0.0
 11
-65.90511949479558
 21
82.62499994012308
 31
0.0
  0
LINE
  5
148
330
4E
100
AcDbEntity
  8
0
  6
Continuous
 62
     7
100
AcDbLine
 10
-65.90444920029194
 20
82.62499993999256
 30
0.0
 11
-65.90511949479558
 21
82.62499994012308
 31
0.0
  0
LINE
  5
149
330
4E
100
AcDbEntity
  8
0
  6
Continuous
 62
     7
100
AcDbLine
 10
-88.98649942387311
 20
82.6249999444957
 30
0.0
 11
-83.98649942387328
 21
82.62499994397419
 31
0.0
  0
LINE
  5
14A
330
4E
100
AcDbEntity
  8
0
  6
Continuous
 62
     7
100
AcDbLine
 10
-79.18649942260788
 20
82.62499994229105
 30
0.0
 11
-77.39174808243254
 21
82.62499994415123
 31
0.0
  0
LINE
  5
14B
330
4E
100
AcDbEntity
  8
0
  6
Continuous
 62
     7
100
AcDbLine
 10
-64.22776061313257
 20
82.62499994286549
 30
0.0
 11
-62.98649942387877
 21
82.62499994179046
 31
0.0
  0
LINE
  5
14C
330
4E
100
AcDbEntity
  8
0
  6
Continuous
 62
     7
100
AcDbLine
 10
-65.90444920029194
 20
82.62499993999256
 30
0.0
 11
-64.22776061313257
 21
82.62499994286549
 31
0.0
  0
LINE
  5
14D
330
4E
100
AcDbEntity
  8
0
  6
Continuous
 62
     7
100
AcDbLine
 10
-65.90444920020846
 20
83.42499993999266
 30
0.0
 11
-64.2277606130482
 21
83.4249999428113
 31
0.0
  0
LINE
  5
14E
330
4E
100
AcDbEntity
  8
0
  6
Continuous
 62
     7
100
AcDbLine
 10
-64.2277606130482
 20
83.4249999428113
 30
0.0
 11
-64.22776061313257
 21
82.62499994286549
 31
0.0
  0
LINE
  5
14F
330
4E
100
AcDbEntity
  8
0
  6
Continuous
 62
     7
100
AcDbLine
 10
-82.7304457189574
 20
83.42499994474117
 30
0.0
 11
-82.73044571913005
 21
82.62499994479535
 31
0.0
  0
LINE
  5
150
330
4E
100
AcDbEntity
  8
0
  6
Continuous
 62
     7
100
AcDbLine
 10
-83.98649942387328
 20
82.62499994397419
 30
0.0
 11
-82.73044571913005
 21
82.62499994479535
 31
0.0
  0
LINE
  5
151
330
4E
100
AcDbEntity
  8
0
  6
Continuous
 62
     7
100
AcDbLine
 10
-82.95337052849976
 20
83.42499994459843
 30
0.0
 11
-82.95337052865005
 21
82.72500031497827
 31
0.0
  0
LINE
  5
152
330
4E
100
AcDbEntity
  8
0
  6
Continuous
 62
     7
100
AcDbLine
 10
-88.98649942387311
 20
82.6249999444957
 30
0.0
 11
-88.98649942386268
 21
82.72500031560799
 31
0.0
  0
LINE
  5
153
330
4E
100
AcDbEntity
  8
0
  6
Continuous
 62
     7
100
AcDbLine
 10
-83.98649942386284
 20
82.7250003150861
 30
0.0
 11
-83.98649942387328
 21
82.62499994397419
 31
0.0
  0
LINE
  5
154
330
4E
100
AcDbEntity
  8
0
  6
Continuous
 62
     7
100
AcDbLine
 10
-82.7304457189574
 20
83.42499994474117
 30
0.0
 11
-82.95337052849976
 21
83.42499994459843
 31
0.0
  0
LINE
  5
155
330
4E
100
AcDbEntity
  8
0
  6
Continuous
 62
     7
100
AcDbLine
 10
-62.98649942387877
 20
82.62499994179046
 30
0.0
 11
-62.98649942379527
 21
83.42499994175313
 31
0.0
  0
LINE
  5
156
330
4E
100
AcDbEntity
  8
0
  6
Continuous
 62
     7
100
AcDbLine
 10
-64.2277606130482
 20
83.4249999428113
 30
0.0
 11
-62.98649942379527
 21
83.42499994175313
 31
0.0
  0
LINE
  5
157
330
4E
100
AcDbEntity
  8
0
  6
Continuous
 62
     7
100
AcDbLine
 10
-103.5454780474356
 20
79.32104694460511
 30
0.0
 11
-100.8325460538952
 21
82.03397893757804
 31
0.0
  0
LINE
  5
158
330
4E
100
AcDbEntity
  8
0
  6
Continuous
 62
     7
100
AcDbLine
 10
-101.327520800675
 20
82.52895368446102
 30
0.0
 11
-104.0404527942079
 21
79.81602169149403
 31
0.0
  0
LINE
  5
159
330
4E
100
AcDbEntity
  8
0
  6
Continuous
 62
     7
100
AcDbLine
 10
-105.0590386142341
 20
78.97500031342439
 30
0.0
 11
-103.7364994228797
 21
78.97500031421956
 31
0.0
  0
LINE
  5
15A
330
4E
100
AcDbEntity
  8
0
  6
Continuous
 62
     7
100
AcDbLine
 10
-103.7364994231782
 20
79.47155612829141
 30
0.0
 11
-103.7364994228797
 21
78.97500031421956
 31
0.0
  0
LINE
  5
15B
330
4E
100
AcDbEntity
  8
0
  6
Continuous
 62
     7
100
AcDbLine
 10
-105.0590386142341
 20
78.97500031342439
 30
0.0
 11
-105.1864994122107
 21
82.62499994500291
 31
0.0
  0
LINE
  5
15C
330
4E
100
AcDbEntity
  8
0
  6
Continuous
 62
     7
100
AcDbLine
 10
-103.7364994228797
 20
78.97500031421956
 30
0.0
 11
-102.436499422879
 21
78.9750003143698
 31
0.0
  0
LINE
  5
15D
330
4E
100
AcDbEntity
  8
0
  6
Continuous
 62
     7
100
AcDbLine
 10
-102.436499422879
 20
78.9750003143698
 30
0.0
 11
-101.1364994228797
 21
78.97500031515142
 31
0.0
  0
LINE
  5
15E
330
4E
100
AcDbEntity
  8
0
  6
Continuous
 62
     7
100
AcDbLine
 10
-75.32752080067269
 20
82.52895331141133
 30
0.0
 11
-78.04045279420636
 21
79.81602131844437
 31
0.0
  0
LINE
  5
15F
330
4E
100
AcDbEntity
  8
0
  6
Continuous
 62
     7
100
AcDbLine
 10
-73.81396023427494
 20
78.97499993982825
 30
0.0
 11
-73.68649942259958
 21
82.6249999418446
 31
0.0
  0
LINE
  5
160
330
4E
100
AcDbEntity
  8
0
  6
Continuous
 62
     7
100
AcDbLine
 10
-75.13649942562938
 20
78.97499994026815
 30
0.0
 11
-76.43649942563005
 21
78.97499994132113
 31
0.0
  0
LINE
  5
161
330
4E
100
AcDbEntity
  8
0
  6
Continuous
 62
     7
100
AcDbLine
 10
-75.13649942522169
 20
79.47155575505386
 30
0.0
 11
-75.13649942562938
 21
78.97499994026815
 31
0.0
  0
LINE
  5
162
330
4E
100
AcDbEntity
  8
0
  6
Continuous
 62
     7
100
AcDbLine
 10
-73.81396023427494
 20
78.97499993982825
 30
0.0
 11
-75.13649942562938
 21
78.97499994026815
 31
0.0
  0
LINE
  5
163
330
4E
100
AcDbEntity
  8
0
  6
Continuous
 62
     7
100
AcDbLine
 10
-79.18649942260788
 20
82.62499994229105
 30
0.0
 11
-79.05903861698543
 21
78.97499994407673
 31
0.0
  0
ARC
  5
164
330
4E
100
AcDbEntity
  8
0
  6
Continuous
 62
     7
100
AcDbCircle
 10
-102.4364994276256
 20
80.92500031724526
 30
0.0
 40
1.9499999998041
100
AcDbArc
 50
55.33989075631903
 51
60.66786749531133
  0
ARC
  5
165
330
4E
100
AcDbEntity
  8
0
  6
Continuous
 62
     7
100
AcDbCircle
 10
-102.4364994258255
 20
80.9250003150122
 30
0.0
 40
1.950000000869097
100
AcDbArc
 50
60.66786757356369
 51
119.3321322948985
  0
ARC
  5
166
330
4E
100
AcDbEntity
  8
0
  6
Continuous
 62
     7
100
AcDbCircle
 10
-102.4364994238133
 20
80.92500031477405
 30
0.0
 40
1.949999999668684
100
AcDbArc
 50
34.6601090983083
 51
55.33989088974967
  0
ARC
  5
167
330
4E
100
AcDbEntity
  8
0
  6
Continuous
 62
     7
100
AcDbCircle
 10
-102.4364994241071
 20
80.92500031454252
 30
0.0
 40
1.950000000042061
100
AcDbArc
 50
311.8103149312913
 51
34.66010909899483
  0
ARC
  5
168
330
4E
100
AcDbEntity
  8
0
  6
Continuous
 62
     7
100
AcDbCircle
 10
-76.43649942380212
 20
80.92499994139867
 30
0.0
 40
1.950000000077535
100
AcDbArc
 50
235.3398908804314
 51
269.999999946291
  0
ARC
  5
169
330
4E
100
AcDbEntity
  8
0
  6
Continuous
 62
     7
100
AcDbCircle
 10
-76.43649942176296
 20
80.92499993967374
 30
0.0
 40
1.949999999818402
100
AcDbArc
 50
228.1896849631015
 51
235.339890802325
  0
ARC
  5
16A
330
4E
100
AcDbEntity
  8
0
  6
Continuous
 62
     7
100
AcDbCircle
 10
-76.4364994240506
 20
80.9249999414762
 30
0.0
 40
1.950000002162987
100
AcDbArc
 50
60.66788986768932
 51
119.3321101203581
  0
ARC
  5
16B
330
4E
100
AcDbEntity
  8
0
  6
Continuous
 62
     7
100
AcDbCircle
 10
-102.4364994238281
 20
80.92500031597919
 30
0.0
 40
1.950000001004537
100
AcDbArc
 50
119.3321323599815
 51
214.6601091312243
  0
ARC
  5
16C
330
4E
100
AcDbEntity
  8
0
  6
Continuous
 62
     7
100
AcDbCircle
 10
-102.4364994236644
 20
80.92500031489142
 30
0.0
 40
1.950000000521602
100
AcDbArc
 50
235.3398908844687
 51
270.0000000230771
  0
ARC
  5
16D
330
4E
100
AcDbEntity
  8
0
  6
Continuous
 62
     7
100
AcDbCircle
 10
-102.4364994241787
 20
80.92500031511244
 30
0.0
 40
1.950000000410907
100
AcDbArc
 50
228.1896851544608
 51
235.3398909005919
  0
ARC
  5
16E
330
4E
100
AcDbEntity
  8
0
  6
Continuous
 62
     7
100
AcDbCircle
 10
-102.4364994236297
 20
80.92500031453422
 30
0.0
 40
1.950000000345966
100
AcDbArc
 50
214.6601090929866
 51
228.1896851311108
  0
ARC
  5
16F
330
4E
100
AcDbEntity
  8
0
  6
Continuous
 62
     7
100
AcDbCircle
 10
-102.4364994244276
 20
80.9250003148685
 30
0.0
 40
1.950000000498704
100
AcDbArc
 50
270.0000000455016
 51
311.8103149319248
  0
ARC
  5
170
330
4E
100
AcDbEntity
  8
0
  6
Continuous
 62
     7
100
AcDbCircle
 10
-76.43649942405614
 20
80.92499994148174
 30
0.0
 40
1.950000000007675
100
AcDbArc
 50
34.66010910010576
 51
55.33989088787901
  0
ARC
  5
171
330
4E
100
AcDbEntity
  8
0
  6
Continuous
 62
     7
100
AcDbCircle
 10
-76.43649942405003
 20
80.9249999414809
 30
0.0
 40
1.950000000003147
100
AcDbArc
 50
311.8103148495082
 51
34.66010910022813
  0
ARC
  5
172
330
4E
100
AcDbEntity
  8
0
  6
Continuous
 62
     7
100
AcDbCircle
 10
-76.4364994437014
 20
80.92499995375354
 30
0.0
 40
1.95000000108602
100
AcDbArc
 50
55.3398902080258
 51
60.6678891876096
  0
ARC
  5
173
330
4E
100
AcDbEntity
  8
0
  6
Continuous
 62
     7
100
AcDbCircle
 10
-76.43649942425357
 20
80.92499994139868
 30
0.0
 40
1.950000000077551
100
AcDbArc
 50
269.9999999595557
 51
311.8103148555765
  0
ARC
  5
174
330
4E
100
AcDbEntity
  8
0
  6
Continuous
 62
     7
100
AcDbCircle
 10
-76.43649942372042
 20
80.92499994290584
 30
0.0
 40
1.950000001078364
100
AcDbArc
 50
119.3321101493934
 51
214.6601091288782
  0
ARC
  5
175
330
4E
100
AcDbEntity
  8
0
  6
Continuous
 62
     7
100
AcDbCircle
 10
-76.43649942505309
 20
80.92499994261232
 30
0.0
 40
1.949999999815274
100
AcDbArc
 50
214.6601091440531
 51
228.1896850927183
  0
ENDBLK
  5
50
330
4E
100
AcDbEntity
  8
0
100
AcDbBlockEnd
  0
BLOCK
  5
53
330
51
100
AcDbEntity
  8
0
100
AcDbBlockBegin
  2
Drfsicht1
 70
     0
 10
-100.5875000631124
 20
83.06249999155415
 30
0.0
  3
Drfsicht1
  1

  0
INSERT
  5
52
330
51
100
AcDbEntity
  8
0
100
AcDbBlockReference
  2
DF_UP_6-select__2
 10
-109.9864994238676
 20
78.97499993982825
 30
0.0
  0
DIMENSION
  5
183
330
51
100
AcDbEntity
  8
1
100
AcDbDimension
  2
*D17
 10
-52.8053046385121
 20
78.97499993982825
 30
0.0
 11
-56.2303046385121
 21
92.72474919540997
 31
0.0
 70
    32
  1
<>
 71
     5
 42
-1.0
 53
90.0
  3
ME10_DIM_10
100
AcDbAlignedDimension
 13
-64.2277606130482
 23
83.4249999428113
 33
0.0
 14
-73.81396023427494
 24
78.97499993982825
 34
0.0
 50
90.0
100
AcDbRotatedDimension
  0
DIMENSION
  5
190
330
51
100
AcDbEntity
  8
1
100
AcDbDimension
  2
*D18
 10
-118.7452380340943
 20
82.62499994500291
 30
0.0
 11
-122.1702380340943
 21
92.19920893971397
 31
0.0
 70
    32
  1
<>
 71
     5
 42
-1.0
 53
90.0
  3
ME10_DIM_11
100
AcDbAlignedDimension
 13
-90.24255312904991
 23
83.42499994552469
 33
0.0
 14
-105.1864994122107
 24
82.62499994500291
 34
0.0
 50
90.0
100
AcDbRotatedDimension
  0
ENDBLK
  5
54
330
51
100
AcDbEntity
  8
0
100
AcDbBlockEnd
  0
BLOCK
  5
56
330
55
100
AcDbEntity
  8
0
100
AcDbBlockBegin
  2
DF_UP_6-select__3
 70
     0
 10
-20.01350050535228
 20
125.9500003015971
 30
0.0
  3
DF_UP_6-select__3
  1

  0
LINE
  5
191
330
55
100
AcDbEntity
  8
1
  6
DOT_CENTER
 62
     2
100
AcDbLine
 10
-6.56350050509768
 20
125.9500003016197
 30
0.0
 11
-6.56350050509768
 21
130.1500003015969
 31
0.0
  0
LINE
  5
192
330
55
100
AcDbEntity
  8
1
  6
DOT_CENTER
 62
     2
100
AcDbLine
 10
19.43649949490463
 20
125.9500003015971
 30
0.0
 11
19.43649949490463
 21
130.1500003015968
 31
0.0
  0
LINE
  5
193
330
55
100
AcDbEntity
  8
1
  6
Continuous
 62
     2
100
AcDbLine
 10
20.41149949490463
 20
125.9500003015971
 30
0.0
 11
20.41149949490463
 21
130.1500003015968
 31
0.0
  0
LINE
  5
194
330
55
100
AcDbEntity
  8
1
  6
Continuous
 62
     2
100
AcDbLine
 10
18.46149949490463
 20
125.9500003015971
 30
0.0
 11
18.46149949490463
 21
130.1500003015968
 31
0.0
  0
LINE
  5
195
330
55
100
AcDbEntity
  8
1
  6
Continuous
 62
     2
100
AcDbLine
 10
-5.58850050509768
 20
125.9500003016197
 30
0.0
 11
-5.58850050509768
 21
130.1500003015969
 31
0.0
  0
LINE
  5
196
330
55
100
AcDbEntity
  8
1
  6
Continuous
 62
     2
100
AcDbLine
 10
-7.53850050509768
 20
125.9500003016197
 30
0.0
 11
-7.53850050509768
 21
130.1500003015969
 31
0.0
  0
LINE
  5
197
330
55
100
AcDbEntity
  8
0
  6
Continuous
 62
     7
100
AcDbLine
 10
-18.77223931609934
 20
155.8500003011021
 30
0.0
 11
-20.01350050535228
 21
147.8768769231463
 31
0.0
  0
LINE
  5
198
330
55
100
AcDbEntity
  8
0
  6
Continuous
 62
     7
100
AcDbLine
 10
-20.01350050535228
 20
138.2000003228841
 30
0.0
 11
-20.01350050535228
 21
147.8768769231463
 31
0.0
  0
LINE
  5
199
330
55
100
AcDbEntity
  8
0
  6
Continuous
 62
     7
100
AcDbLine
 10
0.98649949464111
 20
142.9250003013197
 30
0.0
 11
0.98649949464224
 21
147.8209409389369
 31
0.0
  0
LINE
  5
19A
330
55
100
AcDbEntity
  8
0
  6
Continuous
 62
     7
100
AcDbLine
 10
-0.26955421019014
 20
155.8500003011057
 30
0.0
 11
-18.77223931609934
 21
155.8500003011021
 31
0.0
  0
LINE
  5
19B
330
55
100
AcDbEntity
  8
0
  6
Continuous
 62
     7
100
AcDbLine
 10
25.74523830581155
 20
155.8500003013189
 30
0.0
 11
7.24255319990237
 21
155.8500003013198
 31
0.0
  0
LINE
  5
19C
330
55
100
AcDbEntity
  8
0
  6
Continuous
 62
     7
100
AcDbLine
 10
-0.26955421019014
 20
155.8500003011057
 30
0.0
 11
-0.04662940064777
 21
154.4250003013209
 31
0.0
  0
LINE
  5
19D
330
55
100
AcDbEntity
  8
0
  6
Continuous
 62
     7
100
AcDbLine
 10
0.18802829364285
 20
152.9250003013205
 30
0.0
 11
0.98649949464224
 21
147.8209409389369
 31
0.0
  0
LINE
  5
19E
330
55
100
AcDbEntity
  8
0
  6
Continuous
 62
     7
100
AcDbLine
 10
-5.31350050509768
 20
125.9500003016197
 30
0.0
 11
-7.81350050509768
 21
125.9500003016197
 31
0.0
  0
LINE
  5
19F
330
55
100
AcDbEntity
  8
0
  6
Continuous
 62
     7
100
AcDbLine
 10
-5.31350050509768
 20
125.9500003016197
 30
0.0
 11
-5.31350050509768
 21
130.1500003015969
 31
0.0
  0
LINE
  5
1A0
330
55
100
AcDbEntity
  8
0
  6
Continuous
 62
     7
100
AcDbLine
 10
-7.81350050509768
 20
125.9500003016197
 30
0.0
 11
-7.81350050509768
 21
130.1500003015969
 31
0.0
  0
LINE
  5
1A1
330
55
100
AcDbEntity
  8
0
  6
Continuous
 62
     7
100
AcDbLine
 10
0.98649949463848
 20
131.5015442646092
 30
0.0
 11
-3.61350050499664
 21
130.15000030132
 31
0.0
  0
LINE
  5
1A2
330
55
100
AcDbEntity
  8
0
  6
Continuous
 62
     7
100
AcDbLine
 10
0.98649949464111
 20
142.9250003013197
 30
0.0
 11
5.9864994946432
 21
142.9250003013197
 31
0.0
  0
LINE
  5
1A3
330
55
100
AcDbEntity
  8
0
  6
Continuous
 62
     7
100
AcDbLine
 10
-7.81350050509768
 20
130.1500003015969
 30
0.0
 11
-17.09555072893908
 21
130.15000030132
 31
0.0
  0
LINE
  5
1A4
330
55
100
AcDbEntity
  8
0
  6
Continuous
 62
     7
100
AcDbLine
 10
-5.31350050509768
 20
130.1500003015969
 30
0.0
 11
-7.81350050509768
 21
130.1500003015969
 31
0.0
  0
LINE
  5
1A5
330
55
100
AcDbEntity
  8
0
  6
Continuous
 62
     7
100
AcDbLine
 10
-3.61350050499664
 20
130.15000030132
 30
0.0
 11
-5.31350050509768
 21
130.1500003015969
 31
0.0
  0
LINE
  5
1A6
330
55
100
AcDbEntity
  8
0
  6
Continuous
 62
     7
100
AcDbLine
 10
-17.09555072893908
 20
130.15000030132
 30
0.0
 11
-17.09488043443545
 21
131.2500003011023
 31
0.0
  0
LINE
  5
1A7
330
55
100
AcDbEntity
  8
0
  6
Continuous
 62
     7
100
AcDbLine
 10
0.98649949463848
 20
131.5015442646092
 30
0.0
 11
0.98649949464077
 21
141.4250003013209
 31
0.0
  0
LINE
  5
1A8
330
55
100
AcDbEntity
  8
0
  6
Continuous
 62
     7
100
AcDbLine
 10
24.06787942415133
 20
131.2500003013188
 30
0.0
 11
24.06854971865526
 21
130.15000030132
 31
0.0
  0
LINE
  5
1A9
330
55
100
AcDbEntity
  8
0
  6
Continuous
 62
     7
100
AcDbLine
 10
18.18649949490463
 20
130.1500003015968
 30
0.0
 11
10.58649949464912
 21
130.15000030132
 31
0.0
  0
LINE
  5
1AA
330
55
100
AcDbEntity
  8
0
  6
Continuous
 62
     7
100
AcDbLine
 10
-17.7635005050492
 20
131.2500003011022
 30
0.0
 11
-17.76350049600146
 21
138.2000003202406
 31
0.0
  0
LINE
  5
1AB
330
55
100
AcDbEntity
  8
0
  6
Continuous
 62
     7
100
AcDbLine
 10
-17.09488043443545
 20
131.2500003011023
 30
0.0
 11
-17.7635005050492
 21
131.2500003011022
 31
0.0
  0
LINE
  5
1AC
330
55
100
AcDbEntity
  8
0
  6
Continuous
 62
     7
100
AcDbLine
 10
24.06854971865526
 20
130.15000030132
 30
0.0
 11
20.68649949490463
 21
130.1500003015968
 31
0.0
  0
LINE
  5
1AD
330
55
100
AcDbEntity
  8
0
  6
Continuous
 62
     7
100
AcDbLine
 10
20.68649949490463
 20
130.1500003015968
 30
0.0
 11
18.18649949490463
 21
130.1500003015968
 31
0.0
  0
LINE
  5
1AE
330
55
100
AcDbEntity
  8
0
  6
Continuous
 62
     7
100
AcDbLine
 10
26.98649949471307
 20
138.2000003231011
 30
0.0
 11
26.98649949463659
 21
147.8768769261194
 31
0.0
  0
LINE
  5
1AF
330
55
100
AcDbEntity
  8
0
  6
Continuous
 62
     7
100
AcDbLine
 10
5.98649949464355
 20
141.4250003013209
 30
0.0
 11
0.98649949464077
 21
141.4250003013209
 31
0.0
  0
LINE
  5
1B0
330
55
100
AcDbEntity
  8
0
  6
Continuous
 62
     7
100
AcDbLine
 10
6.78497069603633
 20
152.9250003013205
 30
0.0
 11
5.98649949464208
 21
147.8209409364078
 31
0.0
  0
LINE
  5
1B1
330
55
100
AcDbEntity
  8
0
  6
Continuous
 62
     7
100
AcDbLine
 10
5.98649949464208
 20
147.8209409364078
 30
0.0
 11
5.9864994946432
 21
142.9250003013197
 31
0.0
  0
LINE
  5
1B2
330
55
100
AcDbEntity
  8
0
  6
Continuous
 62
     7
100
AcDbLine
 10
-0.04662940064777
 20
154.4250003013209
 30
0.0
 11
7.01962839032673
 21
154.4250003013209
 31
0.0
  0
LINE
  5
1B3
330
55
100
AcDbEntity
  8
0
  6
Continuous
 62
     7
100
AcDbLine
 10
25.74523830581155
 20
155.8500003013189
 30
0.0
 11
26.98649949463659
 21
147.8768769261194
 31
0.0
  0
LINE
  5
1B4
330
55
100
AcDbEntity
  8
0
  6
Continuous
 62
     7
100
AcDbLine
 10
6.78497069603633
 20
152.9250003013205
 30
0.0
 11
0.18802829364285
 21
152.9250003013205
 31
0.0
  0
LINE
  5
1B5
330
55
100
AcDbEntity
  8
0
  6
Continuous
 62
     7
100
AcDbLine
 10
26.98649949471307
 20
138.2000003231011
 30
0.0
 11
24.73649948571632
 21
138.2000003204572
 31
0.0
  0
LINE
  5
1B6
330
55
100
AcDbEntity
  8
0
  6
Continuous
 62
     7
100
AcDbLine
 10
24.73649948571632
 20
138.2000003204572
 30
0.0
 11
24.73649949476508
 21
131.2500003013189
 31
0.0
  0
LINE
  5
1B7
330
55
100
AcDbEntity
  8
0
  6
Continuous
 62
     7
100
AcDbLine
 10
-17.76350049600146
 20
138.2000003202406
 30
0.0
 11
-20.01350050535228
 21
138.2000003228841
 31
0.0
  0
LINE
  5
1B8
330
55
100
AcDbEntity
  8
0
  6
Continuous
 62
     7
100
AcDbLine
 10
24.73649949476508
 20
131.2500003013189
 30
0.0
 11
24.06787942415133
 21
131.2500003013188
 31
0.0
  0
LINE
  5
1B9
330
55
100
AcDbEntity
  8
0
  6
Continuous
 62
     7
100
AcDbLine
 10
20.68649949490463
 20
125.9500003015971
 30
0.0
 11
20.68649949490463
 21
130.1500003015968
 31
0.0
  0
LINE
  5
1BA
330
55
100
AcDbEntity
  8
0
  6
Continuous
 62
     7
100
AcDbLine
 10
18.18649949490463
 20
125.9500003015971
 30
0.0
 11
18.18649949490463
 21
130.1500003015968
 31
0.0
  0
LINE
  5
1BB
330
55
100
AcDbEntity
  8
0
  6
Continuous
 62
     7
100
AcDbLine
 10
10.58649949464912
 20
130.15000030132
 30
0.0
 11
5.98649949464582
 21
131.5015442647166
 31
0.0
  0
LINE
  5
1BC
330
55
100
AcDbEntity
  8
0
  6
Continuous
 62
     7
100
AcDbLine
 10
5.98649949464582
 20
131.5015442647166
 30
0.0
 11
5.98649949464355
 21
141.4250003013209
 31
0.0
  0
LINE
  5
1BD
330
55
100
AcDbEntity
  8
0
  6
Continuous
 62
     7
100
AcDbLine
 10
7.24255319990237
 20
155.8500003013198
 30
0.0
 11
7.01962839032673
 21
154.4250003013209
 31
0.0
  0
LINE
  5
1BE
330
55
100
AcDbEntity
  8
0
  6
Continuous
 62
     7
100
AcDbLine
 10
18.18649949490463
 20
125.9500003015971
 30
0.0
 11
20.68649949490463
 21
125.9500003015971
 31
0.0
  0
ENDBLK
  5
57
330
55
100
AcDbEntity
  8
0
100
AcDbBlockEnd
  0
BLOCK
  5
5A
330
58
100
AcDbEntity
  8
0
100
AcDbBlockBegin
  2
Rckans1
 70
     0
 10
17.58750013396486
 20
142.999999999552
 30
0.0
  3
Rckans1
  1

  0
INSERT
  5
59
330
58
100
AcDbEntity
  8
0
100
AcDbBlockReference
  2
DF_UP_6-select__3
 10
-20.01350050535228
 20
125.9500003015971
 30
0.0
  0
ENDBLK
  5
5B
330
58
100
AcDbEntity
  8
0
100
AcDbBlockEnd
  0
BLOCK
  5
5D
330
5C
100
AcDbEntity
  8
0
100
AcDbBlockBegin
  2
DF_UP_6-select__4
 70
     0
 10
-43.30165115348588
 20
125.9500003010236
 30
0.0
  3
DF_UP_6-select__4
  1

  0
LINE
  5
1BF
330
5C
100
AcDbEntity
  8
1
  6
DOT_CENTER
 62
     2
100
AcDbLine
 10
-40.80165114661688
 20
125.9500003010236
 30
0.0
 11
-40.80165114661688
 21
130.1500003012875
 31
0.0
  0
LINE
  5
1C0
330
5C
100
AcDbEntity
  8
1
  6
Continuous
 62
     2
100
AcDbLine
 10
-41.77665114661688
 20
125.9500003010562
 30
0.0
 11
-41.77665114711517
 21
130.1500003010411
 31
0.0
  0
LINE
  5
1C1
330
5C
100
AcDbEntity
  8
1
  6
Continuous
 62
     2
100
AcDbLine
 10
-39.82665114661688
 20
125.9500003012876
 30
0.0
 11
-39.82665114711517
 21
130.1500003012571
 31
0.0
  0
LINE
  5
1C2
330
5C
100
AcDbEntity
  8
1
  6
Continuous
 62
     2
100
AcDbLine
 10
-41.77665114661688
 20
125.9500003010562
 30
0.0
 11
-41.77665114711517
 21
130.1500003010411
 31
0.0
  0
LINE
  5
1C3
330
5C
100
AcDbEntity
  8
1
  6
Continuous
 62
     2
100
AcDbLine
 10
-39.82665114661688
 20
125.9500003012876
 30
0.0
 11
-39.82665114711517
 21
130.1500003012571
 31
0.0
  0
LINE
  5
1C4
330
5C
100
AcDbEntity
  8
0
  6
Continuous
 62
     7
100
AcDbLine
 10
-42.5016511505175
 20
131.2500003009546
 30
0.0
 11
-42.50165115012108
 21
130.1500003009608
 31
0.0
  0
LINE
  5
1C5
330
5C
100
AcDbEntity
  8
0
  6
Continuous
 62
     7
100
AcDbLine
 10
-42.50165115103423
 20
137.8500003009611
 30
0.0
 11
-42.5016511505175
 21
131.2500003009546
 31
0.0
  0
LINE
  5
1C6
330
5C
100
AcDbEntity
  8
0
  6
Continuous
 62
     7
100
AcDbLine
 10
-42.05165114661688
 20
125.9500003010236
 30
0.0
 11
-42.05165114711517
 21
130.1500003010106
 31
0.0
  0
LINE
  5
1C7
330
5C
100
AcDbEntity
  8
0
  6
Continuous
 62
     7
100
AcDbLine
 10
-43.30165114806739
 20
131.5015442641614
 30
0.0
 11
-43.30165115155948
 21
138.2000003226532
 31
0.0
  0
LINE
  5
1C8
330
5C
100
AcDbEntity
  8
0
  6
Continuous
 62
     7
100
AcDbLine
 10
-43.30165115155948
 20
138.2000003226532
 30
0.0
 11
-43.30165115268663
 21
147.8768769256716
 31
0.0
  0
LINE
  5
1C9
330
5C
100
AcDbEntity
  8
0
  6
Continuous
 62
     7
100
AcDbLine
 10
-43.30165115051526
 20
131.2500003008711
 30
0.0
 11
-43.30165114743017
 21
130.1500003008722
 31
0.0
  0
LINE
  5
1CA
330
5C
100
AcDbEntity
  8
0
  6
Continuous
 62
     7
100
AcDbLine
 10
-43.30165114806739
 20
131.5015442641614
 30
0.0
 11
-43.30165115051526
 21
131.2500003008711
 31
0.0
  0
LINE
  5
1CB
330
5C
100
AcDbEntity
  8
0
  6
Continuous
 62
     7
100
AcDbLine
 10
-39.55165114661688
 20
125.9500003013202
 30
0.0
 11
-39.55165114711517
 21
130.1500003012875
 31
0.0
  0
LINE
  5
1CC
330
5C
100
AcDbEntity
  8
0
  6
Continuous
 62
     7
100
AcDbLine
 10
-39.55165114711517
 20
130.1500003012875
 30
0.0
 11
-42.05165114711517
 21
130.1500003010106
 31
0.0
  0
LINE
  5
1CD
330
5C
100
AcDbEntity
  8
0
  6
Continuous
 62
     7
100
AcDbLine
 10
-38.85165151860282
 20
130.1500003013651
 30
0.0
 11
-39.55165114711517
 21
130.1500003012875
 31
0.0
  0
LINE
  5
1CE
330
5C
100
AcDbEntity
  8
0
  6
Continuous
 62
     7
100
AcDbLine
 10
-42.05165114711517
 20
130.1500003010106
 30
0.0
 11
-42.50165115012108
 21
130.1500003009608
 31
0.0
  0
LINE
  5
1CF
330
5C
100
AcDbEntity
  8
0
  6
Continuous
 62
     7
100
AcDbLine
 10
-43.30165114743017
 20
130.1500003008722
 30
0.0
 11
-42.50165115012108
 21
130.1500003009608
 31
0.0
  0
LINE
  5
1D0
330
5C
100
AcDbEntity
  8
0
  6
Continuous
 62
     7
100
AcDbLine
 10
-39.55165114661688
 20
125.9500003013202
 30
0.0
 11
-42.05165114661688
 21
125.9500003010236
 31
0.0
  0
LINE
  5
1D1
330
5C
100
AcDbEntity
  8
0
  6
Continuous
 62
     7
100
AcDbLine
 10
-38.85165151945571
 20
137.8500003013654
 30
0.0
 11
-42.50165115103423
 21
137.8500003009611
 31
0.0
  0
LINE
  5
1D2
330
5C
100
AcDbEntity
  8
0
  6
Continuous
 62
     7
100
AcDbLine
 10
-42.50165115157639
 20
138.2000003227367
 30
0.0
 11
-42.50165115103423
 21
137.8500003009611
 31
0.0
  0
LINE
  5
1D3
330
5C
100
AcDbEntity
  8
0
  6
Continuous
 62
     7
100
AcDbLine
 10
-42.50165115157639
 20
138.2000003227367
 30
0.0
 11
-43.30165115155948
 21
138.2000003226532
 31
0.0
  0
LINE
  5
1D4
330
5C
100
AcDbEntity
  8
0
  6
Continuous
 62
     7
100
AcDbLine
 10
-38.85165151860282
 20
130.1500003013651
 30
0.0
 11
-38.85165151945571
 21
137.8500003013654
 31
0.0
  0
LINE
  5
1D5
330
5C
100
AcDbEntity
  8
0
  6
Continuous
 62
     7
100
AcDbLine
 10
-42.50165115200058
 20
155.850000300961
 30
0.0
 11
-42.50165115272398
 21
147.876876925755
 31
0.0
  0
LINE
  5
1D6
330
5C
100
AcDbEntity
  8
0
  6
Continuous
 62
     7
100
AcDbLine
 10
-43.30165115268663
 20
147.8768769256716
 30
0.0
 11
-42.50165115272398
 21
147.876876925755
 31
0.0
  0
LINE
  5
1D7
330
5C
100
AcDbEntity
  8
0
  6
Continuous
 62
     7
100
AcDbLine
 10
-42.50165115200058
 20
155.850000300961
 30
0.0
 11
-43.30165115348588
 21
155.8500003008711
 31
0.0
  0
LINE
  5
1D8
330
5C
100
AcDbEntity
  8
0
  6
Continuous
 62
     7
100
AcDbLine
 10
-43.30165115348588
 20
155.8500003008711
 30
0.0
 11
-43.30165115268663
 21
147.8768769256716
 31
0.0
  0
LINE
  5
1D9
330
5C
100
AcDbEntity
  8
0
  6
Continuous
 62
     7
100
AcDbLine
 10
-42.50165115157639
 20
138.2000003227367
 30
0.0
 11
-42.50165115272398
 21
147.876876925755
 31
0.0
  0
LINE
  5
1DA
330
5C
100
AcDbEntity
  8
0
  6
Continuous
 62
     7
100
AcDbLine
 10
-42.5016511505175
 20
131.2500003009546
 30
0.0
 11
-43.30165115051526
 21
131.2500003008711
 31
0.0
  0
ENDBLK
  5
5E
330
5C
100
AcDbEntity
  8
0
100
AcDbBlockEnd
  0
BLOCK
  5
61
330
5F
100
AcDbEntity
  8
0
100
AcDbBlockBegin
  2
SA_Links1
 70
     0
 10
-42.93915119758546
 20
142.9999999991042
 30
0.0
  3
SA_Links1
  1

  0
INSERT
  5
60
330
5F
100
AcDbEntity
  8
0
100
AcDbBlockReference
  2
DF_UP_6-select__4
 10
-43.30165115348588
 20
125.9500003010236
 30
0.0
  0
ENDBLK
  5
62
330
5F
100
AcDbEntity
  8
0
100
AcDbBlockEnd
  0
BLOCK
  5
64
330
63
100
AcDbEntity
  8
0
100
AcDbBlockBegin
  2
DF_UP_6-select__5
 70
     0
 10
-154.2624998729061
 20
125.9500003014489
 30
0.0
  3
DF_UP_6-select__5
  1

  0
LINE
  5
1DB
330
63
100
AcDbEntity
  8
1
  6
DOT_CENTER
 62
     2
100
AcDbLine
 10
-152.3124998749969
 20
125.9500003014489
 30
0.0
 11
-152.3124998749969
 21
130.1500003017354
 31
0.0
  0
LINE
  5
1DC
330
63
100
AcDbEntity
  8
1
  6
Continuous
 62
     2
100
AcDbLine
 10
-153.2874998749969
 20
125.9500003017129
 30
0.0
 11
-153.2874998744986
 21
130.150000301705
 31
0.0
  0
LINE
  5
1DD
330
63
100
AcDbEntity
  8
1
  6
Continuous
 62
     2
100
AcDbLine
 10
-151.3374998749969
 20
125.9500003014816
 30
0.0
 11
-151.3374998744986
 21
130.150000301489
 31
0.0
  0
LINE
  5
1DE
330
63
100
AcDbEntity
  8
1
  6
Continuous
 62
     2
100
AcDbLine
 10
-153.2874998749969
 20
125.9500003017129
 30
0.0
 11
-153.2874998744986
 21
130.150000301705
 31
0.0
  0
LINE
  5
1DF
330
63
100
AcDbEntity
  8
1
  6
Continuous
 62
     2
100
AcDbLine
 10
-151.3374998749969
 20
125.9500003014816
 30
0.0
 11
-151.3374998744986
 21
130.150000301489
 31
0.0
  0
LINE
  5
1E0
330
63
100
AcDbEntity
  8
0
  6
Continuous
 62
     7
100
AcDbLine
 10
-150.6125002468407
 20
147.8768769232301
 30
0.0
 11
-150.6125002430522
 21
155.8500003014091
 31
0.0
  0
LINE
  5
1E1
330
63
100
AcDbEntity
  8
0
  6
Continuous
 62
     7
100
AcDbLine
 10
-153.5624998749969
 20
125.9500003017455
 30
0.0
 11
-153.5624998744986
 21
130.1500003017354
 31
0.0
  0
LINE
  5
1E2
330
63
100
AcDbEntity
  8
0
  6
Continuous
 62
     7
100
AcDbLine
 10
-150.6125002468407
 20
147.8768769232301
 30
0.0
 11
-149.812500246878
 21
147.8768769231465
 31
0.0
  0
LINE
  5
1E3
330
63
100
AcDbEntity
  8
0
  6
Continuous
 62
     7
100
AcDbLine
 10
-150.6125002430522
 20
155.8500003014091
 30
0.0
 11
-149.8125002431064
 21
155.8500003013199
 31
0.0
  0
LINE
  5
1E4
330
63
100
AcDbEntity
  8
0
  6
Continuous
 62
     7
100
AcDbLine
 10
-149.8125002460735
 20
131.5015442647168
 30
0.0
 11
-149.8125002477705
 21
138.2000003202407
 31
0.0
  0
LINE
  5
1E5
330
63
100
AcDbEntity
  8
0
  6
Continuous
 62
     7
100
AcDbLine
 10
-149.81250024858
 20
131.2500003011024
 30
0.0
 11
-149.8125002460735
 21
131.5015442647168
 31
0.0
  0
LINE
  5
1E6
330
63
100
AcDbEntity
  8
0
  6
Continuous
 62
     7
100
AcDbLine
 10
-149.8125002457512
 20
130.1500003013201
 30
0.0
 11
-149.81250024858
 21
131.2500003011024
 31
0.0
  0
LINE
  5
1E7
330
63
100
AcDbEntity
  8
0
  6
Continuous
 62
     7
100
AcDbLine
 10
-149.8125002431064
 20
155.8500003013199
 30
0.0
 11
-149.812500246878
 21
147.8768769231465
 31
0.0
  0
LINE
  5
1E8
330
63
100
AcDbEntity
  8
0
  6
Continuous
 62
     7
100
AcDbLine
 10
-149.8125002477705
 20
138.2000003202407
 30
0.0
 11
-149.812500246878
 21
147.8768769231465
 31
0.0
  0
LINE
  5
1E9
330
63
100
AcDbEntity
  8
0
  6
Continuous
 62
     7
100
AcDbLine
 10
-150.6125002477536
 20
138.2000003203242
 30
0.0
 11
-150.6125002442019
 21
137.850000301409
 31
0.0
  0
LINE
  5
1EA
330
63
100
AcDbEntity
  8
0
  6
Continuous
 62
     7
100
AcDbLine
 10
-150.6125002441355
 20
147.8209409370675
 30
0.0
 11
-150.6125002477536
 21
138.2000003203242
 31
0.0
  0
LINE
  5
1EB
330
63
100
AcDbEntity
  8
0
  6
Continuous
 62
     7
100
AcDbLine
 10
-150.6125002485778
 20
131.2500003011858
 30
0.0
 11
-149.81250024858
 21
131.2500003011024
 31
0.0
  0
LINE
  5
1EC
330
63
100
AcDbEntity
  8
0
  6
Continuous
 62
     7
100
AcDbLine
 10
-150.6125002485778
 20
131.2500003011858
 30
0.0
 11
-150.6125002442019
 21
137.850000301409
 31
0.0
  0
LINE
  5
1ED
330
63
100
AcDbEntity
  8
0
  6
Continuous
 62
     7
100
AcDbLine
 10
-154.2624998729061
 20
130.150000301813
 30
0.0
 11
-154.2624998720532
 21
137.8500003018133
 31
0.0
  0
LINE
  5
1EE
330
63
100
AcDbEntity
  8
0
  6
Continuous
 62
     7
100
AcDbLine
 10
-149.8125002457512
 20
130.1500003013201
 30
0.0
 11
-150.612500245115
 21
130.1500003014087
 31
0.0
  0
LINE
  5
1EF
330
63
100
AcDbEntity
  8
0
  6
Continuous
 62
     7
100
AcDbLine
 10
-150.612500245115
 20
130.1500003014087
 30
0.0
 11
-150.6125002485778
 21
131.2500003011858
 31
0.0
  0
LINE
  5
1F0
330
63
100
AcDbEntity
  8
0
  6
Continuous
 62
     7
100
AcDbLine
 10
-150.6125002441355
 20
147.8209409370675
 30
0.0
 11
-150.6125002468407
 21
147.8768769232301
 31
0.0
  0
LINE
  5
1F1
330
63
100
AcDbEntity
  8
0
  6
Continuous
 62
     7
100
AcDbLine
 10
-151.0624998749969
 20
125.9500003014489
 30
0.0
 11
-151.0624998744986
 21
130.1500003014585
 31
0.0
  0
LINE
  5
1F2
330
63
100
AcDbEntity
  8
0
  6
Continuous
 62
     7
100
AcDbLine
 10
-153.5624998749969
 20
125.9500003017455
 30
0.0
 11
-151.0624998749969
 21
125.9500003014489
 31
0.0
  0
LINE
  5
1F3
330
63
100
AcDbEntity
  8
0
  6
Continuous
 62
     7
100
AcDbLine
 10
-153.5624998744986
 20
130.1500003017354
 30
0.0
 11
-151.0624998744986
 21
130.1500003014585
 31
0.0
  0
LINE
  5
1F4
330
63
100
AcDbEntity
  8
0
  6
Continuous
 62
     7
100
AcDbLine
 10
-151.0624998744986
 20
130.1500003014585
 30
0.0
 11
-150.612500245115
 21
130.1500003014087
 31
0.0
  0
LINE
  5
1F5
330
63
100
AcDbEntity
  8
0
  6
Continuous
 62
     7
100
AcDbLine
 10
-154.2624998729061
 20
130.150000301813
 30
0.0
 11
-153.5624998744986
 21
130.1500003017354
 31
0.0
  0
LINE
  5
1F6
330
63
100
AcDbEntity
  8
0
  6
Continuous
 62
     7
100
AcDbLine
 10
-150.6125002442019
 20
137.850000301409
 30
0.0
 11
-154.2624998720532
 21
137.8500003018133
 31
0.0
  0
LINE
  5
1F7
330
63
100
AcDbEntity
  8
0
  6
Continuous
 62
     7
100
AcDbLine
 10
-150.6125002477536
 20
138.2000003203242
 30
0.0
 11
-149.8125002477705
 21
138.2000003202407
 31
0.0
  0
ENDBLK
  5
65
330
63
100
AcDbEntity
  8
0
100
AcDbBlockEnd
  0
BLOCK
  5
68
330
66
100
AcDbEntity
  8
0
100
AcDbBlockBegin
  2
SA_Rechts1
 70
     0
 10
-150.175000197077
 20
142.9999999995521
 30
0.0
  3
SA_Rechts1
  1

  0
INSERT
  5
67
330
66
100
AcDbEntity
  8
0
100
AcDbBlockReference
  2
DF_UP_6-select__5
 10
-154.2624998729061
 20
125.9500003014489
 30
0.0
  0
ENDBLK
  5
69
330
66
100
AcDbEntity
  8
0
100
AcDbBlockEnd
  0
BLOCK
  5
6B
330
6A
100
AcDbEntity
  8
0
100
AcDbBlockBegin
  2
DF_UP_6-select__6
 70
     0
 10
-109.9864992229967
 20
125.9500003015972
 30
0.0
  3
DF_UP_6-select__6
  1

  0
LINE
  5
1F8
330
6A
100
AcDbEntity
  8
1
  6
DOT_CENTER
 62
     2
100
AcDbLine
 10
-76.43649922310246
 20
125.9500003016198
 30
0.0
 11
-76.43649922310246
 21
130.150000301597
 31
0.0
  0
LINE
  5
1F9
330
6A
100
AcDbEntity
  8
1
  6
DOT_CENTER
 62
     2
100
AcDbLine
 10
-102.4364992231048
 20
125.9500003015972
 30
0.0
 11
-102.4364992231048
 21
130.150000301597
 31
0.0
  0
LINE
  5
1FA
330
6A
100
AcDbEntity
  8
1
  6
Continuous
 62
     2
100
AcDbLine
 10
-103.4114992231048
 20
125.9500003015972
 30
0.0
 11
-103.4114992231048
 21
130.150000301597
 31
0.0
  0
LINE
  5
1FB
330
6A
100
AcDbEntity
  8
1
  6
Continuous
 62
     2
100
AcDbLine
 10
-101.4614992231048
 20
125.9500003015972
 30
0.0
 11
-101.4614992231048
 21
130.150000301597
 31
0.0
  0
LINE
  5
1FC
330
6A
100
AcDbEntity
  8
1
  6
Continuous
 62
     2
100
AcDbLine
 10
-75.46149922310245
 20
125.9500003016198
 30
0.0
 11
-75.46149922310246
 21
130.150000301597
 31
0.0
  0
LINE
  5
1FD
330
6A
100
AcDbEntity
  8
1
  6
Continuous
 62
     2
100
AcDbLine
 10
-77.41149922310245
 20
125.9500003016198
 30
0.0
 11
-77.41149922310245
 21
130.150000301597
 31
0.0
  0
LINE
  5
1FE
330
6A
100
AcDbEntity
  8
0
  6
Continuous
 62
     7
100
AcDbLine
 10
-64.22776041218515
 20
155.8500003011915
 30
0.0
 11
-62.98649922293136
 21
147.8768769232301
 31
0.0
  0
LINE
  5
1FF
330
6A
100
AcDbEntity
  8
0
  6
Continuous
 62
     7
100
AcDbLine
 10
-73.68649922165218
 20
137.8500003014316
 30
0.0
 11
-73.68649923459085
 21
131.0500003011933
 31
0.0
  0
LINE
  5
200
330
6A
100
AcDbEntity
  8
0
  6
Continuous
 62
     7
100
AcDbLine
 10
-65.23649922323442
 20
131.2500003011858
 30
0.0
 11
-65.23649923228216
 21
138.2000003203242
 31
0.0
  0
LINE
  5
201
330
6A
100
AcDbEntity
  8
0
  6
Continuous
 62
     7
100
AcDbLine
 10
-77.68649922310246
 20
130.150000301597
 30
0.0
 11
-75.18649922310246
 21
130.150000301597
 31
0.0
  0
LINE
  5
202
330
6A
100
AcDbEntity
  8
0
  6
Continuous
 62
     7
100
AcDbLine
 10
-107.0685494469389
 20
130.1500003014087
 30
0.0
 11
-105.1864992112612
 21
130.1500003014087
 31
0.0
  0
LINE
  5
203
330
6A
100
AcDbEntity
  8
0
  6
Continuous
 62
     7
100
AcDbLine
 10
-101.1864992231048
 20
130.150000301597
 30
0.0
 11
-103.6864992231048
 21
130.150000301597
 31
0.0
  0
LINE
  5
204
330
6A
100
AcDbEntity
  8
0
  6
Continuous
 62
     7
100
AcDbLine
 10
-79.05903841603804
 20
130.150000301813
 30
0.0
 11
-77.68649922310246
 21
130.150000301597
 31
0.0
  0
LINE
  5
205
330
6A
100
AcDbEntity
  8
0
  6
Continuous
 62
     7
100
AcDbLine
 10
-73.09550501909902
 20
130.150000301381
 30
0.0
 11
-67.97901231468829
 21
130.150000301381
 31
0.0
  0
LINE
  5
206
330
6A
100
AcDbEntity
  8
0
  6
Continuous
 62
     7
100
AcDbLine
 10
-93.98535859359755
 20
130.150000301381
 30
0.0
 11
-99.0876398518995
 21
130.150000301381
 31
0.0
  0
LINE
  5
207
330
6A
100
AcDbEntity
  8
0
  6
Continuous
 62
     7
100
AcDbLine
 10
-99.6864992371264
 20
130.1500003014087
 30
0.0
 11
-99.0876398518995
 21
130.150000301381
 31
0.0
  0
LINE
  5
208
330
6A
100
AcDbEntity
  8
0
  6
Continuous
 62
     7
100
AcDbLine
 10
-93.58649922291525
 20
130.1500003014087
 30
0.0
 11
-93.98535859359755
 21
130.150000301381
 31
0.0
  0
LINE
  5
209
330
6A
100
AcDbEntity
  8
0
  6
Continuous
 62
     7
100
AcDbLine
 10
-79.18649922165838
 20
130.1500003014087
 30
0.0
 11
-79.38649922330447
 21
130.1500003014087
 31
0.0
  0
LINE
  5
20A
330
6A
100
AcDbEntity
  8
0
  6
Continuous
 62
     7
100
AcDbLine
 10
-75.18649922310246
 20
130.150000301597
 30
0.0
 11
-73.81396003332755
 21
130.150000301813
 31
0.0
  0
LINE
  5
20B
330
6A
100
AcDbEntity
  8
0
  6
Continuous
 62
     7
100
AcDbLine
 10
-73.68649922165872
 20
130.1500003014087
 30
0.0
 11
-73.09550501909902
 21
130.150000301381
 31
0.0
  0
LINE
  5
20C
330
6A
100
AcDbEntity
  8
0
  6
Continuous
 62
     7
100
AcDbLine
 10
-99.81396003057624
 20
130.150000301813
 30
0.0
 11
-101.1864992231048
 21
130.150000301597
 31
0.0
  0
LINE
  5
20D
330
6A
100
AcDbEntity
  8
0
  6
Continuous
 62
     7
100
AcDbLine
 10
-75.13649922427429
 20
133.5500003017922
 30
0.0
 11
-77.54547784648638
 21
133.5500003018101
 31
0.0
  0
LINE
  5
20E
330
6A
100
AcDbEntity
  8
0
  6
Continuous
 62
     7
100
AcDbLine
 10
-75.13649922427429
 20
133.5500003017922
 30
0.0
 11
-75.13649922468198
 21
132.1500003018358
 31
0.0
  0
LINE
  5
20F
330
6A
100
AcDbEntity
  8
0
  6
Continuous
 62
     7
100
AcDbLine
 10
-75.13649922468198
 20
132.1500003018358
 30
0.0
 11
-77.73649922468202
 21
132.1500003018358
 31
0.0
  0
LINE
  5
210
330
6A
100
AcDbEntity
  8
0
  6
Continuous
 62
     7
100
AcDbLine
 10
-77.73649922427433
 20
132.7500003017961
 30
0.0
 11
-77.73649922468202
 21
132.1500003018358
 31
0.0
  0
LINE
  5
211
330
6A
100
AcDbEntity
  8
0
  6
Continuous
 62
     7
100
AcDbLine
 10
-73.81396003332755
 20
130.150000301813
 30
0.0
 11
-73.68649922165872
 21
130.1500003014087
 31
0.0
  0
LINE
  5
212
330
6A
100
AcDbEntity
  8
0
  6
Continuous
 62
     7
100
AcDbLine
 10
-73.68649923459085
 20
131.0500003011933
 30
0.0
 11
-73.68649922165872
 21
130.1500003014087
 31
0.0
  0
LINE
  5
213
330
6A
100
AcDbEntity
  8
0
  6
Continuous
 62
     7
100
AcDbLine
 10
-77.54547784648638
 20
133.5500003018101
 30
0.0
 11
-77.73649922468202
 21
133.5500003017153
 31
0.0
  0
LINE
  5
214
330
6A
100
AcDbEntity
  8
0
  6
Continuous
 62
     7
100
AcDbLine
 10
-65.90511929384817
 20
131.2500003011859
 30
0.0
 11
-65.23649922323442
 21
131.2500003011858
 31
0.0
  0
LINE
  5
215
330
6A
100
AcDbEntity
  8
0
  6
Continuous
 62
     7
100
AcDbLine
 10
-67.97901231468829
 20
130.150000301381
 30
0.0
 11
-65.90444899934454
 21
130.1500003014087
 31
0.0
  0
LINE
  5
216
330
6A
100
AcDbEntity
  8
0
  6
Continuous
 62
     7
100
AcDbLine
 10
-75.13649922468198
 20
137.8500003018358
 30
0.0
 11
-75.4812505643666
 21
137.8500003014316
 31
0.0
  0
LINE
  5
217
330
6A
100
AcDbEntity
  8
0
  6
Continuous
 62
     7
100
AcDbLine
 10
-73.81396003332753
 20
137.8500003018358
 30
0.0
 11
-75.13649922468198
 21
137.8500003018358
 31
0.0
  0
LINE
  5
218
330
6A
100
AcDbEntity
  8
0
  6
Continuous
 62
     7
100
AcDbLine
 10
-73.81396003332753
 20
137.8500003018358
 30
0.0
 11
-73.68649922165218
 21
137.8500003014316
 31
0.0
  0
LINE
  5
219
330
6A
100
AcDbEntity
  8
0
  6
Continuous
 62
     7
100
AcDbLine
 10
-77.39174788148514
 20
137.8500003014316
 30
0.0
 11
-77.736499224682
 21
137.8500003018359
 31
0.0
  0
LINE
  5
21A
330
6A
100
AcDbEntity
  8
0
  6
Continuous
 62
     7
100
AcDbLine
 10
-79.05903841603804
 20
137.8500003018358
 30
0.0
 11
-77.736499224682
 21
137.8500003018359
 31
0.0
  0
LINE
  5
21B
330
6A
100
AcDbEntity
  8
0
  6
Continuous
 62
     7
100
AcDbLine
 10
-99.81396003057624
 20
137.8500003018133
 30
0.0
 11
-101.1364992219323
 21
137.8500003018133
 31
0.0
  0
LINE
  5
21C
330
6A
100
AcDbEntity
  8
0
  6
Continuous
 62
     7
100
AcDbLine
 10
-105.0590384132867
 20
137.8500003018133
 30
0.0
 11
-103.7364992219323
 21
137.8500003018133
 31
0.0
  0
LINE
  5
21D
330
6A
100
AcDbEntity
  8
0
  6
Continuous
 62
     7
100
AcDbLine
 10
-103.7364992219323
 20
137.8500003018133
 30
0.0
 11
-103.391748540558
 21
137.850000301409
 31
0.0
  0
LINE
  5
21E
330
6A
100
AcDbEntity
  8
0
  6
Continuous
 62
     7
100
AcDbLine
 10
-101.4812499052954
 20
137.850000301409
 30
0.0
 11
-101.1364992219323
 21
137.8500003018133
 31
0.0
  0
LINE
  5
21F
330
6A
100
AcDbEntity
  8
0
  6
Continuous
 62
     7
100
AcDbLine
 10
-65.23649923228216
 20
138.2000003203242
 30
0.0
 11
-62.98649922293136
 21
138.2000003229677
 31
0.0
  0
LINE
  5
220
330
6A
100
AcDbEntity
  8
0
  6
Continuous
 62
     7
100
AcDbLine
 10
-107.0685494469389
 20
130.1500003014087
 30
0.0
 11
-107.0678791524349
 21
131.2500003014025
 31
0.0
  0
LINE
  5
221
330
6A
100
AcDbEntity
  8
0
  6
Continuous
 62
     7
100
AcDbLine
 10
-103.6864992231048
 20
130.150000301597
 30
0.0
 11
-105.0590384132867
 21
130.150000301813
 31
0.0
  0
LINE
  5
222
330
6A
100
AcDbEntity
  8
0
  6
Continuous
 62
     7
100
AcDbLine
 10
-103.6864992231048
 20
125.9500003015972
 30
0.0
 11
-103.6864992231048
 21
130.150000301597
 31
0.0
  0
LINE
  5
223
330
6A
100
AcDbEntity
  8
0
  6
Continuous
 62
     7
100
AcDbLine
 10
-105.0590384132867
 20
130.150000301813
 30
0.0
 11
-105.1864992112612
 21
130.1500003014087
 31
0.0
  0
LINE
  5
224
330
6A
100
AcDbEntity
  8
0
  6
Continuous
 62
     7
100
AcDbLine
 10
-103.5454778464817
 20
132.75000030179
 30
0.0
 11
-103.7364992222308
 21
132.7500003017582
 31
0.0
  0
LINE
  5
225
330
6A
100
AcDbEntity
  8
0
  6
Continuous
 62
     7
100
AcDbLine
 10
-103.7364992222308
 20
132.7500003017582
 30
0.0
 11
-103.7364992219323
 21
132.1500003018132
 31
0.0
  0
LINE
  5
226
330
6A
100
AcDbEntity
  8
0
  6
Continuous
 62
     7
100
AcDbLine
 10
-75.13649922468198
 20
137.8500003018358
 30
0.0
 11
-75.13649922427429
 21
133.5500003017922
 31
0.0
  0
LINE
  5
227
330
6A
100
AcDbEntity
  8
0
  6
Continuous
 62
     7
100
AcDbLine
 10
-73.81396003332755
 20
130.150000301813
 30
0.0
 11
-73.81396003332753
 21
137.8500003018358
 31
0.0
  0
LINE
  5
228
330
6A
100
AcDbEntity
  8
0
  6
Continuous
 62
     7
100
AcDbLine
 10
-107.7364992139999
 20
138.2000003205408
 30
0.0
 11
-109.9864992229967
 21
138.2000003231846
 31
0.0
  0
LINE
  5
229
330
6A
100
AcDbEntity
  8
0
  6
Continuous
 62
     7
100
AcDbLine
 10
-101.1364992219323
 20
132.1500003018132
 30
0.0
 11
-101.1364992222308
 21
133.5500003017582
 31
0.0
  0
LINE
  5
22A
330
6A
100
AcDbEntity
  8
0
  6
Continuous
 62
     7
100
AcDbLine
 10
-101.1364992222308
 20
133.5500003017582
 30
0.0
 11
-101.1364992219323
 21
137.8500003018133
 31
0.0
  0
LINE
  5
22B
330
6A
100
AcDbEntity
  8
0
  6
Continuous
 62
     7
100
AcDbLine
 10
-99.6864992371243
 20
137.850000301409
 30
0.0
 11
-99.81396003057624
 21
137.8500003018133
 31
0.0
  0
LINE
  5
22C
330
6A
100
AcDbEntity
  8
0
  6
Continuous
 62
     7
100
AcDbLine
 10
-101.1364992222308
 20
133.5500003017582
 30
0.0
 11
-101.3275205997276
 21
133.5500003014196
 31
0.0
  0
LINE
  5
22D
330
6A
100
AcDbEntity
  8
0
  6
Continuous
 62
     7
100
AcDbLine
 10
-65.90444899934454
 20
130.1500003014087
 30
0.0
 11
-65.90511929384817
 21
131.2500003011859
 31
0.0
  0
LINE
  5
22E
330
6A
100
AcDbEntity
  8
0
  6
Continuous
 62
     7
100
AcDbLine
 10
-101.1864992231048
 20
125.9500003015972
 30
0.0
 11
-101.1864992231048
 21
130.150000301597
 31
0.0
  0
LINE
  5
22F
330
6A
100
AcDbEntity
  8
0
  6
Continuous
 62
     7
100
AcDbLine
 10
-99.81396003057624
 20
130.150000301813
 30
0.0
 11
-99.6864992371264
 21
130.1500003014087
 31
0.0
  0
LINE
  5
230
330
6A
100
AcDbEntity
  8
0
  6
Continuous
 62
     7
100
AcDbLine
 10
-75.18649922310246
 20
125.9500003016198
 30
0.0
 11
-77.68649922310246
 21
125.9500003016198
 31
0.0
  0
LINE
  5
231
330
6A
100
AcDbEntity
  8
0
  6
Continuous
 62
     7
100
AcDbLine
 10
-75.18649922310246
 20
125.9500003016198
 30
0.0
 11
-75.18649922310246
 21
130.150000301597
 31
0.0
  0
LINE
  5
232
330
6A
100
AcDbEntity
  8
0
  6
Continuous
 62
     7
100
AcDbLine
 10
-77.68649922310246
 20
125.9500003016198
 30
0.0
 11
-77.68649922310246
 21
130.150000301597
 31
0.0
  0
LINE
  5
233
330
6A
100
AcDbEntity
  8
0
  6
Continuous
 62
     7
100
AcDbLine
 10
-62.98649922293136
 20
147.8768769232301
 30
0.0
 11
-62.98649922293136
 21
138.2000003229677
 31
0.0
  0
LINE
  5
234
330
6A
100
AcDbEntity
  8
0
  6
Continuous
 62
     7
100
AcDbLine
 10
-109.9864992229967
 20
138.2000003231846
 30
0.0
 11
-109.9864992229202
 21
147.8768769262029
 31
0.0
  0
LINE
  5
235
330
6A
100
AcDbEntity
  8
0
  6
Continuous
 62
     7
100
AcDbLine
 10
-101.3275205997276
 20
133.5500003014196
 30
0.0
 11
-103.5454778464882
 21
133.5500003017875
 31
0.0
  0
LINE
  5
236
330
6A
100
AcDbEntity
  8
0
  6
Continuous
 62
     7
100
AcDbLine
 10
-105.0590384132867
 20
137.8500003018133
 30
0.0
 11
-105.1864992112633
 21
137.850000301409
 31
0.0
  0
LINE
  5
237
330
6A
100
AcDbEntity
  8
0
  6
Continuous
 62
     7
100
AcDbLine
 10
-103.5454778464882
 20
133.5500003017875
 30
0.0
 11
-103.7364992219323
 21
133.5500003016927
 31
0.0
  0
LINE
  5
238
330
6A
100
AcDbEntity
  8
0
  6
Continuous
 62
     7
100
AcDbLine
 10
-93.9853585936755
 20
155.8500003013811
 30
0.0
 11
-93.98535859359755
 21
130.150000301381
 31
0.0
  0
LINE
  5
239
330
6A
100
AcDbEntity
  8
0
  6
Continuous
 62
     7
100
AcDbLine
 10
-99.0876398518995
 20
130.150000301381
 30
0.0
 11
-99.08763985197744
 21
155.8500003013808
 31
0.0
  0
LINE
  5
23A
330
6A
100
AcDbEntity
  8
0
  6
Continuous
 62
     7
100
AcDbLine
 10
-101.4812499052954
 20
155.8500003014086
 30
0.0
 11
-101.4812499052954
 21
137.850000301409
 31
0.0
  0
LINE
  5
23B
330
6A
100
AcDbEntity
  8
0
  6
Continuous
 62
     7
100
AcDbLine
 10
-99.81396003057624
 20
130.150000301813
 30
0.0
 11
-99.81396003057624
 21
137.8500003018133
 31
0.0
  0
LINE
  5
23C
330
6A
100
AcDbEntity
  8
0
  6
Continuous
 62
     7
100
AcDbLine
 10
-67.97901231468518
 20
155.8500003011643
 30
0.0
 11
-64.22776041218515
 21
155.8500003011915
 31
0.0
  0
LINE
  5
23D
330
6A
100
AcDbEntity
  8
0
  6
Continuous
 62
     7
100
AcDbLine
 10
-90.01962811852265
 20
154.4250003014041
 30
0.0
 11
-90.24255292809679
 21
155.8500003014091
 31
0.0
  0
LINE
  5
23E
330
6A
100
AcDbEntity
  8
0
  6
Continuous
 62
     7
100
AcDbLine
 10
-89.78497042423226
 20
152.9250003014037
 30
0.0
 11
-83.18802802199329
 21
152.9250003014037
 31
0.0
  0
LINE
  5
23F
330
6A
100
AcDbEntity
  8
0
  6
Continuous
 62
     7
100
AcDbLine
 10
-82.95337032770266
 20
154.4250003014041
 30
0.0
 11
-82.73044551818265
 21
155.8500003011951
 31
0.0
  0
LINE
  5
240
330
6A
100
AcDbEntity
  8
0
  6
Continuous
 62
     7
100
AcDbLine
 10
-82.73044551818265
 20
155.8500003011951
 30
0.0
 11
-77.39174788148514
 21
155.8500003011951
 31
0.0
  0
LINE
  5
241
330
6A
100
AcDbEntity
  8
0
  6
Continuous
 62
     7
100
AcDbLine
 10
-67.97901231468518
 20
155.8500003011643
 30
0.0
 11
-73.0955050190959
 21
155.8500003011653
 31
0.0
  0
LINE
  5
242
330
6A
100
AcDbEntity
  8
0
  6
Continuous
 62
     7
100
AcDbLine
 10
-93.9853585936755
 20
155.8500003013811
 30
0.0
 11
-99.08763985197744
 21
155.8500003013808
 31
0.0
  0
LINE
  5
243
330
6A
100
AcDbEntity
  8
0
  6
Continuous
 62
     7
100
AcDbLine
 10
-73.0955050190959
 20
155.8500003011653
 30
0.0
 11
-75.4812505643666
 21
155.8500003011951
 31
0.0
  0
LINE
  5
244
330
6A
100
AcDbEntity
  8
0
  6
Continuous
 62
     7
100
AcDbLine
 10
-75.4812505643666
 20
155.8500003011951
 30
0.0
 11
-77.39174788148514
 21
155.8500003011951
 31
0.0
  0
LINE
  5
245
330
6A
100
AcDbEntity
  8
0
  6
Continuous
 62
     7
100
AcDbLine
 10
-99.08763985197744
 20
155.8500003013808
 30
0.0
 11
-101.4812499052954
 21
155.8500003014086
 31
0.0
  0
LINE
  5
246
330
6A
100
AcDbEntity
  8
0
  6
Continuous
 62
     7
100
AcDbLine
 10
-90.24255292809679
 20
155.8500003014091
 30
0.0
 11
-93.9853585936755
 21
155.8500003013811
 31
0.0
  0
LINE
  5
247
330
6A
100
AcDbEntity
  8
0
  6
Continuous
 62
     7
100
AcDbLine
 10
-73.09550501909902
 20
130.150000301381
 30
0.0
 11
-73.0955050190959
 21
155.8500003011653
 31
0.0
  0
LINE
  5
248
330
6A
100
AcDbEntity
  8
0
  6
Continuous
 62
     7
100
AcDbLine
 10
-88.98649922292947
 20
131.5015442648002
 30
0.0
 11
-93.58649922291525
 21
130.1500003014087
 31
0.0
  0
LINE
  5
249
330
6A
100
AcDbEntity
  8
0
  6
Continuous
 62
     7
100
AcDbLine
 10
-79.38649922330447
 20
130.1500003014087
 30
0.0
 11
-83.98649922292212
 21
131.5015442646928
 31
0.0
  0
LINE
  5
24A
330
6A
100
AcDbEntity
  8
0
  6
Continuous
 62
     7
100
AcDbLine
 10
-99.6864992371243
 20
137.850000301409
 30
0.0
 11
-99.6864992371264
 21
130.1500003014087
 31
0.0
  0
LINE
  5
24B
330
6A
100
AcDbEntity
  8
0
  6
Continuous
 62
     7
100
AcDbLine
 10
-79.18649922165838
 20
130.1500003014087
 30
0.0
 11
-79.18649922166048
 21
137.8500003014316
 31
0.0
  0
LINE
  5
24C
330
6A
100
AcDbEntity
  8
0
  6
Continuous
 62
     7
100
AcDbLine
 10
-83.98649922292587
 20
147.8209409395962
 30
0.0
 11
-83.98649922292475
 21
142.925000301413
 31
0.0
  0
LINE
  5
24D
330
6A
100
AcDbEntity
  8
0
  6
Continuous
 62
     7
100
AcDbLine
 10
-88.98649922292685
 20
142.925000301413
 30
0.0
 11
-83.98649922292475
 21
142.925000301413
 31
0.0
  0
LINE
  5
24E
330
6A
100
AcDbEntity
  8
0
  6
Continuous
 62
     7
100
AcDbLine
 10
-79.05903841603804
 20
130.150000301813
 30
0.0
 11
-79.05903841603804
 21
137.8500003018358
 31
0.0
  0
LINE
  5
24F
330
6A
100
AcDbEntity
  8
0
  6
Continuous
 62
     7
100
AcDbLine
 10
-77.73649922427433
 20
132.7500003017961
 30
0.0
 11
-77.54547784648638
 21
132.7500003018126
 31
0.0
  0
LINE
  5
250
330
6A
100
AcDbEntity
  8
0
  6
Continuous
 62
     7
100
AcDbLine
 10
-77.54547784648638
 20
133.5500003018101
 30
0.0
 11
-77.54547784648638
 21
132.7500003018126
 31
0.0
  0
LINE
  5
251
330
6A
100
AcDbEntity
  8
0
  6
Continuous
 62
     7
100
AcDbLine
 10
-77.39174788148514
 20
155.8500003011951
 30
0.0
 11
-77.39174788148514
 21
137.8500003014316
 31
0.0
  0
LINE
  5
252
330
6A
100
AcDbEntity
  8
0
  6
Continuous
 62
     7
100
AcDbLine
 10
-79.05903841603804
 20
130.150000301813
 30
0.0
 11
-79.18649922165838
 21
130.1500003014087
 31
0.0
  0
LINE
  5
253
330
6A
100
AcDbEntity
  8
0
  6
Continuous
 62
     7
100
AcDbLine
 10
-77.736499224682
 20
137.8500003018359
 30
0.0
 11
-77.73649922427433
 21
132.7500003017961
 31
0.0
  0
LINE
  5
254
330
6A
100
AcDbEntity
  8
0
  6
Continuous
 62
     7
100
AcDbLine
 10
-79.18649922166048
 20
137.8500003014316
 30
0.0
 11
-79.05903841603804
 21
137.8500003018358
 31
0.0
  0
LINE
  5
255
330
6A
100
AcDbEntity
  8
0
  6
Continuous
 62
     7
100
AcDbLine
 10
-83.18802802199329
 20
152.9250003014037
 30
0.0
 11
-82.95337032770266
 21
154.4250003014041
 31
0.0
  0
LINE
  5
256
330
6A
100
AcDbEntity
  8
0
  6
Continuous
 62
     7
100
AcDbLine
 10
-82.95337032770266
 20
154.4250003014041
 30
0.0
 11
-90.01962811852265
 21
154.4250003014041
 31
0.0
  0
LINE
  5
257
330
6A
100
AcDbEntity
  8
0
  6
Continuous
 62
     7
100
AcDbLine
 10
-89.78497042423226
 20
152.9250003014037
 30
0.0
 11
-90.01962811852265
 21
154.4250003014041
 31
0.0
  0
LINE
  5
258
330
6A
100
AcDbEntity
  8
0
  6
Continuous
 62
     7
100
AcDbLine
 10
-88.98649922292947
 20
131.5015442648002
 30
0.0
 11
-88.9864992229272
 21
141.4250003014142
 31
0.0
  0
LINE
  5
259
330
6A
100
AcDbEntity
  8
0
  6
Continuous
 62
     7
100
AcDbLine
 10
-88.9864992229272
 20
141.4250003014142
 30
0.0
 11
-83.98649922292441
 21
141.4250003014142
 31
0.0
  0
LINE
  5
25A
330
6A
100
AcDbEntity
  8
0
  6
Continuous
 62
     7
100
AcDbLine
 10
-83.98649922292212
 20
131.5015442646928
 30
0.0
 11
-83.98649922292441
 21
141.4250003014142
 31
0.0
  0
LINE
  5
25B
330
6A
100
AcDbEntity
  8
0
  6
Continuous
 62
     7
100
AcDbLine
 10
-83.98649922292587
 20
147.8209409395962
 30
0.0
 11
-83.18802802199329
 21
152.9250003014037
 31
0.0
  0
LINE
  5
25C
330
6A
100
AcDbEntity
  8
0
  6
Continuous
 62
     7
100
AcDbLine
 10
-88.98649922292572
 20
147.8209409370675
 30
0.0
 11
-89.78497042423226
 21
152.9250003014037
 31
0.0
  0
LINE
  5
25D
330
6A
100
AcDbEntity
  8
0
  6
Continuous
 62
     7
100
AcDbLine
 10
-88.98649922292572
 20
147.8209409370675
 30
0.0
 11
-88.98649922292685
 21
142.925000301413
 31
0.0
  0
LINE
  5
25E
330
6A
100
AcDbEntity
  8
0
  6
Continuous
 62
     7
100
AcDbLine
 10
-67.97901231468829
 20
130.150000301381
 30
0.0
 11
-67.97901231468518
 21
155.8500003011643
 31
0.0
  0
LINE
  5
25F
330
6A
100
AcDbEntity
  8
0
  6
Continuous
 62
     7
100
AcDbLine
 10
-75.4812505643666
 20
155.8500003011951
 30
0.0
 11
-75.4812505643666
 21
137.8500003014316
 31
0.0
  0
LINE
  5
260
330
6A
100
AcDbEntity
  8
0
  6
Continuous
 62
     7
100
AcDbLine
 10
-109.9864992229202
 20
147.8768769262029
 30
0.0
 11
-108.7452380340943
 21
155.8500003014083
 31
0.0
  0
LINE
  5
261
330
6A
100
AcDbEntity
  8
0
  6
Continuous
 62
     7
100
AcDbLine
 10
-107.7364992230487
 20
131.2500003014025
 30
0.0
 11
-107.7364992139999
 21
138.2000003205408
 31
0.0
  0
LINE
  5
262
330
6A
100
AcDbEntity
  8
0
  6
Continuous
 62
     7
100
AcDbLine
 10
-103.391748540558
 20
155.8500003014085
 30
0.0
 11
-103.391748540558
 21
137.850000301409
 31
0.0
  0
LINE
  5
263
330
6A
100
AcDbEntity
  8
0
  6
Continuous
 62
     7
100
AcDbLine
 10
-105.1864992112612
 20
130.1500003014087
 30
0.0
 11
-105.1864992112633
 21
137.850000301409
 31
0.0
  0
LINE
  5
264
330
6A
100
AcDbEntity
  8
0
  6
Continuous
 62
     7
100
AcDbLine
 10
-103.7364992219323
 20
137.8500003018133
 30
0.0
 11
-103.7364992222308
 21
132.7500003017582
 31
0.0
  0
LINE
  5
265
330
6A
100
AcDbEntity
  8
0
  6
Continuous
 62
     7
100
AcDbLine
 10
-103.5454778464882
 20
133.5500003017875
 30
0.0
 11
-103.5454778464817
 21
132.75000030179
 31
0.0
  0
LINE
  5
266
330
6A
100
AcDbEntity
  8
0
  6
Continuous
 62
     7
100
AcDbLine
 10
-105.0590384132867
 20
130.150000301813
 30
0.0
 11
-105.0590384132867
 21
137.8500003018133
 31
0.0
  0
LINE
  5
267
330
6A
100
AcDbEntity
  8
0
  6
Continuous
 62
     7
100
AcDbLine
 10
-103.391748540558
 20
155.8500003014085
 30
0.0
 11
-108.7452380340943
 21
155.8500003014083
 31
0.0
  0
LINE
  5
268
330
6A
100
AcDbEntity
  8
0
  6
Continuous
 62
     7
100
AcDbLine
 10
-107.0678791524349
 20
131.2500003014025
 30
0.0
 11
-107.7364992230487
 21
131.2500003014025
 31
0.0
  0
LINE
  5
269
330
6A
100
AcDbEntity
  8
0
  6
Continuous
 62
     7
100
AcDbLine
 10
-103.391748540558
 20
155.8500003014085
 30
0.0
 11
-101.4812499052954
 21
155.8500003014086
 31
0.0
  0
LINE
  5
26A
330
6A
100
AcDbEntity
  8
0
  6
Continuous
 62
     7
100
AcDbLine
 10
-103.7364992219323
 20
132.1500003018132
 30
0.0
 11
-101.1364992219323
 21
132.1500003018132
 31
0.0
  0
LINE
  5
26B
330
6A
100
AcDbEntity
  8
0
  6
Continuous
 62
     7
100
AcDbLine
 10
-103.6864992231048
 20
125.9500003015972
 30
0.0
 11
-101.1864992231048
 21
125.9500003015972
 31
0.0
  0
ENDBLK
  5
6C
330
6A
100
AcDbEntity
  8
0
100
AcDbBlockEnd
  0
BLOCK
  5
6F
330
6D
100
AcDbEntity
  8
0
100
AcDbBlockBegin
  2
Vordans1
 70
     0
 10
-100.587499862165
 20
142.9999999995521
 30
0.0
  3
Vordans1
  1

  0
INSERT
  5
6E
330
6D
100
AcDbEntity
  8
0
100
AcDbBlockReference
  2
DF_UP_6-select__6
 10
-109.9864992229967
 20
125.9500003015972
 30
0.0
  0
DIMENSION
  5
276
330
6D
100
AcDbEntity
  8
1
100
AcDbDimension
  2
*D19
 10
-126.7452380340943
 20
125.9500003015972
 30
0.0
 11
-130.1702380340943
 21
140.856784296162
 31
0.0
 70
    32
  1
<>
 71
     5
 42
-1.0
 53
90.0
  3
ME10_DIM_12
100
AcDbAlignedDimension
 13
-108.7452380340943
 23
155.8500003014083
 33
0.0
 14
-103.6864992231048
 24
125.9500003015972
 34
0.0
 50
90.0
100
AcDbRotatedDimension
  0
DIMENSION
  5
281
330
6D
100
AcDbEntity
  8
1
100
AcDbDimension
  2
*D20
 10
-109.9864992229967
 20
110.06404629222
 30
0.0
 11
-86.57636296321948
 21
113.31404629222
 31
0.0
 70
    32
  1
<>
 71
     5
 42
-1.0
 53
0.00013888888889
  3
ME10_DIM_13
100
AcDbAlignedDimension
 13
-62.98649922293136
 23
138.2000003229677
 33
0.0
 14
-109.9864992229967
 24
138.2000003231846
 34
0.0
100
AcDbRotatedDimension
  0
DIMENSION
  5
28C
330
6D
100
AcDbEntity
  8
1
100
AcDbDimension
  2
*D21
 10
-83.98649922292212
 20
118.06404629222
 30
0.0
 11
-73.4875287102262
 21
121.31404629222
 31
0.0
 70
    32
  1
<>
 71
     5
 42
-1.0
 53
0.00013888888889
  3
ME10_DIM_14
100
AcDbAlignedDimension
 13
-62.98649922293136
 23
138.2000003229677
 33
0.0
 14
-83.98649922292212
 24
131.5015442646928
 34
0.0
100
AcDbRotatedDimension
  0
DIMENSION
  5
297
330
6D
100
AcDbEntity
  8
1
100
AcDbDimension
  2
*D22
 10
-109.9864992229967
 20
118.06404629222
 30
0.0
 11
-99.739226449895
 21
121.31404629222
 31
0.0
 70
    32
  1
<>
 71
     5
 42
-1.0
 53
0.00013888888889
  3
ME10_DIM_15
100
AcDbAlignedDimension
 13
-88.98649922292947
 23
131.5015442648002
 33
0.0
 14
-109.9864992229967
 24
138.2000003231846
 34
0.0
100
AcDbRotatedDimension
  0
DIMENSION
  5
2A2
330
6D
100
AcDbEntity
  8
1
100
AcDbDimension
  2
*D23
 10
-118.7452380340943
 20
130.1500003014087
 30
0.0
 11
-122.1702380340943
 21
143.127299877121
 31
0.0
 70
    32
  1
<>
 71
     5
 42
-1.0
 53
90.0
  3
ME10_DIM_16
100
AcDbAlignedDimension
 13
-108.7452380340943
 23
155.8500003014083
 33
0.0
 14
-107.0685494469389
 24
130.1500003014087
 34
0.0
 50
90.0
100
AcDbRotatedDimension
  0
ENDBLK
  5
70
330
6D
100
AcDbEntity
  8
0
100
AcDbBlockEnd
  0
BLOCK
  5
72
330
71
100
AcDbEntity
  8
0
100
AcDbBlockBegin
  2
_rahmen
 70
     0
 10
79.24108593263354
 20
-3.33668281132339
 30
0.0
  3
_rahmen
  1

  0
LINE
  5
2A3
330
71
100
AcDbEntity
  8
1
  6
Continuous
 62
     6
100
AcDbLine
 10
-50.30371859411648
 20
27.16331718867673
 30
0.0
 11
79.24108593263523
 21
27.16331718867673
 31
0.0
  0
LINE
  5
2A4
330
71
100
AcDbEntity
  8
1
  6
Continuous
 62
     7
100
AcDbLine
 10
-32.10371859411646
 20
5.91331718867673
 30
0.0
 11
-13.90371859411656
 21
5.91331718867673
 31
0.0
  0
LINE
  5
2A5
330
71
100
AcDbEntity
  8
1
  6
Continuous
 62
     6
100
AcDbLine
 10
-32.10371859411646
 20
1.66331718867673
 30
0.0
 11
-50.30371859411648
 21
1.66331718867661
 31
0.0
  0
LINE
  5
2A6
330
71
100
AcDbEntity
  8
1
  6
Continuous
 62
     7
100
AcDbLine
 10
-32.10371859411646
 20
5.91331718867673
 30
0.0
 11
-32.10371859411646
 21
1.66331718867673
 31
0.0
  0
LINE
  5
2A7
330
71
100
AcDbEntity
  8
1
  6
Continuous
 62
     7
100
AcDbLine
 10
-13.90371859411656
 20
5.91331718867673
 30
0.0
 11
-13.90371859411656
 21
1.66331718867661
 31
0.0
  0
LINE
  5
2A8
330
71
100
AcDbEntity
  8
1
  6
Continuous
 62
     7
100
AcDbLine
 10
-50.30371859411648
 20
5.91331718867661
 30
0.0
 11
-50.30371859411648
 21
1.66331718867661
 31
0.0
  0
LINE
  5
2A9
330
71
100
AcDbEntity
  8
1
  6
Continuous
 62
     7
100
AcDbLine
 10
-50.30371859411648
 20
5.91331718867661
 30
0.0
 11
-32.10371859411646
 21
5.91331718867673
 31
0.0
  0
LINE
  5
2AA
330
71
100
AcDbEntity
  8
1
  6
Continuous
 62
     2
100
AcDbLine
 10
-41.06706370755387
 20
25.28831718867664
 30
0.0
 11
-41.06706370755387
 21
20.28831718867664
 31
0.0
  0
LINE
  5
2AB
330
71
100
AcDbEntity
  8
1
  6
Continuous
 62
     2
100
AcDbLine
 10
-41.06706370755387
 20
20.28831718867664
 30
0.0
 11
-46.06706370755387
 21
21.53831718867664
 31
0.0
  0
LINE
  5
2AC
330
71
100
AcDbEntity
  8
1
  6
Continuous
 62
     2
100
AcDbLine
 10
-46.06706370755387
 20
21.53831718867664
 30
0.0
 11
-46.06706370755387
 21
24.03831718867664
 31
0.0
  0
LINE
  5
2AD
330
71
100
AcDbEntity
  8
1
  6
Continuous
 62
     2
100
AcDbLine
 10
-46.06706370755387
 20
24.03831718867664
 30
0.0
 11
-41.06706370755387
 21
25.28831718867664
 31
0.0
  0
LINE
  5
2AE
330
71
100
AcDbEntity
  8
1
  6
Continuous
 62
     6
100
AcDbLine
 10
-172.7589140673647
 20
1.66331718867673
 30
0.0
 11
-207.7589140673646
 21
1.66331718867673
 31
0.0
  0
LINE
  5
2AF
330
71
100
AcDbEntity
  8
1
  6
Continuous
 62
     6
100
AcDbLine
 10
79.24108593263523
 20
18.66331718867673
 30
0.0
 11
79.24108593263483
 21
10.16331718867673
 31
0.0
  0
LINE
  5
2B0
330
71
100
AcDbEntity
  8
1
  6
Continuous
 62
     6
100
AcDbLine
 10
-13.90371859411656
 20
1.66331718867661
 30
0.0
 11
-14.25891406736648
 21
1.66331718867673
 31
0.0
  0
LINE
  5
2B1
330
71
100
AcDbEntity
  8
1
  6
Continuous
 62
     6
100
AcDbLine
 10
-166.5589140673667
 20
1.66331718867661
 30
0.0
 11
-172.7589140673647
 21
1.66331718867673
 31
0.0
  0
LINE
  5
2B2
330
71
100
AcDbEntity
  8
1
  6
Continuous
 62
     7
100
AcDbLine
 10
-13.90371859411656
 20
18.66331718867673
 30
0.0
 11
-13.90371859411656
 21
5.91331718867673
 31
0.0
  0
LINE
  5
2B3
330
71
100
AcDbEntity
  8
1
  6
Continuous
 62
     7
100
AcDbLine
 10
-50.30371859411648
 20
18.66331718867673
 30
0.0
 11
-50.30371859411648
 21
5.91331718867661
 31
0.0
  0
LINE
  5
2B4
330
71
100
AcDbEntity
  8
1
  6
Continuous
 62
     6
100
AcDbLine
 10
-64.25891406736645
 20
1.66331718867673
 30
0.0
 11
-114.2589140673667
 21
1.66331718867673
 31
0.0
  0
LINE
  5
2B5
330
71
100
AcDbEntity
  8
1
  6
Continuous
 62
     6
100
AcDbLine
 10
-166.5589140673667
 20
1.66331718867661
 30
0.0
 11
-164.2589140673665
 21
1.66331718867673
 31
0.0
  0
LINE
  5
2B6
330
71
100
AcDbEntity
  8
1
  6
Continuous
 62
     6
100
AcDbLine
 10
-13.90371859411656
 20
1.66331718867661
 30
0.0
 11
35.74108593263352
 21
1.66331718867673
 31
0.0
  0
LINE
  5
2B7
330
71
100
AcDbEntity
  8
1
  6
Continuous
 62
     6
100
AcDbLine
 10
79.24108593263354
 20
1.66331718867673
 30
0.0
 11
79.24108593263483
 21
10.16331718867673
 31
0.0
  0
LINE
  5
2B8
330
71
100
AcDbEntity
  8
1
  6
Continuous
 62
     2
100
AcDbLine
 10
-212.7589140673655
 20
1.66331718867673
 30
0.0
 11
-212.7589140673655
 21
-3.33668281132339
 31
0.0
  0
LINE
  5
2B9
330
71
100
AcDbEntity
  8
1
  6
Continuous
 62
     2
100
AcDbLine
 10
-207.7589140673646
 20
1.66331718867673
 30
0.0
 11
-212.7589140673655
 21
1.66331718867673
 31
0.0
  0
LINE
  5
2BA
330
71
100
AcDbEntity
  8
1
  6
Continuous
 62
     2
100
AcDbLine
 10
-207.7589140673646
 20
-3.33668281132339
 30
0.0
 11
-164.2589140673665
 21
-3.33668281132339
 31
0.0
  0
LINE
  5
2BB
330
71
100
AcDbEntity
  8
1
  6
Continuous
 62
     2
100
AcDbLine
 10
-207.7589140673646
 20
1.66331718867673
 30
0.0
 11
-207.7589140673646
 21
-3.33668281132339
 31
0.0
  0
LINE
  5
2BC
330
71
100
AcDbEntity
  8
1
  6
Continuous
 62
     2
100
AcDbLine
 10
35.74108593263352
 20
-3.33668281132339
 30
0.0
 11
-14.25891406736648
 21
-3.33668281132339
 31
0.0
  0
LINE
  5
2BD
330
71
100
AcDbEntity
  8
1
  6
Continuous
 62
     2
100
AcDbLine
 10
35.74108593263352
 20
-3.33668281132339
 30
0.0
 11
35.74108593263352
 21
1.66331718867673
 31
0.0
  0
LINE
  5
2BE
330
71
100
AcDbEntity
  8
1
  6
Continuous
 62
     2
100
AcDbLine
 10
-14.25891406736648
 20
-3.33668281132339
 30
0.0
 11
-14.25891406736648
 21
1.66331718867673
 31
0.0
  0
LINE
  5
2BF
330
71
100
AcDbEntity
  8
1
  6
Continuous
 62
     2
100
AcDbLine
 10
-64.25891406736645
 20
-3.33668281132339
 30
0.0
 11
-14.25891406736648
 21
-3.33668281132339
 31
0.0
  0
LINE
  5
2C0
330
71
100
AcDbEntity
  8
1
  6
Continuous
 62
     2
100
AcDbLine
 10
-64.25891406736645
 20
-3.33668281132339
 30
0.0
 11
-64.25891406736645
 21
1.66331718867673
 31
0.0
  0
LINE
  5
2C1
330
71
100
AcDbEntity
  8
1
  6
Continuous
 62
     2
100
AcDbLine
 10
-114.2589140673667
 20
-3.33668281132339
 30
0.0
 11
-64.25891406736645
 21
-3.33668281132339
 31
0.0
  0
LINE
  5
2C2
330
71
100
AcDbEntity
  8
1
  6
Continuous
 62
     2
100
AcDbLine
 10
-114.2589140673667
 20
-3.33668281132339
 30
0.0
 11
-114.2589140673667
 21
1.66331718867673
 31
0.0
  0
LINE
  5
2C3
330
71
100
AcDbEntity
  8
1
  6
Continuous
 62
     2
100
AcDbLine
 10
-164.2589140673665
 20
-3.33668281132339
 30
0.0
 11
-114.2589140673667
 21
-3.33668281132339
 31
0.0
  0
LINE
  5
2C4
330
71
100
AcDbEntity
  8
1
  6
Continuous
 62
     2
100
AcDbLine
 10
-164.2589140673665
 20
-3.33668281132339
 30
0.0
 11
-164.2589140673665
 21
1.66331718867673
 31
0.0
  0
LINE
  5
2C5
330
71
100
AcDbEntity
  8
1
  6
Continuous
 62
     6
100
AcDbLine
 10
-207.7589140673647
 20
51.66331718867684
 30
0.0
 11
-207.7589140673646
 21
1.66331718867673
 31
0.0
  0
LINE
  5
2C6
330
71
100
AcDbEntity
  8
1
  6
Continuous
 62
     2
100
AcDbLine
 10
-212.7589140673655
 20
51.66331718867684
 30
0.0
 11
-212.7589140673655
 21
1.66331718867673
 31
0.0
  0
LINE
  5
2C7
330
71
100
AcDbEntity
  8
1
  6
Continuous
 62
     2
100
AcDbLine
 10
-212.7589140673655
 20
51.66331718867684
 30
0.0
 11
-207.7589140673647
 21
51.66331718867684
 31
0.0
  0
LINE
  5
2C8
330
71
100
AcDbEntity
  8
1
  6
Continuous
 62
     6
100
AcDbLine
 10
-207.758914067365
 20
101.6633171886766
 30
0.0
 11
-207.7589140673647
 21
51.66331718867684
 31
0.0
  0
LINE
  5
2C9
330
71
100
AcDbEntity
  8
1
  6
Continuous
 62
     2
100
AcDbLine
 10
-212.7589140673655
 20
101.6633171886766
 30
0.0
 11
-212.7589140673655
 21
51.66331718867684
 31
0.0
  0
LINE
  5
2CA
330
71
100
AcDbEntity
  8
1
  6
Continuous
 62
     2
100
AcDbLine
 10
-212.7589140673655
 20
101.6633171886766
 30
0.0
 11
-207.758914067365
 21
101.6633171886766
 31
0.0
  0
LINE
  5
2CB
330
71
100
AcDbEntity
  8
1
  6
Continuous
 62
     6
100
AcDbLine
 10
-207.7589140673655
 20
151.6633171886767
 30
0.0
 11
-207.758914067365
 21
101.6633171886766
 31
0.0
  0
LINE
  5
2CC
330
71
100
AcDbEntity
  8
1
  6
Continuous
 62
     2
100
AcDbLine
 10
-212.7589140673655
 20
151.6633171886767
 30
0.0
 11
-212.7589140673655
 21
101.6633171886766
 31
0.0
  0
LINE
  5
2CD
330
71
100
AcDbEntity
  8
1
  6
Continuous
 62
     2
100
AcDbLine
 10
-212.7589140673655
 20
151.6633171886767
 30
0.0
 11
-207.7589140673655
 21
151.6633171886767
 31
0.0
  0
LINE
  5
2CE
330
71
100
AcDbEntity
  8
1
  6
Continuous
 62
     6
100
AcDbLine
 10
-207.7589140673655
 20
186.6633171886767
 30
0.0
 11
-207.7589140673655
 21
151.6633171886767
 31
0.0
  0
LINE
  5
2CF
330
71
100
AcDbEntity
  8
1
  6
Continuous
 62
     2
100
AcDbLine
 10
-212.7589140673655
 20
206.6633171886767
 30
0.0
 11
-212.7589140673655
 21
151.6633171886767
 31
0.0
  0
LINE
  5
2D0
330
71
100
AcDbEntity
  8
1
  6
Continuous
 62
     2
100
AcDbLine
 10
-212.7589140673655
 20
-3.33668281132339
 30
0.0
 11
-207.7589140673646
 21
-3.33668281132339
 31
0.0
  0
LINE
  5
2D1
330
71
100
AcDbEntity
  8
1
  6
Continuous
 62
     2
100
AcDbLine
 10
-64.25891406736645
 20
206.6633171886767
 30
0.0
 11
-64.25891406736645
 21
197.4546253439754
 31
0.0
  0
LINE
  5
2D2
330
71
100
AcDbEntity
  8
1
  6
Continuous
 62
     2
100
AcDbLine
 10
-64.25891406736645
 20
206.6633171886767
 30
0.0
 11
-212.7589140673655
 21
206.6633171886767
 31
0.0
  0
LINE
  5
2D3
330
71
100
AcDbEntity
  8
1
  6
Continuous
 62
     2
100
AcDbLine
 10
84.24108593263253
 20
1.66331718867673
 30
0.0
 11
84.24108593263253
 21
51.66331718867684
 31
0.0
  0
LINE
  5
2D4
330
71
100
AcDbEntity
  8
1
  6
Continuous
 62
     2
100
AcDbLine
 10
84.24108593263253
 20
151.6633171886767
 30
0.0
 11
84.24108593263253
 21
206.6633171886767
 31
0.0
  0
LINE
  5
2D5
330
71
100
AcDbEntity
  8
1
  6
Continuous
 62
     6
100
AcDbLine
 10
79.24108593263273
 20
151.6633171886767
 30
0.0
 11
79.24108593263253
 21
186.6633171886767
 31
0.0
  0
LINE
  5
2D6
330
71
100
AcDbEntity
  8
1
  6
Continuous
 62
     2
100
AcDbLine
 10
79.24108593263273
 20
151.6633171886767
 30
0.0
 11
84.24108593263253
 21
151.6633171886767
 31
0.0
  0
LINE
  5
2D7
330
71
100
AcDbEntity
  8
1
  6
Continuous
 62
     2
100
AcDbLine
 10
84.24108593263253
 20
101.6633171886766
 30
0.0
 11
84.24108593263253
 21
151.6633171886767
 31
0.0
  0
LINE
  5
2D8
330
71
100
AcDbEntity
  8
1
  6
Continuous
 62
     6
100
AcDbLine
 10
79.24108593263394
 20
101.6633171886766
 30
0.0
 11
79.24108593263273
 21
151.6633171886767
 31
0.0
  0
LINE
  5
2D9
330
71
100
AcDbEntity
  8
1
  6
Continuous
 62
     2
100
AcDbLine
 10
79.24108593263394
 20
101.6633171886766
 30
0.0
 11
84.24108593263253
 21
101.6633171886766
 31
0.0
  0
LINE
  5
2DA
330
71
100
AcDbEntity
  8
1
  6
Continuous
 62
     2
100
AcDbLine
 10
84.24108593263253
 20
51.66331718867684
 30
0.0
 11
84.24108593263253
 21
101.6633171886766
 31
0.0
  0
LINE
  5
2DB
330
71
100
AcDbEntity
  8
1
  6
Continuous
 62
     6
100
AcDbLine
 10
79.24108593263443
 20
51.66331718867684
 30
0.0
 11
79.24108593263394
 21
101.6633171886766
 31
0.0
  0
LINE
  5
2DC
330
71
100
AcDbEntity
  8
1
  6
Continuous
 62
     2
100
AcDbLine
 10
79.24108593263443
 20
51.66331718867684
 30
0.0
 11
84.24108593263253
 21
51.66331718867684
 31
0.0
  0
LINE
  5
2DD
330
71
100
AcDbEntity
  8
1
  6
Continuous
 62
     6
100
AcDbLine
 10
79.24108593263253
 20
186.6633171886767
 30
0.0
 11
-207.7589140673655
 21
186.6633171886767
 31
0.0
  0
LINE
  5
2DE
330
71
100
AcDbEntity
  8
1
  6
Continuous
 62
     2
100
AcDbLine
 10
84.24108593263253
 20
206.6633171886767
 30
0.0
 11
-64.25891406736645
 21
206.6633171886767
 31
0.0
  0
LINE
  5
2DF
330
71
100
AcDbEntity
  8
1
  6
Continuous
 62
     6
100
AcDbLine
 10
79.24108593263523
 20
18.66331718867673
 30
0.0
 11
79.24108593263443
 21
51.66331718867684
 31
0.0
  0
LINE
  5
2E0
330
71
100
AcDbEntity
  8
1
  6
Continuous
 62
     2
100
AcDbLine
 10
79.24108593263354
 20
-3.33668281132339
 30
0.0
 11
35.74108593263352
 21
-3.33668281132339
 31
0.0
  0
LINE
  5
2E1
330
71
100
AcDbEntity
  8
1
  6
Continuous
 62
     2
100
AcDbLine
 10
84.24108593263253
 20
-3.33668281132339
 30
0.0
 11
79.24108593263354
 21
-3.33668281132339
 31
0.0
  0
LINE
  5
2E2
330
71
100
AcDbEntity
  8
1
  6
Continuous
 62
     2
100
AcDbLine
 10
84.24108593263253
 20
-3.33668281132339
 30
0.0
 11
84.24108593263253
 21
1.66331718867673
 31
0.0
  0
LINE
  5
2E3
330
71
100
AcDbEntity
  8
1
  6
Continuous
 62
     6
100
AcDbLine
 10
-50.30371859411648
 20
18.66331718867673
 30
0.0
 11
-13.90371859411656
 21
18.66331718867673
 31
0.0
  0
LINE
  5
2E4
330
71
100
AcDbEntity
  8
1
  6
Continuous
 62
     2
100
AcDbLine
 10
79.24108593263354
 20
1.66331718867673
 30
0.0
 11
79.24108593263354
 21
-3.33668281132339
 31
0.0
  0
LINE
  5
2E5
330
71
100
AcDbEntity
  8
1
  6
Continuous
 62
     2
100
AcDbLine
 10
79.24108593263354
 20
1.66331718867673
 30
0.0
 11
84.24108593263253
 21
1.66331718867673
 31
0.0
  0
LINE
  5
2E6
330
71
100
AcDbEntity
  8
1
  6
Continuous
 62
     6
100
AcDbLine
 10
-14.25891406736648
 20
1.66331718867673
 30
0.0
 11
-32.10371859411646
 21
1.66331718867673
 31
0.0
  0
LINE
  5
2E7
330
71
100
AcDbEntity
  8
1
  6
Continuous
 62
     6
100
AcDbLine
 10
35.74108593263352
 20
1.66331718867673
 30
0.0
 11
79.24108593263354
 21
1.66331718867673
 31
0.0
  0
LINE
  5
2E8
330
71
100
AcDbEntity
  8
1
  6
Continuous
 62
     6
100
AcDbLine
 10
-114.2589140673667
 20
1.66331718867673
 30
0.0
 11
-119.3037185941165
 21
1.66331718867673
 31
0.0
  0
LINE
  5
2E9
330
71
100
AcDbEntity
  8
1
  6
Continuous
 62
     6
100
AcDbLine
 10
-64.25891406736645
 20
1.66331718867673
 30
0.0
 11
-50.30371859411648
 21
1.66331718867661
 31
0.0
  0
LINE
  5
2EA
102
{ACAD_REACTORS
330
3D4
330
3D5
102
}
330
71
100
AcDbEntity
  8
0
  6
Continuous
 62
     2
100
AcDbLine
 10
-42.78909265196967
 20
13.73583194488884
 30
0.0
 11
-42.78909265196967
 21
14.34136723339563
 31
0.0
  0
LINE
  5
2EB
102
{ACAD_REACTORS
330
3D4
330
3D5
102
}
330
71
100
AcDbEntity
  8
0
  6
Continuous
 62
     2
100
AcDbLine
 10
-42.78909265196967
 20
10.93569733825754
 30
0.0
 11
-42.78909265196967
 21
11.51754874495262
 31
0.0
  0
LINE
  5
2EC
102
{ACAD_REACTORS
330
3D6
330
3D7
102
}
330
71
100
AcDbEntity
  8
0
  6
Continuous
 62
     2
100
AcDbLine
 10
-20.15960621649046
 20
11.22536140638053
 30
0.0
 11
-20.15960621649046
 21
8.95681718869304
 31
0.0
  0
LINE
  5
2ED
102
{ACAD_REACTORS
330
3D6
330
3D7
102
}
330
71
100
AcDbEntity
  8
0
  6
Continuous
 62
     2
100
AcDbLine
 10
-21.54065999547805
 20
12.01062671250364
 30
0.0
 11
-18.15571447684937
 21
12.01062671250412
 31
0.0
  0
LINE
  5
2EE
102
{ACAD_REACTORS
330
3D6
330
3D7
102
}
330
71
100
AcDbEntity
  8
0
  6
Continuous
 62
     2
100
AcDbLine
 10
-18.15571447684937
 20
11.22536140638053
 30
0.0
 11
-18.15571447684937
 21
12.01062671250412
 31
0.0
  0
LINE
  5
2EF
102
{ACAD_REACTORS
330
3D6
330
3D7
102
}
330
71
100
AcDbEntity
  8
0
  6
Continuous
 62
     2
100
AcDbLine
 10
-18.96681351432275
 20
11.22536140638053
 30
0.0
 11
-18.15571447684937
 21
11.22536140638053
 31
0.0
  0
LINE
  5
2F0
102
{ACAD_REACTORS
330
3D6
330
3D7
102
}
330
71
100
AcDbEntity
  8
0
  6
Continuous
 62
     2
100
AcDbLine
 10
-18.96681351432275
 20
8.95681718869304
 30
0.0
 11
-18.96681351432275
 21
11.22536140638053
 31
0.0
  0
LINE
  5
2F1
102
{ACAD_REACTORS
330
3D6
330
3D7
102
}
330
71
100
AcDbEntity
  8
0
  6
Continuous
 62
     2
100
AcDbLine
 10
-20.15960621649046
 20
8.95681718869304
 30
0.0
 11
-18.96681351432275
 21
8.95681718869304
 31
0.0
  0
LINE
  5
2F2
102
{ACAD_REACTORS
330
3CC
330
3CD
102
}
330
71
100
AcDbEntity
  8
0
  6
Continuous
 62
     2
100
AcDbLine
 10
-20.85619715455496
 20
15.36981718867853
 30
0.0
 11
-22.25892137230426
 21
15.36981718867853
 31
0.0
  0
LINE
  5
2F3
102
{ACAD_REACTORS
330
3CC
330
3CD
102
}
330
71
100
AcDbEntity
  8
0
  6
Continuous
 62
     2
100
AcDbLine
 10
-20.85619715455496
 20
15.36981718867853
 30
0.0
 11
-20.25502963266317
 21
14.68999386712304
 31
0.0
  0
LINE
  5
2F4
102
{ACAD_REACTORS
330
3CC
330
3CD
102
}
330
71
100
AcDbEntity
  8
0
  6
Continuous
 62
     2
100
AcDbLine
 10
-20.25502963266317
 20
14.68999386712304
 30
0.0
 11
-19.65386211077038
 21
15.36981718867853
 31
0.0
  0
LINE
  5
2F5
102
{ACAD_REACTORS
330
3CC
330
3CD
102
}
330
71
100
AcDbEntity
  8
0
  6
Continuous
 62
     2
100
AcDbLine
 10
-19.55366752378967
 20
13.89686665864232
 30
0.0
 11
-18.25113789302316
 21
15.36981718867853
 31
0.0
  0
LINE
  5
2F6
102
{ACAD_REACTORS
330
3CC
330
3CD
102
}
330
71
100
AcDbEntity
  8
0
  6
Continuous
 62
     2
100
AcDbLine
 10
-19.55366752378967
 20
13.89686665864232
 30
0.0
 11
-18.15571447684937
 21
12.31600766486733
 31
0.0
  0
LINE
  5
2F7
102
{ACAD_REACTORS
330
3CC
330
3CD
102
}
330
71
100
AcDbEntity
  8
0
  6
Continuous
 62
     2
100
AcDbLine
 10
-19.55843869459767
 20
12.31600766486733
 30
0.0
 11
-18.15571447684937
 21
12.31600766486733
 31
0.0
  0
LINE
  5
2F8
102
{ACAD_REACTORS
330
3CC
330
3CD
102
}
330
71
100
AcDbEntity
  8
0
  6
Continuous
 62
     2
100
AcDbLine
 10
-20.25502963266317
 20
13.10373945016104
 30
0.0
 11
-19.55843869459767
 21
12.31600766486733
 31
0.0
  0
LINE
  5
2F9
102
{ACAD_REACTORS
330
3CA
330
3CB
102
}
330
71
100
AcDbEntity
  8
0
  6
Continuous
 62
     2
100
AcDbLine
 10
-23.71412846894685
 20
15.36981718867853
 30
0.0
 11
-22.47362405869396
 21
15.36981718867853
 31
0.0
  0
LINE
  5
2FA
102
{ACAD_REACTORS
330
3CA
330
3CB
102
}
330
71
100
AcDbEntity
  8
0
  6
Continuous
 62
     2
100
AcDbLine
 10
-22.47362405869396
 20
15.36981718867853
 30
0.0
 11
-22.47362405869396
 21
12.31600766486733
 31
0.0
  0
LINE
  5
2FB
102
{ACAD_REACTORS
330
3CA
330
3CB
102
}
330
71
100
AcDbEntity
  8
0
  6
Continuous
 62
     2
100
AcDbLine
 10
-23.71412846894685
 20
12.31600766486733
 30
0.0
 11
-23.71412846894685
 21
15.36981718867853
 31
0.0
  0
LINE
  5
2FC
102
{ACAD_REACTORS
330
3C8
330
3C9
102
}
330
71
100
AcDbEntity
  8
0
  6
Continuous
 62
     2
100
AcDbLine
 10
-25.18243855148447
 20
10.17834099821752
 30
0.0
 11
-24.88227331429206
 21
10.94615596420422
 31
0.0
  0
LINE
  5
2FD
102
{ACAD_REACTORS
330
3C8
330
3C9
102
}
330
71
100
AcDbEntity
  8
0
  6
Continuous
 62
     2
100
AcDbLine
 10
-25.65997415610528
 20
8.95681718869304
 30
0.0
 11
-25.44849410262947
 21
9.49777773291092
 31
0.0
  0
LINE
  5
2FE
102
{ACAD_REACTORS
330
3C8
330
3C9
102
}
330
71
100
AcDbEntity
  8
0
  6
Continuous
 62
     2
100
AcDbLine
 10
-25.50252551941895
 20
12.01062671250412
 30
0.0
 11
-26.90047856635826
 21
8.95681718869304
 31
0.0
  0
LINE
  5
2FF
102
{ACAD_REACTORS
330
3C8
330
3C9
102
}
330
71
100
AcDbEntity
  8
0
  6
Continuous
 62
     2
100
AcDbLine
 10
-22.86406806222595
 20
8.95681718869304
 30
0.0
 11
-24.10457247247987
 21
8.95681718869304
 31
0.0
  0
LINE
  5
300
102
{ACAD_REACTORS
330
3C8
330
3C9
102
}
330
71
100
AcDbEntity
  8
0
  6
Continuous
 62
     2
100
AcDbLine
 10
-25.44849410262947
 20
9.49777773291092
 30
0.0
 11
-24.31605252595566
 21
9.49777773291092
 31
0.0
  0
LINE
  5
301
102
{ACAD_REACTORS
330
3C6
330
3C7
102
}
330
71
100
AcDbEntity
  8
0
  6
Continuous
 62
     2
100
AcDbLine
 10
-29.05799070554048
 20
11.22536140638053
 30
0.0
 11
-28.24689166806587
 21
11.22536140638053
 31
0.0
  0
LINE
  5
302
102
{ACAD_REACTORS
330
3C6
330
3C7
102
}
330
71
100
AcDbEntity
  8
0
  6
Continuous
 62
     2
100
AcDbLine
 10
-26.24299992842686
 20
12.01062671250412
 30
0.0
 11
-29.05799070554048
 21
12.01062671250412
 31
0.0
  0
LINE
  5
303
102
{ACAD_REACTORS
330
3C6
330
3C7
102
}
330
71
100
AcDbEntity
  8
0
  6
Continuous
 62
     2
100
AcDbLine
 10
-26.24299992842686
 20
11.22536140638053
 30
0.0
 11
-26.24299992842686
 21
12.01062671250412
 31
0.0
  0
LINE
  5
304
102
{ACAD_REACTORS
330
3C6
330
3C7
102
}
330
71
100
AcDbEntity
  8
0
  6
Continuous
 62
     2
100
AcDbLine
 10
-27.05409896589936
 20
11.22536140638053
 30
0.0
 11
-26.24299992842686
 21
11.22536140638053
 31
0.0
  0
LINE
  5
305
102
{ACAD_REACTORS
330
3C6
330
3C7
102
}
330
71
100
AcDbEntity
  8
0
  6
Continuous
 62
     2
100
AcDbLine
 10
-27.05409896589936
 20
8.95681718869304
 30
0.0
 11
-27.05409896589936
 21
11.22536140638053
 31
0.0
  0
LINE
  5
306
102
{ACAD_REACTORS
330
3C4
330
3C5
102
}
330
71
100
AcDbEntity
  8
0
  6
Continuous
 62
     2
100
AcDbLine
 10
-26.38598412180136
 20
12.31600766486733
 30
0.0
 11
-26.38598412180136
 21
13.62478317507203
 31
0.0
  0
LINE
  5
307
102
{ACAD_REACTORS
330
3C4
330
3C5
102
}
330
71
100
AcDbEntity
  8
0
  6
Continuous
 62
     2
100
AcDbLine
 10
-27.57877682396787
 20
15.36981718867853
 30
0.0
 11
-27.57877682396787
 21
12.31600766486733
 31
0.0
  0
LINE
  5
308
102
{ACAD_REACTORS
330
3C4
330
3C5
102
}
330
71
100
AcDbEntity
  8
0
  6
Continuous
 62
     2
100
AcDbLine
 10
-26.38598412180136
 20
15.36981718867853
 30
0.0
 11
-27.57877682396787
 21
15.36981718867853
 31
0.0
  0
LINE
  5
309
102
{ACAD_REACTORS
330
3C4
330
3C5
102
}
330
71
100
AcDbEntity
  8
0
  6
Continuous
 62
     2
100
AcDbLine
 10
-25.14547971154735
 20
15.36981718867853
 30
0.0
 11
-25.14547971154735
 21
14.06104167847335
 31
0.0
  0
LINE
  5
30A
102
{ACAD_REACTORS
330
3C2
330
3C3
102
}
330
71
100
AcDbEntity
  8
0
  6
Continuous
 62
     2
100
AcDbLine
 10
-32.82721564438756
 20
12.01062671250412
 30
0.0
 11
-32.82721564438756
 21
8.95681718869304
 31
0.0
  0
LINE
  5
30B
102
{ACAD_REACTORS
330
3C2
330
3C3
102
}
330
71
100
AcDbEntity
  8
0
  6
Continuous
 62
     2
100
AcDbLine
 10
-31.63442294221997
 20
12.01062671250412
 30
0.0
 11
-32.82721564438756
 21
12.01062671250412
 31
0.0
  0
LINE
  5
30C
102
{ACAD_REACTORS
330
3C2
330
3C3
102
}
330
71
100
AcDbEntity
  8
0
  6
Continuous
 62
     2
100
AcDbLine
 10
-30.39391853196707
 20
8.95681718869304
 30
0.0
 11
-29.20112582980067
 21
8.95681718869304
 31
0.0
  0
LINE
  5
30D
102
{ACAD_REACTORS
330
3C2
330
3C3
102
}
330
71
100
AcDbEntity
  8
0
  6
Continuous
 62
     2
100
AcDbLine
 10
-32.82721564438756
 20
8.95681718869304
 30
0.0
 11
-31.63442294221997
 21
8.95681718869304
 31
0.0
  0
LINE
  5
30E
102
{ACAD_REACTORS
330
3D2
330
3D3
102
}
330
71
100
AcDbEntity
  8
0
  6
Continuous
 62
     2
100
AcDbLine
 10
-29.15326319082845
 20
14.19191922949383
 30
0.0
 11
-29.15326319082845
 21
14.67180358323554
 31
0.0
  0
LINE
  5
30F
102
{ACAD_REACTORS
330
3D2
330
3D3
102
}
330
71
100
AcDbEntity
  8
0
  6
Continuous
 62
     2
100
AcDbLine
 10
-27.81733536440078
 20
14.19191922949383
 30
0.0
 11
-29.15326319082845
 21
14.19191922949383
 31
0.0
  0
LINE
  5
310
102
{ACAD_REACTORS
330
3D2
330
3D3
102
}
330
71
100
AcDbEntity
  8
0
  6
Continuous
 62
     2
100
AcDbLine
 10
-27.81733536440078
 20
13.49390562405154
 30
0.0
 11
-27.81733536440078
 21
14.19191922949383
 31
0.0
  0
LINE
  5
311
102
{ACAD_REACTORS
330
3D2
330
3D3
102
}
330
71
100
AcDbEntity
  8
0
  6
Continuous
 62
     2
100
AcDbLine
 10
-29.15326319082845
 20
13.49390562405154
 30
0.0
 11
-27.81733536440078
 21
13.49390562405154
 31
0.0
  0
LINE
  5
312
102
{ACAD_REACTORS
330
3C0
330
3C1
102
}
330
71
100
AcDbEntity
  8
0
  6
Continuous
 62
     2
100
AcDbLine
 10
-32.63621788115538
 20
15.36981718867853
 30
0.0
 11
-32.63621788115538
 21
12.31600766486733
 31
0.0
  0
LINE
  5
313
102
{ACAD_REACTORS
330
3C0
330
3C1
102
}
330
71
100
AcDbEntity
  8
0
  6
Continuous
 62
     2
100
AcDbLine
 10
-32.63621788115538
 20
12.31600766486733
 30
0.0
 11
-33.82901058332178
 21
12.31600766486733
 31
0.0
  0
LINE
  5
314
102
{ACAD_REACTORS
330
3C0
330
3C1
102
}
330
71
100
AcDbEntity
  8
0
  6
Continuous
 62
     2
100
AcDbLine
 10
-33.82901058332178
 20
12.31600766486733
 30
0.0
 11
-33.82901058332178
 21
13.45027977371115
 31
0.0
  0
LINE
  5
315
102
{ACAD_REACTORS
330
3C0
330
3C1
102
}
330
71
100
AcDbEntity
  8
0
  6
Continuous
 62
     2
100
AcDbLine
 10
-34.87866816122926
 20
12.31600766486733
 30
0.0
 11
-36.07146086339586
 21
12.31600766486733
 31
0.0
  0
LINE
  5
316
102
{ACAD_REACTORS
330
3C0
330
3C1
102
}
330
71
100
AcDbEntity
  8
0
  6
Continuous
 62
     2
100
AcDbLine
 10
-36.07146086339586
 20
15.36981718867853
 30
0.0
 11
-34.87866816122926
 21
15.36981718867853
 31
0.0
  0
LINE
  5
317
102
{ACAD_REACTORS
330
3C0
330
3C1
102
}
330
71
100
AcDbEntity
  8
0
  6
Continuous
 62
     2
100
AcDbLine
 10
-34.87866816122926
 20
15.36981718867853
 30
0.0
 11
-34.87866816122926
 21
14.30098385534393
 31
0.0
  0
LINE
  5
318
102
{ACAD_REACTORS
330
3C0
330
3C1
102
}
330
71
100
AcDbEntity
  8
0
  6
Continuous
 62
     2
100
AcDbLine
 10
-34.87866816122926
 20
14.30098385534393
 30
0.0
 11
-33.82901058332178
 21
14.30098385534393
 31
0.0
  0
LINE
  5
319
102
{ACAD_REACTORS
330
3CE
330
3CF
102
}
330
71
100
AcDbEntity
  8
0
  6
Continuous
 62
     2
100
AcDbLine
 10
-38.02764089494946
 20
14.70671134323843
 30
0.0
 11
-37.71034583340756
 21
14.70671134323843
 31
0.0
  0
LINE
  5
31A
102
{ACAD_REACTORS
330
3CE
330
3CF
102
}
330
71
100
AcDbEntity
  8
0
  6
Continuous
 62
     2
100
AcDbLine
 10
-38.02764089494946
 20
14.00098369389622
 30
0.0
 11
-37.71034583340756
 21
14.00098369389622
 31
0.0
  0
LINE
  5
31B
102
{ACAD_REACTORS
330
3CE
330
3CF
102
}
330
71
100
AcDbEntity
  8
0
  6
Continuous
 62
     2
100
AcDbLine
 10
-39.26814530520358
 20
15.36981718867853
 30
0.0
 11
-39.26814530520358
 21
12.31600766486733
 31
0.0
  0
LINE
  5
31C
102
{ACAD_REACTORS
330
3CE
330
3CF
102
}
330
71
100
AcDbEntity
  8
0
  6
Continuous
 62
     2
100
AcDbLine
 10
-39.26814530520358
 20
15.36981718867853
 30
0.0
 11
-37.26887330716917
 21
15.36981718867853
 31
0.0
  0
LINE
  5
31D
102
{ACAD_REACTORS
330
3CE
330
3CF
102
}
330
71
100
AcDbEntity
  8
0
  6
Continuous
 62
     2
100
AcDbLine
 10
-38.02764089494946
 20
13.25908590601114
 30
0.0
 11
-37.26887330716917
 21
13.25908590601114
 31
0.0
  0
LINE
  5
31E
102
{ACAD_REACTORS
330
3D4
330
3D5
102
}
330
71
100
AcDbEntity
  8
0
  6
Continuous
 62
     2
100
AcDbLine
 10
-45.36464133850026
 20
14.34154471004374
 30
0.0
 11
-45.36464133850026
 21
9.98508966732663
 31
0.0
  0
LINE
  5
31F
102
{ACAD_REACTORS
330
3D4
330
3D5
102
}
330
71
100
AcDbEntity
  8
0
  6
Continuous
 62
     2
100
AcDbLine
 10
-45.04892441542458
 20
14.65726163311993
 30
0.0
 11
-43.57309115441495
 21
14.65726163311993
 31
0.0
  0
LINE
  5
320
102
{ACAD_REACTORS
330
3D4
330
3D5
102
}
330
71
100
AcDbEntity
  8
0
  6
Continuous
 62
     2
100
AcDbLine
 10
-43.25737423133836
 20
13.73752009098322
 30
0.0
 11
-43.25737423133836
 21
14.34154471004374
 31
0.0
  0
LINE
  5
321
102
{ACAD_REACTORS
330
3D4
330
3D5
102
}
330
71
100
AcDbEntity
  8
0
  6
Continuous
 62
     2
100
AcDbLine
 10
-43.25737423133836
 20
9.98508966732663
 30
0.0
 11
-43.25737423133836
 21
11.51586059885824
 31
0.0
  0
LINE
  5
322
102
{ACAD_REACTORS
330
3D4
330
3D5
102
}
330
71
100
AcDbEntity
  8
0
  6
Continuous
 62
     2
100
AcDbLine
 10
-40.16950700145426
 20
8.95681718869304
 30
0.0
 11
-45.64281909217107
 21
8.95681718869304
 31
0.0
  0
LINE
  5
323
102
{ACAD_REACTORS
330
3D4
330
3D5
102
}
330
71
100
AcDbEntity
  8
0
  6
Continuous
 62
     2
100
AcDbLine
 10
-39.74526238607038
 20
14.94557257327654
 30
0.0
 11
-39.74526238607038
 21
9.38106180407632
 31
0.0
  0
LINE
  5
324
102
{ACAD_REACTORS
330
3D4
330
3D5
102
}
330
71
100
AcDbEntity
  8
0
  6
Continuous
 62
     2
100
AcDbLine
 10
-45.64281909217107
 20
15.36981718866034
 30
0.0
 11
-40.16950700145426
 21
15.36981718866034
 31
0.0
  0
LINE
  5
325
102
{ACAD_REACTORS
330
3D4
330
3D5
102
}
330
71
100
AcDbEntity
  8
0
  6
Continuous
 62
     2
100
AcDbLine
 10
-46.06706370755387
 20
14.94557257327654
 30
0.0
 11
-46.06706370755387
 21
9.38106180407632
 31
0.0
  0
LINE
  5
326
102
{ACAD_REACTORS
330
3D4
330
3D5
102
}
330
71
100
AcDbEntity
  8
0
  6
Continuous
 62
     2
100
AcDbLine
 10
-43.57309115441495
 20
9.66937274424993
 30
0.0
 11
-45.04892441542458
 21
9.66937274424993
 31
0.0
  0
LINE
  5
327
102
{ACAD_REACTORS
330
3CE
330
3CF
102
}
330
71
100
AcDbEntity
  8
0
  6
Continuous
 62
     2
100
AcDbLine
 10
-38.02764089494946
 20
12.31600766486733
 30
0.0
 11
-38.02764089494946
 21
13.25908590601114
 31
0.0
  0
LINE
  5
328
102
{ACAD_REACTORS
330
3CE
330
3CF
102
}
330
71
100
AcDbEntity
  8
0
  6
Continuous
 62
     2
100
AcDbLine
 10
-39.26814530520358
 20
12.31600766486733
 30
0.0
 11
-38.02764089494946
 21
12.31600766486733
 31
0.0
  0
LINE
  5
329
102
{ACAD_REACTORS
330
3CE
330
3CF
102
}
330
71
100
AcDbEntity
  8
0
  6
Continuous
 62
     2
100
AcDbLine
 10
-38.02764089494946
 20
14.00098369389622
 30
0.0
 11
-38.02764089494946
 21
14.70671134323843
 31
0.0
  0
LINE
  5
32A
102
{ACAD_REACTORS
330
3C0
330
3C1
102
}
330
71
100
AcDbEntity
  8
0
  6
Continuous
 62
     2
100
AcDbLine
 10
-36.07146086339586
 20
15.36981718867853
 30
0.0
 11
-36.07146086339586
 21
12.31600766486733
 31
0.0
  0
LINE
  5
32B
102
{ACAD_REACTORS
330
3C0
330
3C1
102
}
330
71
100
AcDbEntity
  8
0
  6
Continuous
 62
     2
100
AcDbLine
 10
-34.87866816122926
 20
13.45027977371115
 30
0.0
 11
-34.87866816122926
 21
12.31600766486733
 31
0.0
  0
LINE
  5
32C
102
{ACAD_REACTORS
330
3C0
330
3C1
102
}
330
71
100
AcDbEntity
  8
0
  6
Continuous
 62
     2
100
AcDbLine
 10
-33.82901058332178
 20
13.45027977371115
 30
0.0
 11
-34.87866816122926
 21
13.45027977371115
 31
0.0
  0
LINE
  5
32D
102
{ACAD_REACTORS
330
3C0
330
3C1
102
}
330
71
100
AcDbEntity
  8
0
  6
Continuous
 62
     2
100
AcDbLine
 10
-33.82901058332178
 20
15.36981718867853
 30
0.0
 11
-32.63621788115538
 21
15.36981718867853
 31
0.0
  0
LINE
  5
32E
102
{ACAD_REACTORS
330
3C0
330
3C1
102
}
330
71
100
AcDbEntity
  8
0
  6
Continuous
 62
     2
100
AcDbLine
 10
-33.82901058332178
 20
14.30098385534393
 30
0.0
 11
-33.82901058332178
 21
15.36981718867853
 31
0.0
  0
LINE
  5
32F
102
{ACAD_REACTORS
330
3D2
330
3D3
102
}
330
71
100
AcDbEntity
  8
0
  6
Continuous
 62
     2
100
AcDbLine
 10
-27.81733536440078
 20
14.67180358323554
 30
0.0
 11
-27.81733536440078
 21
15.36981718867853
 31
0.0
  0
LINE
  5
330
102
{ACAD_REACTORS
330
3D2
330
3D3
102
}
330
71
100
AcDbEntity
  8
0
  6
Continuous
 62
     2
100
AcDbLine
 10
-30.96765508818177
 20
15.36981718867853
 30
0.0
 11
-27.81733536440078
 21
15.36981718867853
 31
0.0
  0
LINE
  5
331
102
{ACAD_REACTORS
330
3D2
330
3D3
102
}
330
71
100
AcDbEntity
  8
0
  6
Continuous
 62
     2
100
AcDbLine
 10
-30.96765508818177
 20
12.31600766486733
 30
0.0
 11
-27.81733536440078
 21
12.31600766486733
 31
0.0
  0
LINE
  5
332
102
{ACAD_REACTORS
330
3D2
330
3D3
102
}
330
71
100
AcDbEntity
  8
0
  6
Continuous
 62
     2
100
AcDbLine
 10
-27.81733536440078
 20
12.31600766486733
 30
0.0
 11
-27.81733536440078
 21
13.01402127030983
 31
0.0
  0
LINE
  5
333
102
{ACAD_REACTORS
330
3D2
330
3D3
102
}
330
71
100
AcDbEntity
  8
0
  6
Continuous
 62
     2
100
AcDbLine
 10
-27.81733536440078
 20
13.01402127030983
 30
0.0
 11
-29.15326319082845
 21
13.01402127030983
 31
0.0
  0
LINE
  5
334
102
{ACAD_REACTORS
330
3D2
330
3D3
102
}
330
71
100
AcDbEntity
  8
0
  6
Continuous
 62
     2
100
AcDbLine
 10
-29.15326319082845
 20
13.01402127030983
 30
0.0
 11
-29.15326319082845
 21
13.49390562405154
 31
0.0
  0
LINE
  5
335
102
{ACAD_REACTORS
330
3D2
330
3D3
102
}
330
71
100
AcDbEntity
  8
0
  6
Continuous
 62
     2
100
AcDbLine
 10
-29.15326319082845
 20
14.67180358323554
 30
0.0
 11
-27.81733536440078
 21
14.67180358323554
 31
0.0
  0
LINE
  5
336
102
{ACAD_REACTORS
330
3C2
330
3C3
102
}
330
71
100
AcDbEntity
  8
0
  6
Continuous
 62
     2
100
AcDbLine
 10
-31.63442294221997
 20
8.95681718869304
 30
0.0
 11
-31.63442294221997
 21
10.26559269889762
 31
0.0
  0
LINE
  5
337
102
{ACAD_REACTORS
330
3C2
330
3C3
102
}
330
71
100
AcDbEntity
  8
0
  6
Continuous
 62
     2
100
AcDbLine
 10
-31.63442294221997
 20
10.26559269889762
 30
0.0
 11
-30.39391853196707
 21
8.95681718869304
 31
0.0
  0
LINE
  5
338
102
{ACAD_REACTORS
330
3C2
330
3C3
102
}
330
71
100
AcDbEntity
  8
0
  6
Continuous
 62
     2
100
AcDbLine
 10
-29.20112582980067
 20
8.95681718869304
 30
0.0
 11
-29.20112582980067
 21
12.01062671250412
 31
0.0
  0
LINE
  5
339
102
{ACAD_REACTORS
330
3C2
330
3C3
102
}
330
71
100
AcDbEntity
  8
0
  6
Continuous
 62
     2
100
AcDbLine
 10
-29.20112582980067
 20
12.01062671250412
 30
0.0
 11
-30.39391853196707
 21
12.01062671250412
 31
0.0
  0
LINE
  5
33A
102
{ACAD_REACTORS
330
3C2
330
3C3
102
}
330
71
100
AcDbEntity
  8
0
  6
Continuous
 62
     2
100
AcDbLine
 10
-30.39391853196707
 20
12.01062671250412
 30
0.0
 11
-30.39391853196707
 21
10.70185120229903
 31
0.0
  0
LINE
  5
33B
102
{ACAD_REACTORS
330
3C2
330
3C3
102
}
330
71
100
AcDbEntity
  8
0
  6
Continuous
 62
     2
100
AcDbLine
 10
-30.39391853196707
 20
10.70185120229903
 30
0.0
 11
-31.63442294221997
 21
12.01062671250412
 31
0.0
  0
LINE
  5
33C
102
{ACAD_REACTORS
330
3C4
330
3C5
102
}
330
71
100
AcDbEntity
  8
0
  6
Continuous
 62
     2
100
AcDbLine
 10
-26.38598412180136
 20
13.62478317507203
 30
0.0
 11
-25.14547971154735
 21
12.31600766486733
 31
0.0
  0
LINE
  5
33D
102
{ACAD_REACTORS
330
3C4
330
3C5
102
}
330
71
100
AcDbEntity
  8
0
  6
Continuous
 62
     2
100
AcDbLine
 10
-25.14547971154735
 20
12.31600766486733
 30
0.0
 11
-23.95268700938075
 21
12.31600766486733
 31
0.0
  0
LINE
  5
33E
102
{ACAD_REACTORS
330
3C4
330
3C5
102
}
330
71
100
AcDbEntity
  8
0
  6
Continuous
 62
     2
100
AcDbLine
 10
-23.95268700938075
 20
12.31600766486733
 30
0.0
 11
-23.95268700938075
 21
15.36981718867853
 31
0.0
  0
LINE
  5
33F
102
{ACAD_REACTORS
330
3C4
330
3C5
102
}
330
71
100
AcDbEntity
  8
0
  6
Continuous
 62
     2
100
AcDbLine
 10
-23.95268700938075
 20
15.36981718867853
 30
0.0
 11
-25.14547971154735
 21
15.36981718867853
 31
0.0
  0
LINE
  5
340
102
{ACAD_REACTORS
330
3C4
330
3C5
102
}
330
71
100
AcDbEntity
  8
0
  6
Continuous
 62
     2
100
AcDbLine
 10
-25.14547971154735
 20
14.06104167847335
 30
0.0
 11
-26.38598412180136
 21
15.36981718867853
 31
0.0
  0
LINE
  5
341
102
{ACAD_REACTORS
330
3C4
330
3C5
102
}
330
71
100
AcDbEntity
  8
0
  6
Continuous
 62
     2
100
AcDbLine
 10
-27.57877682396787
 20
12.31600766486733
 30
0.0
 11
-26.38598412180136
 21
12.31600766486733
 31
0.0
  0
LINE
  5
342
102
{ACAD_REACTORS
330
3C6
330
3C7
102
}
330
71
100
AcDbEntity
  8
0
  6
Continuous
 62
     2
100
AcDbLine
 10
-29.05799070554048
 20
12.01062671250412
 30
0.0
 11
-29.05799070554048
 21
11.22536140638053
 31
0.0
  0
LINE
  5
343
102
{ACAD_REACTORS
330
3C6
330
3C7
102
}
330
71
100
AcDbEntity
  8
0
  6
Continuous
 62
     2
100
AcDbLine
 10
-28.24689166806587
 20
11.22536140638053
 30
0.0
 11
-28.24689166806587
 21
8.95681718869304
 31
0.0
  0
LINE
  5
344
102
{ACAD_REACTORS
330
3C6
330
3C7
102
}
330
71
100
AcDbEntity
  8
0
  6
Continuous
 62
     2
100
AcDbLine
 10
-28.24689166806587
 20
8.95681718869304
 30
0.0
 11
-27.05409896589936
 21
8.95681718869304
 31
0.0
  0
LINE
  5
345
102
{ACAD_REACTORS
330
3C8
330
3C9
102
}
330
71
100
AcDbEntity
  8
0
  6
Continuous
 62
     2
100
AcDbLine
 10
-24.10457247247987
 20
8.95681718869304
 30
0.0
 11
-24.31605252595566
 21
9.49777773291092
 31
0.0
  0
LINE
  5
346
102
{ACAD_REACTORS
330
3C8
330
3C9
102
}
330
71
100
AcDbEntity
  8
0
  6
Continuous
 62
     2
100
AcDbLine
 10
-24.26202110916626
 20
12.01062671250412
 30
0.0
 11
-22.86406806222595
 21
8.95681718869304
 31
0.0
  0
LINE
  5
347
102
{ACAD_REACTORS
330
3C8
330
3C9
102
}
330
71
100
AcDbEntity
  8
0
  6
Continuous
 62
     2
100
AcDbLine
 10
-25.50252551941895
 20
12.01062671250412
 30
0.0
 11
-24.26202110916626
 21
12.01062671250412
 31
0.0
  0
LINE
  5
348
102
{ACAD_REACTORS
330
3C8
330
3C9
102
}
330
71
100
AcDbEntity
  8
0
  6
Continuous
 62
     2
100
AcDbLine
 10
-26.90047856635826
 20
8.95681718869304
 30
0.0
 11
-25.65997415610528
 21
8.95681718869304
 31
0.0
  0
LINE
  5
349
102
{ACAD_REACTORS
330
3C8
330
3C9
102
}
330
71
100
AcDbEntity
  8
0
  6
Continuous
 62
     2
100
AcDbLine
 10
-25.18243855148447
 20
10.17834099821752
 30
0.0
 11
-24.58210807710196
 21
10.17834099821752
 31
0.0
  0
LINE
  5
34A
102
{ACAD_REACTORS
330
3C8
330
3C9
102
}
330
71
100
AcDbEntity
  8
0
  6
Continuous
 62
     2
100
AcDbLine
 10
-24.58210807710196
 20
10.17834099821752
 30
0.0
 11
-24.88227331429206
 21
10.94615596420422
 31
0.0
  0
LINE
  5
34B
102
{ACAD_REACTORS
330
3CA
330
3CB
102
}
330
71
100
AcDbEntity
  8
0
  6
Continuous
 62
     2
100
AcDbLine
 10
-22.47362405869396
 20
12.31600766486733
 30
0.0
 11
-23.71412846894685
 21
12.31600766486733
 31
0.0
  0
LINE
  5
34C
102
{ACAD_REACTORS
330
3CC
330
3CD
102
}
330
71
100
AcDbEntity
  8
0
  6
Continuous
 62
     2
100
AcDbLine
 10
-20.95162057072886
 20
12.31600766486733
 30
0.0
 11
-22.35434478847708
 21
12.31600766486733
 31
0.0
  0
LINE
  5
34D
102
{ACAD_REACTORS
330
3CC
330
3CD
102
}
330
71
100
AcDbEntity
  8
0
  6
Continuous
 62
     2
100
AcDbLine
 10
-20.95162057072886
 20
12.31600766486733
 30
0.0
 11
-20.25502963266317
 21
13.10373945016104
 31
0.0
  0
LINE
  5
34E
102
{ACAD_REACTORS
330
3CC
330
3CD
102
}
330
71
100
AcDbEntity
  8
0
  6
Continuous
 62
     2
100
AcDbLine
 10
-19.65386211077038
 20
15.36981718867853
 30
0.0
 11
-18.25113789302316
 21
15.36981718867853
 31
0.0
  0
LINE
  5
34F
102
{ACAD_REACTORS
330
3CC
330
3CD
102
}
330
71
100
AcDbEntity
  8
0
  6
Continuous
 62
     2
100
AcDbLine
 10
-22.25892137230426
 20
15.36981718867853
 30
0.0
 11
-20.95639174153678
 21
13.89686665864232
 31
0.0
  0
LINE
  5
350
102
{ACAD_REACTORS
330
3CC
330
3CD
102
}
330
71
100
AcDbEntity
  8
0
  6
Continuous
 62
     2
100
AcDbLine
 10
-22.35434478847708
 20
12.31600766486733
 30
0.0
 11
-20.95639174153678
 21
13.89686665864232
 31
0.0
  0
LINE
  5
351
102
{ACAD_REACTORS
330
3D6
330
3D7
102
}
330
71
100
AcDbEntity
  8
0
  6
Continuous
 62
     2
100
AcDbLine
 10
-20.49358817309715
 20
10.00383759685664
 30
0.0
 11
-20.49358817309715
 21
9.13132059005332
 31
0.0
  0
LINE
  5
352
102
{ACAD_REACTORS
330
3D6
330
3D7
102
}
330
71
100
AcDbEntity
  8
0
  6
Continuous
 62
     2
100
AcDbLine
 10
-21.26324551605856
 20
11.22536140638053
 30
0.0
 11
-20.15960621649046
 21
11.22536140638053
 31
0.0
  0
LINE
  5
353
102
{ACAD_REACTORS
330
3D8
330
3D9
102
}
330
71
100
AcDbEntity
  8
0
  6
Continuous
 62
     2
100
AcDbLine
 10
-36.59628965234907
 20
10.00383759685712
 30
0.0
 11
-36.59628965234907
 21
9.13132059005392
 31
0.0
  0
LINE
  5
354
102
{ACAD_REACTORS
330
3D8
330
3D9
102
}
330
71
100
AcDbEntity
  8
0
  6
Continuous
 62
     2
100
AcDbLine
 10
-36.59628965234907
 20
10.96360630434003
 30
0.0
 11
-36.59628965234907
 21
11.83612331114333
 31
0.0
  0
LINE
  5
355
330
71
100
AcDbEntity
  8
1
  6
Continuous
 62
     7
100
AcDbLine
 10
79.24108593263483
 20
10.16331718867673
 30
0.0
 11
-13.90371859411656
 21
10.16331718867673
 31
0.0
  0
LINE
  5
356
330
71
100
AcDbEntity
  8
1
  6
Continuous
 62
     6
100
AcDbLine
 10
-119.3037185941165
 20
1.66331718867673
 30
0.0
 11
-164.2589140673665
 21
1.66331718867673
 31
0.0
  0
LINE
  5
357
330
71
100
AcDbEntity
  8
1
  6
Continuous
 62
     7
100
AcDbLine
 10
70.32267765095602
 20
27.16331718867673
 30
0.0
 11
70.32267765095602
 21
18.66331718867673
 31
0.0
  0
LINE
  5
358
330
71
100
AcDbEntity
  8
1
  6
Continuous
 62
     7
100
AcDbLine
 10
43.82267765095642
 20
27.16331718867673
 30
0.0
 11
43.82267765095642
 21
18.66331718867673
 31
0.0
  0
LINE
  5
359
330
71
100
AcDbEntity
  8
1
  6
Continuous
 62
     7
100
AcDbLine
 10
-13.90371859411656
 20
18.66331718867673
 30
0.0
 11
-13.90371859411656
 21
27.16331718867673
 31
0.0
  0
LINE
  5
35A
330
71
100
AcDbEntity
  8
1
  6
Continuous
 62
     7
100
AcDbLine
 10
-50.30371859411648
 20
18.66331718867673
 30
0.0
 11
-50.30371859411648
 21
27.16331718867673
 31
0.0
  0
LINE
  5
35B
330
71
100
AcDbEntity
  8
1
  6
Continuous
 62
     6
100
AcDbLine
 10
-13.90371859411656
 20
18.66331718867673
 30
0.0
 11
79.24108593263523
 21
18.66331718867673
 31
0.0
  0
LINE
  5
35C
330
71
100
AcDbEntity
  8
1
  6
Continuous
 62
     7
100
AcDbLine
 10
13.99628140588354
 20
10.16331718867664
 30
0.0
 11
13.99628140588354
 21
18.66331718867673
 31
0.0
  0
LINE
  5
35D
330
71
100
AcDbEntity
  8
1
  6
PHANTOM
 62
     2
100
AcDbLine
 10
-34.81706370755387
 20
22.78831718867664
 30
0.0
 11
-40.31706370755387
 21
22.78831718867664
 31
0.0
  0
LINE
  5
35E
330
71
100
AcDbEntity
  8
1
  6
PHANTOM
 62
     2
100
AcDbLine
 10
-37.56706370755387
 20
25.53831718867664
 30
0.0
 11
-37.56706370755387
 21
20.03831718867664
 31
0.0
  0
LINE
  5
35F
330
71
100
AcDbEntity
  8
1
  6
DOT_CENTER
 62
     2
100
AcDbLine
 10
-46.31706370755387
 20
22.78831718867664
 30
0.0
 11
-40.81706370755387
 21
22.78831718867664
 31
0.0
  0
ARC
  5
360
102
{ACAD_REACTORS
330
3D8
330
3D9
102
}
330
71
100
AcDbEntity
  8
0
  6
Continuous
 62
     2
100
AcDbCircle
 10
-37.93221756946687
 20
7.17104100534243
 30
0.0
 40
4.852596863498073
100
AcDbArc
 50
74.02000874164739
 51
84.84185523037506
  0
ARC
  5
361
102
{ACAD_REACTORS
330
3D8
330
3D9
102
}
330
71
100
AcDbEntity
  8
0
  6
Continuous
 62
     2
100
AcDbCircle
 10
-37.35617696071316
 20
10.32680136122673
 30
0.0
 40
0.9059297849853228
100
AcDbArc
 50
71.55192388185348
 51
113.372277888129
  0
ARC
  5
362
102
{ACAD_REACTORS
330
3D8
330
3D9
102
}
330
71
100
AcDbEntity
  8
0
  6
Continuous
 62
     2
100
AcDbCircle
 10
-37.51261699341518
 20
10.27865052125983
 30
0.0
 40
0.5115800601948042
100
AcDbArc
 50
208.5214732576957
 51
246.6277221118272
  0
ARC
  5
363
102
{ACAD_REACTORS
330
3D8
330
3D9
102
}
330
71
100
AcDbEntity
  8
0
  6
Continuous
 62
     2
100
AcDbCircle
 10
-37.35617696071316
 20
10.64064253996983
 30
0.0
 40
0.9059297849849176
100
AcDbArc
 50
246.627722111871
 51
288.4480761181586
  0
ARC
  5
364
102
{ACAD_REACTORS
330
3D8
330
3D9
102
}
330
71
100
AcDbEntity
  8
0
  6
Continuous
 62
     2
100
AcDbCircle
 10
-37.77434469437395
 20
11.89418831600702
 30
0.0
 40
2.227384008972739
100
AcDbArc
 50
288.4480761181328
 51
301.9309089499592
  0
ARC
  5
365
102
{ACAD_REACTORS
330
3D4
330
3D5
102
}
330
71
100
AcDbEntity
  8
0
  6
Continuous
 62
     2
100
AcDbCircle
 10
-42.99941842698075
 20
12.62669034492103
 30
0.0
 40
0.9118481501444573
100
AcDbArc
 50
295.3740086781765
 51
64.62599132180762
  0
ARC
  5
366
102
{ACAD_REACTORS
330
3D4
330
3D5
102
}
330
71
100
AcDbEntity
  8
0
  6
Continuous
 62
     2
100
AcDbCircle
 10
-42.47337572889288
 20
14.34136723339563
 30
0.0
 40
0.3157169230760746
100
AcDbArc
 50
90.18896704254334
 51
180.0
  0
ARC
  5
367
102
{ACAD_REACTORS
330
3D6
330
3D7
102
}
330
71
100
AcDbEntity
  8
0
  6
Continuous
 62
     2
100
AcDbCircle
 10
-21.26324551605856
 20
10.27083839955444
 30
0.0
 40
0.9545230068260899
100
AcDbArc
 50
90.0
 51
109.3371432194321
  0
ARC
  5
368
102
{ACAD_REACTORS
330
3D6
330
3D7
102
}
330
71
100
AcDbEntity
  8
0
  6
Continuous
 62
     2
100
AcDbCircle
 10
-21.03255825608088
 20
10.48372195059832
 30
0.0
 40
0.9410597353348926
100
AcDbArc
 50
151.4785267423619
 51
208.5214732576696
  0
ARC
  5
369
102
{ACAD_REACTORS
330
3D6
330
3D7
102
}
330
71
100
AcDbEntity
  8
0
  6
Continuous
 62
     2
100
AcDbCircle
 10
-21.25347548145916
 20
10.64064253996983
 30
0.0
 40
0.9059297849852812
100
AcDbArc
 50
246.6277221118178
 51
288.4480761180818
  0
ARC
  5
36A
102
{ACAD_REACTORS
330
3D6
330
3D7
102
}
330
71
100
AcDbEntity
  8
0
  6
Continuous
 62
     2
100
AcDbCircle
 10
-21.67164321512107
 20
11.89418831600642
 30
0.0
 40
2.227384008972748
100
AcDbArc
 50
288.4480761181337
 51
301.9309089499398
  0
ARC
  5
36B
102
{ACAD_REACTORS
330
3D6
330
3D7
102
}
330
71
100
AcDbEntity
  8
0
  6
Continuous
 62
     2
100
AcDbCircle
 10
-21.82951609021387
 20
13.79640289585473
 30
0.0
 40
4.852596863498827
100
AcDbArc
 50
275.1581447696362
 51
285.9799912583387
  0
ARC
  5
36C
102
{ACAD_REACTORS
330
3D6
330
3D7
102
}
330
71
100
AcDbEntity
  8
0
  6
Continuous
 62
     2
100
AcDbCircle
 10
-21.54065999547805
 20
10.59651231263314
 30
0.0
 40
1.639695123940452
100
AcDbArc
 50
195.0618917771012
 51
275.1581447696761
  0
ARC
  5
36D
102
{ACAD_REACTORS
330
3CE
330
3CF
102
}
330
71
100
AcDbEntity
  8
0
  6
Continuous
 62
     2
100
AcDbCircle
 10
-37.26887330716917
 20
14.31445154734485
 30
0.0
 40
1.05536564133371
100
AcDbArc
 50
270.0
 51
90.0
  0
ARC
  5
36E
102
{ACAD_REACTORS
330
3D4
330
3D5
102
}
330
71
100
AcDbEntity
  8
0
  6
Continuous
 62
     2
100
AcDbCircle
 10
-45.04892441542458
 20
9.98508966732663
 30
0.0
 40
0.3157169230756836
100
AcDbArc
 50
180.0
 51
270.0
  0
ARC
  5
36F
102
{ACAD_REACTORS
330
3D4
330
3D5
102
}
330
71
100
AcDbEntity
  8
0
  6
Continuous
 62
     2
100
AcDbCircle
 10
-43.57309115441495
 20
14.34154471004374
 30
0.0
 40
0.315716923076593
100
AcDbArc
 50
0.0
 51
90.0
  0
ARC
  5
370
102
{ACAD_REACTORS
330
3D4
330
3D5
102
}
330
71
100
AcDbEntity
  8
0
  6
Continuous
 62
     2
100
AcDbCircle
 10
-43.57309115441495
 20
13.73752009098322
 30
0.0
 40
0.3157169230761172
100
AcDbArc
 50
295.1944106485386
 51
0.0
  0
ARC
  5
371
102
{ACAD_REACTORS
330
3D4
330
3D5
102
}
330
71
100
AcDbEntity
  8
0
  6
Continuous
 62
     2
100
AcDbCircle
 10
-43.57309115441495
 20
9.98508966732663
 30
0.0
 40
0.3157169230767067
100
AcDbArc
 50
270.0
 51
0.0
  0
ARC
  5
372
102
{ACAD_REACTORS
330
3D4
330
3D5
102
}
330
71
100
AcDbEntity
  8
0
  6
Continuous
 62
     2
100
AcDbCircle
 10
-45.64281909217107
 20
14.94557257327654
 30
0.0
 40
0.4242446153838006
100
AcDbArc
 50
90.0
 51
180.0
  0
ARC
  5
373
102
{ACAD_REACTORS
330
3D4
330
3D5
102
}
330
71
100
AcDbEntity
  8
0
  6
Continuous
 62
     2
100
AcDbCircle
 10
-40.16950700145426
 20
14.94557257327654
 30
0.0
 40
0.424244615383877
100
AcDbArc
 50
0.0
 51
90.0
  0
ARC
  5
374
102
{ACAD_REACTORS
330
3D4
330
3D5
102
}
330
71
100
AcDbEntity
  8
0
  6
Continuous
 62
     2
100
AcDbCircle
 10
-40.16950700145426
 20
9.38106180407632
 30
0.0
 40
0.4242446153832873
100
AcDbArc
 50
270.0
 51
0.0
  0
ARC
  5
375
102
{ACAD_REACTORS
330
3D2
330
3D3
102
}
330
71
100
AcDbEntity
  8
0
  6
Continuous
 62
     2
100
AcDbCircle
 10
-30.95112311436276
 20
13.84291242677264
 30
0.0
 40
0.7717997786796335
100
AcDbArc
 50
321.8795802028437
 51
38.12041979715973
  0
ARC
  5
376
102
{ACAD_REACTORS
330
3D2
330
3D3
102
}
330
71
100
AcDbEntity
  8
0
  6
Continuous
 62
     2
100
AcDbCircle
 10
-30.75138307801657
 20
13.68618124865222
 30
0.0
 40
0.5179085730134437
100
AcDbArc
 50
218.1204197971508
 51
321.879580202856
  0
ARC
  5
377
102
{ACAD_REACTORS
330
3D0
330
3D1
102
}
330
71
100
AcDbEntity
  8
0
  6
Continuous
 62
     2
100
AcDbCircle
 10
-34.43139066697677
 20
10.48372195059832
 30
0.0
 40
1.458034083652
100
AcDbArc
 50
297.5481481757011
 51
62.45185182429898
  0
ARC
  5
378
102
{ACAD_REACTORS
330
3D0
330
3D1
102
}
330
71
100
AcDbEntity
  8
0
  6
Continuous
 62
     2
100
AcDbCircle
 10
-34.99327045064337
 20
10.48372195059832
 30
0.0
 40
1.458034083651488
100
AcDbArc
 50
117.5481481756622
 51
242.4518518243377
  0
ARC
  5
379
102
{ACAD_REACTORS
330
3D0
330
3D1
102
}
330
71
100
AcDbEntity
  8
0
  6
Continuous
 62
     2
100
AcDbCircle
 10
-34.71233055881007
 20
9.94514694029553
 30
0.0
 40
2.065479772208569
100
AcDbArc
 50
62.45185182430616
 51
117.5481481756662
  0
ARC
  5
37A
102
{ACAD_REACTORS
330
3D0
330
3D1
102
}
330
71
100
AcDbEntity
  8
0
  6
Continuous
 62
     2
100
AcDbCircle
 10
-34.71233055881007
 20
11.02229696090163
 30
0.0
 40
2.065479772208507
100
AcDbArc
 50
242.4518518243404
 51
297.5481481756872
  0
ARC
  5
37B
102
{ACAD_REACTORS
330
3D2
330
3D3
102
}
330
71
100
AcDbEntity
  8
0
  6
Continuous
 62
     2
100
AcDbCircle
 10
-30.55164304167028
 20
13.84291242677264
 30
0.0
 40
0.7717997786796696
100
AcDbArc
 50
141.8795802028403
 51
218.1204197971563
  0
ARC
  5
37C
102
{ACAD_REACTORS
330
3D2
330
3D3
102
}
330
71
100
AcDbEntity
  8
0
  6
Continuous
 62
     2
100
AcDbCircle
 10
-30.75138307801657
 20
13.99964360489312
 30
0.0
 40
0.517908573013522
100
AcDbArc
 50
38.12041979714398
 51
141.8795802028492
  0
ARC
  5
37D
102
{ACAD_REACTORS
330
3D4
330
3D5
102
}
330
71
100
AcDbEntity
  8
0
  6
Continuous
 62
     2
100
AcDbCircle
 10
-45.64281909217107
 20
9.38106180407632
 30
0.0
 40
0.4242446153828041
100
AcDbArc
 50
180.0
 51
270.0
  0
ARC
  5
37E
102
{ACAD_REACTORS
330
3D4
330
3D5
102
}
330
71
100
AcDbEntity
  8
0
  6
Continuous
 62
     2
100
AcDbCircle
 10
-43.57309115441495
 20
11.51586059885824
 30
0.0
 40
0.315716923076593
100
AcDbArc
 50
0.0
 51
64.80558935146145
  0
ARC
  5
37F
102
{ACAD_REACTORS
330
3D4
330
3D5
102
}
330
71
100
AcDbEntity
  8
0
  6
Continuous
 62
     2
100
AcDbCircle
 10
-43.05050670683997
 20
12.62669034492103
 30
0.0
 40
0.9118975235576128
100
AcDbArc
 50
115.1944106485288
 51
244.8055893514874
  0
ARC
  5
380
102
{ACAD_REACTORS
330
3D4
330
3D5
102
}
330
71
100
AcDbEntity
  8
0
  6
Continuous
 62
     2
100
AcDbCircle
 10
-45.04892441542458
 20
14.34154471004374
 30
0.0
 40
0.3157169230761898
100
AcDbArc
 50
90.0
 51
180.0
  0
ARC
  5
381
102
{ACAD_REACTORS
330
3CE
330
3CF
102
}
330
71
100
AcDbEntity
  8
0
  6
Continuous
 62
     2
100
AcDbCircle
 10
-37.71034583340756
 20
14.35384751856734
 30
0.0
 40
0.35286382467112
100
AcDbArc
 50
270.0
 51
90.0
  0
ARC
  5
382
102
{ACAD_REACTORS
330
3D2
330
3D3
102
}
330
71
100
AcDbEntity
  8
0
  6
Continuous
 62
     2
100
AcDbCircle
 10
-30.96765508818177
 20
13.84291242677264
 30
0.0
 40
1.52690476190589
100
AcDbArc
 50
90.0
 51
270.0
  0
ARC
  5
383
102
{ACAD_REACTORS
330
3D6
330
3D7
102
}
330
71
100
AcDbEntity
  8
0
  6
Continuous
 62
     2
100
AcDbCircle
 10
-21.54065999547805
 20
10.37093158856342
 30
0.0
 40
1.63969512394022
100
AcDbArc
 50
90.0
 51
164.9381082228948
  0
ARC
  5
384
102
{ACAD_REACTORS
330
3D6
330
3D7
102
}
330
71
100
AcDbEntity
  8
0
  6
Continuous
 62
     2
100
AcDbCircle
 10
-21.95978783893966
 20
10.48372195059832
 30
0.0
 40
1.205656168393008
100
AcDbArc
 50
164.9381082229024
 51
195.0618917770956
  0
ARC
  5
385
102
{ACAD_REACTORS
330
3D6
330
3D7
102
}
330
71
100
AcDbEntity
  8
0
  6
Continuous
 62
     2
100
AcDbCircle
 10
-21.40991551416227
 20
10.27865052125983
 30
0.0
 40
0.5115800601960153
100
AcDbArc
 50
208.521473257687
 51
246.6277221118451
  0
ARC
  5
386
102
{ACAD_REACTORS
330
3D6
330
3D7
102
}
330
71
100
AcDbEntity
  8
0
  6
Continuous
 62
     2
100
AcDbCircle
 10
-21.40991551416227
 20
10.68879337993732
 30
0.0
 40
0.5115800601944169
100
AcDbArc
 50
109.3371432194843
 51
151.4785267424214
  0
ARC
  5
387
102
{ACAD_REACTORS
330
3D4
330
3D5
102
}
330
71
100
AcDbEntity
  8
0
  6
Continuous
 62
     2
100
AcDbCircle
 10
-42.47337572889288
 20
10.93569733825754
 30
0.0
 40
0.3157169230767849
100
AcDbArc
 50
180.0
 51
269.8110329574567
  0
ARC
  5
388
102
{ACAD_REACTORS
330
3D4
330
3D5
102
}
330
71
100
AcDbEntity
  8
0
  6
Continuous
 62
     2
100
AcDbCircle
 10
-42.46775959358286
 20
12.63853228582653
 30
0.0
 40
2.018561131933267
100
AcDbArc
 50
269.8110329575862
 51
90.18896704241376
  0
ARC
  5
389
102
{ACAD_REACTORS
330
3D4
330
3D5
102
}
330
71
100
AcDbEntity
  8
0
  6
Continuous
 62
     2
100
AcDbCircle
 10
-42.47337572889288
 20
13.73583194488884
 30
0.0
 40
0.3157169230767849
100
AcDbArc
 50
180.0
 51
244.6259913216486
  0
ARC
  5
38A
102
{ACAD_REACTORS
330
3D4
330
3D5
102
}
330
71
100
AcDbEntity
  8
0
  6
Continuous
 62
     2
100
AcDbCircle
 10
-42.47337572889288
 20
11.51754874495262
 30
0.0
 40
0.3157169230765314
100
AcDbArc
 50
115.3740086783506
 51
180.0
  0
ARC
  5
38B
102
{ACAD_REACTORS
330
3D8
330
3D9
102
}
330
71
100
AcDbEntity
  8
0
  6
Continuous
 62
     2
100
AcDbCircle
 10
-37.64336147473097
 20
10.37093158856342
 30
0.0
 40
1.639695123940506
100
AcDbArc
 50
84.8418552303621
 51
164.9381082228861
  0
ARC
  5
38C
102
{ACAD_REACTORS
330
3D8
330
3D9
102
}
330
71
100
AcDbEntity
  8
0
  6
Continuous
 62
     2
100
AcDbCircle
 10
-38.06248931819377
 20
10.48372195059832
 30
0.0
 40
1.205656168390946
100
AcDbArc
 50
164.9381082228761
 51
195.0618917770945
  0
ARC
  5
38D
102
{ACAD_REACTORS
330
3D8
330
3D9
102
}
330
71
100
AcDbEntity
  8
0
  6
Continuous
 62
     2
100
AcDbCircle
 10
-37.64336147473097
 20
10.59651231263314
 30
0.0
 40
1.63969512393938
100
AcDbArc
 50
195.0618917770896
 51
275.1581447696398
  0
ARC
  5
38E
102
{ACAD_REACTORS
330
3D8
330
3D9
102
}
330
71
100
AcDbEntity
  8
0
  6
Continuous
 62
     2
100
AcDbCircle
 10
-37.93221756946687
 20
13.79640289585473
 30
0.0
 40
4.852596863498142
100
AcDbArc
 50
275.1581447696249
 51
285.9799912583529
  0
ARC
  5
38F
102
{ACAD_REACTORS
330
3D8
330
3D9
102
}
330
71
100
AcDbEntity
  8
0
  6
Continuous
 62
     2
100
AcDbCircle
 10
-37.13525973533487
 20
10.48372195059832
 30
0.0
 40
0.9410597353332545
100
AcDbArc
 50
151.4785267422669
 51
208.5214732577058
  0
ARC
  5
390
102
{ACAD_REACTORS
330
3D8
330
3D9
102
}
330
71
100
AcDbEntity
  8
0
  6
Continuous
 62
     2
100
AcDbCircle
 10
-37.51261699341518
 20
10.68879337993732
 30
0.0
 40
0.5115800601948796
100
AcDbArc
 50
113.3722778881991
 51
151.4785267423044
  0
ARC
  5
391
102
{ACAD_REACTORS
330
3D8
330
3D9
102
}
330
71
100
AcDbEntity
  8
0
  6
Continuous
 62
     2
100
AcDbCircle
 10
-37.77434469437395
 20
9.07325558519014
 30
0.0
 40
2.227384008973474
100
AcDbArc
 50
58.06909105004068
 51
71.55192388186722
  0
ARC
  5
392
102
{ACAD_REACTORS
330
3D0
330
3D1
102
}
330
71
100
AcDbEntity
  8
0
  6
Continuous
 62
     2
100
AcDbCircle
 10
-34.71233055881007
 20
10.64045312871883
 30
0.0
 40
0.5179085730133087
100
AcDbArc
 50
38.12041979714701
 51
141.8795802028579
  0
ARC
  5
393
102
{ACAD_REACTORS
330
3D0
330
3D1
102
}
330
71
100
AcDbEntity
  8
0
  6
Continuous
 62
     2
100
AcDbCircle
 10
-34.51259052246397
 20
10.48372195059832
 30
0.0
 40
0.7717997786794676
100
AcDbArc
 50
141.8795802028359
 51
218.1204197971687
  0
ARC
  5
394
102
{ACAD_REACTORS
330
3D0
330
3D1
102
}
330
71
100
AcDbEntity
  8
0
  6
Continuous
 62
     2
100
AcDbCircle
 10
-34.71233055881007
 20
10.32699077247833
 30
0.0
 40
0.5179085730137353
100
AcDbArc
 50
218.1204197971944
 51
321.8795802028007
  0
ARC
  5
395
102
{ACAD_REACTORS
330
3D0
330
3D1
102
}
330
71
100
AcDbEntity
  8
0
  6
Continuous
 62
     2
100
AcDbCircle
 10
-34.91207059515648
 20
10.48372195059832
 30
0.0
 40
0.7717997786796947
100
AcDbArc
 50
321.8795802028417
 51
38.1204197971537
  0
CIRCLE
  5
396
330
71
100
AcDbEntity
  8
1
  6
Continuous
 62
     2
100
AcDbCircle
 10
-37.56706370755387
 20
22.78831718867664
 30
0.0
 40
2.5
  0
CIRCLE
  5
397
330
71
100
AcDbEntity
  8
1
  6
Continuous
 62
     2
100
AcDbCircle
 10
-37.56706370755387
 20
22.78831718867664
 30
0.0
 40
1.249999999999908
  0
CIRCLE
  5
398
102
{ACAD_REACTORS
330
3D4
330
3D5
102
}
330
71
100
AcDbEntity
  8
0
  6
Continuous
 62
     2
100
AcDbCircle
 10
-43.02323344165356
 20
12.62669034492103
 30
0.0
 40
0.4709789327785074
  0
MTEXT
  5
399
330
71
100
AcDbEntity
  8
1
 62
     3
100
AcDbMText
 10
-207.7538462812947
 20
188.4546253439755
 30
0.0
 40
1.8
 41
0.0
 71
     7
 72
     1
  3
Weitergabe sowie Vervielf\U+00e4ltigung dieses Dokuments, Verwertung und \PMitteilung seines Inhalts sind verboten, soweit nicht ausdr\U+00fccklich gestattet. \PZuwiderhandlungen verpflichten zu Schadenersatz. Alle Rechte f\U+00fcr den Fall\Pder Pat
  1
ent-, Gebrauchsmuster- oder Designeintragung vorbehalten.
  7
CONVERTER_11
 73
     1
 44
0.99639855942377
  0
MTEXT
  5
39A
330
71
100
AcDbEntity
  8
1
 62
     3
100
AcDbMText
 10
-24.90073644250657
 20
188.4546253439755
 30
0.0
 40
1.8
 41
0.0
 71
     7
 72
     1
  3
Transfer or duplication of this document as well as the utilisation or\Pcommunication of its content are not permitted unless express consent\Pis granted. Violations give rise to claims for damages. All rights reserved\Pin case of patent, utility mo
  1
del or design patent registrations.
  7
CONVERTER_11
 73
     1
 44
0.99639855942377
  0
TEXT
  5
39B
330
71
100
AcDbEntity
  8
1
 62
     2
100
AcDbText
 10
-31.10371859411666
 20
2.90429997368511
 30
0.0
 40
1.8
  1
of
 41
0.9
  7
CONVERTER_11
100
AcDbText
  0
TEXT
  5
39C
330
71
100
AcDbEntity
  8
1
 62
     2
100
AcDbText
 10
-49.30371859411648
 20
2.90429997368506
 30
0.0
 40
1.8
  1
page
 41
0.9
  7
CONVERTER_11
100
AcDbText
  0
TEXT
  5
39D
330
71
100
AcDbEntity
  8
1
 62
     2
100
AcDbText
 10
-40.65745362377447
 20
2.86406853487472
 30
0.0
 40
1.8
  1
1
 41
0.9
  7
CONVERTER_11
100
AcDbText
  0
TEXT
  5
39E
330
71
100
AcDbEntity
  8
1
 62
     2
100
AcDbText
 10
-25.86840978430297
 20
2.91331718867661
 30
0.0
 40
1.8
  1
1
 41
0.9
  7
CONVERTER_11
100
AcDbText
  0
MTEXT
  5
3A0
330
71
100
AcDbEntity
  8
1
 62
     7
100
AcDbMText
 10
32.66868366925903
 20
4.91331718867696
 30
0.0
 40
3.0
 41
0.0
 71
     5
 72
     1
  1
DF-UP 6
  7
CONVERTER_12
 73
     1
 44
1.20048019207683
  0
MTEXT
  5
3A1
330
71
100
AcDbEntity
  8
1
 62
     2
100
AcDbMText
 10
-12.90371859411656
 20
9.16331718867673
 30
0.0
 40
1.8
 41
0.0
 71
     1
 72
     1
  1
description
  7
CONVERTER_11
 73
     1
 44
1.20048019207683
  0
MTEXT
  5
3A2
330
71
100
AcDbEntity
  8
1
 62
     3
100
AcDbMText
 10
-24.10371859411657
 20
22.78831718867673
 30
0.0
 40
2.5
 41
0.0
 71
     5
 72
     1
  1
DIN A4
  7
CONVERTER_11
 73
     1
 44
1.20048019207683
  0
MTEXT
  5
3A3
330
71
100
AcDbEntity
  8
1
 62
     7
100
AcDbMText
 10
-210.2589140673655
 20
24.16331718867673
 30
0.0
 40
3.5
 41
0.0
 71
     5
 72
     1
  1
D
  7
CONVERTER_11
 73
     1
 44
1.20048019207683
  0
MTEXT
  5
3A4
330
71
100
AcDbEntity
  8
1
 62
     7
100
AcDbMText
 10
-210.2589140673655
 20
76.66331718867673
 30
0.0
 40
3.5
 41
0.0
 71
     5
 72
     1
  1
C
  7
CONVERTER_11
 73
     1
 44
1.20048019207683
  0
MTEXT
  5
3A5
330
71
100
AcDbEntity
  8
1
 62
     7
100
AcDbMText
 10
-210.2589140673655
 20
126.6633171886767
 30
0.0
 40
3.5
 41
0.0
 71
     5
 72
     1
  1
B
  7
CONVERTER_11
 73
     1
 44
1.20048019207683
  0
MTEXT
  5
3A6
330
71
100
AcDbEntity
  8
1
 62
     7
100
AcDbMText
 10
-210.2589140673655
 20
179.1633171886767
 30
0.0
 40
3.5
 41
0.0
 71
     5
 72
     1
  1
A
  7
CONVERTER_11
 73
     1
 44
1.20048019207683
  0
MTEXT
  5
3A7
330
71
100
AcDbEntity
  8
1
 62
     7
100
AcDbMText
 10
59.99108593263273
 20
-0.83668281132339
 30
0.0
 40
3.5
 41
0.0
 71
     5
 72
     1
  1
6
  7
CONVERTER_11
 73
     1
 44
1.20048019207683
  0
MTEXT
  5
3A8
330
71
100
AcDbEntity
  8
1
 62
     7
100
AcDbMText
 10
10.74108593263352
 20
-0.83668281132339
 30
0.0
 40
3.5
 41
0.0
 71
     5
 72
     1
  1
5
  7
CONVERTER_11
 73
     1
 44
1.20048019207683
  0
MTEXT
  5
3A9
330
71
100
AcDbEntity
  8
1
 62
     7
100
AcDbMText
 10
-39.25891406736656
 20
-0.83668281132339
 30
0.0
 40
3.5
 41
0.0
 71
     5
 72
     1
  1
4
  7
CONVERTER_11
 73
     1
 44
1.20048019207683
  0
MTEXT
  5
3AA
330
71
100
AcDbEntity
  8
1
 62
     7
100
AcDbMText
 10
-89.25891406736645
 20
-0.83668281132339
 30
0.0
 40
3.5
 41
0.0
 71
     5
 72
     1
  1
3
  7
CONVERTER_11
 73
     1
 44
1.20048019207683
  0
MTEXT
  5
3AB
330
71
100
AcDbEntity
  8
1
 62
     7
100
AcDbMText
 10
-139.2589140673665
 20
-0.83668281132339
 30
0.0
 40
3.5
 41
0.0
 71
     5
 72
     1
  1
2
  7
CONVERTER_11
 73
     1
 44
1.20048019207683
  0
MTEXT
  5
3AC
330
71
100
AcDbEntity
  8
1
 62
     7
100
AcDbMText
 10
-188.5089140673661
 20
-0.83668281132339
 30
0.0
 40
3.5
 41
0.0
 71
     5
 72
     1
  1
1
  7
CONVERTER_11
 73
     1
 44
1.20048019207683
  0
MTEXT
  5
3AD
330
71
100
AcDbEntity
  8
1
 62
     7
100
AcDbMText
 10
81.74108593263253
 20
24.16331718867673
 30
0.0
 40
3.5
 41
0.0
 71
     5
 72
     1
  1
D
  7
CONVERTER_11
 73
     1
 44
1.20048019207683
  0
MTEXT
  5
3AE
330
71
100
AcDbEntity
  8
1
 62
     7
100
AcDbMText
 10
81.74108593263253
 20
126.6633171886786
 30
0.0
 40
3.5
 41
0.0
 71
     5
 72
     1
  1
B
  7
CONVERTER_11
 73
     1
 44
1.20048019207683
  0
MTEXT
  5
3AF
330
71
100
AcDbEntity
  8
1
 62
     7
100
AcDbMText
 10
81.74108593263253
 20
179.1633171886767
 30
0.0
 40
3.5
 41
0.0
 71
     5
 72
     1
  1
A
  7
CONVERTER_11
 73
     1
 44
1.20048019207683
  0
MTEXT
  5
3B0
330
71
100
AcDbEntity
  8
1
 62
     7
100
AcDbMText
 10
81.74108593263253
 20
76.66331718867863
 30
0.0
 40
3.5
 41
0.0
 71
     5
 72
     1
  1
C
  7
CONVERTER_11
 73
     1
 44
1.20048019207683
  0
MTEXT
  5
3B1
330
71
100
AcDbEntity
  8
1
 62
     2
100
AcDbMText
 10
-84.74173331916398
 20
14.41331718867664
 30
0.0
 40
2.0
 41
0.0
 71
     5
 72
     1
  1
General Information\P- Simplified representation\P- Document excluded from change process\P- Linear dimensions [mm]
  7
CONVERTER_11
 73
     1
 44
1.20048019207683
  0
TEXT
  5
3B2
330
71
100
AcDbEntity
  8
1
 62
     7
100
AcDbText
 10
-12.40371859411675
 20
11.46331718867663
 30
0.0
 40
2.5
  1
3060856
 41
0.81
  7
CONVERTER_12
100
AcDbText
  0
MTEXT
  5
3B3
330
71
100
AcDbEntity
  8
1
 62
     2
100
AcDbMText
 10
-12.80371859411648
 20
17.66331718867673
 30
0.0
 40
1.8
 41
0.0
 71
     1
 72
     1
  1
ident.-No.
  7
CONVERTER_11
 73
     1
 44
1.20048019207683
  0
MTEXT
  5
3B4
330
71
100
AcDbEntity
  8
1
 62
     2
100
AcDbMText
 10
71.42267765095625
 20
26.16331718867673
 30
0.0
 40
1.8
 41
0.0
 71
     1
 72
     1
  1
scale
  7
CONVERTER_11
 73
     1
 44
1.20048019207683
  0
MTEXT
  5
3B6
330
71
100
AcDbEntity
  8
1
 62
     3
100
AcDbMText
 10
74.78188179179584
 20
19.96331718867683
 30
0.0
 40
2.5
 41
0.0
 71
     8
 72
     1
  1
1:1
  7
CONVERTER_13
 73
     1
 44
1.32052821128451
  0
TEXT
  5
3B7
330
71
100
AcDbEntity
  8
1
 62
     7
100
AcDbText
 10
-12.80371859411648
 20
19.96331718867663
 30
0.0
 40
2.5
  1
00631477
 41
0.81
  7
CONVERTER_12
100
AcDbText
  0
MTEXT
  5
3B9
330
71
100
AcDbEntity
  8
1
 62
     2
100
AcDbMText
 10
-12.80371859411648
 20
26.16331718867673
 30
0.0
 40
1.8
 41
0.0
 71
     1
 72
     1
  1
document-No. / RI
  7
CONVERTER_14
 73
     1
 44
1.32052821128451
  0
TEXT
  5
3BA
330
71
100
AcDbEntity
  8
1
 62
     3
100
AcDbText
 10
14.99628140588354
 20
11.46331718867663
 30
0.0
 40
2.5
  1
TECDOC 2D_Productdrawing
 41
0.81
  7
CONVERTER_12
100
AcDbText
  0
MTEXT
  5
3BB
330
71
100
AcDbEntity
  8
1
 62
     2
100
AcDbMText
 10
14.99628140588354
 20
17.66331718867664
 30
0.0
 40
1.8
 41
0.0
 71
     1
 72
     1
  1
document-type
  7
CONVERTER_11
 73
     1
 44
1.20048019207683
  0
MTEXT
  5
3BC
330
71
100
AcDbEntity
  8
1
 62
     2
100
AcDbMText
 10
44.82267765095642
 20
26.16331718867664
 30
0.0
 40
1.8
 41
0.0
 71
     1
 72
     1
  1
date
  7
CONVERTER_11
 73
     1
 44
1.32052821128451
  0
TEXT
  5
3BD
330
71
100
AcDbEntity
  8
1
 62
     3
100
AcDbText
 10
44.82267765095642
 20
19.96331718867663
 30
0.0
 40
2.5
  1
17.12.2017
 41
0.81
  7
CONVERTER_12
100
AcDbText
  0
TEXT
  5
3BE
330
71
100
AcDbEntity
  8
1
 62
     7
100
AcDbText
 10
7.22619362493933
 20
19.96331718867663
 30
0.0
 40
2.5
  1
01
 41
0.81
  7
CONVERTER_12
100
AcDbText
  0
TEXT
  5
3BF
330
71
100
AcDbEntity
  8
1
 62
     7
100
AcDbText
 10
5.06982912789732
 20
19.96331718867663
 30
0.0
 40
2.5
  1
/
 41
0.9
  7
CONVERTER_11
100
AcDbText
  0
HATCH
  5
3C0
330
71
100
AcDbEntity
  8
1
  6
Continuous
 62
     2
100
AcDbHatch
 10
0.0
 20
0.0
 30
0.0
210
0.0
220
0.0
230
1.0
  2
_USER
 70
     0
 71
     1
 91
        1
 92
        1
 93
       12
 72
     1
 10
-32.63621788115538
 20
12.31600766486733
 11
-33.82901058332178
 21
12.31600766486733
 72
     1
 10
-33.82901058332178
 20
12.31600766486733
 11
-33.82901058332178
 21
13.45027977371115
 72
     1
 10
-33.82901058332178
 20
13.45027977371115
 11
-34.87866816122926
 21
13.45027977371115
 72
     1
 10
-34.87866816122926
 20
13.45027977371115
 11
-34.87866816122926
 21
12.31600766486733
 72
     1
 10
-34.87866816122926
 20
12.31600766486733
 11
-36.07146086339586
 21
12.31600766486733
 72
     1
 10
-36.07146086339586
 20
12.31600766486733
 11
-36.07146086339586
 21
15.36981718867853
 72
     1
 10
-36.07146086339586
 20
15.36981718867853
 11
-34.87866816122926
 21
15.36981718867853
 72
     1
 10
-34.87866816122926
 20
15.36981718867853
 11
-34.87866816122926
 21
14.30098385534393
 72
     1
 10
-34.87866816122926
 20
14.30098385534393
 11
-33.82901058332178
 21
14.30098385534393
 72
     1
 10
-33.82901058332178
 20
14.30098385534393
 11
-33.82901058332178
 21
15.36981718867853
 72
     1
 10
-33.82901058332178
 20
15.36981718867853
 11
-32.63621788115538
 21
15.36981718867853
 72
     1
 10
-32.63621788115538
 20
15.36981718867853
 11
-32.63621788115538
 21
12.31600766486733
 97
       12
330
32D
330
32E
330
318
330
317
330
316
330
32A
330
315
330
32B
330
32C
330
314
330
313
330
312
 75
     1
 76
     0
 52
45.0
 41
0.1
 77
     0
 78
     1
 53
45.0
 43
0.0
 44
0.0
 45
-0.0707106781186548
 46
0.0707106781186548
 79
     0
 98
        1
 10
0.0
 20
0.0
  0
HATCH
  5
3C1
330
71
100
AcDbEntity
  8
1
  6
Continuous
 62
     2
100
AcDbHatch
 10
0.0
 20
0.0
 30
0.0
210
0.0
220
0.0
230
1.0
  2
_USER
 70
     0
 71
     1
 91
        1
 92
        1
 93
       12
 72
     1
 10
-32.63621788115538
 20
12.31600766486733
 11
-33.82901058332178
 21
12.31600766486733
 72
     1
 10
-33.82901058332178
 20
12.31600766486733
 11
-33.82901058332178
 21
13.45027977371115
 72
     1
 10
-33.82901058332178
 20
13.45027977371115
 11
-34.87866816122926
 21
13.45027977371115
 72
     1
 10
-34.87866816122926
 20
13.45027977371115
 11
-34.87866816122926
 21
12.31600766486733
 72
     1
 10
-34.87866816122926
 20
12.31600766486733
 11
-36.07146086339586
 21
12.31600766486733
 72
     1
 10
-36.07146086339586
 20
12.31600766486733
 11
-36.07146086339586
 21
15.36981718867853
 72
     1
 10
-36.07146086339586
 20
15.36981718867853
 11
-34.87866816122926
 21
15.36981718867853
 72
     1
 10
-34.87866816122926
 20
15.36981718867853
 11
-34.87866816122926
 21
14.30098385534393
 72
     1
 10
-34.87866816122926
 20
14.30098385534393
 11
-33.82901058332178
 21
14.30098385534393
 72
     1
 10
-33.82901058332178
 20
14.30098385534393
 11
-33.82901058332178
 21
15.36981718867853
 72
     1
 10
-33.82901058332178
 20
15.36981718867853
 11
-32.63621788115538
 21
15.36981718867853
 72
     1
 10
-32.63621788115538
 20
15.36981718867853
 11
-32.63621788115538
 21
12.31600766486733
 97
       12
330
32D
330
32E
330
318
330
317
330
316
330
32A
330
315
330
32B
330
32C
330
314
330
313
330
312
 75
     1
 76
     0
 52
45.0
 41
0.1
 77
     0
 78
     1
 53
45.0
 43
0.0
 44
0.0
 45
-0.0707106781186548
 46
0.0707106781186548
 79
     0
 98
        1
 10
0.0
 20
0.0
  0
HATCH
  5
3C2
330
71
100
AcDbEntity
  8
1
  6
Continuous
 62
     2
100
AcDbHatch
 10
0.0
 20
0.0
 30
0.0
210
0.0
220
0.0
230
1.0
  2
_USER
 70
     0
 71
     1
 91
        1
 92
        1
 93
       10
 72
     1
 10
-30.39391853196707
 20
10.70185120229903
 11
-31.63442294221997
 21
12.01062671250412
 72
     1
 10
-31.63442294221997
 20
12.01062671250412
 11
-32.82721564438756
 21
12.01062671250412
 72
     1
 10
-32.82721564438756
 20
12.01062671250412
 11
-32.82721564438756
 21
8.956817188693037
 72
     1
 10
-32.82721564438756
 20
8.956817188693037
 11
-31.63442294221997
 21
8.956817188693037
 72
     1
 10
-31.63442294221997
 20
8.956817188693037
 11
-31.63442294221997
 21
10.26559269889762
 72
     1
 10
-31.63442294221997
 20
10.26559269889762
 11
-30.39391853196707
 21
8.956817188693037
 72
     1
 10
-30.39391853196707
 20
8.956817188693037
 11
-29.20112582980067
 21
8.956817188693037
 72
     1
 10
-29.20112582980067
 20
8.956817188693037
 11
-29.20112582980067
 21
12.01062671250412
 72
     1
 10
-29.20112582980067
 20
12.01062671250412
 11
-30.39391853196707
 21
12.01062671250412
 72
     1
 10
-30.39391853196707
 20
12.01062671250412
 11
-30.39391853196707
 21
10.70185120229903
 97
       10
330
33B
330
30B
330
30A
330
30D
330
336
330
337
330
30C
330
338
330
339
330
33A
 75
     1
 76
     0
 52
45.0
 41
0.1
 77
     0
 78
     1
 53
45.0
 43
0.0
 44
0.0
 45
-0.0707106781186548
 46
0.0707106781186548
 79
     0
 98
        1
 10
0.0
 20
0.0
  0
HATCH
  5
3C3
330
71
100
AcDbEntity
  8
1
  6
Continuous
 62
     2
100
AcDbHatch
 10
0.0
 20
0.0
 30
0.0
210
0.0
220
0.0
230
1.0
  2
_USER
 70
     0
 71
     1
 91
        1
 92
        1
 93
       10
 72
     1
 10
-30.39391853196707
 20
10.70185120229903
 11
-31.63442294221997
 21
12.01062671250412
 72
     1
 10
-31.63442294221997
 20
12.01062671250412
 11
-32.82721564438756
 21
12.01062671250412
 72
     1
 10
-32.82721564438756
 20
12.01062671250412
 11
-32.82721564438756
 21
8.956817188693037
 72
     1
 10
-32.82721564438756
 20
8.956817188693037
 11
-31.63442294221997
 21
8.956817188693037
 72
     1
 10
-31.63442294221997
 20
8.956817188693037
 11
-31.63442294221997
 21
10.26559269889762
 72
     1
 10
-31.63442294221997
 20
10.26559269889762
 11
-30.39391853196707
 21
8.956817188693037
 72
     1
 10
-30.39391853196707
 20
8.956817188693037
 11
-29.20112582980067
 21
8.956817188693037
 72
     1
 10
-29.20112582980067
 20
8.956817188693037
 11
-29.20112582980067
 21
12.01062671250412
 72
     1
 10
-29.20112582980067
 20
12.01062671250412
 11
-30.39391853196707
 21
12.01062671250412
 72
     1
 10
-30.39391853196707
 20
12.01062671250412
 11
-30.39391853196707
 21
10.70185120229903
 97
       10
330
33B
330
30B
330
30A
330
30D
330
336
330
337
330
30C
330
338
330
339
330
33A
 75
     1
 76
     0
 52
45.0
 41
0.1
 77
     0
 78
     1
 53
45.0
 43
0.0
 44
0.0
 45
-0.0707106781186548
 46
0.0707106781186548
 79
     0
 98
        1
 10
0.0
 20
0.0
  0
HATCH
  5
3C4
330
71
100
AcDbEntity
  8
1
  6
Continuous
 62
     2
100
AcDbHatch
 10
0.0
 20
0.0
 30
0.0
210
0.0
220
0.0
230
1.0
  2
_USER
 70
     0
 71
     1
 91
        1
 92
        1
 93
       10
 72
     1
 10
-25.14547971154735
 20
14.06104167847335
 11
-26.38598412180136
 21
15.36981718867853
 72
     1
 10
-26.38598412180136
 20
15.36981718867853
 11
-27.57877682396787
 21
15.36981718867853
 72
     1
 10
-27.57877682396787
 20
15.36981718867853
 11
-27.57877682396787
 21
12.31600766486733
 72
     1
 10
-27.57877682396787
 20
12.31600766486733
 11
-26.38598412180136
 21
12.31600766486733
 72
     1
 10
-26.38598412180136
 20
12.31600766486733
 11
-26.38598412180136
 21
13.62478317507203
 72
     1
 10
-26.38598412180136
 20
13.62478317507203
 11
-25.14547971154735
 21
12.31600766486733
 72
     1
 10
-25.14547971154735
 20
12.31600766486733
 11
-23.95268700938075
 21
12.31600766486733
 72
     1
 10
-23.95268700938075
 20
12.31600766486733
 11
-23.95268700938075
 21
15.36981718867853
 72
     1
 10
-23.95268700938075
 20
15.36981718867853
 11
-25.14547971154735
 21
15.36981718867853
 72
     1
 10
-25.14547971154735
 20
15.36981718867853
 11
-25.14547971154735
 21
14.06104167847335
 97
       10
330
340
330
308
330
307
330
341
330
306
330
33C
330
33D
330
33E
330
33F
330
309
 75
     1
 76
     0
 52
45.0
 41
0.1
 77
     0
 78
     1
 53
45.0
 43
0.0
 44
0.0
 45
-0.0707106781186548
 46
0.0707106781186548
 79
     0
 98
        1
 10
0.0
 20
0.0
  0
HATCH
  5
3C5
330
71
100
AcDbEntity
  8
1
  6
Continuous
 62
     2
100
AcDbHatch
 10
0.0
 20
0.0
 30
0.0
210
0.0
220
0.0
230
1.0
  2
_USER
 70
     0
 71
     1
 91
        1
 92
        1
 93
       10
 72
     1
 10
-25.14547971154735
 20
14.06104167847335
 11
-26.38598412180136
 21
15.36981718867853
 72
     1
 10
-26.38598412180136
 20
15.36981718867853
 11
-27.57877682396787
 21
15.36981718867853
 72
     1
 10
-27.57877682396787
 20
15.36981718867853
 11
-27.57877682396787
 21
12.31600766486733
 72
     1
 10
-27.57877682396787
 20
12.31600766486733
 11
-26.38598412180136
 21
12.31600766486733
 72
     1
 10
-26.38598412180136
 20
12.31600766486733
 11
-26.38598412180136
 21
13.62478317507203
 72
     1
 10
-26.38598412180136
 20
13.62478317507203
 11
-25.14547971154735
 21
12.31600766486733
 72
     1
 10
-25.14547971154735
 20
12.31600766486733
 11
-23.95268700938075
 21
12.31600766486733
 72
     1
 10
-23.95268700938075
 20
12.31600766486733
 11
-23.95268700938075
 21
15.36981718867853
 72
     1
 10
-23.95268700938075
 20
15.36981718867853
 11
-25.14547971154735
 21
15.36981718867853
 72
     1
 10
-25.14547971154735
 20
15.36981718867853
 11
-25.14547971154735
 21
14.06104167847335
 97
       10
330
340
330
308
330
307
330
341
330
306
330
33C
330
33D
330
33E
330
33F
330
309
 75
     1
 76
     0
 52
45.0
 41
0.1
 77
     0
 78
     1
 53
45.0
 43
0.0
 44
0.0
 45
-0.0707106781186548
 46
0.0707106781186548
 79
     0
 98
        1
 10
0.0
 20
0.0
  0
HATCH
  5
3C6
330
71
100
AcDbEntity
  8
1
  6
Continuous
 62
     2
100
AcDbHatch
 10
0.0
 20
0.0
 30
0.0
210
0.0
220
0.0
230
1.0
  2
_USER
 70
     0
 71
     1
 91
        1
 92
        1
 93
        8
 72
     1
 10
-26.24299992842686
 20
12.01062671250412
 11
-29.05799070554048
 21
12.01062671250412
 72
     1
 10
-29.05799070554048
 20
12.01062671250412
 11
-29.05799070554048
 21
11.22536140638053
 72
     1
 10
-29.05799070554048
 20
11.22536140638053
 11
-28.24689166806587
 21
11.22536140638053
 72
     1
 10
-28.24689166806587
 20
11.22536140638053
 11
-28.24689166806587
 21
8.956817188693037
 72
     1
 10
-28.24689166806587
 20
8.956817188693037
 11
-27.05409896589936
 21
8.956817188693037
 72
     1
 10
-27.05409896589936
 20
8.956817188693037
 11
-27.05409896589936
 21
11.22536140638053
 72
     1
 10
-27.05409896589936
 20
11.22536140638053
 11
-26.24299992842686
 21
11.22536140638053
 72
     1
 10
-26.24299992842686
 20
11.22536140638053
 11
-26.24299992842686
 21
12.01062671250412
 97
        8
330
302
330
342
330
301
330
343
330
344
330
305
330
304
330
303
 75
     1
 76
     0
 52
45.0
 41
0.1
 77
     0
 78
     1
 53
45.0
 43
0.0
 44
0.0
 45
-0.0707106781186548
 46
0.0707106781186548
 79
     0
 98
        1
 10
0.0
 20
0.0
  0
HATCH
  5
3C7
330
71
100
AcDbEntity
  8
1
  6
Continuous
 62
     2
100
AcDbHatch
 10
0.0
 20
0.0
 30
0.0
210
0.0
220
0.0
230
1.0
  2
_USER
 70
     0
 71
     1
 91
        1
 92
        1
 93
        8
 72
     1
 10
-26.24299992842686
 20
12.01062671250412
 11
-29.05799070554048
 21
12.01062671250412
 72
     1
 10
-29.05799070554048
 20
12.01062671250412
 11
-29.05799070554048
 21
11.22536140638053
 72
     1
 10
-29.05799070554048
 20
11.22536140638053
 11
-28.24689166806587
 21
11.22536140638053
 72
     1
 10
-28.24689166806587
 20
11.22536140638053
 11
-28.24689166806587
 21
8.956817188693037
 72
     1
 10
-28.24689166806587
 20
8.956817188693037
 11
-27.05409896589936
 21
8.956817188693037
 72
     1
 10
-27.05409896589936
 20
8.956817188693037
 11
-27.05409896589936
 21
11.22536140638053
 72
     1
 10
-27.05409896589936
 20
11.22536140638053
 11
-26.24299992842686
 21
11.22536140638053
 72
     1
 10
-26.24299992842686
 20
11.22536140638053
 11
-26.24299992842686
 21
12.01062671250412
 97
        8
330
302
330
342
330
301
330
343
330
344
330
305
330
304
330
303
 75
     1
 76
     0
 52
45.0
 41
0.1
 77
     0
 78
     1
 53
45.0
 43
0.0
 44
0.0
 45
-0.0707106781186548
 46
0.0707106781186548
 79
     0
 98
        1
 10
0.0
 20
0.0
  0
HATCH
  5
3C8
330
71
100
AcDbEntity
  8
1
  6
Continuous
 62
     2
100
AcDbHatch
 10
0.0
 20
0.0
 30
0.0
210
0.0
220
0.0
230
1.0
  2
_USER
 70
     0
 71
     1
 91
        2
 92
        1
 93
        8
 72
     1
 10
-24.10457247247987
 20
8.956817188693037
 11
-24.31605252595566
 21
9.497777732910919
 72
     1
 10
-24.31605252595566
 20
9.497777732910919
 11
-25.44849410262947
 21
9.497777732910919
 72
     1
 10
-25.44849410262947
 20
9.497777732910919
 11
-25.65997415610528
 21
8.956817188693037
 72
     1
 10
-25.65997415610528
 20
8.956817188693037
 11
-26.90047856635826
 21
8.956817188693037
 72
     1
 10
-26.90047856635826
 20
8.956817188693037
 11
-25.50252551941895
 21
12.01062671250412
 72
     1
 10
-25.50252551941895
 20
12.01062671250412
 11
-24.26202110916626
 21
12.01062671250412
 72
     1
 10
-24.26202110916626
 20
12.01062671250412
 11
-22.86406806222595
 21
8.956817188693037
 72
     1
 10
-22.86406806222595
 20
8.956817188693037
 11
-24.10457247247987
 21
8.956817188693037
 97
        8
330
346
330
347
330
2FE
330
348
330
2FD
330
300
330
345
330
2FF
 92
       16
 93
        3
 72
     1
 10
-25.18243855148447
 20
10.17834099821752
 11
-24.88227331429206
 21
10.94615596420422
 72
     1
 10
-24.88227331429206
 20
10.94615596420422
 11
-24.58210807710196
 21
10.17834099821752
 72
     1
 10
-24.58210807710196
 20
10.17834099821752
 11
-25.18243855148447
 21
10.17834099821752
 97
        3
330
2FC
330
34A
330
349
 75
     1
 76
     0
 52
45.0
 41
0.1
 77
     0
 78
     1
 53
45.0
 43
0.0
 44
0.0
 45
-0.0707106781186548
 46
0.0707106781186548
 79
     0
 98
        1
 10
0.0
 20
0.0
  0
HATCH
  5
3C9
330
71
100
AcDbEntity
  8
1
  6
Continuous
 62
     2
100
AcDbHatch
 10
0.0
 20
0.0
 30
0.0
210
0.0
220
0.0
230
1.0
  2
_USER
 70
     0
 71
     1
 91
        2
 92
        1
 93
        8
 72
     1
 10
-24.10457247247987
 20
8.956817188693037
 11
-24.31605252595566
 21
9.497777732910919
 72
     1
 10
-24.31605252595566
 20
9.497777732910919
 11
-25.44849410262947
 21
9.497777732910919
 72
     1
 10
-25.44849410262947
 20
9.497777732910919
 11
-25.65997415610528
 21
8.956817188693037
 72
     1
 10
-25.65997415610528
 20
8.956817188693037
 11
-26.90047856635826
 21
8.956817188693037
 72
     1
 10
-26.90047856635826
 20
8.956817188693037
 11
-25.50252551941895
 21
12.01062671250412
 72
     1
 10
-25.50252551941895
 20
12.01062671250412
 11
-24.26202110916626
 21
12.01062671250412
 72
     1
 10
-24.26202110916626
 20
12.01062671250412
 11
-22.86406806222595
 21
8.956817188693037
 72
     1
 10
-22.86406806222595
 20
8.956817188693037
 11
-24.10457247247987
 21
8.956817188693037
 97
        8
330
346
330
347
330
2FE
330
348
330
2FD
330
300
330
345
330
2FF
 92
       16
 93
        3
 72
     1
 10
-25.18243855148447
 20
10.17834099821752
 11
-24.88227331429206
 21
10.94615596420422
 72
     1
 10
-24.88227331429206
 20
10.94615596420422
 11
-24.58210807710196
 21
10.17834099821752
 72
     1
 10
-24.58210807710196
 20
10.17834099821752
 11
-25.18243855148447
 21
10.17834099821752
 97
        3
330
2FC
330
34A
330
349
 75
     1
 76
     0
 52
45.0
 41
0.1
 77
     0
 78
     1
 53
45.0
 43
0.0
 44
0.0
 45
-0.0707106781186548
 46
0.0707106781186548
 79
     0
 98
        1
 10
0.0
 20
0.0
  0
HATCH
  5
3CA
330
71
100
AcDbEntity
  8
1
  6
Continuous
 62
     2
100
AcDbHatch
 10
0.0
 20
0.0
 30
0.0
210
0.0
220
0.0
230
1.0
  2
_USER
 70
     0
 71
     1
 91
        1
 92
        1
 93
        4
 72
     1
 10
-22.47362405869396
 20
12.31600766486733
 11
-23.71412846894685
 21
12.31600766486733
 72
     1
 10
-23.71412846894685
 20
12.31600766486733
 11
-23.71412846894685
 21
15.36981718867853
 72
     1
 10
-23.71412846894685
 20
15.36981718867853
 11
-22.47362405869396
 21
15.36981718867853
 72
     1
 10
-22.47362405869396
 20
15.36981718867853
 11
-22.47362405869396
 21
12.31600766486733
 97
        4
330
2F9
330
2FB
330
34B
330
2FA
 75
     1
 76
     0
 52
45.0
 41
0.1
 77
     0
 78
     1
 53
45.0
 43
0.0
 44
0.0
 45
-0.0707106781186548
 46
0.0707106781186548
 79
     0
 98
        1
 10
0.0
 20
0.0
  0
HATCH
  5
3CB
330
71
100
AcDbEntity
  8
1
  6
Continuous
 62
     2
100
AcDbHatch
 10
0.0
 20
0.0
 30
0.0
210
0.0
220
0.0
230
1.0
  2
_USER
 70
     0
 71
     1
 91
        1
 92
        1
 93
        4
 72
     1
 10
-22.47362405869396
 20
12.31600766486733
 11
-23.71412846894685
 21
12.31600766486733
 72
     1
 10
-23.71412846894685
 20
12.31600766486733
 11
-23.71412846894685
 21
15.36981718867853
 72
     1
 10
-23.71412846894685
 20
15.36981718867853
 11
-22.47362405869396
 21
15.36981718867853
 72
     1
 10
-22.47362405869396
 20
15.36981718867853
 11
-22.47362405869396
 21
12.31600766486733
 97
        4
330
2F9
330
2FB
330
34B
330
2FA
 75
     1
 76
     0
 52
45.0
 41
0.1
 77
     0
 78
     1
 53
45.0
 43
0.0
 44
0.0
 45
-0.0707106781186548
 46
0.0707106781186548
 79
     0
 98
        1
 10
0.0
 20
0.0
  0
HATCH
  5
3CC
330
71
100
AcDbEntity
  8
1
  6
Continuous
 62
     2
100
AcDbHatch
 10
0.0
 20
0.0
 30
0.0
210
0.0
220
0.0
230
1.0
  2
_USER
 70
     0
 71
     1
 91
        1
 92
        1
 93
       12
 72
     1
 10
-18.25113789302316
 20
15.36981718867853
 11
-19.55366752378967
 21
13.89686665864232
 72
     1
 10
-19.55366752378967
 20
13.89686665864232
 11
-18.15571447684937
 21
12.31600766486733
 72
     1
 10
-18.15571447684937
 20
12.31600766486733
 11
-19.55843869459767
 21
12.31600766486733
 72
     1
 10
-19.55843869459767
 20
12.31600766486733
 11
-20.25502963266317
 21
13.10373945016104
 72
     1
 10
-20.25502963266317
 20
13.10373945016104
 11
-20.95162057072886
 21
12.31600766486733
 72
     1
 10
-20.95162057072886
 20
12.31600766486733
 11
-22.35434478847708
 21
12.31600766486733
 72
     1
 10
-22.35434478847708
 20
12.31600766486733
 11
-20.95639174153678
 21
13.89686665864232
 72
     1
 10
-20.95639174153678
 20
13.89686665864232
 11
-22.25892137230426
 21
15.36981718867853
 72
     1
 10
-22.25892137230426
 20
15.36981718867853
 11
-20.85619715455496
 21
15.36981718867853
 72
     1
 10
-20.85619715455496
 20
15.36981718867853
 11
-20.25502963266317
 21
14.68999386712304
 72
     1
 10
-20.25502963266317
 20
14.68999386712304
 11
-19.65386211077038
 21
15.36981718867853
 72
     1
 10
-19.65386211077038
 20
15.36981718867853
 11
-18.25113789302316
 21
15.36981718867853
 97
       12
330
2F4
330
2F3
330
2F2
330
34F
330
350
330
34C
330
34D
330
2F8
330
2F7
330
2F6
330
2F5
330
34E
 75
     1
 76
     0
 52
45.0
 41
0.1
 77
     0
 78
     1
 53
45.0
 43
0.0
 44
0.0
 45
-0.0707106781186548
 46
0.0707106781186548
 79
     0
 98
        1
 10
0.0
 20
0.0
  0
HATCH
  5
3CD
330
71
100
AcDbEntity
  8
1
  6
Continuous
 62
     2
100
AcDbHatch
 10
0.0
 20
0.0
 30
0.0
210
0.0
220
0.0
230
1.0
  2
_USER
 70
     0
 71
     1
 91
        1
 92
        1
 93
       12
 72
     1
 10
-18.25113789302316
 20
15.36981718867853
 11
-19.55366752378967
 21
13.89686665864232
 72
     1
 10
-19.55366752378967
 20
13.89686665864232
 11
-18.15571447684937
 21
12.31600766486733
 72
     1
 10
-18.15571447684937
 20
12.31600766486733
 11
-19.55843869459767
 21
12.31600766486733
 72
     1
 10
-19.55843869459767
 20
12.31600766486733
 11
-20.25502963266317
 21
13.10373945016104
 72
     1
 10
-20.25502963266317
 20
13.10373945016104
 11
-20.95162057072886
 21
12.31600766486733
 72
     1
 10
-20.95162057072886
 20
12.31600766486733
 11
-22.35434478847708
 21
12.31600766486733
 72
     1
 10
-22.35434478847708
 20
12.31600766486733
 11
-20.95639174153678
 21
13.89686665864232
 72
     1
 10
-20.95639174153678
 20
13.89686665864232
 11
-22.25892137230426
 21
15.36981718867853
 72
     1
 10
-22.25892137230426
 20
15.36981718867853
 11
-20.85619715455496
 21
15.36981718867853
 72
     1
 10
-20.85619715455496
 20
15.36981718867853
 11
-20.25502963266317
 21
14.68999386712304
 72
     1
 10
-20.25502963266317
 20
14.68999386712304
 11
-19.65386211077038
 21
15.36981718867853
 72
     1
 10
-19.65386211077038
 20
15.36981718867853
 11
-18.25113789302316
 21
15.36981718867853
 97
       12
330
2F4
330
2F3
330
2F2
330
34F
330
350
330
34C
330
34D
330
2F8
330
2F7
330
2F6
330
2F5
330
34E
 75
     1
 76
     0
 52
45.0
 41
0.1
 77
     0
 78
     1
 53
45.0
 43
0.0
 44
0.0
 45
-0.0707106781186548
 46
0.0707106781186548
 79
     0
 98
        1
 10
0.0
 20
0.0
  0
HATCH
  5
3CE
330
71
100
AcDbEntity
  8
1
  6
Continuous
 62
     2
100
AcDbHatch
 10
0.0
 20
0.0
 30
0.0
210
0.0
220
0.0
230
1.0
  2
_USER
 70
     0
 71
     1
 91
        2
 92
        1
 93
        6
 72
     1
 10
-37.26887330716917
 20
13.25908590601114
 11
-38.02764089494946
 21
13.25908590601114
 72
     1
 10
-38.02764089494946
 20
13.25908590601114
 11
-38.02764089494946
 21
12.31600766486733
 72
     1
 10
-38.02764089494946
 20
12.31600766486733
 11
-39.26814530520358
 21
12.31600766486733
 72
     1
 10
-39.26814530520358
 20
12.31600766486733
 11
-39.26814530520358
 21
15.36981718867853
 72
     1
 10
-39.26814530520358
 20
15.36981718867853
 11
-37.26887330716917
 21
15.36981718867853
 72
     2
 10
-37.26887330716917
 20
14.31445154734485
 40
1.05536564133371
 50
270.0
 51
450.0
 73
     0
 97
        6
330
31C
330
31B
330
328
330
327
330
31D
330
36D
 92
       16
 93
        4
 72
     2
 10
-37.71034583340756
 20
14.35384751856734
 40
0.35286382467112
 50
270.0
 51
450.0
 73
     1
 72
     1
 10
-37.71034583340756
 20
14.70671134323843
 11
-38.02764089494946
 21
14.70671134323843
 72
     1
 10
-38.02764089494946
 20
14.70671134323843
 11
-38.02764089494946
 21
14.00098369389622
 72
     1
 10
-38.02764089494946
 20
14.00098369389622
 11
-37.71034583340756
 21
14.00098369389622
 97
        4
330
381
330
319
330
329
330
31A
 75
     1
 76
     0
 52
45.0
 41
0.1
 77
     0
 78
     1
 53
45.0
 43
0.0
 44
0.0
 45
-0.0707106781186548
 46
0.0707106781186548
 79
     0
 98
        1
 10
0.0
 20
0.0
  0
HATCH
  5
3CF
330
71
100
AcDbEntity
  8
1
  6
Continuous
 62
     2
100
AcDbHatch
 10
0.0
 20
0.0
 30
0.0
210
0.0
220
0.0
230
1.0
  2
_USER
 70
     0
 71
     1
 91
        2
 92
        1
 93
        6
 72
     1
 10
-37.26887330716917
 20
13.25908590601114
 11
-38.02764089494946
 21
13.25908590601114
 72
     1
 10
-38.02764089494946
 20
13.25908590601114
 11
-38.02764089494946
 21
12.31600766486733
 72
     1
 10
-38.02764089494946
 20
12.31600766486733
 11
-39.26814530520358
 21
12.31600766486733
 72
     1
 10
-39.26814530520358
 20
12.31600766486733
 11
-39.26814530520358
 21
15.36981718867853
 72
     1
 10
-39.26814530520358
 20
15.36981718867853
 11
-37.26887330716917
 21
15.36981718867853
 72
     2
 10
-37.26887330716917
 20
14.31445154734485
 40
1.05536564133371
 50
270.0
 51
450.0
 73
     0
 97
        6
330
31C
330
31B
330
328
330
327
330
31D
330
36D
 92
       16
 93
        4
 72
     2
 10
-37.71034583340756
 20
14.35384751856734
 40
0.35286382467112
 50
270.0
 51
450.0
 73
     1
 72
     1
 10
-37.71034583340756
 20
14.70671134323843
 11
-38.02764089494946
 21
14.70671134323843
 72
     1
 10
-38.02764089494946
 20
14.70671134323843
 11
-38.02764089494946
 21
14.00098369389622
 72
     1
 10
-38.02764089494946
 20
14.00098369389622
 11
-37.71034583340756
 21
14.00098369389622
 97
        4
330
381
330
319
330
329
330
31A
 75
     1
 76
     0
 52
45.0
 41
0.1
 77
     0
 78
     1
 53
45.0
 43
0.0
 44
0.0
 45
-0.0707106781186548
 46
0.0707106781186548
 79
     0
 98
        1
 10
0.0
 20
0.0
  0
HATCH
  5
3D0
330
71
100
AcDbEntity
  8
1
  6
Continuous
 62
     2
100
AcDbHatch
 10
0.0
 20
0.0
 30
0.0
210
0.0
220
0.0
230
1.0
  2
_USER
 70
     0
 71
     1
 91
        2
 92
        1
 93
        4
 72
     2
 10
-34.71233055881007
 20
9.94514694029553
 40
2.065479772208569
 50
62.45185182430616
 51
117.5481481756662
 73
     1
 72
     2
 10
-34.99327045064337
 20
10.48372195059832
 40
1.458034083651488
 50
117.5481481756622
 51
242.4518518243377
 73
     1
 72
     2
 10
-34.71233055881007
 20
11.02229696090163
 40
2.065479772208507
 50
242.4518518243404
 51
297.5481481756872
 73
     1
 72
     2
 10
-34.43139066697677
 20
10.48372195059832
 40
1.458034083652
 50
297.5481481757011
 51
422.451851824299
 73
     1
 97
        4
330
379
330
378
330
37A
330
377
 92
       16
 93
        4
 72
     2
 10
-34.91207059515648
 20
10.48372195059832
 40
0.7717997786796947
 50
321.8795802028417
 51
398.1204197971537
 73
     1
 72
     2
 10
-34.71233055881007
 20
10.64045312871883
 40
0.5179085730133087
 50
38.12041979714701
 51
141.8795802028579
 73
     1
 72
     2
 10
-34.51259052246397
 20
10.48372195059832
 40
0.7717997786794676
 50
141.8795802028359
 51
218.1204197971687
 73
     1
 72
     2
 10
-34.71233055881007
 20
10.32699077247833
 40
0.5179085730137353
 50
218.1204197971944
 51
321.8795802028007
 73
     1
 97
        4
330
395
330
392
330
393
330
394
 75
     1
 76
     0
 52
45.0
 41
0.1
 77
     0
 78
     1
 53
45.0
 43
0.0
 44
0.0
 45
-0.0707106781186548
 46
0.0707106781186548
 79
     0
 98
        1
 10
0.0
 20
0.0
  0
HATCH
  5
3D1
330
71
100
AcDbEntity
  8
1
  6
Continuous
 62
     2
100
AcDbHatch
 10
0.0
 20
0.0
 30
0.0
210
0.0
220
0.0
230
1.0
  2
_USER
 70
     0
 71
     1
 91
        2
 92
        1
 93
        4
 72
     2
 10
-34.71233055881007
 20
9.94514694029553
 40
2.065479772208569
 50
62.45185182430616
 51
117.5481481756662
 73
     1
 72
     2
 10
-34.99327045064337
 20
10.48372195059832
 40
1.458034083651488
 50
117.5481481756622
 51
242.4518518243377
 73
     1
 72
     2
 10
-34.71233055881007
 20
11.02229696090163
 40
2.065479772208507
 50
242.4518518243404
 51
297.5481481756872
 73
     1
 72
     2
 10
-34.43139066697677
 20
10.48372195059832
 40
1.458034083652
 50
297.5481481757011
 51
422.451851824299
 73
     1
 97
        4
330
379
330
378
330
37A
330
377
 92
       16
 93
        4
 72
     2
 10
-34.91207059515648
 20
10.48372195059832
 40
0.7717997786796947
 50
321.8795802028417
 51
398.1204197971537
 73
     1
 72
     2
 10
-34.71233055881007
 20
10.64045312871883
 40
0.5179085730133087
 50
38.12041979714701
 51
141.8795802028579
 73
     1
 72
     2
 10
-34.51259052246397
 20
10.48372195059832
 40
0.7717997786794676
 50
141.8795802028359
 51
218.1204197971687
 73
     1
 72
     2
 10
-34.71233055881007
 20
10.32699077247833
 40
0.5179085730137353
 50
218.1204197971944
 51
321.8795802028007
 73
     1
 97
        4
330
395
330
392
330
393
330
394
 75
     1
 76
     0
 52
45.0
 41
0.1
 77
     0
 78
     1
 53
45.0
 43
0.0
 44
0.0
 45
-0.0707106781186548
 46
0.0707106781186548
 79
     0
 98
        1
 10
0.0
 20
0.0
  0
HATCH
  5
3D2
330
71
100
AcDbEntity
  8
1
  6
Continuous
 62
     2
100
AcDbHatch
 10
0.0
 20
0.0
 30
0.0
210
0.0
220
0.0
230
1.0
  2
_USER
 70
     0
 71
     1
 91
        2
 92
        1
 93
       12
 72
     1
 10
-27.81733536440078
 20
14.67180358323554
 11
-29.15326319082845
 21
14.67180358323554
 72
     1
 10
-29.15326319082845
 20
14.67180358323554
 11
-29.15326319082845
 21
14.19191922949383
 72
     1
 10
-29.15326319082845
 20
14.19191922949383
 11
-27.81733536440078
 21
14.19191922949383
 72
     1
 10
-27.81733536440078
 20
14.19191922949383
 11
-27.81733536440078
 21
13.49390562405154
 72
     1
 10
-27.81733536440078
 20
13.49390562405154
 11
-29.15326319082845
 21
13.49390562405154
 72
     1
 10
-29.15326319082845
 20
13.49390562405154
 11
-29.15326319082845
 21
13.01402127030983
 72
     1
 10
-29.15326319082845
 20
13.01402127030983
 11
-27.81733536440078
 21
13.01402127030983
 72
     1
 10
-27.81733536440078
 20
13.01402127030983
 11
-27.81733536440078
 21
12.31600766486733
 72
     1
 10
-27.81733536440078
 20
12.31600766486733
 11
-30.96765508818177
 21
12.31600766486733
 72
     2
 10
-30.96765508818177
 20
13.84291242677264
 40
1.52690476190589
 50
90.0
 51
270.0
 73
     0
 72
     1
 10
-30.96765508818177
 20
15.36981718867853
 11
-27.81733536440078
 21
15.36981718867853
 72
     1
 10
-27.81733536440078
 20
15.36981718867853
 11
-27.81733536440078
 21
14.67180358323554
 97
       12
330
330
330
382
330
331
330
332
330
333
330
334
330
311
330
310
330
30F
330
30E
330
335
330
32F
 92
       16
 93
        4
 72
     2
 10
-30.75138307801657
 20
13.99964360489312
 40
0.517908573013522
 50
38.12041979714398
 51
141.8795802028492
 73
     1
 72
     2
 10
-30.55164304167028
 20
13.84291242677264
 40
0.7717997786796696
 50
141.8795802028403
 51
218.1204197971563
 73
     1
 72
     2
 10
-30.75138307801657
 20
13.68618124865222
 40
0.5179085730134437
 50
218.1204197971508
 51
321.879580202856
 73
     1
 72
     2
 10
-30.95112311436276
 20
13.84291242677264
 40
0.7717997786796335
 50
321.8795802028437
 51
398.1204197971597
 73
     1
 97
        4
330
37C
330
37B
330
376
330
375
 75
     1
 76
     0
 52
45.0
 41
0.1
 77
     0
 78
     1
 53
45.0
 43
0.0
 44
0.0
 45
-0.0707106781186548
 46
0.0707106781186548
 79
     0
 98
        1
 10
0.0
 20
0.0
  0
HATCH
  5
3D3
330
71
100
AcDbEntity
  8
1
  6
Continuous
 62
     2
100
AcDbHatch
 10
0.0
 20
0.0
 30
0.0
210
0.0
220
0.0
230
1.0
  2
_USER
 70
     0
 71
     1
 91
        2
 92
        1
 93
       12
 72
     1
 10
-27.81733536440078
 20
14.67180358323554
 11
-29.15326319082845
 21
14.67180358323554
 72
     1
 10
-29.15326319082845
 20
14.67180358323554
 11
-29.15326319082845
 21
14.19191922949383
 72
     1
 10
-29.15326319082845
 20
14.19191922949383
 11
-27.81733536440078
 21
14.19191922949383
 72
     1
 10
-27.81733536440078
 20
14.19191922949383
 11
-27.81733536440078
 21
13.49390562405154
 72
     1
 10
-27.81733536440078
 20
13.49390562405154
 11
-29.15326319082845
 21
13.49390562405154
 72
     1
 10
-29.15326319082845
 20
13.49390562405154
 11
-29.15326319082845
 21
13.01402127030983
 72
     1
 10
-29.15326319082845
 20
13.01402127030983
 11
-27.81733536440078
 21
13.01402127030983
 72
     1
 10
-27.81733536440078
 20
13.01402127030983
 11
-27.81733536440078
 21
12.31600766486733
 72
     1
 10
-27.81733536440078
 20
12.31600766486733
 11
-30.96765508818177
 21
12.31600766486733
 72
     2
 10
-30.96765508818177
 20
13.84291242677264
 40
1.52690476190589
 50
90.0
 51
270.0
 73
     0
 72
     1
 10
-30.96765508818177
 20
15.36981718867853
 11
-27.81733536440078
 21
15.36981718867853
 72
     1
 10
-27.81733536440078
 20
15.36981718867853
 11
-27.81733536440078
 21
14.67180358323554
 97
       12
330
330
330
382
330
331
330
332
330
333
330
334
330
311
330
310
330
30F
330
30E
330
335
330
32F
 92
       16
 93
        4
 72
     2
 10
-30.75138307801657
 20
13.99964360489312
 40
0.517908573013522
 50
38.12041979714398
 51
141.8795802028492
 73
     1
 72
     2
 10
-30.55164304167028
 20
13.84291242677264
 40
0.7717997786796696
 50
141.8795802028403
 51
218.1204197971563
 73
     1
 72
     2
 10
-30.75138307801657
 20
13.68618124865222
 40
0.5179085730134437
 50
218.1204197971508
 51
321.879580202856
 73
     1
 72
     2
 10
-30.95112311436276
 20
13.84291242677264
 40
0.7717997786796335
 50
321.8795802028437
 51
398.1204197971597
 73
     1
 97
        4
330
37C
330
37B
330
376
330
375
 75
     1
 76
     0
 52
45.0
 41
0.1
 77
     0
 78
     1
 53
45.0
 43
0.0
 44
0.0
 45
-0.0707106781186548
 46
0.0707106781186548
 79
     0
 98
        1
 10
0.0
 20
0.0
  0
HATCH
  5
3D4
330
71
100
AcDbEntity
  8
1
  6
Continuous
 62
     2
100
AcDbHatch
 10
0.0
 20
0.0
 30
0.0
210
0.0
220
0.0
230
1.0
  2
_USER
 70
     0
 71
     1
 91
        4
 92
        1
 93
        8
 72
     1
 10
-39.74526238607038
 20
14.94557257327654
 11
-39.74526238607038
 21
9.381061804076325
 72
     2
 10
-40.16950700145426
 20
9.381061804076325
 40
0.4242446153832873
 50
0.0
 51
90.0
 73
     0
 72
     1
 10
-40.16950700145426
 20
8.956817188693037
 11
-45.64281909217107
 21
8.956817188693037
 72
     2
 10
-45.64281909217107
 20
9.381061804076325
 40
0.4242446153828041
 50
90.0
 51
180.0
 73
     0
 72
     1
 10
-46.06706370755387
 20
9.381061804076325
 11
-46.06706370755387
 21
14.94557257327654
 72
     2
 10
-45.64281909217107
 20
14.94557257327654
 40
0.4242446153838006
 50
180.0
 51
270.0
 73
     0
 72
     1
 10
-45.64281909217107
 20
15.36981718866034
 11
-40.16950700145426
 21
15.36981718866034
 72
     2
 10
-40.16950700145426
 20
14.94557257327654
 40
0.424244615383877
 50
270.0
 51
360.0
 73
     0
 97
        8
330
324
330
372
330
325
330
37D
330
322
330
374
330
323
330
373
 92
       16
 93
        1
 72
     2
 10
-43.02323344165356
 20
12.62669034492103
 40
0.4709789327785074
 50
0.0
 51
360.0
 73
     1
 97
        1
330
398
 92
       16
 93
        8
 72
     2
 10
-42.47337572889288
 20
11.51754874495262
 40
0.3157169230765314
 50
115.3740086783506
 51
180.0
 73
     1
 72
     1
 10
-42.78909265196967
 20
11.51754874495262
 11
-42.78909265196967
 21
10.93569733825754
 72
     2
 10
-42.47337572889288
 20
10.93569733825754
 40
0.3157169230767849
 50
180.0
 51
269.8110329574567
 73
     1
 72
     2
 10
-42.46775959358286
 20
12.63853228582653
 40
2.018561131933267
 50
269.8110329575862
 51
450.1889670424138
 73
     1
 72
     2
 10
-42.47337572889288
 20
14.34136723339563
 40
0.3157169230760746
 50
90.18896704254334
 51
180.0
 73
     1
 72
     1
 10
-42.78909265196967
 20
14.34136723339563
 11
-42.78909265196967
 21
13.73583194488884
 72
     2
 10
-42.47337572889288
 20
13.73583194488884
 40
0.3157169230767849
 50
180.0
 51
244.6259913216486
 73
     1
 72
     2
 10
-42.99941842698075
 20
12.62669034492103
 40
0.9118481501444573
 50
295.3740086781924
 51
424.6259913218234
 73
     0
 97
        8
330
38A
330
2EB
330
387
330
388
330
366
330
2EA
330
389
330
365
 92
       16
 93
       12
 72
     2
 10
-45.04892441542458
 20
9.985089667326633
 40
0.3157169230756836
 50
180.0
 51
270.0
 73
     1
 72
     1
 10
-45.04892441542458
 20
9.669372744249927
 11
-43.57309115441495
 21
9.669372744249927
 72
     2
 10
-43.57309115441495
 20
9.985089667326633
 40
0.3157169230767067
 50
270.0
 51
360.0
 73
     1
 72
     1
 10
-43.25737423133836
 20
9.985089667326633
 11
-43.25737423133836
 21
11.51586059885824
 72
     2
 10
-43.57309115441495
 20
11.51586059885824
 40
0.315716923076593
 50
0.0
 51
64.80558935146145
 73
     1
 72
     2
 10
-43.05050670683997
 20
12.62669034492103
 40
0.9118975235576128
 50
115.1944106485127
 51
244.8055893514712
 73
     0
 72
     2
 10
-43.57309115441495
 20
13.73752009098322
 40
0.3157169230761172
 50
295.1944106485386
 51
360.0
 73
     1
 72
     1
 10
-43.25737423133836
 20
13.73752009098322
 11
-43.25737423133836
 21
14.34154471004374
 72
     2
 10
-43.57309115441495
 20
14.34154471004374
 40
0.315716923076593
 50
0.0
 51
90.0
 73
     1
 72
     1
 10
-43.57309115441495
 20
14.65726163311993
 11
-45.04892441542458
 21
14.65726163311993
 72
     2
 10
-45.04892441542458
 20
14.34154471004374
 40
0.3157169230761898
 50
90.0
 51
180.0
 73
     1
 72
     1
 10
-45.36464133850026
 20
14.34154471004374
 11
-45.36464133850026
 21
9.985089667326633
 97
       12
330
36E
330
326
330
371
330
321
330
37E
330
37F
330
370
330
320
330
36F
330
31F
330
380
330
31E
 75
     1
 76
     0
 52
45.0
 41
0.1
 77
     0
 78
     1
 53
45.0
 43
0.0
 44
0.0
 45
-0.0707106781186548
 46
0.0707106781186548
 79
     0
 98
        1
 10
0.0
 20
0.0
  0
HATCH
  5
3D5
330
71
100
AcDbEntity
  8
1
  6
Continuous
 62
     2
100
AcDbHatch
 10
0.0
 20
0.0
 30
0.0
210
0.0
220
0.0
230
1.0
  2
_USER
 70
     0
 71
     1
 91
        4
 92
        1
 93
        8
 72
     1
 10
-39.74526238607038
 20
14.94557257327654
 11
-39.74526238607038
 21
9.381061804076325
 72
     2
 10
-40.16950700145426
 20
9.381061804076325
 40
0.4242446153832873
 50
0.0
 51
90.0
 73
     0
 72
     1
 10
-40.16950700145426
 20
8.956817188693037
 11
-45.64281909217107
 21
8.956817188693037
 72
     2
 10
-45.64281909217107
 20
9.381061804076325
 40
0.4242446153828041
 50
90.0
 51
180.0
 73
     0
 72
     1
 10
-46.06706370755387
 20
9.381061804076325
 11
-46.06706370755387
 21
14.94557257327654
 72
     2
 10
-45.64281909217107
 20
14.94557257327654
 40
0.4242446153838006
 50
180.0
 51
270.0
 73
     0
 72
     1
 10
-45.64281909217107
 20
15.36981718866034
 11
-40.16950700145426
 21
15.36981718866034
 72
     2
 10
-40.16950700145426
 20
14.94557257327654
 40
0.424244615383877
 50
270.0
 51
360.0
 73
     0
 97
        8
330
324
330
372
330
325
330
37D
330
322
330
374
330
323
330
373
 92
       16
 93
        1
 72
     2
 10
-43.02323344165356
 20
12.62669034492103
 40
0.4709789327785074
 50
0.0
 51
360.0
 73
     1
 97
        1
330
398
 92
       16
 93
        8
 72
     2
 10
-42.47337572889288
 20
11.51754874495262
 40
0.3157169230765314
 50
115.3740086783506
 51
180.0
 73
     1
 72
     1
 10
-42.78909265196967
 20
11.51754874495262
 11
-42.78909265196967
 21
10.93569733825754
 72
     2
 10
-42.47337572889288
 20
10.93569733825754
 40
0.3157169230767849
 50
180.0
 51
269.8110329574567
 73
     1
 72
     2
 10
-42.46775959358286
 20
12.63853228582653
 40
2.018561131933267
 50
269.8110329575862
 51
450.1889670424138
 73
     1
 72
     2
 10
-42.47337572889288
 20
14.34136723339563
 40
0.3157169230760746
 50
90.18896704254334
 51
180.0
 73
     1
 72
     1
 10
-42.78909265196967
 20
14.34136723339563
 11
-42.78909265196967
 21
13.73583194488884
 72
     2
 10
-42.47337572889288
 20
13.73583194488884
 40
0.3157169230767849
 50
180.0
 51
244.6259913216486
 73
     1
 72
     2
 10
-42.99941842698075
 20
12.62669034492103
 40
0.9118481501444573
 50
295.3740086781924
 51
424.6259913218234
 73
     0
 97
        8
330
38A
330
2EB
330
387
330
388
330
366
330
2EA
330
389
330
365
 92
       16
 93
       12
 72
     2
 10
-45.04892441542458
 20
9.985089667326633
 40
0.3157169230756836
 50
180.0
 51
270.0
 73
     1
 72
     1
 10
-45.04892441542458
 20
9.669372744249927
 11
-43.57309115441495
 21
9.669372744249927
 72
     2
 10
-43.57309115441495
 20
9.985089667326633
 40
0.3157169230767067
 50
270.0
 51
360.0
 73
     1
 72
     1
 10
-43.25737423133836
 20
9.985089667326633
 11
-43.25737423133836
 21
11.51586059885824
 72
     2
 10
-43.57309115441495
 20
11.51586059885824
 40
0.315716923076593
 50
0.0
 51
64.80558935146145
 73
     1
 72
     2
 10
-43.05050670683997
 20
12.62669034492103
 40
0.9118975235576128
 50
115.1944106485127
 51
244.8055893514712
 73
     0
 72
     2
 10
-43.57309115441495
 20
13.73752009098322
 40
0.3157169230761172
 50
295.1944106485386
 51
360.0
 73
     1
 72
     1
 10
-43.25737423133836
 20
13.73752009098322
 11
-43.25737423133836
 21
14.34154471004374
 72
     2
 10
-43.57309115441495
 20
14.34154471004374
 40
0.315716923076593
 50
0.0
 51
90.0
 73
     1
 72
     1
 10
-43.57309115441495
 20
14.65726163311993
 11
-45.04892441542458
 21
14.65726163311993
 72
     2
 10
-45.04892441542458
 20
14.34154471004374
 40
0.3157169230761898
 50
90.0
 51
180.0
 73
     1
 72
     1
 10
-45.36464133850026
 20
14.34154471004374
 11
-45.36464133850026
 21
9.985089667326633
 97
       12
330
36E
330
326
330
371
330
321
330
37E
330
37F
330
370
330
320
330
36F
330
31F
330
380
330
31E
 75
     1
 76
     0
 52
45.0
 41
0.1
 77
     0
 78
     1
 53
45.0
 43
0.0
 44
0.0
 45
-0.0707106781186548
 46
0.0707106781186548
 79
     0
 98
        1
 10
0.0
 20
0.0
  0
HATCH
  5
3D6
330
71
100
AcDbEntity
  8
1
  6
Continuous
 62
     2
100
AcDbHatch
 10
0.0
 20
0.0
 30
0.0
210
0.0
220
0.0
230
1.0
  2
_USER
 70
     0
 71
     1
 91
        1
 92
        1
 93
       18
 72
     1
 10
-18.15571447684937
 20
11.22536140638053
 11
-18.96681351432275
 21
11.22536140638053
 72
     1
 10
-18.96681351432275
 20
11.22536140638053
 11
-18.96681351432275
 21
8.956817188693037
 72
     1
 10
-18.96681351432275
 20
8.956817188693037
 11
-20.15960621649046
 21
8.956817188693037
 72
     1
 10
-20.15960621649046
 20
8.956817188693037
 11
-20.15960621649046
 21
11.22536140638053
 72
     1
 10
-20.15960621649046
 20
11.22536140638053
 11
-21.26324551605856
 21
11.22536140638053
 72
     2
 10
-21.26324551605856
 20
10.27083839955444
 40
0.9545230068260899
 50
90.0
 51
109.3371432194321
 73
     1
 72
     2
 10
-21.40991551416227
 20
10.68879337993732
 40
0.5115800601944169
 50
109.3371432194843
 51
151.4785267424214
 73
     1
 72
     2
 10
-21.03255825608088
 20
10.48372195059832
 40
0.9410597353348926
 50
151.4785267423619
 51
208.5214732576696
 73
     1
 72
     2
 10
-21.40991551416227
 20
10.27865052125983
 40
0.5115800601960153
 50
208.521473257687
 51
246.6277221118451
 73
     1
 72
     2
 10
-21.25347548145916
 20
10.64064253996983
 40
0.9059297849852812
 50
246.6277221118178
 51
288.4480761180818
 73
     1
 72
     2
 10
-21.67164321512107
 20
11.89418831600642
 40
2.227384008972748
 50
288.4480761181337
 51
301.9309089499398
 73
     1
 72
     1
 10
-20.49358817309715
 20
10.00383759685664
 11
-20.49358817309715
 21
9.13132059005332
 72
     2
 10
-21.82951609021387
 20
13.79640289585473
 40
4.852596863498827
 50
74.02000874166134
 51
84.84185523036375
 73
     0
 72
     2
 10
-21.54065999547805
 20
10.59651231263314
 40
1.639695123940452
 50
84.8418552303239
 51
164.9381082228988
 73
     0
 72
     2
 10
-21.95978783893966
 20
10.48372195059832
 40
1.205656168393008
 50
164.9381082229044
 51
195.0618917770975
 73
     0
 72
     2
 10
-21.54065999547805
 20
10.37093158856342
 40
1.63969512394022
 50
195.0618917771053
 51
270.0
 73
     0
 72
     1
 10
-21.54065999547805
 20
12.01062671250364
 11
-18.15571447684937
 21
12.01062671250412
 72
     1
 10
-18.15571447684937
 20
12.01062671250412
 11
-18.15571447684937
 21
11.22536140638053
 97
       18
330
2ED
330
383
330
384
330
36C
330
36B
330
351
330
36A
330
369
330
385
330
368
330
386
330
367
330
352
330
2EC
330
2F1
330
2F0
330
2EF
330
2EE
 75
     1
 76
     0
 52
45.0
 41
0.1
 77
     0
 78
     1
 53
45.0
 43
0.0
 44
0.0
 45
-0.0707106781186548
 46
0.0707106781186548
 79
     0
 98
        1
 10
0.0
 20
0.0
  0
HATCH
  5
3D7
330
71
100
AcDbEntity
  8
1
  6
Continuous
 62
     2
100
AcDbHatch
 10
0.0
 20
0.0
 30
0.0
210
0.0
220
0.0
230
1.0
  2
_USER
 70
     0
 71
     1
 91
        1
 92
        1
 93
       18
 72
     1
 10
-18.15571447684937
 20
11.22536140638053
 11
-18.96681351432275
 21
11.22536140638053
 72
     1
 10
-18.96681351432275
 20
11.22536140638053
 11
-18.96681351432275
 21
8.956817188693037
 72
     1
 10
-18.96681351432275
 20
8.956817188693037
 11
-20.15960621649046
 21
8.956817188693037
 72
     1
 10
-20.15960621649046
 20
8.956817188693037
 11
-20.15960621649046
 21
11.22536140638053
 72
     1
 10
-20.15960621649046
 20
11.22536140638053
 11
-21.26324551605856
 21
11.22536140638053
 72
     2
 10
-21.26324551605856
 20
10.27083839955444
 40
0.9545230068260899
 50
90.0
 51
109.3371432194321
 73
     1
 72
     2
 10
-21.40991551416227
 20
10.68879337993732
 40
0.5115800601944169
 50
109.3371432194843
 51
151.4785267424214
 73
     1
 72
     2
 10
-21.03255825608088
 20
10.48372195059832
 40
0.9410597353348926
 50
151.4785267423619
 51
208.5214732576696
 73
     1
 72
     2
 10
-21.40991551416227
 20
10.27865052125983
 40
0.5115800601960153
 50
208.521473257687
 51
246.6277221118451
 73
     1
 72
     2
 10
-21.25347548145916
 20
10.64064253996983
 40
0.9059297849852812
 50
246.6277221118178
 51
288.4480761180818
 73
     1
 72
     2
 10
-21.67164321512107
 20
11.89418831600642
 40
2.227384008972748
 50
288.4480761181337
 51
301.9309089499398
 73
     1
 72
     1
 10
-20.49358817309715
 20
10.00383759685664
 11
-20.49358817309715
 21
9.13132059005332
 72
     2
 10
-21.82951609021387
 20
13.79640289585473
 40
4.852596863498827
 50
74.02000874166134
 51
84.84185523036375
 73
     0
 72
     2
 10
-21.54065999547805
 20
10.59651231263314
 40
1.639695123940452
 50
84.8418552303239
 51
164.9381082228988
 73
     0
 72
     2
 10
-21.95978783893966
 20
10.48372195059832
 40
1.205656168393008
 50
164.9381082229044
 51
195.0618917770975
 73
     0
 72
     2
 10
-21.54065999547805
 20
10.37093158856342
 40
1.63969512394022
 50
195.0618917771053
 51
270.0
 73
     0
 72
     1
 10
-21.54065999547805
 20
12.01062671250364
 11
-18.15571447684937
 21
12.01062671250412
 72
     1
 10
-18.15571447684937
 20
12.01062671250412
 11
-18.15571447684937
 21
11.22536140638053
 97
       18
330
2ED
330
383
330
384
330
36C
330
36B
330
351
330
36A
330
369
330
385
330
368
330
386
330
367
330
352
330
2EC
330
2F1
330
2F0
330
2EF
330
2EE
 75
     1
 76
     0
 52
45.0
 41
0.1
 77
     0
 78
     1
 53
45.0
 43
0.0
 44
0.0
 45
-0.0707106781186548
 46
0.0707106781186548
 79
     0
 98
        1
 10
0.0
 20
0.0
  0
HATCH
  5
3D8
330
71
100
AcDbEntity
  8
1
  6
Continuous
 62
     2
100
AcDbHatch
 10
0.0
 20
0.0
 30
0.0
210
0.0
220
0.0
230
1.0
  2
_USER
 70
     0
 71
     1
 91
        1
 92
        1
 93
       14
 72
     2
 10
-37.64336147473097
 20
10.37093158856342
 40
1.639695123940506
 50
84.8418552303621
 51
164.9381082228861
 73
     1
 72
     2
 10
-38.06248931819377
 20
10.48372195059832
 40
1.205656168390946
 50
164.9381082228761
 51
195.0618917770945
 73
     1
 72
     2
 10
-37.64336147473097
 20
10.59651231263314
 40
1.63969512393938
 50
195.0618917770896
 51
275.1581447696398
 73
     1
 72
     2
 10
-37.93221756946687
 20
13.79640289585473
 40
4.852596863498142
 50
275.1581447696249
 51
285.9799912583529
 73
     1
 72
     1
 10
-36.59628965234907
 20
9.131320590053917
 11
-36.59628965234907
 21
10.00383759685712
 72
     2
 10
-37.77434469437395
 20
11.89418831600702
 40
2.227384008972739
 50
58.0690910500408
 51
71.55192388186722
 73
     0
 72
     2
 10
-37.35617696071316
 20
10.64064253996983
 40
0.9059297849849176
 50
71.55192388184147
 51
113.372277888129
 73
     0
 72
     2
 10
-37.51261699341518
 20
10.27865052125983
 40
0.5115800601948042
 50
113.3722778881728
 51
151.4785267423043
 73
     0
 72
     2
 10
-37.13525973533487
 20
10.48372195059832
 40
0.9410597353332545
 50
151.4785267422942
 51
208.5214732577331
 73
     0
 72
     2
 10
-37.51261699341518
 20
10.68879337993732
 40
0.5115800601948796
 50
208.5214732576956
 51
246.6277221118009
 73
     0
 72
     2
 10
-37.35617696071316
 20
10.32680136122673
 40
0.9059297849853228
 50
246.6277221118709
 51
288.4480761181465
 73
     0
 72
     2
 10
-37.77434469437395
 20
9.07325558519014
 40
2.227384008973474
 50
288.4480761181328
 51
301.9309089499593
 73
     0
 72
     1
 10
-36.59628965234907
 20
10.96360630434003
 11
-36.59628965234907
 21
11.83612331114333
 72
     2
 10
-37.93221756946687
 20
7.171041005342431
 40
4.852596863498073
 50
74.02000874164739
 51
84.84185523037506
 73
     1
 97
       14
330
38B
330
38C
330
38D
330
38E
330
353
330
364
330
363
330
362
330
38F
330
390
330
361
330
391
330
354
330
360
 75
     1
 76
     0
 52
45.0
 41
0.1
 77
     0
 78
     1
 53
45.0
 43
0.0
 44
0.0
 45
-0.0707106781186548
 46
0.0707106781186548
 79
     0
 98
        1
 10
0.0
 20
0.0
  0
HATCH
  5
3D9
330
71
100
AcDbEntity
  8
1
  6
Continuous
 62
     2
100
AcDbHatch
 10
0.0
 20
0.0
 30
0.0
210
0.0
220
0.0
230
1.0
  2
_USER
 70
     0
 71
     1
 91
        1
 92
        1
 93
       14
 72
     2
 10
-37.64336147473097
 20
10.37093158856342
 40
1.639695123940506
 50
84.8418552303621
 51
164.9381082228861
 73
     1
 72
     2
 10
-38.06248931819377
 20
10.48372195059832
 40
1.205656168390946
 50
164.9381082228761
 51
195.0618917770945
 73
     1
 72
     2
 10
-37.64336147473097
 20
10.59651231263314
 40
1.63969512393938
 50
195.0618917770896
 51
275.1581447696398
 73
     1
 72
     2
 10
-37.93221756946687
 20
13.79640289585473
 40
4.852596863498142
 50
275.1581447696249
 51
285.9799912583529
 73
     1
 72
     1
 10
-36.59628965234907
 20
9.131320590053917
 11
-36.59628965234907
 21
10.00383759685712
 72
     2
 10
-37.77434469437395
 20
11.89418831600702
 40
2.227384008972739
 50
58.0690910500408
 51
71.55192388186722
 73
     0
 72
     2
 10
-37.35617696071316
 20
10.64064253996983
 40
0.9059297849849176
 50
71.55192388184147
 51
113.372277888129
 73
     0
 72
     2
 10
-37.51261699341518
 20
10.27865052125983
 40
0.5115800601948042
 50
113.3722778881728
 51
151.4785267423043
 73
     0
 72
     2
 10
-37.13525973533487
 20
10.48372195059832
 40
0.9410597353332545
 50
151.4785267422942
 51
208.5214732577331
 73
     0
 72
     2
 10
-37.51261699341518
 20
10.68879337993732
 40
0.5115800601948796
 50
208.5214732576956
 51
246.6277221118009
 73
     0
 72
     2
 10
-37.35617696071316
 20
10.32680136122673
 40
0.9059297849853228
 50
246.6277221118709
 51
288.4480761181465
 73
     0
 72
     2
 10
-37.77434469437395
 20
9.07325558519014
 40
2.227384008973474
 50
288.4480761181328
 51
301.9309089499593
 73
     0
 72
     1
 10
-36.59628965234907
 20
10.96360630434003
 11
-36.59628965234907
 21
11.83612331114333
 72
     2
 10
-37.93221756946687
 20
7.171041005342431
 40
4.852596863498073
 50
74.02000874164739
 51
84.84185523037506
 73
     1
 97
       14
330
38B
330
38C
330
38D
330
38E
330
353
330
364
330
363
330
362
330
38F
330
390
330
361
330
391
330
354
330
360
 75
     1
 76
     0
 52
45.0
 41
0.1
 77
     0
 78
     1
 53
45.0
 43
0.0
 44
0.0
 45
-0.0707106781186548
 46
0.0707106781186548
 79
     0
 98
        1
 10
0.0
 20
0.0
  0
ENDBLK
  5
73
330
71
100
AcDbEntity
  8
0
100
AcDbBlockEnd
  0
BLOCK
  5
75
330
74
100
AcDbEntity
  8
0
100
AcDbBlockBegin
  2
_punkt
 70
     0
 10
79.24108593263354
 20
1.66331718867673
 30
0.0
  3
_punkt
  1

  0
LINE
  5
3DA
330
74
100
AcDbEntity
  8
1
  6
Continuous
 62
     2
100
AcDbLine
 10
79.24108593263354
 20
1.66331718867673
 30
0.0
 11
84.24108593263253
 21
1.66331718867673
 31
0.0
  0
LINE
  5
3DB
330
74
100
AcDbEntity
  8
1
  6
Continuous
 62
     2
100
AcDbLine
 10
79.24108593263354
 20
1.66331718867673
 30
0.0
 11
79.24108593263354
 21
-3.33668281132339
 31
0.0
  0
ENDBLK
  5
76
330
74
100
AcDbEntity
  8
0
100
AcDbBlockEnd
  0
BLOCK
  5
7A
330
77
100
AcDbEntity
  8
0
100
AcDbBlockBegin
  2
A4I_CS
 70
     0
 10
79.24108593263354
 20
-3.33668281132339
 30
0.0
  3
A4I_CS
  1

  0
INSERT
  5
78
330
77
100
AcDbEntity
  8
1
100
AcDbBlockReference
  2
_rahmen
 10
79.24108593263354
 20
-3.33668281132339
 30
0.0
  0
INSERT
  5
79
330
77
100
AcDbEntity
  8
1
100
AcDbBlockReference
  2
_punkt
 10
79.24108593263354
 20
1.66331718867673
 30
0.0
  0
ENDBLK
  5
7B
330
77
100
AcDbEntity
  8
0
100
AcDbBlockEnd
  0
BLOCK
  5
84
330
7C
100
AcDbEntity
  8
0
100
AcDbBlockBegin
  2
1
 70
     0
 10
0.0
 20
0.0
 30
0.0
  3
1
  1

  0
INSERT
  5
7D
330
7C
100
AcDbEntity
  8
0
100
AcDbBlockReference
  2
AllgSicht1
 10
-7.99999999829003
 20
78.0624999991569
 30
0.0
  0
INSERT
  5
7E
330
7C
100
AcDbEntity
  8
0
100
AcDbBlockReference
  2
Drfsicht1
 10
-100.5875000631124
 20
83.06249999155415
 30
0.0
  0
INSERT
  5
7F
330
7C
100
AcDbEntity
  8
0
100
AcDbBlockReference
  2
Rckans1
 10
17.58750013396486
 20
142.999999999552
 30
0.0
  0
INSERT
  5
80
330
7C
100
AcDbEntity
  8
0
100
AcDbBlockReference
  2
SA_Links1
 10
-42.93915119758546
 20
142.9999999991042
 30
0.0
  0
INSERT
  5
81
330
7C
100
AcDbEntity
  8
0
100
AcDbBlockReference
  2
SA_Rechts1
 10
-150.175000197077
 20
142.9999999995521
 30
0.0
  0
INSERT
  5
82
330
7C
100
AcDbEntity
  8
0
100
AcDbBlockReference
  2
Vordans1
 10
-100.587499862165
 20
142.9999999995521
 30
0.0
  0
INSERT
  5
83
330
7C
100
AcDbEntity
  8
0
100
AcDbBlockReference
  2
A4I_CS
 10
79.24108593263354
 20
-3.33668281132339
 30
0.0
  0
ENDBLK
  5
85
330
7C
100
AcDbEntity
  8
0
100
AcDbBlockEnd
  0
BLOCK
  5
180
330
176
100
AcDbEntity
  8
0
100
AcDbBlockBegin
  2
*D17
 70
     1
 10
0.0
 20
0.0
 30
0.0
  3
*D17
  1

  0
LINE
  5
177
330
176
100
AcDbEntity
  8
1
  6
Continuous
 62
     2
100
AcDbLine
 10
-52.8053046385121
 20
83.4249999428113
 30
0.0
 11
-52.8053046385121
 21
97.53724919540997
 31
0.0
  0
LINE
  5
178
330
176
100
AcDbEntity
  8
1
  6
Continuous
 62
     2
100
AcDbLine
 10
-52.8053046385121
 20
78.97499993982825
 30
0.0
 11
-52.8053046385121
 21
83.4249999428113
 31
0.0
  0
LINE
  5
179
330
176
100
AcDbEntity
  8
1
  6
Continuous
 62
     2
100
AcDbLine
 10
-52.8053046385121
 20
71.97499993982825
 30
0.0
 11
-52.8053046385121
 21
78.97499993982825
 31
0.0
  0
LINE
  5
17A
330
176
100
AcDbEntity
  8
1
  6
Continuous
 62
     2
100
AcDbLine
 10
-64.22776061304822
 20
83.4249999428113
 30
0.0
 11
-51.3053046385121
 21
83.4249999428113
 31
0.0
  0
LINE
  5
17B
330
176
100
AcDbEntity
  8
1
  6
Continuous
 62
     2
100
AcDbLine
 10
-73.81396023427496
 20
78.97499993982825
 30
0.0
 11
-51.3053046385121
 21
78.97499993982825
 31
0.0
  0
SOLID
  5
17C
330
176
100
AcDbEntity
  8
1
 62
     2
100
AcDbTrace
 10
-52.34452089695622
 20
75.47499993982825
 30
0.0
 11
-53.26608838006799
 21
75.47499993982825
 31
0.0
 12
-52.8053046385121
 22
78.97499993982825
 32
0.0
 13
-52.8053046385121
 23
78.97499993982825
 33
0.0
  0
SOLID
  5
17D
330
176
100
AcDbEntity
  8
1
 62
     2
100
AcDbTrace
 10
-53.26608838006799
 20
86.9249999428113
 30
0.0
 11
-52.34452089695622
 21
86.9249999428113
 31
0.0
 12
-52.8053046385121
 22
83.4249999428113
 32
0.0
 13
-52.8053046385121
 23
83.4249999428113
 33
0.0
  0
MTEXT
  5
17F
330
176
100
AcDbEntity
  8
1
 62
     3
100
AcDbMText
 10
-54.6553046385121
 20
87.91224919540997
 30
0.0
 40
3.5
 41
0.0
 71
     7
 72
     1
  1
4,45
  7
CONVERTER_11
 11
0.0
 21
1.0
 31
0.0
 73
     1
 44
0.60024009603842
  0
ENDBLK
  5
181
330
176
100
AcDbEntity
  8
0
100
AcDbBlockEnd
  0
BLOCK
  5
18D
330
184
100
AcDbEntity
  8
0
100
AcDbBlockBegin
  2
*D18
 70
     1
 10
0.0
 20
0.0
 30
0.0
  3
*D18
  1

  0
LINE
  5
185
330
184
100
AcDbEntity
  8
1
  6
Continuous
 62
     2
100
AcDbLine
 10
-118.7452380340943
 20
83.42499994552469
 30
0.0
 11
-118.7452380340943
 21
95.43670893971397
 31
0.0
  0
LINE
  5
186
330
184
100
AcDbEntity
  8
1
  6
Continuous
 62
     2
100
AcDbLine
 10
-118.7452380340943
 20
82.62499994500291
 30
0.0
 11
-118.7452380340943
 21
83.42499994552469
 31
0.0
  0
LINE
  5
187
330
184
100
AcDbEntity
  8
1
  6
Continuous
 62
     2
100
AcDbLine
 10
-118.7452380340943
 20
75.62499994500291
 30
0.0
 11
-118.7452380340943
 21
82.62499994500291
 31
0.0
  0
LINE
  5
188
330
184
100
AcDbEntity
  8
1
  6
Continuous
 62
     2
100
AcDbLine
 10
-90.24255312904997
 20
83.42499994552469
 30
0.0
 11
-120.2452380340943
 21
83.42499994552469
 31
0.0
  0
LINE
  5
189
330
184
100
AcDbEntity
  8
1
  6
Continuous
 62
     2
100
AcDbLine
 10
-105.1864994122107
 20
82.62499994500291
 30
0.0
 11
-120.2452380340943
 21
82.62499994500291
 31
0.0
  0
SOLID
  5
18A
330
184
100
AcDbEntity
  8
1
 62
     2
100
AcDbTrace
 10
-118.2844542925384
 20
79.12499994500291
 30
0.0
 11
-119.2060217756502
 21
79.12499994500291
 31
0.0
 12
-118.7452380340943
 22
82.62499994500291
 32
0.0
 13
-118.7452380340943
 23
82.62499994500291
 33
0.0
  0
SOLID
  5
18B
330
184
100
AcDbEntity
  8
1
 62
     2
100
AcDbTrace
 10
-119.2060217756502
 20
86.92499994552469
 30
0.0
 11
-118.2844542925384
 21
86.92499994552469
 31
0.0
 12
-118.7452380340943
 22
83.42499994552469
 32
0.0
 13
-118.7452380340943
 23
83.42499994552469
 33
0.0
  0
MTEXT
  5
18C
330
184
100
AcDbEntity
  8
1
 62
     3
100
AcDbMText
 10
-120.5952380340943
 20
88.96170893971397
 30
0.0
 40
3.5
 41
0.0
 71
     7
 72
     1
  1
0,8
  7
CONVERTER_11
 11
0.0
 21
1.0
 31
0.0
 73
     1
 44
0.60024009603842
  0
ENDBLK
  5
18E
330
184
100
AcDbEntity
  8
0
100
AcDbBlockEnd
  0
BLOCK
  5
273
330
26C
100
AcDbEntity
  8
0
100
AcDbBlockBegin
  2
*D19
 70
     1
 10
0.0
 20
0.0
 30
0.0
  3
*D19
  1

  0
LINE
  5
26D
330
26C
100
AcDbEntity
  8
1
  6
Continuous
 62
     2
100
AcDbLine
 10
-126.7452380340943
 20
125.9500003015972
 30
0.0
 11
-126.7452380340943
 21
155.8500003014082
 31
0.0
  0
LINE
  5
26E
330
26C
100
AcDbEntity
  8
1
  6
Continuous
 62
     2
100
AcDbLine
 10
-108.7452380340943
 20
155.8500003014082
 30
0.0
 11
-128.2452380340943
 21
155.8500003014082
 31
0.0
  0
LINE
  5
26F
330
26C
100
AcDbEntity
  8
1
  6
Continuous
 62
     2
100
AcDbLine
 10
-103.6864992231048
 20
125.9500003015972
 30
0.0
 11
-128.2452380340943
 21
125.9500003015972
 31
0.0
  0
SOLID
  5
270
330
26C
100
AcDbEntity
  8
1
 62
     2
100
AcDbTrace
 10
-127.2060217756502
 20
129.4500003015972
 30
0.0
 11
-126.2844542925384
 21
129.4500003015972
 31
0.0
 12
-126.7452380340943
 22
125.9500003015972
 32
0.0
 13
-126.7452380340943
 23
125.9500003015972
 33
0.0
  0
SOLID
  5
271
330
26C
100
AcDbEntity
  8
1
 62
     2
100
AcDbTrace
 10
-126.2844542925384
 20
152.3500003014082
 30
0.0
 11
-127.2060217756502
 21
152.3500003014082
 31
0.0
 12
-126.7452380340943
 22
155.8500003014082
 32
0.0
 13
-126.7452380340943
 23
155.8500003014082
 33
0.0
  0
MTEXT
  5
272
330
26C
100
AcDbEntity
  8
1
 62
     3
100
AcDbMText
 10
-128.5952380340943
 20
136.044284296162
 30
0.0
 40
3.5
 41
0.0
 71
     7
 72
     1
  1
29,9
  7
CONVERTER_11
 11
0.0
 21
1.0
 31
0.0
 73
     1
 44
0.60024009603842
  0
ENDBLK
  5
274
330
26C
100
AcDbEntity
  8
0
100
AcDbBlockEnd
  0
BLOCK
  5
27E
330
277
100
AcDbEntity
  8
0
100
AcDbBlockBegin
  2
*D20
 70
     1
 10
0.0
 20
0.0
 30
0.0
  3
*D20
  1

  0
LINE
  5
278
330
277
100
AcDbEntity
  8
1
  6
Continuous
 62
     2
100
AcDbLine
 10
-109.9864992229967
 20
110.06404629222
 30
0.0
 11
-62.98649922293136
 21
110.06404629222
 31
0.0
  0
LINE
  5
279
330
277
100
AcDbEntity
  8
1
  6
Continuous
 62
     2
100
AcDbLine
 10
-62.98649922293136
 20
138.2000003229676
 30
0.0
 11
-62.98649922293136
 21
108.56404629222
 31
0.0
  0
LINE
  5
27A
330
277
100
AcDbEntity
  8
1
  6
Continuous
 62
     2
100
AcDbLine
 10
-109.9864992229967
 20
138.2000003231846
 30
0.0
 11
-109.9864992229967
 21
108.56404629222
 31
0.0
  0
SOLID
  5
27B
330
277
100
AcDbEntity
  8
1
 62
     2
100
AcDbTrace
 10
-106.4864992229967
 20
110.5248300337759
 30
0.0
 11
-106.4864992229967
 21
109.6032625506641
 31
0.0
 12
-109.9864992229967
 22
110.06404629222
 32
0.0
 13
-109.9864992229967
 23
110.06404629222
 33
0.0
  0
SOLID
  5
27C
330
277
100
AcDbEntity
  8
1
 62
     2
100
AcDbTrace
 10
-66.48649922293136
 20
109.6032625506641
 30
0.0
 11
-66.48649922293136
 21
110.5248300337759
 31
0.0
 12
-62.98649922293136
 22
110.06404629222
 32
0.0
 13
-62.98649922293136
 23
110.06404629222
 33
0.0
  0
MTEXT
  5
27D
330
277
100
AcDbEntity
  8
1
 62
     3
100
AcDbMText
 10
-89.20136296321948
 20
111.56404629222
 30
0.0
 40
3.5
 41
0.0
 71
     7
 72
     1
  1
47
  7
CONVERTER_11
 11
0.9999999999970619
 21
2.424068405545306E-6
 31
0.0
 73
     1
 44
0.60024009603842
  0
ENDBLK
  5
27F
330
277
100
AcDbEntity
  8
0
100
AcDbBlockEnd
  0
BLOCK
  5
289
330
282
100
AcDbEntity
  8
0
100
AcDbBlockBegin
  2
*D21
 70
     1
 10
0.0
 20
0.0
 30
0.0
  3
*D21
  1

  0
LINE
  5
283
330
282
100
AcDbEntity
  8
1
  6
Continuous
 62
     2
100
AcDbLine
 10
-83.98649922292212
 20
118.06404629222
 30
0.0
 11
-62.98649922293136
 21
118.06404629222
 31
0.0
  0
LINE
  5
284
330
282
100
AcDbEntity
  8
1
  6
Continuous
 62
     2
100
AcDbLine
 10
-62.98649922293136
 20
138.2000003229676
 30
0.0
 11
-62.98649922293136
 21
116.56404629222
 31
0.0
  0
LINE
  5
285
330
282
100
AcDbEntity
  8
1
  6
Continuous
 62
     2
100
AcDbLine
 10
-83.98649922292212
 20
131.5015442646928
 30
0.0
 11
-83.98649922292212
 21
116.56404629222
 31
0.0
  0
SOLID
  5
286
330
282
100
AcDbEntity
  8
1
 62
     2
100
AcDbTrace
 10
-80.48649922292212
 20
118.5248300337759
 30
0.0
 11
-80.48649922292212
 21
117.6032625506641
 31
0.0
 12
-83.98649922292212
 22
118.06404629222
 32
0.0
 13
-83.98649922292212
 23
118.06404629222
 33
0.0
  0
SOLID
  5
287
330
282
100
AcDbEntity
  8
1
 62
     2
100
AcDbTrace
 10
-66.48649922293136
 20
117.6032625506641
 30
0.0
 11
-66.48649922293136
 21
118.5248300337759
 31
0.0
 12
-62.98649922293136
 22
118.06404629222
 32
0.0
 13
-62.98649922293136
 23
118.06404629222
 33
0.0
  0
MTEXT
  5
288
330
282
100
AcDbEntity
  8
1
 62
     3
100
AcDbMText
 10
-75.5875287102262
 20
119.56404629222
 30
0.0
 40
3.5
 41
0.0
 71
     7
 72
     1
  1
21
  7
CONVERTER_11
 11
0.9999999999970619
 21
2.424068405545306E-6
 31
0.0
 73
     1
 44
0.60024009603842
  0
ENDBLK
  5
28A
330
282
100
AcDbEntity
  8
0
100
AcDbBlockEnd
  0
BLOCK
  5
294
330
28D
100
AcDbEntity
  8
0
100
AcDbBlockBegin
  2
*D22
 70
     1
 10
0.0
 20
0.0
 30
0.0
  3
*D22
  1

  0
LINE
  5
28E
330
28D
100
AcDbEntity
  8
1
  6
Continuous
 62
     2
100
AcDbLine
 10
-109.9864992229967
 20
118.06404629222
 30
0.0
 11
-88.98649922292947
 21
118.06404629222
 31
0.0
  0
LINE
  5
28F
330
28D
100
AcDbEntity
  8
1
  6
Continuous
 62
     2
100
AcDbLine
 10
-88.98649922292947
 20
131.5015442648002
 30
0.0
 11
-88.98649922292947
 21
116.56404629222
 31
0.0
  0
LINE
  5
290
330
28D
100
AcDbEntity
  8
1
  6
Continuous
 62
     2
100
AcDbLine
 10
-109.9864992229967
 20
138.2000003231846
 30
0.0
 11
-109.9864992229967
 21
116.56404629222
 31
0.0
  0
SOLID
  5
291
330
28D
100
AcDbEntity
  8
1
 62
     2
100
AcDbTrace
 10
-106.4864992229967
 20
118.5248300337759
 30
0.0
 11
-106.4864992229967
 21
117.6032625506641
 31
0.0
 12
-109.9864992229967
 22
118.06404629222
 32
0.0
 13
-109.9864992229967
 23
118.06404629222
 33
0.0
  0
SOLID
  5
292
330
28D
100
AcDbEntity
  8
1
 62
     2
100
AcDbTrace
 10
-92.48649922292947
 20
117.6032625506641
 30
0.0
 11
-92.48649922292947
 21
118.5248300337759
 31
0.0
 12
-88.98649922292947
 22
118.06404629222
 32
0.0
 13
-88.98649922292947
 23
118.06404629222
 33
0.0
  0
MTEXT
  5
293
330
28D
100
AcDbEntity
  8
1
 62
     3
100
AcDbMText
 10
-101.839226449895
 20
119.56404629222
 30
0.0
 40
3.5
 41
0.0
 71
     7
 72
     1
  1
21
  7
CONVERTER_11
 11
0.9999999999970619
 21
2.424068405545306E-6
 31
0.0
 73
     1
 44
0.60024009603842
  0
ENDBLK
  5
295
330
28D
100
AcDbEntity
  8
0
100
AcDbBlockEnd
  0
BLOCK
  5
29F
330
298
100
AcDbEntity
  8
0
100
AcDbBlockBegin
  2
*D23
 70
     1
 10
0.0
 20
0.0
 30
0.0
  3
*D23
  1

  0
LINE
  5
299
330
298
100
AcDbEntity
  8
1
  6
Continuous
 62
     2
100
AcDbLine
 10
-118.7452380340943
 20
130.1500003014087
 30
0.0
 11
-118.7452380340943
 21
155.8500003014083
 31
0.0
  0
LINE
  5
29A
330
298
100
AcDbEntity
  8
1
  6
Continuous
 62
     2
100
AcDbLine
 10
-108.7452380340943
 20
155.8500003014083
 30
0.0
 11
-120.2452380340943
 21
155.8500003014083
 31
0.0
  0
LINE
  5
29B
330
298
100
AcDbEntity
  8
1
  6
Continuous
 62
     2
100
AcDbLine
 10
-107.0685494469389
 20
130.1500003014087
 30
0.0
 11
-120.2452380340943
 21
130.1500003014087
 31
0.0
  0
SOLID
  5
29C
330
298
100
AcDbEntity
  8
1
 62
     2
100
AcDbTrace
 10
-119.2060217756502
 20
133.6500003014087
 30
0.0
 11
-118.2844542925384
 21
133.6500003014087
 31
0.0
 12
-118.7452380340943
 22
130.1500003014087
 32
0.0
 13
-118.7452380340943
 23
130.1500003014087
 33
0.0
  0
SOLID
  5
29D
330
298
100
AcDbEntity
  8
1
 62
     2
100
AcDbTrace
 10
-118.2844542925384
 20
152.3500003014083
 30
0.0
 11
-119.2060217756502
 21
152.3500003014083
 31
0.0
 12
-118.7452380340943
 22
155.8500003014083
 32
0.0
 13
-118.7452380340943
 23
155.8500003014083
 33
0.0
  0
MTEXT
  5
29E
330
298
100
AcDbEntity
  8
1
 62
     3
100
AcDbMText
 10
-120.5952380340943
 20
138.314799877121
 30
0.0
 40
3.5
 41
0.0
 71
     7
 72
     1
  1
25,7
  7
CONVERTER_11
 11
0.0
 21
1.0
 31
0.0
 73
     1
 44
0.60024009603842
  0
ENDBLK
  5
2A0
330
298
100
AcDbEntity
  8
0
100
AcDbBlockEnd
  0
ENDSEC
  0
SECTION
  2
ENTITIES
  0
INSERT
  5
86
330
1F
100
AcDbEntity
  8
1
100
AcDbBlockReference
  2
1
 10
0.0
 20
0.0
 30
0.0
  0
ENDSEC
  0
SECTION
  2
OBJECTS
  0
DICTIONARY
  5
C
330
0
100
AcDbDictionary
281
     1
  3
ACAD_GROUP
350
D
  3
ACAD_LAYOUT
350
1A
  3
ACAD_MATERIAL
350
3B
  3
ACAD_MLEADERSTYLE
350
403
  3
ACAD_MLINESTYLE
350
17
  3
ACAD_PLOTSETTINGS
350
19
  3
ACAD_PLOTSTYLENAME
350
E
  3
ACAD_TABLESTYLE
350
402
  3
ACAD_VISUALSTYLE
350
2A
  0
DICTIONARY
  5
D
102
{ACAD_REACTORS
330
C
102
}
330
C
100
AcDbDictionary
281
     1
  0
DICTIONARY
  5
1A
102
{ACAD_REACTORS
330
C
102
}
330
C
100
AcDbDictionary
281
     1
  3
Layout1
350
1E
  3
Layout2
350
26
  3
Model
350
22
  0
DICTIONARY
  5
3B
102
{ACAD_REACTORS
330
C
102
}
330
C
100
AcDbDictionary
281
     1
  3
ByBlock
350
3D
  3
ByLayer
350
3C
  3
Global
350
3E
  0
DICTIONARY
  5
403
102
{ACAD_REACTORS
330
C
102
}
330
C
100
AcDbDictionary
281
     1
  0
DICTIONARY
  5
17
102
{ACAD_REACTORS
330
C
102
}
330
C
100
AcDbDictionary
281
     1
  3
Standard
350
18
  0
DICTIONARY
  5
19
102
{ACAD_REACTORS
330
C
102
}
330
C
100
AcDbDictionary
281
     1
  0
ACDBDICTIONARYWDFLT
  5
E
102
{ACAD_REACTORS
330
C
102
}
330
C
100
AcDbDictionary
281
     1
  3
Normal
350
F
100
AcDbDictionaryWithDefault
340
F
  0
DICTIONARY
  5
402
102
{ACAD_REACTORS
330
C
102
}
330
C
100
AcDbDictionary
281
     1
  0
DICTIONARY
  5
2A
102
{ACAD_REACTORS
330
C
102
}
330
C
100
AcDbDictionary
281
     1
  3
2dWireframe
350
2F
  3
3D Hidden
350
31
  3
3dWireframe
350
30
  3
Basic
350
32
  3
Brighten
350
36
  3
ColorChange
350
3A
  3
Conceptual
350
34
  3
Dim
350
35
  3
Facepattern
350
39
  3
Flat
350
2B
  3
FlatWithEdges
350
2C
  3
Gouraud
350
2D
  3
GouraudWithEdges
350
2E
  3
Linepattern
350
38
  3
Realistic
350
33
  3
Thicken
350
37
  0
LAYOUT
  5
1E
102
{ACAD_REACTORS
330
1A
102
}
330
1A
100
AcDbPlotSettings
  1

  2
none_device
  4

  6

 40
0.0
 41
0.0
 42
0.0
 43
0.0
 44
0.0
 45
0.0
 46
0.0
 47
0.0
 48
0.0
 49
0.0
140
0.0
141
0.0
142
1.0
143
1.0
 70
   688
 72
     0
 73
     0
 74
     5
  7

 75
    16
 76
     0
 77
     2
 78
   300
147
1.0
148
0.0
149
0.0
100
AcDbLayout
  1
Layout1
 70
     1
 71
     1
 10
0.0
 20
0.0
 11
12.0
 21
9.0
 12
0.0
 22
0.0
 32
0.0
 14
1.00000000000000E+20
 24
1.00000000000000E+20
 34
1.00000000000000E+20
 15
-1.00000000000000E+20
 25
-1.00000000000000E+20
 35
-1.00000000000000E+20
146
0.0
 13
0.0
 23
0.0
 33
0.0
 16
1.0
 26
0.0
 36
0.0
 17
0.0
 27
1.0
 37
0.0
 76
     0
330
1B
  0
LAYOUT
  5
26
102
{ACAD_REACTORS
330
1A
102
}
330
1A
100
AcDbPlotSettings
  1

  2
none_device
  4

  6

 40
0.0
 41
0.0
 42
0.0
 43
0.0
 44
0.0
 45
0.0
 46
0.0
 47
0.0
 48
0.0
 49
0.0
140
0.0
141
0.0
142
1.0
143
1.0
 70
   688
 72
     0
 73
     0
 74
     5
  7

 75
    16
 76
     0
 77
     2
 78
   300
147
1.0
148
0.0
149
0.0
100
AcDbLayout
  1
Layout2
 70
     1
 71
     2
 10
0.0
 20
0.0
 11
0.0
 21
0.0
 12
0.0
 22
0.0
 32
0.0
 14
0.0
 24
0.0
 34
0.0
 15
0.0
 25
0.0
 35
0.0
146
0.0
 13
0.0
 23
0.0
 33
0.0
 16
1.0
 26
0.0
 36
0.0
 17
0.0
 27
1.0
 37
0.0
 76
     0
330
23
  0
LAYOUT
  5
22
102
{ACAD_REACTORS
330
1A
102
}
330
1A
100
AcDbPlotSettings
  1

  2
none_device
  4

  6

 40
0.0
 41
0.0
 42
0.0
 43
0.0
 44
0.0
 45
0.0
 46
0.0
 47
0.0
 48
0.0
 49
0.0
140
0.0
141
0.0
142
1.0
143
1.0
 70
  1712
 72
     0
 73
     0
 74
     0
  7

 75
     0
 76
     0
 77
     2
 78
   300
147
1.0
148
0.0
149
0.0
100
AcDbLayout
  1
Model
 70
     1
 71
     0
 10
0.0
 20
0.0
 11
12.0
 21
9.0
 12
0.0
 22
0.0
 32
0.0
 14
-212.7589140673655
 24
-3.33668281132339
 34
0.0
 15
84.24108593263253
 25
206.6633171886767
 35
0.0
146
0.0
 13
0.0
 23
0.0
 33
0.0
 16
1.0
 26
0.0
 36
0.0
 17
0.0
 27
1.0
 37
0.0
 76
     0
330
1F
331
29
  0
MATERIAL
  5
3D
102
{ACAD_REACTORS
330
3B
102
}
102
{ACAD_XDICTIONARY
360
3FE
102
}
330
3B
100
AcDbMaterial
  1
ByBlock
  0
MATERIAL
  5
3C
102
{ACAD_REACTORS
330
3B
102
}
102
{ACAD_XDICTIONARY
360
3FC
102
}
330
3B
100
AcDbMaterial
  1
ByLayer
  0
MATERIAL
  5
3E
102
{ACAD_REACTORS
330
3B
102
}
102
{ACAD_XDICTIONARY
360
400
102
}
330
3B
100
AcDbMaterial
  1
Global
  0
MLINESTYLE
  5
18
102
{ACAD_REACTORS
330
17
102
}
330
17
100
AcDbMlineStyle
  2
Standard
 70
     0
  3

 62
   256
 51
90.0
 52
90.0
 71
     2
 49
0.5
 62
   256
  6
BYLAYER
 49
-0.5
 62
   256
  6
BYLAYER
  0
ACDBPLACEHOLDER
  5
F
102
{ACAD_REACTORS
330
E
102
}
330
E
  0
VISUALSTYLE
  5
2F
102
{ACAD_REACTORS
330
2A
102
}
102
{ACAD_XDICTIONARY
360
3E4
102
}
330
2A
100
AcDbVisualStyle
  2
2dWireframe
 70
     4
 71
     0
 72
     2
 73
     0
 90
        0
 40
-0.6
 41
-30.0
 62
     5
 63
     7
421
 16777215
 74
     1
 91
        4
 64
     7
 65
   257
 75
     1
175
     1
 42
1.0
 92
        0
 66
   257
 43
1.0
 76
     1
 77
     6
 78
     2
 67
     7
 79
     5
170
     0
171
     0
290
     0
174
     0
 93
        1
 44
0.0
173
     0
291
     0
 45
0.0
1001
ACAD
1000
AcDbSavedByObjectVersion
1070
     0
  0
VISUALSTYLE
  5
31
102
{ACAD_REACTORS
330
2A
102
}
102
{ACAD_XDICTIONARY
360
3E8
102
}
330
2A
100
AcDbVisualStyle
  2
3D Hidden
 70
     6
 71
     1
 72
     2
 73
     2
 90
        0
 40
-0.6
 41
-30.0
 62
     5
 63
     7
421
 16777215
 74
     2
 91
        2
 64
     7
 65
   257
 75
     2
175
     1
 42
40.0
 92
        0
 66
   257
 43
1.0
 76
     1
 77
     6
 78
     2
 67
     7
 79
     3
170
     0
171
     0
290
     0
174
     0
 93
        1
 44
0.0
173
     0
291
     0
 45
0.0
1001
ACAD
1000
AcDbSavedByObjectVersion
1070
     0
  0
VISUALSTYLE
  5
30
102
{ACAD_REACTORS
330
2A
102
}
102
{ACAD_XDICTIONARY
360
3E6
102
}
330
2A
100
AcDbVisualStyle
  2
3dWireframe
 70
     5
 71
     0
 72
     2
 73
     0
 90
        0
 40
-0.6
 41
-30.0
 62
     5
 63
     7
421
 16777215
 74
     1
 91
        4
 64
     7
 65
   257
 75
     1
175
     1
 42
1.0
 92
        0
 66
   257
 43
1.0
 76
     1
 77
     6
 78
     2
 67
     7
 79
     5
170
     0
171
     0
290
     0
174
     0
 93
        1
 44
0.0
173
     0
291
     0
 45
0.0
1001
ACAD
1000
AcDbSavedByObjectVersion
1070
     0
  0
VISUALSTYLE
  5
32
102
{ACAD_REACTORS
330
2A
102
}
102
{ACAD_XDICTIONARY
360
3EA
102
}
330
2A
100
AcDbVisualStyle
  2
Basic
 70
     7
 71
     1
 72
     0
 73
     1
 90
        0
 40
-0.6
 41
-30.0
 62
     5
 63
     7
421
 16777215
 74
     0
 91
        4
 64
     7
 65
   257
 75
     1
175
     1
 42
1.0
 92
        8
 66
     7
 43
1.0
 76
     1
 77
     6
 78
     2
 67
     7
 79
     5
170
     0
171
     0
290
     0
174
     0
 93
        1
 44
0.0
173
     0
291
     1
 45
0.0
1001
ACAD
1000
AcDbSavedByObjectVersion
1070
     0
  0
VISUALSTYLE
  5
36
102
{ACAD_REACTORS
330
2A
102
}
102
{ACAD_XDICTIONARY
360
3F2
102
}
330
2A
100
AcDbVisualStyle
  2
Brighten
 70
    12
 71
     2
 72
     2
 73
     0
 90
        0
 40
-0.6
 41
-30.0
 62
     5
 63
     7
421
 16777215
 74
     1
 91
        4
 64
     7
 65
   257
 75
     1
175
     1
 42
1.0
 92
        8
 66
     7
 43
1.0
 76
     1
 77
     6
 78
     2
 67
     7
 79
     5
170
     0
171
     0
290
     0
174
     0
 93
        1
 44
50.0
173
     0
291
     1
 45
0.0
1001
ACAD
1000
AcDbSavedByObjectVersion
1070
     0
  0
VISUALSTYLE
  5
3A
102
{ACAD_REACTORS
330
2A
102
}
102
{ACAD_XDICTIONARY
360
3FA
102
}
330
2A
100
AcDbVisualStyle
  2
ColorChange
 70
    16
 71
     2
 72
     2
 73
     3
 90
        0
 40
-0.6
 41
-30.0
 62
     5
 63
     8
421
  8421504
 74
     1
 91
        4
 64
     7
 65
   257
 75
     1
175
     1
 42
1.0
 92
        8
 66
     8
424
  8421504
 43
1.0
 76
     1
 77
     6
 78
     2
 67
     7
 79
     5
170
     0
171
     0
290
     0
174
     0
 93
        1
 44
0.0
173
     0
291
     1
 45
0.0
1001
ACAD
1000
AcDbSavedByObjectVersion
1070
     0
  0
VISUALSTYLE
  5
34
102
{ACAD_REACTORS
330
2A
102
}
102
{ACAD_XDICTIONARY
360
3EE
102
}
330
2A
100
AcDbVisualStyle
  2
Conceptual
 70
     9
 71
     3
 72
     2
 73
     0
 90
        0
 40
-0.6
 41
-30.0
 62
     5
 63
     7
421
 16777215
 74
     2
 91
        2
 64
     7
 65
   257
 75
     1
175
     1
 42
40.0
 92
        8
 66
     7
 43
1.0
 76
     1
 77
     6
 78
     2
 67
     7
 79
     3
170
     0
171
     0
290
     0
174
     0
 93
        1
 44
0.0
173
     0
291
     0
 45
0.0
1001
ACAD
1000
AcDbSavedByObjectVersion
1070
     0
  0
VISUALSTYLE
  5
35
102
{ACAD_REACTORS
330
2A
102
}
102
{ACAD_XDICTIONARY
360
3F0
102
}
330
2A
100
AcDbVisualStyle
  2
Dim
 70
    11
 71
     2
 72
     2
 73
     0
 90
        0
 40
-0.6
 41
-30.0
 62
     5
 63
     7
421
 16777215
 74
     1
 91
        4
 64
     7
 65
   257
 75
     1
175
     1
 42
1.0
 92
        8
 66
     7
 43
1.0
 76
     1
 77
     6
 78
     2
 67
     7
 79
     5
170
     0
171
     0
290
     0
174
     0
 93
        1
 44
-50.0
173
     0
291
     1
 45
0.0
1001
ACAD
1000
AcDbSavedByObjectVersion
1070
     0
  0
VISUALSTYLE
  5
39
102
{ACAD_REACTORS
330
2A
102
}
102
{ACAD_XDICTIONARY
360
3F8
102
}
330
2A
100
AcDbVisualStyle
  2
Facepattern
 70
    15
 71
     2
 72
     2
 73
     0
 90
        0
 40
-0.6
 41
-30.0
 62
     5
 63
     7
421
 16777215
 74
     1
 91
        4
 64
     7
 65
   257
 75
     1
175
     1
 42
1.0
 92
        8
 66
     7
 43
1.0
 76
     1
 77
     6
 78
     2
 67
     7
 79
     5
170
     0
171
     0
290
     0
174
     0
 93
        1
 44
0.0
173
     0
291
     1
 45
0.0
1001
ACAD
1000
AcDbSavedByObjectVersion
1070
     0
  0
VISUALSTYLE
  5
2B
102
{ACAD_REACTORS
330
2A
102
}
102
{ACAD_XDICTIONARY
360
3DC
102
}
330
2A
100
AcDbVisualStyle
  2
Flat
 70
     0
 71
     2
 72
     1
 73
     1
 90
        2
 40
-0.6
 41
30.0
 62
     5
 63
     7
421
 16777215
 74
     0
 91
        4
 64
     7
 65
   257
 75
     1
175
     1
 42
1.0
 92
        8
 66
     7
 43
1.0
 76
     1
 77
     6
 78
     2
 67
     7
 79
     5
170
     0
171
     0
290
     0
174
     0
 93
       13
 44
0.0
173
     0
291
     1
 45
0.0
1001
ACAD
1000
AcDbSavedByObjectVersion
1070
     0
  0
VISUALSTYLE
  5
2C
102
{ACAD_REACTORS
330
2A
102
}
102
{ACAD_XDICTIONARY
360
3DE
102
}
330
2A
100
AcDbVisualStyle
  2
FlatWithEdges
 70
     1
 71
     2
 72
     1
 73
     1
 90
        2
 40
-0.6
 41
30.0
 62
     5
 63
     7
421
 16777215
 74
     1
 91
        4
 64
     7
 65
   257
 75
     1
175
     1
 42
1.0
 92
        0
 66
   257
 43
1.0
 76
     1
 77
     6
 78
     2
 67
     7
 79
     5
170
     0
171
     0
290
     0
174
     0
 93
       13
 44
0.0
173
     0
291
     1
 45
0.0
1001
ACAD
1000
AcDbSavedByObjectVersion
1070
     0
  0
VISUALSTYLE
  5
2D
102
{ACAD_REACTORS
330
2A
102
}
102
{ACAD_XDICTIONARY
360
3E0
102
}
330
2A
100
AcDbVisualStyle
  2
Gouraud
 70
     2
 71
     2
 72
     2
 73
     1
 90
        2
 40
-0.6
 41
30.0
 62
     5
 63
     7
421
 16777215
 74
     0
 91
        4
 64
     7
 65
   257
 75
     1
175
     1
 42
1.0
 92
        0
 66
     7
 43
1.0
 76
     1
 77
     6
 78
     2
 67
     7
 79
     5
170
     0
171
     0
290
     0
174
     0
 93
       13
 44
0.0
173
     0
291
     1
 45
0.0
1001
ACAD
1000
AcDbSavedByObjectVersion
1070
     0
  0
VISUALSTYLE
  5
2E
102
{ACAD_REACTORS
330
2A
102
}
102
{ACAD_XDICTIONARY
360
3E2
102
}
330
2A
100
AcDbVisualStyle
  2
GouraudWithEdges
 70
     3
 71
     2
 72
     2
 73
     1
 90
        2
 40
-0.6
 41
30.0
 62
     5
 63
     7
421
 16777215
 74
     1
 91
        4
 64
     7
 65
   257
 75
     1
175
     1
 42
1.0
 92
        0
 66
   257
 43
1.0
 76
     1
 77
     6
 78
     2
 67
     7
 79
     5
170
     0
171
     0
290
     0
174
     0
 93
       13
 44
0.0
173
     0
291
     1
 45
0.0
1001
ACAD
1000
AcDbSavedByObjectVersion
1070
     0
  0
VISUALSTYLE
  5
38
102
{ACAD_REACTORS
330
2A
102
}
102
{ACAD_XDICTIONARY
360
3F6
102
}
330
2A
100
AcDbVisualStyle
  2
Linepattern
 70
    14
 71
     2
 72
     2
 73
     0
 90
        0
 40
-0.6
 41
-30.0
 62
     5
 63
     7
421
 16777215
 74
     1
 91
        4
 64
     7
 65
   257
 75
     7
175
     7
 42
1.0
 92
        8
 66
     7
 43
1.0
 76
     1
 77
     6
 78
     2
 67
     7
 79
     5
170
     0
171
     0
290
     0
174
     0
 93
        1
 44
0.0
173
     0
291
     1
 45
0.0
1001
ACAD
1000
AcDbSavedByObjectVersion
1070
     0
  0
VISUALSTYLE
  5
33
102
{ACAD_REACTORS
330
2A
102
}
102
{ACAD_XDICTIONARY
360
3EC
102
}
330
2A
100
AcDbVisualStyle
  2
Realistic
 70
     8
 71
     2
 72
     2
 73
     0
 90
        0
 40
-0.6
 41
-30.0
 62
     5
 63
     7
421
 16777215
 74
     1
 91
        0
 64
     7
 65
   257
 75
     1
175
     1
 42
1.0
 92
        8
 66
     8
424
  7895160
 43
1.0
 76
     1
 77
     6
 78
     2
 67
     7
 79
     5
170
     0
171
     0
290
     0
174
     0
 93
       13
 44
0.0
173
     0
291
     0
 45
0.0
1001
ACAD
1000
AcDbSavedByObjectVersion
1070
     0
  0
VISUALSTYLE
  5
37
102
{ACAD_REACTORS
330
2A
102
}
102
{ACAD_XDICTIONARY
360
3F4
102
}
330
2A
100
AcDbVisualStyle
  2
Thicken
 70
    13
 71
     2
 72
     2
 73
     0
 90
        0
 40
-0.6
 41
-30.0
 62
     5
 63
     7
421
 16777215
 74
     1
 91
        4
 64
     7
 65
   257
 75
     1
175
     1
 42
1.0
 92
       12
 66
     7
 43
1.0
 76
     1
 77
     6
 78
     2
 67
     7
 79
     5
170
     0
171
     0
290
     0
174
     0
 93
        1
 44
0.0
173
     0
291
     1
 45
0.0
1001
ACAD
1000
AcDbSavedByObjectVersion
1070
     0
  0
DICTIONARY
  5
3FE
330
3D
100
AcDbDictionary
280
     1
281
     1
  3
ACAD_XREC_ROUNDTRIP
360
3FF
  0
DICTIONARY
  5
3FC
330
3C
100
AcDbDictionary
280
     1
281
     1
  3
ACAD_XREC_ROUNDTRIP
360
3FD
  0
DICTIONARY
  5
400
330
3E
100
AcDbDictionary
280
     1
281
     1
  3
ACAD_XREC_ROUNDTRIP
360
401
  0
DICTIONARY
  5
3E4
330
2F
100
AcDbDictionary
280
     1
281
     1
  3
ACAD_XREC_ROUNDTRIP
360
3E5
  0
DICTIONARY
  5
3E8
330
31
100
AcDbDictionary
280
     1
281
     1
  3
ACAD_XREC_ROUNDTRIP
360
3E9
  0
DICTIONARY
  5
3E6
330
30
100
AcDbDictionary
280
     1
281
     1
  3
ACAD_XREC_ROUNDTRIP
360
3E7
  0
DICTIONARY
  5
3EA
330
32
100
AcDbDictionary
280
     1
281
     1
  3
ACAD_XREC_ROUNDTRIP
360
3EB
  0
DICTIONARY
  5
3F2
330
36
100
AcDbDictionary
280
     1
281
     1
  3
ACAD_XREC_ROUNDTRIP
360
3F3
  0
DICTIONARY
  5
3FA
330
3A
100
AcDbDictionary
280
     1
281
     1
  3
ACAD_XREC_ROUNDTRIP
360
3FB
  0
DICTIONARY
  5
3EE
330
34
100
AcDbDictionary
280
     1
281
     1
  3
ACAD_XREC_ROUNDTRIP
360
3EF
  0
DICTIONARY
  5
3F0
330
35
100
AcDbDictionary
280
     1
281
     1
  3
ACAD_XREC_ROUNDTRIP
360
3F1
  0
DICTIONARY
  5
3F8
330
39
100
AcDbDictionary
280
     1
281
     1
  3
ACAD_XREC_ROUNDTRIP
360
3F9
  0
DICTIONARY
  5
3DC
330
2B
100
AcDbDictionary
280
     1
281
     1
  3
ACAD_XREC_ROUNDTRIP
360
3DD
  0
DICTIONARY
  5
3DE
330
2C
100
AcDbDictionary
280
     1
281
     1
  3
ACAD_XREC_ROUNDTRIP
360
3DF
  0
DICTIONARY
  5
3E0
330
2D
100
AcDbDictionary
280
     1
281
     1
  3
ACAD_XREC_ROUNDTRIP
360
3E1
  0
DICTIONARY
  5
3E2
330
2E
100
AcDbDictionary
280
     1
281
     1
  3
ACAD_XREC_ROUNDTRIP
360
3E3
  0
DICTIONARY
  5
3F6
330
38
100
AcDbDictionary
280
     1
281
     1
  3
ACAD_XREC_ROUNDTRIP
360
3F7
  0
DICTIONARY
  5
3EC
330
33
100
AcDbDictionary
280
     1
281
     1
  3
ACAD_XREC_ROUNDTRIP
360
3ED
  0
DICTIONARY
  5
3F4
330
37
100
AcDbDictionary
280
     1
281
     1
  3
ACAD_XREC_ROUNDTRIP
360
3F5
  0
XRECORD
  5
3FF
102
{ACAD_REACTORS
330
3FE
102
}
330
3FE
100
AcDbXrecord
280
     1
102
MATERIAL
148
0.0
149
0.0
149
0.0
 93
        0
 94
      127
282
     0
 72
     1
 77
     1
171
     1
175
     1
179
     1
273
     0
  0
XRECORD
  5
3FD
102
{ACAD_REACTORS
330
3FC
102
}
330
3FC
100
AcDbXrecord
280
     1
102
MATERIAL
148
0.0
149
0.0
149
0.0
 93
        0
 94
      127
282
     0
 72
     1
 77
     1
171
     1
175
     1
179
     1
273
     0
  0
XRECORD
  5
401
102
{ACAD_REACTORS
330
400
102
}
330
400
100
AcDbXrecord
280
     1
102
MATERIAL
148
0.0
149
0.0
149
0.0
 93
        0
 94
      127
282
     0
 72
     1
 77
     1
171
     1
175
     1
179
     1
273
     0
  0
XRECORD
  5
3E5
102
{ACAD_REACTORS
330
3E4
102
}
330
3E4
100
AcDbXrecord
280
     1
102
RTVSPropertyOp0
 70
     1
102
RTVSPropertyOp1
 70
     1
102
RTVSPropertyOp2
 70
     1
102
RTVSPropertyOp3
 70
     1
102
RTVSPropertyOp4
 70
     1
102
RTVSPropertyOp5
 70
     1
102
RTVSPropertyOp6
 70
     1
102
RTVSPropertyOp7
 70
     1
102
RTVSPropertyOp8
 70
     1
102
RTVSPropertyOp9
 70
     1
102
RTVSPropertyOp10
 70
     1
102
RTVSPropertyOp11
 70
     1
102
RTVSPropertyOp12
 70
     1
102
RTVSPropertyOp13
 70
     1
102
RTVSPropertyOp14
 70
     1
102
RTVSPropertyOp15
 70
     1
102
RTVSPropertyOp16
 70
     1
102
RTVSPropertyOp17
 70
     1
102
RTVSPropertyOp18
 70
     1
102
RTVSPropertyOp19
 70
     1
102
RTVSPropertyOp20
 70
     1
102
RTVSPropertyOp21
 70
     1
102
RTVSPropertyOp22
 70
     1
102
RTVSPropertyOp23
 70
     1
102
RTVSPropertyOp24
 70
     1
102
RTVSPropertyOp25
 70
     1
102
RTVSPropertyOp26
 70
     1
102
RTVSPropertyOp27
 70
     1
102
RTVSPropertyOp28
 70
     1
102
RTVSPropertyOp29
 70
     1
102
RTVSPropertyOp30
 70
     1
102
RTVSPropertyOp31
 70
     1
102
RTVSPropertyOp32
 70
     1
  0
XRECORD
  5
3E9
102
{ACAD_REACTORS
330
3E8
102
}
330
3E8
100
AcDbXrecord
280
     1
102
RTVSPropertyOp0
 70
     1
102
RTVSPropertyOp1
 70
     1
102
RTVSPropertyOp2
 70
     1
102
RTVSPropertyOp3
 70
     1
102
RTVSPropertyOp4
 70
     1
102
RTVSPropertyOp5
 70
     1
102
RTVSPropertyOp6
 70
     1
102
RTVSPropertyOp7
 70
     1
102
RTVSPropertyOp8
 70
     1
102
RTVSPropertyOp9
 70
     1
102
RTVSPropertyOp10
 70
     1
102
RTVSPropertyOp11
 70
     1
102
RTVSPropertyOp12
 70
     1
102
RTVSPropertyOp13
 70
     1
102
RTVSPropertyOp14
 70
     1
102
RTVSPropertyOp15
 70
     1
102
RTVSPropertyOp16
 70
     1
102
RTVSPropertyOp17
 70
     1
102
RTVSPropertyOp18
 70
     1
102
RTVSPropertyOp19
 70
     1
102
RTVSPropertyOp20
 70
     1
102
RTVSPropertyOp21
 70
     1
102
RTVSPropertyOp22
 70
     1
102
RTVSPropertyOp23
 70
     1
102
RTVSPropertyOp24
 70
     1
102
RTVSPropertyOp25
 70
     1
102
RTVSPropertyOp26
 70
     1
102
RTVSPropertyOp27
 70
     1
102
RTVSPropertyOp28
 70
     1
102
RTVSPropertyOp29
 70
     1
102
RTVSPropertyOp30
 70
     1
102
RTVSPropertyOp31
 70
     1
102
RTVSPropertyOp32
 70
     1
  0
XRECORD
  5
3E7
102
{ACAD_REACTORS
330
3E6
102
}
330
3E6
100
AcDbXrecord
280
     1
102
RTVSPropertyOp0
 70
     1
102
RTVSPropertyOp1
 70
     1
102
RTVSPropertyOp2
 70
     1
102
RTVSPropertyOp3
 70
     1
102
RTVSPropertyOp4
 70
     1
102
RTVSPropertyOp5
 70
     1
102
RTVSPropertyOp6
 70
     1
102
RTVSPropertyOp7
 70
     1
102
RTVSPropertyOp8
 70
     1
102
RTVSPropertyOp9
 70
     1
102
RTVSPropertyOp10
 70
     1
102
RTVSPropertyOp11
 70
     1
102
RTVSPropertyOp12
 70
     1
102
RTVSPropertyOp13
 70
     1
102
RTVSPropertyOp14
 70
     1
102
RTVSPropertyOp15
 70
     1
102
RTVSPropertyOp16
 70
     1
102
RTVSPropertyOp17
 70
     1
102
RTVSPropertyOp18
 70
     1
102
RTVSPropertyOp19
 70
     1
102
RTVSPropertyOp20
 70
     1
102
RTVSPropertyOp21
 70
     1
102
RTVSPropertyOp22
 70
     1
102
RTVSPropertyOp23
 70
     1
102
RTVSPropertyOp24
 70
     1
102
RTVSPropertyOp25
 70
     1
102
RTVSPropertyOp26
 70
     1
102
RTVSPropertyOp27
 70
     1
102
RTVSPropertyOp28
 70
     1
102
RTVSPropertyOp29
 70
     1
102
RTVSPropertyOp30
 70
     1
102
RTVSPropertyOp31
 70
     1
102
RTVSPropertyOp32
 70
     1
  0
XRECORD
  5
3EB
102
{ACAD_REACTORS
330
3EA
102
}
330
3EA
100
AcDbXrecord
280
     1
102
RTVSPropertyOp0
 70
     1
102
RTVSPropertyOp1
 70
     1
102
RTVSPropertyOp2
 70
     1
102
RTVSPropertyOp3
 70
     1
102
RTVSPropertyOp4
 70
     1
102
RTVSPropertyOp5
 70
     1
102
RTVSPropertyOp6
 70
     1
102
RTVSPropertyOp7
 70
     1
102
RTVSPropertyOp8
 70
     1
102
RTVSPropertyOp9
 70
     1
102
RTVSPropertyOp10
 70
     1
102
RTVSPropertyOp11
 70
     1
102
RTVSPropertyOp12
 70
     1
102
RTVSPropertyOp13
 70
     1
102
RTVSPropertyOp14
 70
     1
102
RTVSPropertyOp15
 70
     1
102
RTVSPropertyOp16
 70
     1
102
RTVSPropertyOp17
 70
     1
102
RTVSPropertyOp18
 70
     1
102
RTVSPropertyOp19
 70
     1
102
RTVSPropertyOp20
 70
     1
102
RTVSPropertyOp21
 70
     1
102
RTVSPropertyOp22
 70
     1
102
RTVSPropertyOp23
 70
     1
102
RTVSPropertyOp24
 70
     1
102
RTVSPropertyOp25
 70
     1
102
RTVSPropertyOp26
 70
     1
102
RTVSPropertyOp27
 70
     1
102
RTVSPropertyOp28
 70
     1
102
RTVSPropertyOp29
 70
     1
102
RTVSPropertyOp30
 70
     1
102
RTVSPropertyOp31
 70
     1
102
RTVSPropertyOp32
 70
     1
  0
XRECORD
  5
3F3
102
{ACAD_REACTORS
330
3F2
102
}
330
3F2
100
AcDbXrecord
280
     1
102
RTVSPropertyOp0
 70
     1
102
RTVSPropertyOp1
 70
     1
102
RTVSPropertyOp2
 70
     1
102
RTVSPropertyOp3
 70
     1
102
RTVSPropertyOp4
 70
     1
102
RTVSPropertyOp5
 70
     1
102
RTVSPropertyOp6
 70
     1
102
RTVSPropertyOp7
 70
     1
102
RTVSPropertyOp8
 70
     1
102
RTVSPropertyOp9
 70
     1
102
RTVSPropertyOp10
 70
     1
102
RTVSPropertyOp11
 70
     1
102
RTVSPropertyOp12
 70
     1
102
RTVSPropertyOp13
 70
     1
102
RTVSPropertyOp14
 70
     1
102
RTVSPropertyOp15
 70
     1
102
RTVSPropertyOp16
 70
     1
102
RTVSPropertyOp17
 70
     1
102
RTVSPropertyOp18
 70
     1
102
RTVSPropertyOp19
 70
     1
102
RTVSPropertyOp20
 70
     1
102
RTVSPropertyOp21
 70
     1
102
RTVSPropertyOp22
 70
     1
102
RTVSPropertyOp23
 70
     1
102
RTVSPropertyOp24
 70
     1
102
RTVSPropertyOp25
 70
     1
102
RTVSPropertyOp26
 70
     1
102
RTVSPropertyOp27
 70
     1
102
RTVSPropertyOp28
 70
     1
102
RTVSPropertyOp29
 70
     1
102
RTVSPropertyOp30
 70
     1
102
RTVSPropertyOp31
 70
     1
102
RTVSPropertyOp32
 70
     1
  0
XRECORD
  5
3FB
102
{ACAD_REACTORS
330
3FA
102
}
330
3FA
100
AcDbXrecord
280
     1
102
RTVSPropertyOp0
 70
     1
102
RTVSPropertyOp1
 70
     1
102
RTVSPropertyOp2
 70
     1
102
RTVSPropertyOp3
 70
     1
102
RTVSPropertyOp4
 70
     1
102
RTVSPropertyOp5
 70
     1
102
RTVSPropertyOp6
 70
     1
102
RTVSPropertyOp7
 70
     1
102
RTVSPropertyOp8
 70
     1
102
RTVSPropertyOp9
 70
     1
102
RTVSPropertyOp10
 70
     1
102
RTVSPropertyOp11
 70
     1
102
RTVSPropertyOp12
 70
     1
102
RTVSPropertyOp13
 70
     1
102
RTVSPropertyOp14
 70
     1
102
RTVSPropertyOp15
 70
     1
102
RTVSPropertyOp16
 70
     1
102
RTVSPropertyOp17
 70
     1
102
RTVSPropertyOp18
 70
     1
102
RTVSPropertyOp19
 70
     1
102
RTVSPropertyOp20
 70
     1
102
RTVSPropertyOp21
 70
     1
102
RTVSPropertyOp22
 70
     1
102
RTVSPropertyOp23
 70
     1
102
RTVSPropertyOp24
 70
     1
102
RTVSPropertyOp25
 70
     1
102
RTVSPropertyOp26
 70
     1
102
RTVSPropertyOp27
 70
     1
102
RTVSPropertyOp28
 70
     1
102
RTVSPropertyOp29
 70
     1
102
RTVSPropertyOp30
 70
     1
102
RTVSPropertyOp31
 70
     1
102
RTVSPropertyOp32
 70
     1
  0
XRECORD
  5
3EF
102
{ACAD_REACTORS
330
3EE
102
}
330
3EE
100
AcDbXrecord
280
     1
102
RTVSPropertyOp0
 70
     1
102
RTVSPropertyOp1
 70
     1
102
RTVSPropertyOp2
 70
     1
102
RTVSPropertyOp3
 70
     1
102
RTVSPropertyOp4
 70
     1
102
RTVSPropertyOp5
 70
     1
102
RTVSPropertyOp6
 70
     1
102
RTVSPropertyOp7
 70
     1
102
RTVSPropertyOp8
 70
     1
102
RTVSPropertyOp9
 70
     1
102
RTVSPropertyOp10
 70
     1
102
RTVSPropertyOp11
 70
     1
102
RTVSPropertyOp12
 70
     1
102
RTVSPropertyOp13
 70
     1
102
RTVSPropertyOp14
 70
     1
102
RTVSPropertyOp15
 70
     1
102
RTVSPropertyOp16
 70
     1
102
RTVSPropertyOp17
 70
     1
102
RTVSPropertyOp18
 70
     1
102
RTVSPropertyOp19
 70
     1
102
RTVSPropertyOp20
 70
     1
102
RTVSPropertyOp21
 70
     1
102
RTVSPropertyOp22
 70
     1
102
RTVSPropertyOp23
 70
     1
102
RTVSPropertyOp24
 70
     1
102
RTVSPropertyOp25
 70
     1
102
RTVSPropertyOp26
 70
     1
102
RTVSPropertyOp27
 70
     1
102
RTVSPropertyOp28
 70
     1
102
RTVSPropertyOp29
 70
     1
102
RTVSPropertyOp30
 70
     1
102
RTVSPropertyOp31
 70
     1
102
RTVSPropertyOp32
 70
     1
  0
XRECORD
  5
3F1
102
{ACAD_REACTORS
330
3F0
102
}
330
3F0
100
AcDbXrecord
280
     1
102
RTVSPropertyOp0
 70
     1
102
RTVSPropertyOp1
 70
     1
102
RTVSPropertyOp2
 70
     1
102
RTVSPropertyOp3
 70
     1
102
RTVSPropertyOp4
 70
     1
102
RTVSPropertyOp5
 70
     1
102
RTVSPropertyOp6
 70
     1
102
RTVSPropertyOp7
 70
     1
102
RTVSPropertyOp8
 70
     1
102
RTVSPropertyOp9
 70
     1
102
RTVSPropertyOp10
 70
     1
102
RTVSPropertyOp11
 70
     1
102
RTVSPropertyOp12
 70
     1
102
RTVSPropertyOp13
 70
     1
102
RTVSPropertyOp14
 70
     1
102
RTVSPropertyOp15
 70
     1
102
RTVSPropertyOp16
 70
     1
102
RTVSPropertyOp17
 70
     1
102
RTVSPropertyOp18
 70
     1
102
RTVSPropertyOp19
 70
     1
102
RTVSPropertyOp20
 70
     1
102
RTVSPropertyOp21
 70
     1
102
RTVSPropertyOp22
 70
     1
102
RTVSPropertyOp23
 70
     1
102
RTVSPropertyOp24
 70
     1
102
RTVSPropertyOp25
 70
     1
102
RTVSPropertyOp26
 70
     1
102
RTVSPropertyOp27
 70
     1
102
RTVSPropertyOp28
 70
     1
102
RTVSPropertyOp29
 70
     1
102
RTVSPropertyOp30
 70
     1
102
RTVSPropertyOp31
 70
     1
102
RTVSPropertyOp32
 70
     1
  0
XRECORD
  5
3F9
102
{ACAD_REACTORS
330
3F8
102
}
330
3F8
100
AcDbXrecord
280
     1
102
RTVSPropertyOp0
 70
     1
102
RTVSPropertyOp1
 70
     1
102
RTVSPropertyOp2
 70
     1
102
RTVSPropertyOp3
 70
     1
102
RTVSPropertyOp4
 70
     1
102
RTVSPropertyOp5
 70
     1
102
RTVSPropertyOp6
 70
     1
102
RTVSPropertyOp7
 70
     1
102
RTVSPropertyOp8
 70
     1
102
RTVSPropertyOp9
 70
     1
102
RTVSPropertyOp10
 70
     1
102
RTVSPropertyOp11
 70
     1
102
RTVSPropertyOp12
 70
     1
102
RTVSPropertyOp13
 70
     1
102
RTVSPropertyOp14
 70
     1
102
RTVSPropertyOp15
 70
     1
102
RTVSPropertyOp16
 70
     1
102
RTVSPropertyOp17
 70
     1
102
RTVSPropertyOp18
 70
     1
102
RTVSPropertyOp19
 70
     1
102
RTVSPropertyOp20
 70
     1
102
RTVSPropertyOp21
 70
     1
102
RTVSPropertyOp22
 70
     1
102
RTVSPropertyOp23
 70
     1
102
RTVSPropertyOp24
 70
     1
102
RTVSPropertyOp25
 70
     1
102
RTVSPropertyOp26
 70
     1
102
RTVSPropertyOp27
 70
     1
102
RTVSPropertyOp28
 70
     1
102
RTVSPropertyOp29
 70
     1
102
RTVSPropertyOp30
 70
     1
102
RTVSPropertyOp31
 70
     1
102
RTVSPropertyOp32
 70
     1
  0
XRECORD
  5
3DD
102
{ACAD_REACTORS
330
3DC
102
}
330
3DC
100
AcDbXrecord
280
     1
102
RTVSPropertyOp0
 70
     1
102
RTVSPropertyOp1
 70
     1
102
RTVSPropertyOp2
 70
     1
102
RTVSPropertyOp3
 70
     1
102
RTVSPropertyOp4
 70
     1
102
RTVSPropertyOp5
 70
     1
102
RTVSPropertyOp6
 70
     1
102
RTVSPropertyOp7
 70
     1
102
RTVSPropertyOp8
 70
     1
102
RTVSPropertyOp9
 70
     1
102
RTVSPropertyOp10
 70
     1
102
RTVSPropertyOp11
 70
     1
102
RTVSPropertyOp12
 70
     1
102
RTVSPropertyOp13
 70
     1
102
RTVSPropertyOp14
 70
     1
102
RTVSPropertyOp15
 70
     1
102
RTVSPropertyOp16
 70
     1
102
RTVSPropertyOp17
 70
     1
102
RTVSPropertyOp18
 70
     1
102
RTVSPropertyOp19
 70
     1
102
RTVSPropertyOp20
 70
     1
102
RTVSPropertyOp21
 70
     1
102
RTVSPropertyOp22
 70
     1
102
RTVSPropertyOp23
 70
     1
102
RTVSPropertyOp24
 70
     1
102
RTVSPropertyOp25
 70
     1
102
RTVSPropertyOp26
 70
     1
102
RTVSPropertyOp27
 70
     1
102
RTVSPropertyOp28
 70
     1
102
RTVSPropertyOp29
 70
     1
102
RTVSPropertyOp30
 70
     1
102
RTVSPropertyOp31
 70
     1
102
RTVSPropertyOp32
 70
     1
  0
XRECORD
  5
3DF
102
{ACAD_REACTORS
330
3DE
102
}
330
3DE
100
AcDbXrecord
280
     1
102
RTVSPropertyOp0
 70
     1
102
RTVSPropertyOp1
 70
     1
102
RTVSPropertyOp2
 70
     1
102
RTVSPropertyOp3
 70
     1
102
RTVSPropertyOp4
 70
     1
102
RTVSPropertyOp5
 70
     1
102
RTVSPropertyOp6
 70
     1
102
RTVSPropertyOp7
 70
     1
102
RTVSPropertyOp8
 70
     1
102
RTVSPropertyOp9
 70
     1
102
RTVSPropertyOp10
 70
     1
102
RTVSPropertyOp11
 70
     1
102
RTVSPropertyOp12
 70
     1
102
RTVSPropertyOp13
 70
     1
102
RTVSPropertyOp14
 70
     1
102
RTVSPropertyOp15
 70
     1
102
RTVSPropertyOp16
 70
     1
102
RTVSPropertyOp17
 70
     1
102
RTVSPropertyOp18
 70
     1
102
RTVSPropertyOp19
 70
     1
102
RTVSPropertyOp20
 70
     1
102
RTVSPropertyOp21
 70
     1
102
RTVSPropertyOp22
 70
     1
102
RTVSPropertyOp23
 70
     1
102
RTVSPropertyOp24
 70
     1
102
RTVSPropertyOp25
 70
     1
102
RTVSPropertyOp26
 70
     1
102
RTVSPropertyOp27
 70
     1
102
RTVSPropertyOp28
 70
     1
102
RTVSPropertyOp29
 70
     1
102
RTVSPropertyOp30
 70
     1
102
RTVSPropertyOp31
 70
     1
102
RTVSPropertyOp32
 70
     1
  0
XRECORD
  5
3E1
102
{ACAD_REACTORS
330
3E0
102
}
330
3E0
100
AcDbXrecord
280
     1
102
RTVSPropertyOp0
 70
     1
102
RTVSPropertyOp1
 70
     1
102
RTVSPropertyOp2
 70
     1
102
RTVSPropertyOp3
 70
     1
102
RTVSPropertyOp4
 70
     1
102
RTVSPropertyOp5
 70
     1
102
RTVSPropertyOp6
 70
     1
102
RTVSPropertyOp7
 70
     1
102
RTVSPropertyOp8
 70
     1
102
RTVSPropertyOp9
 70
     1
102
RTVSPropertyOp10
 70
     1
102
RTVSPropertyOp11
 70
     1
102
RTVSPropertyOp12
 70
     1
102
RTVSPropertyOp13
 70
     1
102
RTVSPropertyOp14
 70
     1
102
RTVSPropertyOp15
 70
     1
102
RTVSPropertyOp16
 70
     1
102
RTVSPropertyOp17
 70
     1
102
RTVSPropertyOp18
 70
     1
102
RTVSPropertyOp19
 70
     1
102
RTVSPropertyOp20
 70
     1
102
RTVSPropertyOp21
 70
     1
102
RTVSPropertyOp22
 70
     1
102
RTVSPropertyOp23
 70
     1
102
RTVSPropertyOp24
 70
     1
102
RTVSPropertyOp25
 70
     1
102
RTVSPropertyOp26
 70
     1
102
RTVSPropertyOp27
 70
     1
102
RTVSPropertyOp28
 70
     1
102
RTVSPropertyOp29
 70
     1
102
RTVSPropertyOp30
 70
     1
102
RTVSPropertyOp31
 70
     1
102
RTVSPropertyOp32
 70
     1
  0
XRECORD
  5
3E3
102
{ACAD_REACTORS
330
3E2
102
}
330
3E2
100
AcDbXrecord
280
     1
102
RTVSPropertyOp0
 70
     1
102
RTVSPropertyOp1
 70
     1
102
RTVSPropertyOp2
 70
     1
102
RTVSPropertyOp3
 70
     1
102
RTVSPropertyOp4
 70
     1
102
RTVSPropertyOp5
 70
     1
102
RTVSPropertyOp6
 70
     1
102
RTVSPropertyOp7
 70
     1
102
RTVSPropertyOp8
 70
     1
102
RTVSPropertyOp9
 70
     1
102
RTVSPropertyOp10
 70
     1
102
RTVSPropertyOp11
 70
     1
102
RTVSPropertyOp12
 70
     1
102
RTVSPropertyOp13
 70
     1
102
RTVSPropertyOp14
 70
     1
102
RTVSPropertyOp15
 70
     1
102
RTVSPropertyOp16
 70
     1
102
RTVSPropertyOp17
 70
     1
102
RTVSPropertyOp18
 70
     1
102
RTVSPropertyOp19
 70
     1
102
RTVSPropertyOp20
 70
     1
102
RTVSPropertyOp21
 70
     1
102
RTVSPropertyOp22
 70
     1
102
RTVSPropertyOp23
 70
     1
102
RTVSPropertyOp24
 70
     1
102
RTVSPropertyOp25
 70
     1
102
RTVSPropertyOp26
 70
     1
102
RTVSPropertyOp27
 70
     1
102
RTVSPropertyOp28
 70
     1
102
RTVSPropertyOp29
 70
     1
102
RTVSPropertyOp30
 70
     1
102
RTVSPropertyOp31
 70
     1
102
RTVSPropertyOp32
 70
     1
  0
XRECORD
  5
3F7
102
{ACAD_REACTORS
330
3F6
102
}
330
3F6
100
AcDbXrecord
280
     1
102
RTVSPropertyOp0
 70
     1
102
RTVSPropertyOp1
 70
     1
102
RTVSPropertyOp2
 70
     1
102
RTVSPropertyOp3
 70
     1
102
RTVSPropertyOp4
 70
     1
102
RTVSPropertyOp5
 70
     1
102
RTVSPropertyOp6
 70
     1
102
RTVSPropertyOp7
 70
     1
102
RTVSPropertyOp8
 70
     1
102
RTVSPropertyOp9
 70
     1
102
RTVSPropertyOp10
 70
     1
102
RTVSPropertyOp11
 70
     1
102
RTVSPropertyOp12
 70
     1
102
RTVSPropertyOp13
 70
     1
102
RTVSPropertyOp14
 70
     1
102
RTVSPropertyOp15
 70
     1
102
RTVSPropertyOp16
 70
     1
102
RTVSPropertyOp17
 70
     1
102
RTVSPropertyOp18
 70
     1
102
RTVSPropertyOp19
 70
     1
102
RTVSPropertyOp20
 70
     1
102
RTVSPropertyOp21
 70
     1
102
RTVSPropertyOp22
 70
     1
102
RTVSPropertyOp23
 70
     1
102
RTVSPropertyOp24
 70
     1
102
RTVSPropertyOp25
 70
     1
102
RTVSPropertyOp26
 70
     1
102
RTVSPropertyOp27
 70
     1
102
RTVSPropertyOp28
 70
     1
102
RTVSPropertyOp29
 70
     1
102
RTVSPropertyOp30
 70
     1
102
RTVSPropertyOp31
 70
     1
102
RTVSPropertyOp32
 70
     1
  0
XRECORD
  5
3ED
102
{ACAD_REACTORS
330
3EC
102
}
330
3EC
100
AcDbXrecord
280
     1
102
RTVSPropertyOp0
 70
     1
102
RTVSPropertyOp1
 70
     1
102
RTVSPropertyOp2
 70
     1
102
RTVSPropertyOp3
 70
     1
102
RTVSPropertyOp4
 70
     1
102
RTVSPropertyOp5
 70
     1
102
RTVSPropertyOp6
 70
     1
102
RTVSPropertyOp7
 70
     1
102
RTVSPropertyOp8
 70
     1
102
RTVSPropertyOp9
 70
     1
102
RTVSPropertyOp10
 70
     1
102
RTVSPropertyOp11
 70
     1
102
RTVSPropertyOp12
 70
     1
102
RTVSPropertyOp13
 70
     1
102
RTVSPropertyOp14
 70
     1
102
RTVSPropertyOp15
 70
     1
102
RTVSPropertyOp16
 70
     1
102
RTVSPropertyOp17
 70
     1
102
RTVSPropertyOp18
 70
     1
102
RTVSPropertyOp19
 70
     1
102
RTVSPropertyOp20
 70
     1
102
RTVSPropertyOp21
 70
     1
102
RTVSPropertyOp22
 70
     1
102
RTVSPropertyOp23
 70
     1
102
RTVSPropertyOp24
 70
     1
102
RTVSPropertyOp25
 70
     1
102
RTVSPropertyOp26
 70
     1
102
RTVSPropertyOp27
 70
     1
102
RTVSPropertyOp28
 70
     1
102
RTVSPropertyOp29
 70
     1
102
RTVSPropertyOp30
 70
     1
102
RTVSPropertyOp31
 70
     1
102
RTVSPropertyOp32
 70
     1
  0
XRECORD
  5
3F5
102
{ACAD_REACTORS
330
3F4
102
}
330
3F4
100
AcDbXrecord
280
     1
102
RTVSPropertyOp0
 70
     1
102
RTVSPropertyOp1
 70
     1
102
RTVSPropertyOp2
 70
     1
102
RTVSPropertyOp3
 70
     1
102
RTVSPropertyOp4
 70
     1
102
RTVSPropertyOp5
 70
     1
102
RTVSPropertyOp6
 70
     1
102
RTVSPropertyOp7
 70
     1
102
RTVSPropertyOp8
 70
     1
102
RTVSPropertyOp9
 70
     1
102
RTVSPropertyOp10
 70
     1
102
RTVSPropertyOp11
 70
     1
102
RTVSPropertyOp12
 70
     1
102
RTVSPropertyOp13
 70
     1
102
RTVSPropertyOp14
 70
     1
102
RTVSPropertyOp15
 70
     1
102
RTVSPropertyOp16
 70
     1
102
RTVSPropertyOp17
 70
     1
102
RTVSPropertyOp18
 70
     1
102
RTVSPropertyOp19
 70
     1
102
RTVSPropertyOp20
 70
     1
102
RTVSPropertyOp21
 70
     1
102
RTVSPropertyOp22
 70
     1
102
RTVSPropertyOp23
 70
     1
102
RTVSPropertyOp24
 70
     1
102
RTVSPropertyOp25
 70
     1
102
RTVSPropertyOp26
 70
     1
102
RTVSPropertyOp27
 70
     1
102
RTVSPropertyOp28
 70
     1
102
RTVSPropertyOp29
 70
     1
102
RTVSPropertyOp30
 70
     1
102
RTVSPropertyOp31
 70
     1
102
RTVSPropertyOp32
 70
     1
  0
ENDSEC
  0
EOF
