  0
SECTION
  2
HEADER
  9
$ACADVER
  1
AC1018
  9
$ACADMAINTVER
 70
     0
  9
$DWGCODEPAGE
  3
ANSI_1252
  9
$INSBASE
 10
0.0
 20
0.0
 30
0.0
  9
$EXTMIN
 10
-233.791652953483
 20
-3.83039501597551
 30
0.0
  9
$EXTMAX
 10
63.20834704651503
 20
206.1696049840246
 30
0.0
  9
$LIMMIN
 10
0.0
 20
0.0
  9
$LIMMAX
 10
12.0
 20
9.0
  9
$ORTHOMODE
 70
     0
  9
$REGENMODE
 70
     1
  9
$FILLMODE
 70
     1
  9
$QTEXTMODE
 70
     0
  9
$MIRRTEXT
 70
     1
  9
$LTSCALE
 40
1.0
  9
$ATTMODE
 70
     1
  9
$TEXTSIZE
 40
0.2
  9
$TRACEWID
 40
0.05
  9
$TEXTSTYLE
  7
Standard
  9
$CLAYER
  8
0
  9
$CELTYPE
  6
ByLayer
  9
$CECOLOR
 62
   256
  9
$CELTSCALE
 40
1.0
  9
$DISPSILH
 70
     0
  9
$DIMSCALE
 40
1.0
  9
$DIMASZ
 40
0.18
  9
$DIMEXO
 40
0.0625
  9
$DIMDLI
 40
0.38
  9
$DIMRND
 40
0.0
  9
$DIMDLE
 40
0.0
  9
$DIMEXE
 40
0.18
  9
$DIMTP
 40
0.0
  9
$DIMTM
 40
0.0
  9
$DIMTXT
 40
0.18
  9
$DIMCEN
 40
0.09
  9
$DIMTSZ
 40
0.0
  9
$DIMTOL
 70
     0
  9
$DIMLIM
 70
     0
  9
$DIMTIH
 70
     1
  9
$DIMTOH
 70
     1
  9
$DIMSE1
 70
     0
  9
$DIMSE2
 70
     0
  9
$DIMTAD
 70
     0
  9
$DIMZIN
 70
     0
  9
$DIMBLK
  1

  9
$DIMASO
 70
     1
  9
$DIMSHO
 70
     1
  9
$DIMPOST
  1

  9
$DIMAPOST
  1

  9
$DIMALT
 70
     0
  9
$DIMALTD
 70
     2
  9
$DIMALTF
 40
25.4
  9
$DIMLFAC
 40
1.0
  9
$DIMTOFL
 70
     0
  9
$DIMTVP
 40
0.0
  9
$DIMTIX
 70
     0
  9
$DIMSOXD
 70
     0
  9
$DIMSAH
 70
     0
  9
$DIMBLK1
  1

  9
$DIMBLK2
  1

  9
$DIMSTYLE
  2
Standard
  9
$DIMCLRD
 70
     0
  9
$DIMCLRE
 70
     0
  9
$DIMCLRT
 70
     0
  9
$DIMTFAC
 40
1.0
  9
$DIMGAP
 40
0.09
  9
$DIMJUST
 70
     0
  9
$DIMSD1
 70
     0
  9
$DIMSD2
 70
     0
  9
$DIMTOLJ
 70
     1
  9
$DIMTZIN
 70
     0
  9
$DIMALTZ
 70
     0
  9
$DIMALTTZ
 70
     0
  9
$DIMUPT
 70
     0
  9
$DIMDEC
 70
     4
  9
$DIMTDEC
 70
     4
  9
$DIMALTU
 70
     2
  9
$DIMALTTD
 70
     2
  9
$DIMTXSTY
  7
Standard
  9
$DIMAUNIT
 70
     0
  9
$DIMADEC
 70
     0
  9
$DIMALTRND
 40
0.0
  9
$DIMAZIN
 70
     0
  9
$DIMDSEP
 70
    46
  9
$DIMATFIT
 70
     3
  9
$DIMFRAC
 70
     0
  9
$DIMLDRBLK
  1

  9
$DIMLUNIT
 70
     2
  9
$DIMLWD
 70
    -2
  9
$DIMLWE
 70
    -2
  9
$DIMTMOVE
 70
     0
  9
$LUNITS
 70
     2
  9
$LUPREC
 70
     4
  9
$SKETCHINC
 40
0.1
  9
$FILLETRAD
 40
0.5
  9
$AUNITS
 70
     0
  9
$AUPREC
 70
     0
  9
$MENU
  1
.
  9
$ELEVATION
 40
0.0
  9
$PELEVATION
 40
0.0
  9
$THICKNESS
 40
0.0
  9
$LIMCHECK
 70
     0
  9
$CHAMFERA
 40
0.5
  9
$CHAMFERB
 40
0.5
  9
$CHAMFERC
 40
1.0
  9
$CHAMFERD
 40
0.0
  9
$SKPOLY
 70
     0
  9
$TDCREATE
 40
2458137.87169912
  9
$TDUCREATE
 40
2458137.830032454
  9
$TDUPDATE
 40
2458137.871699664
  9
$TDUUPDATE
 40
2458137.830032998
  9
$TDINDWG
 40
0.0000000116
  9
$TDUSRTIMER
 40
0.0000000116
  9
$USRTIMER
 70
     1
  9
$ANGBASE
 50
0.0
  9
$ANGDIR
 70
     0
  9
$PDMODE
 70
     0
  9
$PDSIZE
 40
0.0
  9
$PLINEWID
 40
0.0
  9
$SPLFRAME
 70
     0
  9
$SPLINETYPE
 70
     6
  9
$SPLINESEGS
 70
     8
  9
$HANDSEED
  5
293
  9
$SURFTAB1
 70
     6
  9
$SURFTAB2
 70
     6
  9
$SURFTYPE
 70
     6
  9
$SURFU
 70
     6
  9
$SURFV
 70
     6
  9
$UCSBASE
  2

  9
$UCSNAME
  2

  9
$UCSORG
 10
0.0
 20
0.0
 30
0.0
  9
$UCSXDIR
 10
1.0
 20
0.0
 30
0.0
  9
$UCSYDIR
 10
0.0
 20
1.0
 30
0.0
  9
$UCSORTHOREF
  2

  9
$UCSORTHOVIEW
 70
     0
  9
$UCSORGTOP
 10
0.0
 20
0.0
 30
0.0
  9
$UCSORGBOTTOM
 10
0.0
 20
0.0
 30
0.0
  9
$UCSORGLEFT
 10
0.0
 20
0.0
 30
0.0
  9
$UCSORGRIGHT
 10
0.0
 20
0.0
 30
0.0
  9
$UCSORGFRONT
 10
0.0
 20
0.0
 30
0.0
  9
$UCSORGBACK
 10
0.0
 20
0.0
 30
0.0
  9
$PUCSBASE
  2

  9
$PUCSNAME
  2

  9
$PUCSORG
 10
0.0
 20
0.0
 30
0.0
  9
$PUCSXDIR
 10
1.0
 20
0.0
 30
0.0
  9
$PUCSYDIR
 10
0.0
 20
1.0
 30
0.0
  9
$PUCSORTHOREF
  2

  9
$PUCSORTHOVIEW
 70
     0
  9
$PUCSORGTOP
 10
0.0
 20
0.0
 30
0.0
  9
$PUCSORGBOTTOM
 10
0.0
 20
0.0
 30
0.0
  9
$PUCSORGLEFT
 10
0.0
 20
0.0
 30
0.0
  9
$PUCSORGRIGHT
 10
0.0
 20
0.0
 30
0.0
  9
$PUCSORGFRONT
 10
0.0
 20
0.0
 30
0.0
  9
$PUCSORGBACK
 10
0.0
 20
0.0
 30
0.0
  9
$USERI1
 70
     0
  9
$USERI2
 70
     0
  9
$USERI3
 70
     0
  9
$USERI4
 70
     0
  9
$USERI5
 70
     0
  9
$USERR1
 40
18.1
  9
$USERR2
 40
0.0
  9
$USERR3
 40
0.0
  9
$USERR4
 40
0.0
  9
$USERR5
 40
0.0
  9
$WORLDVIEW
 70
     1
  9
$SHADEDGE
 70
     3
  9
$SHADEDIF
 70
    70
  9
$TILEMODE
 70
     1
  9
$MAXACTVP
 70
    64
  9
$PINSBASE
 10
0.0
 20
0.0
 30
0.0
  9
$PLIMCHECK
 70
     0
  9
$PEXTMIN
 10
1.00000000000000E+20
 20
1.00000000000000E+20
 30
1.00000000000000E+20
  9
$PEXTMAX
 10
-1.00000000000000E+20
 20
-1.00000000000000E+20
 30
-1.00000000000000E+20
  9
$PLIMMIN
 10
0.0
 20
0.0
  9
$PLIMMAX
 10
12.0
 20
9.0
  9
$UNITMODE
 70
     0
  9
$VISRETAIN
 70
     1
  9
$PLINEGEN
 70
     0
  9
$PSLTSCALE
 70
     1
  9
$TREEDEPTH
 70
  3020
  9
$CMLSTYLE
  2
Standard
  9
$CMLJUST
 70
     0
  9
$CMLSCALE
 40
1.0
  9
$PROXYGRAPHICS
 70
     1
  9
$MEASUREMENT
 70
     1
  9
$CELWEIGHT
370
    -1
  9
$ENDCAPS
280
     0
  9
$JOINSTYLE
280
     0
  9
$LWDISPLAY
290
     0
  9
$INSUNITS
 70
     4
  9
$HYPERLINKBASE
  1

  9
$STYLESHEET
  1

  9
$XEDIT
290
     1
  9
$CEPSNTYPE
380
     0
  9
$PSTYLEMODE
290
     1
  9
$FINGERPRINTGUID
  2
{4EA59A51-C9F9-46EF-BFC2-872CFFCAB5ED}
  9
$VERSIONGUID
  2
{FAEB1C32-E019-11D5-929B-00C0DF256EC4}
  9
$EXTNAMES
290
     1
  9
$PSVPSCALE
 40
0.0
  9
$OLESTARTUP
290
     0
  9
$SORTENTS
280
   127
  9
$INDEXCTL
280
     0
  9
$HIDETEXT
280
     1
  9
$XCLIPFRAME
290
     0
  9
$HALOGAP
280
     0
  9
$OBSCOLOR
 70
   257
  9
$OBSLTYPE
280
     0
  9
$INTERSECTIONDISPLAY
280
     0
  9
$INTERSECTIONCOLOR
 70
   257
  9
$DIMASSOC
280
     2
  9
$PROJECTNAME
  1

  0
ENDSEC
  0
SECTION
  2
CLASSES
  0
CLASS
  1
ACDBDICTIONARYWDFLT
  2
AcDbDictionaryWithDefault
  3
ObjectDBX Classes
 90
        0
 91
        4
280
     0
281
     0
  0
CLASS
  1
VISUALSTYLE
  2
AcDbVisualStyle
  3
ObjectDBX Classes
 90
     4095
 91
        4
280
     0
281
     0
  0
CLASS
  1
MATERIAL
  2
AcDbMaterial
  3
ObjectDBX Classes
 90
     1153
 91
        4
280
     0
281
     0
  0
ENDSEC
  0
SECTION
  2
TABLES
  0
TABLE
  2
VPORT
  5
8
330
0
100
AcDbSymbolTable
 70
     1
  0
VPORT
  5
29
330
8
100
AcDbSymbolTableRecord
100
AcDbViewportTableRecord
  2
*Active
 70
     0
 10
0.0
 20
0.0
 11
1.0
 21
1.0
 12
-85.29165295348399
 22
101.1696049840245
 13
0.0
 23
0.0
 14
0.5
 24
0.5
 15
0.5
 25
0.5
 16
0.0
 26
0.0
 36
1.0
 17
0.0
 27
0.0
 37
0.0
 40
231.0000000000001
 41
1.60267857142857
 42
50.0
 43
0.0
 44
0.0
 50
0.0
 51
0.0
 71
     0
 72
   100
 73
     1
 74
     3
 75
     0
 76
     0
 77
     0
 78
     0
281
     0
 65
     1
110
0.0
120
0.0
130
0.0
111
1.0
121
0.0
131
0.0
112
0.0
122
1.0
132
0.0
 79
     0
146
0.0
  0
ENDTAB
  0
TABLE
  2
LTYPE
  5
5
330
0
100
AcDbSymbolTable
 70
     8
  0
LTYPE
  5
14
330
5
100
AcDbSymbolTableRecord
100
AcDbLinetypeTableRecord
  2
ByBlock
 70
     0
  3

 72
    65
 73
     0
 40
0.0
  0
LTYPE
  5
15
330
5
100
AcDbSymbolTableRecord
100
AcDbLinetypeTableRecord
  2
ByLayer
 70
     0
  3

 72
    65
 73
     0
 40
0.0
  0
LTYPE
  5
16
330
5
100
AcDbSymbolTableRecord
100
AcDbLinetypeTableRecord
  2
Continuous
 70
     0
  3
Solid line
 72
    65
 73
     0
 40
0.0
  0
LTYPE
  5
3F
330
5
100
AcDbSymbolTableRecord
100
AcDbLinetypeTableRecord
  2
DASHED
 70
     0
  3
Dashed
 72
    65
 73
     2
 40
15.0
 49
7.0
 74
     0
 49
-8.0
 74
     0
  0
LTYPE
  5
40
330
5
100
AcDbSymbolTableRecord
100
AcDbLinetypeTableRecord
  2
DOTTED
 70
     0
  3
Dotted
 72
    65
 73
     2
 40
1.0
 49
0.0
 74
     0
 49
-1.0
 74
     0
  0
LTYPE
  5
41
330
5
100
AcDbSymbolTableRecord
100
AcDbLinetypeTableRecord
  2
DOT_CENTER
 70
     0
  3
Dot_Center
 72
    65
 73
     4
 40
14.0
 49
12.0
 74
     0
 49
-1.0
 74
     0
 49
0.0
 74
     0
 49
-1.0
 74
     0
  0
LTYPE
  5
42
330
5
100
AcDbSymbolTableRecord
100
AcDbLinetypeTableRecord
  2
LONG_DASHED
 70
     0
  3
Long_Dashed
 72
    65
 73
     2
 40
15.0
 49
10.0
 74
     0
 49
-5.0
 74
     0
  0
LTYPE
  5
43
330
5
100
AcDbSymbolTableRecord
100
AcDbLinetypeTableRecord
  2
DASH_CENTER
 70
     0
  3
Dash_Center
 72
    65
 73
     4
 40
14.0
 49
11.0
 74
     0
 49
-1.0
 74
     0
 49
1.0
 74
     0
 49
-1.0
 74
     0
  0
LTYPE
  5
44
330
5
100
AcDbSymbolTableRecord
100
AcDbLinetypeTableRecord
  2
PHANTOM
 70
     0
  3
Phantom
 72
    65
 73
     6
 40
13.0
 49
10.0
 74
     0
 49
-1.0
 74
     0
 49
0.0
 74
     0
 49
-1.0
 74
     0
 49
0.0
 74
     0
 49
-1.0
 74
     0
  0
LTYPE
  5
45
330
5
100
AcDbSymbolTableRecord
100
AcDbLinetypeTableRecord
  2
CENTER_DASH_DASH
 70
     0
  3
Center_Dash_Dash
 72
    65
 73
     6
 40
14.0
 49
9.0
 74
     0
 49
-1.0
 74
     0
 49
1.0
 74
     0
 49
-1.0
 74
     0
 49
1.0
 74
     0
 49
-1.0
 74
     0
  0
ENDTAB
  0
TABLE
  2
LAYER
  5
2
330
0
100
AcDbSymbolTable
 70
     2
  0
LAYER
  5
10
330
2
100
AcDbSymbolTableRecord
100
AcDbLayerTableRecord
  2
0
 70
     0
 62
     7
  6
Continuous
370
    -3
390
F
  0
LAYER
  5
46
330
2
100
AcDbSymbolTableRecord
100
AcDbLayerTableRecord
  2
1
 70
     0
 62
     7
  6
Continuous
370
    -3
390
F
  0
ENDTAB
  0
TABLE
  2
STYLE
  5
3
330
0
100
AcDbSymbolTable
 70
     5
  0
STYLE
  5
11
330
3
100
AcDbSymbolTableRecord
100
AcDbTextStyleTableRecord
  2
Standard
 70
     0
 40
0.0
 41
1.0
 50
0.0
 71
     0
 42
0.2
  3
txt
  4

  0
STYLE
  5
A4
330
3
100
AcDbSymbolTableRecord
100
AcDbTextStyleTableRecord
  2
CONVERTER_11
 70
     0
 40
0.0
 41
0.9
 50
0.0
 71
     0
 42
0.2
  3
txt.shx
  4

  0
STYLE
  5
22E
330
3
100
AcDbSymbolTableRecord
100
AcDbTextStyleTableRecord
  2
CONVERTER_12
 70
     0
 40
0.0
 41
0.81
 50
0.0
 71
     0
 42
0.2
  3
txt.shx
  4

  0
STYLE
  5
244
330
3
100
AcDbSymbolTableRecord
100
AcDbTextStyleTableRecord
  2
CONVERTER_13
 70
     0
 40
0.0
 41
0.72
 50
0.0
 71
     0
 42
0.2
  3
txt.shx
  4

  0
STYLE
  5
247
330
3
100
AcDbSymbolTableRecord
100
AcDbTextStyleTableRecord
  2
CONVERTER_14
 70
     0
 40
0.0
 41
0.855
 50
0.0
 71
     0
 42
0.2
  3
txt.shx
  4

  0
ENDTAB
  0
TABLE
  2
VIEW
  5
6
330
0
100
AcDbSymbolTable
 70
     0
  0
ENDTAB
  0
TABLE
  2
UCS
  5
7
330
0
100
AcDbSymbolTable
 70
     0
  0
ENDTAB
  0
TABLE
  2
APPID
  5
9
330
0
100
AcDbSymbolTable
 70
     1
  0
APPID
  5
12
330
9
100
AcDbSymbolTableRecord
100
AcDbRegAppTableRecord
  2
ACAD
 70
     0
  0
ENDTAB
  0
TABLE
  2
DIMSTYLE
  5
A
330
0
100
AcDbSymbolTable
 70
     5
100
AcDbDimStyleTable
  0
DIMSTYLE
105
27
330
A
100
AcDbSymbolTableRecord
100
AcDbDimStyleTableRecord
  2
Standard
 70
     0
178
     0
340
11
  0
DIMSTYLE
105
CA
102
{ACAD_REACTORS
330
CB
102
}
330
A
100
AcDbSymbolTableRecord
100
AcDbDimStyleTableRecord
  2
ME10_DIM_10
 70
     0
 41
3.5
 42
0.0
 44
1.5
 73
     0
 74
     0
 77
     1
 78
     8
140
3.5
147
1.5
172
     1
173
     1
174
     1
175
     1
176
     2
177
     2
178
     3
340
A4
  0
DIMSTYLE
105
11A
102
{ACAD_REACTORS
330
11B
102
}
330
A
100
AcDbSymbolTableRecord
100
AcDbDimStyleTableRecord
  2
ME10_DIM_11
 70
     0
 41
3.5
 42
0.0
 44
1.5
 73
     0
 74
     0
 77
     1
 78
     8
140
3.5
147
1.5
172
     1
173
     1
174
     1
175
     1
176
     2
177
     2
271
     2
178
     3
271
     2
340
A4
  0
DIMSTYLE
105
125
102
{ACAD_REACTORS
330
126
102
}
330
A
100
AcDbSymbolTableRecord
100
AcDbDimStyleTableRecord
  2
ME10_DIM_12
 70
     0
 41
3.5
 42
0.0
 44
2.0
 73
     0
 74
     0
 77
     1
 78
     8
140
3.5
147
2.0
172
     1
173
     1
174
     1
175
     1
176
     2
177
     2
271
     1
178
     3
271
     1
340
A4
  0
DIMSTYLE
105
130
102
{ACAD_REACTORS
330
131
102
}
330
A
100
AcDbSymbolTableRecord
100
AcDbDimStyleTableRecord
  2
ME10_DIM_13
 70
     0
 41
3.5
 42
0.0
 44
2.0
 73
     0
 74
     0
 77
     1
 78
     8
140
3.5
147
2.0
172
     1
173
     1
174
     1
175
     1
176
     2
177
     2
271
     1
178
     3
271
     1
340
A4
  0
ENDTAB
  0
TABLE
  2
BLOCK_RECORD
  5
1
330
0
100
AcDbSymbolTable
 70
    21
  0
BLOCK_RECORD
  5
1F
330
1
100
AcDbSymbolTableRecord
100
AcDbBlockTableRecord
  2
*Model_Space
340
22
  0
BLOCK_RECORD
  5
1B
330
1
100
AcDbSymbolTableRecord
100
AcDbBlockTableRecord
  2
*Paper_Space
340
1E
  0
BLOCK_RECORD
  5
23
330
1
100
AcDbSymbolTableRecord
100
AcDbBlockTableRecord
  2
*Paper_Space0
340
26
  0
BLOCK_RECORD
  5
47
330
1
100
AcDbSymbolTableRecord
100
AcDbBlockTableRecord
  2
D-RSC_5-select__1
340
0
102
{BLKREFS
331
4B
102
}
  0
BLOCK_RECORD
  5
4A
330
1
100
AcDbSymbolTableRecord
100
AcDbBlockTableRecord
  2
AllgSicht1
340
0
102
{BLKREFS
331
7D
102
}
  0
BLOCK_RECORD
  5
4E
330
1
100
AcDbSymbolTableRecord
100
AcDbBlockTableRecord
  2
D-RSC_5-select__2
340
0
102
{BLKREFS
331
52
102
}
  0
BLOCK_RECORD
  5
51
330
1
100
AcDbSymbolTableRecord
100
AcDbBlockTableRecord
  2
Drfsicht1
340
0
102
{BLKREFS
331
7E
102
}
  0
BLOCK_RECORD
  5
55
330
1
100
AcDbSymbolTableRecord
100
AcDbBlockTableRecord
  2
D-RSC_5-select__3
340
0
102
{BLKREFS
331
59
102
}
  0
BLOCK_RECORD
  5
58
330
1
100
AcDbSymbolTableRecord
100
AcDbBlockTableRecord
  2
Rckans1
340
0
102
{BLKREFS
331
7F
102
}
  0
BLOCK_RECORD
  5
5C
330
1
100
AcDbSymbolTableRecord
100
AcDbBlockTableRecord
  2
D-RSC_5-select__4
340
0
102
{BLKREFS
331
60
102
}
  0
BLOCK_RECORD
  5
5F
330
1
100
AcDbSymbolTableRecord
100
AcDbBlockTableRecord
  2
SA_Links1
340
0
102
{BLKREFS
331
80
102
}
  0
BLOCK_RECORD
  5
63
330
1
100
AcDbSymbolTableRecord
100
AcDbBlockTableRecord
  2
D-RSC_5-select__5
340
0
102
{BLKREFS
331
67
102
}
  0
BLOCK_RECORD
  5
66
330
1
100
AcDbSymbolTableRecord
100
AcDbBlockTableRecord
  2
SA_Rechts1
340
0
102
{BLKREFS
331
81
102
}
  0
BLOCK_RECORD
  5
6A
330
1
100
AcDbSymbolTableRecord
100
AcDbBlockTableRecord
  2
D-RSC_5-select__6
340
0
102
{BLKREFS
331
6E
102
}
  0
BLOCK_RECORD
  5
6D
330
1
100
AcDbSymbolTableRecord
100
AcDbBlockTableRecord
  2
Vordans1
340
0
102
{BLKREFS
331
82
102
}
  0
BLOCK_RECORD
  5
71
330
1
100
AcDbSymbolTableRecord
100
AcDbBlockTableRecord
  2
_rahmen
340
0
102
{BLKREFS
331
78
102
}
  0
BLOCK_RECORD
  5
74
330
1
100
AcDbSymbolTableRecord
100
AcDbBlockTableRecord
  2
_punkt
340
0
102
{BLKREFS
331
79
102
}
  0
BLOCK_RECORD
  5
77
330
1
100
AcDbSymbolTableRecord
100
AcDbBlockTableRecord
  2
A4I_CS
340
0
102
{BLKREFS
331
83
102
}
  0
BLOCK_RECORD
  5
7C
330
1
100
AcDbSymbolTableRecord
100
AcDbBlockTableRecord
  2
1
340
0
102
{BLKREFS
331
86
102
}
  0
BLOCK_RECORD
  5
BF
330
1
100
AcDbSymbolTableRecord
100
AcDbBlockTableRecord
  2
*D17
340
0
  0
BLOCK_RECORD
  5
111
330
1
100
AcDbSymbolTableRecord
100
AcDbBlockTableRecord
  2
*D18
340
0
  0
BLOCK_RECORD
  5
11C
330
1
100
AcDbSymbolTableRecord
100
AcDbBlockTableRecord
  2
*D19
340
0
  0
BLOCK_RECORD
  5
127
330
1
100
AcDbSymbolTableRecord
100
AcDbBlockTableRecord
  2
*D20
340
0
  0
ENDTAB
  0
ENDSEC
  0
SECTION
  2
BLOCKS
  0
BLOCK
  5
20
330
1F
100
AcDbEntity
  8
0
100
AcDbBlockBegin
  2
*Model_Space
 70
     0
 10
0.0
 20
0.0
 30
0.0
  3
*Model_Space
  1

  0
ENDBLK
  5
21
330
1F
100
AcDbEntity
  8
0
100
AcDbBlockEnd
  0
BLOCK
  5
1C
330
1B
100
AcDbEntity
 67
     1
  8
0
100
AcDbBlockBegin
  2
*Paper_Space
 70
     0
 10
0.0
 20
0.0
 30
0.0
  3
*Paper_Space
  1

  0
ENDBLK
  5
1D
330
1B
100
AcDbEntity
 67
     1
  8
0
100
AcDbBlockEnd
  0
BLOCK
  5
24
330
23
100
AcDbEntity
  8
0
100
AcDbBlockBegin
  2
*Paper_Space0
 70
     0
 10
0.0
 20
0.0
 30
0.0
  3
*Paper_Space0
  1

  0
ENDBLK
  5
25
330
23
100
AcDbEntity
  8
0
100
AcDbBlockEnd
  0
BLOCK
  5
48
330
47
100
AcDbEntity
  8
0
100
AcDbBlockBegin
  2
D-RSC_5-select__1
 70
     0
 10
-47.63135995747001
 20
59.83919741511139
 30
0.0
  3
D-RSC_5-select__1
  1

  0
LINE
  5
87
330
47
100
AcDbEntity
  8
0
  6
Continuous
 62
     7
100
AcDbLine
 10
-2.4339838601683
 20
81.26067994656513
 30
0.0
 11
-1.46864075992289
 21
79.31000470552901
 31
0.0
  0
LINE
  5
88
330
47
100
AcDbEntity
  8
0
  6
Continuous
 62
     7
100
AcDbLine
 10
-1.46864075992289
 20
79.31000470552901
 30
0.0
 11
-0.3686407599229
 21
80.26263264969188
 31
0.0
  0
LINE
  5
89
330
47
100
AcDbEntity
  8
0
  6
Continuous
 62
     7
100
AcDbLine
 10
-1.3339838601683
 20
82.21330789072802
 30
0.0
 11
-0.3686407599229
 21
80.26263264969188
 31
0.0
  0
LINE
  5
8A
330
47
100
AcDbEntity
  8
0
  6
Continuous
 62
     7
100
AcDbLine
 10
-2.67148713766569
 20
83.3128198329858
 30
0.0
 11
-2.2595936767228
 21
82.48050396932872
 31
0.0
  0
LINE
  5
8B
330
47
100
AcDbEntity
  8
0
  6
Continuous
 62
     7
100
AcDbLine
 10
-2.2595936767228
 20
82.48050396932872
 30
0.0
 11
-1.3339838601683
 21
82.21330789072802
 31
0.0
  0
LINE
  5
8C
330
47
100
AcDbEntity
  8
0
  6
Continuous
 62
     7
100
AcDbLine
 10
-3.35959367672279
 20
81.52787602516584
 30
0.0
 11
-2.4339838601683
 21
81.26067994656513
 31
0.0
  0
LINE
  5
8D
330
47
100
AcDbEntity
  8
0
  6
Continuous
 62
     7
100
AcDbLine
 10
-2.4339838601683
 20
81.26067994656513
 30
0.0
 11
-1.3339838601683
 21
82.21330789072802
 31
0.0
  0
LINE
  5
8E
330
47
100
AcDbEntity
  8
0
  6
Continuous
 62
     7
100
AcDbLine
 10
-3.35959367672279
 20
81.52787602516584
 30
0.0
 11
-2.2595936767228
 21
82.48050396932872
 31
0.0
  0
LINE
  5
8F
330
47
100
AcDbEntity
  8
0
  6
Continuous
 62
     7
100
AcDbLine
 10
-1.8161226753835
 20
84.05358718681661
 30
0.0
 11
-2.91612267538349
 21
83.10095924265373
 31
0.0
  0
LINE
  5
90
330
47
100
AcDbEntity
  8
0
  6
Continuous
 62
     7
100
AcDbLine
 10
-4.503313595265
 20
83.83899849262131
 30
0.0
 11
-3.35959367672279
 21
81.52787602516584
 31
0.0
  0
LINE
  5
91
330
47
100
AcDbEntity
  8
0
  6
Continuous
 62
     7
100
AcDbLine
 10
-2.91612267538349
 20
83.10095924265373
 30
0.0
 11
-4.503313595265
 21
83.83899849262131
 31
0.0
  0
LINE
  5
92
330
47
100
AcDbEntity
  8
0
  6
Continuous
 62
     7
100
AcDbLine
 10
-8.22726580613019
 20
93.83322158970226
 30
0.0
 11
-2.91612267538349
 21
83.10095924265373
 31
0.0
  0
LINE
  5
93
330
47
100
AcDbEntity
  8
0
  6
Continuous
 62
     7
100
AcDbLine
 10
-7.1272658061303
 20
94.78584953386515
 30
0.0
 11
-1.8161226753835
 21
84.05358718681661
 31
0.0
  0
LINE
  5
94
330
47
100
AcDbEntity
  8
0
  6
Continuous
 62
     7
100
AcDbLine
 10
-0.3686407599229
 20
80.26263264969188
 30
0.0
 11
-0.3687293068283
 21
60.79182535927427
 31
0.0
  0
LINE
  5
95
330
47
100
AcDbEntity
  8
0
  6
Continuous
 62
     7
100
AcDbLine
 10
-46.66960043571289
 20
94.03018937924169
 30
0.0
 11
-45.74399061915852
 21
93.762993300641
 31
0.0
  0
LINE
  5
96
330
47
100
AcDbEntity
  8
0
  6
Continuous
 62
     7
100
AcDbLine
 10
-46.66960043571289
 20
94.03018937924169
 30
0.0
 11
-45.5696004357129
 21
94.98281732340456
 31
0.0
  0
LINE
  5
97
330
47
100
AcDbEntity
  8
0
  6
Continuous
 62
     7
100
AcDbLine
 10
-40.87642352842391
 20
103.258064279343
 30
0.0
 11
-39.77642352842391
 21
104.2106922235059
 31
0.0
  0
LINE
  5
98
330
47
100
AcDbEntity
  8
0
  6
Continuous
 62
     7
100
AcDbLine
 10
-46.18747801298719
 20
95.59211507868885
 30
0.0
 11
-40.87642352842391
 21
103.258064279343
 31
0.0
  0
LINE
  5
99
330
47
100
AcDbEntity
  8
0
  6
Continuous
 62
     7
100
AcDbLine
 10
-8.22726580613019
 20
93.83322158970226
 30
0.0
 11
-7.1272658061303
 21
94.78584953386515
 31
0.0
  0
LINE
  5
9A
330
47
100
AcDbEntity
  8
0
  6
Continuous
 62
     7
100
AcDbLine
 10
-39.77642352842391
 20
104.2106922235059
 30
0.0
 11
-7.1272658061303
 21
94.78584953386515
 31
0.0
  0
LINE
  5
9B
330
47
100
AcDbEntity
  8
0
  6
Continuous
 62
     7
100
AcDbLine
 10
-40.87642352842391
 20
103.258064279343
 30
0.0
 11
-8.22726580613019
 21
93.83322158970226
 31
0.0
  0
LINE
  5
9C
330
47
100
AcDbEntity
  8
0
  6
Continuous
 62
     7
100
AcDbLine
 10
-45.5696004357129
 20
94.98281732340456
 30
0.0
 11
-45.01066646572502
 21
94.82146967744569
 31
0.0
  0
LINE
  5
9D
330
47
100
AcDbEntity
  8
0
  6
Continuous
 62
     7
100
AcDbLine
 10
-44.60028978999173
 20
95.41380529713264
 30
0.0
 11
-45.74399061915852
 21
93.762993300641
 31
0.0
  0
LINE
  5
9E
330
47
100
AcDbEntity
  8
0
  6
Continuous
 62
     7
100
AcDbLine
 10
-44.60028978999173
 20
95.41380529713264
 30
0.0
 11
-46.18747801298719
 21
95.59211507868885
 31
0.0
  0
LINE
  5
9F
330
47
100
AcDbEntity
  8
0
  6
Continuous
 62
     7
100
AcDbLine
 10
-1.46872930682829
 20
59.83919741511139
 30
0.0
 11
-1.46864075992289
 21
79.31000470552901
 31
0.0
  0
LINE
  5
A0
330
47
100
AcDbEntity
  8
0
  6
Continuous
 62
     7
100
AcDbLine
 10
-0.3687293068283
 20
60.79182535927427
 30
0.0
 11
-1.46872930682829
 21
59.83919741511139
 31
0.0
  0
LINE
  5
A1
330
47
100
AcDbEntity
  8
0
  6
Continuous
 62
     7
100
AcDbLine
 10
-46.66960043571289
 20
94.03018937924169
 30
0.0
 11
-47.63135995747001
 21
92.64199054632358
 31
0.0
  0
LINE
  5
A2
330
47
100
AcDbEntity
  8
0
  6
Continuous
 62
     7
100
AcDbLine
 10
-47.63126747708954
 20
73.16517433464976
 30
0.0
 11
-47.63135995747001
 21
92.64199054632358
 31
0.0
  0
LINE
  5
A3
330
47
100
AcDbEntity
  8
0
  6
Continuous
 62
     7
100
AcDbLine
 10
-47.63126747708954
 20
73.16517433464976
 30
0.0
 11
-1.46872930682829
 21
59.83919741511139
 31
0.0
  0
ENDBLK
  5
49
330
47
100
AcDbEntity
  8
0
100
AcDbBlockEnd
  0
BLOCK
  5
4C
330
4A
100
AcDbEntity
  8
0
100
AcDbBlockBegin
  2
AllgSicht1
 70
     0
 10
-23.99999999997949
 20
83.00000000001
 30
0.0
  3
AllgSicht1
  1

  0
INSERT
  5
4B
330
4A
100
AcDbEntity
  8
0
100
AcDbBlockReference
  2
D-RSC_5-select__1
 10
-47.63135995747001
 20
59.83919741511139
 30
0.0
  0
MTEXT
  5
A5
330
4A
100
AcDbEntity
  8
1
 62
     6
100
AcDbMText
 10
-23.99999999998011
 20
54.83917178383445
 30
0.0
 40
5.0
 41
0.0
 71
     2
 72
     1
  1
 
  7
CONVERTER_11
 73
     1
 44
1.32052821128451
  0
ENDBLK
  5
4D
330
4A
100
AcDbEntity
  8
0
100
AcDbBlockEnd
  0
BLOCK
  5
4F
330
4E
100
AcDbEntity
  8
0
100
AcDbBlockBegin
  2
D-RSC_5-select__2
 70
     0
 10
-150.3041169077956
 20
75.2999656614615
 30
0.0
  3
D-RSC_5-select__2
  1

  0
LINE
  5
A6
330
4E
100
AcDbEntity
  8
0
  6
Continuous
 62
     7
100
AcDbLine
 10
-98.11468239491187
 20
75.2999656628554
 30
0.0
 11
-98.1146823948435
 21
77.49996566285539
 31
0.0
  0
LINE
  5
A7
330
4E
100
AcDbEntity
  8
0
  6
Continuous
 62
     7
100
AcDbLine
 10
-99.183484548348
 20
77.4999656628886
 30
0.0
 11
-98.671408344346
 21
77.49996566262271
 31
0.0
  0
LINE
  5
A8
330
4E
100
AcDbEntity
  8
0
  6
Continuous
 62
     7
100
AcDbLine
 10
-98.671408344346
 20
77.49996566262271
 30
0.0
 11
-98.67140834441437
 21
75.29996566262272
 31
0.0
  0
LINE
  5
A9
330
4E
100
AcDbEntity
  8
0
  6
Continuous
 62
     7
100
AcDbLine
 10
-99.18348454841637
 20
75.29996566288861
 30
0.0
 11
-98.67140834441437
 21
75.29996566262272
 31
0.0
  0
LINE
  5
AA
330
4E
100
AcDbEntity
  8
0
  6
Continuous
 62
     7
100
AcDbLine
 10
-104.8041881768969
 20
75.2999656614615
 30
0.0
 11
-104.8041881768285
 21
77.49996566146149
 31
0.0
  0
LINE
  5
AB
330
4E
100
AcDbEntity
  8
0
  6
Continuous
 62
     7
100
AcDbLine
 10
-97.00000019733778
 20
75.29996566306646
 30
0.0
 11
-97.00000019726942
 21
77.49996566306645
 31
0.0
  0
LINE
  5
AC
330
4E
100
AcDbEntity
  8
0
  6
Continuous
 62
     7
100
AcDbLine
 10
-149.193572670163
 20
77.49996566444281
 30
0.0
 11
-150.3041169077272
 21
77.49996566472211
 31
0.0
  0
LINE
  5
AD
330
4E
100
AcDbEntity
  8
0
  6
Continuous
 62
     7
100
AcDbLine
 10
-148.6368656491452
 20
75.29996566417555
 30
0.0
 11
-148.6368656490768
 21
77.49996566417553
 31
0.0
  0
LINE
  5
AE
330
4E
100
AcDbEntity
  8
0
  6
Continuous
 62
     7
100
AcDbLine
 10
-149.1935726702313
 20
75.29996566444282
 30
0.0
 11
-149.193572670163
 21
77.49996566444281
 31
0.0
  0
LINE
  5
AF
330
4E
100
AcDbEntity
  8
0
  6
Continuous
 62
     7
100
AcDbLine
 10
-148.6368656490768
 20
77.49996566417553
 30
0.0
 11
-142.5041881763901
 21
77.49996566263312
 31
0.0
  0
LINE
  5
B0
330
4E
100
AcDbEntity
  8
0
  6
Continuous
 62
     7
100
AcDbLine
 10
-149.193572670163
 20
77.49996566444281
 30
0.0
 11
-148.6368656490768
 21
77.49996566417553
 31
0.0
  0
LINE
  5
B1
330
4E
100
AcDbEntity
  8
0
  6
Continuous
 62
     7
100
AcDbLine
 10
-150.3041169077272
 20
77.49996566472211
 30
0.0
 11
-150.3041169077956
 21
75.29996566472212
 31
0.0
  0
LINE
  5
B2
330
4E
100
AcDbEntity
  8
0
  6
Continuous
 62
     7
100
AcDbLine
 10
-98.11468239491187
 20
75.2999656628554
 30
0.0
 11
-97.00000019733778
 21
75.29996566306646
 31
0.0
  0
LINE
  5
B3
330
4E
100
AcDbEntity
  8
0
  6
Continuous
 62
     7
100
AcDbLine
 10
-142.5041881764585
 20
75.29996566263313
 30
0.0
 11
-148.6368656491452
 21
75.29996566417555
 31
0.0
  0
LINE
  5
B4
330
4E
100
AcDbEntity
  8
0
  6
Continuous
 62
     7
100
AcDbLine
 10
-104.8041881768969
 20
75.2999656614615
 30
0.0
 11
-99.18348454841637
 21
75.29996566288861
 31
0.0
  0
LINE
  5
B5
330
4E
100
AcDbEntity
  8
0
  6
Continuous
 62
     7
100
AcDbLine
 10
-98.67140834441437
 20
75.29996566262272
 30
0.0
 11
-98.11468239491187
 21
75.2999656628554
 31
0.0
  0
LINE
  5
B6
330
4E
100
AcDbEntity
  8
0
  6
Continuous
 62
     7
100
AcDbLine
 10
-98.1146823948435
 20
77.49996566285539
 30
0.0
 11
-97.00000019726942
 21
77.49996566306645
 31
0.0
  0
LINE
  5
B7
330
4E
100
AcDbEntity
  8
0
  6
Continuous
 62
     7
100
AcDbLine
 10
-98.671408344346
 20
77.49996566262271
 30
0.0
 11
-98.1146823948435
 21
77.49996566285539
 31
0.0
  0
LINE
  5
B8
330
4E
100
AcDbEntity
  8
0
  6
Continuous
 62
     7
100
AcDbLine
 10
-142.5041881763901
 20
77.49996566263312
 30
0.0
 11
-104.8041881768285
 21
77.49996566146149
 31
0.0
  0
LINE
  5
B9
330
4E
100
AcDbEntity
  8
0
  6
Continuous
 62
     7
100
AcDbLine
 10
-104.8041881768285
 20
77.49996566146149
 30
0.0
 11
-99.183484548348
 21
77.4999656628886
 31
0.0
  0
LINE
  5
BA
330
4E
100
AcDbEntity
  8
0
  6
Continuous
 62
     7
100
AcDbLine
 10
-149.1935726702313
 20
75.29996566444282
 30
0.0
 11
-148.6368656491452
 21
75.29996566417555
 31
0.0
  0
LINE
  5
BB
330
4E
100
AcDbEntity
  8
0
  6
Continuous
 62
     7
100
AcDbLine
 10
-149.1935726702313
 20
75.29996566444282
 30
0.0
 11
-150.3041169077956
 21
75.29996566472212
 31
0.0
  0
LINE
  5
BC
330
4E
100
AcDbEntity
  8
0
  6
Continuous
 62
     7
100
AcDbLine
 10
-142.5041881764585
 20
75.29996566263313
 30
0.0
 11
-142.5041881763901
 21
77.49996566263312
 31
0.0
  0
LINE
  5
BD
330
4E
100
AcDbEntity
  8
0
  6
Continuous
 62
     7
100
AcDbLine
 10
-142.5041881764585
 20
75.29996566263313
 30
0.0
 11
-104.8041881768969
 21
75.2999656614615
 31
0.0
  0
ENDBLK
  5
50
330
4E
100
AcDbEntity
  8
0
100
AcDbBlockEnd
  0
BLOCK
  5
53
330
51
100
AcDbEntity
  8
0
100
AcDbBlockBegin
  2
Drfsicht1
 70
     0
 10
-123.6520581245569
 20
76.39996564055988
 30
0.0
  3
Drfsicht1
  1

  0
INSERT
  5
52
330
51
100
AcDbEntity
  8
0
100
AcDbBlockReference
  2
D-RSC_5-select__2
 10
-150.3041169077956
 20
75.2999656614615
 30
0.0
  0
MTEXT
  5
BE
330
51
100
AcDbEntity
  8
1
 62
     6
100
AcDbMText
 10
-123.6520581245566
 20
70.29996561353528
 30
0.0
 40
5.0
 41
0.0
 71
     2
 72
     1
  1
 
  7
CONVERTER_11
 73
     1
 44
1.32052821128451
  0
DIMENSION
  5
CB
330
51
100
AcDbEntity
  8
1
100
AcDbDimension
  2
*D17
 10
-158.6368656491452
 20
75.29996566417555
 30
0.0
 11
-162.0618656491452
 21
84.3245840897311
 31
0.0
 70
    32
  1
<>
 71
     5
 42
-1.0
 53
90.0
  3
ME10_DIM_10
100
AcDbAlignedDimension
 13
-142.5041881763901
 23
77.49996566263312
 33
0.0
 14
-148.6368656491452
 24
75.29996566417555
 34
0.0
 50
90.0
100
AcDbRotatedDimension
  0
ENDBLK
  5
54
330
51
100
AcDbEntity
  8
0
100
AcDbBlockEnd
  0
BLOCK
  5
56
330
55
100
AcDbEntity
  8
0
100
AcDbBlockBegin
  2
D-RSC_5-select__3
 70
     0
 10
-50.98724646901502
 20
124.4999656679044
 30
0.0
  3
D-RSC_5-select__3
  1

  0
LINE
  5
CC
330
55
100
AcDbEntity
  8
0
  6
Continuous
 62
     7
100
AcDbLine
 10
0.64961898279238
 20
150.8776293739467
 30
0.0
 11
-1.18310811280963
 21
151.2007977141839
 31
0.0
  0
LINE
  5
CD
330
55
100
AcDbEntity
  8
0
  6
Continuous
 62
     7
100
AcDbLine
 10
1.20632600387847
 20
148.9133654536447
 30
0.0
 11
0.13752385037407
 21
148.9133706033498
 31
0.0
  0
LINE
  5
CE
330
55
100
AcDbEntity
  8
0
  6
Continuous
 62
     7
100
AcDbLine
 10
-1.18310811280963
 20
151.2007977141839
 30
0.0
 11
0.13752385037407
 21
148.9133706033498
 31
0.0
  0
LINE
  5
CF
330
55
100
AcDbEntity
  8
0
  6
Continuous
 62
     7
100
AcDbLine
 10
0.64961898279238
 20
150.8776293739467
 30
0.0
 11
-5.48305848989433
 21
161.4998565379845
 31
0.0
  0
LINE
  5
D0
330
55
100
AcDbEntity
  8
0
  6
Continuous
 62
     7
100
AcDbLine
 10
1.20632600387847
 20
148.9133654536447
 30
0.0
 11
2.31687024144277
 21
146.9898250066444
 31
0.0
  0
LINE
  5
D1
330
55
100
AcDbEntity
  8
0
  6
Continuous
 62
     7
100
AcDbLine
 10
2.31676345429766
 20
124.4999656679044
 30
0.0
 11
2.31687024144277
 21
146.9898250066444
 31
0.0
  0
LINE
  5
D2
330
55
100
AcDbEntity
  8
0
  6
Continuous
 62
     7
100
AcDbLine
 10
-50.98714422385574
 20
124.4999656679044
 30
0.0
 11
2.31676345429766
 21
124.4999656679044
 31
0.0
  0
LINE
  5
D3
330
55
100
AcDbEntity
  8
0
  6
Continuous
 62
     7
100
AcDbLine
 10
-50.98724646901502
 20
146.9829468444634
 30
0.0
 11
-50.98714422385574
 21
124.4999656679044
 31
0.0
  0
LINE
  5
D4
330
55
100
AcDbEntity
  8
0
  6
Continuous
 62
     7
100
AcDbLine
 10
-49.87256427144095
 20
148.9136115620757
 30
0.0
 11
-50.98724646901502
 21
146.9829468444634
 31
0.0
  0
LINE
  5
D5
330
55
100
AcDbEntity
  8
0
  6
Continuous
 62
     7
100
AcDbLine
 10
-48.80376211793643
 20
148.9136064123706
 30
0.0
 11
-49.87256427144095
 21
148.9136115620757
 31
0.0
  0
LINE
  5
D6
330
55
100
AcDbEntity
  8
0
  6
Continuous
 62
     7
100
AcDbLine
 10
-47.48310811224059
 20
151.2010207969544
 30
0.0
 11
-48.80376211793643
 21
148.9136064123706
 31
0.0
  0
LINE
  5
D7
330
55
100
AcDbEntity
  8
0
  6
Continuous
 62
     7
100
AcDbLine
 10
-49.31583832193843
 20
150.8778701176323
 30
0.0
 11
-47.48310811224059
 21
151.2010207969544
 31
0.0
  0
LINE
  5
D8
330
55
100
AcDbEntity
  8
0
  6
Continuous
 62
     7
100
AcDbLine
 10
-5.48305848989433
 20
161.4998565379845
 30
0.0
 11
-43.18305848945592
 21
161.5000381842144
 31
0.0
  0
LINE
  5
D9
330
55
100
AcDbEntity
  8
0
  6
Continuous
 62
     7
100
AcDbLine
 10
-43.18305848945592
 20
161.5000381842144
 30
0.0
 11
-49.31583832193843
 21
150.8778701176323
 31
0.0
  0
ENDBLK
  5
57
330
55
100
AcDbEntity
  8
0
100
AcDbBlockEnd
  0
BLOCK
  5
5A
330
58
100
AcDbEntity
  8
0
100
AcDbBlockBegin
  2
Rckans1
 70
     0
 10
-24.33518854172763
 20
143.0000000000197
 30
0.0
  3
Rckans1
  1

  0
INSERT
  5
59
330
58
100
AcDbEntity
  8
0
100
AcDbBlockReference
  2
D-RSC_5-select__3
 10
-50.98724646901502
 20
124.4999656679044
 30
0.0
  0
MTEXT
  5
DA
330
58
100
AcDbEntity
  8
1
 62
     6
100
AcDbMText
 10
-24.33518854172785
 20
119.4999656676046
 30
0.0
 40
5.0
 41
0.0
 71
     2
 72
     1
  1
 
  7
CONVERTER_11
 73
     1
 44
1.32052821128451
  0
ENDBLK
  5
5B
330
58
100
AcDbEntity
  8
0
100
AcDbBlockEnd
  0
BLOCK
  5
5D
330
5C
100
AcDbEntity
  8
0
100
AcDbBlockBegin
  2
D-RSC_5-select__4
 70
     0
 10
-80.73765845736838
 20
124.4999656676245
 30
0.0
  3
D-RSC_5-select__4
  1

  0
LINE
  5
DB
330
5C
100
AcDbEntity
  8
0
  6
Continuous
 62
     7
100
AcDbLine
 10
-78.53765845395968
 20
150.8776293736668
 30
0.0
 11
-80.73765845395967
 21
150.8776293739468
 31
0.0
  0
LINE
  5
DC
330
5C
100
AcDbEntity
  8
0
  6
Continuous
 62
     7
100
AcDbLine
 10
-80.73765845450626
 20
146.9898250066445
 30
0.0
 11
-78.53765845450627
 21
146.9898250063645
 31
0.0
  0
LINE
  5
DD
330
5C
100
AcDbEntity
  8
0
  6
Continuous
 62
     7
100
AcDbLine
 10
-78.5376584573684
 20
124.4999656676245
 30
0.0
 11
-78.53765845450627
 21
146.9898250063645
 31
0.0
  0
LINE
  5
DE
330
5C
100
AcDbEntity
  8
0
  6
Continuous
 62
     7
100
AcDbLine
 10
-78.5376584573684
 20
124.4999656676245
 30
0.0
 11
-80.73765845736838
 21
124.4999656679045
 31
0.0
  0
LINE
  5
DF
330
5C
100
AcDbEntity
  8
0
  6
Continuous
 62
     7
100
AcDbLine
 10
-78.53765845241728
 20
161.4998565377046
 30
0.0
 11
-78.53765845124563
 21
161.5000381839345
 31
0.0
  0
LINE
  5
E0
330
5C
100
AcDbEntity
  8
0
  6
Continuous
 62
     7
100
AcDbLine
 10
-78.53765845124563
 20
161.5000381839345
 30
0.0
 11
-80.73765845124564
 21
161.5000381842145
 31
0.0
  0
LINE
  5
E1
330
5C
100
AcDbEntity
  8
0
  6
Continuous
 62
     7
100
AcDbLine
 10
-80.73765845422695
 20
148.9133654536448
 30
0.0
 11
-80.73765845450626
 21
146.9898250066445
 31
0.0
  0
LINE
  5
E2
330
5C
100
AcDbEntity
  8
0
  6
Continuous
 62
     7
100
AcDbLine
 10
-80.73765845395967
 20
150.8776293739468
 30
0.0
 11
-80.73765845419373
 21
148.9133706033499
 31
0.0
  0
LINE
  5
E3
330
5C
100
AcDbEntity
  8
0
  6
Continuous
 62
     7
100
AcDbLine
 10
-78.53765845241728
 20
161.4998565377046
 30
0.0
 11
-80.73765845241726
 21
161.4998565379846
 31
0.0
  0
LINE
  5
E4
330
5C
100
AcDbEntity
  8
0
  6
Continuous
 62
     7
100
AcDbLine
 10
-80.73765845241726
 20
161.4998565379846
 30
0.0
 11
-80.73765845124564
 21
161.5000381842145
 31
0.0
  0
LINE
  5
E5
330
5C
100
AcDbEntity
  8
0
  6
Continuous
 62
     7
100
AcDbLine
 10
-80.73765845395967
 20
150.8776293739468
 30
0.0
 11
-80.73765845241726
 21
161.4998565379846
 31
0.0
  0
LINE
  5
E6
330
5C
100
AcDbEntity
  8
0
  6
Continuous
 62
     7
100
AcDbLine
 10
-80.73765845422695
 20
148.9133654536448
 30
0.0
 11
-80.73765845419373
 21
148.9133706033499
 31
0.0
  0
LINE
  5
E7
330
5C
100
AcDbEntity
  8
0
  6
Continuous
 62
     7
100
AcDbLine
 10
-80.73765845419373
 20
148.9133706033499
 30
0.0
 11
-78.53765845419375
 21
148.91337060307
 31
0.0
  0
LINE
  5
E8
330
5C
100
AcDbEntity
  8
0
  6
Continuous
 62
     7
100
AcDbLine
 10
-78.53765845422696
 20
148.9133654533649
 30
0.0
 11
-80.73765845422695
 21
148.9133654536448
 31
0.0
  0
LINE
  5
E9
330
5C
100
AcDbEntity
  8
0
  6
Continuous
 62
     7
100
AcDbLine
 10
-78.53765845422696
 20
148.9133654533649
 30
0.0
 11
-78.53765845419375
 21
148.91337060307
 31
0.0
  0
LINE
  5
EA
330
5C
100
AcDbEntity
  8
0
  6
Continuous
 62
     7
100
AcDbLine
 10
-78.53765845422696
 20
148.9133654533649
 30
0.0
 11
-78.53765845450627
 21
146.9898250063645
 31
0.0
  0
LINE
  5
EB
330
5C
100
AcDbEntity
  8
0
  6
Continuous
 62
     7
100
AcDbLine
 10
-78.53765845395968
 20
150.8776293736668
 30
0.0
 11
-78.53765845241728
 21
161.4998565377046
 31
0.0
  0
LINE
  5
EC
330
5C
100
AcDbEntity
  8
0
  6
Continuous
 62
     7
100
AcDbLine
 10
-78.53765845395968
 20
150.8776293736668
 30
0.0
 11
-78.53765845419375
 21
148.91337060307
 31
0.0
  0
LINE
  5
ED
330
5C
100
AcDbEntity
  8
0
  6
Continuous
 62
     7
100
AcDbLine
 10
-80.73765845736838
 20
124.4999656679045
 30
0.0
 11
-80.73765845450626
 21
146.9898250066445
 31
0.0
  0
ENDBLK
  5
5E
330
5C
100
AcDbEntity
  8
0
100
AcDbBlockEnd
  0
BLOCK
  5
61
330
5F
100
AcDbEntity
  8
0
100
AcDbBlockBegin
  2
SA_Links1
 70
     0
 10
-79.63765843034402
 20
143.0000000000198
 30
0.0
  3
SA_Links1
  1

  0
INSERT
  5
60
330
5F
100
AcDbEntity
  8
0
100
AcDbBlockReference
  2
D-RSC_5-select__4
 10
-80.73765845736838
 20
124.4999656676245
 30
0.0
  0
MTEXT
  5
EE
330
5F
100
AcDbEntity
  8
1
 62
     6
100
AcDbMText
 10
-79.63765843034402
 20
119.4999656676047
 30
0.0
 40
5.0
 41
0.0
 71
     2
 72
     1
  1
 
  7
CONVERTER_11
 73
     1
 44
1.32052821128451
  0
ENDBLK
  5
62
330
5F
100
AcDbEntity
  8
0
100
AcDbBlockEnd
  0
BLOCK
  5
64
330
63
100
AcDbEntity
  8
0
100
AcDbBlockBegin
  2
D-RSC_5-select__5
 70
     0
 10
-190.3146651261433
 20
124.4999656676247
 30
0.0
  3
D-RSC_5-select__5
  1

  0
LINE
  5
EF
330
63
100
AcDbEntity
  8
0
  6
Continuous
 62
     7
100
AcDbLine
 10
-188.1146651247494
 20
148.913611562076
 30
0.0
 11
-188.1146651245383
 21
146.9829468444636
 31
0.0
  0
LINE
  5
F0
330
63
100
AcDbEntity
  8
0
  6
Continuous
 62
     7
100
AcDbLine
 10
-188.1146651234293
 20
150.877629373947
 30
0.0
 11
-188.1146651247494
 21
148.913611562076
 31
0.0
  0
LINE
  5
F1
330
63
100
AcDbEntity
  8
0
  6
Continuous
 62
     7
100
AcDbLine
 10
-190.3146651247494
 20
148.913611561796
 30
0.0
 11
-190.3146651245383
 21
146.9829468441837
 31
0.0
  0
LINE
  5
F2
330
63
100
AcDbEntity
  8
0
  6
Continuous
 62
     7
100
AcDbLine
 10
-190.3146651234293
 20
150.877629373667
 30
0.0
 11
-190.3146651247494
 21
148.913611561796
 31
0.0
  0
LINE
  5
F3
330
63
100
AcDbEntity
  8
0
  6
Continuous
 62
     7
100
AcDbLine
 10
-190.3146651249821
 20
150.8778701173526
 30
0.0
 11
-190.3146651234293
 21
150.877629373667
 31
0.0
  0
LINE
  5
F4
330
63
100
AcDbEntity
  8
0
  6
Continuous
 62
     7
100
AcDbLine
 10
-190.3146651235273
 20
151.2007977139042
 30
0.0
 11
-190.3146651249821
 21
150.8778701173526
 31
0.0
  0
LINE
  5
F5
330
63
100
AcDbEntity
  8
0
  6
Continuous
 62
     7
100
AcDbLine
 10
-190.3146651261433
 20
161.5000381839347
 30
0.0
 11
-190.3146651235273
 21
151.2007977139042
 31
0.0
  0
LINE
  5
F6
330
63
100
AcDbEntity
  8
0
  6
Continuous
 62
     7
100
AcDbLine
 10
-188.1146651216771
 20
124.4999656679047
 30
0.0
 11
-190.3146651216771
 21
124.4999656676247
 31
0.0
  0
LINE
  5
F7
330
63
100
AcDbEntity
  8
0
  6
Continuous
 62
     7
100
AcDbLine
 10
-188.1146651245383
 20
146.9829468444636
 30
0.0
 11
-188.1146651216771
 21
124.4999656679047
 31
0.0
  0
LINE
  5
F8
330
63
100
AcDbEntity
  8
0
  6
Continuous
 62
     7
100
AcDbLine
 10
-190.3146651245383
 20
146.9829468441837
 30
0.0
 11
-188.1146651245383
 21
146.9829468444636
 31
0.0
  0
LINE
  5
F9
330
63
100
AcDbEntity
  8
0
  6
Continuous
 62
     7
100
AcDbLine
 10
-190.3146651247494
 20
148.913611561796
 30
0.0
 11
-188.1146651247494
 21
148.913611562076
 31
0.0
  0
LINE
  5
FA
330
63
100
AcDbEntity
  8
0
  6
Continuous
 62
     7
100
AcDbLine
 10
-190.3146651261433
 20
161.5000381839347
 30
0.0
 11
-188.1146651261433
 21
161.5000381842147
 31
0.0
  0
LINE
  5
FB
330
63
100
AcDbEntity
  8
0
  6
Continuous
 62
     7
100
AcDbLine
 10
-188.1146651249821
 20
150.8778701176326
 30
0.0
 11
-190.3146651249821
 21
150.8778701173526
 31
0.0
  0
LINE
  5
FC
330
63
100
AcDbEntity
  8
0
  6
Continuous
 62
     7
100
AcDbLine
 10
-188.1146651261433
 20
161.5000381842147
 30
0.0
 11
-188.1146651235274
 21
151.2007977141842
 31
0.0
  0
LINE
  5
FD
330
63
100
AcDbEntity
  8
0
  6
Continuous
 62
     7
100
AcDbLine
 10
-188.1146651234293
 20
150.877629373947
 30
0.0
 11
-188.1146651249821
 21
150.8778701176326
 31
0.0
  0
LINE
  5
FE
330
63
100
AcDbEntity
  8
0
  6
Continuous
 62
     7
100
AcDbLine
 10
-188.1146651249821
 20
150.8778701176326
 30
0.0
 11
-188.1146651235274
 21
151.2007977141842
 31
0.0
  0
LINE
  5
FF
330
63
100
AcDbEntity
  8
0
  6
Continuous
 62
     7
100
AcDbLine
 10
-190.3146651216771
 20
124.4999656676247
 30
0.0
 11
-190.3146651245383
 21
146.9829468441837
 31
0.0
  0
ENDBLK
  5
65
330
63
100
AcDbEntity
  8
0
100
AcDbBlockEnd
  0
BLOCK
  5
68
330
66
100
AcDbEntity
  8
0
100
AcDbBlockBegin
  2
SA_Rechts1
 70
     0
 10
-189.2146651470449
 20
143.00000000002
 30
0.0
  3
SA_Rechts1
  1

  0
INSERT
  5
67
330
66
100
AcDbEntity
  8
0
100
AcDbBlockReference
  2
D-RSC_5-select__5
 10
-190.3146651261433
 20
124.4999656676247
 30
0.0
  0
MTEXT
  5
100
330
66
100
AcDbEntity
  8
1
 62
     6
100
AcDbMText
 10
-189.2146651470449
 20
119.4999656676047
 30
0.0
 40
5.0
 41
0.0
 71
     2
 72
     1
  1
 
  7
CONVERTER_11
 73
     1
 44
1.32052821128451
  0
ENDBLK
  5
69
330
66
100
AcDbEntity
  8
0
100
AcDbBlockEnd
  0
BLOCK
  5
6B
330
6A
100
AcDbEntity
  8
0
100
AcDbBlockBegin
  2
D-RSC_5-select__6
 70
     0
 10
-150.3041169077951
 20
124.4999656676247
 30
0.0
  3
D-RSC_5-select__6
  1

  0
LINE
  5
101
330
6A
100
AcDbEntity
  8
0
  6
Continuous
 62
     7
100
AcDbLine
 10
-142.5041881764579
 20
161.4998565377047
 30
0.0
 11
-104.8041881768964
 21
161.5000381839347
 31
0.0
  0
LINE
  5
102
330
6A
100
AcDbEntity
  8
0
  6
Continuous
 62
     7
100
AcDbLine
 10
-146.8041385535427
 20
151.2007977139042
 30
0.0
 11
-148.1247705167263
 21
148.9133706030701
 31
0.0
  0
LINE
  5
103
330
6A
100
AcDbEntity
  8
0
  6
Continuous
 62
     7
100
AcDbLine
 10
-146.8041385535427
 20
151.2007977139042
 30
0.0
 11
-148.6368656491447
 21
150.877629373667
 31
0.0
  0
LINE
  5
104
330
6A
100
AcDbEntity
  8
0
  6
Continuous
 62
     7
100
AcDbLine
 10
-148.6368656491447
 20
150.877629373667
 30
0.0
 11
-142.5041881764579
 21
161.4998565377047
 31
0.0
  0
LINE
  5
105
330
6A
100
AcDbEntity
  8
0
  6
Continuous
 62
     7
100
AcDbLine
 10
-98.11468239491136
 20
148.913611561796
 30
0.0
 11
-97.00000019733727
 21
146.9829468441836
 31
0.0
  0
LINE
  5
106
330
6A
100
AcDbEntity
  8
0
  6
Continuous
 62
     7
100
AcDbLine
 10
-97.00010244249655
 20
124.4999656676247
 30
0.0
 11
-97.00000019733727
 21
146.9829468441836
 31
0.0
  0
LINE
  5
107
330
6A
100
AcDbEntity
  8
0
  6
Continuous
 62
     7
100
AcDbLine
 10
-150.30401012065
 20
124.4999656676247
 30
0.0
 11
-97.00010244249655
 21
124.4999656676247
 31
0.0
  0
LINE
  5
108
330
6A
100
AcDbEntity
  8
0
  6
Continuous
 62
     7
100
AcDbLine
 10
-150.30401012065
 20
124.4999656676247
 30
0.0
 11
-150.3041169077951
 21
146.9898250063646
 31
0.0
  0
LINE
  5
109
330
6A
100
AcDbEntity
  8
0
  6
Continuous
 62
     7
100
AcDbLine
 10
-149.1935726702308
 20
148.913365453365
 30
0.0
 11
-150.3041169077951
 21
146.9898250063646
 31
0.0
  0
LINE
  5
10A
330
6A
100
AcDbEntity
  8
0
  6
Continuous
 62
     7
100
AcDbLine
 10
-149.1935726702308
 20
148.913365453365
 30
0.0
 11
-148.1247705167263
 21
148.9133706030701
 31
0.0
  0
LINE
  5
10B
330
6A
100
AcDbEntity
  8
0
  6
Continuous
 62
     7
100
AcDbLine
 10
-99.18348454841586
 20
148.9136064120909
 30
0.0
 11
-98.11468239491136
 21
148.913611561796
 31
0.0
  0
LINE
  5
10C
330
6A
100
AcDbEntity
  8
0
  6
Continuous
 62
     7
100
AcDbLine
 10
-100.5041385541117
 20
151.2010207966747
 30
0.0
 11
-99.18348454841586
 21
148.9136064120909
 31
0.0
  0
LINE
  5
10D
330
6A
100
AcDbEntity
  8
0
  6
Continuous
 62
     7
100
AcDbLine
 10
-98.67140834441386
 20
150.8778701173526
 30
0.0
 11
-100.5041385541117
 21
151.2010207966747
 31
0.0
  0
LINE
  5
10E
330
6A
100
AcDbEntity
  8
0
  6
Continuous
 62
     7
100
AcDbLine
 10
-104.8041881768964
 20
161.5000381839347
 30
0.0
 11
-98.67140834441386
 21
150.8778701173526
 31
0.0
  0
LINE
  5
10F
330
6A
100
AcDbEntity
  8
1
  6
DOT_CENTER
 62
     2
100
AcDbLine
 10
-123.652055965432
 20
121.3551682734468
 30
0.0
 11
-123.6520565642647
 21
127.3265896028584
 31
0.0
  0
ENDBLK
  5
6C
330
6A
100
AcDbEntity
  8
0
100
AcDbBlockEnd
  0
BLOCK
  5
6F
330
6D
100
AcDbEntity
  8
0
100
AcDbBlockBegin
  2
Vordans1
 70
     0
 10
-123.6520581245563
 20
143.00000000002
 30
0.0
  3
Vordans1
  1

  0
INSERT
  5
6E
330
6D
100
AcDbEntity
  8
0
100
AcDbBlockReference
  2
D-RSC_5-select__6
 10
-150.3041169077951
 20
124.4999656676247
 30
0.0
  0
MTEXT
  5
110
330
6D
100
AcDbEntity
  8
1
 62
     6
100
AcDbMText
 10
-123.6520581245566
 20
119.4999656676047
 30
0.0
 40
5.0
 41
0.0
 71
     2
 72
     1
  1
 
  7
CONVERTER_11
 73
     1
 44
1.32052821128451
  0
DIMENSION
  5
11B
330
6D
100
AcDbEntity
  8
1
100
AcDbDimension
  2
*D18
 10
-123.652055965432
 20
111.3551682734468
 30
0.0
 11
-113.015021512405
 21
114.7801682734468
 31
0.0
 70
    32
  1
<>
 71
     5
 42
-1.0
 53
0.00013888888889
  3
ME10_DIM_11
100
AcDbAlignedDimension
 13
-97.00010244249655
 23
124.4999656676247
 33
0.0
 14
-123.652055965432
 24
121.3551682734468
 34
0.0
100
AcDbRotatedDimension
  0
DIMENSION
  5
126
330
6D
100
AcDbEntity
  8
1
100
AcDbDimension
  2
*D19
 10
-157.7673166990347
 20
124.4999656676246
 30
0.0
 11
-161.5173166990347
 21
144.4317301822376
 31
0.0
 70
    32
  1
<>
 71
     5
 42
-1.0
 53
90.0
  3
ME10_DIM_12
100
AcDbAlignedDimension
 13
-104.8041881768964
 23
161.5000381839347
 33
0.0
 14
-97.00010244249655
 24
124.4999656676247
 34
0.0
 50
90.0
100
AcDbRotatedDimension
  0
DIMENSION
  5
131
330
6D
100
AcDbEntity
  8
1
100
AcDbDimension
  2
*D20
 10
-97.00010244249653
 20
103.3551682734468
 30
0.0
 11
-125.6520562815742
 21
107.2801682734468
 31
0.0
 70
    32
  1
<>
 71
     5
 42
-1.0
 53
0.00013888888889
  3
ME10_DIM_13
100
AcDbAlignedDimension
 13
-150.30401012065
 23
124.4999656676247
 33
0.0
 14
-97.00010244249655
 24
124.4999656676247
 34
0.0
100
AcDbRotatedDimension
  0
ENDBLK
  5
70
330
6D
100
AcDbEntity
  8
0
100
AcDbBlockEnd
  0
BLOCK
  5
72
330
71
100
AcDbEntity
  8
0
100
AcDbBlockBegin
  2
_rahmen
 70
     0
 10
58.20834704651604
 20
-3.83039501597551
 30
0.0
  3
_rahmen
  1

  0
LINE
  5
132
330
71
100
AcDbEntity
  8
1
  6
Continuous
 62
     6
100
AcDbLine
 10
-71.33645748023397
 20
26.6696049840246
 30
0.0
 11
58.20834704651773
 21
26.6696049840246
 31
0.0
  0
LINE
  5
133
330
71
100
AcDbEntity
  8
1
  6
Continuous
 62
     7
100
AcDbLine
 10
-53.13645748023396
 20
5.4196049840246
 30
0.0
 11
-34.93645748023405
 21
5.4196049840246
 31
0.0
  0
LINE
  5
134
330
71
100
AcDbEntity
  8
1
  6
Continuous
 62
     6
100
AcDbLine
 10
-53.13645748023396
 20
1.1696049840246
 30
0.0
 11
-71.33645748023397
 21
1.16960498402449
 31
0.0
  0
LINE
  5
135
330
71
100
AcDbEntity
  8
1
  6
Continuous
 62
     7
100
AcDbLine
 10
-53.13645748023396
 20
5.4196049840246
 30
0.0
 11
-53.13645748023396
 21
1.1696049840246
 31
0.0
  0
LINE
  5
136
330
71
100
AcDbEntity
  8
1
  6
Continuous
 62
     7
100
AcDbLine
 10
-34.93645748023405
 20
5.4196049840246
 30
0.0
 11
-34.93645748023405
 21
1.16960498402449
 31
0.0
  0
LINE
  5
137
330
71
100
AcDbEntity
  8
1
  6
Continuous
 62
     7
100
AcDbLine
 10
-71.33645748023397
 20
5.41960498402449
 30
0.0
 11
-71.33645748023397
 21
1.16960498402449
 31
0.0
  0
LINE
  5
138
330
71
100
AcDbEntity
  8
1
  6
Continuous
 62
     7
100
AcDbLine
 10
-71.33645748023397
 20
5.41960498402449
 30
0.0
 11
-53.13645748023396
 21
5.4196049840246
 31
0.0
  0
LINE
  5
139
330
71
100
AcDbEntity
  8
1
  6
Continuous
 62
     2
100
AcDbLine
 10
-62.09980259367137
 20
24.79460498402452
 30
0.0
 11
-62.09980259367137
 21
19.79460498402452
 31
0.0
  0
LINE
  5
13A
330
71
100
AcDbEntity
  8
1
  6
Continuous
 62
     2
100
AcDbLine
 10
-62.09980259367137
 20
19.79460498402452
 30
0.0
 11
-67.09980259367137
 21
21.04460498402452
 31
0.0
  0
LINE
  5
13B
330
71
100
AcDbEntity
  8
1
  6
Continuous
 62
     2
100
AcDbLine
 10
-67.09980259367137
 20
21.04460498402452
 30
0.0
 11
-67.09980259367137
 21
23.54460498402452
 31
0.0
  0
LINE
  5
13C
330
71
100
AcDbEntity
  8
1
  6
Continuous
 62
     2
100
AcDbLine
 10
-67.09980259367137
 20
23.54460498402452
 30
0.0
 11
-62.09980259367137
 21
24.79460498402452
 31
0.0
  0
LINE
  5
13D
330
71
100
AcDbEntity
  8
1
  6
Continuous
 62
     6
100
AcDbLine
 10
-193.7916529534822
 20
1.1696049840246
 30
0.0
 11
-228.7916529534821
 21
1.1696049840246
 31
0.0
  0
LINE
  5
13E
330
71
100
AcDbEntity
  8
1
  6
Continuous
 62
     6
100
AcDbLine
 10
58.20834704651773
 20
18.1696049840246
 30
0.0
 11
58.20834704651733
 21
9.6696049840246
 31
0.0
  0
LINE
  5
13F
330
71
100
AcDbEntity
  8
1
  6
Continuous
 62
     6
100
AcDbLine
 10
-34.93645748023405
 20
1.16960498402449
 30
0.0
 11
-35.29165295348398
 21
1.1696049840246
 31
0.0
  0
LINE
  5
140
330
71
100
AcDbEntity
  8
1
  6
Continuous
 62
     6
100
AcDbLine
 10
-187.5916529534842
 20
1.16960498402449
 30
0.0
 11
-193.7916529534822
 21
1.1696049840246
 31
0.0
  0
LINE
  5
141
330
71
100
AcDbEntity
  8
1
  6
Continuous
 62
     7
100
AcDbLine
 10
-34.93645748023405
 20
18.1696049840246
 30
0.0
 11
-34.93645748023405
 21
5.4196049840246
 31
0.0
  0
LINE
  5
142
330
71
100
AcDbEntity
  8
1
  6
Continuous
 62
     7
100
AcDbLine
 10
-71.33645748023397
 20
18.1696049840246
 30
0.0
 11
-71.33645748023397
 21
5.41960498402449
 31
0.0
  0
LINE
  5
143
330
71
100
AcDbEntity
  8
1
  6
Continuous
 62
     6
100
AcDbLine
 10
-85.29165295348395
 20
1.1696049840246
 30
0.0
 11
-135.2916529534842
 21
1.1696049840246
 31
0.0
  0
LINE
  5
144
330
71
100
AcDbEntity
  8
1
  6
Continuous
 62
     6
100
AcDbLine
 10
-187.5916529534842
 20
1.16960498402449
 30
0.0
 11
-185.291652953484
 21
1.1696049840246
 31
0.0
  0
LINE
  5
145
330
71
100
AcDbEntity
  8
1
  6
Continuous
 62
     6
100
AcDbLine
 10
-34.93645748023405
 20
1.16960498402449
 30
0.0
 11
14.70834704651603
 21
1.1696049840246
 31
0.0
  0
LINE
  5
146
330
71
100
AcDbEntity
  8
1
  6
Continuous
 62
     6
100
AcDbLine
 10
58.20834704651604
 20
1.1696049840246
 30
0.0
 11
58.20834704651733
 21
9.6696049840246
 31
0.0
  0
LINE
  5
147
330
71
100
AcDbEntity
  8
1
  6
Continuous
 62
     2
100
AcDbLine
 10
-233.791652953483
 20
1.1696049840246
 30
0.0
 11
-233.791652953483
 21
-3.83039501597551
 31
0.0
  0
LINE
  5
148
330
71
100
AcDbEntity
  8
1
  6
Continuous
 62
     2
100
AcDbLine
 10
-228.7916529534821
 20
1.1696049840246
 30
0.0
 11
-233.791652953483
 21
1.1696049840246
 31
0.0
  0
LINE
  5
149
330
71
100
AcDbEntity
  8
1
  6
Continuous
 62
     2
100
AcDbLine
 10
-228.7916529534821
 20
-3.83039501597551
 30
0.0
 11
-185.291652953484
 21
-3.83039501597551
 31
0.0
  0
LINE
  5
14A
330
71
100
AcDbEntity
  8
1
  6
Continuous
 62
     2
100
AcDbLine
 10
-228.7916529534821
 20
1.1696049840246
 30
0.0
 11
-228.7916529534821
 21
-3.83039501597551
 31
0.0
  0
LINE
  5
14B
330
71
100
AcDbEntity
  8
1
  6
Continuous
 62
     2
100
AcDbLine
 10
14.70834704651603
 20
-3.83039501597551
 30
0.0
 11
-35.29165295348398
 21
-3.83039501597551
 31
0.0
  0
LINE
  5
14C
330
71
100
AcDbEntity
  8
1
  6
Continuous
 62
     2
100
AcDbLine
 10
14.70834704651603
 20
-3.83039501597551
 30
0.0
 11
14.70834704651603
 21
1.1696049840246
 31
0.0
  0
LINE
  5
14D
330
71
100
AcDbEntity
  8
1
  6
Continuous
 62
     2
100
AcDbLine
 10
-35.29165295348398
 20
-3.83039501597551
 30
0.0
 11
-35.29165295348398
 21
1.1696049840246
 31
0.0
  0
LINE
  5
14E
330
71
100
AcDbEntity
  8
1
  6
Continuous
 62
     2
100
AcDbLine
 10
-85.29165295348395
 20
-3.83039501597551
 30
0.0
 11
-35.29165295348398
 21
-3.83039501597551
 31
0.0
  0
LINE
  5
14F
330
71
100
AcDbEntity
  8
1
  6
Continuous
 62
     2
100
AcDbLine
 10
-85.29165295348395
 20
-3.83039501597551
 30
0.0
 11
-85.29165295348395
 21
1.1696049840246
 31
0.0
  0
LINE
  5
150
330
71
100
AcDbEntity
  8
1
  6
Continuous
 62
     2
100
AcDbLine
 10
-135.2916529534842
 20
-3.83039501597551
 30
0.0
 11
-85.29165295348395
 21
-3.83039501597551
 31
0.0
  0
LINE
  5
151
330
71
100
AcDbEntity
  8
1
  6
Continuous
 62
     2
100
AcDbLine
 10
-135.2916529534842
 20
-3.83039501597551
 30
0.0
 11
-135.2916529534842
 21
1.1696049840246
 31
0.0
  0
LINE
  5
152
330
71
100
AcDbEntity
  8
1
  6
Continuous
 62
     2
100
AcDbLine
 10
-185.291652953484
 20
-3.83039501597551
 30
0.0
 11
-135.2916529534842
 21
-3.83039501597551
 31
0.0
  0
LINE
  5
153
330
71
100
AcDbEntity
  8
1
  6
Continuous
 62
     2
100
AcDbLine
 10
-185.291652953484
 20
-3.83039501597551
 30
0.0
 11
-185.291652953484
 21
1.1696049840246
 31
0.0
  0
LINE
  5
154
330
71
100
AcDbEntity
  8
1
  6
Continuous
 62
     6
100
AcDbLine
 10
-228.7916529534822
 20
51.16960498402472
 30
0.0
 11
-228.7916529534821
 21
1.1696049840246
 31
0.0
  0
LINE
  5
155
330
71
100
AcDbEntity
  8
1
  6
Continuous
 62
     2
100
AcDbLine
 10
-233.791652953483
 20
51.16960498402472
 30
0.0
 11
-233.791652953483
 21
1.1696049840246
 31
0.0
  0
LINE
  5
156
330
71
100
AcDbEntity
  8
1
  6
Continuous
 62
     2
100
AcDbLine
 10
-233.791652953483
 20
51.16960498402472
 30
0.0
 11
-228.7916529534822
 21
51.16960498402472
 31
0.0
  0
LINE
  5
157
330
71
100
AcDbEntity
  8
1
  6
Continuous
 62
     6
100
AcDbLine
 10
-228.7916529534825
 20
101.1696049840245
 30
0.0
 11
-228.7916529534822
 21
51.16960498402472
 31
0.0
  0
LINE
  5
158
330
71
100
AcDbEntity
  8
1
  6
Continuous
 62
     2
100
AcDbLine
 10
-233.791652953483
 20
101.1696049840245
 30
0.0
 11
-233.791652953483
 21
51.16960498402472
 31
0.0
  0
LINE
  5
159
330
71
100
AcDbEntity
  8
1
  6
Continuous
 62
     2
100
AcDbLine
 10
-233.791652953483
 20
101.1696049840245
 30
0.0
 11
-228.7916529534825
 21
101.1696049840245
 31
0.0
  0
LINE
  5
15A
330
71
100
AcDbEntity
  8
1
  6
Continuous
 62
     6
100
AcDbLine
 10
-228.791652953483
 20
151.1696049840246
 30
0.0
 11
-228.7916529534825
 21
101.1696049840245
 31
0.0
  0
LINE
  5
15B
330
71
100
AcDbEntity
  8
1
  6
Continuous
 62
     2
100
AcDbLine
 10
-233.791652953483
 20
151.1696049840246
 30
0.0
 11
-233.791652953483
 21
101.1696049840245
 31
0.0
  0
LINE
  5
15C
330
71
100
AcDbEntity
  8
1
  6
Continuous
 62
     2
100
AcDbLine
 10
-233.791652953483
 20
151.1696049840246
 30
0.0
 11
-228.791652953483
 21
151.1696049840246
 31
0.0
  0
LINE
  5
15D
330
71
100
AcDbEntity
  8
1
  6
Continuous
 62
     6
100
AcDbLine
 10
-228.791652953483
 20
186.1696049840246
 30
0.0
 11
-228.791652953483
 21
151.1696049840246
 31
0.0
  0
LINE
  5
15E
330
71
100
AcDbEntity
  8
1
  6
Continuous
 62
     2
100
AcDbLine
 10
-233.791652953483
 20
206.1696049840246
 30
0.0
 11
-233.791652953483
 21
151.1696049840246
 31
0.0
  0
LINE
  5
15F
330
71
100
AcDbEntity
  8
1
  6
Continuous
 62
     2
100
AcDbLine
 10
-233.791652953483
 20
-3.83039501597551
 30
0.0
 11
-228.7916529534821
 21
-3.83039501597551
 31
0.0
  0
LINE
  5
160
330
71
100
AcDbEntity
  8
1
  6
Continuous
 62
     2
100
AcDbLine
 10
-85.29165295348395
 20
206.1696049840246
 30
0.0
 11
-85.29165295348395
 21
196.9609131393233
 31
0.0
  0
LINE
  5
161
330
71
100
AcDbEntity
  8
1
  6
Continuous
 62
     2
100
AcDbLine
 10
-85.29165295348395
 20
206.1696049840246
 30
0.0
 11
-233.791652953483
 21
206.1696049840246
 31
0.0
  0
LINE
  5
162
330
71
100
AcDbEntity
  8
1
  6
Continuous
 62
     2
100
AcDbLine
 10
63.20834704651503
 20
1.1696049840246
 30
0.0
 11
63.20834704651503
 21
51.16960498402472
 31
0.0
  0
LINE
  5
163
330
71
100
AcDbEntity
  8
1
  6
Continuous
 62
     2
100
AcDbLine
 10
63.20834704651503
 20
151.1696049840246
 30
0.0
 11
63.20834704651503
 21
206.1696049840246
 31
0.0
  0
LINE
  5
164
330
71
100
AcDbEntity
  8
1
  6
Continuous
 62
     6
100
AcDbLine
 10
58.20834704651523
 20
151.1696049840246
 30
0.0
 11
58.20834704651503
 21
186.1696049840246
 31
0.0
  0
LINE
  5
165
330
71
100
AcDbEntity
  8
1
  6
Continuous
 62
     2
100
AcDbLine
 10
58.20834704651523
 20
151.1696049840246
 30
0.0
 11
63.20834704651503
 21
151.1696049840246
 31
0.0
  0
LINE
  5
166
330
71
100
AcDbEntity
  8
1
  6
Continuous
 62
     2
100
AcDbLine
 10
63.20834704651503
 20
101.1696049840245
 30
0.0
 11
63.20834704651503
 21
151.1696049840246
 31
0.0
  0
LINE
  5
167
330
71
100
AcDbEntity
  8
1
  6
Continuous
 62
     6
100
AcDbLine
 10
58.20834704651644
 20
101.1696049840245
 30
0.0
 11
58.20834704651523
 21
151.1696049840246
 31
0.0
  0
LINE
  5
168
330
71
100
AcDbEntity
  8
1
  6
Continuous
 62
     2
100
AcDbLine
 10
58.20834704651644
 20
101.1696049840245
 30
0.0
 11
63.20834704651503
 21
101.1696049840245
 31
0.0
  0
LINE
  5
169
330
71
100
AcDbEntity
  8
1
  6
Continuous
 62
     2
100
AcDbLine
 10
63.20834704651503
 20
51.16960498402472
 30
0.0
 11
63.20834704651503
 21
101.1696049840245
 31
0.0
  0
LINE
  5
16A
330
71
100
AcDbEntity
  8
1
  6
Continuous
 62
     6
100
AcDbLine
 10
58.20834704651693
 20
51.16960498402472
 30
0.0
 11
58.20834704651644
 21
101.1696049840245
 31
0.0
  0
LINE
  5
16B
330
71
100
AcDbEntity
  8
1
  6
Continuous
 62
     2
100
AcDbLine
 10
58.20834704651693
 20
51.16960498402472
 30
0.0
 11
63.20834704651503
 21
51.16960498402472
 31
0.0
  0
LINE
  5
16C
330
71
100
AcDbEntity
  8
1
  6
Continuous
 62
     6
100
AcDbLine
 10
58.20834704651503
 20
186.1696049840246
 30
0.0
 11
-228.791652953483
 21
186.1696049840246
 31
0.0
  0
LINE
  5
16D
330
71
100
AcDbEntity
  8
1
  6
Continuous
 62
     2
100
AcDbLine
 10
63.20834704651503
 20
206.1696049840246
 30
0.0
 11
-85.29165295348395
 21
206.1696049840246
 31
0.0
  0
LINE
  5
16E
330
71
100
AcDbEntity
  8
1
  6
Continuous
 62
     6
100
AcDbLine
 10
58.20834704651773
 20
18.1696049840246
 30
0.0
 11
58.20834704651693
 21
51.16960498402472
 31
0.0
  0
LINE
  5
16F
330
71
100
AcDbEntity
  8
1
  6
Continuous
 62
     2
100
AcDbLine
 10
58.20834704651604
 20
-3.83039501597551
 30
0.0
 11
14.70834704651603
 21
-3.83039501597551
 31
0.0
  0
LINE
  5
170
330
71
100
AcDbEntity
  8
1
  6
Continuous
 62
     2
100
AcDbLine
 10
63.20834704651503
 20
-3.83039501597551
 30
0.0
 11
58.20834704651604
 21
-3.83039501597551
 31
0.0
  0
LINE
  5
171
330
71
100
AcDbEntity
  8
1
  6
Continuous
 62
     2
100
AcDbLine
 10
63.20834704651503
 20
-3.83039501597551
 30
0.0
 11
63.20834704651503
 21
1.1696049840246
 31
0.0
  0
LINE
  5
172
330
71
100
AcDbEntity
  8
1
  6
Continuous
 62
     6
100
AcDbLine
 10
-71.33645748023397
 20
18.1696049840246
 30
0.0
 11
-34.93645748023405
 21
18.1696049840246
 31
0.0
  0
LINE
  5
173
330
71
100
AcDbEntity
  8
1
  6
Continuous
 62
     2
100
AcDbLine
 10
58.20834704651604
 20
1.1696049840246
 30
0.0
 11
58.20834704651604
 21
-3.83039501597551
 31
0.0
  0
LINE
  5
174
330
71
100
AcDbEntity
  8
1
  6
Continuous
 62
     2
100
AcDbLine
 10
58.20834704651604
 20
1.1696049840246
 30
0.0
 11
63.20834704651503
 21
1.1696049840246
 31
0.0
  0
LINE
  5
175
330
71
100
AcDbEntity
  8
1
  6
Continuous
 62
     6
100
AcDbLine
 10
-35.29165295348398
 20
1.1696049840246
 30
0.0
 11
-53.13645748023396
 21
1.1696049840246
 31
0.0
  0
LINE
  5
176
330
71
100
AcDbEntity
  8
1
  6
Continuous
 62
     6
100
AcDbLine
 10
14.70834704651603
 20
1.1696049840246
 30
0.0
 11
58.20834704651604
 21
1.1696049840246
 31
0.0
  0
LINE
  5
177
330
71
100
AcDbEntity
  8
1
  6
Continuous
 62
     6
100
AcDbLine
 10
-135.2916529534842
 20
1.1696049840246
 30
0.0
 11
-140.336457480234
 21
1.1696049840246
 31
0.0
  0
LINE
  5
178
330
71
100
AcDbEntity
  8
1
  6
Continuous
 62
     6
100
AcDbLine
 10
-85.29165295348395
 20
1.1696049840246
 30
0.0
 11
-71.33645748023397
 21
1.16960498402449
 31
0.0
  0
LINE
  5
179
102
{ACAD_REACTORS
330
263
330
264
102
}
330
71
100
AcDbEntity
  8
0
  6
Continuous
 62
     2
100
AcDbLine
 10
-63.82183153808717
 20
13.24211974023672
 30
0.0
 11
-63.82183153808717
 21
13.8476550287435
 31
0.0
  0
LINE
  5
17A
102
{ACAD_REACTORS
330
263
330
264
102
}
330
71
100
AcDbEntity
  8
0
  6
Continuous
 62
     2
100
AcDbLine
 10
-63.82183153808717
 20
10.44198513360541
 30
0.0
 11
-63.82183153808717
 21
11.02383654030049
 31
0.0
  0
LINE
  5
17B
102
{ACAD_REACTORS
330
265
330
266
102
}
330
71
100
AcDbEntity
  8
0
  6
Continuous
 62
     2
100
AcDbLine
 10
-41.19234510260796
 20
10.7316492017284
 30
0.0
 11
-41.19234510260796
 21
8.46310498404091
 31
0.0
  0
LINE
  5
17C
102
{ACAD_REACTORS
330
265
330
266
102
}
330
71
100
AcDbEntity
  8
0
  6
Continuous
 62
     2
100
AcDbLine
 10
-42.57339888159555
 20
11.51691450785151
 30
0.0
 11
-39.18845336296687
 21
11.51691450785199
 31
0.0
  0
LINE
  5
17D
102
{ACAD_REACTORS
330
265
330
266
102
}
330
71
100
AcDbEntity
  8
0
  6
Continuous
 62
     2
100
AcDbLine
 10
-39.18845336296687
 20
10.7316492017284
 30
0.0
 11
-39.18845336296687
 21
11.51691450785199
 31
0.0
  0
LINE
  5
17E
102
{ACAD_REACTORS
330
265
330
266
102
}
330
71
100
AcDbEntity
  8
0
  6
Continuous
 62
     2
100
AcDbLine
 10
-39.99955240044025
 20
10.7316492017284
 30
0.0
 11
-39.18845336296687
 21
10.7316492017284
 31
0.0
  0
LINE
  5
17F
102
{ACAD_REACTORS
330
265
330
266
102
}
330
71
100
AcDbEntity
  8
0
  6
Continuous
 62
     2
100
AcDbLine
 10
-39.99955240044025
 20
8.46310498404091
 30
0.0
 11
-39.99955240044025
 21
10.7316492017284
 31
0.0
  0
LINE
  5
180
102
{ACAD_REACTORS
330
265
330
266
102
}
330
71
100
AcDbEntity
  8
0
  6
Continuous
 62
     2
100
AcDbLine
 10
-41.19234510260796
 20
8.46310498404091
 30
0.0
 11
-39.99955240044025
 21
8.46310498404091
 31
0.0
  0
LINE
  5
181
102
{ACAD_REACTORS
330
25B
330
25C
102
}
330
71
100
AcDbEntity
  8
0
  6
Continuous
 62
     2
100
AcDbLine
 10
-41.88893604067246
 20
14.8761049840264
 30
0.0
 11
-43.29166025842176
 21
14.8761049840264
 31
0.0
  0
LINE
  5
182
102
{ACAD_REACTORS
330
25B
330
25C
102
}
330
71
100
AcDbEntity
  8
0
  6
Continuous
 62
     2
100
AcDbLine
 10
-41.88893604067246
 20
14.8761049840264
 30
0.0
 11
-41.28776851878067
 21
14.19628166247091
 31
0.0
  0
LINE
  5
183
102
{ACAD_REACTORS
330
25B
330
25C
102
}
330
71
100
AcDbEntity
  8
0
  6
Continuous
 62
     2
100
AcDbLine
 10
-41.28776851878067
 20
14.19628166247091
 30
0.0
 11
-40.68660099688788
 21
14.8761049840264
 31
0.0
  0
LINE
  5
184
102
{ACAD_REACTORS
330
25B
330
25C
102
}
330
71
100
AcDbEntity
  8
0
  6
Continuous
 62
     2
100
AcDbLine
 10
-40.58640640990717
 20
13.4031544539902
 30
0.0
 11
-39.28387677914066
 21
14.8761049840264
 31
0.0
  0
LINE
  5
185
102
{ACAD_REACTORS
330
25B
330
25C
102
}
330
71
100
AcDbEntity
  8
0
  6
Continuous
 62
     2
100
AcDbLine
 10
-40.58640640990717
 20
13.4031544539902
 30
0.0
 11
-39.18845336296687
 21
11.8222954602152
 31
0.0
  0
LINE
  5
186
102
{ACAD_REACTORS
330
25B
330
25C
102
}
330
71
100
AcDbEntity
  8
0
  6
Continuous
 62
     2
100
AcDbLine
 10
-40.59117758071517
 20
11.8222954602152
 30
0.0
 11
-39.18845336296687
 21
11.8222954602152
 31
0.0
  0
LINE
  5
187
102
{ACAD_REACTORS
330
25B
330
25C
102
}
330
71
100
AcDbEntity
  8
0
  6
Continuous
 62
     2
100
AcDbLine
 10
-41.28776851878067
 20
12.61002724550892
 30
0.0
 11
-40.59117758071517
 21
11.8222954602152
 31
0.0
  0
LINE
  5
188
102
{ACAD_REACTORS
330
259
330
25A
102
}
330
71
100
AcDbEntity
  8
0
  6
Continuous
 62
     2
100
AcDbLine
 10
-44.74686735506435
 20
14.8761049840264
 30
0.0
 11
-43.50636294481146
 21
14.8761049840264
 31
0.0
  0
LINE
  5
189
102
{ACAD_REACTORS
330
259
330
25A
102
}
330
71
100
AcDbEntity
  8
0
  6
Continuous
 62
     2
100
AcDbLine
 10
-43.50636294481146
 20
14.8761049840264
 30
0.0
 11
-43.50636294481146
 21
11.8222954602152
 31
0.0
  0
LINE
  5
18A
102
{ACAD_REACTORS
330
259
330
25A
102
}
330
71
100
AcDbEntity
  8
0
  6
Continuous
 62
     2
100
AcDbLine
 10
-44.74686735506435
 20
11.8222954602152
 30
0.0
 11
-44.74686735506435
 21
14.8761049840264
 31
0.0
  0
LINE
  5
18B
102
{ACAD_REACTORS
330
257
330
258
102
}
330
71
100
AcDbEntity
  8
0
  6
Continuous
 62
     2
100
AcDbLine
 10
-46.21517743760197
 20
9.68462879356539
 30
0.0
 11
-45.91501220040956
 21
10.4524437595521
 31
0.0
  0
LINE
  5
18C
102
{ACAD_REACTORS
330
257
330
258
102
}
330
71
100
AcDbEntity
  8
0
  6
Continuous
 62
     2
100
AcDbLine
 10
-46.69271304222278
 20
8.46310498404091
 30
0.0
 11
-46.48123298874697
 21
9.00406552825879
 31
0.0
  0
LINE
  5
18D
102
{ACAD_REACTORS
330
257
330
258
102
}
330
71
100
AcDbEntity
  8
0
  6
Continuous
 62
     2
100
AcDbLine
 10
-46.53526440553645
 20
11.51691450785199
 30
0.0
 11
-47.93321745247576
 21
8.46310498404091
 31
0.0
  0
LINE
  5
18E
102
{ACAD_REACTORS
330
257
330
258
102
}
330
71
100
AcDbEntity
  8
0
  6
Continuous
 62
     2
100
AcDbLine
 10
-43.89680694834345
 20
8.46310498404091
 30
0.0
 11
-45.13731135859737
 21
8.46310498404091
 31
0.0
  0
LINE
  5
18F
102
{ACAD_REACTORS
330
257
330
258
102
}
330
71
100
AcDbEntity
  8
0
  6
Continuous
 62
     2
100
AcDbLine
 10
-46.48123298874697
 20
9.00406552825879
 30
0.0
 11
-45.34879141207316
 21
9.00406552825879
 31
0.0
  0
LINE
  5
190
102
{ACAD_REACTORS
330
255
330
256
102
}
330
71
100
AcDbEntity
  8
0
  6
Continuous
 62
     2
100
AcDbLine
 10
-50.09072959165798
 20
10.7316492017284
 30
0.0
 11
-49.27963055418337
 21
10.7316492017284
 31
0.0
  0
LINE
  5
191
102
{ACAD_REACTORS
330
255
330
256
102
}
330
71
100
AcDbEntity
  8
0
  6
Continuous
 62
     2
100
AcDbLine
 10
-47.27573881454435
 20
11.51691450785199
 30
0.0
 11
-50.09072959165798
 21
11.51691450785199
 31
0.0
  0
LINE
  5
192
102
{ACAD_REACTORS
330
255
330
256
102
}
330
71
100
AcDbEntity
  8
0
  6
Continuous
 62
     2
100
AcDbLine
 10
-47.27573881454435
 20
10.7316492017284
 30
0.0
 11
-47.27573881454435
 21
11.51691450785199
 31
0.0
  0
LINE
  5
193
102
{ACAD_REACTORS
330
255
330
256
102
}
330
71
100
AcDbEntity
  8
0
  6
Continuous
 62
     2
100
AcDbLine
 10
-48.08683785201686
 20
10.7316492017284
 30
0.0
 11
-47.27573881454435
 21
10.7316492017284
 31
0.0
  0
LINE
  5
194
102
{ACAD_REACTORS
330
255
330
256
102
}
330
71
100
AcDbEntity
  8
0
  6
Continuous
 62
     2
100
AcDbLine
 10
-48.08683785201686
 20
8.46310498404091
 30
0.0
 11
-48.08683785201686
 21
10.7316492017284
 31
0.0
  0
LINE
  5
195
102
{ACAD_REACTORS
330
253
330
254
102
}
330
71
100
AcDbEntity
  8
0
  6
Continuous
 62
     2
100
AcDbLine
 10
-47.41872300791886
 20
11.8222954602152
 30
0.0
 11
-47.41872300791886
 21
13.1310709704199
 31
0.0
  0
LINE
  5
196
102
{ACAD_REACTORS
330
253
330
254
102
}
330
71
100
AcDbEntity
  8
0
  6
Continuous
 62
     2
100
AcDbLine
 10
-48.61151571008537
 20
14.8761049840264
 30
0.0
 11
-48.61151571008537
 21
11.8222954602152
 31
0.0
  0
LINE
  5
197
102
{ACAD_REACTORS
330
253
330
254
102
}
330
71
100
AcDbEntity
  8
0
  6
Continuous
 62
     2
100
AcDbLine
 10
-47.41872300791886
 20
14.8761049840264
 30
0.0
 11
-48.61151571008537
 21
14.8761049840264
 31
0.0
  0
LINE
  5
198
102
{ACAD_REACTORS
330
253
330
254
102
}
330
71
100
AcDbEntity
  8
0
  6
Continuous
 62
     2
100
AcDbLine
 10
-46.17821859766485
 20
14.8761049840264
 30
0.0
 11
-46.17821859766485
 21
13.56732947382122
 31
0.0
  0
LINE
  5
199
102
{ACAD_REACTORS
330
251
330
252
102
}
330
71
100
AcDbEntity
  8
0
  6
Continuous
 62
     2
100
AcDbLine
 10
-53.85995453050506
 20
11.51691450785199
 30
0.0
 11
-53.85995453050506
 21
8.46310498404091
 31
0.0
  0
LINE
  5
19A
102
{ACAD_REACTORS
330
251
330
252
102
}
330
71
100
AcDbEntity
  8
0
  6
Continuous
 62
     2
100
AcDbLine
 10
-52.66716182833747
 20
11.51691450785199
 30
0.0
 11
-53.85995453050506
 21
11.51691450785199
 31
0.0
  0
LINE
  5
19B
102
{ACAD_REACTORS
330
251
330
252
102
}
330
71
100
AcDbEntity
  8
0
  6
Continuous
 62
     2
100
AcDbLine
 10
-51.42665741808457
 20
8.46310498404091
 30
0.0
 11
-50.23386471591817
 21
8.46310498404091
 31
0.0
  0
LINE
  5
19C
102
{ACAD_REACTORS
330
251
330
252
102
}
330
71
100
AcDbEntity
  8
0
  6
Continuous
 62
     2
100
AcDbLine
 10
-53.85995453050506
 20
8.46310498404091
 30
0.0
 11
-52.66716182833747
 21
8.46310498404091
 31
0.0
  0
LINE
  5
19D
102
{ACAD_REACTORS
330
261
330
262
102
}
330
71
100
AcDbEntity
  8
0
  6
Continuous
 62
     2
100
AcDbLine
 10
-50.18600207694595
 20
13.69820702484171
 30
0.0
 11
-50.18600207694595
 21
14.17809137858342
 31
0.0
  0
LINE
  5
19E
102
{ACAD_REACTORS
330
261
330
262
102
}
330
71
100
AcDbEntity
  8
0
  6
Continuous
 62
     2
100
AcDbLine
 10
-48.85007425051828
 20
13.69820702484171
 30
0.0
 11
-50.18600207694595
 21
13.69820702484171
 31
0.0
  0
LINE
  5
19F
102
{ACAD_REACTORS
330
261
330
262
102
}
330
71
100
AcDbEntity
  8
0
  6
Continuous
 62
     2
100
AcDbLine
 10
-48.85007425051828
 20
13.00019341939941
 30
0.0
 11
-48.85007425051828
 21
13.69820702484171
 31
0.0
  0
LINE
  5
1A0
102
{ACAD_REACTORS
330
261
330
262
102
}
330
71
100
AcDbEntity
  8
0
  6
Continuous
 62
     2
100
AcDbLine
 10
-50.18600207694595
 20
13.00019341939941
 30
0.0
 11
-48.85007425051828
 21
13.00019341939941
 31
0.0
  0
LINE
  5
1A1
102
{ACAD_REACTORS
330
24F
330
250
102
}
330
71
100
AcDbEntity
  8
0
  6
Continuous
 62
     2
100
AcDbLine
 10
-53.66895676727287
 20
14.8761049840264
 30
0.0
 11
-53.66895676727287
 21
11.8222954602152
 31
0.0
  0
LINE
  5
1A2
102
{ACAD_REACTORS
330
24F
330
250
102
}
330
71
100
AcDbEntity
  8
0
  6
Continuous
 62
     2
100
AcDbLine
 10
-53.66895676727287
 20
11.8222954602152
 30
0.0
 11
-54.86174946943928
 21
11.8222954602152
 31
0.0
  0
LINE
  5
1A3
102
{ACAD_REACTORS
330
24F
330
250
102
}
330
71
100
AcDbEntity
  8
0
  6
Continuous
 62
     2
100
AcDbLine
 10
-54.86174946943928
 20
11.8222954602152
 30
0.0
 11
-54.86174946943928
 21
12.95656756905902
 31
0.0
  0
LINE
  5
1A4
102
{ACAD_REACTORS
330
24F
330
250
102
}
330
71
100
AcDbEntity
  8
0
  6
Continuous
 62
     2
100
AcDbLine
 10
-55.91140704734676
 20
11.8222954602152
 30
0.0
 11
-57.10419974951336
 21
11.8222954602152
 31
0.0
  0
LINE
  5
1A5
102
{ACAD_REACTORS
330
24F
330
250
102
}
330
71
100
AcDbEntity
  8
0
  6
Continuous
 62
     2
100
AcDbLine
 10
-57.10419974951336
 20
14.8761049840264
 30
0.0
 11
-55.91140704734676
 21
14.8761049840264
 31
0.0
  0
LINE
  5
1A6
102
{ACAD_REACTORS
330
24F
330
250
102
}
330
71
100
AcDbEntity
  8
0
  6
Continuous
 62
     2
100
AcDbLine
 10
-55.91140704734676
 20
14.8761049840264
 30
0.0
 11
-55.91140704734676
 21
13.8072716506918
 31
0.0
  0
LINE
  5
1A7
102
{ACAD_REACTORS
330
24F
330
250
102
}
330
71
100
AcDbEntity
  8
0
  6
Continuous
 62
     2
100
AcDbLine
 10
-55.91140704734676
 20
13.8072716506918
 30
0.0
 11
-54.86174946943928
 21
13.8072716506918
 31
0.0
  0
LINE
  5
1A8
102
{ACAD_REACTORS
330
25D
330
25E
102
}
330
71
100
AcDbEntity
  8
0
  6
Continuous
 62
     2
100
AcDbLine
 10
-59.06037978106696
 20
14.2129991385863
 30
0.0
 11
-58.74308471952506
 21
14.2129991385863
 31
0.0
  0
LINE
  5
1A9
102
{ACAD_REACTORS
330
25D
330
25E
102
}
330
71
100
AcDbEntity
  8
0
  6
Continuous
 62
     2
100
AcDbLine
 10
-59.06037978106696
 20
13.50727148924409
 30
0.0
 11
-58.74308471952506
 21
13.50727148924409
 31
0.0
  0
LINE
  5
1AA
102
{ACAD_REACTORS
330
25D
330
25E
102
}
330
71
100
AcDbEntity
  8
0
  6
Continuous
 62
     2
100
AcDbLine
 10
-60.30088419132107
 20
14.8761049840264
 30
0.0
 11
-60.30088419132107
 21
11.8222954602152
 31
0.0
  0
LINE
  5
1AB
102
{ACAD_REACTORS
330
25D
330
25E
102
}
330
71
100
AcDbEntity
  8
0
  6
Continuous
 62
     2
100
AcDbLine
 10
-60.30088419132107
 20
14.8761049840264
 30
0.0
 11
-58.30161219328667
 21
14.8761049840264
 31
0.0
  0
LINE
  5
1AC
102
{ACAD_REACTORS
330
25D
330
25E
102
}
330
71
100
AcDbEntity
  8
0
  6
Continuous
 62
     2
100
AcDbLine
 10
-59.06037978106696
 20
12.76537370135901
 30
0.0
 11
-58.30161219328667
 21
12.76537370135901
 31
0.0
  0
LINE
  5
1AD
102
{ACAD_REACTORS
330
263
330
264
102
}
330
71
100
AcDbEntity
  8
0
  6
Continuous
 62
     2
100
AcDbLine
 10
-66.39738022461776
 20
13.84783250539161
 30
0.0
 11
-66.39738022461776
 21
9.49137746267451
 31
0.0
  0
LINE
  5
1AE
102
{ACAD_REACTORS
330
263
330
264
102
}
330
71
100
AcDbEntity
  8
0
  6
Continuous
 62
     2
100
AcDbLine
 10
-66.08166330154208
 20
14.1635494284678
 30
0.0
 11
-64.60583004053245
 21
14.1635494284678
 31
0.0
  0
LINE
  5
1AF
102
{ACAD_REACTORS
330
263
330
264
102
}
330
71
100
AcDbEntity
  8
0
  6
Continuous
 62
     2
100
AcDbLine
 10
-64.29011311745586
 20
13.2438078863311
 30
0.0
 11
-64.29011311745586
 21
13.84783250539161
 31
0.0
  0
LINE
  5
1B0
102
{ACAD_REACTORS
330
263
330
264
102
}
330
71
100
AcDbEntity
  8
0
  6
Continuous
 62
     2
100
AcDbLine
 10
-64.29011311745586
 20
9.49137746267451
 30
0.0
 11
-64.29011311745586
 21
11.02214839420611
 31
0.0
  0
LINE
  5
1B1
102
{ACAD_REACTORS
330
263
330
264
102
}
330
71
100
AcDbEntity
  8
0
  6
Continuous
 62
     2
100
AcDbLine
 10
-61.20224588757176
 20
8.46310498404091
 30
0.0
 11
-66.67555797828857
 21
8.46310498404091
 31
0.0
  0
LINE
  5
1B2
102
{ACAD_REACTORS
330
263
330
264
102
}
330
71
100
AcDbEntity
  8
0
  6
Continuous
 62
     2
100
AcDbLine
 10
-60.77800127218788
 20
14.45186036862441
 30
0.0
 11
-60.77800127218788
 21
8.8873495994242
 31
0.0
  0
LINE
  5
1B3
102
{ACAD_REACTORS
330
263
330
264
102
}
330
71
100
AcDbEntity
  8
0
  6
Continuous
 62
     2
100
AcDbLine
 10
-66.67555797828857
 20
14.87610498400821
 30
0.0
 11
-61.20224588757176
 21
14.87610498400821
 31
0.0
  0
LINE
  5
1B4
102
{ACAD_REACTORS
330
263
330
264
102
}
330
71
100
AcDbEntity
  8
0
  6
Continuous
 62
     2
100
AcDbLine
 10
-67.09980259367137
 20
14.45186036862441
 30
0.0
 11
-67.09980259367137
 21
8.8873495994242
 31
0.0
  0
LINE
  5
1B5
102
{ACAD_REACTORS
330
263
330
264
102
}
330
71
100
AcDbEntity
  8
0
  6
Continuous
 62
     2
100
AcDbLine
 10
-64.60583004053245
 20
9.1756605395978
 30
0.0
 11
-66.08166330154208
 21
9.1756605395978
 31
0.0
  0
LINE
  5
1B6
102
{ACAD_REACTORS
330
25D
330
25E
102
}
330
71
100
AcDbEntity
  8
0
  6
Continuous
 62
     2
100
AcDbLine
 10
-59.06037978106696
 20
11.8222954602152
 30
0.0
 11
-59.06037978106696
 21
12.76537370135901
 31
0.0
  0
LINE
  5
1B7
102
{ACAD_REACTORS
330
25D
330
25E
102
}
330
71
100
AcDbEntity
  8
0
  6
Continuous
 62
     2
100
AcDbLine
 10
-60.30088419132107
 20
11.8222954602152
 30
0.0
 11
-59.06037978106696
 21
11.8222954602152
 31
0.0
  0
LINE
  5
1B8
102
{ACAD_REACTORS
330
25D
330
25E
102
}
330
71
100
AcDbEntity
  8
0
  6
Continuous
 62
     2
100
AcDbLine
 10
-59.06037978106696
 20
13.50727148924409
 30
0.0
 11
-59.06037978106696
 21
14.2129991385863
 31
0.0
  0
LINE
  5
1B9
102
{ACAD_REACTORS
330
24F
330
250
102
}
330
71
100
AcDbEntity
  8
0
  6
Continuous
 62
     2
100
AcDbLine
 10
-57.10419974951336
 20
14.8761049840264
 30
0.0
 11
-57.10419974951336
 21
11.8222954602152
 31
0.0
  0
LINE
  5
1BA
102
{ACAD_REACTORS
330
24F
330
250
102
}
330
71
100
AcDbEntity
  8
0
  6
Continuous
 62
     2
100
AcDbLine
 10
-55.91140704734676
 20
12.95656756905902
 30
0.0
 11
-55.91140704734676
 21
11.8222954602152
 31
0.0
  0
LINE
  5
1BB
102
{ACAD_REACTORS
330
24F
330
250
102
}
330
71
100
AcDbEntity
  8
0
  6
Continuous
 62
     2
100
AcDbLine
 10
-54.86174946943928
 20
12.95656756905902
 30
0.0
 11
-55.91140704734676
 21
12.95656756905902
 31
0.0
  0
LINE
  5
1BC
102
{ACAD_REACTORS
330
24F
330
250
102
}
330
71
100
AcDbEntity
  8
0
  6
Continuous
 62
     2
100
AcDbLine
 10
-54.86174946943928
 20
14.8761049840264
 30
0.0
 11
-53.66895676727287
 21
14.8761049840264
 31
0.0
  0
LINE
  5
1BD
102
{ACAD_REACTORS
330
24F
330
250
102
}
330
71
100
AcDbEntity
  8
0
  6
Continuous
 62
     2
100
AcDbLine
 10
-54.86174946943928
 20
13.8072716506918
 30
0.0
 11
-54.86174946943928
 21
14.8761049840264
 31
0.0
  0
LINE
  5
1BE
102
{ACAD_REACTORS
330
261
330
262
102
}
330
71
100
AcDbEntity
  8
0
  6
Continuous
 62
     2
100
AcDbLine
 10
-48.85007425051828
 20
14.17809137858342
 30
0.0
 11
-48.85007425051828
 21
14.8761049840264
 31
0.0
  0
LINE
  5
1BF
102
{ACAD_REACTORS
330
261
330
262
102
}
330
71
100
AcDbEntity
  8
0
  6
Continuous
 62
     2
100
AcDbLine
 10
-52.00039397429927
 20
14.8761049840264
 30
0.0
 11
-48.85007425051828
 21
14.8761049840264
 31
0.0
  0
LINE
  5
1C0
102
{ACAD_REACTORS
330
261
330
262
102
}
330
71
100
AcDbEntity
  8
0
  6
Continuous
 62
     2
100
AcDbLine
 10
-52.00039397429927
 20
11.8222954602152
 30
0.0
 11
-48.85007425051828
 21
11.8222954602152
 31
0.0
  0
LINE
  5
1C1
102
{ACAD_REACTORS
330
261
330
262
102
}
330
71
100
AcDbEntity
  8
0
  6
Continuous
 62
     2
100
AcDbLine
 10
-48.85007425051828
 20
11.8222954602152
 30
0.0
 11
-48.85007425051828
 21
12.5203090656577
 31
0.0
  0
LINE
  5
1C2
102
{ACAD_REACTORS
330
261
330
262
102
}
330
71
100
AcDbEntity
  8
0
  6
Continuous
 62
     2
100
AcDbLine
 10
-48.85007425051828
 20
12.5203090656577
 30
0.0
 11
-50.18600207694595
 21
12.5203090656577
 31
0.0
  0
LINE
  5
1C3
102
{ACAD_REACTORS
330
261
330
262
102
}
330
71
100
AcDbEntity
  8
0
  6
Continuous
 62
     2
100
AcDbLine
 10
-50.18600207694595
 20
12.5203090656577
 30
0.0
 11
-50.18600207694595
 21
13.00019341939941
 31
0.0
  0
LINE
  5
1C4
102
{ACAD_REACTORS
330
261
330
262
102
}
330
71
100
AcDbEntity
  8
0
  6
Continuous
 62
     2
100
AcDbLine
 10
-50.18600207694595
 20
14.17809137858342
 30
0.0
 11
-48.85007425051828
 21
14.17809137858342
 31
0.0
  0
LINE
  5
1C5
102
{ACAD_REACTORS
330
251
330
252
102
}
330
71
100
AcDbEntity
  8
0
  6
Continuous
 62
     2
100
AcDbLine
 10
-52.66716182833747
 20
8.46310498404091
 30
0.0
 11
-52.66716182833747
 21
9.77188049424549
 31
0.0
  0
LINE
  5
1C6
102
{ACAD_REACTORS
330
251
330
252
102
}
330
71
100
AcDbEntity
  8
0
  6
Continuous
 62
     2
100
AcDbLine
 10
-52.66716182833747
 20
9.77188049424549
 30
0.0
 11
-51.42665741808457
 21
8.46310498404091
 31
0.0
  0
LINE
  5
1C7
102
{ACAD_REACTORS
330
251
330
252
102
}
330
71
100
AcDbEntity
  8
0
  6
Continuous
 62
     2
100
AcDbLine
 10
-50.23386471591817
 20
8.46310498404091
 30
0.0
 11
-50.23386471591817
 21
11.51691450785199
 31
0.0
  0
LINE
  5
1C8
102
{ACAD_REACTORS
330
251
330
252
102
}
330
71
100
AcDbEntity
  8
0
  6
Continuous
 62
     2
100
AcDbLine
 10
-50.23386471591817
 20
11.51691450785199
 30
0.0
 11
-51.42665741808457
 21
11.51691450785199
 31
0.0
  0
LINE
  5
1C9
102
{ACAD_REACTORS
330
251
330
252
102
}
330
71
100
AcDbEntity
  8
0
  6
Continuous
 62
     2
100
AcDbLine
 10
-51.42665741808457
 20
11.51691450785199
 30
0.0
 11
-51.42665741808457
 21
10.2081389976469
 31
0.0
  0
LINE
  5
1CA
102
{ACAD_REACTORS
330
251
330
252
102
}
330
71
100
AcDbEntity
  8
0
  6
Continuous
 62
     2
100
AcDbLine
 10
-51.42665741808457
 20
10.2081389976469
 30
0.0
 11
-52.66716182833747
 21
11.51691450785199
 31
0.0
  0
LINE
  5
1CB
102
{ACAD_REACTORS
330
253
330
254
102
}
330
71
100
AcDbEntity
  8
0
  6
Continuous
 62
     2
100
AcDbLine
 10
-47.41872300791886
 20
13.1310709704199
 30
0.0
 11
-46.17821859766485
 21
11.8222954602152
 31
0.0
  0
LINE
  5
1CC
102
{ACAD_REACTORS
330
253
330
254
102
}
330
71
100
AcDbEntity
  8
0
  6
Continuous
 62
     2
100
AcDbLine
 10
-46.17821859766485
 20
11.8222954602152
 30
0.0
 11
-44.98542589549825
 21
11.8222954602152
 31
0.0
  0
LINE
  5
1CD
102
{ACAD_REACTORS
330
253
330
254
102
}
330
71
100
AcDbEntity
  8
0
  6
Continuous
 62
     2
100
AcDbLine
 10
-44.98542589549825
 20
11.8222954602152
 30
0.0
 11
-44.98542589549825
 21
14.8761049840264
 31
0.0
  0
LINE
  5
1CE
102
{ACAD_REACTORS
330
253
330
254
102
}
330
71
100
AcDbEntity
  8
0
  6
Continuous
 62
     2
100
AcDbLine
 10
-44.98542589549825
 20
14.8761049840264
 30
0.0
 11
-46.17821859766485
 21
14.8761049840264
 31
0.0
  0
LINE
  5
1CF
102
{ACAD_REACTORS
330
253
330
254
102
}
330
71
100
AcDbEntity
  8
0
  6
Continuous
 62
     2
100
AcDbLine
 10
-46.17821859766485
 20
13.56732947382122
 30
0.0
 11
-47.41872300791886
 21
14.8761049840264
 31
0.0
  0
LINE
  5
1D0
102
{ACAD_REACTORS
330
253
330
254
102
}
330
71
100
AcDbEntity
  8
0
  6
Continuous
 62
     2
100
AcDbLine
 10
-48.61151571008537
 20
11.8222954602152
 30
0.0
 11
-47.41872300791886
 21
11.8222954602152
 31
0.0
  0
LINE
  5
1D1
102
{ACAD_REACTORS
330
255
330
256
102
}
330
71
100
AcDbEntity
  8
0
  6
Continuous
 62
     2
100
AcDbLine
 10
-50.09072959165798
 20
11.51691450785199
 30
0.0
 11
-50.09072959165798
 21
10.7316492017284
 31
0.0
  0
LINE
  5
1D2
102
{ACAD_REACTORS
330
255
330
256
102
}
330
71
100
AcDbEntity
  8
0
  6
Continuous
 62
     2
100
AcDbLine
 10
-49.27963055418337
 20
10.7316492017284
 30
0.0
 11
-49.27963055418337
 21
8.46310498404091
 31
0.0
  0
LINE
  5
1D3
102
{ACAD_REACTORS
330
255
330
256
102
}
330
71
100
AcDbEntity
  8
0
  6
Continuous
 62
     2
100
AcDbLine
 10
-49.27963055418337
 20
8.46310498404091
 30
0.0
 11
-48.08683785201686
 21
8.46310498404091
 31
0.0
  0
LINE
  5
1D4
102
{ACAD_REACTORS
330
257
330
258
102
}
330
71
100
AcDbEntity
  8
0
  6
Continuous
 62
     2
100
AcDbLine
 10
-45.13731135859737
 20
8.46310498404091
 30
0.0
 11
-45.34879141207316
 21
9.00406552825879
 31
0.0
  0
LINE
  5
1D5
102
{ACAD_REACTORS
330
257
330
258
102
}
330
71
100
AcDbEntity
  8
0
  6
Continuous
 62
     2
100
AcDbLine
 10
-45.29475999528376
 20
11.51691450785199
 30
0.0
 11
-43.89680694834345
 21
8.46310498404091
 31
0.0
  0
LINE
  5
1D6
102
{ACAD_REACTORS
330
257
330
258
102
}
330
71
100
AcDbEntity
  8
0
  6
Continuous
 62
     2
100
AcDbLine
 10
-46.53526440553645
 20
11.51691450785199
 30
0.0
 11
-45.29475999528376
 21
11.51691450785199
 31
0.0
  0
LINE
  5
1D7
102
{ACAD_REACTORS
330
257
330
258
102
}
330
71
100
AcDbEntity
  8
0
  6
Continuous
 62
     2
100
AcDbLine
 10
-47.93321745247576
 20
8.46310498404091
 30
0.0
 11
-46.69271304222278
 21
8.46310498404091
 31
0.0
  0
LINE
  5
1D8
102
{ACAD_REACTORS
330
257
330
258
102
}
330
71
100
AcDbEntity
  8
0
  6
Continuous
 62
     2
100
AcDbLine
 10
-46.21517743760197
 20
9.68462879356539
 30
0.0
 11
-45.61484696321946
 21
9.68462879356539
 31
0.0
  0
LINE
  5
1D9
102
{ACAD_REACTORS
330
257
330
258
102
}
330
71
100
AcDbEntity
  8
0
  6
Continuous
 62
     2
100
AcDbLine
 10
-45.61484696321946
 20
9.68462879356539
 30
0.0
 11
-45.91501220040956
 21
10.4524437595521
 31
0.0
  0
LINE
  5
1DA
102
{ACAD_REACTORS
330
259
330
25A
102
}
330
71
100
AcDbEntity
  8
0
  6
Continuous
 62
     2
100
AcDbLine
 10
-43.50636294481146
 20
11.8222954602152
 30
0.0
 11
-44.74686735506435
 21
11.8222954602152
 31
0.0
  0
LINE
  5
1DB
102
{ACAD_REACTORS
330
25B
330
25C
102
}
330
71
100
AcDbEntity
  8
0
  6
Continuous
 62
     2
100
AcDbLine
 10
-41.98435945684636
 20
11.8222954602152
 30
0.0
 11
-43.38708367459458
 21
11.8222954602152
 31
0.0
  0
LINE
  5
1DC
102
{ACAD_REACTORS
330
25B
330
25C
102
}
330
71
100
AcDbEntity
  8
0
  6
Continuous
 62
     2
100
AcDbLine
 10
-41.98435945684636
 20
11.8222954602152
 30
0.0
 11
-41.28776851878067
 21
12.61002724550892
 31
0.0
  0
LINE
  5
1DD
102
{ACAD_REACTORS
330
25B
330
25C
102
}
330
71
100
AcDbEntity
  8
0
  6
Continuous
 62
     2
100
AcDbLine
 10
-40.68660099688788
 20
14.8761049840264
 30
0.0
 11
-39.28387677914066
 21
14.8761049840264
 31
0.0
  0
LINE
  5
1DE
102
{ACAD_REACTORS
330
25B
330
25C
102
}
330
71
100
AcDbEntity
  8
0
  6
Continuous
 62
     2
100
AcDbLine
 10
-43.29166025842176
 20
14.8761049840264
 30
0.0
 11
-41.98913062765428
 21
13.4031544539902
 31
0.0
  0
LINE
  5
1DF
102
{ACAD_REACTORS
330
25B
330
25C
102
}
330
71
100
AcDbEntity
  8
0
  6
Continuous
 62
     2
100
AcDbLine
 10
-43.38708367459458
 20
11.8222954602152
 30
0.0
 11
-41.98913062765428
 21
13.4031544539902
 31
0.0
  0
LINE
  5
1E0
102
{ACAD_REACTORS
330
265
330
266
102
}
330
71
100
AcDbEntity
  8
0
  6
Continuous
 62
     2
100
AcDbLine
 10
-41.52632705921465
 20
9.51012539220451
 30
0.0
 11
-41.52632705921465
 21
8.63760838540119
 31
0.0
  0
LINE
  5
1E1
102
{ACAD_REACTORS
330
265
330
266
102
}
330
71
100
AcDbEntity
  8
0
  6
Continuous
 62
     2
100
AcDbLine
 10
-42.29598440217606
 20
10.7316492017284
 30
0.0
 11
-41.19234510260796
 21
10.7316492017284
 31
0.0
  0
LINE
  5
1E2
102
{ACAD_REACTORS
330
267
330
268
102
}
330
71
100
AcDbEntity
  8
0
  6
Continuous
 62
     2
100
AcDbLine
 10
-57.62902853846657
 20
9.510125392205
 30
0.0
 11
-57.62902853846657
 21
8.63760838540179
 31
0.0
  0
LINE
  5
1E3
102
{ACAD_REACTORS
330
267
330
268
102
}
330
71
100
AcDbEntity
  8
0
  6
Continuous
 62
     2
100
AcDbLine
 10
-57.62902853846657
 20
10.46989409968791
 30
0.0
 11
-57.62902853846657
 21
11.3424111064912
 31
0.0
  0
LINE
  5
1E4
330
71
100
AcDbEntity
  8
1
  6
Continuous
 62
     7
100
AcDbLine
 10
58.20834704651733
 20
9.6696049840246
 30
0.0
 11
-34.93645748023405
 21
9.6696049840246
 31
0.0
  0
LINE
  5
1E5
330
71
100
AcDbEntity
  8
1
  6
Continuous
 62
     6
100
AcDbLine
 10
-140.336457480234
 20
1.1696049840246
 30
0.0
 11
-185.291652953484
 21
1.1696049840246
 31
0.0
  0
LINE
  5
1E6
330
71
100
AcDbEntity
  8
1
  6
Continuous
 62
     7
100
AcDbLine
 10
49.28993876483852
 20
26.6696049840246
 30
0.0
 11
49.28993876483852
 21
18.1696049840246
 31
0.0
  0
LINE
  5
1E7
330
71
100
AcDbEntity
  8
1
  6
Continuous
 62
     7
100
AcDbLine
 10
22.78993876483892
 20
26.6696049840246
 30
0.0
 11
22.78993876483892
 21
18.1696049840246
 31
0.0
  0
LINE
  5
1E8
330
71
100
AcDbEntity
  8
1
  6
Continuous
 62
     7
100
AcDbLine
 10
-34.93645748023405
 20
18.1696049840246
 30
0.0
 11
-34.93645748023405
 21
26.6696049840246
 31
0.0
  0
LINE
  5
1E9
330
71
100
AcDbEntity
  8
1
  6
Continuous
 62
     7
100
AcDbLine
 10
-71.33645748023397
 20
18.1696049840246
 30
0.0
 11
-71.33645748023397
 21
26.6696049840246
 31
0.0
  0
LINE
  5
1EA
330
71
100
AcDbEntity
  8
1
  6
Continuous
 62
     6
100
AcDbLine
 10
-34.93645748023405
 20
18.1696049840246
 30
0.0
 11
58.20834704651773
 21
18.1696049840246
 31
0.0
  0
LINE
  5
1EB
330
71
100
AcDbEntity
  8
1
  6
Continuous
 62
     7
100
AcDbLine
 10
-7.03645748023396
 20
9.66960498402452
 30
0.0
 11
-7.03645748023396
 21
18.1696049840246
 31
0.0
  0
LINE
  5
1EC
330
71
100
AcDbEntity
  8
1
  6
PHANTOM
 62
     2
100
AcDbLine
 10
-55.84980259367137
 20
22.29460498402452
 30
0.0
 11
-61.34980259367137
 21
22.29460498402452
 31
0.0
  0
LINE
  5
1ED
330
71
100
AcDbEntity
  8
1
  6
PHANTOM
 62
     2
100
AcDbLine
 10
-58.59980259367137
 20
25.04460498402452
 30
0.0
 11
-58.59980259367137
 21
19.54460498402452
 31
0.0
  0
LINE
  5
1EE
330
71
100
AcDbEntity
  8
1
  6
DOT_CENTER
 62
     2
100
AcDbLine
 10
-67.34980259367137
 20
22.29460498402452
 30
0.0
 11
-61.84980259367137
 21
22.29460498402452
 31
0.0
  0
ARC
  5
1EF
102
{ACAD_REACTORS
330
267
330
268
102
}
330
71
100
AcDbEntity
  8
0
  6
Continuous
 62
     2
100
AcDbCircle
 10
-58.96495645558437
 20
6.6773288006903
 30
0.0
 40
4.85259686349807
100
AcDbArc
 50
74.02000874164739
 51
84.84185523037506
  0
ARC
  5
1F0
102
{ACAD_REACTORS
330
267
330
268
102
}
330
71
100
AcDbEntity
  8
0
  6
Continuous
 62
     2
100
AcDbCircle
 10
-58.38891584683066
 20
9.8330891565746
 30
0.0
 40
0.9059297849853234
100
AcDbArc
 50
71.55192388185301
 51
113.3722778881284
  0
ARC
  5
1F1
102
{ACAD_REACTORS
330
267
330
268
102
}
330
71
100
AcDbEntity
  8
0
  6
Continuous
 62
     2
100
AcDbCircle
 10
-58.54535587953268
 20
9.78493831660771
 30
0.0
 40
0.5115800601948034
100
AcDbArc
 50
208.5214732576956
 51
246.6277221118274
  0
ARC
  5
1F2
102
{ACAD_REACTORS
330
267
330
268
102
}
330
71
100
AcDbEntity
  8
0
  6
Continuous
 62
     2
100
AcDbCircle
 10
-58.38891584683066
 20
10.14693033531771
 30
0.0
 40
0.9059297849849213
100
AcDbArc
 50
246.6277221118716
 51
288.4480761181588
  0
ARC
  5
1F3
102
{ACAD_REACTORS
330
267
330
268
102
}
330
71
100
AcDbEntity
  8
0
  6
Continuous
 62
     2
100
AcDbCircle
 10
-58.80708358049145
 20
11.40047611135489
 30
0.0
 40
2.227384008972735
100
AcDbArc
 50
288.4480761181328
 51
301.9309089499593
  0
ARC
  5
1F4
102
{ACAD_REACTORS
330
263
330
264
102
}
330
71
100
AcDbEntity
  8
0
  6
Continuous
 62
     2
100
AcDbCircle
 10
-64.03215731309825
 20
12.1329781402689
 30
0.0
 40
0.9118481501444573
100
AcDbArc
 50
295.3740086781765
 51
64.62599132180762
  0
ARC
  5
1F5
102
{ACAD_REACTORS
330
263
330
264
102
}
330
71
100
AcDbEntity
  8
0
  6
Continuous
 62
     2
100
AcDbCircle
 10
-63.50611461501038
 20
13.8476550287435
 30
0.0
 40
0.3157169230760746
100
AcDbArc
 50
90.18896704254463
 51
180.0
  0
ARC
  5
1F6
102
{ACAD_REACTORS
330
265
330
266
102
}
330
71
100
AcDbEntity
  8
0
  6
Continuous
 62
     2
100
AcDbCircle
 10
-42.29598440217606
 20
9.77712619490231
 30
0.0
 40
0.9545230068260917
100
AcDbArc
 50
90.0
 51
109.337143219432
  0
ARC
  5
1F7
102
{ACAD_REACTORS
330
265
330
266
102
}
330
71
100
AcDbEntity
  8
0
  6
Continuous
 62
     2
100
AcDbCircle
 10
-42.06529714219838
 20
9.9900097459462
 30
0.0
 40
0.9410597353348862
100
AcDbArc
 50
151.4785267423622
 51
208.5214732576697
  0
ARC
  5
1F8
102
{ACAD_REACTORS
330
265
330
266
102
}
330
71
100
AcDbEntity
  8
0
  6
Continuous
 62
     2
100
AcDbCircle
 10
-42.28621436757666
 20
10.14693033531771
 30
0.0
 40
0.905929784985285
100
AcDbArc
 50
246.6277221118184
 51
288.4480761180816
  0
ARC
  5
1F9
102
{ACAD_REACTORS
330
265
330
266
102
}
330
71
100
AcDbEntity
  8
0
  6
Continuous
 62
     2
100
AcDbCircle
 10
-42.70438210123857
 20
11.40047611135429
 30
0.0
 40
2.227384008972745
100
AcDbArc
 50
288.4480761181337
 51
301.9309089499399
  0
ARC
  5
1FA
102
{ACAD_REACTORS
330
265
330
266
102
}
330
71
100
AcDbEntity
  8
0
  6
Continuous
 62
     2
100
AcDbCircle
 10
-42.86225497633137
 20
13.3026906912026
 30
0.0
 40
4.852596863498824
100
AcDbArc
 50
275.1581447696362
 51
285.9799912583387
  0
ARC
  5
1FB
102
{ACAD_REACTORS
330
265
330
266
102
}
330
71
100
AcDbEntity
  8
0
  6
Continuous
 62
     2
100
AcDbCircle
 10
-42.57339888159555
 20
10.10280010798101
 30
0.0
 40
1.639695123940455
100
AcDbArc
 50
195.0618917771011
 51
275.158144769676
  0
ARC
  5
1FC
102
{ACAD_REACTORS
330
25D
330
25E
102
}
330
71
100
AcDbEntity
  8
0
  6
Continuous
 62
     2
100
AcDbCircle
 10
-58.30161219328667
 20
13.82073934269272
 30
0.0
 40
1.05536564133371
100
AcDbArc
 50
270.0
 51
90.0
  0
ARC
  5
1FD
102
{ACAD_REACTORS
330
263
330
264
102
}
330
71
100
AcDbEntity
  8
0
  6
Continuous
 62
     2
100
AcDbCircle
 10
-66.08166330154208
 20
9.49137746267451
 30
0.0
 40
0.3157169230756836
100
AcDbArc
 50
180.0
 51
270.0
  0
ARC
  5
1FE
102
{ACAD_REACTORS
330
263
330
264
102
}
330
71
100
AcDbEntity
  8
0
  6
Continuous
 62
     2
100
AcDbCircle
 10
-64.60583004053245
 20
13.84783250539161
 30
0.0
 40
0.315716923076593
100
AcDbArc
 50
0.0
 51
90.0
  0
ARC
  5
1FF
102
{ACAD_REACTORS
330
263
330
264
102
}
330
71
100
AcDbEntity
  8
0
  6
Continuous
 62
     2
100
AcDbCircle
 10
-64.60583004053245
 20
13.2438078863311
 30
0.0
 40
0.3157169230761203
100
AcDbArc
 50
295.1944106485397
 51
0.0
  0
ARC
  5
200
102
{ACAD_REACTORS
330
263
330
264
102
}
330
71
100
AcDbEntity
  8
0
  6
Continuous
 62
     2
100
AcDbCircle
 10
-64.60583004053245
 20
9.49137746267451
 30
0.0
 40
0.3157169230767067
100
AcDbArc
 50
270.0
 51
0.0
  0
ARC
  5
201
102
{ACAD_REACTORS
330
263
330
264
102
}
330
71
100
AcDbEntity
  8
0
  6
Continuous
 62
     2
100
AcDbCircle
 10
-66.67555797828857
 20
14.45186036862441
 30
0.0
 40
0.4242446153838006
100
AcDbArc
 50
90.0
 51
180.0
  0
ARC
  5
202
102
{ACAD_REACTORS
330
263
330
264
102
}
330
71
100
AcDbEntity
  8
0
  6
Continuous
 62
     2
100
AcDbCircle
 10
-61.20224588757176
 20
14.45186036862441
 30
0.0
 40
0.4242446153838841
100
AcDbArc
 50
0.0
 51
90.0
  0
ARC
  5
203
102
{ACAD_REACTORS
330
263
330
264
102
}
330
71
100
AcDbEntity
  8
0
  6
Continuous
 62
     2
100
AcDbCircle
 10
-61.20224588757176
 20
8.8873495994242
 30
0.0
 40
0.4242446153832873
100
AcDbArc
 50
270.0
 51
0.0
  0
ARC
  5
204
102
{ACAD_REACTORS
330
261
330
262
102
}
330
71
100
AcDbEntity
  8
0
  6
Continuous
 62
     2
100
AcDbCircle
 10
-51.98386200048026
 20
13.34920022212052
 30
0.0
 40
0.7717997786796428
100
AcDbArc
 50
321.8795802028433
 51
38.12041979715956
  0
ARC
  5
205
102
{ACAD_REACTORS
330
261
330
262
102
}
330
71
100
AcDbEntity
  8
0
  6
Continuous
 62
     2
100
AcDbCircle
 10
-51.78412196413407
 20
13.19246904400009
 30
0.0
 40
0.5179085730134437
100
AcDbArc
 50
218.1204197971508
 51
321.8795802028565
  0
ARC
  5
206
102
{ACAD_REACTORS
330
25F
330
260
102
}
330
71
100
AcDbEntity
  8
0
  6
Continuous
 62
     2
100
AcDbCircle
 10
-55.46412955309427
 20
9.9900097459462
 30
0.0
 40
1.458034083652003
100
AcDbArc
 50
297.548148175701
 51
62.45185182429906
  0
ARC
  5
207
102
{ACAD_REACTORS
330
25F
330
260
102
}
330
71
100
AcDbEntity
  8
0
  6
Continuous
 62
     2
100
AcDbCircle
 10
-56.02600933676087
 20
9.9900097459462
 30
0.0
 40
1.458034083651492
100
AcDbArc
 50
117.5481481756621
 51
242.4518518243378
  0
ARC
  5
208
102
{ACAD_REACTORS
330
25F
330
260
102
}
330
71
100
AcDbEntity
  8
0
  6
Continuous
 62
     2
100
AcDbCircle
 10
-55.74506944492757
 20
9.4514347356434
 30
0.0
 40
2.065479772208576
100
AcDbArc
 50
62.45185182430627
 51
117.5481481756661
  0
ARC
  5
209
102
{ACAD_REACTORS
330
25F
330
260
102
}
330
71
100
AcDbEntity
  8
0
  6
Continuous
 62
     2
100
AcDbCircle
 10
-55.74506944492757
 20
10.5285847562495
 30
0.0
 40
2.065479772208505
100
AcDbArc
 50
242.4518518243404
 51
297.5481481756872
  0
ARC
  5
20A
102
{ACAD_REACTORS
330
261
330
262
102
}
330
71
100
AcDbEntity
  8
0
  6
Continuous
 62
     2
100
AcDbCircle
 10
-51.58438192778777
 20
13.34920022212052
 30
0.0
 40
0.7717997786796835
100
AcDbArc
 50
141.8795802028411
 51
218.1204197971561
  0
ARC
  5
20B
102
{ACAD_REACTORS
330
261
330
262
102
}
330
71
100
AcDbEntity
  8
0
  6
Continuous
 62
     2
100
AcDbCircle
 10
-51.78412196413407
 20
13.505931400241
 30
0.0
 40
0.5179085730135277
100
AcDbArc
 50
38.12041979714349
 51
141.8795802028492
  0
ARC
  5
20C
102
{ACAD_REACTORS
330
263
330
264
102
}
330
71
100
AcDbEntity
  8
0
  6
Continuous
 62
     2
100
AcDbCircle
 10
-66.67555797828857
 20
8.8873495994242
 30
0.0
 40
0.4242446153828041
100
AcDbArc
 50
180.0
 51
270.0
  0
ARC
  5
20D
102
{ACAD_REACTORS
330
263
330
264
102
}
330
71
100
AcDbEntity
  8
0
  6
Continuous
 62
     2
100
AcDbCircle
 10
-64.60583004053245
 20
11.02214839420611
 30
0.0
 40
0.315716923076593
100
AcDbArc
 50
0.0
 51
64.80558935146027
  0
ARC
  5
20E
102
{ACAD_REACTORS
330
263
330
264
102
}
330
71
100
AcDbEntity
  8
0
  6
Continuous
 62
     2
100
AcDbCircle
 10
-64.08324559295747
 20
12.1329781402689
 30
0.0
 40
0.9118975235576194
100
AcDbArc
 50
115.1944106485281
 51
244.8055893514878
  0
ARC
  5
20F
102
{ACAD_REACTORS
330
263
330
264
102
}
330
71
100
AcDbEntity
  8
0
  6
Continuous
 62
     2
100
AcDbCircle
 10
-66.08166330154208
 20
13.84783250539161
 30
0.0
 40
0.3157169230761898
100
AcDbArc
 50
90.0
 51
180.0
  0
ARC
  5
210
102
{ACAD_REACTORS
330
25D
330
25E
102
}
330
71
100
AcDbEntity
  8
0
  6
Continuous
 62
     2
100
AcDbCircle
 10
-58.74308471952506
 20
13.86013531391521
 30
0.0
 40
0.35286382467112
100
AcDbArc
 50
270.0
 51
90.0
  0
ARC
  5
211
102
{ACAD_REACTORS
330
261
330
262
102
}
330
71
100
AcDbEntity
  8
0
  6
Continuous
 62
     2
100
AcDbCircle
 10
-52.00039397429927
 20
13.34920022212052
 30
0.0
 40
1.526904761905879
100
AcDbArc
 50
90.0
 51
270.0
  0
ARC
  5
212
102
{ACAD_REACTORS
330
265
330
266
102
}
330
71
100
AcDbEntity
  8
0
  6
Continuous
 62
     2
100
AcDbCircle
 10
-42.57339888159555
 20
9.8772193839113
 30
0.0
 40
1.639695123940214
100
AcDbArc
 50
90.0
 51
164.938108222895
  0
ARC
  5
213
102
{ACAD_REACTORS
330
265
330
266
102
}
330
71
100
AcDbEntity
  8
0
  6
Continuous
 62
     2
100
AcDbCircle
 10
-42.99252672505716
 20
9.9900097459462
 30
0.0
 40
1.20565616839301
100
AcDbArc
 50
164.9381082229028
 51
195.0618917770958
  0
ARC
  5
214
102
{ACAD_REACTORS
330
265
330
266
102
}
330
71
100
AcDbEntity
  8
0
  6
Continuous
 62
     2
100
AcDbCircle
 10
-42.44265440027976
 20
9.78493831660771
 30
0.0
 40
0.5115800601960279
100
AcDbArc
 50
208.5214732576862
 51
246.6277221118442
  0
ARC
  5
215
102
{ACAD_REACTORS
330
265
330
266
102
}
330
71
100
AcDbEntity
  8
0
  6
Continuous
 62
     2
100
AcDbCircle
 10
-42.44265440027976
 20
10.1950811752852
 30
0.0
 40
0.5115800601944116
100
AcDbArc
 50
109.3371432194862
 51
151.4785267424232
  0
ARC
  5
216
102
{ACAD_REACTORS
330
263
330
264
102
}
330
71
100
AcDbEntity
  8
0
  6
Continuous
 62
     2
100
AcDbCircle
 10
-63.50611461501038
 20
10.44198513360541
 30
0.0
 40
0.3157169230767849
100
AcDbArc
 50
180.0
 51
269.8110329574554
  0
ARC
  5
217
102
{ACAD_REACTORS
330
263
330
264
102
}
330
71
100
AcDbEntity
  8
0
  6
Continuous
 62
     2
100
AcDbCircle
 10
-63.50049847970035
 20
12.1448200811744
 30
0.0
 40
2.018561131933267
100
AcDbArc
 50
269.8110329575857
 51
90.18896704241436
  0
ARC
  5
218
102
{ACAD_REACTORS
330
263
330
264
102
}
330
71
100
AcDbEntity
  8
0
  6
Continuous
 62
     2
100
AcDbCircle
 10
-63.50611461501038
 20
13.24211974023672
 30
0.0
 40
0.3157169230767849
100
AcDbArc
 50
180.0
 51
244.6259913216495
  0
ARC
  5
219
102
{ACAD_REACTORS
330
263
330
264
102
}
330
71
100
AcDbEntity
  8
0
  6
Continuous
 62
     2
100
AcDbCircle
 10
-63.50611461501038
 20
11.02383654030049
 30
0.0
 40
0.3157169230765314
100
AcDbArc
 50
115.3740086783506
 51
180.0
  0
ARC
  5
21A
102
{ACAD_REACTORS
330
267
330
268
102
}
330
71
100
AcDbEntity
  8
0
  6
Continuous
 62
     2
100
AcDbCircle
 10
-58.67610036084847
 20
9.8772193839113
 30
0.0
 40
1.639695123940509
100
AcDbArc
 50
84.84185523036211
 51
164.9381082228863
  0
ARC
  5
21B
102
{ACAD_REACTORS
330
267
330
268
102
}
330
71
100
AcDbEntity
  8
0
  6
Continuous
 62
     2
100
AcDbCircle
 10
-59.09522820431127
 20
9.9900097459462
 30
0.0
 40
1.205656168390945
100
AcDbArc
 50
164.9381082228764
 51
195.0618917770948
  0
ARC
  5
21C
102
{ACAD_REACTORS
330
267
330
268
102
}
330
71
100
AcDbEntity
  8
0
  6
Continuous
 62
     2
100
AcDbCircle
 10
-58.67610036084847
 20
10.10280010798101
 30
0.0
 40
1.63969512393938
100
AcDbArc
 50
195.0618917770896
 51
275.1581447696398
  0
ARC
  5
21D
102
{ACAD_REACTORS
330
267
330
268
102
}
330
71
100
AcDbEntity
  8
0
  6
Continuous
 62
     2
100
AcDbCircle
 10
-58.96495645558437
 20
13.3026906912026
 30
0.0
 40
4.852596863498138
100
AcDbArc
 50
275.1581447696249
 51
285.9799912583529
  0
ARC
  5
21E
102
{ACAD_REACTORS
330
267
330
268
102
}
330
71
100
AcDbEntity
  8
0
  6
Continuous
 62
     2
100
AcDbCircle
 10
-58.16799862145237
 20
9.9900097459462
 30
0.0
 40
0.9410597353332563
100
AcDbArc
 50
151.4785267422667
 51
208.5214732577057
  0
ARC
  5
21F
102
{ACAD_REACTORS
330
267
330
268
102
}
330
71
100
AcDbEntity
  8
0
  6
Continuous
 62
     2
100
AcDbCircle
 10
-58.54535587953268
 20
10.1950811752852
 30
0.0
 40
0.5115800601948796
100
AcDbArc
 50
113.3722778881991
 51
151.4785267423044
  0
ARC
  5
220
102
{ACAD_REACTORS
330
267
330
268
102
}
330
71
100
AcDbEntity
  8
0
  6
Continuous
 62
     2
100
AcDbCircle
 10
-58.80708358049145
 20
8.57954338053801
 30
0.0
 40
2.22738400897348
100
AcDbArc
 50
58.06909105004078
 51
71.5519238818672
  0
ARC
  5
221
102
{ACAD_REACTORS
330
25F
330
260
102
}
330
71
100
AcDbEntity
  8
0
  6
Continuous
 62
     2
100
AcDbCircle
 10
-55.74506944492757
 20
10.14674092406671
 30
0.0
 40
0.5179085730133022
100
AcDbArc
 50
38.12041979714608
 51
141.8795802028588
  0
ARC
  5
222
102
{ACAD_REACTORS
330
25F
330
260
102
}
330
71
100
AcDbEntity
  8
0
  6
Continuous
 62
     2
100
AcDbCircle
 10
-55.54532940858147
 20
9.9900097459462
 30
0.0
 40
0.7717997786794577
100
AcDbArc
 50
141.879580202836
 51
218.120419797169
  0
ARC
  5
223
102
{ACAD_REACTORS
330
25F
330
260
102
}
330
71
100
AcDbEntity
  8
0
  6
Continuous
 62
     2
100
AcDbCircle
 10
-55.74506944492757
 20
9.8332785678262
 30
0.0
 40
0.5179085730137298
100
AcDbArc
 50
218.1204197971936
 51
321.8795802028015
  0
ARC
  5
224
102
{ACAD_REACTORS
330
25F
330
260
102
}
330
71
100
AcDbEntity
  8
0
  6
Continuous
 62
     2
100
AcDbCircle
 10
-55.94480948127398
 20
9.9900097459462
 30
0.0
 40
0.7717997786796947
100
AcDbArc
 50
321.8795802028417
 51
38.12041979715329
  0
CIRCLE
  5
225
330
71
100
AcDbEntity
  8
1
  6
Continuous
 62
     2
100
AcDbCircle
 10
-58.59980259367137
 20
22.29460498402452
 30
0.0
 40
2.5
  0
CIRCLE
  5
226
330
71
100
AcDbEntity
  8
1
  6
Continuous
 62
     2
100
AcDbCircle
 10
-58.59980259367137
 20
22.29460498402452
 30
0.0
 40
1.249999999999908
  0
CIRCLE
  5
227
102
{ACAD_REACTORS
330
263
330
264
102
}
330
71
100
AcDbEntity
  8
0
  6
Continuous
 62
     2
100
AcDbCircle
 10
-64.05597232777106
 20
12.1329781402689
 30
0.0
 40
0.4709789327785074
  0
MTEXT
  5
228
330
71
100
AcDbEntity
  8
1
 62
     3
100
AcDbMText
 10
-228.7865851674122
 20
187.9609131393234
 30
0.0
 40
1.8
 41
0.0
 71
     7
 72
     1
  3
Weitergabe sowie Vervielf\U+00e4ltigung dieses Dokuments, Verwertung und \PMitteilung seines Inhalts sind verboten, soweit nicht ausdr\U+00fccklich gestattet. \PZuwiderhandlungen verpflichten zu Schadenersatz. Alle Rechte f\U+00fcr den Fall\Pder Pat
  1
ent-, Gebrauchsmuster- oder Designeintragung vorbehalten.
  7
CONVERTER_11
 73
     1
 44
0.99639855942377
  0
MTEXT
  5
229
330
71
100
AcDbEntity
  8
1
 62
     3
100
AcDbMText
 10
-45.93347532862407
 20
187.9609131393234
 30
0.0
 40
1.8
 41
0.0
 71
     7
 72
     1
  3
Transfer or duplication of this document as well as the utilisation or\Pcommunication of its content are not permitted unless express consent\Pis granted. Violations give rise to claims for damages. All rights reserved\Pin case of patent, utility mo
  1
del or design patent registrations.
  7
CONVERTER_11
 73
     1
 44
0.99639855942377
  0
TEXT
  5
22A
330
71
100
AcDbEntity
  8
1
 62
     2
100
AcDbText
 10
-52.13645748023416
 20
2.41058776903299
 30
0.0
 40
1.8
  1
of
 41
0.9
  7
CONVERTER_11
100
AcDbText
  0
TEXT
  5
22B
330
71
100
AcDbEntity
  8
1
 62
     2
100
AcDbText
 10
-70.33645748023397
 20
2.41058776903293
 30
0.0
 40
1.8
  1
page
 41
0.9
  7
CONVERTER_11
100
AcDbText
  0
TEXT
  5
22C
330
71
100
AcDbEntity
  8
1
 62
     2
100
AcDbText
 10
-61.69019250989197
 20
2.37035633022259
 30
0.0
 40
1.8
  1
1
 41
0.9
  7
CONVERTER_11
100
AcDbText
  0
TEXT
  5
22D
330
71
100
AcDbEntity
  8
1
 62
     2
100
AcDbText
 10
-46.90114867042047
 20
2.41960498402449
 30
0.0
 40
1.8
  1
1
 41
0.9
  7
CONVERTER_11
100
AcDbText
  0
MTEXT
  5
22F
330
71
100
AcDbEntity
  8
1
 62
     7
100
AcDbMText
 10
11.63594478314153
 20
4.41960498402483
 30
0.0
 40
3.0
 41
0.0
 71
     5
 72
     1
  1
D-RSC 5
  7
CONVERTER_12
 73
     1
 44
1.20048019207683
  0
MTEXT
  5
230
330
71
100
AcDbEntity
  8
1
 62
     2
100
AcDbMText
 10
-33.93645748023405
 20
8.6696049840246
 30
0.0
 40
1.8
 41
0.0
 71
     1
 72
     1
  1
description
  7
CONVERTER_11
 73
     1
 44
1.20048019207683
  0
MTEXT
  5
231
330
71
100
AcDbEntity
  8
1
 62
     3
100
AcDbMText
 10
-45.13645748023407
 20
22.2946049840246
 30
0.0
 40
2.5
 41
0.0
 71
     5
 72
     1
  1
DIN A4
  7
CONVERTER_11
 73
     1
 44
1.20048019207683
  0
MTEXT
  5
232
330
71
100
AcDbEntity
  8
1
 62
     7
100
AcDbMText
 10
-231.291652953483
 20
23.6696049840246
 30
0.0
 40
3.5
 41
0.0
 71
     5
 72
     1
  1
D
  7
CONVERTER_11
 73
     1
 44
1.20048019207683
  0
MTEXT
  5
233
330
71
100
AcDbEntity
  8
1
 62
     7
100
AcDbMText
 10
-231.291652953483
 20
76.1696049840246
 30
0.0
 40
3.5
 41
0.0
 71
     5
 72
     1
  1
C
  7
CONVERTER_11
 73
     1
 44
1.20048019207683
  0
MTEXT
  5
234
330
71
100
AcDbEntity
  8
1
 62
     7
100
AcDbMText
 10
-231.291652953483
 20
126.1696049840246
 30
0.0
 40
3.5
 41
0.0
 71
     5
 72
     1
  1
B
  7
CONVERTER_11
 73
     1
 44
1.20048019207683
  0
MTEXT
  5
235
330
71
100
AcDbEntity
  8
1
 62
     7
100
AcDbMText
 10
-231.291652953483
 20
178.6696049840246
 30
0.0
 40
3.5
 41
0.0
 71
     5
 72
     1
  1
A
  7
CONVERTER_11
 73
     1
 44
1.20048019207683
  0
MTEXT
  5
236
330
71
100
AcDbEntity
  8
1
 62
     7
100
AcDbMText
 10
38.95834704651523
 20
-1.33039501597551
 30
0.0
 40
3.5
 41
0.0
 71
     5
 72
     1
  1
6
  7
CONVERTER_11
 73
     1
 44
1.20048019207683
  0
MTEXT
  5
237
330
71
100
AcDbEntity
  8
1
 62
     7
100
AcDbMText
 10
-10.29165295348398
 20
-1.33039501597551
 30
0.0
 40
3.5
 41
0.0
 71
     5
 72
     1
  1
5
  7
CONVERTER_11
 73
     1
 44
1.20048019207683
  0
MTEXT
  5
238
330
71
100
AcDbEntity
  8
1
 62
     7
100
AcDbMText
 10
-60.29165295348406
 20
-1.33039501597551
 30
0.0
 40
3.5
 41
0.0
 71
     5
 72
     1
  1
4
  7
CONVERTER_11
 73
     1
 44
1.20048019207683
  0
MTEXT
  5
239
330
71
100
AcDbEntity
  8
1
 62
     7
100
AcDbMText
 10
-110.291652953484
 20
-1.33039501597551
 30
0.0
 40
3.5
 41
0.0
 71
     5
 72
     1
  1
3
  7
CONVERTER_11
 73
     1
 44
1.20048019207683
  0
MTEXT
  5
23A
330
71
100
AcDbEntity
  8
1
 62
     7
100
AcDbMText
 10
-160.291652953484
 20
-1.33039501597551
 30
0.0
 40
3.5
 41
0.0
 71
     5
 72
     1
  1
2
  7
CONVERTER_11
 73
     1
 44
1.20048019207683
  0
MTEXT
  5
23B
330
71
100
AcDbEntity
  8
1
 62
     7
100
AcDbMText
 10
-209.5416529534836
 20
-1.33039501597551
 30
0.0
 40
3.5
 41
0.0
 71
     5
 72
     1
  1
1
  7
CONVERTER_11
 73
     1
 44
1.20048019207683
  0
MTEXT
  5
23C
330
71
100
AcDbEntity
  8
1
 62
     7
100
AcDbMText
 10
60.70834704651503
 20
23.6696049840246
 30
0.0
 40
3.5
 41
0.0
 71
     5
 72
     1
  1
D
  7
CONVERTER_11
 73
     1
 44
1.20048019207683
  0
MTEXT
  5
23D
330
71
100
AcDbEntity
  8
1
 62
     7
100
AcDbMText
 10
60.70834704651503
 20
126.1696049840265
 30
0.0
 40
3.5
 41
0.0
 71
     5
 72
     1
  1
B
  7
CONVERTER_11
 73
     1
 44
1.20048019207683
  0
MTEXT
  5
23E
330
71
100
AcDbEntity
  8
1
 62
     7
100
AcDbMText
 10
60.70834704651503
 20
178.6696049840246
 30
0.0
 40
3.5
 41
0.0
 71
     5
 72
     1
  1
A
  7
CONVERTER_11
 73
     1
 44
1.20048019207683
  0
MTEXT
  5
23F
330
71
100
AcDbEntity
  8
1
 62
     7
100
AcDbMText
 10
60.70834704651503
 20
76.1696049840265
 30
0.0
 40
3.5
 41
0.0
 71
     5
 72
     1
  1
C
  7
CONVERTER_11
 73
     1
 44
1.20048019207683
  0
MTEXT
  5
240
330
71
100
AcDbEntity
  8
1
 62
     2
100
AcDbMText
 10
-105.7744722052815
 20
13.91960498402452
 30
0.0
 40
2.0
 41
0.0
 71
     5
 72
     1
  1
General Information\P- Simplified representation\P- Document excluded from change process\P- Linear dimensions [mm]
  7
CONVERTER_11
 73
     1
 44
1.20048019207683
  0
TEXT
  5
241
330
71
100
AcDbEntity
  8
1
 62
     7
100
AcDbText
 10
-33.43645748023425
 20
10.9696049840245
 30
0.0
 40
2.5
  1
3058020
 41
0.81
  7
CONVERTER_12
100
AcDbText
  0
MTEXT
  5
242
330
71
100
AcDbEntity
  8
1
 62
     2
100
AcDbMText
 10
-33.83645748023398
 20
17.1696049840246
 30
0.0
 40
1.8
 41
0.0
 71
     1
 72
     1
  1
ident.-No.
  7
CONVERTER_11
 73
     1
 44
1.20048019207683
  0
MTEXT
  5
243
330
71
100
AcDbEntity
  8
1
 62
     2
100
AcDbMText
 10
50.38993876483875
 20
25.6696049840246
 30
0.0
 40
1.8
 41
0.0
 71
     1
 72
     1
  1
scale
  7
CONVERTER_11
 73
     1
 44
1.20048019207683
  0
MTEXT
  5
245
330
71
100
AcDbEntity
  8
1
 62
     3
100
AcDbMText
 10
53.74914290567834
 20
19.4696049840247
 30
0.0
 40
2.5
 41
0.0
 71
     8
 72
     1
  1
1:1
  7
CONVERTER_13
 73
     1
 44
1.32052821128451
  0
TEXT
  5
246
330
71
100
AcDbEntity
  8
1
 62
     7
100
AcDbText
 10
-33.83645748023398
 20
19.4696049840245
 30
0.0
 40
2.5
  1
00535059
 41
0.81
  7
CONVERTER_12
100
AcDbText
  0
MTEXT
  5
248
330
71
100
AcDbEntity
  8
1
 62
     2
100
AcDbMText
 10
-33.83645748023398
 20
25.6696049840246
 30
0.0
 40
1.8
 41
0.0
 71
     1
 72
     1
  1
document-No. / RI
  7
CONVERTER_14
 73
     1
 44
1.32052821128451
  0
TEXT
  5
249
330
71
100
AcDbEntity
  8
1
 62
     3
100
AcDbText
 10
-6.03645748023396
 20
10.9696049840245
 30
0.0
 40
2.5
  1
TECDOC 2D_Productdrawing
 41
0.81
  7
CONVERTER_12
100
AcDbText
  0
MTEXT
  5
24A
330
71
100
AcDbEntity
  8
1
 62
     2
100
AcDbMText
 10
-6.03645748023396
 20
17.16960498402452
 30
0.0
 40
1.8
 41
0.0
 71
     1
 72
     1
  1
document-type
  7
CONVERTER_11
 73
     1
 44
1.20048019207683
  0
MTEXT
  5
24B
330
71
100
AcDbEntity
  8
1
 62
     2
100
AcDbMText
 10
23.78993876483892
 20
25.66960498402452
 30
0.0
 40
1.8
 41
0.0
 71
     1
 72
     1
  1
date
  7
CONVERTER_11
 73
     1
 44
1.32052821128451
  0
TEXT
  5
24C
330
71
100
AcDbEntity
  8
1
 62
     3
100
AcDbText
 10
23.78993876483892
 20
19.4696049840245
 30
0.0
 40
2.5
  1
16.01.2018
 41
0.81
  7
CONVERTER_12
100
AcDbText
  0
TEXT
  5
24D
330
71
100
AcDbEntity
  8
1
 62
     7
100
AcDbText
 10
-13.80654526117817
 20
19.4696049840245
 30
0.0
 40
2.5
  1
01
 41
0.81
  7
CONVERTER_12
100
AcDbText
  0
TEXT
  5
24E
330
71
100
AcDbEntity
  8
1
 62
     7
100
AcDbText
 10
-15.96290975822018
 20
19.4696049840245
 30
0.0
 40
2.5
  1
/
 41
0.9
  7
CONVERTER_11
100
AcDbText
  0
HATCH
  5
24F
330
71
100
AcDbEntity
  8
1
  6
Continuous
 62
     2
100
AcDbHatch
 10
0.0
 20
0.0
 30
0.0
210
0.0
220
0.0
230
1.0
  2
_USER
 70
     0
 71
     1
 91
        1
 92
        1
 93
       12
 72
     1
 10
-53.66895676727287
 20
11.8222954602152
 11
-54.86174946943928
 21
11.8222954602152
 72
     1
 10
-54.86174946943928
 20
11.8222954602152
 11
-54.86174946943928
 21
12.95656756905902
 72
     1
 10
-54.86174946943928
 20
12.95656756905902
 11
-55.91140704734676
 21
12.95656756905902
 72
     1
 10
-55.91140704734676
 20
12.95656756905902
 11
-55.91140704734676
 21
11.8222954602152
 72
     1
 10
-55.91140704734676
 20
11.8222954602152
 11
-57.10419974951336
 21
11.8222954602152
 72
     1
 10
-57.10419974951336
 20
11.8222954602152
 11
-57.10419974951336
 21
14.8761049840264
 72
     1
 10
-57.10419974951336
 20
14.8761049840264
 11
-55.91140704734676
 21
14.8761049840264
 72
     1
 10
-55.91140704734676
 20
14.8761049840264
 11
-55.91140704734676
 21
13.8072716506918
 72
     1
 10
-55.91140704734676
 20
13.8072716506918
 11
-54.86174946943928
 21
13.8072716506918
 72
     1
 10
-54.86174946943928
 20
13.8072716506918
 11
-54.86174946943928
 21
14.8761049840264
 72
     1
 10
-54.86174946943928
 20
14.8761049840264
 11
-53.66895676727287
 21
14.8761049840264
 72
     1
 10
-53.66895676727287
 20
14.8761049840264
 11
-53.66895676727287
 21
11.8222954602152
 97
       12
330
1BC
330
1BD
330
1A7
330
1A6
330
1A5
330
1B9
330
1A4
330
1BA
330
1BB
330
1A3
330
1A2
330
1A1
 75
     1
 76
     0
 52
45.0
 41
0.1
 77
     0
 78
     1
 53
45.0
 43
0.0
 44
0.0
 45
-0.0707106781186548
 46
0.0707106781186548
 79
     0
 98
        1
 10
0.0
 20
0.0
  0
HATCH
  5
250
330
71
100
AcDbEntity
  8
1
  6
Continuous
 62
     2
100
AcDbHatch
 10
0.0
 20
0.0
 30
0.0
210
0.0
220
0.0
230
1.0
  2
_USER
 70
     0
 71
     1
 91
        1
 92
        1
 93
       12
 72
     1
 10
-53.66895676727287
 20
11.8222954602152
 11
-54.86174946943928
 21
11.8222954602152
 72
     1
 10
-54.86174946943928
 20
11.8222954602152
 11
-54.86174946943928
 21
12.95656756905902
 72
     1
 10
-54.86174946943928
 20
12.95656756905902
 11
-55.91140704734676
 21
12.95656756905902
 72
     1
 10
-55.91140704734676
 20
12.95656756905902
 11
-55.91140704734676
 21
11.8222954602152
 72
     1
 10
-55.91140704734676
 20
11.8222954602152
 11
-57.10419974951336
 21
11.8222954602152
 72
     1
 10
-57.10419974951336
 20
11.8222954602152
 11
-57.10419974951336
 21
14.8761049840264
 72
     1
 10
-57.10419974951336
 20
14.8761049840264
 11
-55.91140704734676
 21
14.8761049840264
 72
     1
 10
-55.91140704734676
 20
14.8761049840264
 11
-55.91140704734676
 21
13.8072716506918
 72
     1
 10
-55.91140704734676
 20
13.8072716506918
 11
-54.86174946943928
 21
13.8072716506918
 72
     1
 10
-54.86174946943928
 20
13.8072716506918
 11
-54.86174946943928
 21
14.8761049840264
 72
     1
 10
-54.86174946943928
 20
14.8761049840264
 11
-53.66895676727287
 21
14.8761049840264
 72
     1
 10
-53.66895676727287
 20
14.8761049840264
 11
-53.66895676727287
 21
11.8222954602152
 97
       12
330
1BC
330
1BD
330
1A7
330
1A6
330
1A5
330
1B9
330
1A4
330
1BA
330
1BB
330
1A3
330
1A2
330
1A1
 75
     1
 76
     0
 52
45.0
 41
0.1
 77
     0
 78
     1
 53
45.0
 43
0.0
 44
0.0
 45
-0.0707106781186548
 46
0.0707106781186548
 79
     0
 98
        1
 10
0.0
 20
0.0
  0
HATCH
  5
251
330
71
100
AcDbEntity
  8
1
  6
Continuous
 62
     2
100
AcDbHatch
 10
0.0
 20
0.0
 30
0.0
210
0.0
220
0.0
230
1.0
  2
_USER
 70
     0
 71
     1
 91
        1
 92
        1
 93
       10
 72
     1
 10
-51.42665741808457
 20
10.2081389976469
 11
-52.66716182833747
 21
11.51691450785199
 72
     1
 10
-52.66716182833747
 20
11.51691450785199
 11
-53.85995453050506
 21
11.51691450785199
 72
     1
 10
-53.85995453050506
 20
11.51691450785199
 11
-53.85995453050506
 21
8.46310498404091
 72
     1
 10
-53.85995453050506
 20
8.46310498404091
 11
-52.66716182833747
 21
8.46310498404091
 72
     1
 10
-52.66716182833747
 20
8.46310498404091
 11
-52.66716182833747
 21
9.771880494245494
 72
     1
 10
-52.66716182833747
 20
9.771880494245494
 11
-51.42665741808457
 21
8.46310498404091
 72
     1
 10
-51.42665741808457
 20
8.46310498404091
 11
-50.23386471591817
 21
8.46310498404091
 72
     1
 10
-50.23386471591817
 20
8.46310498404091
 11
-50.23386471591817
 21
11.51691450785199
 72
     1
 10
-50.23386471591817
 20
11.51691450785199
 11
-51.42665741808457
 21
11.51691450785199
 72
     1
 10
-51.42665741808457
 20
11.51691450785199
 11
-51.42665741808457
 21
10.2081389976469
 97
       10
330
1CA
330
19A
330
199
330
19C
330
1C5
330
1C6
330
19B
330
1C7
330
1C8
330
1C9
 75
     1
 76
     0
 52
45.0
 41
0.1
 77
     0
 78
     1
 53
45.0
 43
0.0
 44
0.0
 45
-0.0707106781186548
 46
0.0707106781186548
 79
     0
 98
        1
 10
0.0
 20
0.0
  0
HATCH
  5
252
330
71
100
AcDbEntity
  8
1
  6
Continuous
 62
     2
100
AcDbHatch
 10
0.0
 20
0.0
 30
0.0
210
0.0
220
0.0
230
1.0
  2
_USER
 70
     0
 71
     1
 91
        1
 92
        1
 93
       10
 72
     1
 10
-51.42665741808457
 20
10.2081389976469
 11
-52.66716182833747
 21
11.51691450785199
 72
     1
 10
-52.66716182833747
 20
11.51691450785199
 11
-53.85995453050506
 21
11.51691450785199
 72
     1
 10
-53.85995453050506
 20
11.51691450785199
 11
-53.85995453050506
 21
8.46310498404091
 72
     1
 10
-53.85995453050506
 20
8.46310498404091
 11
-52.66716182833747
 21
8.46310498404091
 72
     1
 10
-52.66716182833747
 20
8.46310498404091
 11
-52.66716182833747
 21
9.771880494245494
 72
     1
 10
-52.66716182833747
 20
9.771880494245494
 11
-51.42665741808457
 21
8.46310498404091
 72
     1
 10
-51.42665741808457
 20
8.46310498404091
 11
-50.23386471591817
 21
8.46310498404091
 72
     1
 10
-50.23386471591817
 20
8.46310498404091
 11
-50.23386471591817
 21
11.51691450785199
 72
     1
 10
-50.23386471591817
 20
11.51691450785199
 11
-51.42665741808457
 21
11.51691450785199
 72
     1
 10
-51.42665741808457
 20
11.51691450785199
 11
-51.42665741808457
 21
10.2081389976469
 97
       10
330
1CA
330
19A
330
199
330
19C
330
1C5
330
1C6
330
19B
330
1C7
330
1C8
330
1C9
 75
     1
 76
     0
 52
45.0
 41
0.1
 77
     0
 78
     1
 53
45.0
 43
0.0
 44
0.0
 45
-0.0707106781186548
 46
0.0707106781186548
 79
     0
 98
        1
 10
0.0
 20
0.0
  0
HATCH
  5
253
330
71
100
AcDbEntity
  8
1
  6
Continuous
 62
     2
100
AcDbHatch
 10
0.0
 20
0.0
 30
0.0
210
0.0
220
0.0
230
1.0
  2
_USER
 70
     0
 71
     1
 91
        1
 92
        1
 93
       10
 72
     1
 10
-46.17821859766485
 20
13.56732947382122
 11
-47.41872300791886
 21
14.8761049840264
 72
     1
 10
-47.41872300791886
 20
14.8761049840264
 11
-48.61151571008537
 21
14.8761049840264
 72
     1
 10
-48.61151571008537
 20
14.8761049840264
 11
-48.61151571008537
 21
11.8222954602152
 72
     1
 10
-48.61151571008537
 20
11.8222954602152
 11
-47.41872300791886
 21
11.8222954602152
 72
     1
 10
-47.41872300791886
 20
11.8222954602152
 11
-47.41872300791886
 21
13.1310709704199
 72
     1
 10
-47.41872300791886
 20
13.1310709704199
 11
-46.17821859766485
 21
11.8222954602152
 72
     1
 10
-46.17821859766485
 20
11.8222954602152
 11
-44.98542589549825
 21
11.8222954602152
 72
     1
 10
-44.98542589549825
 20
11.8222954602152
 11
-44.98542589549825
 21
14.8761049840264
 72
     1
 10
-44.98542589549825
 20
14.8761049840264
 11
-46.17821859766485
 21
14.8761049840264
 72
     1
 10
-46.17821859766485
 20
14.8761049840264
 11
-46.17821859766485
 21
13.56732947382122
 97
       10
330
1CF
330
197
330
196
330
1D0
330
195
330
1CB
330
1CC
330
1CD
330
1CE
330
198
 75
     1
 76
     0
 52
45.0
 41
0.1
 77
     0
 78
     1
 53
45.0
 43
0.0
 44
0.0
 45
-0.0707106781186548
 46
0.0707106781186548
 79
     0
 98
        1
 10
0.0
 20
0.0
  0
HATCH
  5
254
330
71
100
AcDbEntity
  8
1
  6
Continuous
 62
     2
100
AcDbHatch
 10
0.0
 20
0.0
 30
0.0
210
0.0
220
0.0
230
1.0
  2
_USER
 70
     0
 71
     1
 91
        1
 92
        1
 93
       10
 72
     1
 10
-46.17821859766485
 20
13.56732947382122
 11
-47.41872300791886
 21
14.8761049840264
 72
     1
 10
-47.41872300791886
 20
14.8761049840264
 11
-48.61151571008537
 21
14.8761049840264
 72
     1
 10
-48.61151571008537
 20
14.8761049840264
 11
-48.61151571008537
 21
11.8222954602152
 72
     1
 10
-48.61151571008537
 20
11.8222954602152
 11
-47.41872300791886
 21
11.8222954602152
 72
     1
 10
-47.41872300791886
 20
11.8222954602152
 11
-47.41872300791886
 21
13.1310709704199
 72
     1
 10
-47.41872300791886
 20
13.1310709704199
 11
-46.17821859766485
 21
11.8222954602152
 72
     1
 10
-46.17821859766485
 20
11.8222954602152
 11
-44.98542589549825
 21
11.8222954602152
 72
     1
 10
-44.98542589549825
 20
11.8222954602152
 11
-44.98542589549825
 21
14.8761049840264
 72
     1
 10
-44.98542589549825
 20
14.8761049840264
 11
-46.17821859766485
 21
14.8761049840264
 72
     1
 10
-46.17821859766485
 20
14.8761049840264
 11
-46.17821859766485
 21
13.56732947382122
 97
       10
330
1CF
330
197
330
196
330
1D0
330
195
330
1CB
330
1CC
330
1CD
330
1CE
330
198
 75
     1
 76
     0
 52
45.0
 41
0.1
 77
     0
 78
     1
 53
45.0
 43
0.0
 44
0.0
 45
-0.0707106781186548
 46
0.0707106781186548
 79
     0
 98
        1
 10
0.0
 20
0.0
  0
HATCH
  5
255
330
71
100
AcDbEntity
  8
1
  6
Continuous
 62
     2
100
AcDbHatch
 10
0.0
 20
0.0
 30
0.0
210
0.0
220
0.0
230
1.0
  2
_USER
 70
     0
 71
     1
 91
        1
 92
        1
 93
        8
 72
     1
 10
-47.27573881454435
 20
11.51691450785199
 11
-50.09072959165798
 21
11.51691450785199
 72
     1
 10
-50.09072959165798
 20
11.51691450785199
 11
-50.09072959165798
 21
10.7316492017284
 72
     1
 10
-50.09072959165798
 20
10.7316492017284
 11
-49.27963055418337
 21
10.7316492017284
 72
     1
 10
-49.27963055418337
 20
10.7316492017284
 11
-49.27963055418337
 21
8.46310498404091
 72
     1
 10
-49.27963055418337
 20
8.46310498404091
 11
-48.08683785201686
 21
8.46310498404091
 72
     1
 10
-48.08683785201686
 20
8.46310498404091
 11
-48.08683785201686
 21
10.7316492017284
 72
     1
 10
-48.08683785201686
 20
10.7316492017284
 11
-47.27573881454435
 21
10.7316492017284
 72
     1
 10
-47.27573881454435
 20
10.7316492017284
 11
-47.27573881454435
 21
11.51691450785199
 97
        8
330
191
330
1D1
330
190
330
1D2
330
1D3
330
194
330
193
330
192
 75
     1
 76
     0
 52
45.0
 41
0.1
 77
     0
 78
     1
 53
45.0
 43
0.0
 44
0.0
 45
-0.0707106781186548
 46
0.0707106781186548
 79
     0
 98
        1
 10
0.0
 20
0.0
  0
HATCH
  5
256
330
71
100
AcDbEntity
  8
1
  6
Continuous
 62
     2
100
AcDbHatch
 10
0.0
 20
0.0
 30
0.0
210
0.0
220
0.0
230
1.0
  2
_USER
 70
     0
 71
     1
 91
        1
 92
        1
 93
        8
 72
     1
 10
-47.27573881454435
 20
11.51691450785199
 11
-50.09072959165798
 21
11.51691450785199
 72
     1
 10
-50.09072959165798
 20
11.51691450785199
 11
-50.09072959165798
 21
10.7316492017284
 72
     1
 10
-50.09072959165798
 20
10.7316492017284
 11
-49.27963055418337
 21
10.7316492017284
 72
     1
 10
-49.27963055418337
 20
10.7316492017284
 11
-49.27963055418337
 21
8.46310498404091
 72
     1
 10
-49.27963055418337
 20
8.46310498404091
 11
-48.08683785201686
 21
8.46310498404091
 72
     1
 10
-48.08683785201686
 20
8.46310498404091
 11
-48.08683785201686
 21
10.7316492017284
 72
     1
 10
-48.08683785201686
 20
10.7316492017284
 11
-47.27573881454435
 21
10.7316492017284
 72
     1
 10
-47.27573881454435
 20
10.7316492017284
 11
-47.27573881454435
 21
11.51691450785199
 97
        8
330
191
330
1D1
330
190
330
1D2
330
1D3
330
194
330
193
330
192
 75
     1
 76
     0
 52
45.0
 41
0.1
 77
     0
 78
     1
 53
45.0
 43
0.0
 44
0.0
 45
-0.0707106781186548
 46
0.0707106781186548
 79
     0
 98
        1
 10
0.0
 20
0.0
  0
HATCH
  5
257
330
71
100
AcDbEntity
  8
1
  6
Continuous
 62
     2
100
AcDbHatch
 10
0.0
 20
0.0
 30
0.0
210
0.0
220
0.0
230
1.0
  2
_USER
 70
     0
 71
     1
 91
        2
 92
        1
 93
        8
 72
     1
 10
-45.13731135859737
 20
8.46310498404091
 11
-45.34879141207316
 21
9.004065528258792
 72
     1
 10
-45.34879141207316
 20
9.004065528258792
 11
-46.48123298874697
 21
9.004065528258792
 72
     1
 10
-46.48123298874697
 20
9.004065528258792
 11
-46.69271304222278
 21
8.46310498404091
 72
     1
 10
-46.69271304222278
 20
8.46310498404091
 11
-47.93321745247576
 21
8.46310498404091
 72
     1
 10
-47.93321745247576
 20
8.46310498404091
 11
-46.53526440553645
 21
11.51691450785199
 72
     1
 10
-46.53526440553645
 20
11.51691450785199
 11
-45.29475999528376
 21
11.51691450785199
 72
     1
 10
-45.29475999528376
 20
11.51691450785199
 11
-43.89680694834345
 21
8.46310498404091
 72
     1
 10
-43.89680694834345
 20
8.46310498404091
 11
-45.13731135859737
 21
8.46310498404091
 97
        8
330
1D5
330
1D6
330
18D
330
1D7
330
18C
330
18F
330
1D4
330
18E
 92
       16
 93
        3
 72
     1
 10
-46.21517743760197
 20
9.684628793565395
 11
-45.91501220040956
 21
10.4524437595521
 72
     1
 10
-45.91501220040956
 20
10.4524437595521
 11
-45.61484696321946
 21
9.684628793565395
 72
     1
 10
-45.61484696321946
 20
9.684628793565395
 11
-46.21517743760197
 21
9.684628793565395
 97
        3
330
18B
330
1D9
330
1D8
 75
     1
 76
     0
 52
45.0
 41
0.1
 77
     0
 78
     1
 53
45.0
 43
0.0
 44
0.0
 45
-0.0707106781186548
 46
0.0707106781186548
 79
     0
 98
        1
 10
0.0
 20
0.0
  0
HATCH
  5
258
330
71
100
AcDbEntity
  8
1
  6
Continuous
 62
     2
100
AcDbHatch
 10
0.0
 20
0.0
 30
0.0
210
0.0
220
0.0
230
1.0
  2
_USER
 70
     0
 71
     1
 91
        2
 92
        1
 93
        8
 72
     1
 10
-45.13731135859737
 20
8.46310498404091
 11
-45.34879141207316
 21
9.004065528258792
 72
     1
 10
-45.34879141207316
 20
9.004065528258792
 11
-46.48123298874697
 21
9.004065528258792
 72
     1
 10
-46.48123298874697
 20
9.004065528258792
 11
-46.69271304222278
 21
8.46310498404091
 72
     1
 10
-46.69271304222278
 20
8.46310498404091
 11
-47.93321745247576
 21
8.46310498404091
 72
     1
 10
-47.93321745247576
 20
8.46310498404091
 11
-46.53526440553645
 21
11.51691450785199
 72
     1
 10
-46.53526440553645
 20
11.51691450785199
 11
-45.29475999528376
 21
11.51691450785199
 72
     1
 10
-45.29475999528376
 20
11.51691450785199
 11
-43.89680694834345
 21
8.46310498404091
 72
     1
 10
-43.89680694834345
 20
8.46310498404091
 11
-45.13731135859737
 21
8.46310498404091
 97
        8
330
1D5
330
1D6
330
18D
330
1D7
330
18C
330
18F
330
1D4
330
18E
 92
       16
 93
        3
 72
     1
 10
-46.21517743760197
 20
9.684628793565395
 11
-45.91501220040956
 21
10.4524437595521
 72
     1
 10
-45.91501220040956
 20
10.4524437595521
 11
-45.61484696321946
 21
9.684628793565395
 72
     1
 10
-45.61484696321946
 20
9.684628793565395
 11
-46.21517743760197
 21
9.684628793565395
 97
        3
330
18B
330
1D9
330
1D8
 75
     1
 76
     0
 52
45.0
 41
0.1
 77
     0
 78
     1
 53
45.0
 43
0.0
 44
0.0
 45
-0.0707106781186548
 46
0.0707106781186548
 79
     0
 98
        1
 10
0.0
 20
0.0
  0
HATCH
  5
259
330
71
100
AcDbEntity
  8
1
  6
Continuous
 62
     2
100
AcDbHatch
 10
0.0
 20
0.0
 30
0.0
210
0.0
220
0.0
230
1.0
  2
_USER
 70
     0
 71
     1
 91
        1
 92
        1
 93
        4
 72
     1
 10
-43.50636294481146
 20
11.8222954602152
 11
-44.74686735506435
 21
11.8222954602152
 72
     1
 10
-44.74686735506435
 20
11.8222954602152
 11
-44.74686735506435
 21
14.8761049840264
 72
     1
 10
-44.74686735506435
 20
14.8761049840264
 11
-43.50636294481146
 21
14.8761049840264
 72
     1
 10
-43.50636294481146
 20
14.8761049840264
 11
-43.50636294481146
 21
11.8222954602152
 97
        4
330
188
330
18A
330
1DA
330
189
 75
     1
 76
     0
 52
45.0
 41
0.1
 77
     0
 78
     1
 53
45.0
 43
0.0
 44
0.0
 45
-0.0707106781186548
 46
0.0707106781186548
 79
     0
 98
        1
 10
0.0
 20
0.0
  0
HATCH
  5
25A
330
71
100
AcDbEntity
  8
1
  6
Continuous
 62
     2
100
AcDbHatch
 10
0.0
 20
0.0
 30
0.0
210
0.0
220
0.0
230
1.0
  2
_USER
 70
     0
 71
     1
 91
        1
 92
        1
 93
        4
 72
     1
 10
-43.50636294481146
 20
11.8222954602152
 11
-44.74686735506435
 21
11.8222954602152
 72
     1
 10
-44.74686735506435
 20
11.8222954602152
 11
-44.74686735506435
 21
14.8761049840264
 72
     1
 10
-44.74686735506435
 20
14.8761049840264
 11
-43.50636294481146
 21
14.8761049840264
 72
     1
 10
-43.50636294481146
 20
14.8761049840264
 11
-43.50636294481146
 21
11.8222954602152
 97
        4
330
188
330
18A
330
1DA
330
189
 75
     1
 76
     0
 52
45.0
 41
0.1
 77
     0
 78
     1
 53
45.0
 43
0.0
 44
0.0
 45
-0.0707106781186548
 46
0.0707106781186548
 79
     0
 98
        1
 10
0.0
 20
0.0
  0
HATCH
  5
25B
330
71
100
AcDbEntity
  8
1
  6
Continuous
 62
     2
100
AcDbHatch
 10
0.0
 20
0.0
 30
0.0
210
0.0
220
0.0
230
1.0
  2
_USER
 70
     0
 71
     1
 91
        1
 92
        1
 93
       12
 72
     1
 10
-39.28387677914066
 20
14.8761049840264
 11
-40.58640640990717
 21
13.4031544539902
 72
     1
 10
-40.58640640990717
 20
13.4031544539902
 11
-39.18845336296687
 21
11.8222954602152
 72
     1
 10
-39.18845336296687
 20
11.8222954602152
 11
-40.59117758071517
 21
11.8222954602152
 72
     1
 10
-40.59117758071517
 20
11.8222954602152
 11
-41.28776851878067
 21
12.61002724550892
 72
     1
 10
-41.28776851878067
 20
12.61002724550892
 11
-41.98435945684636
 21
11.8222954602152
 72
     1
 10
-41.98435945684636
 20
11.8222954602152
 11
-43.38708367459458
 21
11.8222954602152
 72
     1
 10
-43.38708367459458
 20
11.8222954602152
 11
-41.98913062765428
 21
13.4031544539902
 72
     1
 10
-41.98913062765428
 20
13.4031544539902
 11
-43.29166025842176
 21
14.8761049840264
 72
     1
 10
-43.29166025842176
 20
14.8761049840264
 11
-41.88893604067246
 21
14.8761049840264
 72
     1
 10
-41.88893604067246
 20
14.8761049840264
 11
-41.28776851878067
 21
14.19628166247091
 72
     1
 10
-41.28776851878067
 20
14.19628166247091
 11
-40.68660099688788
 21
14.8761049840264
 72
     1
 10
-40.68660099688788
 20
14.8761049840264
 11
-39.28387677914066
 21
14.8761049840264
 97
       12
330
183
330
182
330
181
330
1DE
330
1DF
330
1DB
330
1DC
330
187
330
186
330
185
330
184
330
1DD
 75
     1
 76
     0
 52
45.0
 41
0.1
 77
     0
 78
     1
 53
45.0
 43
0.0
 44
0.0
 45
-0.0707106781186548
 46
0.0707106781186548
 79
     0
 98
        1
 10
0.0
 20
0.0
  0
HATCH
  5
25C
330
71
100
AcDbEntity
  8
1
  6
Continuous
 62
     2
100
AcDbHatch
 10
0.0
 20
0.0
 30
0.0
210
0.0
220
0.0
230
1.0
  2
_USER
 70
     0
 71
     1
 91
        1
 92
        1
 93
       12
 72
     1
 10
-39.28387677914066
 20
14.8761049840264
 11
-40.58640640990717
 21
13.4031544539902
 72
     1
 10
-40.58640640990717
 20
13.4031544539902
 11
-39.18845336296687
 21
11.8222954602152
 72
     1
 10
-39.18845336296687
 20
11.8222954602152
 11
-40.59117758071517
 21
11.8222954602152
 72
     1
 10
-40.59117758071517
 20
11.8222954602152
 11
-41.28776851878067
 21
12.61002724550892
 72
     1
 10
-41.28776851878067
 20
12.61002724550892
 11
-41.98435945684636
 21
11.8222954602152
 72
     1
 10
-41.98435945684636
 20
11.8222954602152
 11
-43.38708367459458
 21
11.8222954602152
 72
     1
 10
-43.38708367459458
 20
11.8222954602152
 11
-41.98913062765428
 21
13.4031544539902
 72
     1
 10
-41.98913062765428
 20
13.4031544539902
 11
-43.29166025842176
 21
14.8761049840264
 72
     1
 10
-43.29166025842176
 20
14.8761049840264
 11
-41.88893604067246
 21
14.8761049840264
 72
     1
 10
-41.88893604067246
 20
14.8761049840264
 11
-41.28776851878067
 21
14.19628166247091
 72
     1
 10
-41.28776851878067
 20
14.19628166247091
 11
-40.68660099688788
 21
14.8761049840264
 72
     1
 10
-40.68660099688788
 20
14.8761049840264
 11
-39.28387677914066
 21
14.8761049840264
 97
       12
330
183
330
182
330
181
330
1DE
330
1DF
330
1DB
330
1DC
330
187
330
186
330
185
330
184
330
1DD
 75
     1
 76
     0
 52
45.0
 41
0.1
 77
     0
 78
     1
 53
45.0
 43
0.0
 44
0.0
 45
-0.0707106781186548
 46
0.0707106781186548
 79
     0
 98
        1
 10
0.0
 20
0.0
  0
HATCH
  5
25D
330
71
100
AcDbEntity
  8
1
  6
Continuous
 62
     2
100
AcDbHatch
 10
0.0
 20
0.0
 30
0.0
210
0.0
220
0.0
230
1.0
  2
_USER
 70
     0
 71
     1
 91
        2
 92
        1
 93
        6
 72
     1
 10
-58.30161219328667
 20
12.76537370135901
 11
-59.06037978106696
 21
12.76537370135901
 72
     1
 10
-59.06037978106696
 20
12.76537370135901
 11
-59.06037978106696
 21
11.8222954602152
 72
     1
 10
-59.06037978106696
 20
11.8222954602152
 11
-60.30088419132107
 21
11.8222954602152
 72
     1
 10
-60.30088419132107
 20
11.8222954602152
 11
-60.30088419132107
 21
14.8761049840264
 72
     1
 10
-60.30088419132107
 20
14.8761049840264
 11
-58.30161219328667
 21
14.8761049840264
 72
     2
 10
-58.30161219328667
 20
13.82073934269272
 40
1.05536564133371
 50
270.0
 51
450.0
 73
     0
 97
        6
330
1AB
330
1AA
330
1B7
330
1B6
330
1AC
330
1FC
 92
       16
 93
        4
 72
     2
 10
-58.74308471952506
 20
13.86013531391521
 40
0.35286382467112
 50
270.0
 51
450.0
 73
     1
 72
     1
 10
-58.74308471952506
 20
14.2129991385863
 11
-59.06037978106696
 21
14.2129991385863
 72
     1
 10
-59.06037978106696
 20
14.2129991385863
 11
-59.06037978106696
 21
13.50727148924409
 72
     1
 10
-59.06037978106696
 20
13.50727148924409
 11
-58.74308471952506
 21
13.50727148924409
 97
        4
330
210
330
1A8
330
1B8
330
1A9
 75
     1
 76
     0
 52
45.0
 41
0.1
 77
     0
 78
     1
 53
45.0
 43
0.0
 44
0.0
 45
-0.0707106781186548
 46
0.0707106781186548
 79
     0
 98
        1
 10
0.0
 20
0.0
  0
HATCH
  5
25E
330
71
100
AcDbEntity
  8
1
  6
Continuous
 62
     2
100
AcDbHatch
 10
0.0
 20
0.0
 30
0.0
210
0.0
220
0.0
230
1.0
  2
_USER
 70
     0
 71
     1
 91
        2
 92
        1
 93
        6
 72
     1
 10
-58.30161219328667
 20
12.76537370135901
 11
-59.06037978106696
 21
12.76537370135901
 72
     1
 10
-59.06037978106696
 20
12.76537370135901
 11
-59.06037978106696
 21
11.8222954602152
 72
     1
 10
-59.06037978106696
 20
11.8222954602152
 11
-60.30088419132107
 21
11.8222954602152
 72
     1
 10
-60.30088419132107
 20
11.8222954602152
 11
-60.30088419132107
 21
14.8761049840264
 72
     1
 10
-60.30088419132107
 20
14.8761049840264
 11
-58.30161219328667
 21
14.8761049840264
 72
     2
 10
-58.30161219328667
 20
13.82073934269272
 40
1.05536564133371
 50
270.0
 51
450.0
 73
     0
 97
        6
330
1AB
330
1AA
330
1B7
330
1B6
330
1AC
330
1FC
 92
       16
 93
        4
 72
     2
 10
-58.74308471952506
 20
13.86013531391521
 40
0.35286382467112
 50
270.0
 51
450.0
 73
     1
 72
     1
 10
-58.74308471952506
 20
14.2129991385863
 11
-59.06037978106696
 21
14.2129991385863
 72
     1
 10
-59.06037978106696
 20
14.2129991385863
 11
-59.06037978106696
 21
13.50727148924409
 72
     1
 10
-59.06037978106696
 20
13.50727148924409
 11
-58.74308471952506
 21
13.50727148924409
 97
        4
330
210
330
1A8
330
1B8
330
1A9
 75
     1
 76
     0
 52
45.0
 41
0.1
 77
     0
 78
     1
 53
45.0
 43
0.0
 44
0.0
 45
-0.0707106781186548
 46
0.0707106781186548
 79
     0
 98
        1
 10
0.0
 20
0.0
  0
HATCH
  5
25F
330
71
100
AcDbEntity
  8
1
  6
Continuous
 62
     2
100
AcDbHatch
 10
0.0
 20
0.0
 30
0.0
210
0.0
220
0.0
230
1.0
  2
_USER
 70
     0
 71
     1
 91
        2
 92
        1
 93
        4
 72
     2
 10
-55.74506944492757
 20
9.451434735643403
 40
2.065479772208576
 50
62.45185182430627
 51
117.5481481756661
 73
     1
 72
     2
 10
-56.02600933676087
 20
9.990009745946196
 40
1.458034083651492
 50
117.5481481756621
 51
242.4518518243378
 73
     1
 72
     2
 10
-55.74506944492757
 20
10.5285847562495
 40
2.065479772208505
 50
242.4518518243404
 51
297.5481481756872
 73
     1
 72
     2
 10
-55.46412955309427
 20
9.990009745946196
 40
1.458034083652003
 50
297.548148175701
 51
422.451851824299
 73
     1
 97
        4
330
208
330
207
330
209
330
206
 92
       16
 93
        4
 72
     2
 10
-55.94480948127398
 20
9.990009745946196
 40
0.7717997786796947
 50
321.8795802028417
 51
398.1204197971533
 73
     1
 72
     2
 10
-55.74506944492757
 20
10.14674092406671
 40
0.5179085730133022
 50
38.12041979714608
 51
141.8795802028588
 73
     1
 72
     2
 10
-55.54532940858147
 20
9.990009745946196
 40
0.7717997786794577
 50
141.879580202836
 51
218.120419797169
 73
     1
 72
     2
 10
-55.74506944492757
 20
9.833278567826198
 40
0.5179085730137298
 50
218.1204197971936
 51
321.8795802028015
 73
     1
 97
        4
330
224
330
221
330
222
330
223
 75
     1
 76
     0
 52
45.0
 41
0.1
 77
     0
 78
     1
 53
45.0
 43
0.0
 44
0.0
 45
-0.0707106781186548
 46
0.0707106781186548
 79
     0
 98
        1
 10
0.0
 20
0.0
  0
HATCH
  5
260
330
71
100
AcDbEntity
  8
1
  6
Continuous
 62
     2
100
AcDbHatch
 10
0.0
 20
0.0
 30
0.0
210
0.0
220
0.0
230
1.0
  2
_USER
 70
     0
 71
     1
 91
        2
 92
        1
 93
        4
 72
     2
 10
-55.74506944492757
 20
9.451434735643403
 40
2.065479772208576
 50
62.45185182430627
 51
117.5481481756661
 73
     1
 72
     2
 10
-56.02600933676087
 20
9.990009745946196
 40
1.458034083651492
 50
117.5481481756621
 51
242.4518518243378
 73
     1
 72
     2
 10
-55.74506944492757
 20
10.5285847562495
 40
2.065479772208505
 50
242.4518518243404
 51
297.5481481756872
 73
     1
 72
     2
 10
-55.46412955309427
 20
9.990009745946196
 40
1.458034083652003
 50
297.548148175701
 51
422.451851824299
 73
     1
 97
        4
330
208
330
207
330
209
330
206
 92
       16
 93
        4
 72
     2
 10
-55.94480948127398
 20
9.990009745946196
 40
0.7717997786796947
 50
321.8795802028417
 51
398.1204197971533
 73
     1
 72
     2
 10
-55.74506944492757
 20
10.14674092406671
 40
0.5179085730133022
 50
38.12041979714608
 51
141.8795802028588
 73
     1
 72
     2
 10
-55.54532940858147
 20
9.990009745946196
 40
0.7717997786794577
 50
141.879580202836
 51
218.120419797169
 73
     1
 72
     2
 10
-55.74506944492757
 20
9.833278567826198
 40
0.5179085730137298
 50
218.1204197971936
 51
321.8795802028015
 73
     1
 97
        4
330
224
330
221
330
222
330
223
 75
     1
 76
     0
 52
45.0
 41
0.1
 77
     0
 78
     1
 53
45.0
 43
0.0
 44
0.0
 45
-0.0707106781186548
 46
0.0707106781186548
 79
     0
 98
        1
 10
0.0
 20
0.0
  0
HATCH
  5
261
330
71
100
AcDbEntity
  8
1
  6
Continuous
 62
     2
100
AcDbHatch
 10
0.0
 20
0.0
 30
0.0
210
0.0
220
0.0
230
1.0
  2
_USER
 70
     0
 71
     1
 91
        2
 92
        1
 93
       12
 72
     1
 10
-48.85007425051828
 20
14.17809137858342
 11
-50.18600207694595
 21
14.17809137858342
 72
     1
 10
-50.18600207694595
 20
14.17809137858342
 11
-50.18600207694595
 21
13.69820702484171
 72
     1
 10
-50.18600207694595
 20
13.69820702484171
 11
-48.85007425051828
 21
13.69820702484171
 72
     1
 10
-48.85007425051828
 20
13.69820702484171
 11
-48.85007425051828
 21
13.00019341939941
 72
     1
 10
-48.85007425051828
 20
13.00019341939941
 11
-50.18600207694595
 21
13.00019341939941
 72
     1
 10
-50.18600207694595
 20
13.00019341939941
 11
-50.18600207694595
 21
12.5203090656577
 72
     1
 10
-50.18600207694595
 20
12.5203090656577
 11
-48.85007425051828
 21
12.5203090656577
 72
     1
 10
-48.85007425051828
 20
12.5203090656577
 11
-48.85007425051828
 21
11.8222954602152
 72
     1
 10
-48.85007425051828
 20
11.8222954602152
 11
-52.00039397429927
 21
11.8222954602152
 72
     2
 10
-52.00039397429927
 20
13.34920022212052
 40
1.526904761905879
 50
90.0
 51
270.0
 73
     0
 72
     1
 10
-52.00039397429927
 20
14.8761049840264
 11
-48.85007425051828
 21
14.8761049840264
 72
     1
 10
-48.85007425051828
 20
14.8761049840264
 11
-48.85007425051828
 21
14.17809137858342
 97
       12
330
1BF
330
211
330
1C0
330
1C1
330
1C2
330
1C3
330
1A0
330
19F
330
19E
330
19D
330
1C4
330
1BE
 92
       16
 93
        4
 72
     2
 10
-51.78412196413407
 20
13.505931400241
 40
0.5179085730135277
 50
38.12041979714349
 51
141.8795802028492
 73
     1
 72
     2
 10
-51.58438192778777
 20
13.34920022212052
 40
0.7717997786796835
 50
141.8795802028411
 51
218.1204197971561
 73
     1
 72
     2
 10
-51.78412196413407
 20
13.19246904400009
 40
0.5179085730134437
 50
218.1204197971508
 51
321.8795802028565
 73
     1
 72
     2
 10
-51.98386200048026
 20
13.34920022212052
 40
0.7717997786796428
 50
321.8795802028433
 51
398.1204197971596
 73
     1
 97
        4
330
20B
330
20A
330
205
330
204
 75
     1
 76
     0
 52
45.0
 41
0.1
 77
     0
 78
     1
 53
45.0
 43
0.0
 44
0.0
 45
-0.0707106781186548
 46
0.0707106781186548
 79
     0
 98
        1
 10
0.0
 20
0.0
  0
HATCH
  5
262
330
71
100
AcDbEntity
  8
1
  6
Continuous
 62
     2
100
AcDbHatch
 10
0.0
 20
0.0
 30
0.0
210
0.0
220
0.0
230
1.0
  2
_USER
 70
     0
 71
     1
 91
        2
 92
        1
 93
       12
 72
     1
 10
-48.85007425051828
 20
14.17809137858342
 11
-50.18600207694595
 21
14.17809137858342
 72
     1
 10
-50.18600207694595
 20
14.17809137858342
 11
-50.18600207694595
 21
13.69820702484171
 72
     1
 10
-50.18600207694595
 20
13.69820702484171
 11
-48.85007425051828
 21
13.69820702484171
 72
     1
 10
-48.85007425051828
 20
13.69820702484171
 11
-48.85007425051828
 21
13.00019341939941
 72
     1
 10
-48.85007425051828
 20
13.00019341939941
 11
-50.18600207694595
 21
13.00019341939941
 72
     1
 10
-50.18600207694595
 20
13.00019341939941
 11
-50.18600207694595
 21
12.5203090656577
 72
     1
 10
-50.18600207694595
 20
12.5203090656577
 11
-48.85007425051828
 21
12.5203090656577
 72
     1
 10
-48.85007425051828
 20
12.5203090656577
 11
-48.85007425051828
 21
11.8222954602152
 72
     1
 10
-48.85007425051828
 20
11.8222954602152
 11
-52.00039397429927
 21
11.8222954602152
 72
     2
 10
-52.00039397429927
 20
13.34920022212052
 40
1.526904761905879
 50
90.0
 51
270.0
 73
     0
 72
     1
 10
-52.00039397429927
 20
14.8761049840264
 11
-48.85007425051828
 21
14.8761049840264
 72
     1
 10
-48.85007425051828
 20
14.8761049840264
 11
-48.85007425051828
 21
14.17809137858342
 97
       12
330
1BF
330
211
330
1C0
330
1C1
330
1C2
330
1C3
330
1A0
330
19F
330
19E
330
19D
330
1C4
330
1BE
 92
       16
 93
        4
 72
     2
 10
-51.78412196413407
 20
13.505931400241
 40
0.5179085730135277
 50
38.12041979714349
 51
141.8795802028492
 73
     1
 72
     2
 10
-51.58438192778777
 20
13.34920022212052
 40
0.7717997786796835
 50
141.8795802028411
 51
218.1204197971561
 73
     1
 72
     2
 10
-51.78412196413407
 20
13.19246904400009
 40
0.5179085730134437
 50
218.1204197971508
 51
321.8795802028565
 73
     1
 72
     2
 10
-51.98386200048026
 20
13.34920022212052
 40
0.7717997786796428
 50
321.8795802028433
 51
398.1204197971596
 73
     1
 97
        4
330
20B
330
20A
330
205
330
204
 75
     1
 76
     0
 52
45.0
 41
0.1
 77
     0
 78
     1
 53
45.0
 43
0.0
 44
0.0
 45
-0.0707106781186548
 46
0.0707106781186548
 79
     0
 98
        1
 10
0.0
 20
0.0
  0
HATCH
  5
263
330
71
100
AcDbEntity
  8
1
  6
Continuous
 62
     2
100
AcDbHatch
 10
0.0
 20
0.0
 30
0.0
210
0.0
220
0.0
230
1.0
  2
_USER
 70
     0
 71
     1
 91
        4
 92
        1
 93
        8
 72
     1
 10
-60.77800127218788
 20
14.45186036862441
 11
-60.77800127218788
 21
8.887349599424198
 72
     2
 10
-61.20224588757176
 20
8.887349599424198
 40
0.4242446153832873
 50
0.0
 51
90.0
 73
     0
 72
     1
 10
-61.20224588757176
 20
8.46310498404091
 11
-66.67555797828857
 21
8.46310498404091
 72
     2
 10
-66.67555797828857
 20
8.887349599424198
 40
0.4242446153828041
 50
90.0
 51
180.0
 73
     0
 72
     1
 10
-67.09980259367137
 20
8.887349599424198
 11
-67.09980259367137
 21
14.45186036862441
 72
     2
 10
-66.67555797828857
 20
14.45186036862441
 40
0.4242446153838006
 50
180.0
 51
270.0
 73
     0
 72
     1
 10
-66.67555797828857
 20
14.87610498400821
 11
-61.20224588757176
 21
14.87610498400821
 72
     2
 10
-61.20224588757176
 20
14.45186036862441
 40
0.4242446153838841
 50
270.0
 51
360.0
 73
     0
 97
        8
330
1B3
330
201
330
1B4
330
20C
330
1B1
330
203
330
1B2
330
202
 92
       16
 93
        1
 72
     2
 10
-64.05597232777106
 20
12.1329781402689
 40
0.4709789327785074
 50
0.0
 51
360.0
 73
     1
 97
        1
330
227
 92
       16
 93
        8
 72
     2
 10
-63.50611461501038
 20
11.02383654030049
 40
0.3157169230765314
 50
115.3740086783506
 51
180.0
 73
     1
 72
     1
 10
-63.82183153808717
 20
11.02383654030049
 11
-63.82183153808717
 21
10.44198513360541
 72
     2
 10
-63.50611461501038
 20
10.44198513360541
 40
0.3157169230767849
 50
180.0
 51
269.8110329574554
 73
     1
 72
     2
 10
-63.50049847970035
 20
12.1448200811744
 40
2.018561131933267
 50
269.8110329575857
 51
450.1889670424143
 73
     1
 72
     2
 10
-63.50611461501038
 20
13.8476550287435
 40
0.3157169230760746
 50
90.18896704254463
 51
180.0
 73
     1
 72
     1
 10
-63.82183153808717
 20
13.8476550287435
 11
-63.82183153808717
 21
13.24211974023672
 72
     2
 10
-63.50611461501038
 20
13.24211974023672
 40
0.3157169230767849
 50
180.0
 51
244.6259913216495
 73
     1
 72
     2
 10
-64.03215731309825
 20
12.1329781402689
 40
0.9118481501444573
 50
295.3740086781924
 51
424.6259913218234
 73
     0
 97
        8
330
219
330
17A
330
216
330
217
330
1F5
330
179
330
218
330
1F4
 92
       16
 93
       12
 72
     2
 10
-66.08166330154208
 20
9.491377462674507
 40
0.3157169230756836
 50
180.0
 51
270.0
 73
     1
 72
     1
 10
-66.08166330154208
 20
9.1756605395978
 11
-64.60583004053245
 21
9.1756605395978
 72
     2
 10
-64.60583004053245
 20
9.491377462674507
 40
0.3157169230767067
 50
270.0
 51
360.0
 73
     1
 72
     1
 10
-64.29011311745586
 20
9.491377462674507
 11
-64.29011311745586
 21
11.02214839420611
 72
     2
 10
-64.60583004053245
 20
11.02214839420611
 40
0.315716923076593
 50
0.0
 51
64.80558935146027
 73
     1
 72
     2
 10
-64.08324559295747
 20
12.1329781402689
 40
0.9118975235576194
 50
115.1944106485122
 51
244.8055893514719
 73
     0
 72
     2
 10
-64.60583004053245
 20
13.2438078863311
 40
0.3157169230761203
 50
295.1944106485397
 51
360.0
 73
     1
 72
     1
 10
-64.29011311745586
 20
13.2438078863311
 11
-64.29011311745586
 21
13.84783250539161
 72
     2
 10
-64.60583004053245
 20
13.84783250539161
 40
0.315716923076593
 50
0.0
 51
90.0
 73
     1
 72
     1
 10
-64.60583004053245
 20
14.1635494284678
 11
-66.08166330154208
 21
14.1635494284678
 72
     2
 10
-66.08166330154208
 20
13.84783250539161
 40
0.3157169230761898
 50
90.0
 51
180.0
 73
     1
 72
     1
 10
-66.39738022461776
 20
13.84783250539161
 11
-66.39738022461776
 21
9.491377462674507
 97
       12
330
1FD
330
1B5
330
200
330
1B0
330
20D
330
20E
330
1FF
330
1AF
330
1FE
330
1AE
330
20F
330
1AD
 75
     1
 76
     0
 52
45.0
 41
0.1
 77
     0
 78
     1
 53
45.0
 43
0.0
 44
0.0
 45
-0.0707106781186548
 46
0.0707106781186548
 79
     0
 98
        1
 10
0.0
 20
0.0
  0
HATCH
  5
264
330
71
100
AcDbEntity
  8
1
  6
Continuous
 62
     2
100
AcDbHatch
 10
0.0
 20
0.0
 30
0.0
210
0.0
220
0.0
230
1.0
  2
_USER
 70
     0
 71
     1
 91
        4
 92
        1
 93
        8
 72
     1
 10
-60.77800127218788
 20
14.45186036862441
 11
-60.77800127218788
 21
8.887349599424198
 72
     2
 10
-61.20224588757176
 20
8.887349599424198
 40
0.4242446153832873
 50
0.0
 51
90.0
 73
     0
 72
     1
 10
-61.20224588757176
 20
8.46310498404091
 11
-66.67555797828857
 21
8.46310498404091
 72
     2
 10
-66.67555797828857
 20
8.887349599424198
 40
0.4242446153828041
 50
90.0
 51
180.0
 73
     0
 72
     1
 10
-67.09980259367137
 20
8.887349599424198
 11
-67.09980259367137
 21
14.45186036862441
 72
     2
 10
-66.67555797828857
 20
14.45186036862441
 40
0.4242446153838006
 50
180.0
 51
270.0
 73
     0
 72
     1
 10
-66.67555797828857
 20
14.87610498400821
 11
-61.20224588757176
 21
14.87610498400821
 72
     2
 10
-61.20224588757176
 20
14.45186036862441
 40
0.4242446153838841
 50
270.0
 51
360.0
 73
     0
 97
        8
330
1B3
330
201
330
1B4
330
20C
330
1B1
330
203
330
1B2
330
202
 92
       16
 93
        1
 72
     2
 10
-64.05597232777106
 20
12.1329781402689
 40
0.4709789327785074
 50
0.0
 51
360.0
 73
     1
 97
        1
330
227
 92
       16
 93
        8
 72
     2
 10
-63.50611461501038
 20
11.02383654030049
 40
0.3157169230765314
 50
115.3740086783506
 51
180.0
 73
     1
 72
     1
 10
-63.82183153808717
 20
11.02383654030049
 11
-63.82183153808717
 21
10.44198513360541
 72
     2
 10
-63.50611461501038
 20
10.44198513360541
 40
0.3157169230767849
 50
180.0
 51
269.8110329574554
 73
     1
 72
     2
 10
-63.50049847970035
 20
12.1448200811744
 40
2.018561131933267
 50
269.8110329575857
 51
450.1889670424143
 73
     1
 72
     2
 10
-63.50611461501038
 20
13.8476550287435
 40
0.3157169230760746
 50
90.18896704254463
 51
180.0
 73
     1
 72
     1
 10
-63.82183153808717
 20
13.8476550287435
 11
-63.82183153808717
 21
13.24211974023672
 72
     2
 10
-63.50611461501038
 20
13.24211974023672
 40
0.3157169230767849
 50
180.0
 51
244.6259913216495
 73
     1
 72
     2
 10
-64.03215731309825
 20
12.1329781402689
 40
0.9118481501444573
 50
295.3740086781924
 51
424.6259913218234
 73
     0
 97
        8
330
219
330
17A
330
216
330
217
330
1F5
330
179
330
218
330
1F4
 92
       16
 93
       12
 72
     2
 10
-66.08166330154208
 20
9.491377462674507
 40
0.3157169230756836
 50
180.0
 51
270.0
 73
     1
 72
     1
 10
-66.08166330154208
 20
9.1756605395978
 11
-64.60583004053245
 21
9.1756605395978
 72
     2
 10
-64.60583004053245
 20
9.491377462674507
 40
0.3157169230767067
 50
270.0
 51
360.0
 73
     1
 72
     1
 10
-64.29011311745586
 20
9.491377462674507
 11
-64.29011311745586
 21
11.02214839420611
 72
     2
 10
-64.60583004053245
 20
11.02214839420611
 40
0.315716923076593
 50
0.0
 51
64.80558935146027
 73
     1
 72
     2
 10
-64.08324559295747
 20
12.1329781402689
 40
0.9118975235576194
 50
115.1944106485122
 51
244.8055893514719
 73
     0
 72
     2
 10
-64.60583004053245
 20
13.2438078863311
 40
0.3157169230761203
 50
295.1944106485397
 51
360.0
 73
     1
 72
     1
 10
-64.29011311745586
 20
13.2438078863311
 11
-64.29011311745586
 21
13.84783250539161
 72
     2
 10
-64.60583004053245
 20
13.84783250539161
 40
0.315716923076593
 50
0.0
 51
90.0
 73
     1
 72
     1
 10
-64.60583004053245
 20
14.1635494284678
 11
-66.08166330154208
 21
14.1635494284678
 72
     2
 10
-66.08166330154208
 20
13.84783250539161
 40
0.3157169230761898
 50
90.0
 51
180.0
 73
     1
 72
     1
 10
-66.39738022461776
 20
13.84783250539161
 11
-66.39738022461776
 21
9.491377462674507
 97
       12
330
1FD
330
1B5
330
200
330
1B0
330
20D
330
20E
330
1FF
330
1AF
330
1FE
330
1AE
330
20F
330
1AD
 75
     1
 76
     0
 52
45.0
 41
0.1
 77
     0
 78
     1
 53
45.0
 43
0.0
 44
0.0
 45
-0.0707106781186548
 46
0.0707106781186548
 79
     0
 98
        1
 10
0.0
 20
0.0
  0
HATCH
  5
265
330
71
100
AcDbEntity
  8
1
  6
Continuous
 62
     2
100
AcDbHatch
 10
0.0
 20
0.0
 30
0.0
210
0.0
220
0.0
230
1.0
  2
_USER
 70
     0
 71
     1
 91
        1
 92
        1
 93
       18
 72
     1
 10
-39.18845336296687
 20
10.7316492017284
 11
-39.99955240044025
 21
10.7316492017284
 72
     1
 10
-39.99955240044025
 20
10.7316492017284
 11
-39.99955240044025
 21
8.46310498404091
 72
     1
 10
-39.99955240044025
 20
8.46310498404091
 11
-41.19234510260796
 21
8.46310498404091
 72
     1
 10
-41.19234510260796
 20
8.46310498404091
 11
-41.19234510260796
 21
10.7316492017284
 72
     1
 10
-41.19234510260796
 20
10.7316492017284
 11
-42.29598440217606
 21
10.7316492017284
 72
     2
 10
-42.29598440217606
 20
9.777126194902308
 40
0.9545230068260917
 50
90.0
 51
109.337143219432
 73
     1
 72
     2
 10
-42.44265440027976
 20
10.1950811752852
 40
0.5115800601944116
 50
109.3371432194862
 51
151.4785267424232
 73
     1
 72
     2
 10
-42.06529714219838
 20
9.990009745946196
 40
0.9410597353348862
 50
151.4785267423622
 51
208.5214732576697
 73
     1
 72
     2
 10
-42.44265440027976
 20
9.784938316607708
 40
0.5115800601960279
 50
208.5214732576862
 51
246.6277221118442
 73
     1
 72
     2
 10
-42.28621436757666
 20
10.14693033531771
 40
0.905929784985285
 50
246.6277221118184
 51
288.4480761180816
 73
     1
 72
     2
 10
-42.70438210123857
 20
11.40047611135429
 40
2.227384008972745
 50
288.4480761181337
 51
301.9309089499399
 73
     1
 72
     1
 10
-41.52632705921465
 20
9.510125392204515
 11
-41.52632705921465
 21
8.637608385401194
 72
     2
 10
-42.86225497633137
 20
13.3026906912026
 40
4.852596863498824
 50
74.02000874166129
 51
84.84185523036375
 73
     0
 72
     2
 10
-42.57339888159555
 20
10.10280010798101
 40
1.639695123940455
 50
84.84185523032401
 51
164.9381082228989
 73
     0
 72
     2
 10
-42.99252672505716
 20
9.990009745946196
 40
1.20565616839301
 50
164.9381082229042
 51
195.0618917770972
 73
     0
 72
     2
 10
-42.57339888159555
 20
9.877219383911296
 40
1.639695123940214
 50
195.061891777105
 51
270.0
 73
     0
 72
     1
 10
-42.57339888159555
 20
11.51691450785151
 11
-39.18845336296687
 21
11.51691450785199
 72
     1
 10
-39.18845336296687
 20
11.51691450785199
 11
-39.18845336296687
 21
10.7316492017284
 97
       18
330
17C
330
212
330
213
330
1FB
330
1FA
330
1E0
330
1F9
330
1F8
330
214
330
1F7
330
215
330
1F6
330
1E1
330
17B
330
180
330
17F
330
17E
330
17D
 75
     1
 76
     0
 52
45.0
 41
0.1
 77
     0
 78
     1
 53
45.0
 43
0.0
 44
0.0
 45
-0.0707106781186548
 46
0.0707106781186548
 79
     0
 98
        1
 10
0.0
 20
0.0
  0
HATCH
  5
266
330
71
100
AcDbEntity
  8
1
  6
Continuous
 62
     2
100
AcDbHatch
 10
0.0
 20
0.0
 30
0.0
210
0.0
220
0.0
230
1.0
  2
_USER
 70
     0
 71
     1
 91
        1
 92
        1
 93
       18
 72
     1
 10
-39.18845336296687
 20
10.7316492017284
 11
-39.99955240044025
 21
10.7316492017284
 72
     1
 10
-39.99955240044025
 20
10.7316492017284
 11
-39.99955240044025
 21
8.46310498404091
 72
     1
 10
-39.99955240044025
 20
8.46310498404091
 11
-41.19234510260796
 21
8.46310498404091
 72
     1
 10
-41.19234510260796
 20
8.46310498404091
 11
-41.19234510260796
 21
10.7316492017284
 72
     1
 10
-41.19234510260796
 20
10.7316492017284
 11
-42.29598440217606
 21
10.7316492017284
 72
     2
 10
-42.29598440217606
 20
9.777126194902308
 40
0.9545230068260917
 50
90.0
 51
109.337143219432
 73
     1
 72
     2
 10
-42.44265440027976
 20
10.1950811752852
 40
0.5115800601944116
 50
109.3371432194862
 51
151.4785267424232
 73
     1
 72
     2
 10
-42.06529714219838
 20
9.990009745946196
 40
0.9410597353348862
 50
151.4785267423622
 51
208.5214732576697
 73
     1
 72
     2
 10
-42.44265440027976
 20
9.784938316607708
 40
0.5115800601960279
 50
208.5214732576862
 51
246.6277221118442
 73
     1
 72
     2
 10
-42.28621436757666
 20
10.14693033531771
 40
0.905929784985285
 50
246.6277221118184
 51
288.4480761180816
 73
     1
 72
     2
 10
-42.70438210123857
 20
11.40047611135429
 40
2.227384008972745
 50
288.4480761181337
 51
301.9309089499399
 73
     1
 72
     1
 10
-41.52632705921465
 20
9.510125392204515
 11
-41.52632705921465
 21
8.637608385401194
 72
     2
 10
-42.86225497633137
 20
13.3026906912026
 40
4.852596863498824
 50
74.02000874166129
 51
84.84185523036375
 73
     0
 72
     2
 10
-42.57339888159555
 20
10.10280010798101
 40
1.639695123940455
 50
84.84185523032401
 51
164.9381082228989
 73
     0
 72
     2
 10
-42.99252672505716
 20
9.990009745946196
 40
1.20565616839301
 50
164.9381082229042
 51
195.0618917770972
 73
     0
 72
     2
 10
-42.57339888159555
 20
9.877219383911296
 40
1.639695123940214
 50
195.061891777105
 51
270.0
 73
     0
 72
     1
 10
-42.57339888159555
 20
11.51691450785151
 11
-39.18845336296687
 21
11.51691450785199
 72
     1
 10
-39.18845336296687
 20
11.51691450785199
 11
-39.18845336296687
 21
10.7316492017284
 97
       18
330
17C
330
212
330
213
330
1FB
330
1FA
330
1E0
330
1F9
330
1F8
330
214
330
1F7
330
215
330
1F6
330
1E1
330
17B
330
180
330
17F
330
17E
330
17D
 75
     1
 76
     0
 52
45.0
 41
0.1
 77
     0
 78
     1
 53
45.0
 43
0.0
 44
0.0
 45
-0.0707106781186548
 46
0.0707106781186548
 79
     0
 98
        1
 10
0.0
 20
0.0
  0
HATCH
  5
267
330
71
100
AcDbEntity
  8
1
  6
Continuous
 62
     2
100
AcDbHatch
 10
0.0
 20
0.0
 30
0.0
210
0.0
220
0.0
230
1.0
  2
_USER
 70
     0
 71
     1
 91
        1
 92
        1
 93
       14
 72
     2
 10
-58.67610036084847
 20
9.877219383911296
 40
1.639695123940509
 50
84.84185523036211
 51
164.9381082228863
 73
     1
 72
     2
 10
-59.09522820431127
 20
9.990009745946196
 40
1.205656168390945
 50
164.9381082228764
 51
195.0618917770948
 73
     1
 72
     2
 10
-58.67610036084847
 20
10.10280010798101
 40
1.63969512393938
 50
195.0618917770896
 51
275.1581447696398
 73
     1
 72
     2
 10
-58.96495645558437
 20
13.3026906912026
 40
4.852596863498138
 50
275.1581447696249
 51
285.9799912583529
 73
     1
 72
     1
 10
-57.62902853846657
 20
8.63760838540179
 11
-57.62902853846657
 21
9.510125392204998
 72
     2
 10
-58.80708358049145
 20
11.40047611135489
 40
2.227384008972735
 50
58.0690910500407
 51
71.55192388186722
 73
     0
 72
     2
 10
-58.38891584683066
 20
10.14693033531771
 40
0.9059297849849213
 50
71.55192388184122
 51
113.3722778881284
 73
     0
 72
     2
 10
-58.54535587953268
 20
9.784938316607708
 40
0.5115800601948034
 50
113.3722778881726
 51
151.4785267423044
 73
     0
 72
     2
 10
-58.16799862145237
 20
9.990009745946196
 40
0.9410597353332563
 50
151.4785267422943
 51
208.5214732577333
 73
     0
 72
     2
 10
-58.54535587953268
 20
10.1950811752852
 40
0.5115800601948796
 50
208.5214732576956
 51
246.6277221118009
 73
     0
 72
     2
 10
-58.38891584683066
 20
9.833089156574601
 40
0.9059297849853234
 50
246.6277221118716
 51
288.448076118147
 73
     0
 72
     2
 10
-58.80708358049145
 20
8.579543380538013
 40
2.22738400897348
 50
288.4480761181328
 51
301.9309089499592
 73
     0
 72
     1
 10
-57.62902853846657
 20
10.46989409968791
 11
-57.62902853846657
 21
11.3424111064912
 72
     2
 10
-58.96495645558437
 20
6.677328800690304
 40
4.85259686349807
 50
74.02000874164739
 51
84.84185523037506
 73
     1
 97
       14
330
21A
330
21B
330
21C
330
21D
330
1E2
330
1F3
330
1F2
330
1F1
330
21E
330
21F
330
1F0
330
220
330
1E3
330
1EF
 75
     1
 76
     0
 52
45.0
 41
0.1
 77
     0
 78
     1
 53
45.0
 43
0.0
 44
0.0
 45
-0.0707106781186548
 46
0.0707106781186548
 79
     0
 98
        1
 10
0.0
 20
0.0
  0
HATCH
  5
268
330
71
100
AcDbEntity
  8
1
  6
Continuous
 62
     2
100
AcDbHatch
 10
0.0
 20
0.0
 30
0.0
210
0.0
220
0.0
230
1.0
  2
_USER
 70
     0
 71
     1
 91
        1
 92
        1
 93
       14
 72
     2
 10
-58.67610036084847
 20
9.877219383911296
 40
1.639695123940509
 50
84.84185523036211
 51
164.9381082228863
 73
     1
 72
     2
 10
-59.09522820431127
 20
9.990009745946196
 40
1.205656168390945
 50
164.9381082228764
 51
195.0618917770948
 73
     1
 72
     2
 10
-58.67610036084847
 20
10.10280010798101
 40
1.63969512393938
 50
195.0618917770896
 51
275.1581447696398
 73
     1
 72
     2
 10
-58.96495645558437
 20
13.3026906912026
 40
4.852596863498138
 50
275.1581447696249
 51
285.9799912583529
 73
     1
 72
     1
 10
-57.62902853846657
 20
8.63760838540179
 11
-57.62902853846657
 21
9.510125392204998
 72
     2
 10
-58.80708358049145
 20
11.40047611135489
 40
2.227384008972735
 50
58.0690910500407
 51
71.55192388186722
 73
     0
 72
     2
 10
-58.38891584683066
 20
10.14693033531771
 40
0.9059297849849213
 50
71.55192388184122
 51
113.3722778881284
 73
     0
 72
     2
 10
-58.54535587953268
 20
9.784938316607708
 40
0.5115800601948034
 50
113.3722778881726
 51
151.4785267423044
 73
     0
 72
     2
 10
-58.16799862145237
 20
9.990009745946196
 40
0.9410597353332563
 50
151.4785267422943
 51
208.5214732577333
 73
     0
 72
     2
 10
-58.54535587953268
 20
10.1950811752852
 40
0.5115800601948796
 50
208.5214732576956
 51
246.6277221118009
 73
     0
 72
     2
 10
-58.38891584683066
 20
9.833089156574601
 40
0.9059297849853234
 50
246.6277221118716
 51
288.448076118147
 73
     0
 72
     2
 10
-58.80708358049145
 20
8.579543380538013
 40
2.22738400897348
 50
288.4480761181328
 51
301.9309089499592
 73
     0
 72
     1
 10
-57.62902853846657
 20
10.46989409968791
 11
-57.62902853846657
 21
11.3424111064912
 72
     2
 10
-58.96495645558437
 20
6.677328800690304
 40
4.85259686349807
 50
74.02000874164739
 51
84.84185523037506
 73
     1
 97
       14
330
21A
330
21B
330
21C
330
21D
330
1E2
330
1F3
330
1F2
330
1F1
330
21E
330
21F
330
1F0
330
220
330
1E3
330
1EF
 75
     1
 76
     0
 52
45.0
 41
0.1
 77
     0
 78
     1
 53
45.0
 43
0.0
 44
0.0
 45
-0.0707106781186548
 46
0.0707106781186548
 79
     0
 98
        1
 10
0.0
 20
0.0
  0
ENDBLK
  5
73
330
71
100
AcDbEntity
  8
0
100
AcDbBlockEnd
  0
BLOCK
  5
75
330
74
100
AcDbEntity
  8
0
100
AcDbBlockBegin
  2
_punkt
 70
     0
 10
58.20834704651604
 20
1.1696049840246
 30
0.0
  3
_punkt
  1

  0
LINE
  5
269
330
74
100
AcDbEntity
  8
1
  6
Continuous
 62
     2
100
AcDbLine
 10
58.20834704651604
 20
1.1696049840246
 30
0.0
 11
63.20834704651503
 21
1.1696049840246
 31
0.0
  0
LINE
  5
26A
330
74
100
AcDbEntity
  8
1
  6
Continuous
 62
     2
100
AcDbLine
 10
58.20834704651604
 20
1.1696049840246
 30
0.0
 11
58.20834704651604
 21
-3.83039501597551
 31
0.0
  0
ENDBLK
  5
76
330
74
100
AcDbEntity
  8
0
100
AcDbBlockEnd
  0
BLOCK
  5
7A
330
77
100
AcDbEntity
  8
0
100
AcDbBlockBegin
  2
A4I_CS
 70
     0
 10
58.20834704651604
 20
-3.83039501597551
 30
0.0
  3
A4I_CS
  1

  0
INSERT
  5
78
330
77
100
AcDbEntity
  8
1
100
AcDbBlockReference
  2
_rahmen
 10
58.20834704651604
 20
-3.83039501597551
 30
0.0
  0
INSERT
  5
79
330
77
100
AcDbEntity
  8
1
100
AcDbBlockReference
  2
_punkt
 10
58.20834704651604
 20
1.1696049840246
 30
0.0
  0
ENDBLK
  5
7B
330
77
100
AcDbEntity
  8
0
100
AcDbBlockEnd
  0
BLOCK
  5
84
330
7C
100
AcDbEntity
  8
0
100
AcDbBlockBegin
  2
1
 70
     0
 10
0.0
 20
0.0
 30
0.0
  3
1
  1

  0
INSERT
  5
7D
330
7C
100
AcDbEntity
  8
0
100
AcDbBlockReference
  2
AllgSicht1
 10
-23.99999999997949
 20
83.00000000001
 30
0.0
  0
INSERT
  5
7E
330
7C
100
AcDbEntity
  8
0
100
AcDbBlockReference
  2
Drfsicht1
 10
-123.6520581245569
 20
76.39996564055988
 30
0.0
  0
INSERT
  5
7F
330
7C
100
AcDbEntity
  8
0
100
AcDbBlockReference
  2
Rckans1
 10
-24.33518854172763
 20
143.0000000000197
 30
0.0
  0
INSERT
  5
80
330
7C
100
AcDbEntity
  8
0
100
AcDbBlockReference
  2
SA_Links1
 10
-79.63765843034402
 20
143.0000000000198
 30
0.0
  0
INSERT
  5
81
330
7C
100
AcDbEntity
  8
0
100
AcDbBlockReference
  2
SA_Rechts1
 10
-189.2146651470449
 20
143.00000000002
 30
0.0
  0
INSERT
  5
82
330
7C
100
AcDbEntity
  8
0
100
AcDbBlockReference
  2
Vordans1
 10
-123.6520581245563
 20
143.00000000002
 30
0.0
  0
INSERT
  5
83
330
7C
100
AcDbEntity
  8
0
100
AcDbBlockReference
  2
A4I_CS
 10
58.20834704651604
 20
-3.83039501597551
 30
0.0
  0
ENDBLK
  5
85
330
7C
100
AcDbEntity
  8
0
100
AcDbBlockEnd
  0
BLOCK
  5
C8
330
BF
100
AcDbEntity
  8
0
100
AcDbBlockBegin
  2
*D17
 70
     1
 10
0.0
 20
0.0
 30
0.0
  3
*D17
  1

  0
LINE
  5
C0
330
BF
100
AcDbEntity
  8
1
  6
Continuous
 62
     2
100
AcDbLine
 10
-158.6368656491452
 20
68.29996566417555
 30
0.0
 11
-158.6368656491452
 21
75.29996566417555
 31
0.0
  0
LINE
  5
C1
330
BF
100
AcDbEntity
  8
1
  6
Continuous
 62
     2
100
AcDbLine
 10
-158.6368656491452
 20
75.29996566417555
 30
0.0
 11
-158.6368656491452
 21
77.49996566263312
 31
0.0
  0
LINE
  5
C2
330
BF
100
AcDbEntity
  8
1
  6
Continuous
 62
     2
100
AcDbLine
 10
-158.6368656491452
 20
77.49996566263312
 30
0.0
 11
-158.6368656491452
 21
87.5620840897311
 31
0.0
  0
LINE
  5
C3
330
BF
100
AcDbEntity
  8
1
  6
Continuous
 62
     2
100
AcDbLine
 10
-148.6368656491452
 20
75.29996566417555
 30
0.0
 11
-160.1368656491452
 21
75.29996566417555
 31
0.0
  0
LINE
  5
C4
330
BF
100
AcDbEntity
  8
1
  6
Continuous
 62
     2
100
AcDbLine
 10
-142.5041881763901
 20
77.49996566263312
 30
0.0
 11
-160.1368656491452
 21
77.49996566263312
 31
0.0
  0
SOLID
  5
C5
330
BF
100
AcDbEntity
  8
1
 62
     2
100
AcDbTrace
 10
-158.1760819075893
 20
71.79996566417555
 30
0.0
 11
-159.0976493907011
 21
71.79996566417555
 31
0.0
 12
-158.6368656491452
 22
75.29996566417555
 32
0.0
 13
-158.6368656491452
 23
75.29996566417555
 33
0.0
  0
SOLID
  5
C6
330
BF
100
AcDbEntity
  8
1
 62
     2
100
AcDbTrace
 10
-159.0976493907011
 20
80.99996566263312
 30
0.0
 11
-158.1760819075893
 21
80.99996566263312
 31
0.0
 12
-158.6368656491452
 22
77.49996566263312
 32
0.0
 13
-158.6368656491452
 23
77.49996566263312
 33
0.0
  0
MTEXT
  5
C7
330
BF
100
AcDbEntity
  8
1
 62
     3
100
AcDbMText
 10
-160.4868656491452
 20
81.0870840897311
 30
0.0
 40
3.5
 41
0.0
 71
     7
 72
     1
  1
2,2
  7
CONVERTER_11
 11
0.0
 21
1.0
 31
0.0
 73
     1
 44
0.60024009603842
  0
ENDBLK
  5
C9
330
BF
100
AcDbEntity
  8
0
100
AcDbBlockEnd
  0
BLOCK
  5
118
330
111
100
AcDbEntity
  8
0
100
AcDbBlockBegin
  2
*D18
 70
     1
 10
0.0
 20
0.0
 30
0.0
  3
*D18
  1

  0
LINE
  5
112
330
111
100
AcDbEntity
  8
1
  6
Continuous
 62
     2
100
AcDbLine
 10
-123.652055965432
 20
111.3551682734468
 30
0.0
 11
-97.00010244249658
 21
111.3551682734468
 31
0.0
  0
LINE
  5
113
330
111
100
AcDbEntity
  8
1
  6
Continuous
 62
     2
100
AcDbLine
 10
-123.652055965432
 20
121.3551682734468
 30
0.0
 11
-123.652055965432
 21
109.8551682734468
 31
0.0
  0
LINE
  5
114
330
111
100
AcDbEntity
  8
1
  6
Continuous
 62
     2
100
AcDbLine
 10
-97.00010244249658
 20
124.4999656676247
 30
0.0
 11
-97.00010244249658
 21
109.8551682734468
 31
0.0
  0
SOLID
  5
115
330
111
100
AcDbEntity
  8
1
 62
     2
100
AcDbTrace
 10
-120.152055965432
 20
111.8159520150027
 30
0.0
 11
-120.152055965432
 21
110.8943845318909
 31
0.0
 12
-123.652055965432
 22
111.3551682734468
 32
0.0
 13
-123.652055965432
 23
111.3551682734468
 33
0.0
  0
SOLID
  5
116
330
111
100
AcDbEntity
  8
1
 62
     2
100
AcDbTrace
 10
-100.5001024424966
 20
110.8943845318909
 30
0.0
 11
-100.5001024424966
 21
111.8159520150027
 31
0.0
 12
-97.00010244249658
 22
111.3551682734468
 32
0.0
 13
-97.00010244249658
 23
111.3551682734468
 33
0.0
  0
MTEXT
  5
117
330
111
100
AcDbEntity
  8
1
 62
     3
100
AcDbMText
 10
-119.402521512405
 20
113.2051682734468
 30
0.0
 40
3.5
 41
0.0
 71
     7
 72
     1
  1
26,65
  7
CONVERTER_11
 11
0.9999999999970619
 21
2.424068405545306E-6
 31
0.0
 73
     1
 44
0.60024009603842
  0
ENDBLK
  5
119
330
111
100
AcDbEntity
  8
0
100
AcDbBlockEnd
  0
BLOCK
  5
123
330
11C
100
AcDbEntity
  8
0
100
AcDbBlockBegin
  2
*D19
 70
     1
 10
0.0
 20
0.0
 30
0.0
  3
*D19
  1

  0
LINE
  5
11D
330
11C
100
AcDbEntity
  8
1
  6
Continuous
 62
     2
100
AcDbLine
 10
-157.7673166990347
 20
124.4999656676246
 30
0.0
 11
-157.7673166990347
 21
161.5000381839347
 31
0.0
  0
LINE
  5
11E
330
11C
100
AcDbEntity
  8
1
  6
Continuous
 62
     2
100
AcDbLine
 10
-97.00010244249658
 20
124.4999656676246
 30
0.0
 11
-159.7673166990347
 21
124.4999656676246
 31
0.0
  0
LINE
  5
11F
330
11C
100
AcDbEntity
  8
1
  6
Continuous
 62
     2
100
AcDbLine
 10
-104.8041881768964
 20
161.5000381839347
 30
0.0
 11
-159.7673166990347
 21
161.5000381839347
 31
0.0
  0
SOLID
  5
120
330
11C
100
AcDbEntity
  8
1
 62
     2
100
AcDbTrace
 10
-158.2281004405906
 20
127.9999656676246
 30
0.0
 11
-157.3065329574788
 21
127.9999656676246
 31
0.0
 12
-157.7673166990347
 22
124.4999656676246
 32
0.0
 13
-157.7673166990347
 23
124.4999656676246
 33
0.0
  0
SOLID
  5
121
330
11C
100
AcDbEntity
  8
1
 62
     2
100
AcDbTrace
 10
-157.3065329574788
 20
158.0000381839347
 30
0.0
 11
-158.2281004405906
 21
158.0000381839347
 31
0.0
 12
-157.7673166990347
 22
161.5000381839347
 32
0.0
 13
-157.7673166990347
 23
161.5000381839347
 33
0.0
  0
MTEXT
  5
122
330
11C
100
AcDbEntity
  8
1
 62
     3
100
AcDbMText
 10
-159.7673166990347
 20
141.8067301822376
 30
0.0
 40
3.5
 41
0.0
 71
     7
 72
     1
  1
37
  7
CONVERTER_11
 11
0.0
 21
1.0
 31
0.0
 73
     1
 44
0.60024009603842
  0
ENDBLK
  5
124
330
11C
100
AcDbEntity
  8
0
100
AcDbBlockEnd
  0
BLOCK
  5
12E
330
127
100
AcDbEntity
  8
0
100
AcDbBlockBegin
  2
*D20
 70
     1
 10
0.0
 20
0.0
 30
0.0
  3
*D20
  1

  0
LINE
  5
128
330
127
100
AcDbEntity
  8
1
  6
Continuous
 62
     2
100
AcDbLine
 10
-97.00010244249653
 20
103.3551682734468
 30
0.0
 11
-150.30401012065
 21
103.3551682734468
 31
0.0
  0
LINE
  5
129
330
127
100
AcDbEntity
  8
1
  6
Continuous
 62
     2
100
AcDbLine
 10
-97.00010244249653
 20
124.4999656676247
 30
0.0
 11
-97.00010244249653
 21
101.3551682734468
 31
0.0
  0
LINE
  5
12A
330
127
100
AcDbEntity
  8
1
  6
Continuous
 62
     2
100
AcDbLine
 10
-150.30401012065
 20
124.4999656676247
 30
0.0
 11
-150.30401012065
 21
101.3551682734468
 31
0.0
  0
SOLID
  5
12B
330
127
100
AcDbEntity
  8
1
 62
     2
100
AcDbTrace
 10
-100.5001024424965
 20
102.8943845318909
 30
0.0
 11
-100.5001024424965
 21
103.8159520150027
 31
0.0
 12
-97.00010244249653
 22
103.3551682734468
 32
0.0
 13
-97.00010244249653
 23
103.3551682734468
 33
0.0
  0
SOLID
  5
12C
330
127
100
AcDbEntity
  8
1
 62
     2
100
AcDbTrace
 10
-146.80401012065
 20
103.8159520150027
 30
0.0
 11
-146.80401012065
 21
102.8943845318909
 31
0.0
 12
-150.30401012065
 22
103.3551682734468
 32
0.0
 13
-150.30401012065
 23
103.3551682734468
 33
0.0
  0
MTEXT
  5
12D
330
127
100
AcDbEntity
  8
1
 62
     3
100
AcDbMText
 10
-130.4645562815742
 20
105.7051682734468
 30
0.0
 40
3.5
 41
0.0
 71
     7
 72
     1
  1
53,3
  7
CONVERTER_11
 11
0.9999999999970619
 21
2.424068405545306E-6
 31
0.0
 73
     1
 44
0.60024009603842
  0
ENDBLK
  5
12F
330
127
100
AcDbEntity
  8
0
100
AcDbBlockEnd
  0
ENDSEC
  0
SECTION
  2
ENTITIES
  0
INSERT
  5
86
330
1F
100
AcDbEntity
  8
1
100
AcDbBlockReference
  2
1
 10
0.0
 20
0.0
 30
0.0
  0
ENDSEC
  0
SECTION
  2
OBJECTS
  0
DICTIONARY
  5
C
330
0
100
AcDbDictionary
281
     1
  3
ACAD_GROUP
350
D
  3
ACAD_LAYOUT
350
1A
  3
ACAD_MATERIAL
350
3B
  3
ACAD_MLEADERSTYLE
350
292
  3
ACAD_MLINESTYLE
350
17
  3
ACAD_PLOTSETTINGS
350
19
  3
ACAD_PLOTSTYLENAME
350
E
  3
ACAD_TABLESTYLE
350
291
  3
ACAD_VISUALSTYLE
350
2A
  0
DICTIONARY
  5
D
102
{ACAD_REACTORS
330
C
102
}
330
C
100
AcDbDictionary
281
     1
  0
DICTIONARY
  5
1A
102
{ACAD_REACTORS
330
C
102
}
330
C
100
AcDbDictionary
281
     1
  3
Layout1
350
1E
  3
Layout2
350
26
  3
Model
350
22
  0
DICTIONARY
  5
3B
102
{ACAD_REACTORS
330
C
102
}
330
C
100
AcDbDictionary
281
     1
  3
ByBlock
350
3D
  3
ByLayer
350
3C
  3
Global
350
3E
  0
DICTIONARY
  5
292
102
{ACAD_REACTORS
330
C
102
}
330
C
100
AcDbDictionary
281
     1
  0
DICTIONARY
  5
17
102
{ACAD_REACTORS
330
C
102
}
330
C
100
AcDbDictionary
281
     1
  3
Standard
350
18
  0
DICTIONARY
  5
19
102
{ACAD_REACTORS
330
C
102
}
330
C
100
AcDbDictionary
281
     1
  0
ACDBDICTIONARYWDFLT
  5
E
102
{ACAD_REACTORS
330
C
102
}
330
C
100
AcDbDictionary
281
     1
  3
Normal
350
F
100
AcDbDictionaryWithDefault
340
F
  0
DICTIONARY
  5
291
102
{ACAD_REACTORS
330
C
102
}
330
C
100
AcDbDictionary
281
     1
  0
DICTIONARY
  5
2A
102
{ACAD_REACTORS
330
C
102
}
330
C
100
AcDbDictionary
281
     1
  3
2dWireframe
350
2F
  3
3D Hidden
350
31
  3
3dWireframe
350
30
  3
Basic
350
32
  3
Brighten
350
36
  3
ColorChange
350
3A
  3
Conceptual
350
34
  3
Dim
350
35
  3
Facepattern
350
39
  3
Flat
350
2B
  3
FlatWithEdges
350
2C
  3
Gouraud
350
2D
  3
GouraudWithEdges
350
2E
  3
Linepattern
350
38
  3
Realistic
350
33
  3
Thicken
350
37
  0
LAYOUT
  5
1E
102
{ACAD_REACTORS
330
1A
102
}
330
1A
100
AcDbPlotSettings
  1

  2
none_device
  4

  6

 40
0.0
 41
0.0
 42
0.0
 43
0.0
 44
0.0
 45
0.0
 46
0.0
 47
0.0
 48
0.0
 49
0.0
140
0.0
141
0.0
142
1.0
143
1.0
 70
   688
 72
     0
 73
     0
 74
     5
  7

 75
    16
 76
     0
 77
     2
 78
   300
147
1.0
148
0.0
149
0.0
100
AcDbLayout
  1
Layout1
 70
     1
 71
     1
 10
0.0
 20
0.0
 11
12.0
 21
9.0
 12
0.0
 22
0.0
 32
0.0
 14
1.00000000000000E+20
 24
1.00000000000000E+20
 34
1.00000000000000E+20
 15
-1.00000000000000E+20
 25
-1.00000000000000E+20
 35
-1.00000000000000E+20
146
0.0
 13
0.0
 23
0.0
 33
0.0
 16
1.0
 26
0.0
 36
0.0
 17
0.0
 27
1.0
 37
0.0
 76
     0
330
1B
  0
LAYOUT
  5
26
102
{ACAD_REACTORS
330
1A
102
}
330
1A
100
AcDbPlotSettings
  1

  2
none_device
  4

  6

 40
0.0
 41
0.0
 42
0.0
 43
0.0
 44
0.0
 45
0.0
 46
0.0
 47
0.0
 48
0.0
 49
0.0
140
0.0
141
0.0
142
1.0
143
1.0
 70
   688
 72
     0
 73
     0
 74
     5
  7

 75
    16
 76
     0
 77
     2
 78
   300
147
1.0
148
0.0
149
0.0
100
AcDbLayout
  1
Layout2
 70
     1
 71
     2
 10
0.0
 20
0.0
 11
0.0
 21
0.0
 12
0.0
 22
0.0
 32
0.0
 14
0.0
 24
0.0
 34
0.0
 15
0.0
 25
0.0
 35
0.0
146
0.0
 13
0.0
 23
0.0
 33
0.0
 16
1.0
 26
0.0
 36
0.0
 17
0.0
 27
1.0
 37
0.0
 76
     0
330
23
  0
LAYOUT
  5
22
102
{ACAD_REACTORS
330
1A
102
}
330
1A
100
AcDbPlotSettings
  1

  2
none_device
  4

  6

 40
0.0
 41
0.0
 42
0.0
 43
0.0
 44
0.0
 45
0.0
 46
0.0
 47
0.0
 48
0.0
 49
0.0
140
0.0
141
0.0
142
1.0
143
1.0
 70
  1712
 72
     0
 73
     0
 74
     0
  7

 75
     0
 76
     0
 77
     2
 78
   300
147
1.0
148
0.0
149
0.0
100
AcDbLayout
  1
Model
 70
     1
 71
     0
 10
0.0
 20
0.0
 11
12.0
 21
9.0
 12
0.0
 22
0.0
 32
0.0
 14
-233.791652953483
 24
-3.83039501597551
 34
0.0
 15
63.20834704651503
 25
206.1696049840246
 35
0.0
146
0.0
 13
0.0
 23
0.0
 33
0.0
 16
1.0
 26
0.0
 36
0.0
 17
0.0
 27
1.0
 37
0.0
 76
     0
330
1F
331
29
  0
MATERIAL
  5
3D
102
{ACAD_REACTORS
330
3B
102
}
102
{ACAD_XDICTIONARY
360
28D
102
}
330
3B
100
AcDbMaterial
  1
ByBlock
  0
MATERIAL
  5
3C
102
{ACAD_REACTORS
330
3B
102
}
102
{ACAD_XDICTIONARY
360
28B
102
}
330
3B
100
AcDbMaterial
  1
ByLayer
  0
MATERIAL
  5
3E
102
{ACAD_REACTORS
330
3B
102
}
102
{ACAD_XDICTIONARY
360
28F
102
}
330
3B
100
AcDbMaterial
  1
Global
  0
MLINESTYLE
  5
18
102
{ACAD_REACTORS
330
17
102
}
330
17
100
AcDbMlineStyle
  2
Standard
 70
     0
  3

 62
   256
 51
90.0
 52
90.0
 71
     2
 49
0.5
 62
   256
  6
BYLAYER
 49
-0.5
 62
   256
  6
BYLAYER
  0
ACDBPLACEHOLDER
  5
F
102
{ACAD_REACTORS
330
E
102
}
330
E
  0
VISUALSTYLE
  5
2F
102
{ACAD_REACTORS
330
2A
102
}
102
{ACAD_XDICTIONARY
360
273
102
}
330
2A
100
AcDbVisualStyle
  2
2dWireframe
 70
     4
 71
     0
 72
     2
 73
     0
 90
        0
 40
-0.6
 41
-30.0
 62
     5
 63
     7
421
 16777215
 74
     1
 91
        4
 64
     7
 65
   257
 75
     1
175
     1
 42
1.0
 92
        0
 66
   257
 43
1.0
 76
     1
 77
     6
 78
     2
 67
     7
 79
     5
170
     0
171
     0
290
     0
174
     0
 93
        1
 44
0.0
173
     0
291
     0
 45
0.0
1001
ACAD
1000
AcDbSavedByObjectVersion
1070
     0
  0
VISUALSTYLE
  5
31
102
{ACAD_REACTORS
330
2A
102
}
102
{ACAD_XDICTIONARY
360
277
102
}
330
2A
100
AcDbVisualStyle
  2
3D Hidden
 70
     6
 71
     1
 72
     2
 73
     2
 90
        0
 40
-0.6
 41
-30.0
 62
     5
 63
     7
421
 16777215
 74
     2
 91
        2
 64
     7
 65
   257
 75
     2
175
     1
 42
40.0
 92
        0
 66
   257
 43
1.0
 76
     1
 77
     6
 78
     2
 67
     7
 79
     3
170
     0
171
     0
290
     0
174
     0
 93
        1
 44
0.0
173
     0
291
     0
 45
0.0
1001
ACAD
1000
AcDbSavedByObjectVersion
1070
     0
  0
VISUALSTYLE
  5
30
102
{ACAD_REACTORS
330
2A
102
}
102
{ACAD_XDICTIONARY
360
275
102
}
330
2A
100
AcDbVisualStyle
  2
3dWireframe
 70
     5
 71
     0
 72
     2
 73
     0
 90
        0
 40
-0.6
 41
-30.0
 62
     5
 63
     7
421
 16777215
 74
     1
 91
        4
 64
     7
 65
   257
 75
     1
175
     1
 42
1.0
 92
        0
 66
   257
 43
1.0
 76
     1
 77
     6
 78
     2
 67
     7
 79
     5
170
     0
171
     0
290
     0
174
     0
 93
        1
 44
0.0
173
     0
291
     0
 45
0.0
1001
ACAD
1000
AcDbSavedByObjectVersion
1070
     0
  0
VISUALSTYLE
  5
32
102
{ACAD_REACTORS
330
2A
102
}
102
{ACAD_XDICTIONARY
360
279
102
}
330
2A
100
AcDbVisualStyle
  2
Basic
 70
     7
 71
     1
 72
     0
 73
     1
 90
        0
 40
-0.6
 41
-30.0
 62
     5
 63
     7
421
 16777215
 74
     0
 91
        4
 64
     7
 65
   257
 75
     1
175
     1
 42
1.0
 92
        8
 66
     7
 43
1.0
 76
     1
 77
     6
 78
     2
 67
     7
 79
     5
170
     0
171
     0
290
     0
174
     0
 93
        1
 44
0.0
173
     0
291
     1
 45
0.0
1001
ACAD
1000
AcDbSavedByObjectVersion
1070
     0
  0
VISUALSTYLE
  5
36
102
{ACAD_REACTORS
330
2A
102
}
102
{ACAD_XDICTIONARY
360
281
102
}
330
2A
100
AcDbVisualStyle
  2
Brighten
 70
    12
 71
     2
 72
     2
 73
     0
 90
        0
 40
-0.6
 41
-30.0
 62
     5
 63
     7
421
 16777215
 74
     1
 91
        4
 64
     7
 65
   257
 75
     1
175
     1
 42
1.0
 92
        8
 66
     7
 43
1.0
 76
     1
 77
     6
 78
     2
 67
     7
 79
     5
170
     0
171
     0
290
     0
174
     0
 93
        1
 44
50.0
173
     0
291
     1
 45
0.0
1001
ACAD
1000
AcDbSavedByObjectVersion
1070
     0
  0
VISUALSTYLE
  5
3A
102
{ACAD_REACTORS
330
2A
102
}
102
{ACAD_XDICTIONARY
360
289
102
}
330
2A
100
AcDbVisualStyle
  2
ColorChange
 70
    16
 71
     2
 72
     2
 73
     3
 90
        0
 40
-0.6
 41
-30.0
 62
     5
 63
     8
421
  8421504
 74
     1
 91
        4
 64
     7
 65
   257
 75
     1
175
     1
 42
1.0
 92
        8
 66
     8
424
  8421504
 43
1.0
 76
     1
 77
     6
 78
     2
 67
     7
 79
     5
170
     0
171
     0
290
     0
174
     0
 93
        1
 44
0.0
173
     0
291
     1
 45
0.0
1001
ACAD
1000
AcDbSavedByObjectVersion
1070
     0
  0
VISUALSTYLE
  5
34
102
{ACAD_REACTORS
330
2A
102
}
102
{ACAD_XDICTIONARY
360
27D
102
}
330
2A
100
AcDbVisualStyle
  2
Conceptual
 70
     9
 71
     3
 72
     2
 73
     0
 90
        0
 40
-0.6
 41
-30.0
 62
     5
 63
     7
421
 16777215
 74
     2
 91
        2
 64
     7
 65
   257
 75
     1
175
     1
 42
40.0
 92
        8
 66
     7
 43
1.0
 76
     1
 77
     6
 78
     2
 67
     7
 79
     3
170
     0
171
     0
290
     0
174
     0
 93
        1
 44
0.0
173
     0
291
     0
 45
0.0
1001
ACAD
1000
AcDbSavedByObjectVersion
1070
     0
  0
VISUALSTYLE
  5
35
102
{ACAD_REACTORS
330
2A
102
}
102
{ACAD_XDICTIONARY
360
27F
102
}
330
2A
100
AcDbVisualStyle
  2
Dim
 70
    11
 71
     2
 72
     2
 73
     0
 90
        0
 40
-0.6
 41
-30.0
 62
     5
 63
     7
421
 16777215
 74
     1
 91
        4
 64
     7
 65
   257
 75
     1
175
     1
 42
1.0
 92
        8
 66
     7
 43
1.0
 76
     1
 77
     6
 78
     2
 67
     7
 79
     5
170
     0
171
     0
290
     0
174
     0
 93
        1
 44
-50.0
173
     0
291
     1
 45
0.0
1001
ACAD
1000
AcDbSavedByObjectVersion
1070
     0
  0
VISUALSTYLE
  5
39
102
{ACAD_REACTORS
330
2A
102
}
102
{ACAD_XDICTIONARY
360
287
102
}
330
2A
100
AcDbVisualStyle
  2
Facepattern
 70
    15
 71
     2
 72
     2
 73
     0
 90
        0
 40
-0.6
 41
-30.0
 62
     5
 63
     7
421
 16777215
 74
     1
 91
        4
 64
     7
 65
   257
 75
     1
175
     1
 42
1.0
 92
        8
 66
     7
 43
1.0
 76
     1
 77
     6
 78
     2
 67
     7
 79
     5
170
     0
171
     0
290
     0
174
     0
 93
        1
 44
0.0
173
     0
291
     1
 45
0.0
1001
ACAD
1000
AcDbSavedByObjectVersion
1070
     0
  0
VISUALSTYLE
  5
2B
102
{ACAD_REACTORS
330
2A
102
}
102
{ACAD_XDICTIONARY
360
26B
102
}
330
2A
100
AcDbVisualStyle
  2
Flat
 70
     0
 71
     2
 72
     1
 73
     1
 90
        2
 40
-0.6
 41
30.0
 62
     5
 63
     7
421
 16777215
 74
     0
 91
        4
 64
     7
 65
   257
 75
     1
175
     1
 42
1.0
 92
        8
 66
     7
 43
1.0
 76
     1
 77
     6
 78
     2
 67
     7
 79
     5
170
     0
171
     0
290
     0
174
     0
 93
       13
 44
0.0
173
     0
291
     1
 45
0.0
1001
ACAD
1000
AcDbSavedByObjectVersion
1070
     0
  0
VISUALSTYLE
  5
2C
102
{ACAD_REACTORS
330
2A
102
}
102
{ACAD_XDICTIONARY
360
26D
102
}
330
2A
100
AcDbVisualStyle
  2
FlatWithEdges
 70
     1
 71
     2
 72
     1
 73
     1
 90
        2
 40
-0.6
 41
30.0
 62
     5
 63
     7
421
 16777215
 74
     1
 91
        4
 64
     7
 65
   257
 75
     1
175
     1
 42
1.0
 92
        0
 66
   257
 43
1.0
 76
     1
 77
     6
 78
     2
 67
     7
 79
     5
170
     0
171
     0
290
     0
174
     0
 93
       13
 44
0.0
173
     0
291
     1
 45
0.0
1001
ACAD
1000
AcDbSavedByObjectVersion
1070
     0
  0
VISUALSTYLE
  5
2D
102
{ACAD_REACTORS
330
2A
102
}
102
{ACAD_XDICTIONARY
360
26F
102
}
330
2A
100
AcDbVisualStyle
  2
Gouraud
 70
     2
 71
     2
 72
     2
 73
     1
 90
        2
 40
-0.6
 41
30.0
 62
     5
 63
     7
421
 16777215
 74
     0
 91
        4
 64
     7
 65
   257
 75
     1
175
     1
 42
1.0
 92
        0
 66
     7
 43
1.0
 76
     1
 77
     6
 78
     2
 67
     7
 79
     5
170
     0
171
     0
290
     0
174
     0
 93
       13
 44
0.0
173
     0
291
     1
 45
0.0
1001
ACAD
1000
AcDbSavedByObjectVersion
1070
     0
  0
VISUALSTYLE
  5
2E
102
{ACAD_REACTORS
330
2A
102
}
102
{ACAD_XDICTIONARY
360
271
102
}
330
2A
100
AcDbVisualStyle
  2
GouraudWithEdges
 70
     3
 71
     2
 72
     2
 73
     1
 90
        2
 40
-0.6
 41
30.0
 62
     5
 63
     7
421
 16777215
 74
     1
 91
        4
 64
     7
 65
   257
 75
     1
175
     1
 42
1.0
 92
        0
 66
   257
 43
1.0
 76
     1
 77
     6
 78
     2
 67
     7
 79
     5
170
     0
171
     0
290
     0
174
     0
 93
       13
 44
0.0
173
     0
291
     1
 45
0.0
1001
ACAD
1000
AcDbSavedByObjectVersion
1070
     0
  0
VISUALSTYLE
  5
38
102
{ACAD_REACTORS
330
2A
102
}
102
{ACAD_XDICTIONARY
360
285
102
}
330
2A
100
AcDbVisualStyle
  2
Linepattern
 70
    14
 71
     2
 72
     2
 73
     0
 90
        0
 40
-0.6
 41
-30.0
 62
     5
 63
     7
421
 16777215
 74
     1
 91
        4
 64
     7
 65
   257
 75
     7
175
     7
 42
1.0
 92
        8
 66
     7
 43
1.0
 76
     1
 77
     6
 78
     2
 67
     7
 79
     5
170
     0
171
     0
290
     0
174
     0
 93
        1
 44
0.0
173
     0
291
     1
 45
0.0
1001
ACAD
1000
AcDbSavedByObjectVersion
1070
     0
  0
VISUALSTYLE
  5
33
102
{ACAD_REACTORS
330
2A
102
}
102
{ACAD_XDICTIONARY
360
27B
102
}
330
2A
100
AcDbVisualStyle
  2
Realistic
 70
     8
 71
     2
 72
     2
 73
     0
 90
        0
 40
-0.6
 41
-30.0
 62
     5
 63
     7
421
 16777215
 74
     1
 91
        0
 64
     7
 65
   257
 75
     1
175
     1
 42
1.0
 92
        8
 66
     8
424
  7895160
 43
1.0
 76
     1
 77
     6
 78
     2
 67
     7
 79
     5
170
     0
171
     0
290
     0
174
     0
 93
       13
 44
0.0
173
     0
291
     0
 45
0.0
1001
ACAD
1000
AcDbSavedByObjectVersion
1070
     0
  0
VISUALSTYLE
  5
37
102
{ACAD_REACTORS
330
2A
102
}
102
{ACAD_XDICTIONARY
360
283
102
}
330
2A
100
AcDbVisualStyle
  2
Thicken
 70
    13
 71
     2
 72
     2
 73
     0
 90
        0
 40
-0.6
 41
-30.0
 62
     5
 63
     7
421
 16777215
 74
     1
 91
        4
 64
     7
 65
   257
 75
     1
175
     1
 42
1.0
 92
       12
 66
     7
 43
1.0
 76
     1
 77
     6
 78
     2
 67
     7
 79
     5
170
     0
171
     0
290
     0
174
     0
 93
        1
 44
0.0
173
     0
291
     1
 45
0.0
1001
ACAD
1000
AcDbSavedByObjectVersion
1070
     0
  0
DICTIONARY
  5
28D
330
3D
100
AcDbDictionary
280
     1
281
     1
  3
ACAD_XREC_ROUNDTRIP
360
28E
  0
DICTIONARY
  5
28B
330
3C
100
AcDbDictionary
280
     1
281
     1
  3
ACAD_XREC_ROUNDTRIP
360
28C
  0
DICTIONARY
  5
28F
330
3E
100
AcDbDictionary
280
     1
281
     1
  3
ACAD_XREC_ROUNDTRIP
360
290
  0
DICTIONARY
  5
273
330
2F
100
AcDbDictionary
280
     1
281
     1
  3
ACAD_XREC_ROUNDTRIP
360
274
  0
DICTIONARY
  5
277
330
31
100
AcDbDictionary
280
     1
281
     1
  3
ACAD_XREC_ROUNDTRIP
360
278
  0
DICTIONARY
  5
275
330
30
100
AcDbDictionary
280
     1
281
     1
  3
ACAD_XREC_ROUNDTRIP
360
276
  0
DICTIONARY
  5
279
330
32
100
AcDbDictionary
280
     1
281
     1
  3
ACAD_XREC_ROUNDTRIP
360
27A
  0
DICTIONARY
  5
281
330
36
100
AcDbDictionary
280
     1
281
     1
  3
ACAD_XREC_ROUNDTRIP
360
282
  0
DICTIONARY
  5
289
330
3A
100
AcDbDictionary
280
     1
281
     1
  3
ACAD_XREC_ROUNDTRIP
360
28A
  0
DICTIONARY
  5
27D
330
34
100
AcDbDictionary
280
     1
281
     1
  3
ACAD_XREC_ROUNDTRIP
360
27E
  0
DICTIONARY
  5
27F
330
35
100
AcDbDictionary
280
     1
281
     1
  3
ACAD_XREC_ROUNDTRIP
360
280
  0
DICTIONARY
  5
287
330
39
100
AcDbDictionary
280
     1
281
     1
  3
ACAD_XREC_ROUNDTRIP
360
288
  0
DICTIONARY
  5
26B
330
2B
100
AcDbDictionary
280
     1
281
     1
  3
ACAD_XREC_ROUNDTRIP
360
26C
  0
DICTIONARY
  5
26D
330
2C
100
AcDbDictionary
280
     1
281
     1
  3
ACAD_XREC_ROUNDTRIP
360
26E
  0
DICTIONARY
  5
26F
330
2D
100
AcDbDictionary
280
     1
281
     1
  3
ACAD_XREC_ROUNDTRIP
360
270
  0
DICTIONARY
  5
271
330
2E
100
AcDbDictionary
280
     1
281
     1
  3
ACAD_XREC_ROUNDTRIP
360
272
  0
DICTIONARY
  5
285
330
38
100
AcDbDictionary
280
     1
281
     1
  3
ACAD_XREC_ROUNDTRIP
360
286
  0
DICTIONARY
  5
27B
330
33
100
AcDbDictionary
280
     1
281
     1
  3
ACAD_XREC_ROUNDTRIP
360
27C
  0
DICTIONARY
  5
283
330
37
100
AcDbDictionary
280
     1
281
     1
  3
ACAD_XREC_ROUNDTRIP
360
284
  0
XRECORD
  5
28E
102
{ACAD_REACTORS
330
28D
102
}
330
28D
100
AcDbXrecord
280
     1
102
MATERIAL
148
0.0
149
0.0
149
0.0
 93
        0
 94
      127
282
     0
 72
     1
 77
     1
171
     1
175
     1
179
     1
273
     0
  0
XRECORD
  5
28C
102
{ACAD_REACTORS
330
28B
102
}
330
28B
100
AcDbXrecord
280
     1
102
MATERIAL
148
0.0
149
0.0
149
0.0
 93
        0
 94
      127
282
     0
 72
     1
 77
     1
171
     1
175
     1
179
     1
273
     0
  0
XRECORD
  5
290
102
{ACAD_REACTORS
330
28F
102
}
330
28F
100
AcDbXrecord
280
     1
102
MATERIAL
148
0.0
149
0.0
149
0.0
 93
        0
 94
      127
282
     0
 72
     1
 77
     1
171
     1
175
     1
179
     1
273
     0
  0
XRECORD
  5
274
102
{ACAD_REACTORS
330
273
102
}
330
273
100
AcDbXrecord
280
     1
102
RTVSPropertyOp0
 70
     1
102
RTVSPropertyOp1
 70
     1
102
RTVSPropertyOp2
 70
     1
102
RTVSPropertyOp3
 70
     1
102
RTVSPropertyOp4
 70
     1
102
RTVSPropertyOp5
 70
     1
102
RTVSPropertyOp6
 70
     1
102
RTVSPropertyOp7
 70
     1
102
RTVSPropertyOp8
 70
     1
102
RTVSPropertyOp9
 70
     1
102
RTVSPropertyOp10
 70
     1
102
RTVSPropertyOp11
 70
     1
102
RTVSPropertyOp12
 70
     1
102
RTVSPropertyOp13
 70
     1
102
RTVSPropertyOp14
 70
     1
102
RTVSPropertyOp15
 70
     1
102
RTVSPropertyOp16
 70
     1
102
RTVSPropertyOp17
 70
     1
102
RTVSPropertyOp18
 70
     1
102
RTVSPropertyOp19
 70
     1
102
RTVSPropertyOp20
 70
     1
102
RTVSPropertyOp21
 70
     1
102
RTVSPropertyOp22
 70
     1
102
RTVSPropertyOp23
 70
     1
102
RTVSPropertyOp24
 70
     1
102
RTVSPropertyOp25
 70
     1
102
RTVSPropertyOp26
 70
     1
102
RTVSPropertyOp27
 70
     1
102
RTVSPropertyOp28
 70
     1
102
RTVSPropertyOp29
 70
     1
102
RTVSPropertyOp30
 70
     1
102
RTVSPropertyOp31
 70
     1
102
RTVSPropertyOp32
 70
     1
  0
XRECORD
  5
278
102
{ACAD_REACTORS
330
277
102
}
330
277
100
AcDbXrecord
280
     1
102
RTVSPropertyOp0
 70
     1
102
RTVSPropertyOp1
 70
     1
102
RTVSPropertyOp2
 70
     1
102
RTVSPropertyOp3
 70
     1
102
RTVSPropertyOp4
 70
     1
102
RTVSPropertyOp5
 70
     1
102
RTVSPropertyOp6
 70
     1
102
RTVSPropertyOp7
 70
     1
102
RTVSPropertyOp8
 70
     1
102
RTVSPropertyOp9
 70
     1
102
RTVSPropertyOp10
 70
     1
102
RTVSPropertyOp11
 70
     1
102
RTVSPropertyOp12
 70
     1
102
RTVSPropertyOp13
 70
     1
102
RTVSPropertyOp14
 70
     1
102
RTVSPropertyOp15
 70
     1
102
RTVSPropertyOp16
 70
     1
102
RTVSPropertyOp17
 70
     1
102
RTVSPropertyOp18
 70
     1
102
RTVSPropertyOp19
 70
     1
102
RTVSPropertyOp20
 70
     1
102
RTVSPropertyOp21
 70
     1
102
RTVSPropertyOp22
 70
     1
102
RTVSPropertyOp23
 70
     1
102
RTVSPropertyOp24
 70
     1
102
RTVSPropertyOp25
 70
     1
102
RTVSPropertyOp26
 70
     1
102
RTVSPropertyOp27
 70
     1
102
RTVSPropertyOp28
 70
     1
102
RTVSPropertyOp29
 70
     1
102
RTVSPropertyOp30
 70
     1
102
RTVSPropertyOp31
 70
     1
102
RTVSPropertyOp32
 70
     1
  0
XRECORD
  5
276
102
{ACAD_REACTORS
330
275
102
}
330
275
100
AcDbXrecord
280
     1
102
RTVSPropertyOp0
 70
     1
102
RTVSPropertyOp1
 70
     1
102
RTVSPropertyOp2
 70
     1
102
RTVSPropertyOp3
 70
     1
102
RTVSPropertyOp4
 70
     1
102
RTVSPropertyOp5
 70
     1
102
RTVSPropertyOp6
 70
     1
102
RTVSPropertyOp7
 70
     1
102
RTVSPropertyOp8
 70
     1
102
RTVSPropertyOp9
 70
     1
102
RTVSPropertyOp10
 70
     1
102
RTVSPropertyOp11
 70
     1
102
RTVSPropertyOp12
 70
     1
102
RTVSPropertyOp13
 70
     1
102
RTVSPropertyOp14
 70
     1
102
RTVSPropertyOp15
 70
     1
102
RTVSPropertyOp16
 70
     1
102
RTVSPropertyOp17
 70
     1
102
RTVSPropertyOp18
 70
     1
102
RTVSPropertyOp19
 70
     1
102
RTVSPropertyOp20
 70
     1
102
RTVSPropertyOp21
 70
     1
102
RTVSPropertyOp22
 70
     1
102
RTVSPropertyOp23
 70
     1
102
RTVSPropertyOp24
 70
     1
102
RTVSPropertyOp25
 70
     1
102
RTVSPropertyOp26
 70
     1
102
RTVSPropertyOp27
 70
     1
102
RTVSPropertyOp28
 70
     1
102
RTVSPropertyOp29
 70
     1
102
RTVSPropertyOp30
 70
     1
102
RTVSPropertyOp31
 70
     1
102
RTVSPropertyOp32
 70
     1
  0
XRECORD
  5
27A
102
{ACAD_REACTORS
330
279
102
}
330
279
100
AcDbXrecord
280
     1
102
RTVSPropertyOp0
 70
     1
102
RTVSPropertyOp1
 70
     1
102
RTVSPropertyOp2
 70
     1
102
RTVSPropertyOp3
 70
     1
102
RTVSPropertyOp4
 70
     1
102
RTVSPropertyOp5
 70
     1
102
RTVSPropertyOp6
 70
     1
102
RTVSPropertyOp7
 70
     1
102
RTVSPropertyOp8
 70
     1
102
RTVSPropertyOp9
 70
     1
102
RTVSPropertyOp10
 70
     1
102
RTVSPropertyOp11
 70
     1
102
RTVSPropertyOp12
 70
     1
102
RTVSPropertyOp13
 70
     1
102
RTVSPropertyOp14
 70
     1
102
RTVSPropertyOp15
 70
     1
102
RTVSPropertyOp16
 70
     1
102
RTVSPropertyOp17
 70
     1
102
RTVSPropertyOp18
 70
     1
102
RTVSPropertyOp19
 70
     1
102
RTVSPropertyOp20
 70
     1
102
RTVSPropertyOp21
 70
     1
102
RTVSPropertyOp22
 70
     1
102
RTVSPropertyOp23
 70
     1
102
RTVSPropertyOp24
 70
     1
102
RTVSPropertyOp25
 70
     1
102
RTVSPropertyOp26
 70
     1
102
RTVSPropertyOp27
 70
     1
102
RTVSPropertyOp28
 70
     1
102
RTVSPropertyOp29
 70
     1
102
RTVSPropertyOp30
 70
     1
102
RTVSPropertyOp31
 70
     1
102
RTVSPropertyOp32
 70
     1
  0
XRECORD
  5
282
102
{ACAD_REACTORS
330
281
102
}
330
281
100
AcDbXrecord
280
     1
102
RTVSPropertyOp0
 70
     1
102
RTVSPropertyOp1
 70
     1
102
RTVSPropertyOp2
 70
     1
102
RTVSPropertyOp3
 70
     1
102
RTVSPropertyOp4
 70
     1
102
RTVSPropertyOp5
 70
     1
102
RTVSPropertyOp6
 70
     1
102
RTVSPropertyOp7
 70
     1
102
RTVSPropertyOp8
 70
     1
102
RTVSPropertyOp9
 70
     1
102
RTVSPropertyOp10
 70
     1
102
RTVSPropertyOp11
 70
     1
102
RTVSPropertyOp12
 70
     1
102
RTVSPropertyOp13
 70
     1
102
RTVSPropertyOp14
 70
     1
102
RTVSPropertyOp15
 70
     1
102
RTVSPropertyOp16
 70
     1
102
RTVSPropertyOp17
 70
     1
102
RTVSPropertyOp18
 70
     1
102
RTVSPropertyOp19
 70
     1
102
RTVSPropertyOp20
 70
     1
102
RTVSPropertyOp21
 70
     1
102
RTVSPropertyOp22
 70
     1
102
RTVSPropertyOp23
 70
     1
102
RTVSPropertyOp24
 70
     1
102
RTVSPropertyOp25
 70
     1
102
RTVSPropertyOp26
 70
     1
102
RTVSPropertyOp27
 70
     1
102
RTVSPropertyOp28
 70
     1
102
RTVSPropertyOp29
 70
     1
102
RTVSPropertyOp30
 70
     1
102
RTVSPropertyOp31
 70
     1
102
RTVSPropertyOp32
 70
     1
  0
XRECORD
  5
28A
102
{ACAD_REACTORS
330
289
102
}
330
289
100
AcDbXrecord
280
     1
102
RTVSPropertyOp0
 70
     1
102
RTVSPropertyOp1
 70
     1
102
RTVSPropertyOp2
 70
     1
102
RTVSPropertyOp3
 70
     1
102
RTVSPropertyOp4
 70
     1
102
RTVSPropertyOp5
 70
     1
102
RTVSPropertyOp6
 70
     1
102
RTVSPropertyOp7
 70
     1
102
RTVSPropertyOp8
 70
     1
102
RTVSPropertyOp9
 70
     1
102
RTVSPropertyOp10
 70
     1
102
RTVSPropertyOp11
 70
     1
102
RTVSPropertyOp12
 70
     1
102
RTVSPropertyOp13
 70
     1
102
RTVSPropertyOp14
 70
     1
102
RTVSPropertyOp15
 70
     1
102
RTVSPropertyOp16
 70
     1
102
RTVSPropertyOp17
 70
     1
102
RTVSPropertyOp18
 70
     1
102
RTVSPropertyOp19
 70
     1
102
RTVSPropertyOp20
 70
     1
102
RTVSPropertyOp21
 70
     1
102
RTVSPropertyOp22
 70
     1
102
RTVSPropertyOp23
 70
     1
102
RTVSPropertyOp24
 70
     1
102
RTVSPropertyOp25
 70
     1
102
RTVSPropertyOp26
 70
     1
102
RTVSPropertyOp27
 70
     1
102
RTVSPropertyOp28
 70
     1
102
RTVSPropertyOp29
 70
     1
102
RTVSPropertyOp30
 70
     1
102
RTVSPropertyOp31
 70
     1
102
RTVSPropertyOp32
 70
     1
  0
XRECORD
  5
27E
102
{ACAD_REACTORS
330
27D
102
}
330
27D
100
AcDbXrecord
280
     1
102
RTVSPropertyOp0
 70
     1
102
RTVSPropertyOp1
 70
     1
102
RTVSPropertyOp2
 70
     1
102
RTVSPropertyOp3
 70
     1
102
RTVSPropertyOp4
 70
     1
102
RTVSPropertyOp5
 70
     1
102
RTVSPropertyOp6
 70
     1
102
RTVSPropertyOp7
 70
     1
102
RTVSPropertyOp8
 70
     1
102
RTVSPropertyOp9
 70
     1
102
RTVSPropertyOp10
 70
     1
102
RTVSPropertyOp11
 70
     1
102
RTVSPropertyOp12
 70
     1
102
RTVSPropertyOp13
 70
     1
102
RTVSPropertyOp14
 70
     1
102
RTVSPropertyOp15
 70
     1
102
RTVSPropertyOp16
 70
     1
102
RTVSPropertyOp17
 70
     1
102
RTVSPropertyOp18
 70
     1
102
RTVSPropertyOp19
 70
     1
102
RTVSPropertyOp20
 70
     1
102
RTVSPropertyOp21
 70
     1
102
RTVSPropertyOp22
 70
     1
102
RTVSPropertyOp23
 70
     1
102
RTVSPropertyOp24
 70
     1
102
RTVSPropertyOp25
 70
     1
102
RTVSPropertyOp26
 70
     1
102
RTVSPropertyOp27
 70
     1
102
RTVSPropertyOp28
 70
     1
102
RTVSPropertyOp29
 70
     1
102
RTVSPropertyOp30
 70
     1
102
RTVSPropertyOp31
 70
     1
102
RTVSPropertyOp32
 70
     1
  0
XRECORD
  5
280
102
{ACAD_REACTORS
330
27F
102
}
330
27F
100
AcDbXrecord
280
     1
102
RTVSPropertyOp0
 70
     1
102
RTVSPropertyOp1
 70
     1
102
RTVSPropertyOp2
 70
     1
102
RTVSPropertyOp3
 70
     1
102
RTVSPropertyOp4
 70
     1
102
RTVSPropertyOp5
 70
     1
102
RTVSPropertyOp6
 70
     1
102
RTVSPropertyOp7
 70
     1
102
RTVSPropertyOp8
 70
     1
102
RTVSPropertyOp9
 70
     1
102
RTVSPropertyOp10
 70
     1
102
RTVSPropertyOp11
 70
     1
102
RTVSPropertyOp12
 70
     1
102
RTVSPropertyOp13
 70
     1
102
RTVSPropertyOp14
 70
     1
102
RTVSPropertyOp15
 70
     1
102
RTVSPropertyOp16
 70
     1
102
RTVSPropertyOp17
 70
     1
102
RTVSPropertyOp18
 70
     1
102
RTVSPropertyOp19
 70
     1
102
RTVSPropertyOp20
 70
     1
102
RTVSPropertyOp21
 70
     1
102
RTVSPropertyOp22
 70
     1
102
RTVSPropertyOp23
 70
     1
102
RTVSPropertyOp24
 70
     1
102
RTVSPropertyOp25
 70
     1
102
RTVSPropertyOp26
 70
     1
102
RTVSPropertyOp27
 70
     1
102
RTVSPropertyOp28
 70
     1
102
RTVSPropertyOp29
 70
     1
102
RTVSPropertyOp30
 70
     1
102
RTVSPropertyOp31
 70
     1
102
RTVSPropertyOp32
 70
     1
  0
XRECORD
  5
288
102
{ACAD_REACTORS
330
287
102
}
330
287
100
AcDbXrecord
280
     1
102
RTVSPropertyOp0
 70
     1
102
RTVSPropertyOp1
 70
     1
102
RTVSPropertyOp2
 70
     1
102
RTVSPropertyOp3
 70
     1
102
RTVSPropertyOp4
 70
     1
102
RTVSPropertyOp5
 70
     1
102
RTVSPropertyOp6
 70
     1
102
RTVSPropertyOp7
 70
     1
102
RTVSPropertyOp8
 70
     1
102
RTVSPropertyOp9
 70
     1
102
RTVSPropertyOp10
 70
     1
102
RTVSPropertyOp11
 70
     1
102
RTVSPropertyOp12
 70
     1
102
RTVSPropertyOp13
 70
     1
102
RTVSPropertyOp14
 70
     1
102
RTVSPropertyOp15
 70
     1
102
RTVSPropertyOp16
 70
     1
102
RTVSPropertyOp17
 70
     1
102
RTVSPropertyOp18
 70
     1
102
RTVSPropertyOp19
 70
     1
102
RTVSPropertyOp20
 70
     1
102
RTVSPropertyOp21
 70
     1
102
RTVSPropertyOp22
 70
     1
102
RTVSPropertyOp23
 70
     1
102
RTVSPropertyOp24
 70
     1
102
RTVSPropertyOp25
 70
     1
102
RTVSPropertyOp26
 70
     1
102
RTVSPropertyOp27
 70
     1
102
RTVSPropertyOp28
 70
     1
102
RTVSPropertyOp29
 70
     1
102
RTVSPropertyOp30
 70
     1
102
RTVSPropertyOp31
 70
     1
102
RTVSPropertyOp32
 70
     1
  0
XRECORD
  5
26C
102
{ACAD_REACTORS
330
26B
102
}
330
26B
100
AcDbXrecord
280
     1
102
RTVSPropertyOp0
 70
     1
102
RTVSPropertyOp1
 70
     1
102
RTVSPropertyOp2
 70
     1
102
RTVSPropertyOp3
 70
     1
102
RTVSPropertyOp4
 70
     1
102
RTVSPropertyOp5
 70
     1
102
RTVSPropertyOp6
 70
     1
102
RTVSPropertyOp7
 70
     1
102
RTVSPropertyOp8
 70
     1
102
RTVSPropertyOp9
 70
     1
102
RTVSPropertyOp10
 70
     1
102
RTVSPropertyOp11
 70
     1
102
RTVSPropertyOp12
 70
     1
102
RTVSPropertyOp13
 70
     1
102
RTVSPropertyOp14
 70
     1
102
RTVSPropertyOp15
 70
     1
102
RTVSPropertyOp16
 70
     1
102
RTVSPropertyOp17
 70
     1
102
RTVSPropertyOp18
 70
     1
102
RTVSPropertyOp19
 70
     1
102
RTVSPropertyOp20
 70
     1
102
RTVSPropertyOp21
 70
     1
102
RTVSPropertyOp22
 70
     1
102
RTVSPropertyOp23
 70
     1
102
RTVSPropertyOp24
 70
     1
102
RTVSPropertyOp25
 70
     1
102
RTVSPropertyOp26
 70
     1
102
RTVSPropertyOp27
 70
     1
102
RTVSPropertyOp28
 70
     1
102
RTVSPropertyOp29
 70
     1
102
RTVSPropertyOp30
 70
     1
102
RTVSPropertyOp31
 70
     1
102
RTVSPropertyOp32
 70
     1
  0
XRECORD
  5
26E
102
{ACAD_REACTORS
330
26D
102
}
330
26D
100
AcDbXrecord
280
     1
102
RTVSPropertyOp0
 70
     1
102
RTVSPropertyOp1
 70
     1
102
RTVSPropertyOp2
 70
     1
102
RTVSPropertyOp3
 70
     1
102
RTVSPropertyOp4
 70
     1
102
RTVSPropertyOp5
 70
     1
102
RTVSPropertyOp6
 70
     1
102
RTVSPropertyOp7
 70
     1
102
RTVSPropertyOp8
 70
     1
102
RTVSPropertyOp9
 70
     1
102
RTVSPropertyOp10
 70
     1
102
RTVSPropertyOp11
 70
     1
102
RTVSPropertyOp12
 70
     1
102
RTVSPropertyOp13
 70
     1
102
RTVSPropertyOp14
 70
     1
102
RTVSPropertyOp15
 70
     1
102
RTVSPropertyOp16
 70
     1
102
RTVSPropertyOp17
 70
     1
102
RTVSPropertyOp18
 70
     1
102
RTVSPropertyOp19
 70
     1
102
RTVSPropertyOp20
 70
     1
102
RTVSPropertyOp21
 70
     1
102
RTVSPropertyOp22
 70
     1
102
RTVSPropertyOp23
 70
     1
102
RTVSPropertyOp24
 70
     1
102
RTVSPropertyOp25
 70
     1
102
RTVSPropertyOp26
 70
     1
102
RTVSPropertyOp27
 70
     1
102
RTVSPropertyOp28
 70
     1
102
RTVSPropertyOp29
 70
     1
102
RTVSPropertyOp30
 70
     1
102
RTVSPropertyOp31
 70
     1
102
RTVSPropertyOp32
 70
     1
  0
XRECORD
  5
270
102
{ACAD_REACTORS
330
26F
102
}
330
26F
100
AcDbXrecord
280
     1
102
RTVSPropertyOp0
 70
     1
102
RTVSPropertyOp1
 70
     1
102
RTVSPropertyOp2
 70
     1
102
RTVSPropertyOp3
 70
     1
102
RTVSPropertyOp4
 70
     1
102
RTVSPropertyOp5
 70
     1
102
RTVSPropertyOp6
 70
     1
102
RTVSPropertyOp7
 70
     1
102
RTVSPropertyOp8
 70
     1
102
RTVSPropertyOp9
 70
     1
102
RTVSPropertyOp10
 70
     1
102
RTVSPropertyOp11
 70
     1
102
RTVSPropertyOp12
 70
     1
102
RTVSPropertyOp13
 70
     1
102
RTVSPropertyOp14
 70
     1
102
RTVSPropertyOp15
 70
     1
102
RTVSPropertyOp16
 70
     1
102
RTVSPropertyOp17
 70
     1
102
RTVSPropertyOp18
 70
     1
102
RTVSPropertyOp19
 70
     1
102
RTVSPropertyOp20
 70
     1
102
RTVSPropertyOp21
 70
     1
102
RTVSPropertyOp22
 70
     1
102
RTVSPropertyOp23
 70
     1
102
RTVSPropertyOp24
 70
     1
102
RTVSPropertyOp25
 70
     1
102
RTVSPropertyOp26
 70
     1
102
RTVSPropertyOp27
 70
     1
102
RTVSPropertyOp28
 70
     1
102
RTVSPropertyOp29
 70
     1
102
RTVSPropertyOp30
 70
     1
102
RTVSPropertyOp31
 70
     1
102
RTVSPropertyOp32
 70
     1
  0
XRECORD
  5
272
102
{ACAD_REACTORS
330
271
102
}
330
271
100
AcDbXrecord
280
     1
102
RTVSPropertyOp0
 70
     1
102
RTVSPropertyOp1
 70
     1
102
RTVSPropertyOp2
 70
     1
102
RTVSPropertyOp3
 70
     1
102
RTVSPropertyOp4
 70
     1
102
RTVSPropertyOp5
 70
     1
102
RTVSPropertyOp6
 70
     1
102
RTVSPropertyOp7
 70
     1
102
RTVSPropertyOp8
 70
     1
102
RTVSPropertyOp9
 70
     1
102
RTVSPropertyOp10
 70
     1
102
RTVSPropertyOp11
 70
     1
102
RTVSPropertyOp12
 70
     1
102
RTVSPropertyOp13
 70
     1
102
RTVSPropertyOp14
 70
     1
102
RTVSPropertyOp15
 70
     1
102
RTVSPropertyOp16
 70
     1
102
RTVSPropertyOp17
 70
     1
102
RTVSPropertyOp18
 70
     1
102
RTVSPropertyOp19
 70
     1
102
RTVSPropertyOp20
 70
     1
102
RTVSPropertyOp21
 70
     1
102
RTVSPropertyOp22
 70
     1
102
RTVSPropertyOp23
 70
     1
102
RTVSPropertyOp24
 70
     1
102
RTVSPropertyOp25
 70
     1
102
RTVSPropertyOp26
 70
     1
102
RTVSPropertyOp27
 70
     1
102
RTVSPropertyOp28
 70
     1
102
RTVSPropertyOp29
 70
     1
102
RTVSPropertyOp30
 70
     1
102
RTVSPropertyOp31
 70
     1
102
RTVSPropertyOp32
 70
     1
  0
XRECORD
  5
286
102
{ACAD_REACTORS
330
285
102
}
330
285
100
AcDbXrecord
280
     1
102
RTVSPropertyOp0
 70
     1
102
RTVSPropertyOp1
 70
     1
102
RTVSPropertyOp2
 70
     1
102
RTVSPropertyOp3
 70
     1
102
RTVSPropertyOp4
 70
     1
102
RTVSPropertyOp5
 70
     1
102
RTVSPropertyOp6
 70
     1
102
RTVSPropertyOp7
 70
     1
102
RTVSPropertyOp8
 70
     1
102
RTVSPropertyOp9
 70
     1
102
RTVSPropertyOp10
 70
     1
102
RTVSPropertyOp11
 70
     1
102
RTVSPropertyOp12
 70
     1
102
RTVSPropertyOp13
 70
     1
102
RTVSPropertyOp14
 70
     1
102
RTVSPropertyOp15
 70
     1
102
RTVSPropertyOp16
 70
     1
102
RTVSPropertyOp17
 70
     1
102
RTVSPropertyOp18
 70
     1
102
RTVSPropertyOp19
 70
     1
102
RTVSPropertyOp20
 70
     1
102
RTVSPropertyOp21
 70
     1
102
RTVSPropertyOp22
 70
     1
102
RTVSPropertyOp23
 70
     1
102
RTVSPropertyOp24
 70
     1
102
RTVSPropertyOp25
 70
     1
102
RTVSPropertyOp26
 70
     1
102
RTVSPropertyOp27
 70
     1
102
RTVSPropertyOp28
 70
     1
102
RTVSPropertyOp29
 70
     1
102
RTVSPropertyOp30
 70
     1
102
RTVSPropertyOp31
 70
     1
102
RTVSPropertyOp32
 70
     1
  0
XRECORD
  5
27C
102
{ACAD_REACTORS
330
27B
102
}
330
27B
100
AcDbXrecord
280
     1
102
RTVSPropertyOp0
 70
     1
102
RTVSPropertyOp1
 70
     1
102
RTVSPropertyOp2
 70
     1
102
RTVSPropertyOp3
 70
     1
102
RTVSPropertyOp4
 70
     1
102
RTVSPropertyOp5
 70
     1
102
RTVSPropertyOp6
 70
     1
102
RTVSPropertyOp7
 70
     1
102
RTVSPropertyOp8
 70
     1
102
RTVSPropertyOp9
 70
     1
102
RTVSPropertyOp10
 70
     1
102
RTVSPropertyOp11
 70
     1
102
RTVSPropertyOp12
 70
     1
102
RTVSPropertyOp13
 70
     1
102
RTVSPropertyOp14
 70
     1
102
RTVSPropertyOp15
 70
     1
102
RTVSPropertyOp16
 70
     1
102
RTVSPropertyOp17
 70
     1
102
RTVSPropertyOp18
 70
     1
102
RTVSPropertyOp19
 70
     1
102
RTVSPropertyOp20
 70
     1
102
RTVSPropertyOp21
 70
     1
102
RTVSPropertyOp22
 70
     1
102
RTVSPropertyOp23
 70
     1
102
RTVSPropertyOp24
 70
     1
102
RTVSPropertyOp25
 70
     1
102
RTVSPropertyOp26
 70
     1
102
RTVSPropertyOp27
 70
     1
102
RTVSPropertyOp28
 70
     1
102
RTVSPropertyOp29
 70
     1
102
RTVSPropertyOp30
 70
     1
102
RTVSPropertyOp31
 70
     1
102
RTVSPropertyOp32
 70
     1
  0
XRECORD
  5
284
102
{ACAD_REACTORS
330
283
102
}
330
283
100
AcDbXrecord
280
     1
102
RTVSPropertyOp0
 70
     1
102
RTVSPropertyOp1
 70
     1
102
RTVSPropertyOp2
 70
     1
102
RTVSPropertyOp3
 70
     1
102
RTVSPropertyOp4
 70
     1
102
RTVSPropertyOp5
 70
     1
102
RTVSPropertyOp6
 70
     1
102
RTVSPropertyOp7
 70
     1
102
RTVSPropertyOp8
 70
     1
102
RTVSPropertyOp9
 70
     1
102
RTVSPropertyOp10
 70
     1
102
RTVSPropertyOp11
 70
     1
102
RTVSPropertyOp12
 70
     1
102
RTVSPropertyOp13
 70
     1
102
RTVSPropertyOp14
 70
     1
102
RTVSPropertyOp15
 70
     1
102
RTVSPropertyOp16
 70
     1
102
RTVSPropertyOp17
 70
     1
102
RTVSPropertyOp18
 70
     1
102
RTVSPropertyOp19
 70
     1
102
RTVSPropertyOp20
 70
     1
102
RTVSPropertyOp21
 70
     1
102
RTVSPropertyOp22
 70
     1
102
RTVSPropertyOp23
 70
     1
102
RTVSPropertyOp24
 70
     1
102
RTVSPropertyOp25
 70
     1
102
RTVSPropertyOp26
 70
     1
102
RTVSPropertyOp27
 70
     1
102
RTVSPropertyOp28
 70
     1
102
RTVSPropertyOp29
 70
     1
102
RTVSPropertyOp30
 70
     1
102
RTVSPropertyOp31
 70
     1
102
RTVSPropertyOp32
 70
     1
  0
ENDSEC
  0
EOF
