  0
SECTION
  2
HEADER
  9
$ACADVER
  1
AC1018
  9
$ACADMAINTVER
 70
     0
  9
$DWGCODEPAGE
  3
ANSI_1252
  9
$INSBASE
 10
0.0
 20
0.0
 30
0.0
  9
$EXTMIN
 10
-443.6500923271763
 20
-324.9151527289684
 30
0.0
  9
$EXTMAX
 10
-23.6500923271779
 20
-27.9151527289684
 30
0.0
  9
$LIMMIN
 10
0.0
 20
0.0
  9
$LIMMAX
 10
12.0
 20
9.0
  9
$ORTHOMODE
 70
     0
  9
$REGENMODE
 70
     1
  9
$FILLMODE
 70
     1
  9
$QTEXTMODE
 70
     0
  9
$MIRRTEXT
 70
     1
  9
$LTSCALE
 40
1.0
  9
$ATTMODE
 70
     1
  9
$TEXTSIZE
 40
0.2
  9
$TRACEWID
 40
0.05
  9
$TEXTSTYLE
  7
Standard
  9
$CLAYER
  8
0
  9
$CELTYPE
  6
ByLayer
  9
$CECOLOR
 62
   256
  9
$CELTSCALE
 40
1.0
  9
$DISPSILH
 70
     0
  9
$DIMSCALE
 40
1.0
  9
$DIMASZ
 40
0.18
  9
$DIMEXO
 40
0.0625
  9
$DIMDLI
 40
0.38
  9
$DIMRND
 40
0.0
  9
$DIMDLE
 40
0.0
  9
$DIMEXE
 40
0.18
  9
$DIMTP
 40
0.0
  9
$DIMTM
 40
0.0
  9
$DIMTXT
 40
0.18
  9
$DIMCEN
 40
0.09
  9
$DIMTSZ
 40
0.0
  9
$DIMTOL
 70
     0
  9
$DIMLIM
 70
     0
  9
$DIMTIH
 70
     1
  9
$DIMTOH
 70
     1
  9
$DIMSE1
 70
     0
  9
$DIMSE2
 70
     0
  9
$DIMTAD
 70
     0
  9
$DIMZIN
 70
     0
  9
$DIMBLK
  1

  9
$DIMASO
 70
     1
  9
$DIMSHO
 70
     1
  9
$DIMPOST
  1

  9
$DIMAPOST
  1

  9
$DIMALT
 70
     0
  9
$DIMALTD
 70
     2
  9
$DIMALTF
 40
25.4
  9
$DIMLFAC
 40
1.0
  9
$DIMTOFL
 70
     0
  9
$DIMTVP
 40
0.0
  9
$DIMTIX
 70
     0
  9
$DIMSOXD
 70
     0
  9
$DIMSAH
 70
     0
  9
$DIMBLK1
  1

  9
$DIMBLK2
  1

  9
$DIMSTYLE
  2
Standard
  9
$DIMCLRD
 70
     0
  9
$DIMCLRE
 70
     0
  9
$DIMCLRT
 70
     0
  9
$DIMTFAC
 40
1.0
  9
$DIMGAP
 40
0.09
  9
$DIMJUST
 70
     0
  9
$DIMSD1
 70
     0
  9
$DIMSD2
 70
     0
  9
$DIMTOLJ
 70
     1
  9
$DIMTZIN
 70
     0
  9
$DIMALTZ
 70
     0
  9
$DIMALTTZ
 70
     0
  9
$DIMUPT
 70
     0
  9
$DIMDEC
 70
     4
  9
$DIMTDEC
 70
     4
  9
$DIMALTU
 70
     2
  9
$DIMALTTD
 70
     2
  9
$DIMTXSTY
  7
Standard
  9
$DIMAUNIT
 70
     0
  9
$DIMADEC
 70
     0
  9
$DIMALTRND
 40
0.0
  9
$DIMAZIN
 70
     0
  9
$DIMDSEP
 70
    46
  9
$DIMATFIT
 70
     3
  9
$DIMFRAC
 70
     0
  9
$DIMLDRBLK
  1

  9
$DIMLUNIT
 70
     2
  9
$DIMLWD
 70
    -2
  9
$DIMLWE
 70
    -2
  9
$DIMTMOVE
 70
     0
  9
$LUNITS
 70
     2
  9
$LUPREC
 70
     4
  9
$SKETCHINC
 40
0.1
  9
$FILLETRAD
 40
0.5
  9
$AUNITS
 70
     0
  9
$AUPREC
 70
     0
  9
$MENU
  1
.
  9
$ELEVATION
 40
0.0
  9
$PELEVATION
 40
0.0
  9
$THICKNESS
 40
0.0
  9
$LIMCHECK
 70
     0
  9
$CHAMFERA
 40
0.5
  9
$CHAMFERB
 40
0.5
  9
$CHAMFERC
 40
1.0
  9
$CHAMFERD
 40
0.0
  9
$SKPOLY
 70
     0
  9
$TDCREATE
 40
2458178.314049965
  9
$TDUCREATE
 40
2458178.272383299
  9
$TDUPDATE
 40
2458178.314050509
  9
$TDUUPDATE
 40
2458178.272383843
  9
$TDINDWG
 40
0.0000000116
  9
$TDUSRTIMER
 40
0.0000000116
  9
$USRTIMER
 70
     1
  9
$ANGBASE
 50
0.0
  9
$ANGDIR
 70
     0
  9
$PDMODE
 70
     0
  9
$PDSIZE
 40
0.0
  9
$PLINEWID
 40
0.0
  9
$SPLFRAME
 70
     0
  9
$SPLINETYPE
 70
     6
  9
$SPLINESEGS
 70
     8
  9
$HANDSEED
  5
391
  9
$SURFTAB1
 70
     6
  9
$SURFTAB2
 70
     6
  9
$SURFTYPE
 70
     6
  9
$SURFU
 70
     6
  9
$SURFV
 70
     6
  9
$UCSBASE
  2

  9
$UCSNAME
  2

  9
$UCSORG
 10
0.0
 20
0.0
 30
0.0
  9
$UCSXDIR
 10
1.0
 20
0.0
 30
0.0
  9
$UCSYDIR
 10
0.0
 20
1.0
 30
0.0
  9
$UCSORTHOREF
  2

  9
$UCSORTHOVIEW
 70
     0
  9
$UCSORGTOP
 10
0.0
 20
0.0
 30
0.0
  9
$UCSORGBOTTOM
 10
0.0
 20
0.0
 30
0.0
  9
$UCSORGLEFT
 10
0.0
 20
0.0
 30
0.0
  9
$UCSORGRIGHT
 10
0.0
 20
0.0
 30
0.0
  9
$UCSORGFRONT
 10
0.0
 20
0.0
 30
0.0
  9
$UCSORGBACK
 10
0.0
 20
0.0
 30
0.0
  9
$PUCSBASE
  2

  9
$PUCSNAME
  2

  9
$PUCSORG
 10
0.0
 20
0.0
 30
0.0
  9
$PUCSXDIR
 10
1.0
 20
0.0
 30
0.0
  9
$PUCSYDIR
 10
0.0
 20
1.0
 30
0.0
  9
$PUCSORTHOREF
  2

  9
$PUCSORTHOVIEW
 70
     0
  9
$PUCSORGTOP
 10
0.0
 20
0.0
 30
0.0
  9
$PUCSORGBOTTOM
 10
0.0
 20
0.0
 30
0.0
  9
$PUCSORGLEFT
 10
0.0
 20
0.0
 30
0.0
  9
$PUCSORGRIGHT
 10
0.0
 20
0.0
 30
0.0
  9
$PUCSORGFRONT
 10
0.0
 20
0.0
 30
0.0
  9
$PUCSORGBACK
 10
0.0
 20
0.0
 30
0.0
  9
$USERI1
 70
     0
  9
$USERI2
 70
     0
  9
$USERI3
 70
     0
  9
$USERI4
 70
     0
  9
$USERI5
 70
     0
  9
$USERR1
 40
18.1
  9
$USERR2
 40
0.0
  9
$USERR3
 40
0.0
  9
$USERR4
 40
0.0
  9
$USERR5
 40
0.0
  9
$WORLDVIEW
 70
     1
  9
$SHADEDGE
 70
     3
  9
$SHADEDIF
 70
    70
  9
$TILEMODE
 70
     1
  9
$MAXACTVP
 70
    64
  9
$PINSBASE
 10
0.0
 20
0.0
 30
0.0
  9
$PLIMCHECK
 70
     0
  9
$PEXTMIN
 10
1.00000000000000E+20
 20
1.00000000000000E+20
 30
1.00000000000000E+20
  9
$PEXTMAX
 10
-1.00000000000000E+20
 20
-1.00000000000000E+20
 30
-1.00000000000000E+20
  9
$PLIMMIN
 10
0.0
 20
0.0
  9
$PLIMMAX
 10
12.0
 20
9.0
  9
$UNITMODE
 70
     0
  9
$VISRETAIN
 70
     1
  9
$PLINEGEN
 70
     0
  9
$PSLTSCALE
 70
     1
  9
$TREEDEPTH
 70
  3020
  9
$CMLSTYLE
  2
Standard
  9
$CMLJUST
 70
     0
  9
$CMLSCALE
 40
1.0
  9
$PROXYGRAPHICS
 70
     1
  9
$MEASUREMENT
 70
     1
  9
$CELWEIGHT
370
    -1
  9
$ENDCAPS
280
     0
  9
$JOINSTYLE
280
     0
  9
$LWDISPLAY
290
     0
  9
$INSUNITS
 70
     4
  9
$HYPERLINKBASE
  1

  9
$STYLESHEET
  1

  9
$XEDIT
290
     1
  9
$CEPSNTYPE
380
     0
  9
$PSTYLEMODE
290
     1
  9
$FINGERPRINTGUID
  2
{0F0D14C1-C4CA-4472-A28E-7CF68F012E36}
  9
$VERSIONGUID
  2
{FAEB1C32-E019-11D5-929B-00C0DF256EC4}
  9
$EXTNAMES
290
     1
  9
$PSVPSCALE
 40
0.0
  9
$OLESTARTUP
290
     0
  9
$SORTENTS
280
   127
  9
$INDEXCTL
280
     0
  9
$HIDETEXT
280
     1
  9
$XCLIPFRAME
290
     0
  9
$HALOGAP
280
     0
  9
$OBSCOLOR
 70
   257
  9
$OBSLTYPE
280
     0
  9
$INTERSECTIONDISPLAY
280
     0
  9
$INTERSECTIONCOLOR
 70
   257
  9
$DIMASSOC
280
     2
  9
$PROJECTNAME
  1

  0
ENDSEC
  0
SECTION
  2
CLASSES
  0
CLASS
  1
ACDBDICTIONARYWDFLT
  2
AcDbDictionaryWithDefault
  3
ObjectDBX Classes
 90
        0
 91
        4
280
     0
281
     0
  0
CLASS
  1
VISUALSTYLE
  2
AcDbVisualStyle
  3
ObjectDBX Classes
 90
     4095
 91
        4
280
     0
281
     0
  0
CLASS
  1
MATERIAL
  2
AcDbMaterial
  3
ObjectDBX Classes
 90
     1153
 91
        4
280
     0
281
     0
  0
ENDSEC
  0
SECTION
  2
TABLES
  0
TABLE
  2
VPORT
  5
8
330
0
100
AcDbSymbolTable
 70
     1
  0
VPORT
  5
29
330
8
100
AcDbSymbolTableRecord
100
AcDbViewportTableRecord
  2
*Active
 70
     0
 10
0.0
 20
0.0
 11
1.0
 21
1.0
 12
-233.6500923271771
 22
-176.4151527289684
 13
0.0
 23
0.0
 14
0.5
 24
0.5
 15
0.5
 25
0.5
 16
0.0
 26
0.0
 36
1.0
 17
0.0
 27
0.0
 37
0.0
 40
326.7
 41
1.60267857142857
 42
50.0
 43
0.0
 44
0.0
 50
0.0
 51
0.0
 71
     0
 72
   100
 73
     1
 74
     3
 75
     0
 76
     0
 77
     0
 78
     0
281
     0
 65
     1
110
0.0
120
0.0
130
0.0
111
1.0
121
0.0
131
0.0
112
0.0
122
1.0
132
0.0
 79
     0
146
0.0
  0
ENDTAB
  0
TABLE
  2
LTYPE
  5
5
330
0
100
AcDbSymbolTable
 70
     8
  0
LTYPE
  5
14
330
5
100
AcDbSymbolTableRecord
100
AcDbLinetypeTableRecord
  2
ByBlock
 70
     0
  3

 72
    65
 73
     0
 40
0.0
  0
LTYPE
  5
15
330
5
100
AcDbSymbolTableRecord
100
AcDbLinetypeTableRecord
  2
ByLayer
 70
     0
  3

 72
    65
 73
     0
 40
0.0
  0
LTYPE
  5
16
330
5
100
AcDbSymbolTableRecord
100
AcDbLinetypeTableRecord
  2
Continuous
 70
     0
  3
Solid line
 72
    65
 73
     0
 40
0.0
  0
LTYPE
  5
3F
330
5
100
AcDbSymbolTableRecord
100
AcDbLinetypeTableRecord
  2
DASHED
 70
     0
  3
Dashed
 72
    65
 73
     2
 40
15.0
 49
7.0
 74
     0
 49
-8.0
 74
     0
  0
LTYPE
  5
40
330
5
100
AcDbSymbolTableRecord
100
AcDbLinetypeTableRecord
  2
DOTTED
 70
     0
  3
Dotted
 72
    65
 73
     2
 40
1.0
 49
0.0
 74
     0
 49
-1.0
 74
     0
  0
LTYPE
  5
41
330
5
100
AcDbSymbolTableRecord
100
AcDbLinetypeTableRecord
  2
DOT_CENTER
 70
     0
  3
Dot_Center
 72
    65
 73
     4
 40
14.0
 49
12.0
 74
     0
 49
-1.0
 74
     0
 49
0.0
 74
     0
 49
-1.0
 74
     0
  0
LTYPE
  5
42
330
5
100
AcDbSymbolTableRecord
100
AcDbLinetypeTableRecord
  2
LONG_DASHED
 70
     0
  3
Long_Dashed
 72
    65
 73
     2
 40
15.0
 49
10.0
 74
     0
 49
-5.0
 74
     0
  0
LTYPE
  5
43
330
5
100
AcDbSymbolTableRecord
100
AcDbLinetypeTableRecord
  2
DASH_CENTER
 70
     0
  3
Dash_Center
 72
    65
 73
     4
 40
14.0
 49
11.0
 74
     0
 49
-1.0
 74
     0
 49
1.0
 74
     0
 49
-1.0
 74
     0
  0
LTYPE
  5
44
330
5
100
AcDbSymbolTableRecord
100
AcDbLinetypeTableRecord
  2
PHANTOM
 70
     0
  3
Phantom
 72
    65
 73
     6
 40
13.0
 49
10.0
 74
     0
 49
-1.0
 74
     0
 49
0.0
 74
     0
 49
-1.0
 74
     0
 49
0.0
 74
     0
 49
-1.0
 74
     0
  0
LTYPE
  5
45
330
5
100
AcDbSymbolTableRecord
100
AcDbLinetypeTableRecord
  2
CENTER_DASH_DASH
 70
     0
  3
Center_Dash_Dash
 72
    65
 73
     6
 40
14.0
 49
9.0
 74
     0
 49
-1.0
 74
     0
 49
1.0
 74
     0
 49
-1.0
 74
     0
 49
1.0
 74
     0
 49
-1.0
 74
     0
  0
ENDTAB
  0
TABLE
  2
LAYER
  5
2
330
0
100
AcDbSymbolTable
 70
     2
  0
LAYER
  5
10
330
2
100
AcDbSymbolTableRecord
100
AcDbLayerTableRecord
  2
0
 70
     0
 62
     7
  6
Continuous
370
    -3
390
F
  0
LAYER
  5
46
330
2
100
AcDbSymbolTableRecord
100
AcDbLayerTableRecord
  2
1
 70
     0
 62
     7
  6
Continuous
370
    -3
390
F
  0
ENDTAB
  0
TABLE
  2
STYLE
  5
3
330
0
100
AcDbSymbolTable
 70
     5
  0
STYLE
  5
11
330
3
100
AcDbSymbolTableRecord
100
AcDbTextStyleTableRecord
  2
Standard
 70
     0
 40
0.0
 41
1.0
 50
0.0
 71
     0
 42
0.2
  3
txt
  4

  0
STYLE
  5
EA
330
3
100
AcDbSymbolTableRecord
100
AcDbTextStyleTableRecord
  2
CONVERTER_11
 70
     0
 40
0.0
 41
0.9
 50
0.0
 71
     0
 42
0.2
  3
txt.shx
  4

  0
STYLE
  5
335
330
3
100
AcDbSymbolTableRecord
100
AcDbTextStyleTableRecord
  2
CONVERTER_12
 70
     0
 40
0.0
 41
0.81
 50
0.0
 71
     0
 42
0.2
  3
txt.shx
  4

  0
STYLE
  5
33B
330
3
100
AcDbSymbolTableRecord
100
AcDbTextStyleTableRecord
  2
CONVERTER_13
 70
     0
 40
0.0
 41
0.855
 50
0.0
 71
     0
 42
0.2
  3
txt.shx
  4

  0
STYLE
  5
33E
330
3
100
AcDbSymbolTableRecord
100
AcDbTextStyleTableRecord
  2
CONVERTER_14
 70
     0
 40
0.0
 41
0.72
 50
0.0
 71
     0
 42
0.2
  3
txt.shx
  4

  0
ENDTAB
  0
TABLE
  2
VIEW
  5
6
330
0
100
AcDbSymbolTable
 70
     0
  0
ENDTAB
  0
TABLE
  2
UCS
  5
7
330
0
100
AcDbSymbolTable
 70
     0
  0
ENDTAB
  0
TABLE
  2
APPID
  5
9
330
0
100
AcDbSymbolTable
 70
     1
  0
APPID
  5
12
330
9
100
AcDbSymbolTableRecord
100
AcDbRegAppTableRecord
  2
ACAD
 70
     0
  0
ENDTAB
  0
TABLE
  2
DIMSTYLE
  5
A
330
0
100
AcDbSymbolTable
 70
     4
100
AcDbDimStyleTable
  0
DIMSTYLE
105
27
330
A
100
AcDbSymbolTableRecord
100
AcDbDimStyleTableRecord
  2
Standard
 70
     0
178
     0
340
11
  0
DIMSTYLE
105
1C8
102
{ACAD_REACTORS
330
1C9
102
}
330
A
100
AcDbSymbolTableRecord
100
AcDbDimStyleTableRecord
  2
ME10_DIM_10
 70
     0
 41
3.5
 42
0.0
 44
1.5
 73
     0
 74
     0
 77
     1
 78
     8
140
3.5
147
1.5
172
     1
173
     1
174
     1
175
     1
176
     2
177
     2
178
     3
340
EA
  0
DIMSTYLE
105
20F
102
{ACAD_REACTORS
330
210
102
}
330
A
100
AcDbSymbolTableRecord
100
AcDbDimStyleTableRecord
  2
ME10_DIM_11
 70
     0
 41
3.5
 42
0.0
 44
1.5
 73
     0
 74
     0
 77
     1
 78
     8
140
3.5
147
1.5
172
     1
173
     1
174
     1
175
     1
176
     2
177
     2
271
     2
178
     3
271
     2
340
EA
  0
DIMSTYLE
105
21A
102
{ACAD_REACTORS
330
21B
102
}
330
A
100
AcDbSymbolTableRecord
100
AcDbDimStyleTableRecord
  2
ME10_DIM_12
 70
     0
 41
3.5
 42
0.0
 44
1.5
 73
     0
 74
     0
 77
     1
 78
     8
140
3.5
147
1.5
172
     1
173
     1
174
     1
175
     1
176
     2
177
     2
178
     3
340
EA
  0
ENDTAB
  0
TABLE
  2
BLOCK_RECORD
  5
1
330
0
100
AcDbSymbolTable
 70
    24
  0
BLOCK_RECORD
  5
1F
330
1
100
AcDbSymbolTableRecord
100
AcDbBlockTableRecord
  2
*Model_Space
340
22
  0
BLOCK_RECORD
  5
1B
330
1
100
AcDbSymbolTableRecord
100
AcDbBlockTableRecord
  2
*Paper_Space
340
1E
  0
BLOCK_RECORD
  5
23
330
1
100
AcDbSymbolTableRecord
100
AcDbBlockTableRecord
  2
*Paper_Space0
340
26
  0
BLOCK_RECORD
  5
47
330
1
100
AcDbSymbolTableRecord
100
AcDbBlockTableRecord
  2
AP_RSC-select_1
340
0
102
{BLKREFS
331
4E
102
}
  0
BLOCK_RECORD
  5
4A
330
1
100
AcDbSymbolTableRecord
100
AcDbBlockTableRecord
  2
AP_RSC-select_1_1
340
0
102
{BLKREFS
331
4F
102
}
  0
BLOCK_RECORD
  5
4D
330
1
100
AcDbSymbolTableRecord
100
AcDbBlockTableRecord
  2
a1
340
0
102
{BLKREFS
331
53
102
}
  0
BLOCK_RECORD
  5
52
330
1
100
AcDbSymbolTableRecord
100
AcDbBlockTableRecord
  2
Gen1
340
0
102
{BLKREFS
331
57
102
}
  0
BLOCK_RECORD
  5
56
330
1
100
AcDbSymbolTableRecord
100
AcDbBlockTableRecord
  2
1__1
340
0
102
{BLKREFS
331
5B
102
}
  0
BLOCK_RECORD
  5
5A
330
1
100
AcDbSymbolTableRecord
100
AcDbBlockTableRecord
  2
Paste1
340
0
102
{BLKREFS
331
8D
102
}
  0
BLOCK_RECORD
  5
5E
330
1
100
AcDbSymbolTableRecord
100
AcDbBlockTableRecord
  2
AP_RSC-select__2
340
0
102
{BLKREFS
331
62
102
}
  0
BLOCK_RECORD
  5
61
330
1
100
AcDbSymbolTableRecord
100
AcDbBlockTableRecord
  2
Right1
340
0
102
{BLKREFS
331
8E
102
}
  0
BLOCK_RECORD
  5
65
330
1
100
AcDbSymbolTableRecord
100
AcDbBlockTableRecord
  2
AP_RSC-select__3
340
0
102
{BLKREFS
331
69
102
}
  0
BLOCK_RECORD
  5
68
330
1
100
AcDbSymbolTableRecord
100
AcDbBlockTableRecord
  2
Left1
340
0
102
{BLKREFS
331
8F
102
}
  0
BLOCK_RECORD
  5
6C
330
1
100
AcDbSymbolTableRecord
100
AcDbBlockTableRecord
  2
AP_RSC-select__4
340
0
102
{BLKREFS
331
70
102
}
  0
BLOCK_RECORD
  5
6F
330
1
100
AcDbSymbolTableRecord
100
AcDbBlockTableRecord
  2
Top1
340
0
102
{BLKREFS
331
90
102
}
  0
BLOCK_RECORD
  5
73
330
1
100
AcDbSymbolTableRecord
100
AcDbBlockTableRecord
  2
AP_RSC-select__5
340
0
102
{BLKREFS
331
77
102
}
  0
BLOCK_RECORD
  5
76
330
1
100
AcDbSymbolTableRecord
100
AcDbBlockTableRecord
  2
Back1
340
0
102
{BLKREFS
331
91
102
}
  0
BLOCK_RECORD
  5
7A
330
1
100
AcDbSymbolTableRecord
100
AcDbBlockTableRecord
  2
AP_RSC-select__6
340
0
102
{BLKREFS
331
7E
102
}
  0
BLOCK_RECORD
  5
7D
330
1
100
AcDbSymbolTableRecord
100
AcDbBlockTableRecord
  2
Front1
340
0
102
{BLKREFS
331
92
102
}
  0
BLOCK_RECORD
  5
81
330
1
100
AcDbSymbolTableRecord
100
AcDbBlockTableRecord
  2
_rahmen
340
0
102
{BLKREFS
331
88
102
}
  0
BLOCK_RECORD
  5
84
330
1
100
AcDbSymbolTableRecord
100
AcDbBlockTableRecord
  2
_punkt
340
0
102
{BLKREFS
331
89
102
}
  0
BLOCK_RECORD
  5
87
330
1
100
AcDbSymbolTableRecord
100
AcDbBlockTableRecord
  2
A3I_CS
340
0
102
{BLKREFS
331
93
102
}
  0
BLOCK_RECORD
  5
8C
330
1
100
AcDbSymbolTableRecord
100
AcDbBlockTableRecord
  2
1__7
340
0
102
{BLKREFS
331
96
102
}
  0
BLOCK_RECORD
  5
1BF
330
1
100
AcDbSymbolTableRecord
100
AcDbBlockTableRecord
  2
*D21
340
0
  0
BLOCK_RECORD
  5
206
330
1
100
AcDbSymbolTableRecord
100
AcDbBlockTableRecord
  2
*D22
340
0
  0
BLOCK_RECORD
  5
211
330
1
100
AcDbSymbolTableRecord
100
AcDbBlockTableRecord
  2
*D23
340
0
  0
ENDTAB
  0
ENDSEC
  0
SECTION
  2
BLOCKS
  0
BLOCK
  5
20
330
1F
100
AcDbEntity
  8
0
100
AcDbBlockBegin
  2
*Model_Space
 70
     0
 10
0.0
 20
0.0
 30
0.0
  3
*Model_Space
  1

  0
ENDBLK
  5
21
330
1F
100
AcDbEntity
  8
0
100
AcDbBlockEnd
  0
BLOCK
  5
1C
330
1B
100
AcDbEntity
 67
     1
  8
0
100
AcDbBlockBegin
  2
*Paper_Space
 70
     0
 10
0.0
 20
0.0
 30
0.0
  3
*Paper_Space
  1

  0
ENDBLK
  5
1D
330
1B
100
AcDbEntity
 67
     1
  8
0
100
AcDbBlockEnd
  0
BLOCK
  5
24
330
23
100
AcDbEntity
  8
0
100
AcDbBlockBegin
  2
*Paper_Space0
 70
     0
 10
0.0
 20
0.0
 30
0.0
  3
*Paper_Space0
  1

  0
ENDBLK
  5
25
330
23
100
AcDbEntity
  8
0
100
AcDbBlockEnd
  0
BLOCK
  5
48
330
47
100
AcDbEntity
  8
0
100
AcDbBlockBegin
  2
AP_RSC-select_1
 70
     0
 10
-98.7017572992936
 20
-207.7101239613726
 30
0.0
  3
AP_RSC-select_1
  1

  0
LINE
  5
97
330
47
100
AcDbEntity
  8
0
  6
Continuous
 62
     7
100
AcDbLine
 10
-124.0669905240161
 20
-208.3725478866736
 30
0.0
 11
-123.1214959666878
 21
-207.5537255808621
 31
0.0
  0
LINE
  5
98
330
47
100
AcDbEntity
  8
0
  6
Continuous
 62
     7
100
AcDbLine
 10
-120.8851270227327
 20
-207.0616945945486
 30
0.0
 11
-121.3256819424037
 21
-207.4432263467581
 31
0.0
  0
LINE
  5
99
330
47
100
AcDbEntity
  8
0
  6
Continuous
 62
     7
100
AcDbLine
 10
-117.9408071954021
 20
-207.0693769683332
 30
0.0
 11
-119.3494308043147
 21
-208.2892807980599
 31
0.0
  0
LINE
  5
9A
330
47
100
AcDbEntity
  8
0
  6
Continuous
 62
     7
100
AcDbLine
 10
-122.4157843092855
 20
-208.6371540685001
 30
0.0
 11
-121.9216070439737
 21
-208.209184002754
 31
0.0
  0
LINE
  5
9B
330
47
100
AcDbEntity
  8
0
  6
Continuous
 62
     7
100
AcDbLine
 10
-100.3157867507664
 20
-212.5397289715162
 30
0.0
 11
-99.5880986990358
 21
-211.9095326326674
 31
0.0
  0
LINE
  5
9C
330
47
100
AcDbEntity
  8
0
  6
Continuous
 62
     7
100
AcDbLine
 10
-127.0437424646286
 20
-205.671639843261
 30
0.0
 11
-127.7279157685109
 21
-206.2641513050326
 31
0.0
  0
LINE
  5
9D
330
47
100
AcDbEntity
  8
0
  6
Continuous
 62
     7
100
AcDbLine
 10
-67.37041679293075
 20
-208.1539068586438
 30
0.0
 11
-67.37041043956681
 21
-212.1110916373362
 31
0.0
  0
LINE
  5
9E
330
47
100
AcDbEntity
  8
0
  6
Continuous
 62
     7
100
AcDbLine
 10
-90.57911710886546
 20
-227.3657858022577
 30
0.0
 11
-89.32895495518244
 21
-226.2831136182848
 31
0.0
  0
LINE
  5
9F
330
47
100
AcDbEntity
  8
0
  6
Continuous
 62
     7
100
AcDbLine
 10
-106.7885731747726
 20
-185.0991194396499
 30
0.0
 11
-74.11155797034255
 21
-194.5319512939356
 31
0.0
  0
LINE
  5
A0
330
47
100
AcDbEntity
  8
0
  6
Continuous
 62
     7
100
AcDbLine
 10
-106.7885731747726
 20
-185.0991194396499
 30
0.0
 11
-128.1856784485145
 21
-203.6295561747338
 31
0.0
  0
LINE
  5
A1
330
47
100
AcDbEntity
  8
0
  6
Continuous
 62
     7
100
AcDbLine
 10
-67.37041679293075
 20
-208.1539068586438
 30
0.0
 11
-74.11155797034255
 21
-194.5319512939356
 31
0.0
  0
LINE
  5
A2
330
47
100
AcDbEntity
  8
0
  6
Continuous
 62
     7
100
AcDbLine
 10
-88.37470299168473
 20
-230.3013425765535
 30
0.0
 11
-67.37041043956681
 21
-212.1110916373362
 31
0.0
  0
LINE
  5
A3
330
47
100
AcDbEntity
  8
0
  6
Continuous
 62
     7
100
AcDbLine
 10
-67.37041679293075
 20
-208.1539068586438
 30
0.0
 11
-88.37471335228153
 21
-226.3441612682266
 31
0.0
  0
LINE
  5
A4
330
47
100
AcDbEntity
  8
0
  6
Continuous
 62
     7
100
AcDbLine
 10
-74.11155797034255
 20
-194.5319512939356
 30
0.0
 11
-94.5612588304361
 21
-212.2419117391173
 31
0.0
  0
SPLINE
  5
A5
330
47
100
AcDbEntity
  8
0
  6
Continuous
 62
     7
100
AcDbSpline
210
0.0
220
0.0
230
1.0
 70
     8
 71
     3
 72
     9
 73
     5
 74
     3
 42
0.000000001
 43
0.0000000001
 44
0.00000001
 40
0.0
 40
0.0
 40
0.0
 40
0.0
 40
0.1318272787768319
 40
0.2648839091495546
 40
0.2648839091495546
 40
0.2648839091495546
 40
0.2648839091495546
 10
-128.2684247183635
 20
-206.8975175781825
 30
0.0
 10
-128.2903273985081
 20
-206.8594186368286
 30
0.0
 10
-128.3343369941771
 20
-206.7828654537425
 30
0.0
 10
-128.3756695395554
 20
-206.7048342451754
 30
0.0
 10
-128.396431717574
 20
-206.66563756093
 30
0.0
 11
-128.2684247183635
 21
-206.8975175781825
 31
0.0
 11
-128.3334696854172
 21
-206.7828546647313
 31
0.0
 11
-128.396431717574
 21
-206.66563756093
 31
0.0
  0
SPLINE
  5
A6
330
47
100
AcDbEntity
  8
0
  6
Continuous
 62
     7
100
AcDbSpline
210
0.0
220
0.0
230
1.0
 70
     8
 71
     3
 72
     9
 73
     5
 74
     3
 42
0.000000001
 43
0.0000000001
 44
0.00000001
 40
0.0
 40
0.0
 40
0.0
 40
0.0
 40
0.1550780106593976
 40
0.3092963737502186
 40
0.3092963737502186
 40
0.3092963737502186
 40
0.3092963737502186
 10
-128.396431717574
 20
-206.66563756093
 30
0.0
 10
-128.4181094229323
 20
-206.7125654490428
 30
0.0
 10
-128.4613446489413
 20
-206.8061610971527
 30
0.0
 10
-128.503938408087
 20
-206.9000504007708
 30
0.0
 10
-128.5251760867825
 20
-206.9468645803902
 30
0.0
 11
-128.396431717574
 21
-206.66563756093
 31
0.0
 11
-128.4613035651252
 21
-206.8064950520068
 31
0.0
 11
-128.5251760867825
 21
-206.9468645803902
 31
0.0
  0
SPLINE
  5
A7
330
47
100
AcDbEntity
  8
0
  6
Continuous
 62
     7
100
AcDbSpline
210
0.0
220
0.0
230
1.0
 70
     8
 71
     3
 72
    11
 73
     7
 74
     5
 42
0.000000001
 43
0.0000000001
 44
0.00000001
 40
0.0
 40
0.0
 40
0.0
 40
0.0
 40
1.189226264101933
 40
2.341225543082861
 40
2.742837615363749
 40
3.123280608720429
 40
3.123280608720429
 40
3.123280608720429
 40
3.123280608720429
 10
-93.9351254943669
 20
-215.6443915889502
 30
0.0
 10
-94.33107612299949
 20
-215.6628626078783
 30
0.0
 10
-95.1105827250934
 20
-215.6992264586304
 30
0.0
 10
-96.02410756523642
 20
-215.7433902853279
 30
0.0
 10
-96.66913717744079
 20
-215.7352271969444
 30
0.0
 10
-96.92905269541856
 20
-215.7143835059543
 30
0.0
 10
-97.05549268875251
 20
-215.7042437573844
 30
0.0
 11
-93.9351254943669
 21
-215.6443915889502
 31
0.0
 11
-95.1230439465155
 21
-215.7001486963487
 31
0.0
 11
-96.27441748266381
 21
-215.7381133201791
 31
0.0
 11
-96.67595760804386
 21
-215.7305114999493
 31
0.0
 11
-97.05549268875251
 21
-215.7042437573844
 31
0.0
  0
SPLINE
  5
A8
330
47
100
AcDbEntity
  8
0
  6
Continuous
 62
     7
100
AcDbSpline
210
0.0
220
0.0
230
1.0
 70
     8
 71
     3
 72
    19
 73
    15
 74
    13
 42
0.000000001
 43
0.0000000001
 44
0.00000001
 40
0.0
 40
0.0
 40
0.0
 40
0.0
 40
0.0161013348582488
 40
0.0331003556995591
 40
0.1872067877197207
 40
0.3553637050750428
 40
0.6146678714876057
 40
0.9017171350061648
 40
1.242541777411013
 40
1.607909352217137
 40
1.991981574994737
 40
2.388481272990313
 40
2.432431649516519
 40
2.476444771177162
 40
2.476444771177162
 40
2.476444771177162
 40
2.476444771177162
 10
-121.9216072820442
 20
-207.6496561848562
 30
0.0
 10
-121.92648781776
 20
-207.6474227627626
 30
0.0
 10
-121.9365209963377
 20
-207.6428314141048
 30
0.0
 10
-121.9938612798072
 20
-207.6182022870627
 30
0.0
 10
-122.1018155693387
 20
-207.5830438143398
 30
0.0
 10
-122.2924476218303
 20
-207.5460958277421
 30
0.0
 10
-122.5303969234752
 20
-207.527283707404
 30
0.0
 10
-122.8263369751629
 20
-207.530076437373
 30
0.0
 10
-123.1566977957642
 20
-207.554419348078
 30
0.0
 10
-123.5176720833929
 20
-207.5971003579671
 30
0.0
 10
-123.8956336156728
 20
-207.6525584153718
 30
0.0
 10
-124.1669236492119
 20
-207.6966148849845
 30
0.0
 10
-124.3262600650829
 20
-207.722886059812
 30
0.0
 10
-124.3551885338127
 20
-207.7276688030559
 30
0.0
 10
-124.3696630866247
 20
-207.7300618745219
 30
0.0
 11
-121.9216072820442
 21
-207.6496561848562
 31
0.0
 11
-121.9362738045297
 21
-207.64301191494
 31
0.0
 11
-121.9518862469994
 21
-207.6362874584343
 31
0.0
 11
-122.0980511791573
 21
-207.587455050597
 31
0.0
 11
-122.2629167115149
 21
-207.554347575888
 31
0.0
 11
-122.5212248601116
 21
-207.5316418318005
 31
0.0
 11
-122.8082721344279
 21
-207.5327103759929
 31
0.0
 11
-123.1482845785976
 21
-207.5562257856307
 31
0.0
 11
-123.5112544017937
 21
-207.5980154018305
 31
0.0
 11
-123.8913835497185
 21
-207.6529089633441
 31
0.0
 11
-124.2828739680741
 21
-207.7157362089234
 31
0.0
 11
-124.3262389121534
 21
-207.7228858400157
 31
0.0
 11
-124.3696630866247
 21
-207.7300618745219
 31
0.0
  0
SPLINE
  5
A9
330
47
100
AcDbEntity
  8
0
  6
Continuous
 62
     7
100
AcDbSpline
210
0.0
220
0.0
230
1.0
 70
    24
 71
     3
 72
    11
 73
     7
 74
     5
 42
0.000000001
 43
0.0000000001
 44
0.00000001
 40
0.0
 40
0.0
 40
0.0
 40
0.0
 40
0.34180065670819
 40
0.6836013134206432
 40
0.8068771640669061
 40
0.9301530147138795
 40
0.9301530147138795
 40
0.9301530147138795
 40
0.9301530147138795
 10
-121.9216072820442
 20
-207.6496561848562
 30
0.0
 10
-121.9216072335664
 20
-207.7635897370923
 30
0.0
 10
-121.9216071366117
 20
-207.9914568415657
 30
0.0
 10
-121.9216070221761
 20
-208.2604158962548
 30
0.0
 10
-121.9216069387346
 20
-208.4565333489233
 30
0.0
 10
-121.9216069037685
 20
-208.5387172493543
 30
0.0
 10
-121.9216068862856
 20
-208.57980919957
 30
0.0
 11
-121.9216072820442
 21
-207.6496561848562
 31
0.0
 11
-121.9216071366117
 21
-207.9914568415644
 31
0.0
 11
-121.9216069911841
 21
-208.3332574982769
 31
0.0
 11
-121.9216069387346
 21
-208.4565333489231
 31
0.0
 11
-121.9216068862856
 21
-208.57980919957
 31
0.0
  0
SPLINE
  5
AA
330
47
100
AcDbEntity
  8
0
  6
Continuous
 62
     7
100
AcDbSpline
210
0.0
220
0.0
230
1.0
 70
    24
 71
     3
 72
     9
 73
     5
 74
     3
 42
0.000000001
 43
0.0000000001
 44
0.00000001
 40
0.0
 40
0.0
 40
0.0
 40
0.0
 40
0.5265363101861029
 40
1.053072620371808
 40
1.053072620371808
 40
1.053072620371808
 40
1.053072620371808
 10
-121.3256766437999
 20
-208.4962989671166
 30
0.0
 10
-121.3256775269005
 20
-208.3207868637234
 30
0.0
 10
-121.3256792931018
 20
-207.9697626569373
 30
0.0
 10
-121.3256810593031
 20
-207.6187384501511
 30
0.0
 10
-121.3256819424037
 20
-207.4432263467581
 30
0.0
 11
-121.3256766437999
 21
-208.4962989671166
 31
0.0
 11
-121.3256792931018
 21
-207.9697626569371
 31
0.0
 11
-121.3256819424037
 21
-207.4432263467581
 31
0.0
  0
SPLINE
  5
AB
330
47
100
AcDbEntity
  8
0
  6
Continuous
 62
     7
100
AcDbSpline
210
0.0
220
0.0
230
1.0
 70
     8
 71
     3
 72
    23
 73
    19
 74
    17
 42
0.000000001
 43
0.0000000001
 44
0.00000001
 40
0.0
 40
0.0
 40
0.0
 40
0.0
 40
0.5863658554432001
 40
1.141847148210592
 40
1.618126115672271
 40
2.054314728322148
 40
2.118545175507526
 40
2.196033168677113
 40
2.258683297421298
 40
2.320490124196179
 40
2.441822306831473
 40
2.560527166081361
 40
2.791743315000979
 40
3.017223405677542
 40
3.584657259975673
 40
4.149446742272058
 40
4.712774132767582
 40
5.303094354217297
 40
5.303094354217297
 40
5.303094354217297
 40
5.303094354217297
 10
-95.57743969693631
 20
-214.4210012693417
 30
0.0
 10
-95.77278536891859
 20
-214.42789533832
 30
0.0
 10
-96.1531876324756
 20
-214.4413203442258
 30
0.0
 10
-96.69286265303103
 20
-214.434879135429
 30
0.0
 10
-97.18107699128032
 20
-214.396871660605
 30
0.0
 10
-97.5026280037115
 20
-214.3399440679843
 30
0.0
 10
-97.68869209559003
 20
-214.2899989226742
 30
0.0
 10
-97.75399801930965
 20
-214.2705742507045
 30
0.0
 10
-97.81799053088
 20
-214.2496667457014
 30
0.0
 10
-97.89524376006084
 20
-214.222363715686
 30
0.0
 10
-97.98890076628292
 20
-214.1854853744214
 30
0.0
 10
-98.1322925459424
 20
-214.12123036082
 30
0.0
 10
-98.3019600412401
 20
-214.0312563616992
 30
0.0
 10
-98.59032553513323
 20
-213.8479708890253
 30
0.0
 10
-98.94208526705447
 20
-213.5610307174662
 30
0.0
 10
-99.35841081676853
 20
-213.1801600339323
 30
0.0
 10
-99.79854756674379
 20
-212.8089925837153
 30
0.0
 10
-100.1407051124444
 20
-212.6308727182749
 30
0.0
 10
-100.3157867507664
 20
-212.5397289715162
 30
0.0
 11
-95.57743969693631
 21
-214.4210012693417
 31
0.0
 11
-96.16358876629741
 21
-214.4369445779666
 31
0.0
 11
-96.71899821997181
 21
-214.4280111692403
 31
0.0
 11
-97.19357502029179
 21
-214.3877803881043
 31
0.0
 11
-97.6223245332584
 21
-214.3075659176838
 31
0.0
 11
-97.68435345237583
 21
-214.290893678876
 31
0.0
 11
-97.7586251127704
 21
-214.2688004772074
 31
0.0
 11
-97.81817658334394
 21
-214.2493412636451
 31
0.0
 11
-97.8764505969666
 21
-214.2287445847748
 31
0.0
 11
-97.98934767447511
 21
-214.1842951925945
 31
0.0
 11
-98.09767898575501
 21
-214.135765092279
 31
0.0
 11
-98.3020948723303
 21
-214.0277139333337
 31
0.0
 11
-98.4925993815872
 21
-213.9070934403015
 31
0.0
 11
-98.93891865111031
 21
-213.5566932561428
 31
0.0
 11
-99.36176317991631
 21
-213.1822741543122
 31
0.0
 11
-99.802763850281
 21
-212.8317657266205
 31
0.0
 11
-100.3157867507664
 21
-212.5397289715162
 31
0.0
  0
SPLINE
  5
AC
330
47
100
AcDbEntity
  8
0
  6
Continuous
 62
     7
100
AcDbSpline
210
0.0
220
0.0
230
1.0
 70
    24
 71
     3
 72
    11
 73
     7
 74
     5
 42
0.000000001
 43
0.0000000001
 44
0.00000001
 40
0.0
 40
0.0
 40
0.0
 40
0.0
 40
0.2165067587485511
 40
0.4330135174971022
 40
0.6495202762454827
 40
0.8660270349936927
 40
0.8660270349936927
 40
0.8660270349936927
 40
0.8660270349936927
 10
-95.5774396672693
 20
-213.554974234348
 30
0.0
 10
-95.57743966974161
 20
-213.6271431539309
 30
0.0
 10
-95.57743967468619
 20
-213.7714809930966
 30
0.0
 10
-95.57743968210298
 20
-213.987987751845
 30
0.0
 10
-95.5774396895197
 20
-214.2044945105933
 30
0.0
 10
-95.57743969446412
 20
-214.348832349759
 30
0.0
 10
-95.57743969693631
 20
-214.4210012693417
 30
0.0
 11
-95.5774396672693
 21
-213.554974234348
 31
0.0
 11
-95.57743967468622
 21
-213.7714809930966
 31
0.0
 11
-95.577439682103
 21
-213.9879877518451
 31
0.0
 11
-95.5774396895197
 21
-214.2044945105935
 31
0.0
 11
-95.57743969693631
 21
-214.4210012693417
 31
0.0
  0
SPLINE
  5
AD
330
47
100
AcDbEntity
  8
0
  6
Continuous
 62
     7
100
AcDbSpline
210
0.0
220
0.0
230
1.0
 70
     8
 71
     3
 72
     9
 73
     5
 74
     3
 42
0.000000001
 43
0.0000000001
 44
0.00000001
 40
0.0
 40
0.0
 40
0.0
 40
0.0
 40
0.3587256210184223
 40
0.7182115303240515
 40
0.7182115303240515
 40
0.7182115303240515
 40
0.7182115303240515
 10
-98.841011022172
 20
-214.940814588224
 30
0.0
 10
-98.93130180755719
 20
-214.8624175296031
 30
0.0
 10
-99.11207472875503
 20
-214.7054572414492
 30
0.0
 10
-99.2909213604778
 20
-214.546305532627
 30
0.0
 10
-99.38043933193741
 20
-214.4666454328678
 30
0.0
 11
-98.841011022172
 21
-214.940814588224
 31
0.0
 11
-99.1114028184328
 21
-214.7050767089617
 31
0.0
 11
-99.38043933193741
 21
-214.4666454328678
 31
0.0
  0
SPLINE
  5
AE
330
47
100
AcDbEntity
  8
0
  6
Continuous
 62
     7
100
AcDbSpline
210
0.0
220
0.0
230
1.0
 70
    24
 71
     3
 72
     9
 73
     5
 74
     3
 42
0.000000001
 43
0.0000000001
 44
0.00000001
 40
0.0
 40
0.0
 40
0.0
 40
0.0
 40
0.2321200480206125
 40
0.4642400960411965
 40
0.4642400960411965
 40
0.4642400960411965
 40
0.4642400960411965
 10
-99.3804377775117
 20
-214.9308855289064
 30
0.0
 10
-99.38043803658263
 20
-214.8535121795667
 30
0.0
 10
-99.38043855472446
 20
-214.6987654808871
 30
0.0
 10
-99.3804390728664
 20
-214.5440187822076
 30
0.0
 10
-99.38043933193741
 20
-214.4666454328678
 30
0.0
 11
-99.3804377775117
 21
-214.9308855289064
 31
0.0
 11
-99.38043855472448
 21
-214.6987654808871
 31
0.0
 11
-99.38043933193741
 21
-214.4666454328678
 31
0.0
  0
SPLINE
  5
AF
330
47
100
AcDbEntity
  8
0
  6
Continuous
 62
     7
100
AcDbSpline
210
0.0
220
0.0
230
1.0
 70
    24
 71
     3
 72
    11
 73
     7
 74
     5
 42
0.000000001
 43
0.0000000001
 44
0.00000001
 40
0.0
 40
0.0
 40
0.0
 40
0.0
 40
0.691451634612239
 40
1.382903269227207
 40
1.841584776874634
 40
2.300266284523341
 40
2.300266284523341
 40
2.300266284523341
 40
2.300266284523341
 10
-100.3157867507664
 20
-212.5397289715162
 30
0.0
 10
-100.3157862093345
 20
-212.7702128497197
 30
0.0
 10
-100.3157851264714
 20
-213.2311806061274
 30
0.0
 10
-100.3157836844462
 20
-213.8450421984173
 30
0.0
 10
-100.3157824246899
 20
-214.3813137483862
 30
0.0
 10
-100.3157817063644
 20
-214.6871014201507
 30
0.0
 10
-100.3157813472018
 20
-214.8399952560332
 30
0.0
 11
-100.3157867507664
 21
-212.5397289715162
 31
0.0
 11
-100.3157851264713
 21
-213.2311806061266
 31
0.0
 11
-100.3157835021791
 21
-213.9226322407396
 31
0.0
 11
-100.3157824246898
 21
-214.3813137483858
 31
0.0
 11
-100.3157813472018
 21
-214.8399952560332
 31
0.0
  0
SPLINE
  5
B0
330
47
100
AcDbEntity
  8
0
  6
Continuous
 62
     7
100
AcDbSpline
210
0.0
220
0.0
230
1.0
 70
     8
 71
     3
 72
    15
 73
    11
 74
     9
 42
0.000000001
 43
0.0000000001
 44
0.00000001
 40
0.0
 40
0.0
 40
0.0
 40
0.0
 40
1.071764013849248
 40
2.209586340382998
 40
2.581518895000943
 40
2.986685533207054
 40
3.20376821587461
 40
3.431607915005833
 40
3.678793080534782
 40
3.905510529575786
 40
3.905510529575786
 40
3.905510529575786
 40
3.905510529575786
 10
-128.1856784485145
 20
-203.6295561747338
 30
0.0
 10
-128.337126976452
 20
-203.9530684887168
 30
0.0
 10
-128.6493585953819
 20
-204.6200328333736
 30
0.0
 10
-129.0098423359395
 20
-205.4020610912439
 30
0.0
 10
-129.3169863159088
 20
-205.961788301444
 30
0.0
 10
-129.4840971613495
 20
-206.2480013455411
 30
0.0
 10
-129.6321650960013
 20
-206.4896135927955
 30
0.0
 10
-129.7554835467171
 20
-206.6845979710884
 30
0.0
 10
-129.8831041698572
 20
-206.8806435591719
 30
0.0
 10
-129.9713759381996
 20
-207.0116489014266
 30
0.0
 10
-130.0136056123187
 20
-207.0743225271733
 30
0.0
 11
-128.1856784485145
 21
-203.6295561747338
 31
0.0
 11
-128.6391571395677
 21
-204.6006561569556
 31
0.0
 11
-129.134588976817
 21
-205.6249544260488
 31
0.0
 11
-129.3130253086156
 21
-205.9512890714503
 31
0.0
 11
-129.5173187437481
 21
-206.30118076501
 31
0.0
 11
-129.6307149820764
 21
-206.4862920404512
 31
0.0
 11
-129.7524392261425
 21
-206.6788904230419
 31
0.0
 11
-129.8873941670658
 21
-206.8859838080633
 31
0.0
 11
-130.0136056123187
 21
-207.0743225271733
 31
0.0
  0
SPLINE
  5
B1
330
47
100
AcDbEntity
  8
0
  6
Continuous
 62
     7
100
AcDbSpline
210
0.0
220
0.0
230
1.0
 70
     8
 71
     3
 72
    23
 73
    19
 74
    17
 42
0.000000001
 43
0.0000000001
 44
0.00000001
 40
0.0
 40
0.0
 40
0.0
 40
0.0
 40
1.912455379643833
 40
3.910962983333677
 40
5.948644461098807
 40
7.979070050850414
 40
8.979593915960104
 40
9.963056057530311
 40
10.47234625874667
 40
10.97539179719471
 40
11.22993942426819
 40
11.48207383682492
 40
11.61895536767805
 40
11.73653818940338
 40
11.85745580900993
 40
11.96067880020206
 40
13.76652674281165
 40
15.52008593804115
 40
15.52008593804115
 40
15.52008593804115
 40
15.52008593804115
 10
-88.37471335228153
 20
-226.3441612682266
 30
0.0
 10
-88.58070271546148
 20
-225.7408205249528
 30
0.0
 10
-89.00195006007971
 20
-224.5069913092785
 30
0.0
 10
-89.57618576615926
 20
-222.6088449187456
 30
0.0
 10
-90.17593540418149
 20
-220.6776797290967
 30
0.0
 10
-90.71875705497655
 20
-219.0771329793803
 30
0.0
 10
-91.19921513149225
 20
-217.8280186004579
 30
0.0
 10
-91.52392402200573
 20
-217.0627351587254
 30
0.0
 10
-91.80360444978396
 20
-216.459054278887
 30
0.0
 10
-91.99064440626421
 20
-216.080378895067
 30
0.0
 10
-92.1459910657253
 20
-215.7817865289812
 30
0.0
 10
-92.24782162196455
 20
-215.5929642236267
 30
0.0
 10
-92.32976630327805
 20
-215.4453108596699
 30
0.0
 10
-92.3913777618136
 20
-215.3364019088577
 30
0.0
 10
-92.44822702659758
 20
-215.2376928183268
 30
0.0
 10
-92.79007261190574
 20
-214.6537303519867
 30
0.0
 10
-93.4691470210216
 20
-213.6362814456956
 30
0.0
 10
-94.20080431099751
 20
-212.7021273044706
 30
0.0
 10
-94.5612588304361
 20
-212.2419117391173
 30
0.0
 11
-88.37471335228153
 21
-226.3441612682266
 31
0.0
 11
-88.9822286754852
 21
-224.530763716984
 31
0.0
 11
-89.57470837899042
 21
-222.6220991416482
 31
0.0
 11
-90.18505646223785
 21
-220.6779743954704
 31
0.0
 11
-90.84617692466804
 21
-218.7581963317018
 31
0.0
 11
-91.20658053334765
 21
-217.8248382843479
 31
0.0
 11
-91.59209226849703
 21
-216.9200850102457
 31
0.0
 11
-91.80640197826443
 21
-216.4580808353387
 31
0.0
 11
-92.02940712790968
 21
-216.0071667445718
 31
0.0
 11
-92.14692233398759
 21
-215.7813688906041
 31
0.0
 11
-92.2666340933265
 21
-215.5594660813931
 31
0.0
 11
-92.33306285577261
 21
-215.43978411522
 31
0.0
 11
-92.39095970750492
 21
-215.3374431432796
 31
0.0
 11
-92.45130360264089
 21
-215.2326591508719
 31
0.0
 11
-92.50344925244735
 21
-215.143575947479
 31
0.0
 11
-93.49730260879151
 21
-213.6358152566347
 31
0.0
 11
-94.5612588304361
 21
-212.2419117391173
 31
0.0
  0
SPLINE
  5
B2
330
47
100
AcDbEntity
  8
0
  6
Continuous
 62
     7
100
AcDbSpline
210
0.0
220
0.0
230
1.0
 70
     8
 71
     3
 72
    19
 73
    15
 74
    13
 42
0.000000001
 43
0.0000000001
 44
0.00000001
 40
0.0
 40
0.0
 40
0.0
 40
0.0
 40
2.921167374531325
 40
5.825664526232039
 40
6.575885913514703
 40
7.314684057439417
 40
7.688862517684941
 40
8.059487715842376
 40
8.251079295254085
 40
8.436332264767442
 40
8.60987206944698
 40
8.786368480315794
 40
10.12252667377107
 40
11.42515908733537
 40
11.42515908733537
 40
11.42515908733537
 40
11.42515908733537
 10
-89.32895575841783
 20
-226.0186383755795
 30
0.0
 10
-89.6135830840431
 20
-225.0875218230584
 30
0.0
 10
-90.18121346584212
 20
-223.2306023239386
 30
0.0
 10
-90.89855817565531
 20
-221.1571794660262
 30
0.0
 10
-91.46131273568945
 20
-219.8048881444826
 30
0.0
 10
-91.71720711589597
 20
-219.2388564250014
 30
0.0
 10
-91.93296649726965
 20
-218.7938425757184
 30
0.0
 10
-92.0746372817942
 20
-218.5156866013851
 30
0.0
 10
-92.19128359355366
 20
-218.2955163074883
 30
0.0
 10
-92.27900131373542
 20
-218.134379551616
 30
0.0
 10
-92.36606156911378
 20
-217.9786249866446
 30
0.0
 10
-92.64591843506818
 20
-217.4911909493543
 30
0.0
 10
-93.15038188846873
 20
-216.6983704290751
 30
0.0
 10
-93.67576930048064
 20
-215.9927294815763
 30
0.0
 10
-93.9351254943669
 20
-215.6443915889502
 30
0.0
 11
-89.32895575841783
 21
-226.0186383755795
 31
0.0
 11
-90.19990369180414
 21
-223.2303291195895
 31
0.0
 11
-91.17742003959637
 21
-220.4952668702771
 31
0.0
 11
-91.46627380069921
 21
-219.8028828471851
 31
0.0
 11
-91.77125098675009
 21
-219.129970063665
 31
0.0
 11
-91.93458562743119
 21
-218.7933228960566
 31
0.0
 11
-92.10288719883565
 21
-218.4631144486199
 31
0.0
 11
-92.1925961950738
 21
-218.2938228973124
 31
0.0
 11
-92.28118050287117
 21
-218.1311223036744
 31
0.0
 11
-92.36586702204801
 21
-217.9796486844664
 31
0.0
 11
-92.45372212377731
 21
-217.8265720233198
 31
0.0
 11
-93.16986267888254
 21
-216.6985377039972
 31
0.0
 11
-93.9351254943669
 21
-215.6443915889502
 31
0.0
  0
SPLINE
  5
B3
330
47
100
AcDbEntity
  8
0
  6
Continuous
 62
     7
100
AcDbSpline
210
0.0
220
0.0
230
1.0
 70
    24
 71
     3
 72
    11
 73
     7
 74
     5
 42
0.000000001
 43
0.0000000001
 44
0.00000001
 40
0.0
 40
0.0
 40
0.0
 40
0.0
 40
0.9892953270814445
 40
1.978590654165305
 40
2.967885981251695
 40
3.957181308340472
 40
3.957181308340472
 40
3.957181308340472
 40
3.957181308340472
 10
-88.37470299168473
 20
-230.3013425765535
 30
0.0
 10
-88.37470385506941
 20
-229.9715774675275
 30
0.0
 10
-88.37470558183799
 20
-229.3120472494747
 30
0.0
 10
-88.37470817198836
 20
-228.3227519223942
 30
0.0
 10
-88.37471076213637
 20
-227.3334565953112
 30
0.0
 10
-88.37471248890007
 20
-226.673926377255
 30
0.0
 10
-88.37471335228153
 20
-226.3441612682266
 30
0.0
 11
-88.37470299168473
 21
-230.3013425765535
 31
0.0
 11
-88.3747055818382
 21
-229.3120472494755
 31
0.0
 11
-88.37470817198883
 21
-228.322751922395
 31
0.0
 11
-88.37471076213662
 21
-227.333456595312
 31
0.0
 11
-88.37471335228153
 21
-226.3441612682266
 31
0.0
  0
SPLINE
  5
B4
330
47
100
AcDbEntity
  8
0
  6
Continuous
 62
     7
100
AcDbSpline
210
0.0
220
0.0
230
1.0
 70
    24
 71
     3
 72
    11
 73
     7
 74
     5
 42
0.000000001
 43
0.0000000001
 44
0.00000001
 40
0.0
 40
0.0
 40
0.0
 40
0.0
 40
0.6424685634476718
 40
1.28493712689523
 40
1.927405690342589
 40
2.569874253789749
 40
2.569874253789749
 40
2.569874253789749
 40
2.569874253789749
 10
-89.32895575841783
 20
-226.0186383755795
 30
0.0
 10
-89.32895510800599
 20
-226.2327945633945
 30
0.0
 10
-89.32895380718229
 20
-226.6611069390242
 30
0.0
 10
-89.32895185594657
 20
-227.3035755024688
 30
0.0
 10
-89.32894990471081
 20
-227.9460440659131
 30
0.0
 10
-89.32894860388687
 20
-228.3743564415427
 30
0.0
 10
-89.32894795347488
 20
-228.5885126293574
 30
0.0
 11
-89.32895575841783
 21
-226.0186383755795
 31
0.0
 11
-89.32895380718232
 21
-226.6611069390241
 31
0.0
 11
-89.32895185594666
 21
-227.3035755024687
 31
0.0
 11
-89.32894990471084
 21
-227.9460440659131
 31
0.0
 11
-89.32894795347488
 21
-228.5885126293574
 31
0.0
  0
SPLINE
  5
B5
330
47
100
AcDbEntity
  8
0
  6
Continuous
 62
     7
100
AcDbSpline
210
0.0
220
0.0
230
1.0
 70
     8
 71
     3
 72
     9
 73
     5
 74
     3
 42
0.000000001
 43
0.0000000001
 44
0.00000001
 40
0.0
 40
0.0
 40
0.0
 40
0.0
 40
0.9189881865820501
 40
1.835031618819764
 40
1.835031618819764
 40
1.835031618819764
 40
1.835031618819764
 10
-90.00312799192056
 20
-229.1080287975454
 30
0.0
 10
-90.0962102209219
 20
-228.816173999655
 30
0.0
 10
-90.28207643044647
 20
-228.2333996132758
 30
0.0
 10
-90.4802095273212
 20
-227.6546808388304
 30
0.0
 10
-90.57911710886546
 20
-227.3657858022577
 30
0.0
 11
-90.00312799192056
 21
-229.1080287975454
 31
0.0
 11
-90.28545126080722
 21
-228.2334815666585
 31
0.0
 11
-90.57911710886546
 21
-227.3657858022577
 31
0.0
  0
SPLINE
  5
B6
330
47
100
AcDbEntity
  8
0
  6
Continuous
 62
     7
100
AcDbSpline
210
0.0
220
0.0
230
1.0
 70
     8
 71
     3
 72
    11
 73
     7
 74
     5
 42
0.000000001
 43
0.0000000001
 44
0.00000001
 40
0.0
 40
0.0
 40
0.0
 40
0.0
 40
0.4391038316844771
 40
0.8828287346146124
 40
1.314513936325901
 40
1.749327587464418
 40
1.749327587464418
 40
1.749327587464418
 40
1.749327587464418
 10
-89.32894795347488
 20
-228.5885126293574
 30
0.0
 10
-89.43073647615849
 20
-228.4833314069143
 30
0.0
 10
-89.63538474138558
 20
-228.2718620590911
 30
0.0
 10
-89.94202244750944
 20
-227.95888498412
 30
0.0
 10
-90.2540442524193
 20
-227.6530895955707
 30
0.0
 10
-90.47049898714823
 20
-227.4617839626908
 30
0.0
 10
-90.57911710886546
 20
-227.3657858022577
 30
0.0
 11
-89.32894795347488
 21
-228.5885126293574
 31
0.0
 11
-89.63463263067418
 21
-228.2732840573486
 31
0.0
 11
-89.94592698188634
 21
-227.9570758713782
 31
0.0
 11
-90.2558068465348
 21
-227.6565320589027
 31
0.0
 11
-90.57911710886546
 21
-227.3657858022577
 31
0.0
  0
SPLINE
  5
B7
330
47
100
AcDbEntity
  8
0
  6
Continuous
 62
     7
100
AcDbSpline
210
0.0
220
0.0
230
1.0
 70
     8
 71
     3
 72
   143
 73
   139
 74
   137
 42
0.000000001
 43
0.0000000001
 44
0.00000001
 40
0.0
 40
0.0
 40
0.0
 40
0.0
 40
0.4913459827704607
 40
0.9630233527552841
 40
1.409224329550627
 40
1.685281074933374
 40
1.947787638887924
 40
2.012378229382738
 40
2.07608793955493
 40
2.132186347828454
 40
2.200405528335637
 40
2.309936892877636
 40
2.417292789765849
 40
2.878170657811164
 40
3.322843913157886
 40
3.763089035234302
 40
4.203884186744334
 40
4.556472149629704
 40
4.913848372229406
 40
5.281292536386905
 40
5.514289379332896
 40
5.757104941212297
 40
5.821220925212483
 40
5.886253109621191
 40
5.945321966009294
 40
6.018962094207666
 40
6.146626243785539
 40
6.277534594045964
 40
6.761099184214772
 40
7.279055213339864
 40
7.82206053127069
 40
8.379257626564097
 40
8.939107241647632
 40
9.456889072395835
 40
9.957486783284196
 40
10.43250979390471
 40
10.88603694059121
 40
11.30195464510309
 40
11.38335343535096
 40
11.4845135199405
 40
11.57393978121069
 40
11.66200798178503
 40
11.82776402808286
 40
11.99051066138948
 40
12.29491593854279
 40
12.59524055575737
 40
12.94695025532151
 40
13.29496834884787
 40
13.64158869906506
 40
13.90489807447415
 40
14.1782193322065
 40
14.32018752088835
 40
14.46821169567776
 40
14.50953297262414
 40
14.54242249889623
 40
14.58103595327909
 40
14.61852505652636
 40
14.69137549692386
 40
14.76586229565033
 40
15.21243260772476
 40
15.70046941696047
 40
16.38822485170697
 40
17.08730673283145
 40
17.75874120301258
 40
18.12484919161474
 40
18.4627673513717
 40
18.59931755008857
 40
18.72963176926593
 40
18.80153118759294
 40
18.85755722533785
 40
18.9202442450745
 40
18.98151172093867
 40
19.19255850121209
 40
19.39366068171482
 40
19.73054918352564
 40
20.06881349828707
 40
20.43446739145882
 40
20.80349632557672
 40
21.17186831793756
 40
21.54131408095419
 40
21.80613926966027
 40
22.0873798827722
 40
22.15596213226392
 40
22.23299842630911
 40
22.29454090798989
 40
22.37007297284552
 40
22.51565424672566
 40
22.66825934760904
 40
23.10040420756207
 40
23.57163942262434
 40
24.2451403782056
 40
24.93945163878767
 40
25.62269408132297
 40
26.26304539758411
 40
26.57323668517024
 40
26.85948657917569
 40
27.11889127633448
 40
27.3242826832813
 40
27.50839323769607
 40
27.5784490868582
 40
27.65760610163514
 40
27.72145602213676
 40
27.78429595050404
 40
28.00354625396398
 40
28.22704192608926
 40
28.5956599381545
 40
28.97072425118057
 40
29.25659177501815
 40
29.52479710699511
 40
29.70745463623406
 40
29.89616378266582
 40
29.93230397353549
 40
29.96243469187642
 40
30.00020075523042
 40
30.03707399919301
 40
30.11243320306124
 40
30.19166466148547
 40
30.36886345111684
 40
30.56346242974307
 40
30.90696397947055
 40
31.28709748898166
 40
31.87665871928822
 40
32.50140408895131
 40
33.13587018553057
 40
33.75449231589923
 40
34.14773883196553
 40
34.51609473954927
 40
34.85380024837276
 40
34.92543298172884
 40
34.9948652038453
 40
35.05650967485031
 40
35.13084910983927
 40
35.26538084721263
 40
35.39355074125806
 40
35.53396072086244
 40
35.66883183999315
 40
35.79398403494591
 40
35.91646146964799
 40
35.91646146964799
 40
35.91646146964799
 40
35.91646146964799
 10
-95.5774396672693
 20
-213.554974234348
 30
0.0
 10
-95.74123201126417
 20
-213.5548780406303
 30
0.0
 10
-96.06226008077691
 20
-213.5546895170143
 30
0.0
 10
-96.53178738013415
 20
-213.5364718147966
 30
0.0
 10
-96.92847061965121
 20
-213.5008535428117
 30
0.0
 10
-97.25299232119818
 20
-213.4504455075964
 30
0.0
 10
-97.44949090652703
 20
-213.4069424465498
 30
0.0
 10
-97.57507907365752
 20
-213.3723080629137
 30
0.0
 10
-97.63397115832501
 20
-213.3546872858765
 30
0.0
 10
-97.69361678883563
 20
-213.3354203499784
 30
0.0
 10
-97.76721673108953
 20
-213.3097226052263
 30
0.0
 10
-97.85586082811294
 20
-213.2753697173547
 30
0.0
 10
-98.0630095290497
 20
-213.1851126541249
 30
0.0
 10
-98.35753428182005
 20
-213.0163375273931
 30
0.0
 10
-98.71091981697745
 20
-212.7384959843456
 30
0.0
 10
-99.03327885359816
 20
-212.4359402849946
 30
0.0
 10
-99.325967483608
 20
-212.1471436671145
 30
0.0
 10
-99.60801761683501
 20
-211.8869506674593
 30
0.0
 10
-99.88825108273903
 20
-211.6616822166016
 30
0.0
 10
-100.1571315523026
 20
-211.4880162123813
 30
0.0
 10
-100.4080998760469
 20
-211.3607838881296
 30
0.0
 10
-100.5752631414442
 20
-211.2933747273618
 30
0.0
 10
-100.6926310165502
 20
-211.2533884360428
 30
0.0
 10
-100.752468882056
 20
-211.2345094012929
 30
0.0
 10
-100.8157479696343
 20
-211.2160450007534
 30
0.0
 10
-100.8995910823222
 20
-211.1935870859597
 30
0.0
 10
-101.007413985517
 20
-211.1682300851662
 30
0.0
 10
-101.2500658473938
 20
-211.1198967362112
 30
0.0
 10
-101.6250550853667
 20
-211.0719169630166
 30
0.0
 10
-102.1391496733509
 20
-211.0410657228206
 30
0.0
 10
-102.6785336757406
 20
-211.0309720073224
 30
0.0
 10
-103.2318859547841
 20
-211.0320269055184
 30
0.0
 10
-103.776822673171
 20
-211.0345908816115
 30
0.0
 10
-104.3029153429922
 20
-211.0295859125575
 30
0.0
 10
-104.8004336137395
 20
-211.0095950245381
 30
0.0
 10
-105.2751734941538
 20
-210.9661709898569
 30
0.0
 10
-105.7174381357387
 20
-210.8904019189744
 30
0.0
 10
-106.0226654607221
 20
-210.800028368098
 30
0.0
 10
-106.2067111910819
 20
-210.7229534753391
 30
0.0
 10
-106.2888070459411
 20
-210.6844022050011
 30
0.0
 10
-106.3711115539704
 20
-210.6412951302462
 30
0.0
 10
-106.4702987741584
 20
-210.5842079134757
 30
0.0
 10
-106.5867403104494
 20
-210.5083342908445
 30
0.0
 10
-106.7557153044462
 20
-210.3818172339584
 30
0.0
 10
-106.9477274209598
 20
-210.2121946541263
 30
0.0
 10
-107.1718269687664
 20
-209.985311849003
 30
0.0
 10
-107.3991896296712
 20
-209.741546414474
 30
0.0
 10
-107.6444212115537
 20
-209.4933370348955
 30
0.0
 10
-107.8893039035466
 20
-209.2870662186766
 30
0.0
 10
-108.1382188478562
 20
-209.1283799321566
 30
0.0
 10
-108.3450006791737
 20
-209.0344287169562
 30
0.0
 10
-108.5238334406127
 20
-208.9766966700098
 30
0.0
 10
-108.6313526292233
 20
-208.9509228711983
 30
0.0
 10
-108.7041315550303
 20
-208.9370980341041
 30
0.0
 10
-108.7412027433828
 20
-208.9307549804675
 30
0.0
 10
-108.7771135933167
 20
-208.9252349103444
 30
0.0
 10
-108.82631072529
 20
-208.918522857407
 30
0.0
 10
-108.8875394765249
 20
-208.9116054030888
 30
0.0
 10
-109.084822004204
 20
-208.8948567008708
 30
0.0
 10
-109.4220355056591
 20
-208.8949557882878
 30
0.0
 10
-109.9612262679046
 20
-208.9391377102926
 30
0.0
 10
-110.5806881949974
 20
-209.0234111952601
 30
0.0
 10
-111.2589652899634
 20
-209.1259454900451
 30
0.0
 10
-111.8335701418048
 20
-209.1986958410475
 30
0.0
 10
-112.2912810646207
 20
-209.2284922748681
 30
0.0
 10
-112.5719067446261
 20
-209.2270389350475
 30
0.0
 10
-112.7728709091226
 20
-209.2101061048701
 30
0.0
 10
-112.8847589705258
 20
-209.1942907853312
 30
0.0
 10
-112.9692531175996
 20
-209.1777220475141
 30
0.0
 10
-113.0310964052986
 20
-209.1630954925225
 30
0.0
 10
-113.088933766141
 20
-209.147083281988
 30
0.0
 10
-113.1952631735179
 20
-209.1129267541832
 30
0.0
 10
-113.3409740004095
 20
-209.050622673402
 30
0.0
 10
-113.5542806121683
 20
-208.9193386508845
 30
0.0
 10
-113.7725885069953
 20
-208.7220093345564
 30
0.0
 10
-113.9886201894528
 20
-208.4495260935875
 30
0.0
 10
-114.1849682859623
 20
-208.1504485369208
 30
0.0
 10
-114.3830133009551
 20
-207.8406775962563
 30
0.0
 10
-114.6018558617675
 20
-207.5429383263371
 30
0.0
 10
-114.8385598023262
 20
-207.3040225604103
 30
0.0
 10
-115.0910924741655
 20
-207.1302680725747
 30
0.0
 10
-115.278863262322
 20
-207.0451924603704
 30
0.0
 10
-115.4140139566977
 20
-207.0006676818789
 30
0.0
 10
-115.4804861162363
 20
-206.9818600185895
 30
0.0
 10
-115.5498781618779
 20
-206.9651235071585
 30
0.0
 10
-115.6422145958785
 20
-206.9462815826496
 30
0.0
 10
-115.7654504380367
 20
-206.927526734948
 30
0.0
 10
-116.0078559138268
 20
-206.9040724058914
 30
0.0
 10
-116.3604848826209
 20
-206.8997711976362
 30
0.0
 10
-116.8853165431475
 20
-206.9325165729949
 30
0.0
 10
-117.4943632369252
 20
-207.0042887099196
 30
0.0
 10
-118.1709098437757
 20
-207.1027542587225
 30
0.0
 10
-118.8365494988737
 20
-207.1993488533353
 30
0.0
 10
-119.377810295592
 20
-207.2619258413669
 30
0.0
 10
-119.7894852543693
 20
-207.2865816395143
 30
0.0
 10
-120.0749478421505
 20
-207.2878962066949
 30
0.0
 10
-120.3250208210397
 20
-207.2693374112617
 30
0.0
 10
-120.5381657036178
 20
-207.2300803733959
 30
0.0
 10
-120.6842484194612
 20
-207.1811809962788
 30
0.0
 10
-120.7836048942416
 20
-207.1311797606809
 30
0.0
 10
-120.8439384285906
 20
-207.0934744198421
 30
0.0
 10
-120.8986127106379
 20
-207.0518878868657
 30
0.0
 10
-120.98451040454
 20
-206.9748038449241
 30
0.0
 10
-121.0889687963913
 20
-206.8399124988676
 30
0.0
 10
-121.2046525500495
 20
-206.5940091005027
 30
0.0
 10
-121.2888306581122
 20
-206.281591086406
 30
0.0
 10
-121.3582941503351
 20
-205.9457216284055
 30
0.0
 10
-121.4407723581657
 20
-205.6468080689379
 30
0.0
 10
-121.5445314220121
 20
-205.4215748184115
 30
0.0
 10
-121.6814229966508
 20
-205.2554183201816
 30
0.0
 10
-121.7947283223687
 20
-205.176814877969
 30
0.0
 10
-121.8714163868317
 20
-205.1401695396447
 30
0.0
 10
-121.9033487123411
 20
-205.126613451289
 30
0.0
 10
-121.9360687036935
 20
-205.1143701647295
 30
0.0
 10
-121.9836175851283
 20
-205.0988696518142
 30
0.0
 10
-122.0454096923061
 20
-205.0826593582194
 30
0.0
 10
-122.1540765744671
 20
-205.0617527345574
 30
0.0
 10
-122.303967116701
 20
-205.0466530511775
 30
0.0
 10
-122.5425708077532
 20
-205.0434453007794
 30
0.0
 10
-122.8482729292749
 20
-205.0653660113192
 30
0.0
 10
-123.2821147599782
 20
-205.1246956493365
 30
0.0
 10
-123.8046373653591
 20
-205.2228565399698
 30
0.0
 10
-124.4072391263483
 20
-205.351817550934
 30
0.0
 10
-125.0190890199707
 20
-205.4838873550762
 30
0.0
 10
-125.5578946360883
 20
-205.5886325058492
 30
0.0
 10
-126.0128307219126
 20
-205.6580967160619
 30
0.0
 10
-126.3775119886856
 20
-205.6955804141687
 30
0.0
 10
-126.6370391980565
 20
-205.7035804309007
 30
0.0
 10
-126.7965363021835
 20
-205.6976797329388
 30
0.0
 10
-126.8639779458387
 20
-205.693376154951
 30
0.0
 10
-126.9321717295163
 20
-205.6871122384827
 30
0.0
 10
-127.0216774345407
 20
-205.6760482991005
 30
0.0
 10
-127.1324254185524
 20
-205.6565841065525
 30
0.0
 10
-127.2628814191963
 20
-205.6239378140894
 30
0.0
 10
-127.3905479061791
 20
-205.5810875762375
 30
0.0
 10
-127.5129750540967
 20
-205.5275715094356
 30
0.0
 10
-127.6255764111186
 20
-205.467310030633
 30
0.0
 10
-127.6940501727406
 20
-205.4211373230965
 30
0.0
 10
-127.7279172493988
 20
-205.3983003416369
 30
0.0
 11
-95.5774396672693
 21
-213.554974234348
 31
0.0
 11
-96.06877332778564
 21
-213.5514939387675
 31
0.0
 11
-96.54004954657398
 21
-213.5320448995805
 31
0.0
 11
-96.9842548549451
 21
-213.4898909546307
 31
0.0
 11
-97.25692601126667
 21
-213.4467891336294
 31
0.0
 11
-97.5130359204566
 21
-213.3891921689092
 31
0.0
 11
-97.57529768612869
 21
-213.3720044726156
 31
0.0
 11
-97.6363289754471
 21
-213.3537258270841
 31
0.0
 11
-97.68970895345599
 21
-213.3364744691903
 31
0.0
 11
-97.754114493114
 21
-213.3139848485566
 31
0.0
 11
-97.85624510397174
 21
-213.2744063429351
 31
0.0
 11
-97.9546593992864
 21
-213.2315121121017
 31
0.0
 11
-98.35563450117388
 21
-213.0042955275159
 31
0.0
 11
-98.70774188934425
 21
-212.7327173790047
 31
0.0
 11
-99.03184707991511
 21
-212.4347717587628
 31
0.0
 11
-99.348815589004
 21
-212.1284527589849
 31
0.0
 11
-99.60947066730965
 21
-211.8910139212772
 31
0.0
 11
-99.88926622604441
 21
-211.6686803660705
 31
0.0
 11
-100.1986730942817
 21
-211.4704819713049
 31
0.0
 11
-100.4065450298908
 21
-211.365235654356
 31
0.0
 11
-100.6317287190674
 21
-211.2743967681348
 31
0.0
 11
-100.6924177948288
 21
-211.2537159681071
 31
0.0
 11
-100.7544359675233
 21
-211.2341473384429
 31
0.0
 11
-100.8111376471132
 21
-211.2175929031272
 31
0.0
 11
-100.8822633841918
 21
-211.1985141712746
 31
0.0
 11
-101.0065125565237
 21
-211.1691836705768
 31
0.0
 11
-101.1348764612614
 21
-211.1434989642808
 31
0.0
 11
-101.6140665991121
 21
-211.0786027027145
 31
0.0
 11
-102.1309340541052
 21
-211.0450395951817
 31
0.0
 11
-102.6738037140174
 21
-211.0329025544544
 31
0.0
 11
-103.2310004666261
 21
-211.0322844933046
 31
0.0
 11
-103.7908491997081
 21
-211.0332783245042
 31
0.0
 11
-104.3085910284682
 21
-211.0268422442728
 31
0.0
 11
-104.808707026374
 21
-211.0048864495647
 31
0.0
 11
-105.2815285582565
 21
-210.9592064786008
 31
0.0
 11
-105.7279303421572
 21
-210.8791295140969
 31
0.0
 11
-106.1253583162498
 21
-210.7564977791176
 31
0.0
 11
-106.2004278218259
 21
-210.725028232117
 31
0.0
 11
-106.2920010777263
 21
-210.682043333373
 31
0.0
 11
-106.3712243471936
 21
-210.6405616533162
 31
0.0
 11
-106.447561269373
 21
-210.596644888131
 31
0.0
 11
-106.5865325330303
 21
-210.5063007972531
 31
0.0
 11
-106.7169427287665
 21
-210.4089373159536
 31
0.0
 11
-106.9463150126225
 21
-210.2088100361914
 31
0.0
 11
-107.158825022331
 21
-209.9965970030928
 31
0.0
 11
-107.4012696251789
 21
-209.7418023264701
 31
0.0
 11
-107.6484562992307
 21
-209.4968220384229
 31
0.0
 11
-107.9157587351353
 21
-209.2761524326403
 31
0.0
 11
-108.1383562372931
 21
-209.135503297501
 31
0.0
 11
-108.3873194100093
 21
-209.0227121250591
 31
0.0
 11
-108.5224014256086
 21
-208.9790335757773
 31
0.0
 11
-108.6663230866131
 21
-208.9444256023384
 31
0.0
 11
-108.7069178754834
 21
-208.9367112620661
 31
0.0
 11
-108.7393357201081
 21
-208.9311611009165
 31
0.0
 11
-108.7774998161029
 21
-208.9252873766329
 31
0.0
 11
-108.8146439805543
 21
-208.9202135309382
 31
0.0
 11
-108.8870298044711
 21
-208.9119989606881
 31
0.0
 11
-108.9612456236388
 21
-208.9056510970908
 31
0.0
 11
-109.4077889491835
 21
-208.9007417062107
 31
0.0
 11
-109.8944555055611
 21
-208.937287433101
 31
0.0
 11
-110.5766509959893
 21
-209.0245620056185
 31
0.0
 11
-111.268553043191
 21
-209.1244971533877
 31
0.0
 11
-111.9354181441068
 21
-209.2026968025756
 31
0.0
 11
-112.3008673717665
 21
-209.2246495108919
 31
0.0
 11
-112.6387584147084
 21
-209.2203686376373
 31
0.0
 11
-112.7748027564741
 21
-209.2086258161024
 31
0.0
 11
-112.903792857627
 21
-209.1900961227036
 31
0.0
 11
-112.9743357391953
 21
-209.1761954673374
 31
0.0
 11
-113.0288535333277
 21
-209.1632831851804
 31
0.0
 11
-113.0892646076788
 21
-209.1465450687478
 31
0.0
 11
-113.1475906930882
 21
-209.1277894999292
 31
0.0
 11
-113.3415479695739
 21
-209.0445950387087
 31
0.0
 11
-113.5129332455729
 21
-208.9393848957967
 31
0.0
 11
-113.7652568341985
 21
-208.716166013951
 31
0.0
 11
-113.9789424276862
 21
-208.4539424191474
 31
0.0
 11
-114.1837216107181
 21
-208.1510096615026
 31
0.0
 11
-114.3864877540314
 21
-207.842678272869
 31
0.0
 11
-114.6086991747053
 21
-207.5488756023868
 31
0.0
 11
-114.8718141898191
 21
-207.2895289991965
 31
0.0
 11
-115.0903731846422
 21
-207.1399818616167
 31
0.0
 11
-115.3463439877698
 21
-207.0234690707511
 31
0.0
 11
-115.4114747129613
 21
-207.0019862035447
 31
0.0
 11
-115.4855956293054
 21
-206.9809938153225
 31
0.0
 11
-115.5454155187075
 21
-206.966534981166
 31
0.0
 11
-115.6194108129297
 21
-206.9513761798563
 31
0.0
 11
-115.7632875170145
 21
-206.9291635407322
 31
0.0
 11
-115.9151539240166
 21
-206.9141664993076
 31
0.0
 11
-116.3472029335629
 21
-206.9050652124308
 31
0.0
 11
-116.8176758210895
 21
-206.9318586839428
 31
0.0
 11
-117.4870329532398
 21
-207.0064547093452
 31
0.0
 11
-118.1745657049946
 21
-207.1032371564498
 31
0.0
 11
-118.8512007359448
 21
-207.1980278229485
 31
0.0
 11
-119.4878647056814
 21
-207.2666485065332
 31
0.0
 11
-119.7975652133964
 21
-207.2840907115759
 31
0.0
 11
-120.0838150919307
 21
-207.2839960748086
 31
0.0
 11
-120.3423541466559
 21
-207.2628216993286
 31
0.0
 11
-120.544008699561
 21
-207.223820784065
 31
0.0
 11
-120.7178633543336
 21
-207.1632298995226
 31
0.0
 11
-120.7804017640162
 21
-207.1316582458129
 31
0.0
 11
-120.8475033264699
 21
-207.0896676122798
 31
0.0
 11
-120.8983241248162
 21
-207.0510145554557
 31
0.0
 11
-120.9450897174677
 21
-207.0090403260014
 31
0.0
 11
-121.0811397570685
 21
-206.8371069603305
 31
0.0
 11
-121.1792753953493
 21
-206.6363092714007
 31
0.0
 11
-121.2846948574178
 21
-206.2830869962921
 31
0.0
 11
-121.3688454949696
 21
-205.9175847269368
 31
0.0
 11
-121.450019808598
 21
-205.6434844316476
 31
0.0
 11
-121.5682584604663
 21
-205.4027486403232
 31
0.0
 11
-121.6858783279188
 21
-205.2630012262111
 31
0.0
 11
-121.840747068784
 21
-205.1551735161652
 31
0.0
 11
-121.8733454305212
 21
-205.139570304681
 31
0.0
 11
-121.901076984413
 21
-205.1277880677602
 31
0.0
 11
-121.9364372037851
 21
-205.1145241909572
 31
0.0
 11
-121.9714872280636
 21
-205.1030729063556
 31
0.0
 11
-122.0443356692128
 21
-205.0837826437219
 31
0.0
 11
-122.1221083592633
 21
-205.0686488177269
 31
0.0
 11
-122.298289384369
 21
-205.049684180834
 31
0.0
 11
-122.4928555125992
 21
-205.0461086753001
 31
0.0
 11
-122.8356609737807
 21
-205.0679657215664
 31
0.0
 11
-123.2125302220597
 21
-205.1176754264708
 31
0.0
 11
-123.7926007635833
 21
-205.2230348641178
 31
0.0
 11
-124.4040336792511
 21
-205.351318013619
 31
0.0
 11
-125.0247166827821
 21
-205.4828468570037
 31
0.0
 11
-125.6325374878955
 21
-205.5979433763013
 31
0.0
 11
-126.0214667909583
 21
-205.6560537836016
 31
0.0
 11
-126.3880597072517
 21
-205.6920497299203
 31
0.0
 11
-126.7256712024693
 21
-205.7000177107524
 31
0.0
 11
-126.7972534452964
 21
-205.697328661673
 31
0.0
 11
-126.8665423676912
 21
-205.6928701096244
 31
0.0
 11
-126.9279263044018
 21
-205.6872085632912
 31
0.0
 11
-127.0017011895552
 21
-205.6780642811445
 31
0.0
 11
-127.1341736822548
 21
-205.6546158916103
 31
0.0
 11
-127.2584806974247
 21
-205.6233862958187
 31
0.0
 11
-127.3915343258083
 21
-205.5785343810087
 31
0.0
 11
-127.5151521547579
 21
-205.5246006155265
 31
0.0
 11
-127.6252337957753
 21
-205.4650598384794
 31
0.0
 11
-127.7279172493988
 21
-205.3983003416369
 31
0.0
  0
SPLINE
  5
B8
330
47
100
AcDbEntity
  8
0
  6
Continuous
 62
     7
100
AcDbSpline
210
0.0
220
0.0
230
1.0
 70
     8
 71
     3
 72
   139
 73
   135
 74
   133
 42
0.000000001
 43
0.0000000001
 44
0.00000001
 40
0.0
 40
0.0
 40
0.0
 40
0.0
 40
0.6124162497756298
 40
1.214074546084577
 40
1.79302686745583
 40
2.33466139315322
 40
2.83499250142302
 40
2.977261765173623
 40
3.119736083117542
 40
3.244342576560876
 40
3.376278336212462
 40
3.610536350050496
 40
3.837882674718466
 40
4.257094333526795
 40
4.671073205815367
 40
5.084812290265412
 40
5.459600116540009
 40
5.838637505770208
 40
6.227252795257868
 40
6.413941536358061
 40
6.606145216685575
 40
6.70769446313188
 40
6.811366711569335
 40
6.864430618638346
 40
6.918131123129659
 40
6.968045142367561
 40
7.026400057448099
 40
7.472905772506697
 40
7.956132850072644
 40
8.46898792504848
 40
9.480298019793373
 40
10.49457379744635
 40
11.12890632015148
 40
11.71767667899676
 40
11.96514571496654
 40
12.20049390533746
 40
12.25832617843712
 40
12.32106509942268
 40
12.36767924305436
 40
12.42496994678037
 40
12.53090716796416
 40
12.63477833411141
 40
12.98524191373108
 40
13.32549949494286
 40
13.66074382962124
 40
13.99241479046352
 40
14.40832179346274
 40
14.8246228460735
 40
15.06802576498034
 40
15.32353718141962
 40
15.40004816993377
 40
15.47839559617764
 40
15.52135572142317
 40
15.55552261401983
 40
15.59579900359812
 40
15.63494648933146
 40
15.78847665720988
 40
15.94897641445885
 40
16.4091225720881
 40
16.90536049685537
 40
17.55461527759767
 40
18.20646523719283
 40
18.82913249317599
 40
19.18290703067762
 40
19.50927279749795
 40
19.64347463644418
 40
19.77152217441626
 40
19.8820047888679
 40
20.02031608797993
 40
20.23238480155821
 40
20.43497395293878
 40
20.7824576614575
 40
21.13235111768547
 40
21.49579373968028
 40
21.86199441755964
 40
22.22732098157732
 40
22.56635514191752
 40
22.91846929777534
 40
23.04850140125492
 40
23.18395820786131
 40
23.25870526592901
 40
23.32647699899849
 40
23.40166824501316
 40
23.47887714575907
 40
23.79268697690024
 40
24.13384377666025
 40
24.81456273854802
 40
25.54125897169249
 40
26.18654673069962
 40
26.81299229621769
 40
27.39532553063187
 40
27.70567097856271
 40
27.98928980639634
 40
28.2435751195525
 40
28.34076977597388
 40
28.43290561532513
 40
28.47845971115236
 40
28.52280702562931
 40
28.55965416168499
 40
28.60317172224418
 40
28.75546404882568
 40
28.90193654446102
 40
29.16409742861857
 40
29.43697071247882
 40
29.776463600441
 40
30.11267951629718
 40
30.32127930194743
 40
30.51995249330585
 40
30.71257662289208
 40
30.77545606032653
 40
30.83949269795029
 40
30.87568108748209
 40
30.9125509775195
 40
30.95496907425037
 40
30.99030398613275
 40
31.13511391605509
 40
31.29454232961324
 40
31.49423073998423
 40
31.71349260211833
 40
32.12570520450272
 40
32.58053813786255
 40
33.14124971845518
 40
33.72324946008395
 40
34.30645480975207
 40
34.87096373489824
 40
35.39787195497244
 40
35.73256594467325
 40
36.03689140807949
 40
36.30901788452538
 40
36.56013769635181
 40
36.80663913678774
 40
37.0428589209068
 40
37.31586669190674
 40
37.59084008250733
 40
37.59084008250733
 40
37.59084008250733
 40
37.59084008250733
 10
-94.5612588304361
 20
-212.2419117391173
 30
0.0
 10
-94.7653675371128
 20
-212.2453873817235
 30
0.0
 10
-95.16999949353011
 20
-212.2522776246561
 30
0.0
 10
-95.76765340190556
 20
-212.2589236391856
 30
0.0
 10
-96.3418126866934
 20
-212.248572671887
 30
0.0
 10
-96.88107893780918
 20
-212.2106407521322
 30
0.0
 10
-97.2720634605183
 20
-212.1500504049547
 30
0.0
 10
-97.52629924686188
 20
-212.0877263749477
 30
0.0
 10
-97.65726753931213
 20
-212.0492329418947
 30
0.0
 10
-97.78289787999664
 20
-212.0054040043764
 30
0.0
 10
-97.93460552943574
 20
-211.9440063037752
 30
0.0
 10
-98.11261497046391
 20
-211.857015905887
 30
0.0
 10
-98.36484557097567
 20
-211.706167529307
 30
0.0
 10
-98.64785741614243
 20
-211.4927710764708
 30
0.0
 10
-98.95518133091979
 20
-211.2125913316913
 30
0.0
 10
-99.24093393687028
 20
-210.9315180277694
 30
0.0
 10
-99.52289130014597
 20
-210.6631384748159
 30
0.0
 10
-99.81417235272804
 20
-210.4172579338335
 30
0.0
 10
-100.0775128839245
 20
-210.2372814548776
 30
0.0
 10
-100.301920026765
 20
-210.114097038487
 30
0.0
 10
-100.4472958901056
 20
-210.0465785329028
 30
0.0
 10
-100.5702611435755
 20
-209.9972279250895
 30
0.0
 10
-100.6513101254998
 20
-209.9681194683807
 30
0.0
 10
-100.7179638962096
 20
-209.9462534853038
 30
0.0
 10
-100.7678873578594
 20
-209.9309054560949
 30
0.0
 10
-100.819773367995
 20
-209.9159716149377
 30
0.0
 10
-100.9983861411494
 20
-209.8680306118684
 30
0.0
 10
-101.3228741749825
 20
-209.8071342456401
 30
0.0
 10
-101.8016493207772
 20
-209.7593481872468
 30
0.0
 10
-102.4703965820487
 20
-209.7302588372199
 30
0.0
 10
-103.3166512360519
 20
-209.7335018313035
 30
0.0
 10
-104.2034349933914
 20
-209.7370888618089
 30
0.0
 10
-104.9487092000452
 20
-209.7029970939234
 30
0.0
 10
-105.4363687488349
 20
-209.6443981562463
 30
0.0
 10
-105.7857258653115
 20
-209.5689272797106
 30
0.0
 10
-105.9589227260763
 20
-209.5183028305323
 30
0.0
 10
-106.070747084465
 20
-209.4786477337593
 30
0.0
 10
-106.122797565088
 20
-209.4587168235567
 30
0.0
 10
-106.1741781340523
 20
-209.4375968585559
 30
0.0
 10
-106.2382233375297
 20
-209.409457558423
 30
0.0
 10
-106.318368367001
 20
-209.3705888110372
 30
0.0
 10
-106.4823860758718
 20
-209.2811730339435
 30
0.0
 10
-106.7017627071871
 20
-209.130886556486
 30
0.0
 10
-106.9583672073404
 20
-208.9040651033641
 30
0.0
 10
-107.1929289510636
 20
-208.6637099828592
 30
0.0
 10
-107.4393685273611
 20
-208.4000547116353
 30
0.0
 10
-107.7145243808948
 20
-208.1261093126969
 30
0.0
 10
-108.0011904389937
 20
-207.9073978421538
 30
0.0
 10
-108.2715808148548
 20
-207.7643825594288
 30
0.0
 10
-108.4524243530066
 20
-207.6983578729993
 30
0.0
 10
-108.5846030526488
 20
-207.6630698032822
 30
0.0
 10
-108.6489635544062
 20
-207.648627466395
 30
0.0
 10
-108.6998564920559
 20
-207.6388274633934
 30
0.0
 10
-108.7384205683635
 20
-207.6321595841265
 30
0.0
 10
-108.7758413805707
 20
-207.626370517961
 30
0.0
 10
-108.8527807304332
 20
-207.6158593674668
 30
0.0
 10
-108.9700449082315
 20
-207.6046172776512
 30
0.0
 10
-109.227948883962
 20
-207.593415966815
 30
0.0
 10
-109.6006044162232
 20
-207.6070577418106
 30
0.0
 10
-110.1331441749557
 20
-207.6617658071051
 30
0.0
 10
-110.7263273303096
 20
-207.746528606488
 30
0.0
 10
-111.3605081893057
 20
-207.8410809396209
 30
0.0
 10
-111.8997288567244
 20
-207.9056918283574
 30
0.0
 10
-112.3334860560369
 20
-207.9305103328069
 30
0.0
 10
-112.6053418020702
 20
-207.9264634770636
 30
0.0
 10
-112.8007411556644
 20
-207.9077714700103
 30
0.0
 10
-112.9236154571179
 20
-207.8887954091082
 30
0.0
 10
-113.0463022323652
 20
-207.8614090638083
 30
0.0
 10
-113.1932673554074
 20
-207.8159988281126
 30
0.0
 10
-113.3622080360808
 20
-207.740437446037
 30
0.0
 10
-113.5769163036416
 20
-207.6031070644471
 30
0.0
 10
-113.7973158812204
 20
-207.396283891154
 30
0.0
 10
-114.0131294315207
 20
-207.1152771485039
 30
0.0
 10
-114.2089499372238
 20
-206.8133030823258
 30
0.0
 10
-114.406698871067
 20
-206.5065315143182
 30
0.0
 10
-114.6221007343133
 20
-206.2210663082897
 30
0.0
 10
-114.8744691132187
 20
-205.9729855800346
 30
0.0
 10
-115.1071454264529
 20
-205.8238978112072
 30
0.0
 10
-115.2958664033577
 20
-205.741232588407
 30
0.0
 10
-115.4032629570232
 20
-205.7043371847242
 30
0.0
 10
-115.4925994416335
 20
-205.679664468198
 30
0.0
 10
-115.5632793142471
 20
-205.6631374367458
 30
0.0
 10
-115.6353110434375
 20
-205.6489976511764
 30
0.0
 10
-115.78875918444
 20
-205.6242683424007
 30
0.0
 10
-116.0324503476048
 20
-205.6038552873667
 30
0.0
 10
-116.4779676912964
 20
-205.6031567956274
 30
0.0
 10
-117.0596476411063
 20
-205.6501433322495
 30
0.0
 10
-117.7380074653946
 20
-205.7396882689499
 30
0.0
 10
-118.3969695195245
 20
-205.8373486076748
 30
0.0
 10
-119.0091103728194
 20
-205.9224020711248
 30
0.0
 10
-119.5131219287743
 20
-205.9742657358576
 30
0.0
 10
-119.9050908417722
 20
-205.990478163201
 30
0.0
 10
-120.1879885101228
 20
-205.983659975401
 30
0.0
 10
-120.398781168605
 20
-205.9585927617428
 30
0.0
 10
-120.5431455192738
 20
-205.9261484088427
 30
0.0
 10
-120.6182326420838
 20
-205.9036707658491
 30
0.0
 10
-120.6751750012104
 20
-205.8826553698772
 30
0.0
 10
-120.7141175082615
 20
-205.8662272260658
 30
0.0
 10
-120.7516478501462
 20
-205.8483161246905
 30
0.0
 10
-120.819973059115
 20
-205.8115923237986
 30
0.0
 10
-120.9138095639383
 20
-205.7452413396279
 30
0.0
 10
-121.0435311911077
 20
-205.6091846639967
 30
0.0
 10
-121.1583331423556
 20
-205.4100068433303
 30
0.0
 10
-121.2519906853427
 20
-205.1331072981608
 30
0.0
 10
-121.3214362717423
 20
-204.8245066187436
 30
0.0
 10
-121.3853387435763
 20
-204.5366075435671
 30
0.0
 10
-121.4619435723622
 20
-204.3004363761913
 30
0.0
 10
-121.5495653573761
 20
-204.1196609694192
 30
0.0
 10
-121.6444576615266
 20
-203.9993590771222
 30
0.0
 10
-121.7248341148047
 20
-203.9292782376161
 30
0.0
 10
-121.7690337648477
 20
-203.8974644959802
 30
0.0
 10
-121.8080016184136
 20
-203.8735590716612
 30
0.0
 10
-121.8418381698512
 20
-203.8551718573037
 30
0.0
 10
-121.8763884805548
 20
-203.838805187683
 30
0.0
 10
-121.9450220053529
 20
-203.8105838944547
 30
0.0
 10
-122.0542947846093
 20
-203.7792023211475
 30
0.0
 10
-122.2206143374633
 20
-203.7536824050433
 30
0.0
 10
-122.4134610824372
 20
-203.7440050108113
 30
0.0
 10
-122.6905929263371
 20
-203.7519149083564
 30
0.0
 10
-123.0510269176142
 20
-203.7907155512819
 30
0.0
 10
-123.5206567379941
 20
-203.868458797892
 30
0.0
 10
-124.0426886647223
 20
-203.9739597855328
 30
0.0
 10
-124.6049048541188
 20
-204.095916727567
 30
0.0
 10
-125.1689927601955
 20
-204.2153661045804
 30
0.0
 10
-125.7178620075095
 20
-204.3174674924538
 30
0.0
 10
-126.1892824771526
 20
-204.3816599066576
 30
0.0
 10
-126.5774707883826
 20
-204.4057821035515
 30
0.0
 10
-126.881682542749
 20
-204.398711214476
 30
0.0
 10
-127.1553251681399
 20
-204.3574448288866
 30
0.0
 10
-127.4017381629869
 20
-204.2825736523781
 30
0.0
 10
-127.6227175517707
 20
-204.175060320907
 30
0.0
 10
-127.8293553070614
 20
-204.0294977499986
 30
0.0
 10
-128.0193282585922
 20
-203.848054805902
 30
0.0
 10
-128.1300959394605
 20
-203.7025630094427
 30
0.0
 10
-128.1856784485145
 20
-203.6295561747338
 30
0.0
 11
-94.5612588304361
 21
-212.2419117391173
 31
0.0
 11
-95.17359635903058
 21
-212.2517304922545
 31
0.0
 11
-95.77523930558351
 21
-212.2560284922717
 31
0.0
 11
-96.3540482913335
 21
-212.2431463410931
 31
0.0
 11
-96.89410680230391
 21
-212.2018575457377
 31
0.0
 11
-97.38781781623861
 21
-212.1207363236059
 31
0.0
 11
-97.52595601399615
 21
-212.0867013163749
 31
0.0
 11
-97.66259719186421
 21
-212.0463513502465
 31
0.0
 11
-97.78024241355266
 21
-212.005285792859
 31
0.0
 11
-97.90254054550391
 21
-211.9557861810347
 31
0.0
 11
-98.11307685266495
 21
-211.8530667557977
 31
0.0
 11
-98.3083438984948
 21
-211.736631657753
 31
0.0
 11
-98.64495256158725
 21
-211.4867656486722
 31
0.0
 11
-98.95341144364045
 21
-211.2106648979944
 31
0.0
 11
-99.2510281315516
 21
-210.9232551958417
 31
0.0
 11
-99.52437538861243
 21
-210.6668430438548
 31
0.0
 11
-99.81565601340556
 21
-210.4243045108079
 31
0.0
 11
-100.1375492577479
 21
-210.206573983606
 31
0.0
 11
-100.301246140623
 21
-210.116818668455
 31
0.0
 11
-100.4755841094509
 21
-210.0358956966439
 31
0.0
 11
-100.5698249398881
 21
-209.9980682550768
 31
0.0
 11
-100.6673927144021
 21
-209.9630187975081
 31
0.0
 11
-100.7178122662175
 21
-209.9464765174642
 31
0.0
 11
-100.7691414027207
 21
-209.930694758077
 31
0.0
 11
-100.8171064443493
 21
-209.9168830203584
 31
0.0
 11
-100.8734623050592
 21
-209.9017399335291
 31
0.0
 11
-101.3115624533671
 21
-209.8155099289949
 31
0.0
 11
-101.7921106312771
 21
-209.7646979497715
 31
0.0
 11
-102.3043804161323
 21
-209.7402031449136
 31
0.0
 11
-103.3156685197928
 21
-209.7335338796288
 31
0.0
 11
-104.3299248400575
 21
-209.7272513712836
 31
0.0
 11
-104.963396059332
 21
-209.6942064966755
 31
0.0
 11
-105.5472295450267
 21
-209.6181210414501
 31
0.0
 11
-105.7889584648226
 21
-209.5651299751003
 31
0.0
 11
-106.014625144411
 21
-209.4983218884017
 31
0.0
 11
-106.0691264175476
 21
-209.4789780770103
 31
0.0
 11
-106.1277094723748
 21
-209.4565237256635
 31
0.0
 11
-106.1708210457672
 21
-209.4387960459905
 31
0.0
 11
-106.2232725467898
 21
-209.4157512033033
 31
0.0
 11
-106.318597248349
 21
-209.3695354472633
 31
0.0
 11
-106.4098013649179
 21
-209.3198260087382
 31
0.0
 11
-106.6999612347522
 21
-209.1232758355812
 31
0.0
 11
-106.9566698769946
 21
-208.8999467184993
 31
0.0
 11
-107.1928677962138
 21
-208.6620406302084
 31
0.0
 11
-107.4214954969785
 21
-208.421759543424
 31
0.0
 11
-107.7206880437328
 21
-208.1328608499954
 31
0.0
 11
-108.0548688689621
 21
-207.8846074664378
 31
0.0
 11
-108.2702405749393
 21
-207.771205485834
 31
0.0
 11
-108.5102176162065
 21
-207.6834723472346
 31
0.0
 11
-108.5841345723058
 21
-207.6637184877232
 31
0.0
 11
-108.6605774662018
 21
-207.6465486544973
 31
0.0
 11
-108.7027620301856
 21
-207.6384224670187
 31
0.0
 11
-108.7364288092222
 21
-207.632597989428
 31
0.0
 11
-108.7762304679414
 21
-207.6264323166412
 31
0.0
 11
-108.8150166784144
 21
-207.6211261394286
 31
0.0
 11
-108.9678139276605
 21
-207.6061423790746
 31
0.0
 11
-109.1281483389198
 21
-207.5988589290082
 31
0.0
 11
-109.5881220304585
 21
-207.611456129906
 31
0.0
 11
-110.0820418180097
 21
-207.6593656427039
 31
0.0
 11
-110.7253481960733
 21
-207.7470507280287
 31
0.0
 11
-111.3706292833292
 21
-207.8393583018008
 31
0.0
 11
-111.9894826344997
 21
-207.908169938657
 31
0.0
 11
-112.342776131946
 21
-207.9266124992929
 31
0.0
 11
-112.6690602731358
 21
-207.9193136658211
 31
0.0
 11
-112.8026257997134
 21
-207.9062605554606
 31
0.0
 11
-112.9291245662439
 21
-207.8864052274309
 31
0.0
 11
-113.0369146814832
 21
-207.8621627202083
 31
0.0
 11
-113.1690164555012
 21
-207.8211854488307
 31
0.0
 11
-113.3625230372807
 21
-207.7344194295618
 31
0.0
 11
-113.5333498399361
 21
-207.625513195775
 31
0.0
 11
-113.7895477692122
 21
-207.3907632251555
 31
0.0
 11
-114.006589146759
 21
-207.1163211163309
 31
0.0
 11
-114.2083056317794
 21
-206.8139951348319
 31
0.0
 11
-114.4106343845337
 21
-206.5087640547807
 31
0.0
 11
-114.6345292665935
 21
-206.220086760684
 31
0.0
 11
-114.8787396728938
 21
-205.9849156754561
 31
0.0
 11
-115.1757864908834
 21
-205.7958454062417
 31
0.0
 11
-115.294850943821
 21
-205.7435768307246
 31
0.0
 11
-115.422926285604
 21
-205.6994718050654
 31
0.0
 11
-115.494969337146
 21
-205.6795489183307
 31
0.0
 11
-115.5609511926845
 21
-205.6640762797661
 31
0.0
 11
-115.6347243284927
 21
-205.6495419097531
 31
0.0
 11
-115.710940744892
 21
-205.6372020464226
 31
0.0
 11
-116.0234563548482
 21
-205.6087309440117
 31
0.0
 11
-116.3646055593269
 21
-205.6064544734377
 31
0.0
 11
-117.0436322977956
 21
-205.654423145784
 31
0.0
 11
-117.7646290617771
 21
-205.745258610038
 31
0.0
 11
-118.4033204712834
 21
-205.8372889056699
 31
0.0
 11
-119.024199351271
 21
-205.9206163496436
 31
0.0
 11
-119.6039102972574
 21
-205.9758179349042
 31
0.0
 11
-119.9140429636331
 21
-205.9873082052731
 31
0.0
 11
-120.1975318473975
 21
-205.9787237828666
 31
0.0
 11
-120.4497285003218
 21
-205.9461988882266
 31
0.0
 11
-120.544504895429
 21
-205.9246527476708
 31
0.0
 11
-120.6327001426895
 21
-205.8979954548809
 31
0.0
 11
-120.6754240575792
 21
-205.8821890402202
 31
0.0
 11
-120.7162691292686
 21
-205.8649158117669
 31
0.0
 11
-120.7495177797585
 21
-205.8490337880644
 31
0.0
 11
-120.7878399586708
 21
-205.828413684247
 31
0.0
 11
-120.9120758536785
 21
-205.74033193168
 31
0.0
 11
-121.0134790036657
 21
-205.6346361742014
 31
0.0
 11
-121.1486467900686
 21
-205.4100075948508
 31
0.0
 11
-121.2407358266961
 21
-205.1531429645305
 31
0.0
 11
-121.3215146032209
 21
-204.8234003222653
 31
0.0
 11
-121.4009452713463
 21
-204.4967018206857
 31
0.0
 11
-121.4675634498016
 21
-204.2990255984417
 31
0.0
 11
-121.5567908447233
 21
-204.1215164185616
 31
0.0
 11
-121.6777526586477
 21
-203.9716087974437
 31
0.0
 11
-121.7251490198684
 21
-203.9302879964345
 31
0.0
 11
-121.7771224798542
 21
-203.8928787674036
 31
0.0
 11
-121.807965238386
 21
-203.8739493251617
 31
0.0
 11
-121.8403566152611
 21
-203.8563371845733
 31
0.0
 11
-121.8786844127243
 21
-203.8381637184012
 31
0.0
 11
-121.9113552957054
 21
-203.8247037999932
 31
0.0
 11
-122.0501594563944
 21
-203.7834324929064
 31
0.0
 11
-122.2075658221083
 21
-203.7581213275649
 31
0.0
 11
-122.4069347914241
 21
-203.7468308307288
 31
0.0
 11
-122.6261339689829
 21
-203.7520734205652
 31
0.0
 11
-123.0363233359236
 21
-203.7928645078733
 31
0.0
 11
-123.4853908741962
 21
-203.8650541421445
 31
0.0
 11
-124.035451063274
 21
-203.9738257601911
 31
0.0
 11
-124.6046187984601
 21
-204.0953650061304
 31
0.0
 11
-125.1755761958277
 21
-204.2142604645041
 31
0.0
 11
-125.7310053714504
 21
-204.3151007198546
 31
0.0
 11
-126.2535884414013
 21
-204.3824743567238
 31
0.0
 11
-126.5877456037019
 21
-204.4014231659616
 31
0.0
 11
-126.8919155980447
 21
-204.3916968131373
 31
0.0
 11
-127.1607801202328
 21
-204.3496886280682
 31
0.0
 11
-127.4008094893206
 21
-204.2758844168789
 31
0.0
 11
-127.622327034323
 21
-204.1677505318243
 31
0.0
 11
-127.8158800145041
 21
-204.0323362416594
 31
0.0
 11
-128.0133961939997
 21
-203.8438671425324
 31
0.0
 11
-128.1856784485145
 21
-203.6295561747338
 31
0.0
  0
SPLINE
  5
B9
330
47
100
AcDbEntity
  8
0
  6
Continuous
 62
     7
100
AcDbSpline
210
0.0
220
0.0
230
1.0
 70
     8
 71
     3
 72
    11
 73
     7
 74
     5
 42
0.000000001
 43
0.0000000001
 44
0.00000001
 40
0.0
 40
0.0
 40
0.0
 40
0.0
 40
0.2254952559586353
 40
0.4351349791438844
 40
0.649610144962716
 40
0.8576785914135657
 40
0.8576785914135657
 40
0.8576785914135657
 40
0.8576785914135657
 10
-126.9578555483362
 20
-206.6218412690849
 30
0.0
 10
-127.0312407774114
 20
-206.6050985476465
 30
0.0
 10
-127.1728512034804
 20
-206.572790342756
 30
0.0
 10
-127.3746915392934
 20
-206.4925441891329
 30
0.0
 10
-127.5611458048383
 20
-206.3926141443266
 30
0.0
 10
-127.6728905514172
 20
-206.3065372149982
 30
0.0
 10
-127.7279157685109
 20
-206.2641513050326
 30
0.0
 11
-126.9578555483362
 21
-206.6218412690849
 31
0.0
 11
-127.1762899142564
 21
-206.5658543199461
 31
0.0
 11
-127.3715546561648
 21
-206.4895621539313
 31
0.0
 11
-127.5597172598718
 21
-206.3866328972193
 31
0.0
 11
-127.7279157685109
 21
-206.2641513050326
 31
0.0
  0
SPLINE
  5
BA
330
47
100
AcDbEntity
  8
0
  6
Continuous
 62
     7
100
AcDbSpline
210
0.0
220
0.0
230
1.0
 70
     8
 71
     3
 72
    21
 73
    17
 74
    15
 42
0.000000001
 43
0.0000000001
 44
0.00000001
 40
0.0
 40
0.0
 40
0.0
 40
0.0
 40
0.2764430775695588
 40
0.5425141208260185
 40
0.7750907260696431
 40
0.9980293780098843
 40
1.128717877976357
 40
1.263814441096023
 40
1.418201823360584
 40
1.58792231341319
 40
1.924824015713281
 40
2.309594747387838
 40
2.781746915115781
 40
3.290843681559459
 40
3.836260954536556
 40
4.388267914523073
 40
4.388267914523073
 40
4.388267914523073
 40
4.388267914523073
 10
-121.3256819424037
 20
-207.4432263467581
 30
0.0
 10
-121.344293062558
 20
-207.3529759090742
 30
0.0
 10
-121.3808170323062
 20
-207.1758611966854
 30
0.0
 10
-121.4489444047982
 20
-206.9262236900144
 30
0.0
 10
-121.5420720766409
 20
-206.7034175555862
 30
0.0
 10
-121.6539501342284
 20
-206.5405565417433
 30
0.0
 10
-121.7744022485565
 20
-206.4296899611531
 30
0.0
 10
-121.8934263195645
 20
-206.354390317745
 30
0.0
 10
-122.0362301305023
 20
-206.2972568218491
 30
0.0
 10
-122.2509292166254
 20
-206.2454122060674
 30
0.0
 10
-122.548273141521
 20
-206.2199951701859
 30
0.0
 10
-122.9464317601462
 20
-206.2306425065778
 30
0.0
 10
-123.3997863251871
 20
-206.2762713194921
 30
0.0
 10
-123.9035256237629
 20
-206.3488545254434
 30
0.0
 10
-124.4317871265698
 20
-206.4367203347866
 30
0.0
 10
-124.7928812979299
 20
-206.4952500019941
 30
0.0
 10
-124.974512511776
 20
-206.5246905631933
 30
0.0
 11
-121.3256819424037
 21
-207.4432263467581
 31
0.0
 11
-121.3844132295253
 21
-207.1730941300766
 31
0.0
 11
-121.4577324947514
 21
-206.9173245349869
 31
0.0
 11
-121.5506536882997
 21
-206.7041168205959
 31
0.0
 11
-121.6793722311078
 21
-206.5220916032398
 31
0.0
 11
-121.7756813645305
 21
-206.4337511535502
 31
0.0
 11
-121.8897085384361
 21
-206.3613019628641
 31
0.0
 11
-122.0324784600693
 21
-206.3025464215178
 31
0.0
 11
-122.197126446148
 21
-206.2613628583746
 31
0.0
 11
-122.5322963924068
 21
-206.2272473794119
 31
0.0
 11
-122.9170062212385
 21
-206.2340932262976
 31
0.0
 11
-123.3870890446424
 21
-206.2782498894275
 31
0.0
 11
-123.8912618389371
 21
-206.3488849560181
 31
0.0
 11
-124.4296784731532
 21
-206.4359913887402
 31
0.0
 11
-124.974512511776
 21
-206.5246905631933
 31
0.0
  0
SPLINE
  5
BB
330
47
100
AcDbEntity
  8
0
  6
Continuous
 62
     7
100
AcDbSpline
210
0.0
220
0.0
230
1.0
 70
    24
 71
     3
 72
    11
 73
     7
 74
     5
 42
0.000000001
 43
0.0000000001
 44
0.00000001
 40
0.0
 40
0.0
 40
0.0
 40
0.0
 40
0.2164627408502935
 40
0.4329254816999047
 40
0.6493882225487203
 40
0.8658509633969674
 40
0.8658509633969674
 40
0.8658509633969674
 40
0.8658509633969674
 10
-127.7279172493988
 20
-205.3983003416369
 30
0.0
 10
-127.7279171259919
 20
-205.4704545885869
 30
0.0
 10
-127.7279168791778
 20
-205.6147630824867
 30
0.0
 10
-127.7279165089561
 20
-205.8312258233358
 30
0.0
 10
-127.7279161387339
 20
-206.0476885641845
 30
0.0
 10
-127.7279158919186
 20
-206.1919970580833
 30
0.0
 10
-127.7279157685109
 20
-206.2641513050326
 30
0.0
 11
-127.7279172493988
 21
-205.3983003416369
 31
0.0
 11
-127.727916879178
 21
-205.6147630824869
 31
0.0
 11
-127.7279165089564
 21
-205.8312258233362
 31
0.0
 11
-127.727916138734
 21
-206.0476885641847
 31
0.0
 11
-127.7279157685109
 21
-206.2641513050326
 31
0.0
  0
SPLINE
  5
BC
330
47
100
AcDbEntity
  8
0
  6
Continuous
 62
     7
100
AcDbSpline
210
0.0
220
0.0
230
1.0
 70
     8
 71
     3
 72
    11
 73
     7
 74
     5
 42
0.000000001
 43
0.0000000001
 44
0.00000001
 40
0.0
 40
0.0
 40
0.0
 40
0.0
 40
0.5015021013072729
 40
1.009005313112326
 40
1.510618340184001
 40
2.019900193379385
 40
2.019900193379385
 40
2.019900193379385
 40
2.019900193379385
 10
-88.37470299168473
 20
-230.3013425765535
 30
0.0
 10
-88.51597911089375
 20
-230.2118473163196
 30
0.0
 10
-88.80022189125995
 20
-230.0317858609005
 30
0.0
 10
-89.20211691238825
 20
-229.7277822146656
 30
0.0
 10
-89.5997251846897
 20
-229.4147282429332
 30
0.0
 10
-89.86798203711723
 20
-229.2107776750841
 30
0.0
 10
-90.00312799192056
 20
-229.1080287975454
 30
0.0
 11
-88.37470299168473
 21
-230.3013425765535
 31
0.0
 11
-88.7946281331857
 21
-230.0271761424008
 31
0.0
 11
-89.2026154927772
 21
-229.7253387271784
 31
0.0
 11
-89.59858951644168
 21
-229.4174098357395
 31
0.0
 11
-90.00312799192056
 21
-229.1080287975454
 31
0.0
  0
ENDBLK
  5
49
330
47
100
AcDbEntity
  8
0
100
AcDbBlockEnd
  0
BLOCK
  5
4B
330
4A
100
AcDbEntity
  8
0
100
AcDbBlockBegin
  2
AP_RSC-select_1_1
 70
     0
 10
-126.0136525288776
 20
-229.5207703759586
 30
0.0
  3
AP_RSC-select_1_1
  1

  0
LINE
  5
BD
330
4A
100
AcDbEntity
  8
0
  6
Continuous
 62
     7
100
AcDbLine
 10
-97.6612588304361
 20
-214.926590490932
 30
0.0
 11
-121.2115579703426
 21
-235.321747813445
 31
0.0
  0
LINE
  5
BE
330
4A
100
AcDbEntity
  8
0
  6
Continuous
 62
     7
100
AcDbLine
 10
-114.4704167929307
 20
-248.9437033781532
 30
0.0
 11
-121.2115579703426
 21
-235.321747813445
 31
0.0
  0
LINE
  5
BF
330
4A
100
AcDbEntity
  8
0
  6
Continuous
 62
     7
100
AcDbLine
 10
-117.5015015116603
 20
-250.6812546262501
 30
0.0
 11
-115.7694539151375
 21
-249.1812574070507
 31
0.0
  0
LINE
  5
C0
330
4A
100
AcDbEntity
  8
0
  6
Continuous
 62
     7
100
AcDbLine
 10
-126.0751672973343
 20
-239.1138107318137
 30
0.0
 11
-124.6924743653501
 21
-237.916363527045
 31
0.0
  0
LINE
  5
C1
330
4A
100
AcDbEntity
  8
0
  6
Continuous
 62
     7
100
AcDbLine
 10
-117.5015015116603
 20
-250.6812546262501
 30
0.0
 11
-116.7251723721008
 21
-252.2499980725531
 31
0.0
  0
LINE
  5
C2
330
4A
100
AcDbEntity
  8
0
  6
Continuous
 62
     7
100
AcDbLine
 10
-117.5015015116603
 20
-250.6812546262501
 30
0.0
 11
-115.7694502137544
 21
-251.4866592762879
 31
0.0
  0
LINE
  5
C3
330
4A
100
AcDbEntity
  8
0
  6
Continuous
 62
     7
100
AcDbLine
 10
-115.7694502137544
 20
-251.4866592762879
 30
0.0
 11
-115.76945433976
 21
-248.9167818364572
 31
0.0
  0
LINE
  5
C4
330
4A
100
AcDbEntity
  8
0
  6
Continuous
 62
     7
100
AcDbLine
 10
-115.76945433976
 20
-248.9167818364572
 30
0.0
 11
-120.7450608346152
 21
-238.8624766681421
 31
0.0
  0
LINE
  5
C5
330
4A
100
AcDbEntity
  8
0
  6
Continuous
 62
     7
100
AcDbLine
 10
-120.7450608346152
 20
-238.8624766681421
 30
0.0
 11
-126.075169751944
 21
-237.5849601244863
 31
0.0
  0
LINE
  5
C6
330
4A
100
AcDbEntity
  8
0
  6
Continuous
 62
     7
100
AcDbLine
 10
-126.075169751944
 20
-237.5849601244863
 30
0.0
 11
-126.0751672973343
 21
-239.1138107318137
 31
0.0
  0
LINE
  5
C7
330
4A
100
AcDbEntity
  8
0
  6
Continuous
 62
     7
100
AcDbLine
 10
-126.0751672973343
 20
-239.1138107318137
 30
0.0
 11
-127.3742054029992
 21
-238.7388190764748
 31
0.0
  0
LINE
  5
C8
330
4A
100
AcDbEntity
  8
0
  6
Continuous
 62
     7
100
AcDbLine
 10
-114.4704104395668
 20
-252.9008881568458
 30
0.0
 11
-116.7251723721008
 21
-252.2499980725531
 31
0.0
  0
LINE
  5
C9
330
4A
100
AcDbEntity
  8
0
  6
Continuous
 62
     7
100
AcDbLine
 10
-114.4704167929307
 20
-248.9437033781532
 30
0.0
 11
-114.4704104395668
 21
-252.9008881568458
 31
0.0
  0
LINE
  5
CA
330
4A
100
AcDbEntity
  8
0
  6
Continuous
 62
     7
100
AcDbLine
 10
-158.3748276278605
 20
-240.2268116704055
 30
0.0
 11
-149.0248494597434
 21
-232.1294930517354
 31
0.0
  0
LINE
  5
CB
330
4A
100
AcDbEntity
  8
0
  6
Continuous
 62
     7
100
AcDbLine
 10
-160.6295895603976
 20
-239.5759179660512
 30
0.0
 11
-158.3748276278605
 21
-240.2268116704055
 31
0.0
  0
LINE
  5
CC
330
4A
100
AcDbEntity
  8
0
  6
Continuous
 62
     7
100
AcDbLine
 10
-157.5985006471642
 20
-239.1062801921879
 30
0.0
 11
-149.0248494597474
 21
-231.6812804604684
 31
0.0
  0
LINE
  5
CD
330
4A
100
AcDbEntity
  8
0
  6
Continuous
 62
     7
100
AcDbLine
 10
-159.3305514547304
 20
-238.9116874815178
 30
0.0
 11
-149.938607402991
 21
-230.7780253415375
 31
0.0
  0
LINE
  5
CE
330
4A
100
AcDbEntity
  8
0
  6
Continuous
 62
     7
100
AcDbLine
 10
-157.5985006471642
 20
-239.1062801921879
 30
0.0
 11
-159.3305514547304
 21
-238.9116874815178
 31
0.0
  0
LINE
  5
CF
330
4A
100
AcDbEntity
  8
0
  6
Continuous
 62
     7
100
AcDbLine
 10
-152.0074276765
 20
-229.9998000055306
 30
0.0
 11
-159.3305514547534
 21
-236.3418112327522
 31
0.0
  0
LINE
  5
D0
330
4A
100
AcDbEntity
  8
0
  6
Continuous
 62
     7
100
AcDbLine
 10
-160.6295895604332
 20
-235.6187350214017
 30
0.0
 11
-153.8885731747726
 21
-225.8889159591593
 31
0.0
  0
LINE
  5
D1
330
4A
100
AcDbEntity
  8
0
  6
Continuous
 62
     7
100
AcDbLine
 10
-159.3305514547534
 20
-236.3418112327522
 30
0.0
 11
-154.3310904879539
 21
-229.1257108952455
 31
0.0
  0
LINE
  5
D2
330
4A
100
AcDbEntity
  8
0
  6
Continuous
 62
     7
100
AcDbLine
 10
-159.3305514547304
 20
-238.9116874815178
 30
0.0
 11
-159.3305514547534
 21
-236.3418112327522
 31
0.0
  0
LINE
  5
D3
330
4A
100
AcDbEntity
  8
0
  6
Continuous
 62
     7
100
AcDbLine
 10
-152.3886156489032
 20
-227.6209438772172
 30
0.0
 11
-153.1384698177961
 21
-228.2703366366324
 31
0.0
  0
LINE
  5
D4
330
4A
100
AcDbEntity
  8
0
  6
Continuous
 62
     7
100
AcDbLine
 10
-157.5985006471642
 20
-239.1062801921879
 30
0.0
 11
-158.3748276278605
 21
-240.2268116704055
 31
0.0
  0
LINE
  5
D5
330
4A
100
AcDbEntity
  8
0
  6
Continuous
 62
     7
100
AcDbLine
 10
-160.6295895604332
 20
-235.6187350214017
 30
0.0
 11
-160.6295895603976
 21
-239.5759179660512
 31
0.0
  0
LINE
  5
D6
330
4A
100
AcDbEntity
  8
0
  6
Continuous
 62
     7
100
AcDbLine
 10
-114.4704104395668
 20
-252.9008881568458
 30
0.0
 11
-91.4747029916847
 21
-232.9860213283683
 31
0.0
  0
LINE
  5
D7
330
4A
100
AcDbEntity
  8
0
  6
Continuous
 62
     7
100
AcDbLine
 10
-91.47471335228153
 20
-229.0288400200414
 30
0.0
 11
-114.4704167929307
 21
-248.9437033781532
 31
0.0
  0
LINE
  5
D8
330
4A
100
AcDbEntity
  8
0
  6
Continuous
 62
     7
100
AcDbLine
 10
-131.2856784485145
 20
-206.3142349265486
 30
0.0
 11
-153.8885731747726
 21
-225.8889159591593
 31
0.0
  0
LINE
  5
D9
330
4A
100
AcDbEntity
  8
0
  6
Continuous
 62
     7
100
AcDbLine
 10
-153.8885731747726
 20
-225.8889159591593
 30
0.0
 11
-121.2115579703426
 21
-235.321747813445
 31
0.0
  0
LINE
  5
DA
330
4A
100
AcDbEntity
  8
0
  6
Continuous
 62
     7
100
AcDbLine
 10
-121.961553196074
 20
-236.4042868073327
 30
0.0
 11
-153.1384698178039
 21
-227.4044843907568
 31
0.0
  0
LINE
  5
DB
330
4A
100
AcDbEntity
  8
0
  6
Continuous
 62
     7
100
AcDbLine
 10
-153.1384698177961
 20
-228.2703366366324
 30
0.0
 11
-153.1384698178039
 21
-227.4044843907568
 31
0.0
  0
LINE
  5
DC
330
4A
100
AcDbEntity
  8
0
  6
Continuous
 62
     7
100
AcDbLine
 10
-153.1384698177961
 20
-228.2703366366324
 30
0.0
 11
-147.7258113540863
 21
-230.3064090811797
 31
0.0
  0
LINE
  5
DD
330
4A
100
AcDbEntity
  8
0
  6
Continuous
 62
     7
100
AcDbLine
 10
-154.3310904879539
 20
-229.1257108952455
 30
0.0
 11
-149.0248494597524
 21
-231.1217524363999
 31
0.0
  0
LINE
  5
DE
330
4A
100
AcDbEntity
  8
0
  6
Continuous
 62
     7
100
AcDbLine
 10
-127.3742054029992
 20
-238.7388190764748
 30
0.0
 11
-127.374209843577
 21
-235.9730107569627
 31
0.0
  0
LINE
  5
DF
330
4A
100
AcDbEntity
  8
0
  6
Continuous
 62
     7
100
AcDbLine
 10
-127.374209843577
 20
-235.9730107569627
 30
0.0
 11
-121.9615518056469
 21
-237.2703126124889
 31
0.0
  0
LINE
  5
E0
330
4A
100
AcDbEntity
  8
0
  6
Continuous
 62
     7
100
AcDbLine
 10
-121.9615518056469
 20
-237.2703126124889
 30
0.0
 11
-121.961553196074
 21
-236.4042868073327
 31
0.0
  0
LINE
  5
E1
330
4A
100
AcDbEntity
  8
0
  6
Continuous
 62
     7
100
AcDbLine
 10
-149.0248494597402
 20
-232.488955567015
 30
0.0
 11
-149.0248494597524
 21
-231.1217524363999
 31
0.0
  0
LINE
  5
E2
330
4A
100
AcDbEntity
  8
0
  6
Continuous
 62
     7
100
AcDbLine
 10
-144.3508940899618
 20
-229.9411831358842
 30
0.0
 11
-147.7258113540634
 21
-232.8639472223574
 31
0.0
  0
LINE
  5
E3
330
4A
100
AcDbEntity
  8
0
  6
Continuous
 62
     7
100
AcDbLine
 10
-147.7258113540863
 20
-230.3064090811797
 30
0.0
 11
-147.7258113540634
 21
-232.8639472223574
 31
0.0
  0
LINE
  5
E4
330
4A
100
AcDbEntity
  8
0
  6
Continuous
 62
     7
100
AcDbLine
 10
-146.5657992847232
 20
-229.3018091603831
 30
0.0
 11
-147.7258113540863
 21
-230.3064090811797
 31
0.0
  0
LINE
  5
E5
330
4A
100
AcDbEntity
  8
0
  6
Continuous
 62
     7
100
AcDbLine
 10
-147.7258113540634
 20
-232.8639472223574
 30
0.0
 11
-149.0248494597402
 21
-232.488955567015
 31
0.0
  0
LINE
  5
E6
330
4A
100
AcDbEntity
  8
0
  6
Continuous
 62
     7
100
AcDbLine
 10
-127.374209843577
 20
-235.9730107569627
 30
0.0
 11
-126.3945661017943
 21
-235.1246143898943
 31
0.0
  0
SPLINE
  5
E7
330
4A
100
AcDbEntity
  8
0
  6
Continuous
 62
     7
100
AcDbSpline
210
0.0
220
0.0
230
1.0
 70
    24
 71
     3
 72
    11
 73
     7
 74
     5
 42
0.000000001
 43
0.0000000001
 44
0.00000001
 40
0.0
 40
0.0
 40
0.0
 40
0.0
 40
0.9892953270813877
 40
1.978590654165248
 40
2.96788598125161
 40
3.957181308340472
 40
3.957181308340472
 40
3.957181308340472
 40
3.957181308340472
 10
-91.4747029916847
 20
-232.9860213283683
 30
0.0
 10
-91.47470385506942
 20
-232.6562562193423
 30
0.0
 10
-91.474705581838
 20
-231.9967260012895
 30
0.0
 10
-91.47470817198842
 20
-231.007430674209
 30
0.0
 10
-91.47471076213637
 20
-230.018135347126
 30
0.0
 10
-91.47471248890007
 20
-229.3586051290699
 30
0.0
 10
-91.47471335228153
 20
-229.0288400200414
 30
0.0
 11
-91.4747029916847
 21
-232.9860213283683
 31
0.0
 11
-91.47470558183821
 21
-231.9967260012904
 31
0.0
 11
-91.47470817198882
 21
-231.0074306742099
 31
0.0
 11
-91.47471076213661
 21
-230.0181353471269
 31
0.0
 11
-91.47471335228153
 21
-229.0288400200414
 31
0.0
  0
SPLINE
  5
E8
330
4A
100
AcDbEntity
  8
0
  6
Continuous
 62
     7
100
AcDbSpline
210
0.0
220
0.0
230
1.0
 70
     8
 71
     3
 72
   139
 73
   135
 74
   133
 42
0.000000001
 43
0.0000000001
 44
0.00000001
 40
0.0
 40
0.0
 40
0.0
 40
0.0
 40
0.6124162497726473
 40
1.214074546078952
 40
1.793026867449138
 40
2.334661393111384
 40
2.834992501419302
 40
2.977261765378434
 40
3.119736083114089
 40
3.24434257680428
 40
3.376278336208517
 40
3.610536350028488
 40
3.837882674713935
 40
4.257094333521329
 40
4.671073205809968
 40
5.084812290261251
 40
5.459600116535591
 40
5.83863750576662
 40
6.227252795255397
 40
6.413941536508086
 40
6.606145216683346
 40
6.707694462335448
 40
6.811366711567205
 40
6.864430609105502
 40
6.91813112312757
 40
6.968045142596968
 40
7.026400057446004
 40
7.472905772505663
 40
7.956132850072374
 40
8.46898792504595
 40
9.480298019791753
 40
10.49457379744552
 40
11.12890632014828
 40
11.71767667899643
 40
11.96514571530832
 40
12.20049390533707
 40
12.25832617780382
 40
12.32106509942228
 40
12.36767924312675
 40
12.42496994678006
 40
12.53090716868598
 40
12.6347783341111
 40
12.98524191373096
 40
13.32549949494283
 40
13.66074382962122
 40
13.99241479046321
 40
14.40832179346247
 40
14.82462284607342
 40
15.06802576493482
 40
15.32353718141973
 40
15.40004817176841
 40
15.47839559617771
 40
15.52135572143597
 40
15.5555226140199
 40
15.59579900406038
 40
15.63494648933145
 40
15.7884766569847
 40
15.94897641445896
 40
16.4091225721095
 40
16.90536049685537
 40
17.55461527759786
 40
18.20646523719228
 40
18.829132493176
 40
19.18290703063762
 40
19.50927279749794
 40
19.64347463734999
 40
19.77152217441634
 40
19.8820047888086
 40
20.02031608798002
 40
20.23238480166758
 40
20.4349739529397
 40
20.78245766145669
 40
21.13235111768738
 40
21.49579373967832
 40
21.86199441755407
 40
22.22732098156803
 40
22.56635514191228
 40
22.91846929776543
 40
23.04850140110223
 40
23.18395820784815
 40
23.2587052658866
 40
23.32647699898692
 40
23.40166822466893
 40
23.47887714574742
 40
23.79268697697583
 40
24.1338437766406
 40
24.81456273849802
 40
25.54125897164438
 40
26.18654673064786
 40
26.8129922961691
 40
27.39532553059074
 40
27.70567097850473
 40
27.98928980635877
 40
28.24357511955589
 40
28.34076977504034
 40
28.43290561532815
 40
28.47845979670454
 40
28.52280702563404
 40
28.55965416169443
 40
28.60317172224859
 40
28.75546404881513
 40
28.90193654446582
 40
29.1640974286284
 40
29.43697071248621
 40
29.77646360043175
 40
30.11267951627319
 40
30.32127930194419
 40
30.51995249332148
 40
30.71257662292586
 40
30.77545606008283
 40
30.83949269798917
 40
30.87568108835027
 40
30.91255097755917
 40
30.9549690743168
 40
30.99030398617193
 40
31.13511391611272
 40
31.29454232961833
 40
31.4942307400637
 40
31.71349260212547
 40
32.12570520451062
 40
32.580538137876
 40
33.14124971846796
 40
33.72324946009559
 40
34.30645480976233
 40
34.87096373490692
 40
35.39787195497959
 40
35.73256594480367
 40
36.0368914080856
 40
36.30901788490129
 40
36.56013769636754
 40
36.80663913685909
 40
37.04285892092435
 40
37.31586669191798
 40
37.59084008250942
 40
37.59084008250942
 40
37.59084008250942
 40
37.59084008250942
 10
-97.6612588304361
 20
-214.926590490932
 30
0.0
 10
-97.86536753711174
 20
-214.9300661335381
 30
0.0
 10
-98.26999949352728
 20
-214.9369563764708
 30
0.0
 10
-98.86765340190044
 20
-214.9436023910006
 30
0.0
 10
-99.44181268667535
 20
-214.9332514237021
 30
0.0
 10
-99.98107893779178
 20
-214.8953195039488
 30
0.0
 10
-100.3720634605711
 20
-214.8347291567623
 30
0.0
 10
-100.6262992469257
 20
-214.7724051267457
 30
0.0
 10
-100.7572675394533
 20
-214.7339116936644
 30
0.0
 10
-100.8828978800704
 20
-214.6900827561635
 30
0.0
 10
-101.0346055295007
 20
-214.6286850555577
 30
0.0
 10
-101.212614970455
 20
-214.5416946577068
 30
0.0
 10
-101.464845570967
 20
-214.3908462811279
 30
0.0
 10
-101.7478574161385
 20
-214.1774498282889
 30
0.0
 10
-102.0551813309161
 20
-213.8972700835096
 30
0.0
 10
-102.340933936867
 20
-213.6161967795874
 30
0.0
 10
-102.6228913001429
 20
-213.3478172266333
 30
0.0
 10
-102.9141723527252
 20
-213.1019366856504
 30
0.0
 10
-103.1775128839642
 20
-212.9219602066653
 30
0.0
 10
-103.4019200268083
 20
-212.7987757902798
 30
0.0
 10
-103.5472958899103
 20
-212.731257284811
 30
0.0
 10
-103.6702611433255
 20
-212.6819066769993
 30
0.0
 10
-103.7513101222558
 20
-212.6527982213527
 30
0.0
 10
-103.8179638931787
 20
-212.6309322380813
 30
0.0
 10
-103.8678873548781
 20
-212.6155842087662
 30
0.0
 10
-103.9197733680674
 20
-212.6006503667327
 30
0.0
 10
-104.0983861412238
 20
-212.5527093636694
 30
0.0
 10
-104.4228741749813
 20
-212.491812997455
 30
0.0
 10
-104.901649320776
 20
-212.4440269390618
 30
0.0
 10
-105.5703965820473
 20
-212.4149375890349
 30
0.0
 10
-106.4166512360503
 20
-212.418180583118
 30
0.0
 10
-107.3034349933895
 20
-212.421767613624
 30
0.0
 10
-108.0487092000438
 20
-212.3876758457383
 30
0.0
 10
-108.5363687489469
 20
-212.329076908048
 30
0.0
 10
-108.8857258654225
 20
-212.2536060314982
 30
0.0
 10
-109.0589227259807
 20
-212.2029815823683
 30
0.0
 10
-109.1707470842665
 20
-212.1633264856472
 30
0.0
 10
-109.2227975649151
 20
-212.1433955754432
 30
0.0
 10
-109.2741781340743
 20
-212.1222756103615
 30
0.0
 10
-109.3382233377715
 20
-212.0941363101305
 30
0.0
 10
-109.4183683672153
 20
-212.0552675627419
 30
0.0
 10
-109.5823860760706
 20
-211.9658517856219
 30
0.0
 10
-109.801762707187
 20
-211.8155653083008
 30
0.0
 10
-110.0583672073404
 20
-211.5887438551791
 30
0.0
 10
-110.2929289510634
 20
-211.348388734674
 30
0.0
 10
-110.539368527361
 20
-211.0847334634503
 30
0.0
 10
-110.8145243808946
 20
-210.8107880645118
 30
0.0
 10
-111.1011904389815
 20
-210.592076593978
 30
0.0
 10
-111.371580814841
 20
-210.4490613112497
 30
0.0
 10
-111.5524243535679
 20
-210.3830366246078
 30
0.0
 10
-111.6846030532438
 20
-210.3477485549514
 30
0.0
 10
-111.748963555011
 20
-210.3333062180936
 30
0.0
 10
-111.7998564920601
 20
-210.3235062152074
 30
0.0
 10
-111.8384205685196
 20
-210.3168383359147
 30
0.0
 10
-111.8758413807233
 20
-210.3110492697537
 30
0.0
 10
-111.9527807305122
 20
-210.3005381192772
 30
0.0
 10
-112.0700449081565
 20
-210.2892960294706
 30
0.0
 10
-112.3279488838941
 20
-210.2780947186269
 30
0.0
 10
-112.7006044162303
 20
-210.291736493626
 30
0.0
 10
-113.2331441749629
 20
-210.346444558921
 30
0.0
 10
-113.8263273303095
 20
-210.4312073583029
 30
0.0
 10
-114.4605081893056
 20
-210.5257596914355
 30
0.0
 10
-114.9997288567109
 20
-210.5903705801707
 30
0.0
 10
-115.4334860560237
 20
-210.615189084621
 30
0.0
 10
-115.7053418023589
 20
-210.6111422288751
 30
0.0
 10
-115.9007411559653
 20
-210.5924502217898
 30
0.0
 10
-116.0236154573931
 20
-210.5734741608599
 30
0.0
 10
-116.1463022323461
 20
-210.5460878156285
 30
0.0
 10
-116.2932673554242
 20
-210.5006775799249
 30
0.0
 10
-116.4622080361137
 20
-210.4251161978338
 30
0.0
 10
-116.6769163036684
 20
-210.287785816237
 30
0.0
 10
-116.8973158812207
 20
-210.0809626429682
 30
0.0
 10
-117.1131294315205
 20
-209.799955900319
 30
0.0
 10
-117.3089499372227
 20
-209.4979818341421
 30
0.0
 10
-117.506698871064
 20
-209.1912102661378
 30
0.0
 10
-117.7221007343089
 20
-208.9057450601097
 30
0.0
 10
-117.9744691132123
 20
-208.6576643318546
 30
0.0
 10
-118.2071454264052
 20
-208.508576563052
 30
0.0
 10
-118.3958664033027
 20
-208.4259113402432
 30
0.0
 10
-118.5032629569566
 20
-208.3890159365583
 30
0.0
 10
-118.5925994416116
 20
-208.3643432200186
 30
0.0
 10
-118.6632793076252
 20
-208.3478161901082
 30
0.0
 10
-118.7353110367439
 20
-208.3336764041722
 30
0.0
 10
-118.8887591776944
 20
-208.308947094777
 30
0.0
 10
-119.1324503476173
 20
-208.2885340391825
 30
0.0
 10
-119.5779676912991
 20
-208.2878355474432
 30
0.0
 10
-120.1596476410666
 20
-208.3348220840602
 30
0.0
 10
-120.8380074653449
 20
-208.4243670207575
 30
0.0
 10
-121.4969695194752
 20
-208.5220273594825
 30
0.0
 10
-122.1091103727722
 20
-208.6070808229339
 30
0.0
 10
-122.6131219287252
 20
-208.6589444876681
 30
0.0
 10
-123.0050908417257
 20
-208.6751569150154
 30
0.0
 10
-123.2879885100935
 20
-208.6683387272181
 30
0.0
 10
-123.4987811682795
 20
-208.6432715135987
 30
0.0
 10
-123.6431455189787
 20
-208.6108271607314
 30
0.0
 10
-123.7182326691239
 20
-208.5883495095911
 30
0.0
 10
-123.7751750278148
 20
-208.5673341112594
 30
0.0
 10
-123.8141175340061
 20
-208.5509059655962
 30
0.0
 10
-123.8516478501508
 20
-208.5329948765026
 30
0.0
 10
-123.9199730591126
 20
-208.4962710756147
 30
0.0
 10
-124.0138095639366
 20
-208.4299200914442
 30
0.0
 10
-124.1435311911076
 20
-208.2938634158129
 30
0.0
 10
-124.2583331423577
 20
-208.0946855951402
 30
0.0
 10
-124.3519906853423
 20
-207.8177860499751
 30
0.0
 10
-124.4214362717401
 20
-207.509185370569
 30
0.0
 10
-124.4853387435728
 20
-207.2212862953958
 30
0.0
 10
-124.5619435723592
 20
-206.9851151280114
 30
0.0
 10
-124.6495653573818
 20
-206.8043397212221
 30
0.0
 10
-124.7444576614859
 20
-206.6840378289905
 30
0.0
 10
-124.824834114758
 20
-206.6139569894679
 30
0.0
 10
-124.8690337650229
 20
-206.5821432476623
 30
0.0
 10
-124.9080016186858
 20
-206.5582378233186
 30
0.0
 10
-124.9418381701426
 20
-206.5398506089793
 30
0.0
 10
-124.9763884805974
 20
-206.523483939479
 30
0.0
 10
-125.0450220054028
 20
-206.4952626462529
 30
0.0
 10
-125.1542947846411
 20
-206.4638810729568
 30
0.0
 10
-125.3206143375085
 20
-206.438361156853
 30
0.0
 10
-125.513461082466
 20
-206.4286837626264
 30
0.0
 10
-125.7905929263665
 20
-206.4365936601743
 30
0.0
 10
-126.1510269176218
 20
-206.4753943030977
 30
0.0
 10
-126.6206567380033
 20
-206.5531375497088
 30
0.0
 10
-127.1426886647328
 20
-206.6586385373499
 30
0.0
 10
-127.7049048541281
 20
-206.7805954793839
 30
0.0
 10
-128.2689927602036
 20
-206.9000448563969
 30
0.0
 10
-128.8178620075162
 20
-207.0021462442699
 30
0.0
 10
-129.2892824771989
 20
-207.0663386584787
 30
0.0
 10
-129.6774707884289
 20
-207.0904608553681
 30
0.0
 10
-129.9816825429173
 20
-207.0833899662817
 30
0.0
 10
-130.2553251682702
 20
-207.0421235806742
 30
0.0
 10
-130.5017381631257
 20
-206.9672524041298
 30
0.0
 10
-130.7227175517995
 20
-206.859739072705
 30
0.0
 10
-130.9293553070845
 20
-206.7141765017921
 30
0.0
 10
-131.1193282585975
 20
-206.5327335577106
 30
0.0
 10
-131.2300959394625
 20
-206.3872417612551
 30
0.0
 10
-131.2856784485145
 20
-206.3142349265486
 30
0.0
 11
-97.6612588304361
 21
-214.926590490932
 31
0.0
 11
-98.2735963590276
 21
-214.9364092440693
 31
0.0
 11
-98.87523930557788
 21
-214.9407072440866
 31
0.0
 11
-99.4540482913268
 21
-214.9278250929081
 31
0.0
 11
-99.99410680226231
 21
-214.8865362975573
 31
0.0
 11
-100.487817816235
 21
-214.8054150754215
 31
0.0
 11
-100.625956014194
 21
-214.7713800681365
 31
0.0
 11
-100.7625971918609
 21
-214.7310301020623
 31
0.0
 11
-100.8802424137806
 21
-214.6899645445882
 31
0.0
 11
-101.0025405455003
 21
-214.6404649328511
 31
0.0
 11
-101.2130768526456
 21
-214.5377455076231
 31
0.0
 11
-101.408343898491
 21
-214.4213104095703
 31
0.0
 11
-101.744952561583
 21
-214.1714444004905
 31
0.0
 11
-102.0534114436365
 21
-213.8953436498129
 31
0.0
 11
-102.3510281315486
 21
-213.6079339476594
 31
0.0
 11
-102.6243753886091
 21
-213.3515217956726
 31
0.0
 11
-102.9156560134027
 21
-213.1089832626249
 31
0.0
 11
-103.2375492577458
 21
-212.8912527354221
 31
0.0
 11
-103.4012461407569
 21
-212.801497420202
 31
0.0
 11
-103.5755841094488
 21
-212.7205744484595
 31
0.0
 11
-103.6698249391436
 21
-212.6827470071749
 31
0.0
 11
-103.7673927144001
 21
-212.6476975493237
 31
0.0
 11
-103.817812257132
 21
-212.6311552721663
 31
0.0
 11
-103.8691414027187
 21
-212.6153735098924
 31
0.0
 11
-103.9171064445703
 21
-212.6015617721117
 31
0.0
 11
-103.9734623050572
 21
-212.5864186853445
 31
0.0
 11
-104.4115624533661
 21
-212.50018868081
 31
0.0
 11
-104.8921106312768
 21
-212.4493767015864
 31
0.0
 11
-105.4043804161298
 21
-212.4248818967286
 31
0.0
 11
-106.4156685197912
 21
-212.4182126314436
 31
0.0
 11
-107.4299248400567
 21
-212.4119301230985
 31
0.0
 11
-108.0633960593288
 21
-212.3788852484906
 31
0.0
 11
-108.6472295450264
 21
-212.3027997932651
 31
0.0
 11
-108.888958465154
 21
-212.2498087268307
 31
0.0
 11
-109.1146251444106
 21
-212.1830006402167
 31
0.0
 11
-109.1691264169532
 21
-212.163656829044
 31
0.0
 11
-109.2277094723744
 21
-212.1412024774785
 31
0.0
 11
-109.2708210458338
 21
-212.1234747977772
 31
0.0
 11
-109.3232725467895
 21
-212.1004299551183
 31
0.0
 11
-109.4185972489909
 21
-212.0542141987477
 31
0.0
 11
-109.5098013649176
 21
-212.0045047605532
 31
0.0
 11
-109.799961234752
 21
-211.807954587396
 31
0.0
 11
-110.0566698769946
 21
-211.5846254703142
 31
0.0
 11
-110.2928677962138
 21
-211.3467193820233
 31
0.0
 11
-110.5214954969782
 21
-211.106438295239
 31
0.0
 11
-110.8206880437325
 21
-210.8175396018103
 31
0.0
 11
-111.154868868962
 21
-210.5692862182527
 31
0.0
 11
-111.3702405748976
 21
-210.4558842376675
 31
0.0
 11
-111.6102176162066
 21
-210.3681510990494
 31
0.0
 11
-111.6841345740877
 21
-210.3483972390999
 31
0.0
 11
-111.7605774662019
 21
-210.3312274063123
 31
0.0
 11
-111.8027620301982
 21
-210.3231012188313
 31
0.0
 11
-111.8364288092223
 21
-210.317276741243
 31
0.0
 11
-111.8762304683989
 21
-210.3111110683896
 31
0.0
 11
-111.9150166784144
 21
-210.3058048912436
 31
0.0
 11
-112.0678139274358
 21
-210.2908211309052
 31
0.0
 11
-112.2281483389199
 21
-210.283537680823
 31
0.0
 11
-112.6881220304799
 21
-210.2961348817223
 31
0.0
 11
-113.1820418180097
 21
-210.3440443945187
 31
0.0
 11
-113.8253481960735
 21
-210.4317294798435
 31
0.0
 11
-114.4706292833286
 21
-210.5240370536155
 31
0.0
 11
-115.0894826344997
 21
-210.5928486904718
 31
0.0
 11
-115.442776131906
 21
-210.6112912511068
 31
0.0
 11
-115.7690602731358
 21
-210.6039924176359
 31
0.0
 11
-115.9026258006125
 21
-210.5909393071624
 31
0.0
 11
-116.0291245662439
 21
-210.5710839792456
 31
0.0
 11
-116.1369146814258
 21
-210.5468414720383
 31
0.0
 11
-116.2690164555013
 21
-210.5058642006457
 31
0.0
 11
-116.462523037377
 21
-210.4190981813244
 31
0.0
 11
-116.6333498399369
 21
-210.3101919475894
 31
0.0
 11
-116.8895477692115
 21
-210.0754419769708
 31
0.0
 11
-117.1065891467601
 21
-209.8009998681442
 31
0.0
 11
-117.3083056317782
 21
-209.4986738866484
 31
0.0
 11
-117.5106343845305
 21
-209.1934428066002
 31
0.0
 11
-117.7345292665873
 21
-208.9047655125058
 31
0.0
 11
-117.9787396728896
 21
-208.6695944272742
 31
0.0
 11
-118.2757864908744
 21
-208.4805241580609
 31
0.0
 11
-118.3948509436786
 21
-208.4282555825951
 31
0.0
 11
-118.5229262855913
 21
-208.384150556884
 31
0.0
 11
-118.5949693371048
 21
-208.3642276701561
 31
0.0
 11
-118.6609511926731
 21
-208.3487550315834
 31
0.0
 11
-118.7347243084634
 21
-208.334220665152
 31
0.0
 11
-118.8109407448801
 21
-208.3218807982393
 31
0.0
 11
-119.1234563549234
 21
-208.2934096958232
 31
0.0
 11
-119.4646055593069
 21
-208.2911332252521
 31
0.0
 11
-120.1436322977455
 21
-208.3391018975935
 31
0.0
 11
-120.8646290617291
 21
-208.4299373618461
 31
0.0
 11
-121.5033204712318
 21
-208.5219676574774
 31
0.0
 11
-122.1241993512224
 21
-208.6052951014526
 31
0.0
 11
-122.703910297216
 21
-208.6604966867163
 31
0.0
 11
-123.0140429635748
 21
-208.6719869570876
 31
0.0
 11
-123.2975318473596
 21
-208.6634025346843
 31
0.0
 11
-123.5497285003248
 21
-208.6308776400408
 31
0.0
 11
-123.6445048945253
 21
-208.6093314997232
 31
0.0
 11
-123.7327001426922
 21
-208.582674206695
 31
0.0
 11
-123.775424137152
 21
-208.5668677605553
 31
0.0
 11
-123.8162691292709
 21
-208.5495945635807
 31
0.0
 11
-123.849517779765
 21
-208.5337125398759
 31
0.0
 11
-123.8878399586727
 21
-208.5130924360607
 31
0.0
 11
-124.0120758536688
 21
-208.4250106835032
 31
0.0
 11
-124.1134790036673
 21
-208.3193149260142
 31
0.0
 11
-124.2486467900718
 21
-208.0946863466586
 31
0.0
 11
-124.3407358266975
 21
-207.8378217163403
 31
0.0
 11
-124.4215146032183
 21
-207.5080790740913
 31
0.0
 11
-124.5009452713391
 21
-207.1813805725257
 31
0.0
 11
-124.5675634497996
 21
-206.9837043502616
 31
0.0
 11
-124.6567908447305
 21
-206.8061951703649
 31
0.0
 11
-124.7777526586707
 21
-206.6562875492365
 31
0.0
 11
-124.8251490196758
 21
-206.6149667484022
 31
0.0
 11
-124.8771224798852
 21
-206.5775575191983
 31
0.0
 11
-124.9079652391362
 21
-206.5586280765427
 31
0.0
 11
-124.9403566152948
 21
-206.5410159363711
 31
0.0
 11
-124.9786844127835
 21
-206.5228424701901
 31
0.0
 11
-125.0113552957402
 21
-206.5093825517946
 31
0.0
 11
-125.1501594564489
 21
-206.4681112447092
 31
0.0
 11
-125.3075658221114
 21
-206.4428000793793
 31
0.0
 11
-125.5069347915017
 21
-206.4315095825427
 31
0.0
 11
-125.7261339689881
 21
-206.4367521723804
 31
0.0
 11
-126.1363233359295
 21
-206.4775432596889
 31
0.0
 11
-126.5853908742075
 21
-206.5497328939615
 31
0.0
 11
-127.1354510632846
 21
-206.6585045120082
 31
0.0
 11
-127.7046187984695
 21
-206.7800437579473
 31
0.0
 11
-128.2755761958359
 21
-206.8989392163207
 31
0.0
 11
-128.831005371457
 21
-206.9997794716706
 31
0.0
 11
-129.3535884414065
 21
-207.0671531085392
 31
0.0
 11
-129.6877456038305
 21
-207.0861019177787
 31
0.0
 11
-129.9919155980488
 21
-207.0763755649518
 31
0.0
 11
-130.2607801205982
 21
-207.0343673797994
 31
0.0
 11
-130.5008094893333
 21
-206.9605631686887
 31
0.0
 11
-130.7223270343828
 21
-206.8524292836038
 31
0.0
 11
-130.9158800145161
 21
-206.7170149934644
 31
0.0
 11
-131.1133961940059
 21
-206.5285458943405
 31
0.0
 11
-131.2856784485145
 21
-206.3142349265486
 31
0.0
  0
SPLINE
  5
E9
330
4A
100
AcDbEntity
  8
0
  6
Continuous
 62
     7
100
AcDbSpline
210
0.0
220
0.0
230
1.0
 70
     8
 71
     3
 72
    23
 73
    19
 74
    17
 42
0.000000001
 43
0.0000000001
 44
0.00000001
 40
0.0
 40
0.0
 40
0.0
 40
0.0
 40
1.912455379643783
 40
3.910962983334293
 40
5.948644461099874
 40
7.979070050850407
 40
8.979593916056498
 40
9.963056057530272
 40
10.47234625579619
 40
10.97539179719465
 40
11.229939436708
 40
11.48207383682492
 40
11.61895536851366
 40
11.73653818940341
 40
11.85745580905772
 40
11.96067880020208
 40
13.76652674281457
 40
15.52008593804123
 40
15.52008593804123
 40
15.52008593804123
 40
15.52008593804123
 10
-91.47471335228153
 20
-229.0288400200414
 30
0.0
 10
-91.68070271546146
 20
-228.4254992767675
 30
0.0
 10
-92.10195006007977
 20
-227.1916700610931
 30
0.0
 10
-92.6761857661595
 20
-225.2935236705599
 30
0.0
 10
-93.2759354041816
 20
-223.3623584809109
 30
0.0
 10
-93.81875705498697
 20
-221.7618117311644
 30
0.0
 10
-94.29921513150416
 20
-220.5126973522429
 30
0.0
 10
-94.62392402163516
 20
-219.7474139114166
 30
0.0
 10
-94.90360444936061
 20
-219.1437330315901
 30
0.0
 10
-95.09064440764665
 20
-218.7650576440361
 30
0.0
 10
-95.24599106766514
 20
-218.4664652771301
 30
0.0
 10
-95.34782162410897
 20
-218.2776429715707
 30
0.0
 10
-95.42976630341413
 20
-218.1299896112416
 30
0.0
 10
-95.49137776196055
 20
-218.0210806604173
 30
0.0
 10
-95.54822702660566
 20
-217.9223715701279
 30
0.0
 10
-95.89007261191497
 20
-217.3384091037871
 30
0.0
 10
-96.56914702102219
 20
-216.3209601975096
 30
0.0
 10
-97.3008043109981
 20
-215.3868060562847
 30
0.0
 10
-97.6612588304361
 20
-214.926590490932
 30
0.0
 11
-91.47471335228153
 21
-229.0288400200414
 31
0.0
 11
-92.08222867548521
 21
-227.2154424687989
 31
0.0
 11
-92.67470837899066
 21
-225.3067778934624
 31
0.0
 11
-93.28505646223815
 21
-223.3626531472842
 31
0.0
 11
-93.94617692466801
 21
-221.4428750835166
 31
0.0
 11
-94.30658053338382
 21
-220.5095170360734
 31
0.0
 11
-94.6920922684971
 21
-219.6047637620606
 31
0.0
 11
-94.90640197699061
 21
-219.1427595898151
 31
0.0
 11
-95.1294071279096
 21
-218.6918454963866
 31
0.0
 11
-95.24692233981143
 21
-218.4660476314262
 31
0.0
 11
-95.36663409332651
 21
-218.2441448332079
 31
0.0
 11
-95.43306285618132
 21
-218.1244628663059
 31
0.0
 11
-95.490959707505
 21
-218.0221218950944
 31
0.0
 11
-95.55130360266496
 21
-217.9173379026454
 31
0.0
 11
-95.6034492524474
 21
-217.8282546992938
 31
0.0
 11
-96.59730260879317
 21
-216.320494008447
 31
0.0
 11
-97.6612588304361
 21
-214.926590490932
 31
0.0
  0
ENDBLK
  5
4C
330
4A
100
AcDbEntity
  8
0
100
AcDbBlockEnd
  0
BLOCK
  5
50
330
4D
100
AcDbEntity
  8
0
100
AcDbBlockBegin
  2
a1
 70
     0
 10
-114.0
 20
-219.0000037982478
 30
0.0
  3
a1
  1

  0
INSERT
  5
4E
330
4D
100
AcDbEntity
  8
0
100
AcDbBlockReference
  2
AP_RSC-select_1
 10
-98.7017572992936
 20
-207.7101239613726
 30
0.0
  0
INSERT
  5
4F
330
4D
100
AcDbEntity
  8
0
100
AcDbBlockReference
  2
AP_RSC-select_1_1
 10
-126.0136525288776
 20
-229.5207703759586
 30
0.0
  0
ENDBLK
  5
51
330
4D
100
AcDbEntity
  8
0
100
AcDbBlockEnd
  0
BLOCK
  5
54
330
52
100
AcDbEntity
  8
0
100
AcDbBlockBegin
  2
Gen1
 70
     0
 10
-114.0
 20
-224.0
 30
0.0
  3
Gen1
  1

  0
INSERT
  5
53
330
52
100
AcDbEntity
  8
0
100
AcDbBlockReference
  2
a1
 10
-114.0
 20
-219.0000037982478
 30
0.0
  0
MTEXT
  5
EB
330
52
100
AcDbEntity
  8
1
 62
     6
100
AcDbMText
 10
-114.0000018972896
 20
-257.9008805603502
 30
0.0
 40
5.0
 41
0.0
 71
     2
 72
     1
  1
 
  7
CONVERTER_11
 73
     1
 44
1.32052821128451
  0
ENDBLK
  5
55
330
52
100
AcDbEntity
  8
0
100
AcDbBlockEnd
  0
BLOCK
  5
58
330
56
100
AcDbEntity
  8
0
100
AcDbBlockBegin
  2
1__1
 70
     0
 10
-114.0
 20
-224.0
 30
0.0
  3
1__1
  1

  0
INSERT
  5
57
330
56
100
AcDbEntity
  8
0
100
AcDbBlockReference
  2
Gen1
 10
-114.0
 20
-224.0
 30
0.0
  0
ENDBLK
  5
59
330
56
100
AcDbEntity
  8
0
100
AcDbBlockEnd
  0
BLOCK
  5
5C
330
5A
100
AcDbEntity
  8
0
100
AcDbBlockBegin
  2
Paste1
 70
     0
 10
-114.0
 20
-224.0
 30
0.0
  3
Paste1
  1

  0
INSERT
  5
5B
330
5A
100
AcDbEntity
  8
1
100
AcDbBlockReference
  2
1__1
 10
-114.0
 20
-224.0
 30
0.0
  0
ENDBLK
  5
5D
330
5A
100
AcDbEntity
  8
0
100
AcDbBlockEnd
  0
BLOCK
  5
5F
330
5E
100
AcDbEntity
  8
0
100
AcDbBlockBegin
  2
AP_RSC-select__2
 70
     0
 10
-398.1500739473452
 20
-117.0000136393306
 30
0.0
  3
AP_RSC-select__2
  1

  0
LINE
  5
EC
330
5E
100
AcDbEntity
  8
0
  6
Continuous
 62
     2
100
AcDbLine
 10
-353.299607419696
 20
-100.4483687908394
 30
0.0
 11
-352.2996082227297
 21
-98.94836999538998
 31
0.0
  0
LINE
  5
ED
330
5E
100
AcDbEntity
  8
0
  6
Continuous
 62
     2
100
AcDbLine
 10
-353.3167409476118
 20
-112.4740690827132
 30
0.0
 11
-353.2877964676004
 21
-112.4306523626959
 31
0.0
  0
LINE
  5
EE
330
5E
100
AcDbEntity
  8
0
  6
Continuous
 62
     2
100
AcDbLine
 10
-363.3167409476121
 20
-112.4740690827131
 30
0.0
 11
-363.2877964676006
 21
-112.430652362696
 31
0.0
  0
LINE
  5
EF
330
5E
100
AcDbEntity
  8
0
  6
Continuous
 62
     2
100
AcDbLine
 10
-363.0779295430539
 20
-112.8322861895504
 30
0.0
 11
-363.3167409476121
 21
-112.4740690827131
 31
0.0
  0
LINE
  5
F0
330
5E
100
AcDbEntity
  8
0
  6
Continuous
 62
     2
100
AcDbLine
 10
-361.5340325004971
 20
-115.8000064120407
 30
0.0
 11
-361.5338440108234
 21
-115.79972367753
 31
0.0
  0
LINE
  5
F1
330
5E
100
AcDbEntity
  8
0
  6
Continuous
 62
     2
100
AcDbLine
 10
-361.3345584599388
 20
-115.4473428142231
 30
0.0
 11
-361.3347319603799
 21
-115.4470825635611
 31
0.0
  0
LINE
  5
F2
330
5E
100
AcDbEntity
  8
0
  6
Continuous
 62
     2
100
AcDbLine
 10
-361.5338440108234
 20
-115.79972367753
 30
0.0
 11
-361.3167409476121
 21
-115.4740690827131
 31
0.0
  0
LINE
  5
F3
330
5E
100
AcDbEntity
  8
0
  6
Continuous
 62
     2
100
AcDbLine
 10
-361.3167409476121
 20
-115.4740690827131
 30
0.0
 11
-361.3345584599388
 21
-115.4473428142231
 31
0.0
  0
LINE
  5
F4
330
5E
100
AcDbEntity
  8
0
  6
Continuous
 62
     2
100
AcDbLine
 10
-363.0779295430539
 20
-112.8322861895504
 30
0.0
 11
-361.3347319603799
 21
-115.4470825635611
 31
0.0
  0
LINE
  5
F5
330
5E
100
AcDbEntity
  8
0
  6
Continuous
 62
     2
100
AcDbLine
 10
-363.2877964676006
 20
-112.430652362696
 30
0.0
 11
-361.3167409476119
 21
-109.4740690827132
 31
0.0
  0
LINE
  5
F6
330
5E
100
AcDbEntity
  8
0
  6
Continuous
 62
     2
100
AcDbLine
 10
-353.0779295430539
 20
-112.8322861895504
 30
0.0
 11
-351.3347319603799
 21
-115.4470825635612
 31
0.0
  0
LINE
  5
F7
330
5E
100
AcDbEntity
  8
0
  6
Continuous
 62
     7
100
AcDbLine
 10
-323.1500739473449
 20
-98.94836999538992
 30
0.0
 11
-352.2996082227297
 21
-98.94836999538998
 31
0.0
  0
LINE
  5
F8
330
5E
100
AcDbEntity
  8
0
  6
Continuous
 62
     2
100
AcDbLine
 10
-353.3167409476119
 20
-100.4740690827132
 30
0.0
 11
-353.299607419696
 21
-100.4483687908394
 31
0.0
  0
LINE
  5
F9
330
5E
100
AcDbEntity
  8
0
  6
Continuous
 62
     7
100
AcDbLine
 10
-323.1500739473449
 20
-112.4306523626959
 30
0.0
 11
-323.1500739473449
 21
-98.94836999538992
 31
0.0
  0
LINE
  5
FA
330
5E
100
AcDbEntity
  8
0
  6
Continuous
 62
     7
100
AcDbLine
 10
-398.1500739473452
 20
-112.4306523626958
 30
0.0
 11
-398.150073947345
 21
-98.94836999539
 31
0.0
  0
LINE
  5
FB
330
5E
100
AcDbEntity
  8
0
  6
Continuous
 62
     2
100
AcDbLine
 10
-363.2996074196963
 20
-100.4483687908395
 30
0.0
 11
-363.3167409476121
 21
-100.4740690827132
 31
0.0
  0
LINE
  5
FC
330
5E
100
AcDbEntity
  8
0
  6
Continuous
 62
     2
100
AcDbLine
 10
-362.6673411058904
 20
-101.4481688452958
 30
0.0
 11
-362.3027580337312
 21
-101.9950434535348
 31
0.0
  0
LINE
  5
FD
330
5E
100
AcDbEntity
  8
0
  6
Continuous
 62
     2
100
AcDbLine
 10
-363.3167409476121
 20
-100.4740690827132
 30
0.0
 11
-362.6673411058904
 21
-101.4481688452958
 31
0.0
  0
LINE
  5
FE
330
5E
100
AcDbEntity
  8
0
  6
Continuous
 62
     7
100
AcDbLine
 10
-362.2996082227299
 20
-98.94836999539004
 30
0.0
 11
-398.150073947345
 21
-98.94836999539
 31
0.0
  0
LINE
  5
FF
330
5E
100
AcDbEntity
  8
0
  6
Continuous
 62
     2
100
AcDbLine
 10
-362.2996082227299
 20
-98.94836999539004
 30
0.0
 11
-363.2996074196963
 21
-100.4483687908395
 31
0.0
  0
LINE
  5
100
330
5E
100
AcDbEntity
  8
0
  6
Continuous
 62
     2
100
AcDbLine
 10
-352.3027580337308
 20
-101.9950434535348
 30
0.0
 11
-352.6673411058902
 21
-101.4481688452958
 31
0.0
  0
LINE
  5
101
330
5E
100
AcDbEntity
  8
0
  6
Continuous
 62
     2
100
AcDbLine
 10
-352.6673411058902
 20
-101.4481688452958
 30
0.0
 11
-353.3167409476119
 21
-100.4740690827132
 31
0.0
  0
LINE
  5
102
330
5E
100
AcDbEntity
  8
0
  6
Continuous
 62
     7
100
AcDbLine
 10
-323.1500739473449
 20
-112.4306523626959
 30
0.0
 11
-323.1500739473449
 21
-117.0000136393303
 31
0.0
  0
LINE
  5
103
330
5E
100
AcDbEntity
  8
0
  6
Continuous
 62
     2
100
AcDbLine
 10
-351.3347319603799
 20
-115.4470825635612
 30
0.0
 11
-351.3345584599386
 21
-115.4473428142231
 31
0.0
  0
LINE
  5
104
330
5E
100
AcDbEntity
  8
0
  6
Continuous
 62
     2
100
AcDbLine
 10
-351.3167409476119
 20
-115.4740690827132
 30
0.0
 11
-351.3345584599386
 21
-115.4473428142231
 31
0.0
  0
LINE
  5
105
330
5E
100
AcDbEntity
  8
0
  6
Continuous
 62
     2
100
AcDbLine
 10
-353.0779295430539
 20
-112.8322861895504
 30
0.0
 11
-353.3167409476118
 21
-112.4740690827132
 31
0.0
  0
LINE
  5
106
330
5E
100
AcDbEntity
  8
0
  6
Continuous
 62
     7
100
AcDbLine
 10
-323.1500739473449
 20
-112.4306523626959
 30
0.0
 11
-353.2877964676004
 21
-112.4306523626959
 31
0.0
  0
LINE
  5
107
330
5E
100
AcDbEntity
  8
0
  6
Continuous
 62
     2
100
AcDbLine
 10
-362.3338487368442
 20
-116.9997307665613
 30
0.0
 11
-361.5340325004971
 21
-115.8000064120407
 31
0.0
  0
LINE
  5
108
330
5E
100
AcDbEntity
  8
0
  6
Continuous
 62
     2
100
AcDbLine
 10
-351.5340325004969
 20
-115.8000064120407
 30
0.0
 11
-351.533844010823
 21
-115.7997236775299
 31
0.0
  0
LINE
  5
109
330
5E
100
AcDbEntity
  8
0
  6
Continuous
 62
     2
100
AcDbLine
 10
-351.533844010823
 20
-115.7997236775299
 30
0.0
 11
-351.3167409476119
 21
-115.4740690827132
 31
0.0
  0
LINE
  5
10A
330
5E
100
AcDbEntity
  8
0
  6
Continuous
 62
     2
100
AcDbLine
 10
-351.5340325004969
 20
-115.8000064120407
 30
0.0
 11
-352.3338487368439
 21
-116.9997307665613
 31
0.0
  0
LINE
  5
10B
330
5E
100
AcDbEntity
  8
0
  6
Continuous
 62
     2
100
AcDbLine
 10
-352.33403731869
 20
-117.0000136393303
 30
0.0
 11
-352.3338487368439
 21
-116.9997307665613
 31
0.0
  0
LINE
  5
10C
330
5E
100
AcDbEntity
  8
0
  6
Continuous
 62
     2
100
AcDbLine
 10
-362.3338487368442
 20
-116.9997307665613
 30
0.0
 11
-362.3340373186902
 21
-117.0000136393303
 31
0.0
  0
LINE
  5
10D
330
5E
100
AcDbEntity
  8
0
  6
Continuous
 62
     7
100
AcDbLine
 10
-398.150073947345
 20
-117.0000136393306
 30
0.0
 11
-362.3340373186902
 21
-117.0000136393303
 31
0.0
  0
LINE
  5
10E
330
5E
100
AcDbEntity
  8
0
  6
Continuous
 62
     7
100
AcDbLine
 10
-352.33403731869
 20
-117.0000136393303
 30
0.0
 11
-323.1500739473449
 21
-117.0000136393303
 31
0.0
  0
LINE
  5
10F
330
5E
100
AcDbEntity
  8
0
  6
Continuous
 62
     7
100
AcDbLine
 10
-398.1500739473452
 20
-112.4306523626958
 30
0.0
 11
-398.150073947345
 21
-117.0000136393306
 31
0.0
  0
LINE
  5
110
330
5E
100
AcDbEntity
  8
0
  6
Continuous
 62
     7
100
AcDbLine
 10
-363.2877964676006
 20
-112.430652362696
 30
0.0
 11
-398.1500739473452
 21
-112.4306523626958
 31
0.0
  0
LINE
  5
111
330
5E
100
AcDbEntity
  8
0
  6
Continuous
 62
     2
100
AcDbLine
 10
-351.3167409476119
 20
-109.4740690827131
 30
0.0
 11
-353.2877964676004
 21
-112.4306523626959
 31
0.0
  0
LINE
  5
112
330
5E
100
AcDbEntity
  8
0
  6
Continuous
 62
     2
100
AcDbLine
 10
-353.3167409476119
 20
-106.4740690827132
 30
0.0
 11
-351.3167409476119
 21
-109.4740690827131
 31
0.0
  0
LINE
  5
113
330
5E
100
AcDbEntity
  8
0
  6
Continuous
 62
     2
100
AcDbLine
 10
-351.7438527765063
 20
-102.8334013393716
 30
0.0
 11
-352.3027580337308
 21
-101.9950434535348
 31
0.0
  0
LINE
  5
114
330
5E
100
AcDbEntity
  8
0
  6
Continuous
 62
     2
100
AcDbLine
 10
-361.7438527765065
 20
-102.8334013393717
 30
0.0
 11
-361.7118830526806
 21
-102.8813559251107
 31
0.0
  0
LINE
  5
115
330
5E
100
AcDbEntity
  8
0
  6
Continuous
 62
     2
100
AcDbLine
 10
-361.5108734555132
 20
-103.1828703208615
 30
0.0
 11
-361.3167409476119
 21
-103.4740690827133
 31
0.0
  0
LINE
  5
116
330
5E
100
AcDbEntity
  8
0
  6
Continuous
 62
     2
100
AcDbLine
 10
-361.7118830526806
 20
-102.8813559251107
 30
0.0
 11
-361.5108734555132
 21
-103.1828703208615
 31
0.0
  0
LINE
  5
117
330
5E
100
AcDbEntity
  8
0
  6
Continuous
 62
     2
100
AcDbLine
 10
-362.3027580337312
 20
-101.9950434535348
 30
0.0
 11
-361.7438527765065
 21
-102.8334013393717
 31
0.0
  0
LINE
  5
118
330
5E
100
AcDbEntity
  8
0
  6
Continuous
 62
     2
100
AcDbLine
 10
-361.3167409476119
 20
-103.4740690827133
 30
0.0
 11
-362.299517640497
 21
-104.9482341220408
 31
0.0
  0
LINE
  5
119
330
5E
100
AcDbEntity
  8
0
  6
Continuous
 62
     2
100
AcDbLine
 10
-361.3167409476119
 20
-109.4740690827132
 30
0.0
 11
-363.3167409476122
 21
-106.4740690827131
 31
0.0
  0
LINE
  5
11A
330
5E
100
AcDbEntity
  8
0
  6
Continuous
 62
     2
100
AcDbLine
 10
-363.3167409476122
 20
-106.4740690827131
 30
0.0
 11
-362.299517640497
 21
-104.9482341220408
 31
0.0
  0
LINE
  5
11B
330
5E
100
AcDbEntity
  8
0
  6
Continuous
 62
     2
100
AcDbLine
 10
-352.2995176404968
 20
-104.9482341220406
 30
0.0
 11
-353.3167409476119
 21
-106.4740690827132
 31
0.0
  0
LINE
  5
11C
330
5E
100
AcDbEntity
  8
0
  6
Continuous
 62
     2
100
AcDbLine
 10
-351.7438527765063
 20
-102.8334013393716
 30
0.0
 11
-351.7118830526804
 21
-102.8813559251105
 31
0.0
  0
LINE
  5
11D
330
5E
100
AcDbEntity
  8
0
  6
Continuous
 62
     2
100
AcDbLine
 10
-351.5108734555131
 20
-103.1828703208615
 30
0.0
 11
-351.3167409476119
 21
-103.4740690827132
 31
0.0
  0
LINE
  5
11E
330
5E
100
AcDbEntity
  8
0
  6
Continuous
 62
     2
100
AcDbLine
 10
-351.5108734555131
 20
-103.1828703208615
 30
0.0
 11
-351.7118830526804
 21
-102.8813559251105
 31
0.0
  0
LINE
  5
11F
330
5E
100
AcDbEntity
  8
0
  6
Continuous
 62
     2
100
AcDbLine
 10
-351.3167409476119
 20
-103.4740690827132
 30
0.0
 11
-352.2995176404968
 21
-104.9482341220406
 31
0.0
  0
ENDBLK
  5
60
330
5E
100
AcDbEntity
  8
0
100
AcDbBlockEnd
  0
BLOCK
  5
63
330
61
100
AcDbEntity
  8
0
100
AcDbBlockBegin
  2
Right1
 70
     0
 10
551.8499260526601
 20
-107.9740690827132
 30
0.0
  3
Right1
  1

  0
INSERT
  5
62
330
61
100
AcDbEntity
  8
0
100
AcDbBlockReference
  2
AP_RSC-select__2
 10
-398.1500739473452
 20
-117.0000136393306
 30
0.0
  0
MTEXT
  5
120
330
61
100
AcDbEntity
  8
1
 62
     6
100
AcDbMText
 10
-360.6500739473451
 20
-122.0000136393306
 30
0.0
 40
5.0
 41
0.0
 71
     2
 72
     1
  1
 
  7
CONVERTER_11
 73
     1
 44
1.32052821128451
  0
ENDBLK
  5
64
330
61
100
AcDbEntity
  8
0
100
AcDbBlockEnd
  0
BLOCK
  5
66
330
65
100
AcDbEntity
  8
0
100
AcDbBlockBegin
  2
AP_RSC-select__3
 70
     0
 10
-218.349954052652
 20
-117.0000136393303
 30
0.0
  3
AP_RSC-select__3
  1

  0
LINE
  5
121
330
65
100
AcDbEntity
  8
0
  6
Continuous
 62
     7
100
AcDbLine
 10
-118.349954052652
 20
-117.0000136393303
 30
0.0
 11
-118.349954052652
 21
-117.0000010947799
 31
0.0
  0
LINE
  5
122
330
65
100
AcDbEntity
  8
0
  6
Continuous
 62
     7
100
AcDbLine
 10
-118.349954052652
 20
-117.0000136393303
 30
0.0
 11
-164.2005834234628
 21
-117.00001363933
 31
0.0
  0
LINE
  5
123
330
65
100
AcDbEntity
  8
0
  6
Continuous
 62
     7
100
AcDbLine
 10
-118.349954052652
 20
-112.4303527653315
 30
0.0
 11
-118.349954052652
 21
-116.9997140419243
 31
0.0
  0
LINE
  5
124
330
65
100
AcDbEntity
  8
0
  6
Continuous
 62
     7
100
AcDbLine
 10
-118.349954052652
 20
-116.9997140419243
 30
0.0
 11
-118.349954052652
 21
-116.999730766561
 31
0.0
  0
LINE
  5
125
330
65
100
AcDbEntity
  8
0
  6
Continuous
 62
     2
100
AcDbLine
 10
-163.201278065153
 20
-115.4470825635609
 30
0.0
 11
-163.2011045647118
 21
-115.4473428142229
 31
0.0
  0
LINE
  5
126
330
65
100
AcDbEntity
  8
0
  6
Continuous
 62
     7
100
AcDbLine
 10
-118.349954052652
 20
-116.999730766561
 30
0.0
 11
-118.349954052652
 21
-117.0000010947799
 31
0.0
  0
LINE
  5
127
330
65
100
AcDbEntity
  8
0
  6
Continuous
 62
     2
100
AcDbLine
 10
-163.4003901155959
 20
-115.7997236775297
 30
0.0
 11
-163.4005786052699
 21
-115.8000064120404
 31
0.0
  0
LINE
  5
128
330
65
100
AcDbEntity
  8
0
  6
Continuous
 62
     7
100
AcDbLine
 10
-118.349954052652
 20
-117.0000010947799
 30
0.0
 11
-164.200575060429
 21
-117.0000010947796
 31
0.0
  0
LINE
  5
129
330
65
100
AcDbEntity
  8
0
  6
Continuous
 62
     7
100
AcDbLine
 10
-118.349954052652
 20
-116.999730766561
 30
0.0
 11
-164.200394841617
 21
-116.999730766561
 31
0.0
  0
LINE
  5
12A
330
65
100
AcDbEntity
  8
0
  6
Continuous
 62
     7
100
AcDbLine
 10
-118.349954052652
 20
-116.9997140419243
 30
0.0
 11
-164.2003836918589
 21
-116.9997140419243
 31
0.0
  0
LINE
  5
12B
330
65
100
AcDbEntity
  8
0
  6
Continuous
 62
     2
100
AcDbLine
 10
-173.2011045647118
 20
-115.4473428142228
 30
0.0
 11
-173.201278065153
 21
-115.4470825635608
 31
0.0
  0
LINE
  5
12C
330
65
100
AcDbEntity
  8
0
  6
Continuous
 62
     7
100
AcDbLine
 10
-174.200575060429
 20
-117.0000010947795
 30
0.0
 11
-218.349954052652
 21
-117.0000010947796
 31
0.0
  0
LINE
  5
12D
330
65
100
AcDbEntity
  8
0
  6
Continuous
 62
     2
100
AcDbLine
 10
-174.200575060429
 20
-117.0000010947795
 30
0.0
 11
-174.2005834234628
 21
-117.0000136393299
 31
0.0
  0
LINE
  5
12E
330
65
100
AcDbEntity
  8
0
  6
Continuous
 62
     2
100
AcDbLine
 10
-174.200394841617
 20
-116.9997307665609
 30
0.0
 11
-174.200575060429
 21
-117.0000010947795
 31
0.0
  0
LINE
  5
12F
330
65
100
AcDbEntity
  8
0
  6
Continuous
 62
     7
100
AcDbLine
 10
-174.2005834234628
 20
-117.0000136393299
 30
0.0
 11
-218.349954052652
 21
-117.00001363933
 31
0.0
  0
LINE
  5
130
330
65
100
AcDbEntity
  8
0
  6
Continuous
 62
     2
100
AcDbLine
 10
-173.4005786052699
 20
-115.8000064120404
 30
0.0
 11
-173.4003901155959
 21
-115.7997236775296
 31
0.0
  0
LINE
  5
131
330
65
100
AcDbEntity
  8
0
  6
Continuous
 62
     7
100
AcDbLine
 10
-218.349954052652
 20
-112.4303527653311
 30
0.0
 11
-218.349954052652
 21
-116.9997140419242
 31
0.0
  0
LINE
  5
132
330
65
100
AcDbEntity
  8
0
  6
Continuous
 62
     7
100
AcDbLine
 10
-218.349954052652
 20
-116.9997140419242
 30
0.0
 11
-218.349954052652
 21
-116.9997307665609
 31
0.0
  0
LINE
  5
133
330
65
100
AcDbEntity
  8
0
  6
Continuous
 62
     7
100
AcDbLine
 10
-174.2003836918589
 20
-116.9997140419242
 30
0.0
 11
-218.349954052652
 21
-116.9997140419242
 31
0.0
  0
LINE
  5
134
330
65
100
AcDbEntity
  8
0
  6
Continuous
 62
     7
100
AcDbLine
 10
-174.200394841617
 20
-116.9997307665609
 30
0.0
 11
-218.349954052652
 21
-116.9997307665609
 31
0.0
  0
LINE
  5
135
330
65
100
AcDbEntity
  8
0
  6
Continuous
 62
     2
100
AcDbLine
 10
-174.200394841617
 20
-116.9997307665609
 30
0.0
 11
-174.2003836918589
 21
-116.9997140419242
 31
0.0
  0
LINE
  5
136
330
65
100
AcDbEntity
  8
0
  6
Continuous
 62
     7
100
AcDbLine
 10
-175.154142840797
 20
-112.4303527653311
 30
0.0
 11
-218.349954052652
 21
-112.4303527653311
 31
0.0
  0
LINE
  5
137
330
65
100
AcDbEntity
  8
0
  6
Continuous
 62
     2
100
AcDbLine
 10
-174.9442871581709
 20
-112.832568924034
 30
0.0
 11
-175.1832870523849
 21
-112.4740690827129
 31
0.0
  0
LINE
  5
138
330
65
100
AcDbEntity
  8
0
  6
Continuous
 62
     2
100
AcDbLine
 10
-174.2003836918589
 20
-116.9997140419242
 30
0.0
 11
-173.4005786052699
 21
-115.8000064120404
 31
0.0
  0
LINE
  5
139
330
65
100
AcDbEntity
  8
0
  6
Continuous
 62
     2
100
AcDbLine
 10
-173.201278065153
 20
-115.4470825635608
 30
0.0
 11
-174.9442871581709
 21
-112.832568924034
 31
0.0
  0
LINE
  5
13A
330
65
100
AcDbEntity
  8
0
  6
Continuous
 62
     2
100
AcDbLine
 10
-175.1832870523849
 20
-112.4740690827129
 30
0.0
 11
-175.154142840797
 21
-112.4303527653311
 31
0.0
  0
LINE
  5
13B
330
65
100
AcDbEntity
  8
0
  6
Continuous
 62
     2
100
AcDbLine
 10
-163.1832870523849
 20
-115.4740690827129
 30
0.0
 11
-163.4003901155959
 21
-115.7997236775297
 31
0.0
  0
LINE
  5
13C
330
65
100
AcDbEntity
  8
0
  6
Continuous
 62
     2
100
AcDbLine
 10
-163.2011045647118
 20
-115.4473428142229
 30
0.0
 11
-163.1832870523849
 21
-115.4740690827129
 31
0.0
  0
LINE
  5
13D
330
65
100
AcDbEntity
  8
0
  6
Continuous
 62
     2
100
AcDbLine
 10
-164.9442871581709
 20
-112.8325689240341
 30
0.0
 11
-163.201278065153
 21
-115.4470825635609
 31
0.0
  0
LINE
  5
13E
330
65
100
AcDbEntity
  8
0
  6
Continuous
 62
     2
100
AcDbLine
 10
-163.4005786052699
 20
-115.8000064120404
 30
0.0
 11
-164.2003836918589
 21
-116.9997140419243
 31
0.0
  0
LINE
  5
13F
330
65
100
AcDbEntity
  8
0
  6
Continuous
 62
     7
100
AcDbLine
 10
-118.349954052652
 20
-112.4303527653315
 30
0.0
 11
-118.349954052652
 21
-98.94836999538971
 31
0.0
  0
LINE
  5
140
330
65
100
AcDbEntity
  8
0
  6
Continuous
 62
     2
100
AcDbLine
 10
-174.3296296097678
 20
-101.7545552466386
 30
0.0
 11
-174.5337523075739
 21
-101.4483711999286
 31
0.0
  0
LINE
  5
141
330
65
100
AcDbEntity
  8
0
  6
Continuous
 62
     2
100
AcDbLine
 10
-173.610398881279
 20
-102.8334013393713
 30
0.0
 11
-174.3296296097678
 21
-101.7545552466386
 31
0.0
  0
LINE
  5
142
330
65
100
AcDbEntity
  8
0
  6
Continuous
 62
     2
100
AcDbLine
 10
-173.578429157453
 20
-102.8813559251102
 30
0.0
 11
-173.610398881279
 21
-102.8334013393713
 31
0.0
  0
LINE
  5
143
330
65
100
AcDbEntity
  8
0
  6
Continuous
 62
     2
100
AcDbLine
 10
-173.2529838201499
 20
-103.3695239310655
 30
0.0
 11
-173.578429157453
 21
-102.8813559251102
 31
0.0
  0
LINE
  5
144
330
65
100
AcDbEntity
  8
0
  6
Continuous
 62
     2
100
AcDbLine
 10
-174.5337523075739
 20
-101.4483711999286
 30
0.0
 11
-175.1832870523849
 21
-100.4740690827129
 31
0.0
  0
LINE
  5
145
330
65
100
AcDbEntity
  8
0
  6
Continuous
 62
     7
100
AcDbLine
 10
-218.349954052652
 20
-116.9997307665609
 30
0.0
 11
-218.349954052652
 21
-117.0000010947796
 31
0.0
  0
LINE
  5
146
330
65
100
AcDbEntity
  8
0
  6
Continuous
 62
     7
100
AcDbLine
 10
-218.349954052652
 20
-117.00001363933
 30
0.0
 11
-218.349954052652
 21
-117.0000010947796
 31
0.0
  0
LINE
  5
147
330
65
100
AcDbEntity
  8
0
  6
Continuous
 62
     7
100
AcDbLine
 10
-218.349954052652
 20
-112.4303527653311
 30
0.0
 11
-218.349954052652
 21
-98.9483699953896
 31
0.0
  0
LINE
  5
148
330
65
100
AcDbEntity
  8
0
  6
Continuous
 62
     7
100
AcDbLine
 10
-218.349954052652
 20
-98.9483699953896
 30
0.0
 11
-174.1661543275029
 21
-98.9483699953896
 31
0.0
  0
LINE
  5
149
330
65
100
AcDbEntity
  8
0
  6
Continuous
 62
     7
100
AcDbLine
 10
-164.1661543275029
 20
-98.94836999538971
 30
0.0
 11
-118.349954052652
 21
-98.94836999538971
 31
0.0
  0
LINE
  5
14A
330
65
100
AcDbEntity
  8
0
  6
Continuous
 62
     2
100
AcDbLine
 10
-173.1832870523849
 20
-109.4740690827129
 30
0.0
 11
-175.1832870523849
 21
-106.4740690827129
 31
0.0
  0
LINE
  5
14B
330
65
100
AcDbEntity
  8
0
  6
Continuous
 62
     2
100
AcDbLine
 10
-164.1660637452699
 20
-104.9482341220405
 30
0.0
 11
-165.1832870523849
 21
-106.4740690827129
 31
0.0
  0
LINE
  5
14C
330
65
100
AcDbEntity
  8
0
  6
Continuous
 62
     2
100
AcDbLine
 10
-175.154142840797
 20
-112.4303527653311
 30
0.0
 11
-173.1832870523849
 21
-109.4740690827129
 31
0.0
  0
LINE
  5
14D
330
65
100
AcDbEntity
  8
0
  6
Continuous
 62
     7
100
AcDbLine
 10
-118.349954052652
 20
-112.4303527653315
 30
0.0
 11
-165.154142840797
 21
-112.4303527653311
 31
0.0
  0
LINE
  5
14E
330
65
100
AcDbEntity
  8
0
  6
Continuous
 62
     2
100
AcDbLine
 10
-165.1832870523849
 20
-106.4740690827129
 30
0.0
 11
-163.1832870523849
 21
-109.4740690827129
 31
0.0
  0
LINE
  5
14F
330
65
100
AcDbEntity
  8
0
  6
Continuous
 62
     2
100
AcDbLine
 10
-164.200575060429
 20
-117.0000010947796
 30
0.0
 11
-164.200394841617
 21
-116.999730766561
 31
0.0
  0
LINE
  5
150
330
65
100
AcDbEntity
  8
0
  6
Continuous
 62
     2
100
AcDbLine
 10
-164.2005834234628
 20
-117.00001363933
 30
0.0
 11
-164.200575060429
 21
-117.0000010947796
 31
0.0
  0
LINE
  5
151
330
65
100
AcDbEntity
  8
0
  6
Continuous
 62
     2
100
AcDbLine
 10
-164.2003836918589
 20
-116.9997140419243
 30
0.0
 11
-164.200394841617
 21
-116.999730766561
 31
0.0
  0
LINE
  5
152
330
65
100
AcDbEntity
  8
0
  6
Continuous
 62
     2
100
AcDbLine
 10
-173.1832870523849
 20
-115.4740690827129
 30
0.0
 11
-173.2011045647118
 21
-115.4473428142228
 31
0.0
  0
LINE
  5
153
330
65
100
AcDbEntity
  8
0
  6
Continuous
 62
     2
100
AcDbLine
 10
-173.1832870523849
 20
-103.4740690827129
 30
0.0
 11
-173.2529838201499
 21
-103.3695239310655
 31
0.0
  0
LINE
  5
154
330
65
100
AcDbEntity
  8
0
  6
Continuous
 62
     2
100
AcDbLine
 10
-173.4003901155959
 20
-115.7997236775296
 30
0.0
 11
-173.1832870523849
 21
-115.4740690827129
 31
0.0
  0
LINE
  5
155
330
65
100
AcDbEntity
  8
0
  6
Continuous
 62
     2
100
AcDbLine
 10
-165.1832870523849
 20
-112.4740690827129
 30
0.0
 11
-164.9442871581709
 21
-112.8325689240341
 31
0.0
  0
LINE
  5
156
330
65
100
AcDbEntity
  8
0
  6
Continuous
 62
     2
100
AcDbLine
 10
-165.154142840797
 20
-112.4303527653311
 30
0.0
 11
-165.1832870523849
 21
-112.4740690827129
 31
0.0
  0
LINE
  5
157
330
65
100
AcDbEntity
  8
0
  6
Continuous
 62
     2
100
AcDbLine
 10
-164.1660637452699
 20
-104.9482341220405
 30
0.0
 11
-163.1832870523849
 21
-103.4740690827129
 31
0.0
  0
LINE
  5
158
330
65
100
AcDbEntity
  8
0
  6
Continuous
 62
     2
100
AcDbLine
 10
-163.610398881279
 20
-102.8334013393714
 30
0.0
 11
-163.578429157453
 21
-102.8813559251104
 31
0.0
  0
LINE
  5
159
330
65
100
AcDbEntity
  8
0
  6
Continuous
 62
     2
100
AcDbLine
 10
-163.1832870523849
 20
-103.4740690827129
 30
0.0
 11
-163.2529838201499
 21
-103.3695239310656
 31
0.0
  0
LINE
  5
15A
330
65
100
AcDbEntity
  8
0
  6
Continuous
 62
     2
100
AcDbLine
 10
-163.578429157453
 20
-102.8813559251104
 30
0.0
 11
-163.2529838201499
 21
-103.3695239310656
 31
0.0
  0
LINE
  5
15B
330
65
100
AcDbEntity
  8
0
  6
Continuous
 62
     2
100
AcDbLine
 10
-165.1832870523849
 20
-100.4740690827129
 30
0.0
 11
-164.5337523075739
 21
-101.4483711999286
 31
0.0
  0
LINE
  5
15C
330
65
100
AcDbEntity
  8
0
  6
Continuous
 62
     2
100
AcDbLine
 10
-164.3296296097678
 20
-101.7545552466387
 30
0.0
 11
-164.5337523075739
 21
-101.4483711999286
 31
0.0
  0
LINE
  5
15D
330
65
100
AcDbEntity
  8
0
  6
Continuous
 62
     2
100
AcDbLine
 10
-165.1661551305369
 20
-100.4483711999403
 30
0.0
 11
-165.1832870523849
 21
-100.4740690827129
 31
0.0
  0
LINE
  5
15E
330
65
100
AcDbEntity
  8
0
  6
Continuous
 62
     2
100
AcDbLine
 10
-175.1832870523849
 20
-100.4740690827129
 30
0.0
 11
-175.1661551305369
 21
-100.4483711999402
 31
0.0
  0
LINE
  5
15F
330
65
100
AcDbEntity
  8
0
  6
Continuous
 62
     2
100
AcDbLine
 10
-175.1661551305369
 20
-100.4483711999402
 30
0.0
 11
-174.1661543275029
 21
-98.9483699953896
 31
0.0
  0
LINE
  5
160
330
65
100
AcDbEntity
  8
0
  6
Continuous
 62
     2
100
AcDbLine
 10
-164.3296296097678
 20
-101.7545552466387
 30
0.0
 11
-163.610398881279
 21
-102.8334013393714
 31
0.0
  0
LINE
  5
161
330
65
100
AcDbEntity
  8
0
  6
Continuous
 62
     2
100
AcDbLine
 10
-164.1661543275029
 20
-98.94836999538971
 30
0.0
 11
-165.1661551305369
 21
-100.4483711999403
 31
0.0
  0
LINE
  5
162
330
65
100
AcDbEntity
  8
0
  6
Continuous
 62
     2
100
AcDbLine
 10
-175.1832870523849
 20
-106.4740690827129
 30
0.0
 11
-174.1660637452699
 21
-104.9482341220403
 31
0.0
  0
LINE
  5
163
330
65
100
AcDbEntity
  8
0
  6
Continuous
 62
     2
100
AcDbLine
 10
-174.1660637452699
 20
-104.9482341220403
 30
0.0
 11
-173.1832870523849
 21
-103.4740690827129
 31
0.0
  0
LINE
  5
164
330
65
100
AcDbEntity
  8
0
  6
Continuous
 62
     2
100
AcDbLine
 10
-163.1832870523849
 20
-109.4740690827129
 30
0.0
 11
-165.154142840797
 21
-112.4303527653311
 31
0.0
  0
ENDBLK
  5
67
330
65
100
AcDbEntity
  8
0
100
AcDbBlockEnd
  0
BLOCK
  5
6A
330
68
100
AcDbEntity
  8
0
100
AcDbBlockBegin
  2
Left1
 70
     0
 10
-168.349954052657
 20
-107.9740690827129
 30
0.0
  3
Left1
  1

  0
INSERT
  5
69
330
68
100
AcDbEntity
  8
0
100
AcDbBlockReference
  2
AP_RSC-select__3
 10
-218.349954052652
 20
-117.0000136393303
 30
0.0
  0
MTEXT
  5
165
330
68
100
AcDbEntity
  8
1
 62
     6
100
AcDbMText
 10
-168.349954052652
 20
-122.0000136393303
 30
0.0
 40
5.0
 41
0.0
 71
     2
 72
     1
  1
 
  7
CONVERTER_11
 73
     1
 44
1.32052821128451
  0
ENDBLK
  5
6B
330
68
100
AcDbEntity
  8
0
100
AcDbBlockEnd
  0
BLOCK
  5
6D
330
6C
100
AcDbEntity
  8
0
100
AcDbBlockBegin
  2
AP_RSC-select__4
 70
     0
 10
-287.6500862790649
 20
-273.0000000000102
 30
0.0
  3
AP_RSC-select__4
  1

  0
LINE
  5
166
330
6C
100
AcDbEntity
  8
0
  6
Continuous
 62
     2
100
AcDbLine
 10
-265.50001416596
 20
-210.1499400002772
 30
0.0
 11
-268.50001416596
 21
-212.1499400002772
 31
0.0
  0
LINE
  5
167
330
6C
100
AcDbEntity
  8
0
  6
Continuous
 62
     2
100
AcDbLine
 10
-259.5000141659601
 20
-210.1499400002772
 30
0.0
 11
-262.50001416596
 21
-212.1499400002772
 31
0.0
  0
LINE
  5
168
330
6C
100
AcDbEntity
  8
0
  6
Continuous
 62
     2
100
AcDbLine
 10
-262.50001416596
 20
-212.1499400002772
 30
0.0
 11
-265.50001416596
 21
-210.1499400002772
 31
0.0
  0
LINE
  5
169
330
6C
100
AcDbEntity
  8
0
  6
Continuous
 62
     7
100
AcDbLine
 10
-279.8661150722509
 20
-173.0000000000101
 30
0.0
 11
-242.13394802229
 21
-173.0000000000101
 31
0.0
  0
LINE
  5
16A
330
6C
100
AcDbEntity
  8
0
  6
Continuous
 62
     2
100
AcDbLine
 10
-262.50001416596
 20
-222.1499400002773
 30
0.0
 11
-259.50001416596
 21
-220.1499400002773
 31
0.0
  0
LINE
  5
16B
330
6C
100
AcDbEntity
  8
0
  6
Continuous
 62
     2
100
AcDbLine
 10
-253.5000141659599
 20
-220.1499400002773
 30
0.0
 11
-250.50001416596
 21
-222.1499400002773
 31
0.0
  0
LINE
  5
16C
330
6C
100
AcDbEntity
  8
0
  6
Continuous
 62
     2
100
AcDbLine
 10
-265.50001416596
 20
-220.1499400002773
 30
0.0
 11
-262.50001416596
 21
-222.1499400002773
 31
0.0
  0
LINE
  5
16D
330
6C
100
AcDbEntity
  8
0
  6
Continuous
 62
     2
100
AcDbLine
 10
-256.50001416596
 20
-212.1499400002772
 30
0.0
 11
-259.5000141659601
 21
-210.1499400002772
 31
0.0
  0
LINE
  5
16E
330
6C
100
AcDbEntity
  8
0
  6
Continuous
 62
     2
100
AcDbLine
 10
-235.5000141659601
 20
-220.1499400002773
 30
0.0
 11
-234.3500352818144
 21
-220.9165925897073
 31
0.0
  0
LINE
  5
16F
330
6C
100
AcDbEntity
  8
0
  6
Continuous
 62
     7
100
AcDbLine
 10
-234.3500352818144
 20
-220.9165925897073
 30
0.0
 11
-234.3500352818145
 21
-273.0000000000102
 31
0.0
  0
LINE
  5
170
330
6C
100
AcDbEntity
  8
0
  6
Continuous
 62
     2
100
AcDbLine
 10
-235.8500372183472
 20
-220.3832887018692
 30
0.0
 11
-235.5000141659601
 21
-220.1499400002773
 31
0.0
  0
LINE
  5
171
330
6C
100
AcDbEntity
  8
0
  6
Continuous
 62
     7
100
AcDbLine
 10
-234.3500352818145
 20
-273.0000000000102
 30
0.0
 11
-242.1339480222899
 21
-273.0000000000102
 31
0.0
  0
LINE
  5
172
330
6C
100
AcDbEntity
  8
0
  6
Continuous
 62
     2
100
AcDbLine
 10
-242.13394802229
 20
-220.5725625711633
 30
0.0
 11
-241.50001416596
 21
-220.1499400002773
 31
0.0
  0
LINE
  5
173
330
6C
100
AcDbEntity
  8
0
  6
Continuous
 62
     2
100
AcDbLine
 10
-242.9999775488435
 20
-221.1499155888663
 30
0.0
 11
-242.13394802229
 21
-220.5725625711633
 31
0.0
  0
LINE
  5
174
330
6C
100
AcDbEntity
  8
0
  6
Continuous
 62
     7
100
AcDbLine
 10
-242.13394802229
 20
-220.5725625711633
 30
0.0
 11
-242.1339480222899
 21
-273.0000000000102
 31
0.0
  0
LINE
  5
175
330
6C
100
AcDbEntity
  8
0
  6
Continuous
 62
     2
100
AcDbLine
 10
-256.5000141659601
 20
-222.1499400002773
 30
0.0
 11
-253.5000141659599
 21
-220.1499400002773
 31
0.0
  0
LINE
  5
176
330
6C
100
AcDbEntity
  8
0
  6
Continuous
 62
     2
100
AcDbLine
 10
-249.249983484479
 20
-221.3165862126233
 30
0.0
 11
-247.50001416596
 21
-220.1499400002773
 31
0.0
  0
LINE
  5
177
330
6C
100
AcDbEntity
  8
0
  6
Continuous
 62
     2
100
AcDbLine
 10
-247.50001416596
 20
-220.1499400002773
 30
0.0
 11
-244.50001416596
 21
-222.1499400002773
 31
0.0
  0
LINE
  5
178
330
6C
100
AcDbEntity
  8
0
  6
Continuous
 62
     2
100
AcDbLine
 10
-238.5000141659601
 20
-222.1499400002773
 30
0.0
 11
-237.85004981688
 21
-221.7166304342243
 31
0.0
  0
LINE
  5
179
330
6C
100
AcDbEntity
  8
0
  6
Continuous
 62
     2
100
AcDbLine
 10
-237.85004981688
 20
-221.7166304342243
 30
0.0
 11
-235.8500515160616
 21
-220.3832982336783
 31
0.0
  0
LINE
  5
17A
330
6C
100
AcDbEntity
  8
0
  6
Continuous
 62
     7
100
AcDbLine
 10
-287.6500569267656
 20
-273.0000000000102
 30
0.0
 11
-287.6500862790646
 21
-273.0000000000102
 31
0.0
  0
LINE
  5
17B
330
6C
100
AcDbEntity
  8
0
  6
Continuous
 62
     7
100
AcDbLine
 10
-287.6500569267656
 20
-273.0000000000102
 30
0.0
 11
-279.86611507225
 21
-273.0000000000102
 31
0.0
  0
LINE
  5
17C
330
6C
100
AcDbEntity
  8
0
  6
Continuous
 62
     7
100
AcDbLine
 10
-287.6500569267656
 20
-273.0000000000102
 30
0.0
 11
-287.6500569267654
 21
-221.3832448264072
 31
0.0
  0
LINE
  5
17D
330
6C
100
AcDbEntity
  8
0
  6
Continuous
 62
     2
100
AcDbLine
 10
-279.8661150722509
 20
-221.7273406044712
 30
0.0
 11
-280.5000141659601
 21
-222.1499400002773
 31
0.0
  0
LINE
  5
17E
330
6C
100
AcDbEntity
  8
0
  6
Continuous
 62
     2
100
AcDbLine
 10
-280.5000141659601
 20
-222.1499400002773
 30
0.0
 11
-283.50001416596
 21
-220.1499400002773
 31
0.0
  0
LINE
  5
17F
330
6C
100
AcDbEntity
  8
0
  6
Continuous
 62
     2
100
AcDbLine
 10
-286.1500785706312
 20
-221.9166496033913
 30
0.0
 11
-286.5000141659601
 21
-222.1499400002773
 31
0.0
  0
LINE
  5
180
330
6C
100
AcDbEntity
  8
0
  6
Continuous
 62
     2
100
AcDbLine
 10
-286.5000141659601
 20
-222.1499400002773
 30
0.0
 11
-287.6500569267654
 21
-221.3832448264072
 31
0.0
  0
LINE
  5
181
330
6C
100
AcDbEntity
  8
0
  6
Continuous
 62
     2
100
AcDbLine
 10
-283.50001416596
 20
-220.1499400002773
 30
0.0
 11
-284.150076305322
 21
-220.5833147598522
 31
0.0
  0
LINE
  5
182
330
6C
100
AcDbEntity
  8
0
  6
Continuous
 62
     2
100
AcDbLine
 10
-284.150076305322
 20
-220.5833147598522
 30
0.0
 11
-286.1500785706312
 21
-221.9166496033913
 31
0.0
  0
LINE
  5
183
330
6C
100
AcDbEntity
  8
0
  6
Continuous
 62
     7
100
AcDbLine
 10
-287.6500862790646
 20
-273.0000000000102
 30
0.0
 11
-287.6500862790647
 21
-221.3832252582073
 31
0.0
  0
LINE
  5
184
330
6C
100
AcDbEntity
  8
0
  6
Continuous
 62
     2
100
AcDbLine
 10
-278.9999863801235
 20
-221.1499214763862
 30
0.0
 11
-277.50001416596
 21
-220.1499400002773
 31
0.0
  0
LINE
  5
185
330
6C
100
AcDbEntity
  8
0
  6
Continuous
 62
     7
100
AcDbLine
 10
-242.13394802229
 20
-173.0000000000101
 30
0.0
 11
-242.13394802229
 21
-210.5725625711639
 31
0.0
  0
LINE
  5
186
330
6C
100
AcDbEntity
  8
0
  6
Continuous
 62
     2
100
AcDbLine
 10
-249.2499988722703
 20
-211.3165964711507
 30
0.0
 11
-250.50001416596
 21
-212.1499400002772
 31
0.0
  0
LINE
  5
187
330
6C
100
AcDbEntity
  8
0
  6
Continuous
 62
     2
100
AcDbLine
 10
-247.50001416596
 20
-210.1499400002772
 30
0.0
 11
-249.2499834844791
 21
-211.3165862126233
 31
0.0
  0
LINE
  5
188
330
6C
100
AcDbEntity
  8
0
  6
Continuous
 62
     7
100
AcDbLine
 10
-234.3500352818145
 20
-173.0000000000101
 30
0.0
 11
-234.3500352818145
 21
-210.9165925897075
 31
0.0
  0
LINE
  5
189
330
6C
100
AcDbEntity
  8
0
  6
Continuous
 62
     7
100
AcDbLine
 10
-234.3500352818145
 20
-173.0000000000101
 30
0.0
 11
-242.13394802229
 21
-173.0000000000101
 31
0.0
  0
LINE
  5
18A
330
6C
100
AcDbEntity
  8
0
  6
Continuous
 62
     2
100
AcDbLine
 10
-249.2499834844791
 20
-211.3165862126233
 30
0.0
 11
-249.2499988722703
 21
-211.3165964711507
 31
0.0
  0
LINE
  5
18B
330
6C
100
AcDbEntity
  8
0
  6
Continuous
 62
     2
100
AcDbLine
 10
-242.9999775488436
 20
-211.1499155888663
 30
0.0
 11
-242.999982367046
 21
-211.1499188010012
 31
0.0
  0
LINE
  5
18C
330
6C
100
AcDbEntity
  8
0
  6
Continuous
 62
     2
100
AcDbLine
 10
-242.13394802229
 20
-210.5725625711639
 30
0.0
 11
-242.9999775488436
 21
-211.1499155888663
 31
0.0
  0
LINE
  5
18D
330
6C
100
AcDbEntity
  8
0
  6
Continuous
 62
     2
100
AcDbLine
 10
-242.999982367046
 20
-211.1499188010012
 30
0.0
 11
-244.50001416596
 21
-212.1499400002772
 31
0.0
  0
LINE
  5
18E
330
6C
100
AcDbEntity
  8
0
  6
Continuous
 62
     2
100
AcDbLine
 10
-244.50001416596
 20
-212.1499400002772
 30
0.0
 11
-247.50001416596
 21
-210.1499400002772
 31
0.0
  0
LINE
  5
18F
330
6C
100
AcDbEntity
  8
0
  6
Continuous
 62
     2
100
AcDbLine
 10
-235.8500515160616
 20
-210.3832982336783
 30
0.0
 11
-237.8500498168802
 21
-211.7166304342239
 31
0.0
  0
LINE
  5
190
330
6C
100
AcDbEntity
  8
0
  6
Continuous
 62
     2
100
AcDbLine
 10
-235.8500372183472
 20
-210.3832887018687
 30
0.0
 11
-235.8500515160616
 21
-210.3832982336783
 31
0.0
  0
LINE
  5
191
330
6C
100
AcDbEntity
  8
0
  6
Continuous
 62
     2
100
AcDbLine
 10
-235.50001416596
 20
-210.1499400002772
 30
0.0
 11
-235.8500372183472
 21
-210.3832887018687
 31
0.0
  0
LINE
  5
192
330
6C
100
AcDbEntity
  8
0
  6
Continuous
 62
     2
100
AcDbLine
 10
-234.3500352818145
 20
-210.9165925897075
 30
0.0
 11
-235.50001416596
 21
-210.1499400002772
 31
0.0
  0
LINE
  5
193
330
6C
100
AcDbEntity
  8
0
  6
Continuous
 62
     2
100
AcDbLine
 10
-237.8500498168802
 20
-211.7166304342239
 30
0.0
 11
-238.5000141659601
 21
-212.1499400002772
 31
0.0
  0
LINE
  5
194
330
6C
100
AcDbEntity
  8
0
  6
Continuous
 62
     2
100
AcDbLine
 10
-241.5000141659601
 20
-210.1499400002772
 30
0.0
 11
-242.13394802229
 21
-210.5725625711639
 31
0.0
  0
LINE
  5
195
330
6C
100
AcDbEntity
  8
0
  6
Continuous
 62
     2
100
AcDbLine
 10
-242.9999823670459
 20
-221.1499188010013
 30
0.0
 11
-242.9999775488435
 21
-221.1499155888663
 31
0.0
  0
LINE
  5
196
330
6C
100
AcDbEntity
  8
0
  6
Continuous
 62
     2
100
AcDbLine
 10
-235.8500515160616
 20
-220.3832982336783
 30
0.0
 11
-235.8500372183472
 21
-220.3832887018692
 31
0.0
  0
LINE
  5
197
330
6C
100
AcDbEntity
  8
0
  6
Continuous
 62
     2
100
AcDbLine
 10
-249.2499988722702
 20
-221.3165964711512
 30
0.0
 11
-249.249983484479
 21
-221.3165862126233
 31
0.0
  0
LINE
  5
198
330
6C
100
AcDbEntity
  8
0
  6
Continuous
 62
     2
100
AcDbLine
 10
-250.50001416596
 20
-222.1499400002773
 30
0.0
 11
-249.2499988722702
 21
-221.3165964711512
 31
0.0
  0
LINE
  5
199
330
6C
100
AcDbEntity
  8
0
  6
Continuous
 62
     2
100
AcDbLine
 10
-244.50001416596
 20
-222.1499400002773
 30
0.0
 11
-242.9999823670459
 21
-221.1499188010013
 31
0.0
  0
LINE
  5
19A
330
6C
100
AcDbEntity
  8
0
  6
Continuous
 62
     2
100
AcDbLine
 10
-259.50001416596
 20
-220.1499400002773
 30
0.0
 11
-256.5000141659601
 21
-222.1499400002773
 31
0.0
  0
LINE
  5
19B
330
6C
100
AcDbEntity
  8
0
  6
Continuous
 62
     2
100
AcDbLine
 10
-241.50001416596
 20
-220.1499400002773
 30
0.0
 11
-238.5000141659601
 21
-222.1499400002773
 31
0.0
  0
LINE
  5
19C
330
6C
100
AcDbEntity
  8
0
  6
Continuous
 62
     2
100
AcDbLine
 10
-238.5000141659601
 20
-212.1499400002772
 30
0.0
 11
-241.5000141659601
 21
-210.1499400002772
 31
0.0
  0
LINE
  5
19D
330
6C
100
AcDbEntity
  8
0
  6
Continuous
 62
     2
100
AcDbLine
 10
-253.50001416596
 20
-210.1499400002771
 30
0.0
 11
-256.50001416596
 21
-212.1499400002772
 31
0.0
  0
LINE
  5
19E
330
6C
100
AcDbEntity
  8
0
  6
Continuous
 62
     2
100
AcDbLine
 10
-268.50001416596
 20
-222.1499400002773
 30
0.0
 11
-265.50001416596
 21
-220.1499400002773
 31
0.0
  0
LINE
  5
19F
330
6C
100
AcDbEntity
  8
0
  6
Continuous
 62
     2
100
AcDbLine
 10
-287.6500862790649
 20
-211.3832252582073
 30
0.0
 11
-287.6500569267655
 21
-211.3832448264069
 31
0.0
  0
LINE
  5
1A0
330
6C
100
AcDbEntity
  8
0
  6
Continuous
 62
     7
100
AcDbLine
 10
-287.6500569267654
 20
-173.0000000000101
 30
0.0
 11
-287.6500862790648
 21
-173.0000000000101
 31
0.0
  0
LINE
  5
1A1
330
6C
100
AcDbEntity
  8
0
  6
Continuous
 62
     7
100
AcDbLine
 10
-287.6500569267655
 20
-211.3832448264069
 30
0.0
 11
-287.6500569267654
 21
-173.0000000000101
 31
0.0
  0
LINE
  5
1A2
330
6C
100
AcDbEntity
  8
0
  6
Continuous
 62
     7
100
AcDbLine
 10
-287.6500569267654
 20
-173.0000000000101
 30
0.0
 11
-279.8661150722509
 21
-173.0000000000101
 31
0.0
  0
LINE
  5
1A3
330
6C
100
AcDbEntity
  8
0
  6
Continuous
 62
     2
100
AcDbLine
 10
-286.5000141659601
 20
-212.1499400002772
 30
0.0
 11
-286.1500785706313
 21
-211.9166496033913
 31
0.0
  0
LINE
  5
1A4
330
6C
100
AcDbEntity
  8
0
  6
Continuous
 62
     2
100
AcDbLine
 10
-284.1500763053221
 20
-210.5833147598519
 30
0.0
 11
-283.5000141659601
 21
-210.1499400002772
 31
0.0
  0
LINE
  5
1A5
330
6C
100
AcDbEntity
  8
0
  6
Continuous
 62
     2
100
AcDbLine
 10
-287.6500569267655
 20
-211.3832448264069
 30
0.0
 11
-286.5000141659601
 21
-212.1499400002772
 31
0.0
  0
LINE
  5
1A6
330
6C
100
AcDbEntity
  8
0
  6
Continuous
 62
     2
100
AcDbLine
 10
-280.5000141659601
 20
-212.1499400002772
 30
0.0
 11
-279.8661150722509
 21
-211.727340604471
 31
0.0
  0
LINE
  5
1A7
330
6C
100
AcDbEntity
  8
0
  6
Continuous
 62
     2
100
AcDbLine
 10
-279.8661150722509
 20
-221.7273406044712
 30
0.0
 11
-278.9999863801235
 21
-221.1499214763862
 31
0.0
  0
LINE
  5
1A8
330
6C
100
AcDbEntity
  8
0
  6
Continuous
 62
     2
100
AcDbLine
 10
-287.6500569267654
 20
-221.3832448264072
 30
0.0
 11
-287.6500862790647
 21
-221.3832252582073
 31
0.0
  0
LINE
  5
1A9
330
6C
100
AcDbEntity
  8
0
  6
Continuous
 62
     2
100
AcDbLine
 10
-277.50001416596
 20
-220.1499400002773
 30
0.0
 11
-274.50001416596
 21
-222.1499400002773
 31
0.0
  0
LINE
  5
1AA
330
6C
100
AcDbEntity
  8
0
  6
Continuous
 62
     2
100
AcDbLine
 10
-286.1500785706313
 20
-211.9166496033913
 30
0.0
 11
-284.1500763053221
 21
-210.5833147598519
 31
0.0
  0
LINE
  5
1AB
330
6C
100
AcDbEntity
  8
0
  6
Continuous
 62
     7
100
AcDbLine
 10
-287.6500862790649
 20
-211.3832252582073
 30
0.0
 11
-287.6500862790648
 21
-173.0000000000101
 31
0.0
  0
LINE
  5
1AC
330
6C
100
AcDbEntity
  8
0
  6
Continuous
 62
     2
100
AcDbLine
 10
-283.5000141659601
 20
-210.1499400002772
 30
0.0
 11
-280.5000141659601
 21
-212.1499400002772
 31
0.0
  0
LINE
  5
1AD
330
6C
100
AcDbEntity
  8
0
  6
Continuous
 62
     2
100
AcDbLine
 10
-274.2499990801695
 20
-221.9832632764172
 30
0.0
 11
-272.7499902508603
 21
-220.9832573902103
 31
0.0
  0
LINE
  5
1AE
330
6C
100
AcDbEntity
  8
0
  6
Continuous
 62
     2
100
AcDbLine
 10
-272.7499902508603
 20
-220.9832573902103
 30
0.0
 11
-271.50001416596
 21
-220.1499400002773
 31
0.0
  0
LINE
  5
1AF
330
6C
100
AcDbEntity
  8
0
  6
Continuous
 62
     2
100
AcDbLine
 10
-278.9999863801235
 20
-211.1499214763861
 30
0.0
 11
-277.5000141659601
 21
-210.1499400002772
 31
0.0
  0
LINE
  5
1B0
330
6C
100
AcDbEntity
  8
0
  6
Continuous
 62
     2
100
AcDbLine
 10
-278.9999863801235
 20
-211.1499214763861
 30
0.0
 11
-279.8661150722509
 21
-211.727340604471
 31
0.0
  0
LINE
  5
1B1
330
6C
100
AcDbEntity
  8
0
  6
Continuous
 62
     7
100
AcDbLine
 10
-279.8661150722509
 20
-173.0000000000101
 30
0.0
 11
-279.8661150722509
 21
-211.727340604471
 31
0.0
  0
LINE
  5
1B2
330
6C
100
AcDbEntity
  8
0
  6
Continuous
 62
     2
100
AcDbLine
 10
-271.50001416596
 20
-210.1499400002772
 30
0.0
 11
-272.7499902508603
 21
-210.9832573902106
 31
0.0
  0
LINE
  5
1B3
330
6C
100
AcDbEntity
  8
0
  6
Continuous
 62
     2
100
AcDbLine
 10
-274.2500092213624
 20
-211.983270037212
 30
0.0
 11
-274.2499990801695
 21
-211.9832632764168
 31
0.0
  0
LINE
  5
1B4
330
6C
100
AcDbEntity
  8
0
  6
Continuous
 62
     2
100
AcDbLine
 10
-274.2499990801695
 20
-211.9832632764168
 30
0.0
 11
-272.7499902508603
 21
-210.9832573902106
 31
0.0
  0
LINE
  5
1B5
330
6C
100
AcDbEntity
  8
0
  6
Continuous
 62
     2
100
AcDbLine
 10
-271.50001416596
 20
-220.1499400002773
 30
0.0
 11
-268.50001416596
 21
-222.1499400002773
 31
0.0
  0
LINE
  5
1B6
330
6C
100
AcDbEntity
  8
0
  6
Continuous
 62
     2
100
AcDbLine
 10
-274.50001416596
 20
-212.1499400002772
 30
0.0
 11
-274.2500092213624
 21
-211.983270037212
 31
0.0
  0
LINE
  5
1B7
330
6C
100
AcDbEntity
  8
0
  6
Continuous
 62
     2
100
AcDbLine
 10
-277.5000141659601
 20
-210.1499400002772
 30
0.0
 11
-274.50001416596
 21
-212.1499400002772
 31
0.0
  0
LINE
  5
1B8
330
6C
100
AcDbEntity
  8
0
  6
Continuous
 62
     2
100
AcDbLine
 10
-268.50001416596
 20
-212.1499400002772
 30
0.0
 11
-271.50001416596
 21
-210.1499400002772
 31
0.0
  0
LINE
  5
1B9
330
6C
100
AcDbEntity
  8
0
  6
Continuous
 62
     7
100
AcDbLine
 10
-279.86611507225
 20
-273.0000000000102
 30
0.0
 11
-242.1339480222899
 21
-273.0000000000102
 31
0.0
  0
LINE
  5
1BA
330
6C
100
AcDbEntity
  8
0
  6
Continuous
 62
     2
100
AcDbLine
 10
-274.2500092213624
 20
-221.9832700372123
 30
0.0
 11
-274.2499990801695
 21
-221.9832632764172
 31
0.0
  0
LINE
  5
1BB
330
6C
100
AcDbEntity
  8
0
  6
Continuous
 62
     7
100
AcDbLine
 10
-279.8661150722509
 20
-221.7273406044712
 30
0.0
 11
-279.86611507225
 21
-273.0000000000102
 31
0.0
  0
LINE
  5
1BC
330
6C
100
AcDbEntity
  8
0
  6
Continuous
 62
     2
100
AcDbLine
 10
-274.50001416596
 20
-222.1499400002773
 30
0.0
 11
-274.2500092213624
 21
-221.9832700372123
 31
0.0
  0
LINE
  5
1BD
330
6C
100
AcDbEntity
  8
0
  6
Continuous
 62
     2
100
AcDbLine
 10
-250.50001416596
 20
-212.1499400002772
 30
0.0
 11
-253.50001416596
 21
-210.1499400002771
 31
0.0
  0
ENDBLK
  5
6E
330
6C
100
AcDbEntity
  8
0
100
AcDbBlockEnd
  0
BLOCK
  5
71
330
6F
100
AcDbEntity
  8
0
100
AcDbBlockBegin
  2
Top1
 70
     0
 10
-261.00001416596
 20
676.9999999999947
 30
0.0
  3
Top1
  1

  0
INSERT
  5
70
330
6F
100
AcDbEntity
  8
0
100
AcDbBlockReference
  2
AP_RSC-select__4
 10
-287.6500862790649
 20
-273.0000000000102
 30
0.0
  0
MTEXT
  5
1BE
330
6F
100
AcDbEntity
  8
1
 62
     6
100
AcDbMText
 10
-261.0000607804396
 20
-278.0000000000102
 30
0.0
 40
5.0
 41
0.0
 71
     2
 72
     1
  1
 
  7
CONVERTER_11
 73
     1
 44
1.32052821128451
  0
DIMENSION
  5
1C9
330
6F
100
AcDbEntity
  8
1
100
AcDbDimension
  2
*D21
 10
-297.6500569267656
 20
-273.0000000000102
 30
0.0
 11
-300.9000569267656
 21
-224.094987425438
 31
0.0
 70
    32
  1
<>
 71
     5
 42
-1.0
 53
90.0
  3
ME10_DIM_10
100
AcDbAlignedDimension
 13
-287.6500569267654
 23
-173.0000000000101
 33
0.0
 14
-287.6500569267656
 24
-273.0000000000102
 34
0.0
 50
90.0
100
AcDbRotatedDimension
  0
ENDBLK
  5
72
330
6F
100
AcDbEntity
  8
0
100
AcDbBlockEnd
  0
BLOCK
  5
74
330
73
100
AcDbEntity
  8
0
100
AcDbBlockBegin
  2
AP_RSC-select__5
 70
     0
 10
-105.3498728235073
 20
-117.0000136393303
 30
0.0
  3
AP_RSC-select__5
  1

  0
LINE
  5
1CA
330
73
100
AcDbEntity
  8
0
  6
Continuous
 62
     7
100
AcDbLine
 10
-55.54983179999965
 20
-115.4470825635611
 30
0.0
 11
-54.65339664362084
 21
-116.9997307665612
 31
0.0
  0
LINE
  5
1CB
330
73
100
AcDbEntity
  8
0
  6
Continuous
 62
     7
100
AcDbLine
 10
-59.32279309689804
 20
-102.8334013393717
 30
0.0
 11
-65.4499090251523
 21
-103.3695239310658
 31
0.0
  0
LINE
  5
1CC
330
73
100
AcDbEntity
  8
0
  6
Continuous
 62
     7
100
AcDbLine
 10
-103.8498565892602
 20
-115.8000064120407
 30
0.0
 11
-103.8498708869746
 21
-112.8325689240342
 31
0.0
  0
LINE
  5
1CD
330
73
100
AcDbEntity
  8
0
  6
Continuous
 62
     7
100
AcDbLine
 10
-103.8498708869746
 20
-112.8325689240342
 30
0.0
 11
-98.10459931238245
 21
-102.8813559251105
 31
0.0
  0
LINE
  5
1CE
330
73
100
AcDbEntity
  8
0
  6
Continuous
 62
     7
100
AcDbLine
 10
-101.8498582884416
 20
-115.4473428142231
 30
0.0
 11
-103.8498565892602
 21
-115.8000064120407
 31
0.0
  0
LINE
  5
1CF
330
73
100
AcDbEntity
  8
0
  6
Continuous
 62
     7
100
AcDbLine
 10
-101.8498582884416
 20
-115.4473428142231
 30
0.0
 11
-102.7462759900125
 21
-117.0000010947799
 31
0.0
  0
LINE
  5
1D0
330
73
100
AcDbEntity
  8
0
  6
Continuous
 62
     7
100
AcDbLine
 10
-105.3498508073999
 20
-117.0000136393303
 30
0.0
 11
-102.7462759900125
 21
-117.0000010947799
 31
0.0
  0
LINE
  5
1D1
330
73
100
AcDbEntity
  8
0
  6
Continuous
 62
     7
100
AcDbLine
 10
-105.3498728235073
 20
-112.4306523626959
 30
0.0
 11
-105.3498508073999
 21
-117.0000136393303
 31
0.0
  0
LINE
  5
1D2
330
73
100
AcDbEntity
  8
0
  6
Continuous
 62
     7
100
AcDbLine
 10
-55.54983179999965
 20
-115.4470825635611
 30
0.0
 11
-53.54982953469053
 21
-115.7997236775299
 31
0.0
  0
LINE
  5
1D3
330
73
100
AcDbEntity
  8
0
  6
Continuous
 62
     7
100
AcDbLine
 10
-53.54982953469053
 20
-115.7997236775299
 30
0.0
 11
-53.54984859667928
 21
-112.8322861895503
 31
0.0
  0
LINE
  5
1D4
330
73
100
AcDbEntity
  8
0
  6
Continuous
 62
     7
100
AcDbLine
 10
-53.54984859667928
 20
-112.8322861895503
 30
0.0
 11
-59.32279309689804
 21
-102.8334013393717
 31
0.0
  0
LINE
  5
1D5
330
73
100
AcDbEntity
  8
0
  6
Continuous
 62
     7
100
AcDbLine
 10
-52.04985117855631
 20
-112.4303527653314
 30
0.0
 11
-52.04982182625697
 21
-116.9997140419245
 31
0.0
  0
LINE
  5
1D6
330
73
100
AcDbEntity
  8
0
  6
Continuous
 62
     7
100
AcDbLine
 10
-52.04985117855631
 20
-112.4303527653314
 30
0.0
 11
-59.8337930330709
 21
-98.94836999538992
 31
0.0
  0
LINE
  5
1D7
330
73
100
AcDbEntity
  8
0
  6
Continuous
 62
     7
100
AcDbLine
 10
-91.94991773894903
 20
-103.1828703208614
 30
0.0
 11
-98.10459931238245
 21
-102.8813559251105
 31
0.0
  0
LINE
  5
1D8
330
73
100
AcDbEntity
  8
0
  6
Continuous
 62
     7
100
AcDbLine
 10
-91.94991773894903
 20
-103.1828703208614
 30
0.0
 11
-91.94990923306888
 21
-104.9482341220406
 31
0.0
  0
LINE
  5
1D9
330
73
100
AcDbEntity
  8
0
  6
Continuous
 62
     7
100
AcDbLine
 10
-91.94990923306888
 20
-104.9482341220406
 30
0.0
 11
-90.44990923305147
 21
-104.9482341220406
 31
0.0
  0
LINE
  5
1DA
330
73
100
AcDbEntity
  8
0
  6
Continuous
 62
     7
100
AcDbLine
 10
-90.44990923305147
 20
-104.9482341220406
 30
0.0
 11
-90.44992462084268
 21
-101.7545552466389
 31
0.0
  0
LINE
  5
1DB
330
73
100
AcDbEntity
  8
0
  6
Continuous
 62
     7
100
AcDbLine
 10
-96.6999257382758
 20
-101.4483711999289
 30
0.0
 11
-90.44992462084268
 21
-101.7545552466389
 31
0.0
  0
LINE
  5
1DC
330
73
100
AcDbEntity
  8
0
  6
Continuous
 62
     7
100
AcDbLine
 10
-96.6999257382758
 20
-101.4483711999289
 30
0.0
 11
-96.69993055647824
 21
-100.4483711999405
 31
0.0
  0
LINE
  5
1DD
330
73
100
AcDbEntity
  8
0
  6
Continuous
 62
     7
100
AcDbLine
 10
-66.94991785446155
 20
-101.9950434535347
 30
0.0
 11
-66.94989888399037
 21
-104.9482341220406
 31
0.0
  0
LINE
  5
1DE
330
73
100
AcDbEntity
  8
0
  6
Continuous
 62
     7
100
AcDbLine
 10
-66.94989888399037
 20
-104.9482341220406
 30
0.0
 11
-65.44989888395943
 21
-104.9482341220406
 31
0.0
  0
LINE
  5
1DF
330
73
100
AcDbEntity
  8
0
  6
Continuous
 62
     7
100
AcDbLine
 10
-65.44989888395943
 20
-104.9482341220406
 30
0.0
 11
-65.4499090251523
 21
-103.3695239310658
 31
0.0
  0
LINE
  5
1E0
330
73
100
AcDbEntity
  8
0
  6
Continuous
 62
     7
100
AcDbLine
 10
-59.8337930330709
 20
-98.94836999538992
 30
0.0
 11
-97.56596008303181
 21
-98.94836999538991
 31
0.0
  0
LINE
  5
1E1
330
73
100
AcDbEntity
  8
0
  6
Continuous
 62
     7
100
AcDbLine
 10
-96.69993055647824
 20
-100.4483711999405
 30
0.0
 11
-60.69992814763432
 21
-100.4483687908393
 31
0.0
  0
LINE
  5
1E2
330
73
100
AcDbEntity
  8
0
  6
Continuous
 62
     7
100
AcDbLine
 10
-60.6999217251983
 20
-101.4481688452958
 30
0.0
 11
-60.69992814763432
 21
-100.4483687908393
 31
0.0
  0
LINE
  5
1E3
330
73
100
AcDbEntity
  8
0
  6
Continuous
 62
     7
100
AcDbLine
 10
-60.6999217251983
 20
-101.4481688452958
 30
0.0
 11
-66.94991785446155
 21
-101.9950434535347
 31
0.0
  0
LINE
  5
1E4
330
73
100
AcDbEntity
  8
0
  6
Continuous
 62
     7
100
AcDbLine
 10
-52.04982182625697
 20
-116.9997140419245
 30
0.0
 11
-54.65339664362084
 21
-116.9997307665612
 31
0.0
  0
LINE
  5
1E5
330
73
100
AcDbEntity
  8
0
  6
Continuous
 62
     7
100
AcDbLine
 10
-105.3498728235073
 20
-112.4306523626959
 30
0.0
 11
-97.56596008303181
 21
-98.94836999538991
 31
0.0
  0
LINE
  5
1E6
330
73
100
AcDbEntity
  8
1
  6
DOT_CENTER
 62
     2
100
AcDbLine
 10
-78.69996245639203
 20
-94.56006770823029
 30
0.0
 11
-78.69981913013038
 21
-120.0585994564081
 31
0.0
  0
ENDBLK
  5
75
330
73
100
AcDbEntity
  8
0
100
AcDbBlockEnd
  0
BLOCK
  5
78
330
76
100
AcDbEntity
  8
0
100
AcDbBlockBegin
  2
Back1
 70
     0
 10
-78.69989393936169
 20
-107.9740690827132
 30
0.0
  3
Back1
  1

  0
INSERT
  5
77
330
76
100
AcDbEntity
  8
0
100
AcDbBlockReference
  2
AP_RSC-select__5
 10
-105.3498728235073
 20
-117.0000136393303
 30
0.0
  0
MTEXT
  5
1E7
330
76
100
AcDbEntity
  8
1
 62
     6
100
AcDbMText
 10
-78.69989393936169
 20
-122.000000100086
 30
0.0
 40
5.0
 41
0.0
 71
     2
 72
     1
  1
 
  7
CONVERTER_11
 73
     1
 44
1.32052821128451
  0
ENDBLK
  5
79
330
76
100
AcDbEntity
  8
0
100
AcDbBlockEnd
  0
BLOCK
  5
7B
330
7A
100
AcDbEntity
  8
0
100
AcDbBlockBegin
  2
AP_RSC-select__6
 70
     0
 10
-287.6500862790646
 20
-117.0000136393306
 30
0.0
  3
AP_RSC-select__6
  1

  0
LINE
  5
1E8
330
7A
100
AcDbEntity
  8
0
  6
Continuous
 62
     7
100
AcDbLine
 10
-278.9999863801235
 20
-101.4481688452962
 30
0.0
 11
-278.9999799576874
 21
-100.4483687908396
 31
0.0
  0
LINE
  5
1E9
330
7A
100
AcDbEntity
  8
0
  6
Continuous
 62
     7
100
AcDbLine
 10
-286.1500595086426
 20
-112.8322861895506
 30
0.0
 11
-280.3771150084239
 21
-102.833401339372
 31
0.0
  0
LINE
  5
1EA
330
7A
100
AcDbEntity
  8
0
  6
Continuous
 62
     7
100
AcDbLine
 10
-287.6500569267656
 20
-112.4303527653318
 30
0.0
 11
-279.86611507225
 21
-98.94836999539001
 31
0.0
  0
LINE
  5
1EB
330
7A
100
AcDbEntity
  8
0
  6
Continuous
 62
     7
100
AcDbLine
 10
-287.6500569267656
 20
-112.4303527653318
 30
0.0
 11
-287.6500862790646
 21
-116.9997140419246
 31
0.0
  0
LINE
  5
1EC
330
7A
100
AcDbEntity
  8
0
  6
Continuous
 62
     7
100
AcDbLine
 10
-287.6500862790646
 20
-116.9997140419246
 30
0.0
 11
-285.0465114617007
 21
-116.9997307665613
 31
0.0
  0
LINE
  5
1ED
330
7A
100
AcDbEntity
  8
0
  6
Continuous
 62
     7
100
AcDbLine
 10
-242.9999775488431
 20
-100.4483711999406
 30
0.0
 11
-278.9999799576874
 21
-100.4483687908396
 31
0.0
  0
LINE
  5
1EE
330
7A
100
AcDbEntity
  8
0
  6
Continuous
 62
     7
100
AcDbLine
 10
-279.86611507225
 20
-98.94836999539001
 30
0.0
 11
-242.13394802229
 21
-98.94836999539
 31
0.0
  0
LINE
  5
1EF
330
7A
100
AcDbEntity
  8
0
  6
Continuous
 62
     7
100
AcDbLine
 10
-284.1500763053221
 20
-115.4470825635612
 30
0.0
 11
-286.1500785706313
 21
-115.79972367753
 31
0.0
  0
LINE
  5
1F0
330
7A
100
AcDbEntity
  8
0
  6
Continuous
 62
     7
100
AcDbLine
 10
-235.8500515160616
 20
-115.8000064120408
 30
0.0
 11
-235.8500372183472
 21
-112.8325689240346
 31
0.0
  0
LINE
  5
1F1
330
7A
100
AcDbEntity
  8
0
  6
Continuous
 62
     7
100
AcDbLine
 10
-237.8500498168799
 20
-115.4473428142232
 30
0.0
 11
-235.8500515160616
 21
-115.8000064120408
 31
0.0
  0
LINE
  5
1F2
330
7A
100
AcDbEntity
  8
0
  6
Continuous
 62
     7
100
AcDbLine
 10
-234.3500572979219
 20
-117.0000136393306
 30
0.0
 11
-236.9536321153091
 21
-117.0000010947802
 31
0.0
  0
LINE
  5
1F3
330
7A
100
AcDbEntity
  8
0
  6
Continuous
 62
     7
100
AcDbLine
 10
-234.3500352818146
 20
-112.4306523626958
 30
0.0
 11
-234.3500572979219
 21
-117.0000136393306
 31
0.0
  0
LINE
  5
1F4
330
7A
100
AcDbEntity
  8
0
  6
Continuous
 62
     7
100
AcDbLine
 10
-278.9999863801235
 20
-101.4481688452962
 30
0.0
 11
-272.7499902508602
 21
-101.9950434535352
 31
0.0
  0
LINE
  5
1F5
330
7A
100
AcDbEntity
  8
0
  6
Continuous
 62
     7
100
AcDbLine
 10
-272.7499902508602
 20
-101.9950434535352
 30
0.0
 11
-272.7500092213308
 21
-104.9482341220407
 31
0.0
  0
LINE
  5
1F6
330
7A
100
AcDbEntity
  8
0
  6
Continuous
 62
     7
100
AcDbLine
 10
-272.7500092213308
 20
-104.9482341220407
 30
0.0
 11
-274.2500092213617
 21
-104.9482341220407
 31
0.0
  0
LINE
  5
1F7
330
7A
100
AcDbEntity
  8
0
  6
Continuous
 62
     7
100
AcDbLine
 10
-274.2500092213617
 20
-104.9482341220407
 30
0.0
 11
-274.2499990801695
 21
-103.3695239310659
 31
0.0
  0
LINE
  5
1F8
330
7A
100
AcDbEntity
  8
0
  6
Continuous
 62
     7
100
AcDbLine
 10
-280.3771150084239
 20
-102.833401339372
 30
0.0
 11
-274.2499990801695
 21
-103.3695239310659
 31
0.0
  0
LINE
  5
1F9
330
7A
100
AcDbEntity
  8
0
  6
Continuous
 62
     7
100
AcDbLine
 10
-241.5953087929393
 20
-102.8813559251106
 30
0.0
 11
-247.7499903663721
 21
-103.1828703208615
 31
0.0
  0
LINE
  5
1FA
330
7A
100
AcDbEntity
  8
0
  6
Continuous
 62
     7
100
AcDbLine
 10
-247.7499903663721
 20
-103.1828703208615
 30
0.0
 11
-247.7499988722523
 21
-104.9482341220407
 31
0.0
  0
LINE
  5
1FB
330
7A
100
AcDbEntity
  8
0
  6
Continuous
 62
     7
100
AcDbLine
 10
-249.2499988722703
 20
-104.948234122041
 30
0.0
 11
-249.2499834844791
 21
-101.7545552466393
 31
0.0
  0
LINE
  5
1FC
330
7A
100
AcDbEntity
  8
0
  6
Continuous
 62
     7
100
AcDbLine
 10
-242.999982367046
 20
-101.448371199929
 30
0.0
 11
-242.9999775488431
 21
-100.4483711999406
 31
0.0
  0
LINE
  5
1FD
330
7A
100
AcDbEntity
  8
0
  6
Continuous
 62
     7
100
AcDbLine
 10
-249.2499834844791
 20
-101.7545552466393
 30
0.0
 11
-242.999982367046
 21
-101.448371199929
 31
0.0
  0
LINE
  5
1FE
330
7A
100
AcDbEntity
  8
0
  6
Continuous
 62
     7
100
AcDbLine
 10
-247.7499988722523
 20
-104.9482341220407
 30
0.0
 11
-249.2499988722703
 21
-104.948234122041
 31
0.0
  0
LINE
  5
1FF
330
7A
100
AcDbEntity
  8
0
  6
Continuous
 62
     7
100
AcDbLine
 10
-235.8500372183472
 20
-112.8325689240346
 30
0.0
 11
-241.5953087929393
 21
-102.8813559251106
 31
0.0
  0
LINE
  5
200
330
7A
100
AcDbEntity
  8
0
  6
Continuous
 62
     7
100
AcDbLine
 10
-237.8500498168799
 20
-115.4473428142232
 30
0.0
 11
-236.9536321153091
 21
-117.0000010947802
 31
0.0
  0
LINE
  5
201
330
7A
100
AcDbEntity
  8
0
  6
Continuous
 62
     7
100
AcDbLine
 10
-286.1500785706313
 20
-115.79972367753
 30
0.0
 11
-286.1500595086426
 21
-112.8322861895506
 31
0.0
  0
LINE
  5
202
330
7A
100
AcDbEntity
  8
0
  6
Continuous
 62
     7
100
AcDbLine
 10
-284.1500763053221
 20
-115.4470825635612
 30
0.0
 11
-285.0465114617007
 21
-116.9997307665613
 31
0.0
  0
LINE
  5
203
330
7A
100
AcDbEntity
  8
0
  6
Continuous
 62
     7
100
AcDbLine
 10
-234.3500352818146
 20
-112.4306523626958
 30
0.0
 11
-242.13394802229
 21
-98.94836999539
 31
0.0
  0
LINE
  5
204
330
7A
100
AcDbEntity
  8
1
  6
DOT_CENTER
 62
     2
100
AcDbLine
 10
-260.9999508239695
 20
-95.47997926749971
 30
0.0
 11
-261.0000914474006
 21
-120.497662590294
 31
0.0
  0
ENDBLK
  5
7C
330
7A
100
AcDbEntity
  8
0
100
AcDbBlockEnd
  0
BLOCK
  5
7F
330
7D
100
AcDbEntity
  8
0
100
AcDbBlockBegin
  2
Front1
 70
     0
 10
-261.00001416596
 20
-107.9740690827132
 30
0.0
  3
Front1
  1

  0
INSERT
  5
7E
330
7D
100
AcDbEntity
  8
0
100
AcDbBlockReference
  2
AP_RSC-select__6
 10
-287.6500862790646
 20
-117.0000136393306
 30
0.0
  0
MTEXT
  5
205
330
7D
100
AcDbEntity
  8
1
 62
     6
100
AcDbMText
 10
-261.00001416596
 20
-122.000000100086
 30
0.0
 40
5.0
 41
0.0
 71
     2
 72
     1
  1
 
  7
CONVERTER_11
 73
     1
 44
1.32052821128451
  0
DIMENSION
  5
210
330
7D
100
AcDbEntity
  8
1
100
AcDbDimension
  2
*D22
 10
-296.6086997757789
 20
-116.9997307665614
 30
0.0
 11
-300.0336997757789
 21
-108.8076395797527
 31
0.0
 70
    32
  1
<>
 71
     5
 42
-1.0
 53
90.0
  3
ME10_DIM_11
100
AcDbAlignedDimension
 13
-279.86611507225
 23
-98.94836999539001
 33
0.0
 14
-285.0465114617007
 24
-116.9997307665613
 34
0.0
 50
90.0
100
AcDbRotatedDimension
  0
DIMENSION
  5
21B
330
7D
100
AcDbEntity
  8
1
100
AcDbDimension
  2
*D23
 10
-234.3500352818147
 20
-130.5083908947263
 30
0.0
 11
-262.1239924087652
 21
-127.0833908947263
 31
0.0
 70
    32
  1
<>
 71
     5
 42
-1.0
 53
0.00013888888889
  3
ME10_DIM_12
100
AcDbAlignedDimension
 13
-287.6500569267656
 23
-112.4303527653318
 33
0.0
 14
-234.3500352818146
 24
-112.4306523626958
 34
0.0
100
AcDbRotatedDimension
  0
ENDBLK
  5
80
330
7D
100
AcDbEntity
  8
0
100
AcDbBlockEnd
  0
BLOCK
  5
82
330
81
100
AcDbEntity
  8
0
100
AcDbBlockBegin
  2
_rahmen
 70
     0
 10
-28.65009232717551
 20
-324.9151527289684
 30
0.0
  3
_rahmen
  1

  0
LINE
  5
21C
330
81
100
AcDbEntity
  8
1
  6
Continuous
 62
     6
100
AcDbLine
 10
-96.98342566050893
 20
-319.9151527289684
 30
0.0
 11
-28.65009232717557
 21
-319.9151527289689
 31
0.0
  0
LINE
  5
21D
330
81
100
AcDbEntity
  8
1
  6
Continuous
 62
     6
100
AcDbLine
 10
-28.65009232717597
 20
-311.415152728969
 30
0.0
 11
-28.65009232717551
 21
-302.915152728969
 31
0.0
  0
LINE
  5
21E
330
81
100
AcDbEntity
  8
1
  6
Continuous
 62
     6
100
AcDbLine
 10
-28.65009232717551
 20
-302.915152728969
 30
0.0
 11
-28.65009232717648
 21
-298.665152728969
 31
0.0
  0
LINE
  5
21F
330
81
100
AcDbEntity
  8
1
  6
Continuous
 62
     6
100
AcDbLine
 10
-28.65009232717648
 20
-298.665152728969
 30
0.0
 11
-28.65009232717557
 21
-262.5151527289683
 31
0.0
  0
LINE
  5
220
330
81
100
AcDbEntity
  8
1
  6
Continuous
 62
     2
100
AcDbLine
 10
-233.6500923271755
 20
-324.9151527289684
 30
0.0
 11
-301.9834256605086
 21
-324.9151527289684
 31
0.0
  0
LINE
  5
221
330
81
100
AcDbEntity
  8
1
  6
Continuous
 62
     2
100
AcDbLine
 10
-96.98342566050893
 20
-324.9151527289684
 30
0.0
 11
-28.65009232717551
 21
-324.9151527289684
 31
0.0
  0
LINE
  5
222
330
81
100
AcDbEntity
  8
1
  6
Continuous
 62
     2
100
AcDbLine
 10
-96.98342566050893
 20
-324.9151527289684
 30
0.0
 11
-96.98342566050893
 21
-319.9151527289684
 31
0.0
  0
LINE
  5
223
330
81
100
AcDbEntity
  8
1
  6
Continuous
 62
     2
100
AcDbLine
 10
-165.3167589938421
 20
-324.9151527289684
 30
0.0
 11
-165.3167589938421
 21
-319.9151527289713
 31
0.0
  0
LINE
  5
224
330
81
100
AcDbEntity
  8
1
  6
Continuous
 62
     2
100
AcDbLine
 10
-233.6500923271755
 20
-324.9151527289684
 30
0.0
 11
-233.6500923271755
 21
-319.9151527289684
 31
0.0
  0
LINE
  5
225
330
81
100
AcDbEntity
  8
1
  6
Continuous
 62
     2
100
AcDbLine
 10
-23.65009232717802
 20
-262.5151527289683
 30
0.0
 11
-23.65009232717802
 21
-205.1151527289682
 31
0.0
  0
LINE
  5
226
330
81
100
AcDbEntity
  8
1
  6
Continuous
 62
     2
100
AcDbLine
 10
-23.65009232717802
 20
-262.5151527289683
 30
0.0
 11
-28.65009232717557
 21
-262.5151527289683
 31
0.0
  0
LINE
  5
227
330
81
100
AcDbEntity
  8
1
  6
Continuous
 62
     2
100
AcDbLine
 10
-423.6500923271762
 20
-324.9151527289684
 30
0.0
 11
-443.6500923271763
 21
-324.9151527289684
 31
0.0
  0
LINE
  5
228
330
81
100
AcDbEntity
  8
1
  6
Continuous
 62
     2
100
AcDbLine
 10
-370.3167589938421
 20
-324.9151527289684
 30
0.0
 11
-370.3167589938421
 21
-319.9151527289684
 31
0.0
  0
LINE
  5
229
330
81
100
AcDbEntity
  8
1
  6
Continuous
 62
     2
100
AcDbLine
 10
-370.3167589938421
 20
-324.9151527289684
 30
0.0
 11
-301.9834256605086
 21
-324.9151527289684
 31
0.0
  0
LINE
  5
22A
330
81
100
AcDbEntity
  8
1
  6
Continuous
 62
     6
100
AcDbLine
 10
-370.3167589938421
 20
-319.9151527289684
 30
0.0
 11
-301.9834256605086
 21
-319.9151527289684
 31
0.0
  0
LINE
  5
22B
330
81
100
AcDbEntity
  8
1
  6
Continuous
 62
     6
100
AcDbLine
 10
-370.3167589938421
 20
-319.9151527289684
 30
0.0
 11
-423.6500923271752
 21
-319.9151527289684
 31
0.0
  0
LINE
  5
22C
330
81
100
AcDbEntity
  8
1
  6
Continuous
 62
     2
100
AcDbLine
 10
-301.9834256605086
 20
-324.9151527289684
 30
0.0
 11
-301.9834256605086
 21
-319.9151527289684
 31
0.0
  0
LINE
  5
22D
330
81
100
AcDbEntity
  8
1
  6
Continuous
 62
     2
100
AcDbLine
 10
-423.6500923271762
 20
-324.9151527289684
 30
0.0
 11
-423.6500923271762
 21
-320.9151527289684
 31
0.0
  0
LINE
  5
22E
330
81
100
AcDbEntity
  8
1
  6
Continuous
 62
     2
100
AcDbLine
 10
-423.6500923271762
 20
-324.9151527289684
 30
0.0
 11
-370.3167589938421
 21
-324.9151527289684
 31
0.0
  0
LINE
  5
22F
330
81
100
AcDbEntity
  8
1
  6
Continuous
 62
     2
100
AcDbLine
 10
-213.6500923271783
 20
-324.9151527289684
 30
0.0
 11
-233.6500923271755
 21
-324.9151527289684
 31
0.0
  0
LINE
  5
230
330
81
100
AcDbEntity
  8
1
  6
Continuous
 62
     2
100
AcDbLine
 10
-213.6500923271783
 20
-324.9151527289684
 30
0.0
 11
-213.6500923271783
 21
-320.9151527289684
 31
0.0
  0
LINE
  5
231
330
81
100
AcDbEntity
  8
1
  6
Continuous
 62
     2
100
AcDbLine
 10
-213.6500923271783
 20
-324.9151527289684
 30
0.0
 11
-165.3167589938421
 21
-324.9151527289684
 31
0.0
  0
LINE
  5
232
330
81
100
AcDbEntity
  8
1
  6
Continuous
 62
     2
100
AcDbLine
 10
-165.3167589938421
 20
-324.9151527289684
 30
0.0
 11
-96.98342566050893
 21
-324.9151527289684
 31
0.0
  0
LINE
  5
233
330
81
100
AcDbEntity
  8
1
  6
Continuous
 62
     2
100
AcDbLine
 10
-23.65009232717802
 20
-324.9151527289684
 30
0.0
 11
-28.65009232717551
 21
-324.9151527289684
 31
0.0
  0
LINE
  5
234
330
81
100
AcDbEntity
  8
1
  6
Continuous
 62
     2
100
AcDbLine
 10
-23.65009232717802
 20
-319.9151527289684
 30
0.0
 11
-23.65009232717802
 21
-324.9151527289684
 31
0.0
  0
LINE
  5
235
330
81
100
AcDbEntity
  8
1
  6
Continuous
 62
     2
100
AcDbLine
 10
-23.65009232717802
 20
-319.9151527289684
 30
0.0
 11
-23.65009232717802
 21
-262.5151527289683
 31
0.0
  0
LINE
  5
236
330
81
100
AcDbEntity
  8
1
  6
Continuous
 62
     2
100
AcDbLine
 10
-23.65009232717802
 20
-27.9151527289684
 30
0.0
 11
-28.65009232717802
 21
-27.9151527289684
 31
0.0
  0
LINE
  5
237
330
81
100
AcDbEntity
  8
1
  6
Continuous
 62
     6
100
AcDbLine
 10
-28.65009232717802
 20
-32.9151527289684
 30
0.0
 11
-28.6500923271775
 21
-90.31515272896849
 31
0.0
  0
LINE
  5
238
330
81
100
AcDbEntity
  8
1
  6
Continuous
 62
     2
100
AcDbLine
 10
-23.65009232717802
 20
-27.9151527289684
 30
0.0
 11
-23.65009232717802
 21
-32.9151527289684
 31
0.0
  0
LINE
  5
239
330
81
100
AcDbEntity
  8
1
  6
Continuous
 62
     2
100
AcDbLine
 10
-28.65009232717802
 20
-32.9151527289684
 30
0.0
 11
-28.65009232717802
 21
-27.9151527289684
 31
0.0
  0
LINE
  5
23A
330
81
100
AcDbEntity
  8
1
  6
Continuous
 62
     2
100
AcDbLine
 10
-28.65009232717802
 20
-32.9151527289684
 30
0.0
 11
-23.65009232717802
 21
-32.9151527289684
 31
0.0
  0
LINE
  5
23B
330
81
100
AcDbEntity
  8
1
  6
Continuous
 62
     2
100
AcDbLine
 10
-23.65009232717802
 20
-32.9151527289684
 30
0.0
 11
-23.65009232717802
 21
-90.31515272896849
 31
0.0
  0
LINE
  5
23C
330
81
100
AcDbEntity
  8
1
  6
Continuous
 62
     2
100
AcDbLine
 10
-28.6500923271775
 20
-90.31515272896849
 30
0.0
 11
-23.65009232717802
 21
-90.31515272896849
 31
0.0
  0
LINE
  5
23D
330
81
100
AcDbEntity
  8
1
  6
Continuous
 62
     6
100
AcDbLine
 10
-28.6500923271775
 20
-90.31515272896849
 30
0.0
 11
-28.65009232717551
 21
-147.7151527289684
 31
0.0
  0
LINE
  5
23E
330
81
100
AcDbEntity
  8
1
  6
Continuous
 62
     2
100
AcDbLine
 10
-23.65009232717802
 20
-90.31515272896849
 30
0.0
 11
-23.65009232717802
 21
-147.7151527289684
 31
0.0
  0
LINE
  5
23F
330
81
100
AcDbEntity
  8
1
  6
Continuous
 62
     2
100
AcDbLine
 10
-28.65009232717551
 20
-147.7151527289684
 30
0.0
 11
-23.65009232717802
 21
-147.7151527289684
 31
0.0
  0
LINE
  5
240
330
81
100
AcDbEntity
  8
1
  6
Continuous
 62
     6
100
AcDbLine
 10
-28.65009232717551
 20
-147.7151527289684
 30
0.0
 11
-28.65009232717551
 21
-205.1151527289682
 31
0.0
  0
LINE
  5
241
330
81
100
AcDbEntity
  8
1
  6
Continuous
 62
     2
100
AcDbLine
 10
-23.65009232717802
 20
-147.7151527289684
 30
0.0
 11
-23.65009232717802
 21
-205.1151527289682
 31
0.0
  0
LINE
  5
242
330
81
100
AcDbEntity
  8
1
  6
Continuous
 62
     2
100
AcDbLine
 10
-28.65009232717551
 20
-205.1151527289682
 30
0.0
 11
-23.65009232717802
 21
-205.1151527289682
 31
0.0
  0
LINE
  5
243
330
81
100
AcDbEntity
  8
1
  6
Continuous
 62
     6
100
AcDbLine
 10
-28.65009232717551
 20
-205.1151527289682
 30
0.0
 11
-28.65009232717557
 21
-262.5151527289683
 31
0.0
  0
LINE
  5
244
330
81
100
AcDbEntity
  8
1
  6
Continuous
 62
     6
100
AcDbLine
 10
-423.6500923271762
 20
-32.91515272896817
 30
0.0
 11
-370.3167589938421
 21
-32.91515272896817
 31
0.0
  0
LINE
  5
245
330
81
100
AcDbEntity
  8
1
  6
Continuous
 62
     2
100
AcDbLine
 10
-28.65009232717802
 20
-27.9151527289684
 30
0.0
 11
-96.98342566050893
 21
-27.9151527289684
 31
0.0
  0
LINE
  5
246
330
81
100
AcDbEntity
  8
1
  6
Continuous
 62
     2
100
AcDbLine
 10
-96.98342566050893
 20
-32.9151527289684
 30
0.0
 11
-96.98342566050893
 21
-27.9151527289684
 31
0.0
  0
LINE
  5
247
330
81
100
AcDbEntity
  8
1
  6
Continuous
 62
     6
100
AcDbLine
 10
-96.98342566050893
 20
-32.9151527289684
 30
0.0
 11
-28.65009232717802
 21
-32.9151527289684
 31
0.0
  0
LINE
  5
248
330
81
100
AcDbEntity
  8
1
  6
Continuous
 62
     2
100
AcDbLine
 10
-96.98342566050893
 20
-27.9151527289684
 30
0.0
 11
-165.3167589938421
 21
-27.9151527289684
 31
0.0
  0
LINE
  5
249
330
81
100
AcDbEntity
  8
1
  6
Continuous
 62
     2
100
AcDbLine
 10
-165.3167589938421
 20
-32.9151527289684
 30
0.0
 11
-165.3167589938421
 21
-27.9151527289684
 31
0.0
  0
LINE
  5
24A
330
81
100
AcDbEntity
  8
1
  6
Continuous
 62
     6
100
AcDbLine
 10
-165.3167589938421
 20
-32.9151527289684
 30
0.0
 11
-96.98342566050893
 21
-32.9151527289684
 31
0.0
  0
LINE
  5
24B
330
81
100
AcDbEntity
  8
1
  6
Continuous
 62
     2
100
AcDbLine
 10
-165.3167589938421
 20
-27.9151527289684
 30
0.0
 11
-213.6500923271783
 21
-27.9151527289684
 31
0.0
  0
LINE
  5
24C
330
81
100
AcDbEntity
  8
1
  6
Continuous
 62
     2
100
AcDbLine
 10
-233.6500923271755
 20
-32.9151527289684
 30
0.0
 11
-233.6500923271755
 21
-27.9151527289684
 31
0.0
  0
LINE
  5
24D
330
81
100
AcDbEntity
  8
1
  6
Continuous
 62
     6
100
AcDbLine
 10
-233.6500923271755
 20
-32.9151527289684
 30
0.0
 11
-165.3167589938421
 21
-32.9151527289684
 31
0.0
  0
LINE
  5
24E
330
81
100
AcDbEntity
  8
1
  6
Continuous
 62
     2
100
AcDbLine
 10
-233.6500923271755
 20
-27.9151527289684
 30
0.0
 11
-301.9834256605086
 21
-27.9151527289684
 31
0.0
  0
LINE
  5
24F
330
81
100
AcDbEntity
  8
1
  6
Continuous
 62
     2
100
AcDbLine
 10
-301.9834256605086
 20
-32.9151527289684
 30
0.0
 11
-301.9834256605086
 21
-27.9151527289684
 31
0.0
  0
LINE
  5
250
330
81
100
AcDbEntity
  8
1
  6
Continuous
 62
     6
100
AcDbLine
 10
-301.9834256605086
 20
-32.9151527289684
 30
0.0
 11
-233.6500923271755
 21
-32.9151527289684
 31
0.0
  0
LINE
  5
251
330
81
100
AcDbEntity
  8
1
  6
Continuous
 62
     2
100
AcDbLine
 10
-301.9834256605086
 20
-27.9151527289684
 30
0.0
 11
-370.3167589938421
 21
-27.9151527289684
 31
0.0
  0
LINE
  5
252
330
81
100
AcDbEntity
  8
1
  6
Continuous
 62
     2
100
AcDbLine
 10
-370.3167589938421
 20
-32.91515272896817
 30
0.0
 11
-370.3167589938421
 21
-27.9151527289684
 31
0.0
  0
LINE
  5
253
330
81
100
AcDbEntity
  8
1
  6
Continuous
 62
     6
100
AcDbLine
 10
-370.3167589938421
 20
-32.91515272896817
 30
0.0
 11
-301.9834256605086
 21
-32.9151527289684
 31
0.0
  0
LINE
  5
254
330
81
100
AcDbEntity
  8
1
  6
Continuous
 62
     2
100
AcDbLine
 10
-370.3167589938421
 20
-27.9151527289684
 30
0.0
 11
-423.6500923271762
 21
-27.9151527289684
 31
0.0
  0
LINE
  5
255
330
81
100
AcDbEntity
  8
1
  6
Continuous
 62
     2
100
AcDbLine
 10
-423.6500923271762
 20
-27.9151527289684
 30
0.0
 11
-423.6500923271762
 21
-31.91515272896817
 31
0.0
  0
LINE
  5
256
330
81
100
AcDbEntity
  8
1
  6
Continuous
 62
     2
100
AcDbLine
 10
-423.6500923271762
 20
-27.9151527289684
 30
0.0
 11
-443.6500923271763
 21
-27.9151527289684
 31
0.0
  0
LINE
  5
257
330
81
100
AcDbEntity
  8
1
  6
Continuous
 62
     2
100
AcDbLine
 10
-213.6500923271783
 20
-27.9151527289684
 30
0.0
 11
-213.6500923271783
 21
-31.91515272896817
 31
0.0
  0
LINE
  5
258
330
81
100
AcDbEntity
  8
1
  6
Continuous
 62
     2
100
AcDbLine
 10
-213.6500923271783
 20
-27.9151527289684
 30
0.0
 11
-233.6500923271755
 21
-27.9151527289684
 31
0.0
  0
LINE
  5
259
330
81
100
AcDbEntity
  8
1
  6
Continuous
 62
     2
100
AcDbLine
 10
-443.6500923271763
 20
-27.9151527289684
 30
0.0
 11
-443.6500923271763
 21
-176.4151527289684
 31
0.0
  0
LINE
  5
25A
330
81
100
AcDbEntity
  8
1
  6
Continuous
 62
     2
100
AcDbLine
 10
-443.6500923271763
 20
-176.4151527289684
 30
0.0
 11
-433.6500923271762
 21
-176.4151527289684
 31
0.0
  0
LINE
  5
25B
330
81
100
AcDbEntity
  8
1
  6
Continuous
 62
     2
100
AcDbLine
 10
-443.6500923271763
 20
-176.4151527289684
 30
0.0
 11
-443.6500923271763
 21
-324.9151527289684
 31
0.0
  0
LINE
  5
25C
330
81
100
AcDbEntity
  8
1
  6
Continuous
 62
     6
100
AcDbLine
 10
-423.6500923271752
 20
-319.9151527289684
 30
0.0
 11
-423.6500923271762
 21
-32.91515272896817
 31
0.0
  0
LINE
  5
25D
330
81
100
AcDbEntity
  8
1
  6
Continuous
 62
     6
100
AcDbLine
 10
-28.65009232717557
 20
-319.9151527289689
 30
0.0
 11
-28.65009232717597
 21
-311.415152728969
 31
0.0
  0
LINE
  5
25E
330
81
100
AcDbEntity
  8
1
  6
Continuous
 62
     6
100
AcDbLine
 10
-301.9834256605086
 20
-319.9151527289684
 30
0.0
 11
-158.1948968539254
 21
-319.9151527289715
 31
0.0
  0
LINE
  5
25F
330
81
100
AcDbEntity
  8
1
  6
Continuous
 62
     2
100
AcDbLine
 10
-165.3167589938421
 20
-319.9151527289713
 30
0.0
 11
-165.3167589938421
 21
-319.9151527289684
 31
0.0
  0
LINE
  5
260
330
81
100
AcDbEntity
  8
1
  6
Continuous
 62
     6
100
AcDbLine
 10
-28.65009232717372
 20
-302.915152728969
 30
0.0
 11
-28.65009232717372
 21
-294.415152728969
 31
0.0
  0
LINE
  5
261
330
81
100
AcDbEntity
  8
1
  6
Continuous
 62
     7
100
AcDbLine
 10
-93.89489685392552
 20
-311.415152728969
 30
0.0
 11
-93.89489685392552
 21
-302.915152728969
 31
0.0
  0
LINE
  5
262
330
81
100
AcDbEntity
  8
1
  6
Continuous
 62
     6
100
AcDbLine
 10
-121.7948968539255
 20
-302.915152728969
 30
0.0
 11
-28.65009232717372
 21
-302.915152728969
 31
0.0
  0
LINE
  5
263
330
81
100
AcDbEntity
  8
1
  6
Continuous
 62
     7
100
AcDbLine
 10
-158.1948968539254
 20
-302.915152728969
 30
0.0
 11
-158.1948968539254
 21
-294.415152728969
 31
0.0
  0
LINE
  5
264
330
81
100
AcDbEntity
  8
1
  6
Continuous
 62
     7
100
AcDbLine
 10
-121.7948968539255
 20
-302.915152728969
 30
0.0
 11
-121.7948968539255
 21
-294.415152728969
 31
0.0
  0
LINE
  5
265
330
81
100
AcDbEntity
  8
1
  6
Continuous
 62
     7
100
AcDbLine
 10
-64.06850060885255
 20
-294.415152728969
 30
0.0
 11
-64.06850060885255
 21
-302.915152728969
 31
0.0
  0
LINE
  5
266
330
81
100
AcDbEntity
  8
1
  6
Continuous
 62
     7
100
AcDbLine
 10
-37.56850060885292
 20
-294.415152728969
 30
0.0
 11
-37.56850060885292
 21
-302.915152728969
 31
0.0
  0
LINE
  5
267
330
81
100
AcDbEntity
  8
1
  6
Continuous
 62
     7
100
AcDbLine
 10
-28.65009232717422
 20
-311.415152728969
 30
0.0
 11
-121.7948968539255
 21
-311.415152728969
 31
0.0
  0
LINE
  5
268
102
{ACAD_REACTORS
330
34D
330
34E
102
}
330
81
100
AcDbEntity
  8
0
  6
Continuous
 62
     2
100
AcDbLine
 10
-144.487467912158
 20
-310.6148636133057
 30
0.0
 11
-144.487467912158
 21
-309.7423466065024
 31
0.0
  0
LINE
  5
269
102
{ACAD_REACTORS
330
34D
330
34E
102
}
330
81
100
AcDbEntity
  8
0
  6
Continuous
 62
     2
100
AcDbLine
 10
-144.487467912158
 20
-311.5746323207885
 30
0.0
 11
-144.487467912158
 21
-312.4471493275918
 31
0.0
  0
LINE
  5
26A
102
{ACAD_REACTORS
330
34F
330
350
102
}
330
81
100
AcDbEntity
  8
0
  6
Continuous
 62
     2
100
AcDbLine
 10
-129.1544237758676
 20
-310.3531085112652
 30
0.0
 11
-128.0507844762995
 21
-310.3531085112652
 31
0.0
  0
LINE
  5
26B
102
{ACAD_REACTORS
330
34F
330
350
102
}
330
81
100
AcDbEntity
  8
0
  6
Continuous
 62
     2
100
AcDbLine
 10
-128.3847664329062
 20
-311.574632320789
 30
0.0
 11
-128.3847664329062
 21
-312.4471493275923
 31
0.0
  0
LINE
  5
26C
102
{ACAD_REACTORS
330
359
330
35A
102
}
330
81
100
AcDbEntity
  8
0
  6
Continuous
 62
     2
100
AcDbLine
 10
-130.245523048286
 20
-309.2624622527783
 30
0.0
 11
-128.8475700013457
 21
-307.6816032590034
 31
0.0
  0
LINE
  5
26D
102
{ACAD_REACTORS
330
359
330
35A
102
}
330
81
100
AcDbEntity
  8
0
  6
Continuous
 62
     2
100
AcDbLine
 10
-130.1500996321132
 20
-306.2086527289672
 30
0.0
 11
-128.8475700013457
 21
-307.6816032590034
 31
0.0
  0
LINE
  5
26E
102
{ACAD_REACTORS
330
359
330
35A
102
}
330
81
100
AcDbEntity
  8
0
  6
Continuous
 62
     2
100
AcDbLine
 10
-127.5450403705793
 20
-306.2086527289672
 30
0.0
 11
-126.1423161528321
 21
-306.2086527289672
 31
0.0
  0
LINE
  5
26F
102
{ACAD_REACTORS
330
359
330
35A
102
}
330
81
100
AcDbEntity
  8
0
  6
Continuous
 62
     2
100
AcDbLine
 10
-128.8427988305379
 20
-309.2624622527783
 30
0.0
 11
-128.1462078924721
 21
-308.4747304674846
 31
0.0
  0
LINE
  5
270
102
{ACAD_REACTORS
330
359
330
35A
102
}
330
81
100
AcDbEntity
  8
0
  6
Continuous
 62
     2
100
AcDbLine
 10
-128.8427988305379
 20
-309.2624622527783
 30
0.0
 11
-130.245523048286
 21
-309.2624622527783
 31
0.0
  0
LINE
  5
271
102
{ACAD_REACTORS
330
35B
330
35C
102
}
330
81
100
AcDbEntity
  8
0
  6
Continuous
 62
     2
100
AcDbLine
 10
-130.3648023185029
 20
-309.2624622527783
 30
0.0
 11
-131.6053067287558
 21
-309.2624622527783
 31
0.0
  0
LINE
  5
272
102
{ACAD_REACTORS
330
35D
330
35E
102
}
330
81
100
AcDbEntity
  8
0
  6
Continuous
 62
     2
100
AcDbLine
 10
-132.4732863369109
 20
-311.4001289194282
 30
0.0
 11
-132.7734515741011
 21
-310.6323139534415
 31
0.0
  0
LINE
  5
273
102
{ACAD_REACTORS
330
35D
330
35E
102
}
330
81
100
AcDbEntity
  8
0
  6
Continuous
 62
     2
100
AcDbLine
 10
-133.0736168112934
 20
-311.4001289194282
 30
0.0
 11
-132.4732863369109
 21
-311.4001289194282
 31
0.0
  0
LINE
  5
274
102
{ACAD_REACTORS
330
35D
330
35E
102
}
330
81
100
AcDbEntity
  8
0
  6
Continuous
 62
     2
100
AcDbLine
 10
-134.7916568261672
 20
-312.6216527289526
 30
0.0
 11
-133.5511524159143
 21
-312.6216527289526
 31
0.0
  0
LINE
  5
275
102
{ACAD_REACTORS
330
35D
330
35E
102
}
330
81
100
AcDbEntity
  8
0
  6
Continuous
 62
     2
100
AcDbLine
 10
-133.393703779228
 20
-309.5678432051415
 30
0.0
 11
-132.1531993689752
 21
-309.5678432051415
 31
0.0
  0
LINE
  5
276
102
{ACAD_REACTORS
330
35D
330
35E
102
}
330
81
100
AcDbEntity
  8
0
  6
Continuous
 62
     2
100
AcDbLine
 10
-132.1531993689752
 20
-309.5678432051415
 30
0.0
 11
-130.7552463220349
 21
-312.6216527289526
 31
0.0
  0
LINE
  5
277
102
{ACAD_REACTORS
330
35D
330
35E
102
}
330
81
100
AcDbEntity
  8
0
  6
Continuous
 62
     2
100
AcDbLine
 10
-131.9957507322888
 20
-312.6216527289526
 30
0.0
 11
-132.2072307857646
 21
-312.0806921847348
 31
0.0
  0
LINE
  5
278
102
{ACAD_REACTORS
330
35F
330
360
102
}
330
81
100
AcDbEntity
  8
0
  6
Continuous
 62
     2
100
AcDbLine
 10
-136.1380699278748
 20
-312.6216527289526
 30
0.0
 11
-134.9452772257084
 21
-312.6216527289526
 31
0.0
  0
LINE
  5
279
102
{ACAD_REACTORS
330
35F
330
360
102
}
330
81
100
AcDbEntity
  8
0
  6
Continuous
 62
     2
100
AcDbLine
 10
-136.1380699278748
 20
-310.3531085112652
 30
0.0
 11
-136.1380699278748
 21
-312.6216527289526
 31
0.0
  0
LINE
  5
27A
102
{ACAD_REACTORS
330
35F
330
360
102
}
330
81
100
AcDbEntity
  8
0
  6
Continuous
 62
     2
100
AcDbLine
 10
-136.9491689653495
 20
-309.5678432051415
 30
0.0
 11
-136.9491689653495
 21
-310.3531085112652
 31
0.0
  0
LINE
  5
27B
102
{ACAD_REACTORS
330
361
330
362
102
}
330
81
100
AcDbEntity
  8
0
  6
Continuous
 62
     2
100
AcDbLine
 10
-135.4699550837768
 20
-309.2624622527783
 30
0.0
 11
-134.2771623816104
 21
-309.2624622527783
 31
0.0
  0
LINE
  5
27C
102
{ACAD_REACTORS
330
361
330
362
102
}
330
81
100
AcDbEntity
  8
0
  6
Continuous
 62
     2
100
AcDbLine
 10
-133.0366579713563
 20
-307.5174282391723
 30
0.0
 11
-134.2771623816104
 21
-306.2086527289672
 31
0.0
  0
LINE
  5
27D
102
{ACAD_REACTORS
330
361
330
362
102
}
330
81
100
AcDbEntity
  8
0
  6
Continuous
 62
     2
100
AcDbLine
 10
-131.8438652691897
 20
-306.2086527289672
 30
0.0
 11
-133.0366579713563
 21
-306.2086527289672
 31
0.0
  0
LINE
  5
27E
102
{ACAD_REACTORS
330
361
330
362
102
}
330
81
100
AcDbEntity
  8
0
  6
Continuous
 62
     2
100
AcDbLine
 10
-131.8438652691897
 20
-309.2624622527783
 30
0.0
 11
-131.8438652691897
 21
-306.2086527289672
 31
0.0
  0
LINE
  5
27F
102
{ACAD_REACTORS
330
361
330
362
102
}
330
81
100
AcDbEntity
  8
0
  6
Continuous
 62
     2
100
AcDbLine
 10
-133.0366579713563
 20
-309.2624622527783
 30
0.0
 11
-131.8438652691897
 21
-309.2624622527783
 31
0.0
  0
LINE
  5
280
102
{ACAD_REACTORS
330
361
330
362
102
}
330
81
100
AcDbEntity
  8
0
  6
Continuous
 62
     2
100
AcDbLine
 10
-134.2771623816104
 20
-307.9536867425736
 30
0.0
 11
-133.0366579713563
 21
-309.2624622527783
 31
0.0
  0
LINE
  5
281
102
{ACAD_REACTORS
330
363
330
364
102
}
330
81
100
AcDbEntity
  8
0
  6
Continuous
 62
     2
100
AcDbLine
 10
-138.285096791776
 20
-310.8766187153467
 30
0.0
 11
-139.525601202029
 21
-309.5678432051415
 31
0.0
  0
LINE
  5
282
102
{ACAD_REACTORS
330
363
330
364
102
}
330
81
100
AcDbEntity
  8
0
  6
Continuous
 62
     2
100
AcDbLine
 10
-138.285096791776
 20
-309.5678432051415
 30
0.0
 11
-138.285096791776
 21
-310.8766187153467
 31
0.0
  0
LINE
  5
283
102
{ACAD_REACTORS
330
363
330
364
102
}
330
81
100
AcDbEntity
  8
0
  6
Continuous
 62
     2
100
AcDbLine
 10
-137.0923040896096
 20
-309.5678432051415
 30
0.0
 11
-138.285096791776
 21
-309.5678432051415
 31
0.0
  0
LINE
  5
284
102
{ACAD_REACTORS
330
363
330
364
102
}
330
81
100
AcDbEntity
  8
0
  6
Continuous
 62
     2
100
AcDbLine
 10
-137.0923040896096
 20
-312.6216527289526
 30
0.0
 11
-137.0923040896096
 21
-309.5678432051415
 31
0.0
  0
LINE
  5
285
102
{ACAD_REACTORS
330
363
330
364
102
}
330
81
100
AcDbEntity
  8
0
  6
Continuous
 62
     2
100
AcDbLine
 10
-139.525601202029
 20
-311.3128772187481
 30
0.0
 11
-138.285096791776
 21
-312.6216527289526
 31
0.0
  0
LINE
  5
286
102
{ACAD_REACTORS
330
363
330
364
102
}
330
81
100
AcDbEntity
  8
0
  6
Continuous
 62
     2
100
AcDbLine
 10
-139.525601202029
 20
-312.6216527289526
 30
0.0
 11
-139.525601202029
 21
-311.3128772187481
 31
0.0
  0
LINE
  5
287
102
{ACAD_REACTORS
330
353
330
354
102
}
330
81
100
AcDbEntity
  8
0
  6
Continuous
 62
     2
100
AcDbLine
 10
-137.0444414506374
 20
-306.9066663344101
 30
0.0
 11
-135.7085136242098
 21
-306.9066663344101
 31
0.0
  0
LINE
  5
288
102
{ACAD_REACTORS
330
353
330
354
102
}
330
81
100
AcDbEntity
  8
0
  6
Continuous
 62
     2
100
AcDbLine
 10
-137.0444414506374
 20
-308.5644486473359
 30
0.0
 11
-137.0444414506374
 21
-308.0845642935942
 31
0.0
  0
LINE
  5
289
102
{ACAD_REACTORS
330
353
330
354
102
}
330
81
100
AcDbEntity
  8
0
  6
Continuous
 62
     2
100
AcDbLine
 10
-135.7085136242098
 20
-308.5644486473359
 30
0.0
 11
-137.0444414506374
 21
-308.5644486473359
 31
0.0
  0
LINE
  5
28A
102
{ACAD_REACTORS
330
353
330
354
102
}
330
81
100
AcDbEntity
  8
0
  6
Continuous
 62
     2
100
AcDbLine
 10
-135.7085136242098
 20
-309.2624622527783
 30
0.0
 11
-135.7085136242098
 21
-308.5644486473359
 31
0.0
  0
LINE
  5
28B
102
{ACAD_REACTORS
330
353
330
354
102
}
330
81
100
AcDbEntity
  8
0
  6
Continuous
 62
     2
100
AcDbLine
 10
-138.8588333479907
 20
-309.2624622527783
 30
0.0
 11
-135.7085136242098
 21
-309.2624622527783
 31
0.0
  0
LINE
  5
28C
102
{ACAD_REACTORS
330
353
330
354
102
}
330
81
100
AcDbEntity
  8
0
  6
Continuous
 62
     2
100
AcDbLine
 10
-138.8588333479907
 20
-306.2086527289672
 30
0.0
 11
-135.7085136242098
 21
-306.2086527289672
 31
0.0
  0
LINE
  5
28D
102
{ACAD_REACTORS
330
353
330
354
102
}
330
81
100
AcDbEntity
  8
0
  6
Continuous
 62
     2
100
AcDbLine
 10
-135.7085136242098
 20
-306.9066663344101
 30
0.0
 11
-135.7085136242098
 21
-306.2086527289672
 31
0.0
  0
LINE
  5
28E
102
{ACAD_REACTORS
330
365
330
366
102
}
330
81
100
AcDbEntity
  8
0
  6
Continuous
 62
     2
100
AcDbLine
 10
-141.7201888431308
 20
-307.2774860623018
 30
0.0
 11
-141.7201888431308
 21
-306.2086527289672
 31
0.0
  0
LINE
  5
28F
102
{ACAD_REACTORS
330
365
330
366
102
}
330
81
100
AcDbEntity
  8
0
  6
Continuous
 62
     2
100
AcDbLine
 10
-141.7201888431308
 20
-306.2086527289672
 30
0.0
 11
-140.5273961409643
 21
-306.2086527289672
 31
0.0
  0
LINE
  5
290
102
{ACAD_REACTORS
330
365
330
366
102
}
330
81
100
AcDbEntity
  8
0
  6
Continuous
 62
     2
100
AcDbLine
 10
-141.7201888431308
 20
-308.1281901439346
 30
0.0
 11
-142.7698464210382
 21
-308.1281901439346
 31
0.0
  0
LINE
  5
291
102
{ACAD_REACTORS
330
365
330
366
102
}
330
81
100
AcDbEntity
  8
0
  6
Continuous
 62
     2
100
AcDbLine
 10
-142.7698464210382
 20
-308.1281901439346
 30
0.0
 11
-142.7698464210382
 21
-309.2624622527783
 31
0.0
  0
LINE
  5
292
102
{ACAD_REACTORS
330
365
330
366
102
}
330
81
100
AcDbEntity
  8
0
  6
Continuous
 62
     2
100
AcDbLine
 10
-143.9626391232048
 20
-306.2086527289672
 30
0.0
 11
-143.9626391232048
 21
-309.2624622527783
 31
0.0
  0
LINE
  5
293
102
{ACAD_REACTORS
330
357
330
358
102
}
330
81
100
AcDbEntity
  8
0
  6
Continuous
 62
     2
100
AcDbLine
 10
-145.9188191547585
 20
-307.5774862237495
 30
0.0
 11
-145.9188191547585
 21
-306.8717585744072
 31
0.0
  0
LINE
  5
294
102
{ACAD_REACTORS
330
357
330
358
102
}
330
81
100
AcDbEntity
  8
0
  6
Continuous
 62
     2
100
AcDbLine
 10
-147.1593235650125
 20
-309.2624622527783
 30
0.0
 11
-145.9188191547585
 21
-309.2624622527783
 31
0.0
  0
LINE
  5
295
102
{ACAD_REACTORS
330
357
330
358
102
}
330
81
100
AcDbEntity
  8
0
  6
Continuous
 62
     2
100
AcDbLine
 10
-145.9188191547585
 20
-309.2624622527783
 30
0.0
 11
-145.9188191547585
 21
-308.3193840116346
 31
0.0
  0
LINE
  5
296
102
{ACAD_REACTORS
330
351
330
352
102
}
330
81
100
AcDbEntity
  8
0
  6
Continuous
 62
     2
100
AcDbLine
 10
-151.464269414224
 20
-311.9090971733957
 30
0.0
 11
-152.9401026752336
 21
-311.9090971733957
 31
0.0
  0
LINE
  5
297
102
{ACAD_REACTORS
330
351
330
352
102
}
330
81
100
AcDbEntity
  8
0
  6
Continuous
 62
     2
100
AcDbLine
 10
-153.9582419673629
 20
-306.6328973443692
 30
0.0
 11
-153.9582419673629
 21
-312.1974081135694
 31
0.0
  0
LINE
  5
298
102
{ACAD_REACTORS
330
351
330
352
102
}
330
81
100
AcDbEntity
  8
0
  6
Continuous
 62
     2
100
AcDbLine
 10
-153.5339973519801
 20
-306.2086527289853
 30
0.0
 11
-148.0606852612632
 21
-306.2086527289853
 31
0.0
  0
LINE
  5
299
102
{ACAD_REACTORS
330
351
330
352
102
}
330
81
100
AcDbEntity
  8
0
  6
Continuous
 62
     2
100
AcDbLine
 10
-147.6364406458793
 20
-306.6328973443692
 30
0.0
 11
-147.6364406458793
 21
-312.1974081135694
 31
0.0
  0
LINE
  5
29A
102
{ACAD_REACTORS
330
351
330
352
102
}
330
81
100
AcDbEntity
  8
0
  6
Continuous
 62
     2
100
AcDbLine
 10
-148.0606852612632
 20
-312.6216527289526
 30
0.0
 11
-153.5339973519801
 21
-312.6216527289526
 31
0.0
  0
LINE
  5
29B
102
{ACAD_REACTORS
330
351
330
352
102
}
330
81
100
AcDbEntity
  8
0
  6
Continuous
 62
     2
100
AcDbLine
 10
-151.1485524911474
 20
-311.593380250319
 30
0.0
 11
-151.1485524911474
 21
-310.0626093187874
 31
0.0
  0
LINE
  5
29C
102
{ACAD_REACTORS
330
351
330
352
102
}
330
81
100
AcDbEntity
  8
0
  6
Continuous
 62
     2
100
AcDbLine
 10
-151.1485524911474
 20
-307.8409498266625
 30
0.0
 11
-151.1485524911474
 21
-307.2369252076019
 31
0.0
  0
LINE
  5
29D
102
{ACAD_REACTORS
330
351
330
352
102
}
330
81
100
AcDbEntity
  8
0
  6
Continuous
 62
     2
100
AcDbLine
 10
-152.9401026752336
 20
-306.9212082845258
 30
0.0
 11
-151.464269414224
 21
-306.9212082845258
 31
0.0
  0
LINE
  5
29E
102
{ACAD_REACTORS
330
351
330
352
102
}
330
81
100
AcDbEntity
  8
0
  6
Continuous
 62
     2
100
AcDbLine
 10
-153.2558195983092
 20
-307.2369252076019
 30
0.0
 11
-153.2558195983092
 21
-311.593380250319
 31
0.0
  0
LINE
  5
29F
102
{ACAD_REACTORS
330
357
330
358
102
}
330
81
100
AcDbEntity
  8
0
  6
Continuous
 62
     2
100
AcDbLine
 10
-145.9188191547585
 20
-308.3193840116346
 30
0.0
 11
-145.1600515669781
 21
-308.3193840116346
 31
0.0
  0
LINE
  5
2A0
102
{ACAD_REACTORS
330
357
330
358
102
}
330
81
100
AcDbEntity
  8
0
  6
Continuous
 62
     2
100
AcDbLine
 10
-147.1593235650125
 20
-306.2086527289672
 30
0.0
 11
-145.1600515669781
 21
-306.2086527289672
 31
0.0
  0
LINE
  5
2A1
102
{ACAD_REACTORS
330
357
330
358
102
}
330
81
100
AcDbEntity
  8
0
  6
Continuous
 62
     2
100
AcDbLine
 10
-147.1593235650125
 20
-306.2086527289672
 30
0.0
 11
-147.1593235650125
 21
-309.2624622527783
 31
0.0
  0
LINE
  5
2A2
102
{ACAD_REACTORS
330
357
330
358
102
}
330
81
100
AcDbEntity
  8
0
  6
Continuous
 62
     2
100
AcDbLine
 10
-145.9188191547585
 20
-307.5774862237495
 30
0.0
 11
-145.6015240932165
 21
-307.5774862237495
 31
0.0
  0
LINE
  5
2A3
102
{ACAD_REACTORS
330
357
330
358
102
}
330
81
100
AcDbEntity
  8
0
  6
Continuous
 62
     2
100
AcDbLine
 10
-145.9188191547585
 20
-306.8717585744072
 30
0.0
 11
-145.6015240932165
 21
-306.8717585744072
 31
0.0
  0
LINE
  5
2A4
102
{ACAD_REACTORS
330
365
330
366
102
}
330
81
100
AcDbEntity
  8
0
  6
Continuous
 62
     2
100
AcDbLine
 10
-142.7698464210382
 20
-307.2774860623018
 30
0.0
 11
-141.7201888431308
 21
-307.2774860623018
 31
0.0
  0
LINE
  5
2A5
102
{ACAD_REACTORS
330
365
330
366
102
}
330
81
100
AcDbEntity
  8
0
  6
Continuous
 62
     2
100
AcDbLine
 10
-142.7698464210382
 20
-306.2086527289672
 30
0.0
 11
-142.7698464210382
 21
-307.2774860623018
 31
0.0
  0
LINE
  5
2A6
102
{ACAD_REACTORS
330
365
330
366
102
}
330
81
100
AcDbEntity
  8
0
  6
Continuous
 62
     2
100
AcDbLine
 10
-143.9626391232048
 20
-306.2086527289672
 30
0.0
 11
-142.7698464210382
 21
-306.2086527289672
 31
0.0
  0
LINE
  5
2A7
102
{ACAD_REACTORS
330
365
330
366
102
}
330
81
100
AcDbEntity
  8
0
  6
Continuous
 62
     2
100
AcDbLine
 10
-142.7698464210382
 20
-309.2624622527783
 30
0.0
 11
-143.9626391232048
 21
-309.2624622527783
 31
0.0
  0
LINE
  5
2A8
102
{ACAD_REACTORS
330
365
330
366
102
}
330
81
100
AcDbEntity
  8
0
  6
Continuous
 62
     2
100
AcDbLine
 10
-141.7201888431308
 20
-309.2624622527783
 30
0.0
 11
-141.7201888431308
 21
-308.1281901439346
 31
0.0
  0
LINE
  5
2A9
102
{ACAD_REACTORS
330
365
330
366
102
}
330
81
100
AcDbEntity
  8
0
  6
Continuous
 62
     2
100
AcDbLine
 10
-140.5273961409643
 20
-309.2624622527783
 30
0.0
 11
-141.7201888431308
 21
-309.2624622527783
 31
0.0
  0
LINE
  5
2AA
102
{ACAD_REACTORS
330
365
330
366
102
}
330
81
100
AcDbEntity
  8
0
  6
Continuous
 62
     2
100
AcDbLine
 10
-140.5273961409643
 20
-306.2086527289672
 30
0.0
 11
-140.5273961409643
 21
-309.2624622527783
 31
0.0
  0
LINE
  5
2AB
102
{ACAD_REACTORS
330
353
330
354
102
}
330
81
100
AcDbEntity
  8
0
  6
Continuous
 62
     2
100
AcDbLine
 10
-137.0444414506374
 20
-308.0845642935942
 30
0.0
 11
-135.7085136242098
 21
-308.0845642935942
 31
0.0
  0
LINE
  5
2AC
102
{ACAD_REACTORS
330
353
330
354
102
}
330
81
100
AcDbEntity
  8
0
  6
Continuous
 62
     2
100
AcDbLine
 10
-135.7085136242098
 20
-308.0845642935942
 30
0.0
 11
-135.7085136242098
 21
-307.3865506881518
 31
0.0
  0
LINE
  5
2AD
102
{ACAD_REACTORS
330
353
330
354
102
}
330
81
100
AcDbEntity
  8
0
  6
Continuous
 62
     2
100
AcDbLine
 10
-135.7085136242098
 20
-307.3865506881518
 30
0.0
 11
-137.0444414506374
 21
-307.3865506881518
 31
0.0
  0
LINE
  5
2AE
102
{ACAD_REACTORS
330
353
330
354
102
}
330
81
100
AcDbEntity
  8
0
  6
Continuous
 62
     2
100
AcDbLine
 10
-137.0444414506374
 20
-307.3865506881518
 30
0.0
 11
-137.0444414506374
 21
-306.9066663344101
 31
0.0
  0
LINE
  5
2AF
102
{ACAD_REACTORS
330
363
330
364
102
}
330
81
100
AcDbEntity
  8
0
  6
Continuous
 62
     2
100
AcDbLine
 10
-140.7183939041965
 20
-312.6216527289526
 30
0.0
 11
-139.525601202029
 21
-312.6216527289526
 31
0.0
  0
LINE
  5
2B0
102
{ACAD_REACTORS
330
363
330
364
102
}
330
81
100
AcDbEntity
  8
0
  6
Continuous
 62
     2
100
AcDbLine
 10
-138.285096791776
 20
-312.6216527289526
 30
0.0
 11
-137.0923040896096
 21
-312.6216527289526
 31
0.0
  0
LINE
  5
2B1
102
{ACAD_REACTORS
330
363
330
364
102
}
330
81
100
AcDbEntity
  8
0
  6
Continuous
 62
     2
100
AcDbLine
 10
-139.525601202029
 20
-309.5678432051415
 30
0.0
 11
-140.7183939041965
 21
-309.5678432051415
 31
0.0
  0
LINE
  5
2B2
102
{ACAD_REACTORS
330
363
330
364
102
}
330
81
100
AcDbEntity
  8
0
  6
Continuous
 62
     2
100
AcDbLine
 10
-140.7183939041965
 20
-309.5678432051415
 30
0.0
 11
-140.7183939041965
 21
-312.6216527289526
 31
0.0
  0
LINE
  5
2B3
102
{ACAD_REACTORS
330
361
330
362
102
}
330
81
100
AcDbEntity
  8
0
  6
Continuous
 62
     2
100
AcDbLine
 10
-133.0366579713563
 20
-306.2086527289672
 30
0.0
 11
-133.0366579713563
 21
-307.5174282391723
 31
0.0
  0
LINE
  5
2B4
102
{ACAD_REACTORS
330
361
330
362
102
}
330
81
100
AcDbEntity
  8
0
  6
Continuous
 62
     2
100
AcDbLine
 10
-134.2771623816104
 20
-306.2086527289672
 30
0.0
 11
-135.4699550837768
 21
-306.2086527289672
 31
0.0
  0
LINE
  5
2B5
102
{ACAD_REACTORS
330
361
330
362
102
}
330
81
100
AcDbEntity
  8
0
  6
Continuous
 62
     2
100
AcDbLine
 10
-135.4699550837768
 20
-306.2086527289672
 30
0.0
 11
-135.4699550837768
 21
-309.2624622527783
 31
0.0
  0
LINE
  5
2B6
102
{ACAD_REACTORS
330
361
330
362
102
}
330
81
100
AcDbEntity
  8
0
  6
Continuous
 62
     2
100
AcDbLine
 10
-134.2771623816104
 20
-309.2624622527783
 30
0.0
 11
-134.2771623816104
 21
-307.9536867425736
 31
0.0
  0
LINE
  5
2B7
102
{ACAD_REACTORS
330
35F
330
360
102
}
330
81
100
AcDbEntity
  8
0
  6
Continuous
 62
     2
100
AcDbLine
 10
-134.9452772257084
 20
-312.6216527289526
 30
0.0
 11
-134.9452772257084
 21
-310.3531085112652
 31
0.0
  0
LINE
  5
2B8
102
{ACAD_REACTORS
330
35F
330
360
102
}
330
81
100
AcDbEntity
  8
0
  6
Continuous
 62
     2
100
AcDbLine
 10
-134.9452772257084
 20
-310.3531085112652
 30
0.0
 11
-134.1341781882358
 21
-310.3531085112652
 31
0.0
  0
LINE
  5
2B9
102
{ACAD_REACTORS
330
35F
330
360
102
}
330
81
100
AcDbEntity
  8
0
  6
Continuous
 62
     2
100
AcDbLine
 10
-134.1341781882358
 20
-310.3531085112652
 30
0.0
 11
-134.1341781882358
 21
-309.5678432051415
 31
0.0
  0
LINE
  5
2BA
102
{ACAD_REACTORS
330
35F
330
360
102
}
330
81
100
AcDbEntity
  8
0
  6
Continuous
 62
     2
100
AcDbLine
 10
-134.1341781882358
 20
-309.5678432051415
 30
0.0
 11
-136.9491689653495
 21
-309.5678432051415
 31
0.0
  0
LINE
  5
2BB
102
{ACAD_REACTORS
330
35F
330
360
102
}
330
81
100
AcDbEntity
  8
0
  6
Continuous
 62
     2
100
AcDbLine
 10
-136.9491689653495
 20
-310.3531085112652
 30
0.0
 11
-136.1380699278748
 21
-310.3531085112652
 31
0.0
  0
LINE
  5
2BC
102
{ACAD_REACTORS
330
35D
330
35E
102
}
330
81
100
AcDbEntity
  8
0
  6
Continuous
 62
     2
100
AcDbLine
 10
-133.3396723624385
 20
-312.0806921847348
 30
0.0
 11
-132.2072307857646
 21
-312.0806921847348
 31
0.0
  0
LINE
  5
2BD
102
{ACAD_REACTORS
330
35D
330
35E
102
}
330
81
100
AcDbEntity
  8
0
  6
Continuous
 62
     2
100
AcDbLine
 10
-130.7552463220349
 20
-312.6216527289526
 30
0.0
 11
-131.9957507322888
 21
-312.6216527289526
 31
0.0
  0
LINE
  5
2BE
102
{ACAD_REACTORS
330
35D
330
35E
102
}
330
81
100
AcDbEntity
  8
0
  6
Continuous
 62
     2
100
AcDbLine
 10
-133.393703779228
 20
-309.5678432051415
 30
0.0
 11
-134.7916568261672
 21
-312.6216527289526
 31
0.0
  0
LINE
  5
2BF
102
{ACAD_REACTORS
330
35D
330
35E
102
}
330
81
100
AcDbEntity
  8
0
  6
Continuous
 62
     2
100
AcDbLine
 10
-133.5511524159143
 20
-312.6216527289526
 30
0.0
 11
-133.3396723624385
 21
-312.0806921847348
 31
0.0
  0
LINE
  5
2C0
102
{ACAD_REACTORS
330
35D
330
35E
102
}
330
81
100
AcDbEntity
  8
0
  6
Continuous
 62
     2
100
AcDbLine
 10
-133.0736168112934
 20
-311.4001289194282
 30
0.0
 11
-132.7734515741011
 21
-310.6323139534415
 31
0.0
  0
LINE
  5
2C1
102
{ACAD_REACTORS
330
35B
330
35C
102
}
330
81
100
AcDbEntity
  8
0
  6
Continuous
 62
     2
100
AcDbLine
 10
-131.6053067287558
 20
-309.2624622527783
 30
0.0
 11
-131.6053067287558
 21
-306.2086527289672
 31
0.0
  0
LINE
  5
2C2
102
{ACAD_REACTORS
330
35B
330
35C
102
}
330
81
100
AcDbEntity
  8
0
  6
Continuous
 62
     2
100
AcDbLine
 10
-130.3648023185029
 20
-306.2086527289672
 30
0.0
 11
-130.3648023185029
 21
-309.2624622527783
 31
0.0
  0
LINE
  5
2C3
102
{ACAD_REACTORS
330
35B
330
35C
102
}
330
81
100
AcDbEntity
  8
0
  6
Continuous
 62
     2
100
AcDbLine
 10
-131.6053067287558
 20
-306.2086527289672
 30
0.0
 11
-130.3648023185029
 21
-306.2086527289672
 31
0.0
  0
LINE
  5
2C4
102
{ACAD_REACTORS
330
359
330
35A
102
}
330
81
100
AcDbEntity
  8
0
  6
Continuous
 62
     2
100
AcDbLine
 10
-128.1462078924721
 20
-308.4747304674846
 30
0.0
 11
-127.4496169544067
 21
-309.2624622527783
 31
0.0
  0
LINE
  5
2C5
102
{ACAD_REACTORS
330
359
330
35A
102
}
330
81
100
AcDbEntity
  8
0
  6
Continuous
 62
     2
100
AcDbLine
 10
-127.4496169544067
 20
-309.2624622527783
 30
0.0
 11
-126.0468927366584
 21
-309.2624622527783
 31
0.0
  0
LINE
  5
2C6
102
{ACAD_REACTORS
330
359
330
35A
102
}
330
81
100
AcDbEntity
  8
0
  6
Continuous
 62
     2
100
AcDbLine
 10
-127.4448457835987
 20
-307.6816032590034
 30
0.0
 11
-126.0468927366584
 21
-309.2624622527783
 31
0.0
  0
LINE
  5
2C7
102
{ACAD_REACTORS
330
359
330
35A
102
}
330
81
100
AcDbEntity
  8
0
  6
Continuous
 62
     2
100
AcDbLine
 10
-127.4448457835987
 20
-307.6816032590034
 30
0.0
 11
-126.1423161528321
 21
-306.2086527289672
 31
0.0
  0
LINE
  5
2C8
102
{ACAD_REACTORS
330
359
330
35A
102
}
330
81
100
AcDbEntity
  8
0
  6
Continuous
 62
     2
100
AcDbLine
 10
-128.1462078924721
 20
-306.8884760505227
 30
0.0
 11
-127.5450403705793
 21
-306.2086527289672
 31
0.0
  0
LINE
  5
2C9
102
{ACAD_REACTORS
330
359
330
35A
102
}
330
81
100
AcDbEntity
  8
0
  6
Continuous
 62
     2
100
AcDbLine
 10
-128.747375414364
 20
-306.2086527289672
 30
0.0
 11
-128.1462078924721
 21
-306.8884760505227
 31
0.0
  0
LINE
  5
2CA
102
{ACAD_REACTORS
330
359
330
35A
102
}
330
81
100
AcDbEntity
  8
0
  6
Continuous
 62
     2
100
AcDbLine
 10
-128.747375414364
 20
-306.2086527289672
 30
0.0
 11
-130.1500996321132
 21
-306.2086527289672
 31
0.0
  0
LINE
  5
2CB
102
{ACAD_REACTORS
330
34F
330
350
102
}
330
81
100
AcDbEntity
  8
0
  6
Continuous
 62
     2
100
AcDbLine
 10
-128.0507844762995
 20
-312.6216527289526
 30
0.0
 11
-126.8579917741318
 21
-312.6216527289526
 31
0.0
  0
LINE
  5
2CC
102
{ACAD_REACTORS
330
34F
330
350
102
}
330
81
100
AcDbEntity
  8
0
  6
Continuous
 62
     2
100
AcDbLine
 10
-126.8579917741318
 20
-312.6216527289526
 30
0.0
 11
-126.8579917741318
 21
-310.3531085112652
 31
0.0
  0
LINE
  5
2CD
102
{ACAD_REACTORS
330
34F
330
350
102
}
330
81
100
AcDbEntity
  8
0
  6
Continuous
 62
     2
100
AcDbLine
 10
-126.8579917741318
 20
-310.3531085112652
 30
0.0
 11
-126.0468927366584
 21
-310.3531085112652
 31
0.0
  0
LINE
  5
2CE
102
{ACAD_REACTORS
330
34F
330
350
102
}
330
81
100
AcDbEntity
  8
0
  6
Continuous
 62
     2
100
AcDbLine
 10
-126.0468927366584
 20
-310.3531085112652
 30
0.0
 11
-126.0468927366584
 21
-309.5678432051415
 31
0.0
  0
LINE
  5
2CF
102
{ACAD_REACTORS
330
34F
330
350
102
}
330
81
100
AcDbEntity
  8
0
  6
Continuous
 62
     2
100
AcDbLine
 10
-129.431838255287
 20
-309.5678432051421
 30
0.0
 11
-126.0468927366584
 21
-309.5678432051415
 31
0.0
  0
LINE
  5
2D0
102
{ACAD_REACTORS
330
34F
330
350
102
}
330
81
100
AcDbEntity
  8
0
  6
Continuous
 62
     2
100
AcDbLine
 10
-128.0507844762995
 20
-310.3531085112652
 30
0.0
 11
-128.0507844762995
 21
-312.6216527289526
 31
0.0
  0
LINE
  5
2D1
102
{ACAD_REACTORS
330
351
330
352
102
}
330
81
100
AcDbEntity
  8
0
  6
Continuous
 62
     2
100
AcDbLine
 10
-150.6802709117786
 20
-310.6427725793881
 30
0.0
 11
-150.6802709117786
 21
-310.060921172693
 31
0.0
  0
LINE
  5
2D2
102
{ACAD_REACTORS
330
351
330
352
102
}
330
81
100
AcDbEntity
  8
0
  6
Continuous
 62
     2
100
AcDbLine
 10
-150.6802709117786
 20
-307.8426379727569
 30
0.0
 11
-150.6802709117786
 21
-307.2371026842501
 31
0.0
  0
LINE
  5
2D3
330
81
100
AcDbEntity
  8
1
  6
Continuous
 62
     6
100
AcDbLine
 10
-72.15009232717551
 20
-319.9151527289689
 30
0.0
 11
-28.65009232717557
 21
-319.9151527289689
 31
0.0
  0
LINE
  5
2D4
330
81
100
AcDbEntity
  8
1
  6
Continuous
 62
     6
100
AcDbLine
 10
-122.1500923271755
 20
-319.9151527289689
 30
0.0
 11
-139.9948968539255
 21
-319.9151527289689
 31
0.0
  0
LINE
  5
2D5
330
81
100
AcDbEntity
  8
1
  6
Continuous
 62
     6
100
AcDbLine
 10
-158.1948968539254
 20
-302.915152728969
 30
0.0
 11
-121.7948968539255
 21
-302.915152728969
 31
0.0
  0
LINE
  5
2D6
330
81
100
AcDbEntity
  8
1
  6
Continuous
 62
     6
100
AcDbLine
 10
-28.65009232717557
 20
-319.9151527289689
 30
0.0
 11
-28.65009232717422
 21
-311.415152728969
 31
0.0
  0
LINE
  5
2D7
330
81
100
AcDbEntity
  8
1
  6
Continuous
 62
     6
100
AcDbLine
 10
-121.7948968539255
 20
-319.915152728969
 30
0.0
 11
-72.15009232717551
 21
-319.9151527289689
 31
0.0
  0
LINE
  5
2D8
330
81
100
AcDbEntity
  8
1
  6
Continuous
 62
     7
100
AcDbLine
 10
-158.1948968539254
 20
-302.915152728969
 30
0.0
 11
-158.1948968539254
 21
-315.665152728969
 31
0.0
  0
LINE
  5
2D9
330
81
100
AcDbEntity
  8
1
  6
Continuous
 62
     7
100
AcDbLine
 10
-121.7948968539255
 20
-302.915152728969
 30
0.0
 11
-121.7948968539255
 21
-315.6651527289689
 31
0.0
  0
LINE
  5
2DA
330
81
100
AcDbEntity
  8
1
  6
Continuous
 62
     6
100
AcDbLine
 10
-121.7948968539255
 20
-319.915152728969
 30
0.0
 11
-122.1500923271755
 21
-319.9151527289689
 31
0.0
  0
LINE
  5
2DB
330
81
100
AcDbEntity
  8
1
  6
Continuous
 62
     6
100
AcDbLine
 10
-28.65009232717372
 20
-302.915152728969
 30
0.0
 11
-28.65009232717422
 21
-311.415152728969
 31
0.0
  0
LINE
  5
2DC
330
81
100
AcDbEntity
  8
1
  6
Continuous
 62
     2
100
AcDbLine
 10
-153.9582419673629
 20
-297.5401527289691
 30
0.0
 11
-148.9582419673629
 21
-296.2901527289691
 31
0.0
  0
LINE
  5
2DD
330
81
100
AcDbEntity
  8
1
  6
Continuous
 62
     2
100
AcDbLine
 10
-153.9582419673629
 20
-300.0401527289691
 30
0.0
 11
-153.9582419673629
 21
-297.5401527289691
 31
0.0
  0
LINE
  5
2DE
330
81
100
AcDbEntity
  8
1
  6
Continuous
 62
     2
100
AcDbLine
 10
-148.9582419673629
 20
-301.2901527289691
 30
0.0
 11
-153.9582419673629
 21
-300.0401527289691
 31
0.0
  0
LINE
  5
2DF
330
81
100
AcDbEntity
  8
1
  6
Continuous
 62
     2
100
AcDbLine
 10
-148.9582419673629
 20
-296.2901527289691
 30
0.0
 11
-148.9582419673629
 21
-301.2901527289691
 31
0.0
  0
LINE
  5
2E0
330
81
100
AcDbEntity
  8
1
  6
Continuous
 62
     7
100
AcDbLine
 10
-158.1948968539254
 20
-315.665152728969
 30
0.0
 11
-139.9948968539255
 21
-315.6651527289689
 31
0.0
  0
LINE
  5
2E1
330
81
100
AcDbEntity
  8
1
  6
Continuous
 62
     7
100
AcDbLine
 10
-158.1948968539254
 20
-315.665152728969
 30
0.0
 11
-158.1948968539254
 21
-319.915152728969
 31
0.0
  0
LINE
  5
2E2
330
81
100
AcDbEntity
  8
1
  6
Continuous
 62
     7
100
AcDbLine
 10
-121.7948968539255
 20
-315.6651527289689
 30
0.0
 11
-121.7948968539255
 21
-319.915152728969
 31
0.0
  0
LINE
  5
2E3
330
81
100
AcDbEntity
  8
1
  6
Continuous
 62
     7
100
AcDbLine
 10
-139.9948968539255
 20
-315.6651527289689
 30
0.0
 11
-139.9948968539255
 21
-319.9151527289689
 31
0.0
  0
LINE
  5
2E4
330
81
100
AcDbEntity
  8
1
  6
Continuous
 62
     6
100
AcDbLine
 10
-139.9948968539255
 20
-319.9151527289689
 30
0.0
 11
-158.1948968539254
 21
-319.915152728969
 31
0.0
  0
LINE
  5
2E5
330
81
100
AcDbEntity
  8
1
  6
Continuous
 62
     7
100
AcDbLine
 10
-139.9948968539255
 20
-315.6651527289689
 30
0.0
 11
-121.7948968539255
 21
-315.6651527289689
 31
0.0
  0
LINE
  5
2E6
330
81
100
AcDbEntity
  8
1
  6
Continuous
 62
     6
100
AcDbLine
 10
-158.1948968539254
 20
-294.415152728969
 30
0.0
 11
-28.65009232717372
 21
-294.415152728969
 31
0.0
  0
LINE
  5
2E7
330
81
100
AcDbEntity
  8
1
  6
PHANTOM
 62
     2
100
AcDbLine
 10
-142.7082419673629
 20
-298.7901527289691
 30
0.0
 11
-148.2082419673629
 21
-298.7901527289691
 31
0.0
  0
LINE
  5
2E8
330
81
100
AcDbEntity
  8
1
  6
PHANTOM
 62
     2
100
AcDbLine
 10
-145.4582419673629
 20
-296.040152728969
 30
0.0
 11
-145.4582419673629
 21
-301.540152728969
 31
0.0
  0
LINE
  5
2E9
330
81
100
AcDbEntity
  8
1
  6
DOT_CENTER
 62
     2
100
AcDbLine
 10
-154.2082419673629
 20
-298.7901527289691
 30
0.0
 11
-148.7082419673629
 21
-298.7901527289691
 31
0.0
  0
ARC
  5
2EA
102
{ACAD_REACTORS
330
355
330
356
102
}
330
81
100
AcDbEntity
  8
0
  6
Continuous
 62
     2
100
AcDbCircle
 10
-142.8032488549654
 20
-311.0947479670474
 30
0.0
 40
0.7717997786795702
100
AcDbArc
 50
321.8795802028399
 51
38.12041979716347
  0
ARC
  5
2EB
102
{ACAD_REACTORS
330
355
330
356
102
}
330
81
100
AcDbEntity
  8
0
  6
Continuous
 62
     2
100
AcDbCircle
 10
-142.603508818619
 20
-311.2514791451673
 30
0.0
 40
0.5179085730138424
100
AcDbArc
 50
218.1204197971879
 51
321.8795802027908
  0
ARC
  5
2EC
102
{ACAD_REACTORS
330
355
330
356
102
}
330
81
100
AcDbEntity
  8
0
  6
Continuous
 62
     2
100
AcDbCircle
 10
-142.403768782273
 20
-311.0947479670474
 30
0.0
 40
0.7717997786795159
100
AcDbArc
 50
141.8795802028313
 51
218.1204197971654
  0
ARC
  5
2ED
102
{ACAD_REACTORS
330
355
330
356
102
}
330
81
100
AcDbEntity
  8
0
  6
Continuous
 62
     2
100
AcDbCircle
 10
-142.603508818619
 20
-310.9380167889269
 30
0.0
 40
0.5179085730132806
100
AcDbArc
 50
38.12041979716469
 51
141.8795802028567
  0
ARC
  5
2EE
102
{ACAD_REACTORS
330
34D
330
34E
102
}
330
81
100
AcDbEntity
  8
0
  6
Continuous
 62
     2
100
AcDbCircle
 10
-145.665522954183
 20
-312.5052143324555
 30
0.0
 40
2.227384008973465
100
AcDbArc
 50
58.06909105003707
 51
71.55192388186676
  0
ARC
  5
2EF
102
{ACAD_REACTORS
330
34D
330
34E
102
}
330
81
100
AcDbEntity
  8
0
  6
Continuous
 62
     2
100
AcDbCircle
 10
-145.4037952532242
 20
-310.8896765377083
 30
0.0
 40
0.5115800601948293
100
AcDbArc
 50
113.3722778881945
 51
151.4785267423156
  0
ARC
  5
2F0
102
{ACAD_REACTORS
330
34D
330
34E
102
}
330
81
100
AcDbEntity
  8
0
  6
Continuous
 62
     2
100
AcDbCircle
 10
-145.0264379951438
 20
-311.0947479670474
 30
0.0
 40
0.9410597353333294
100
AcDbArc
 50
151.4785267422693
 51
208.5214732577002
  0
ARC
  5
2F1
102
{ACAD_REACTORS
330
34D
330
34E
102
}
330
81
100
AcDbEntity
  8
0
  6
Continuous
 62
     2
100
AcDbCircle
 10
-145.8233958292758
 20
-307.7820670217909
 30
0.0
 40
4.852596863498215
100
AcDbArc
 50
275.1581447696238
 51
285.9799912583527
  0
ARC
  5
2F2
102
{ACAD_REACTORS
330
34D
330
34E
102
}
330
81
100
AcDbEntity
  8
0
  6
Continuous
 62
     2
100
AcDbCircle
 10
-145.5345397345399
 20
-310.9819576050125
 30
0.0
 40
1.639695123939437
100
AcDbArc
 50
195.0618917770922
 51
275.1581447696363
  0
ARC
  5
2F3
102
{ACAD_REACTORS
330
34D
330
34E
102
}
330
81
100
AcDbEntity
  8
0
  6
Continuous
 62
     2
100
AcDbCircle
 10
-145.9536675780027
 20
-311.0947479670474
 30
0.0
 40
1.205656168390971
100
AcDbArc
 50
164.9381082228768
 51
195.0618917770945
  0
ARC
  5
2F4
102
{ACAD_REACTORS
330
34D
330
34E
102
}
330
81
100
AcDbEntity
  8
0
  6
Continuous
 62
     2
100
AcDbCircle
 10
-145.5345397345399
 20
-311.2075383290822
 30
0.0
 40
1.639695123940499
100
AcDbArc
 50
84.84185523036533
 51
164.9381082228905
  0
ARC
  5
2F5
102
{ACAD_REACTORS
330
351
330
352
102
}
330
81
100
AcDbEntity
  8
0
  6
Continuous
 62
     2
100
AcDbCircle
 10
-150.3645539887018
 20
-310.060921172693
 30
0.0
 40
0.3157169230764815
100
AcDbArc
 50
115.3740086783563
 51
180.0
  0
ARC
  5
2F6
102
{ACAD_REACTORS
330
351
330
352
102
}
330
81
100
AcDbEntity
  8
0
  6
Continuous
 62
     2
100
AcDbCircle
 10
-150.3645539887018
 20
-307.8426379727569
 30
0.0
 40
0.315716923076792
100
AcDbArc
 50
180.0
 51
244.6259913216393
  0
ARC
  5
2F7
102
{ACAD_REACTORS
330
351
330
352
102
}
330
81
100
AcDbEntity
  8
0
  6
Continuous
 62
     2
100
AcDbCircle
 10
-150.3589378533918
 20
-308.9399376318191
 30
0.0
 40
2.018561131933266
100
AcDbArc
 50
269.8110329575834
 51
90.18896704241658
  0
ARC
  5
2F8
102
{ACAD_REACTORS
330
351
330
352
102
}
330
81
100
AcDbEntity
  8
0
  6
Continuous
 62
     2
100
AcDbCircle
 10
-150.3645539887018
 20
-310.6427725793881
 30
0.0
 40
0.315716923076792
100
AcDbArc
 50
180.0
 51
269.8110329574335
  0
ARC
  5
2F9
102
{ACAD_REACTORS
330
34F
330
350
102
}
330
81
100
AcDbEntity
  8
0
  6
Continuous
 62
     2
100
AcDbCircle
 10
-129.3010937739713
 20
-310.8896765377083
 30
0.0
 40
0.5115800601944143
100
AcDbArc
 50
109.3371432194853
 51
151.4785267424253
  0
ARC
  5
2FA
102
{ACAD_REACTORS
330
34F
330
350
102
}
330
81
100
AcDbEntity
  8
0
  6
Continuous
 62
     2
100
AcDbCircle
 10
-129.3010937739713
 20
-311.2998193963859
 30
0.0
 40
0.5115800601960215
100
AcDbArc
 50
208.5214732576866
 51
246.6277221118399
  0
ARC
  5
2FB
102
{ACAD_REACTORS
330
34F
330
350
102
}
330
81
100
AcDbEntity
  8
0
  6
Continuous
 62
     2
100
AcDbCircle
 10
-129.8509660987487
 20
-311.0947479670474
 30
0.0
 40
1.205656168393002
100
AcDbArc
 50
164.9381082229028
 51
195.061891777092
  0
ARC
  5
2FC
102
{ACAD_REACTORS
330
34F
330
350
102
}
330
81
100
AcDbEntity
  8
0
  6
Continuous
 62
     2
100
AcDbCircle
 10
-129.431838255287
 20
-311.2075383290822
 30
0.0
 40
1.639695123940101
100
AcDbArc
 50
90.0
 51
164.9381082228996
  0
ARC
  5
2FD
102
{ACAD_REACTORS
330
353
330
354
102
}
330
81
100
AcDbEntity
  8
0
  6
Continuous
 62
     2
100
AcDbCircle
 10
-138.8588333479907
 20
-307.735557490873
 30
0.0
 40
1.526904761905826
100
AcDbArc
 50
90.0
 51
270.0
  0
ARC
  5
2FE
102
{ACAD_REACTORS
330
357
330
358
102
}
330
81
100
AcDbEntity
  8
0
  6
Continuous
 62
     2
100
AcDbCircle
 10
-145.6015240932165
 20
-307.2246223990784
 30
0.0
 40
0.3528638246710898
100
AcDbArc
 50
270.0
 51
90.0
  0
ARC
  5
2FF
102
{ACAD_REACTORS
330
351
330
352
102
}
330
81
100
AcDbEntity
  8
0
  6
Continuous
 62
     2
100
AcDbCircle
 10
-152.9401026752336
 20
-307.2369252076019
 30
0.0
 40
0.3157169230761383
100
AcDbArc
 50
90.0
 51
180.0
  0
ARC
  5
300
102
{ACAD_REACTORS
330
351
330
352
102
}
330
81
100
AcDbEntity
  8
0
  6
Continuous
 62
     2
100
AcDbCircle
 10
-150.941684966649
 20
-308.9517795727247
 30
0.0
 40
0.9118975235576555
100
AcDbArc
 50
115.1944106485211
 51
244.8055893514895
  0
ARC
  5
301
102
{ACAD_REACTORS
330
351
330
352
102
}
330
81
100
AcDbEntity
  8
0
  6
Continuous
 62
     2
100
AcDbCircle
 10
-151.464269414224
 20
-310.0626093187874
 30
0.0
 40
0.315716923076593
100
AcDbArc
 50
0.0
 51
64.80558935144627
  0
ARC
  5
302
102
{ACAD_REACTORS
330
351
330
352
102
}
330
81
100
AcDbEntity
  8
0
  6
Continuous
 62
     2
100
AcDbCircle
 10
-153.5339973519801
 20
-312.1974081135694
 30
0.0
 40
0.4242446153828041
100
AcDbArc
 50
180.0
 51
270.0
  0
ARC
  5
303
102
{ACAD_REACTORS
330
353
330
354
102
}
330
81
100
AcDbEntity
  8
0
  6
Continuous
 62
     2
100
AcDbCircle
 10
-138.6425613378255
 20
-307.5788263127525
 30
0.0
 40
0.5179085730133669
100
AcDbArc
 50
38.12041979714121
 51
141.8795802028666
  0
ARC
  5
304
102
{ACAD_REACTORS
330
353
330
354
102
}
330
81
100
AcDbEntity
  8
0
  6
Continuous
 62
     2
100
AcDbCircle
 10
-138.4428213014793
 20
-307.735557490873
 30
0.0
 40
0.7717997786796373
100
AcDbArc
 50
141.8795802028438
 51
218.1204197971529
  0
ARC
  5
305
102
{ACAD_REACTORS
330
355
330
356
102
}
330
81
100
AcDbEntity
  8
0
  6
Continuous
 62
     2
100
AcDbCircle
 10
-142.603508818619
 20
-310.556172956744
 30
0.0
 40
2.065479772208687
100
AcDbArc
 50
242.4518518243392
 51
297.5481481756852
  0
ARC
  5
306
102
{ACAD_REACTORS
330
355
330
356
102
}
330
81
100
AcDbEntity
  8
0
  6
Continuous
 62
     2
100
AcDbCircle
 10
-142.603508818619
 20
-311.6333229773502
 30
0.0
 40
2.065479772208644
100
AcDbArc
 50
62.45185182430745
 51
117.5481481756681
  0
ARC
  5
307
102
{ACAD_REACTORS
330
355
330
356
102
}
330
81
100
AcDbEntity
  8
0
  6
Continuous
 62
     2
100
AcDbCircle
 10
-142.8844487104524
 20
-311.0947479670474
 30
0.0
 40
1.458034083651566
100
AcDbArc
 50
117.5481481756609
 51
242.451851824338
  0
ARC
  5
308
102
{ACAD_REACTORS
330
355
330
356
102
}
330
81
100
AcDbEntity
  8
0
  6
Continuous
 62
     2
100
AcDbCircle
 10
-142.3225689267858
 20
-311.0947479670474
 30
0.0
 40
1.458034083652081
100
AcDbArc
 50
297.5481481757045
 51
62.45185182429653
  0
ARC
  5
309
102
{ACAD_REACTORS
330
353
330
354
102
}
330
81
100
AcDbEntity
  8
0
  6
Continuous
 62
     2
100
AcDbCircle
 10
-138.6425613378255
 20
-307.8922886689935
 30
0.0
 40
0.5179085730134564
100
AcDbArc
 50
218.1204197971334
 51
321.8795802028588
  0
ARC
  5
30A
102
{ACAD_REACTORS
330
353
330
354
102
}
330
81
100
AcDbEntity
  8
0
  6
Continuous
 62
     2
100
AcDbCircle
 10
-138.8423013741717
 20
-307.735557490873
 30
0.0
 40
0.7717997786795351
100
AcDbArc
 50
321.8795802028432
 51
38.12041979716016
  0
ARC
  5
30B
102
{ACAD_REACTORS
330
351
330
352
102
}
330
81
100
AcDbEntity
  8
0
  6
Continuous
 62
     2
100
AcDbCircle
 10
-148.0606852612632
 20
-312.1974081135694
 30
0.0
 40
0.424244615383202
100
AcDbArc
 50
270.0
 51
0.0
  0
ARC
  5
30C
102
{ACAD_REACTORS
330
351
330
352
102
}
330
81
100
AcDbEntity
  8
0
  6
Continuous
 62
     2
100
AcDbCircle
 10
-148.0606852612632
 20
-306.6328973443692
 30
0.0
 40
0.4242446153838841
100
AcDbArc
 50
0.0
 51
90.0
  0
ARC
  5
30D
102
{ACAD_REACTORS
330
351
330
352
102
}
330
81
100
AcDbEntity
  8
0
  6
Continuous
 62
     2
100
AcDbCircle
 10
-153.5339973519801
 20
-306.6328973443692
 30
0.0
 40
0.4242446153838841
100
AcDbArc
 50
90.0
 51
180.0
  0
ARC
  5
30E
102
{ACAD_REACTORS
330
351
330
352
102
}
330
81
100
AcDbEntity
  8
0
  6
Continuous
 62
     2
100
AcDbCircle
 10
-151.464269414224
 20
-311.593380250319
 30
0.0
 40
0.3157169230767067
100
AcDbArc
 50
270.0
 51
0.0
  0
ARC
  5
30F
102
{ACAD_REACTORS
330
351
330
352
102
}
330
81
100
AcDbEntity
  8
0
  6
Continuous
 62
     2
100
AcDbCircle
 10
-151.464269414224
 20
-307.8409498266625
 30
0.0
 40
0.3157169230761051
100
AcDbArc
 50
295.1944106485581
 51
0.0
  0
ARC
  5
310
102
{ACAD_REACTORS
330
351
330
352
102
}
330
81
100
AcDbEntity
  8
0
  6
Continuous
 62
     2
100
AcDbCircle
 10
-151.464269414224
 20
-307.2369252076019
 30
0.0
 40
0.315716923076593
100
AcDbArc
 50
0.0
 51
90.0
  0
ARC
  5
311
102
{ACAD_REACTORS
330
351
330
352
102
}
330
81
100
AcDbEntity
  8
0
  6
Continuous
 62
     2
100
AcDbCircle
 10
-152.9401026752336
 20
-311.593380250319
 30
0.0
 40
0.3157169230755983
100
AcDbArc
 50
180.0
 51
270.0
  0
ARC
  5
312
102
{ACAD_REACTORS
330
357
330
358
102
}
330
81
100
AcDbEntity
  8
0
  6
Continuous
 62
     2
100
AcDbCircle
 10
-145.1600515669781
 20
-307.2640183703009
 30
0.0
 40
1.055365641333708
100
AcDbArc
 50
270.0
 51
90.0
  0
ARC
  5
313
102
{ACAD_REACTORS
330
34F
330
350
102
}
330
81
100
AcDbEntity
  8
0
  6
Continuous
 62
     2
100
AcDbCircle
 10
-129.431838255287
 20
-310.9819576050125
 30
0.0
 40
1.639695123940531
100
AcDbArc
 50
195.0618917771004
 51
275.1581447696762
  0
ARC
  5
314
102
{ACAD_REACTORS
330
34F
330
350
102
}
330
81
100
AcDbEntity
  8
0
  6
Continuous
 62
     2
100
AcDbCircle
 10
-129.7206943500229
 20
-307.7820670217909
 30
0.0
 40
4.852596863498833
100
AcDbArc
 50
275.1581447696374
 51
285.9799912583388
  0
ARC
  5
315
102
{ACAD_REACTORS
330
34F
330
350
102
}
330
81
100
AcDbEntity
  8
0
  6
Continuous
 62
     2
100
AcDbCircle
 10
-129.5628214749301
 20
-309.6842816016392
 30
0.0
 40
2.227384008972773
100
AcDbArc
 50
288.4480761181333
 51
301.9309089499394
  0
ARC
  5
316
102
{ACAD_REACTORS
330
34F
330
350
102
}
330
81
100
AcDbEntity
  8
0
  6
Continuous
 62
     2
100
AcDbCircle
 10
-129.1446537412681
 20
-310.9378273776759
 30
0.0
 40
0.9059297849852208
100
AcDbArc
 50
246.6277221118088
 51
288.448076118076
  0
ARC
  5
317
102
{ACAD_REACTORS
330
34F
330
350
102
}
330
81
100
AcDbEntity
  8
0
  6
Continuous
 62
     2
100
AcDbCircle
 10
-128.9237365158898
 20
-311.0947479670474
 30
0.0
 40
0.941059735335033
100
AcDbArc
 50
151.4785267423612
 51
208.5214732576662
  0
ARC
  5
318
102
{ACAD_REACTORS
330
34F
330
350
102
}
330
81
100
AcDbEntity
  8
0
  6
Continuous
 62
     2
100
AcDbCircle
 10
-129.1544237758676
 20
-311.3076315180913
 30
0.0
 40
0.9545230068260935
100
AcDbArc
 50
90.0
 51
109.3371432194297
  0
ARC
  5
319
102
{ACAD_REACTORS
330
351
330
352
102
}
330
81
100
AcDbEntity
  8
0
  6
Continuous
 62
     2
100
AcDbCircle
 10
-150.3645539887018
 20
-307.2371026842501
 30
0.0
 40
0.3157169230761283
100
AcDbArc
 50
90.18896704256652
 51
180.0
  0
ARC
  5
31A
102
{ACAD_REACTORS
330
351
330
352
102
}
330
81
100
AcDbEntity
  8
0
  6
Continuous
 62
     2
100
AcDbCircle
 10
-150.8905966867897
 20
-308.9517795727247
 30
0.0
 40
0.9118481501443941
100
AcDbArc
 50
295.3740086781804
 51
64.62599132180893
  0
ARC
  5
31B
102
{ACAD_REACTORS
330
34D
330
34E
102
}
330
81
100
AcDbEntity
  8
0
  6
Continuous
 62
     2
100
AcDbCircle
 10
-145.665522954183
 20
-309.6842816016387
 30
0.0
 40
2.227384008972773
100
AcDbArc
 50
288.4480761181333
 51
301.9309089499629
  0
ARC
  5
31C
102
{ACAD_REACTORS
330
34D
330
34E
102
}
330
81
100
AcDbEntity
  8
0
  6
Continuous
 62
     2
100
AcDbCircle
 10
-145.2473552205221
 20
-310.9378273776759
 30
0.0
 40
0.9059297849848149
100
AcDbArc
 50
246.6277221118682
 51
288.4480761181545
  0
ARC
  5
31D
102
{ACAD_REACTORS
330
34D
330
34E
102
}
330
81
100
AcDbEntity
  8
0
  6
Continuous
 62
     2
100
AcDbCircle
 10
-145.4037952532242
 20
-311.2998193963859
 30
0.0
 40
0.5115800601947762
100
AcDbArc
 50
208.52147325769
 51
246.6277221118282
  0
ARC
  5
31E
102
{ACAD_REACTORS
330
34D
330
34E
102
}
330
81
100
AcDbEntity
  8
0
  6
Continuous
 62
     2
100
AcDbCircle
 10
-145.2473552205221
 20
-311.2516685564189
 30
0.0
 40
0.9059297849853049
100
AcDbArc
 50
71.5519238818569
 51
113.372277888129
  0
ARC
  5
31F
102
{ACAD_REACTORS
330
34D
330
34E
102
}
330
81
100
AcDbEntity
  8
0
  6
Continuous
 62
     2
100
AcDbCircle
 10
-145.8233958292758
 20
-314.4074289123032
 30
0.0
 40
4.852596863497986
100
AcDbArc
 50
74.0200087416471
 51
84.84185523037608
  0
CIRCLE
  5
320
102
{ACAD_REACTORS
330
351
330
352
102
}
330
81
100
AcDbEntity
  8
0
  6
Continuous
 62
     2
100
AcDbCircle
 10
-150.9144117014625
 20
-308.9517795727247
 30
0.0
 40
0.4709789327785074
  0
CIRCLE
  5
321
330
81
100
AcDbEntity
  8
1
  6
Continuous
 62
     2
100
AcDbCircle
 10
-145.4582419673629
 20
-298.7901527289691
 30
0.0
 40
1.25
  0
CIRCLE
  5
322
330
81
100
AcDbEntity
  8
1
  6
Continuous
 62
     2
100
AcDbCircle
 10
-145.4582419673629
 20
-298.7901527289691
 30
0.0
 40
2.5
  0
TEXT
  5
323
330
81
100
AcDbEntity
  8
1
 62
     7
100
AcDbText
 10
-63.98342566050889
 20
-323.9151527289684
 30
0.0
 40
2.5
  1
6
 41
0.9
  7
CONVERTER_11
100
AcDbText
  0
TEXT
  5
324
330
81
100
AcDbEntity
  8
1
 62
     7
100
AcDbText
 10
-132.3167589938423
 20
-323.9151527289684
 30
0.0
 40
2.5
  1
5
 41
0.9
  7
CONVERTER_11
100
AcDbText
  0
TEXT
  5
325
330
81
100
AcDbEntity
  8
1
 62
     7
100
AcDbText
 10
-200.6500923271755
 20
-323.9151527289684
 30
0.0
 40
2.5
  1
4
 41
0.9
  7
CONVERTER_11
100
AcDbText
  0
TEXT
  5
326
330
81
100
AcDbEntity
  8
1
 62
     7
100
AcDbText
 10
-268.9834256605086
 20
-323.9151527289684
 30
0.0
 40
2.5
  1
3
 41
0.9
  7
CONVERTER_11
100
AcDbText
  0
TEXT
  5
327
330
81
100
AcDbEntity
  8
1
 62
     7
100
AcDbText
 10
-27.65009232717551
 20
-292.4151527289684
 30
0.0
 40
2.5
  1
E
 41
0.9
  7
CONVERTER_11
100
AcDbText
  0
TEXT
  5
328
330
81
100
AcDbEntity
  8
1
 62
     7
100
AcDbText
 10
-405.6500923271752
 20
-323.9151527289684
 30
0.0
 40
2.5
  1
1
 41
0.9
  7
CONVERTER_11
100
AcDbText
  0
TEXT
  5
329
330
81
100
AcDbEntity
  8
1
 62
     7
100
AcDbText
 10
-337.3167589938421
 20
-323.9151527289684
 30
0.0
 40
2.5
  1
2
 41
0.9
  7
CONVERTER_11
100
AcDbText
  0
TEXT
  5
32A
330
81
100
AcDbEntity
  8
1
 62
     7
100
AcDbText
 10
-27.65009232717551
 20
-235.0151527289683
 30
0.0
 40
2.5
  1
D
 41
0.9
  7
CONVERTER_11
100
AcDbText
  0
TEXT
  5
32B
330
81
100
AcDbEntity
  8
1
 62
     7
100
AcDbText
 10
-27.65009232717551
 20
-177.6151527289682
 30
0.0
 40
2.5
  1
C
 41
0.9
  7
CONVERTER_11
100
AcDbText
  0
TEXT
  5
32C
330
81
100
AcDbEntity
  8
1
 62
     7
100
AcDbText
 10
-27.65009232717551
 20
-120.2151527289684
 30
0.0
 40
2.5
  1
B
 41
0.9
  7
CONVERTER_11
100
AcDbText
  0
TEXT
  5
32D
330
81
100
AcDbEntity
  8
1
 62
     7
100
AcDbText
 10
-27.65009232717551
 20
-62.81515272896849
 30
0.0
 40
2.5
  1
A
 41
0.9
  7
CONVERTER_11
100
AcDbText
  0
TEXT
  5
32E
330
81
100
AcDbEntity
  8
1
 62
     7
100
AcDbText
 10
-63.98342566050889
 20
-31.91515272896817
 30
0.0
 40
2.5
  1
6
 41
0.9
  7
CONVERTER_11
100
AcDbText
  0
TEXT
  5
32F
330
81
100
AcDbEntity
  8
1
 62
     7
100
AcDbText
 10
-132.3167589938421
 20
-31.91515272896817
 30
0.0
 40
2.5
  1
5
 41
0.9
  7
CONVERTER_11
100
AcDbText
  0
TEXT
  5
330
330
81
100
AcDbEntity
  8
1
 62
     7
100
AcDbText
 10
-200.6500923271755
 20
-31.91515272896817
 30
0.0
 40
2.5
  1
4
 41
0.9
  7
CONVERTER_11
100
AcDbText
  0
TEXT
  5
331
330
81
100
AcDbEntity
  8
1
 62
     7
100
AcDbText
 10
-268.9834256605086
 20
-31.91515272896817
 30
0.0
 40
2.5
  1
3
 41
0.9
  7
CONVERTER_11
100
AcDbText
  0
TEXT
  5
332
330
81
100
AcDbEntity
  8
1
 62
     7
100
AcDbText
 10
-337.3167589938421
 20
-31.91515272896817
 30
0.0
 40
2.5
  1
2
 41
0.9
  7
CONVERTER_11
100
AcDbText
  0
TEXT
  5
333
330
81
100
AcDbEntity
  8
1
 62
     7
100
AcDbText
 10
-405.6500923271752
 20
-31.91515272896817
 30
0.0
 40
2.5
  1
1
 41
0.9
  7
CONVERTER_11
100
AcDbText
  0
TEXT
  5
334
330
81
100
AcDbEntity
  8
1
 62
     7
100
AcDbText
 10
-102.8213491319117
 20
-301.615152728969
 30
0.0
 40
2.5
  1
/
 41
0.9
  7
CONVERTER_11
100
AcDbText
  0
TEXT
  5
336
330
81
100
AcDbEntity
  8
1
 62
     7
100
AcDbText
 10
-100.6649846348697
 20
-301.615152728969
 30
0.0
 40
2.5
  1
01
 41
0.81
  7
CONVERTER_12
100
AcDbText
  0
TEXT
  5
337
330
81
100
AcDbEntity
  8
1
 62
     3
100
AcDbText
 10
-63.06850060885255
 20
-301.615152728969
 30
0.0
 40
2.5
  1
28.02.2018
 41
0.81
  7
CONVERTER_12
100
AcDbText
  0
MTEXT
  5
338
330
81
100
AcDbEntity
  8
1
 62
     2
100
AcDbMText
 10
-63.06850060885255
 20
-295.415152728969
 30
0.0
 40
1.8
 41
0.0
 71
     1
 72
     1
  1
date
  7
CONVERTER_11
 73
     1
 44
1.32052821128451
  0
MTEXT
  5
339
330
81
100
AcDbEntity
  8
1
 62
     2
100
AcDbMText
 10
-92.89489685392552
 20
-303.915152728969
 30
0.0
 40
1.8
 41
0.0
 71
     1
 72
     1
  1
document-type
  7
CONVERTER_11
 73
     1
 44
1.20048019207683
  0
TEXT
  5
33A
330
81
100
AcDbEntity
  8
1
 62
     3
100
AcDbText
 10
-92.89489685392552
 20
-310.115152728969
 30
0.0
 40
2.5
  1
TECDOC 2D_Productdrawing
 41
0.81
  7
CONVERTER_12
100
AcDbText
  0
MTEXT
  5
33C
330
81
100
AcDbEntity
  8
1
 62
     2
100
AcDbMText
 10
-120.6948968539255
 20
-295.415152728969
 30
0.0
 40
1.8
 41
0.0
 71
     1
 72
     1
  1
document-No. / RI
  7
CONVERTER_13
 73
     1
 44
1.32052821128451
  0
TEXT
  5
33D
330
81
100
AcDbEntity
  8
1
 62
     7
100
AcDbText
 10
-120.6948968539255
 20
-301.615152728969
 30
0.0
 40
2.5
  1
00951128
 41
0.81
  7
CONVERTER_12
100
AcDbText
  0
MTEXT
  5
33F
330
81
100
AcDbEntity
  8
1
 62
     3
100
AcDbMText
 10
-33.10929646801321
 20
-301.6151527289689
 30
0.0
 40
2.5
 41
0.0
 71
     8
 72
     1
  1
1:1
  7
CONVERTER_14
 73
     1
 44
1.32052821128451
  0
MTEXT
  5
340
330
81
100
AcDbEntity
  8
1
 62
     2
100
AcDbMText
 10
-36.46850060885272
 20
-295.415152728969
 30
0.0
 40
1.8
 41
0.0
 71
     1
 72
     1
  1
scale
  7
CONVERTER_11
 73
     1
 44
1.20048019207683
  0
MTEXT
  5
341
330
81
100
AcDbEntity
  8
1
 62
     2
100
AcDbMText
 10
-120.6948968539255
 20
-303.915152728969
 30
0.0
 40
1.8
 41
0.0
 71
     1
 72
     1
  1
ident.-No.
  7
CONVERTER_11
 73
     1
 44
1.20048019207683
  0
TEXT
  5
342
330
81
100
AcDbEntity
  8
1
 62
     7
100
AcDbText
 10
-120.2948968539257
 20
-310.115152728969
 30
0.0
 40
2.5
  1
3058017
 41
0.81
  7
CONVERTER_12
100
AcDbText
  0
MTEXT
  5
343
330
81
100
AcDbEntity
  8
1
 62
     2
100
AcDbMText
 10
-192.605920123135
 20
-307.1651527289702
 30
0.0
 40
2.0
 41
0.0
 71
     5
 72
     1
  1
General Information\P- Simplified representation\P- Document excluded from change process\P- Linear dimensions [mm]
  7
CONVERTER_11
 73
     1
 44
1.20048019207683
  0
MTEXT
  5
344
330
81
100
AcDbEntity
  8
1
 62
     3
100
AcDbMText
 10
-131.9948968539255
 20
-298.790152728969
 30
0.0
 40
2.5
 41
0.0
 71
     5
 72
     1
  1
DIN A3
  7
CONVERTER_11
 73
     1
 44
1.20048019207683
  0
MTEXT
  5
345
330
81
100
AcDbEntity
  8
1
 62
     2
100
AcDbMText
 10
-120.7948968539255
 20
-312.415152728969
 30
0.0
 40
1.8
 41
0.0
 71
     1
 72
     1
  1
description
  7
CONVERTER_11
 73
     1
 44
1.20048019207683
  0
MTEXT
  5
346
330
81
100
AcDbEntity
  8
1
 62
     7
100
AcDbMText
 10
-75.22249459055001
 20
-316.6651527289688
 30
0.0
 40
3.0
 41
0.0
 71
     5
 72
     1
  1
AP RSC
  7
CONVERTER_12
 73
     1
 44
1.20048019207683
  0
TEXT
  5
347
330
81
100
AcDbEntity
  8
1
 62
     2
100
AcDbText
 10
-133.7595880441119
 20
-318.665152728969
 30
0.0
 40
1.8
  1
1
 41
0.9
  7
CONVERTER_11
100
AcDbText
  0
TEXT
  5
348
330
81
100
AcDbEntity
  8
1
 62
     2
100
AcDbText
 10
-148.5486318835834
 20
-318.7144013827709
 30
0.0
 40
1.8
  1
1
 41
0.9
  7
CONVERTER_11
100
AcDbText
  0
TEXT
  5
349
330
81
100
AcDbEntity
  8
1
 62
     2
100
AcDbText
 10
-157.1948968539254
 20
-318.6741699439607
 30
0.0
 40
1.8
  1
page
 41
0.9
  7
CONVERTER_11
100
AcDbText
  0
TEXT
  5
34A
330
81
100
AcDbEntity
  8
1
 62
     2
100
AcDbText
 10
-138.9948968539256
 20
-318.6741699439605
 30
0.0
 40
1.8
  1
of
 41
0.9
  7
CONVERTER_11
100
AcDbText
  0
MTEXT
  5
34B
330
81
100
AcDbEntity
  8
1
 62
     3
100
AcDbMText
 10
-425.3816253269162
 20
-146.9288686153147
 30
0.0
 40
1.8
 41
0.0
 71
     7
 72
     1
  3
Transfer or duplication of this document as well as the utilisation or\Pcommunication of its content are not permitted unless express consent\Pis granted. Violations give rise to claims for damages. All rights reserved\Pin case of patent, utility mo
  1
del or design patent registrations.
  7
CONVERTER_11
 11
0.0
 21
1.0
 31
0.0
 73
     1
 44
0.99639855942377
  0
MTEXT
  5
34C
330
81
100
AcDbEntity
  8
1
 62
     3
100
AcDbMText
 10
-425.2274190158223
 20
-319.8882386294678
 30
0.0
 40
1.8
 41
0.0
 71
     7
 72
     1
  3
Weitergabe sowie Vervielf\U+00e4ltigung dieses Dokuments, Verwertung und \PMitteilung seines Inhalts sind verboten, soweit nicht ausdr\U+00fccklich gestattet. \PZuwiderhandlungen verpflichten zu Schadenersatz. Alle Rechte f\U+00fcr den Fall\Pder Pat
  1
ent-, Gebrauchsmuster- oder Designeintragung vorbehalten.
  7
CONVERTER_11
 11
0.0
 21
1.0
 31
0.0
 73
     1
 44
0.99639855942377
  0
HATCH
  5
34D
330
81
100
AcDbEntity
  8
1
  6
Continuous
 62
     2
100
AcDbHatch
 10
0.0
 20
0.0
 30
0.0
210
0.0
220
0.0
230
1.0
  2
CUSTOM0
 70
     0
 71
     1
 91
        1
 92
        1
 93
       14
 72
     2
 10
-145.9536675780027
 20
-311.0947479670474
 40
1.205656168390971
 50
164.9381082228768
 51
195.0618917770945
 73
     1
 72
     2
 10
-145.5345397345399
 20
-310.9819576050125
 40
1.639695123939437
 50
195.0618917770922
 51
275.1581447696363
 73
     1
 72
     2
 10
-145.8233958292758
 20
-307.7820670217909
 40
4.852596863498215
 50
275.1581447696238
 51
285.9799912583527
 73
     1
 72
     1
 10
-144.487467912158
 20
-312.4471493275918
 11
-144.487467912158
 21
-311.5746323207885
 72
     2
 10
-145.665522954183
 20
-309.6842816016387
 40
2.227384008972773
 50
58.06909105003709
 51
71.55192388186677
 73
     0
 72
     2
 10
-145.2473552205221
 20
-310.9378273776759
 40
0.9059297849848149
 50
71.5519238818455
 51
113.3722778881318
 73
     0
 72
     2
 10
-145.4037952532242
 20
-311.2998193963859
 40
0.5115800601947762
 50
113.3722778881718
 51
151.47852674231
 73
     0
 72
     2
 10
-145.0264379951438
 20
-311.0947479670474
 40
0.9410597353333294
 50
151.4785267422998
 51
208.5214732577306
 73
     0
 72
     2
 10
-145.4037952532242
 20
-310.8896765377083
 40
0.5115800601948293
 50
208.5214732576844
 51
246.6277221118054
 73
     0
 72
     2
 10
-145.2473552205221
 20
-311.2516685564189
 40
0.9059297849853049
 50
246.627722111871
 51
288.4480761181431
 73
     0
 72
     2
 10
-145.665522954183
 20
-312.5052143324555
 40
2.227384008973465
 50
288.4480761181333
 51
301.9309089499629
 73
     0
 72
     1
 10
-144.487467912158
 20
-310.6148636133057
 11
-144.487467912158
 21
-309.7423466065024
 72
     2
 10
-145.8233958292758
 20
-314.4074289123032
 40
4.852596863497986
 50
74.0200087416471
 51
84.84185523037608
 73
     1
 72
     2
 10
-145.5345397345399
 20
-311.2075383290822
 40
1.639695123940499
 50
84.84185523036533
 51
164.9381082228905
 73
     1
 97
       14
330
31F
330
268
330
2EE
330
31E
330
2EF
330
2F0
330
31D
330
31C
330
31B
330
269
330
2F1
330
2F2
330
2F3
330
2F4
 75
     1
 76
     2
 52
45.0
 41
0.1
 77
     0
 78
     1
 53
45.0
 43
62.7811309658083
 44
-72.3161373035813
 45
-0.1414213562373095
 46
0.0
 79
     0
 98
        1
 10
0.0
 20
0.0
  0
HATCH
  5
34E
330
81
100
AcDbEntity
  8
1
  6
Continuous
 62
     2
100
AcDbHatch
 10
0.0
 20
0.0
 30
0.0
210
0.0
220
0.0
230
1.0
  2
CUSTOM1
 70
     0
 71
     1
 91
        1
 92
        1
 93
       14
 72
     2
 10
-145.9536675780027
 20
-311.0947479670474
 40
1.205656168390971
 50
164.9381082228768
 51
195.0618917770945
 73
     1
 72
     2
 10
-145.5345397345399
 20
-310.9819576050125
 40
1.639695123939437
 50
195.0618917770922
 51
275.1581447696363
 73
     1
 72
     2
 10
-145.8233958292758
 20
-307.7820670217909
 40
4.852596863498215
 50
275.1581447696238
 51
285.9799912583527
 73
     1
 72
     1
 10
-144.487467912158
 20
-312.4471493275918
 11
-144.487467912158
 21
-311.5746323207885
 72
     2
 10
-145.665522954183
 20
-309.6842816016387
 40
2.227384008972773
 50
58.06909105003709
 51
71.55192388186677
 73
     0
 72
     2
 10
-145.2473552205221
 20
-310.9378273776759
 40
0.9059297849848149
 50
71.5519238818455
 51
113.3722778881318
 73
     0
 72
     2
 10
-145.4037952532242
 20
-311.2998193963859
 40
0.5115800601947762
 50
113.3722778881718
 51
151.47852674231
 73
     0
 72
     2
 10
-145.0264379951438
 20
-311.0947479670474
 40
0.9410597353333294
 50
151.4785267422998
 51
208.5214732577306
 73
     0
 72
     2
 10
-145.4037952532242
 20
-310.8896765377083
 40
0.5115800601948293
 50
208.5214732576844
 51
246.6277221118054
 73
     0
 72
     2
 10
-145.2473552205221
 20
-311.2516685564189
 40
0.9059297849853049
 50
246.627722111871
 51
288.4480761181431
 73
     0
 72
     2
 10
-145.665522954183
 20
-312.5052143324555
 40
2.227384008973465
 50
288.4480761181333
 51
301.9309089499629
 73
     0
 72
     1
 10
-144.487467912158
 20
-310.6148636133057
 11
-144.487467912158
 21
-309.7423466065024
 72
     2
 10
-145.8233958292758
 20
-314.4074289123032
 40
4.852596863497986
 50
74.0200087416471
 51
84.84185523037608
 73
     1
 72
     2
 10
-145.5345397345399
 20
-311.2075383290822
 40
1.639695123940499
 50
84.84185523036533
 51
164.9381082228905
 73
     1
 97
       14
330
31F
330
268
330
2EE
330
31E
330
2EF
330
2F0
330
31D
330
31C
330
31B
330
269
330
2F1
330
2F2
330
2F3
330
2F4
 75
     1
 76
     2
 52
45.0
 41
0.1
 77
     0
 78
     1
 53
45.0
 43
62.7811309658083
 44
-72.3161373035813
 45
-0.1414213562373095
 46
0.0
 79
     0
 98
        1
 10
0.0
 20
0.0
  0
HATCH
  5
34F
330
81
100
AcDbEntity
  8
1
  6
Continuous
 62
     2
100
AcDbHatch
 10
0.0
 20
0.0
 30
0.0
210
0.0
220
0.0
230
1.0
  2
CUSTOM2
 70
     0
 71
     1
 91
        1
 92
        1
 93
       18
 72
     2
 10
-129.431838255287
 20
-311.2075383290822
 40
1.639695123940101
 50
90.0
 51
164.9381082228996
 73
     1
 72
     2
 10
-129.8509660987487
 20
-311.0947479670474
 40
1.205656168393002
 50
164.9381082229028
 51
195.061891777092
 73
     1
 72
     2
 10
-129.431838255287
 20
-310.9819576050125
 40
1.639695123940531
 50
195.0618917771004
 51
275.1581447696762
 73
     1
 72
     2
 10
-129.7206943500229
 20
-307.7820670217909
 40
4.852596863498833
 50
275.1581447696374
 51
285.9799912583388
 73
     1
 72
     1
 10
-128.3847664329062
 20
-312.4471493275923
 11
-128.3847664329062
 21
-311.574632320789
 72
     2
 10
-129.5628214749301
 20
-309.6842816016392
 40
2.227384008972773
 50
58.06909105006066
 51
71.55192388186677
 73
     0
 72
     2
 10
-129.1446537412681
 20
-310.9378273776759
 40
0.9059297849852208
 50
71.55192388192397
 51
113.3722778881912
 73
     0
 72
     2
 10
-129.3010937739713
 20
-311.2998193963859
 40
0.5115800601960215
 50
113.3722778881601
 51
151.4785267423134
 73
     0
 72
     2
 10
-128.9237365158898
 20
-311.0947479670474
 40
0.941059735335033
 50
151.4785267423338
 51
208.5214732576388
 73
     0
 72
     2
 10
-129.3010937739713
 20
-310.8896765377083
 40
0.5115800601944143
 50
208.5214732575747
 51
250.6628567805147
 73
     0
 72
     2
 10
-129.1544237758676
 20
-311.3076315180913
 40
0.9545230068260935
 50
250.6628567805703
 51
270.0
 73
     0
 72
     1
 10
-129.1544237758676
 20
-310.3531085112652
 11
-128.0507844762995
 21
-310.3531085112652
 72
     1
 10
-128.0507844762995
 20
-310.3531085112652
 11
-128.0507844762995
 21
-312.6216527289526
 72
     1
 10
-128.0507844762995
 20
-312.6216527289526
 11
-126.8579917741318
 21
-312.6216527289526
 72
     1
 10
-126.8579917741318
 20
-312.6216527289526
 11
-126.8579917741318
 21
-310.3531085112652
 72
     1
 10
-126.8579917741318
 20
-310.3531085112652
 11
-126.0468927366584
 21
-310.3531085112652
 72
     1
 10
-126.0468927366584
 20
-310.3531085112652
 11
-126.0468927366584
 21
-309.5678432051415
 72
     1
 10
-126.0468927366584
 20
-309.5678432051415
 11
-129.431838255287
 21
-309.5678432051421
 97
       18
330
2CE
330
2CD
330
2CC
330
2CB
330
2D0
330
26A
330
318
330
2F9
330
317
330
2FA
330
316
330
315
330
26B
330
314
330
313
330
2FB
330
2FC
330
2CF
 75
     1
 76
     2
 52
45.0
 41
0.1
 77
     0
 78
     1
 53
45.0
 43
62.7811309658083
 44
-72.3161373035813
 45
-0.1414213562373095
 46
0.0
 79
     0
 98
        1
 10
0.0
 20
0.0
  0
HATCH
  5
350
330
81
100
AcDbEntity
  8
1
  6
Continuous
 62
     2
100
AcDbHatch
 10
0.0
 20
0.0
 30
0.0
210
0.0
220
0.0
230
1.0
  2
CUSTOM3
 70
     0
 71
     1
 91
        1
 92
        1
 93
       18
 72
     2
 10
-129.431838255287
 20
-311.2075383290822
 40
1.639695123940101
 50
90.0
 51
164.9381082228996
 73
     1
 72
     2
 10
-129.8509660987487
 20
-311.0947479670474
 40
1.205656168393002
 50
164.9381082229028
 51
195.061891777092
 73
     1
 72
     2
 10
-129.431838255287
 20
-310.9819576050125
 40
1.639695123940531
 50
195.0618917771004
 51
275.1581447696762
 73
     1
 72
     2
 10
-129.7206943500229
 20
-307.7820670217909
 40
4.852596863498833
 50
275.1581447696374
 51
285.9799912583388
 73
     1
 72
     1
 10
-128.3847664329062
 20
-312.4471493275923
 11
-128.3847664329062
 21
-311.574632320789
 72
     2
 10
-129.5628214749301
 20
-309.6842816016392
 40
2.227384008972773
 50
58.06909105006066
 51
71.55192388186677
 73
     0
 72
     2
 10
-129.1446537412681
 20
-310.9378273776759
 40
0.9059297849852208
 50
71.55192388192397
 51
113.3722778881912
 73
     0
 72
     2
 10
-129.3010937739713
 20
-311.2998193963859
 40
0.5115800601960215
 50
113.3722778881601
 51
151.4785267423134
 73
     0
 72
     2
 10
-128.9237365158898
 20
-311.0947479670474
 40
0.941059735335033
 50
151.4785267423338
 51
208.5214732576388
 73
     0
 72
     2
 10
-129.3010937739713
 20
-310.8896765377083
 40
0.5115800601944143
 50
208.5214732575747
 51
250.6628567805147
 73
     0
 72
     2
 10
-129.1544237758676
 20
-311.3076315180913
 40
0.9545230068260935
 50
250.6628567805703
 51
270.0
 73
     0
 72
     1
 10
-129.1544237758676
 20
-310.3531085112652
 11
-128.0507844762995
 21
-310.3531085112652
 72
     1
 10
-128.0507844762995
 20
-310.3531085112652
 11
-128.0507844762995
 21
-312.6216527289526
 72
     1
 10
-128.0507844762995
 20
-312.6216527289526
 11
-126.8579917741318
 21
-312.6216527289526
 72
     1
 10
-126.8579917741318
 20
-312.6216527289526
 11
-126.8579917741318
 21
-310.3531085112652
 72
     1
 10
-126.8579917741318
 20
-310.3531085112652
 11
-126.0468927366584
 21
-310.3531085112652
 72
     1
 10
-126.0468927366584
 20
-310.3531085112652
 11
-126.0468927366584
 21
-309.5678432051415
 72
     1
 10
-126.0468927366584
 20
-309.5678432051415
 11
-129.431838255287
 21
-309.5678432051421
 97
       18
330
2CE
330
2CD
330
2CC
330
2CB
330
2D0
330
26A
330
318
330
2F9
330
317
330
2FA
330
316
330
315
330
26B
330
314
330
313
330
2FB
330
2FC
330
2CF
 75
     1
 76
     2
 52
45.0
 41
0.1
 77
     0
 78
     1
 53
45.0
 43
62.7811309658083
 44
-72.3161373035813
 45
-0.1414213562373095
 46
0.0
 79
     0
 98
        1
 10
0.0
 20
0.0
  0
HATCH
  5
351
330
81
100
AcDbEntity
  8
1
  6
Continuous
 62
     2
100
AcDbHatch
 10
0.0
 20
0.0
 30
0.0
210
0.0
220
0.0
230
1.0
  2
CUSTOM4
 70
     0
 71
     1
 91
        4
 92
        1
 93
        8
 72
     2
 10
-153.5339973519801
 20
-306.6328973443692
 40
0.4242446153838841
 50
90.0
 51
180.0
 73
     1
 72
     1
 10
-153.9582419673629
 20
-306.6328973443692
 11
-153.9582419673629
 21
-312.1974081135694
 72
     2
 10
-153.5339973519801
 20
-312.1974081135694
 40
0.4242446153828041
 50
180.0
 51
270.0
 73
     1
 72
     1
 10
-153.5339973519801
 20
-312.6216527289526
 11
-148.0606852612632
 21
-312.6216527289526
 72
     2
 10
-148.0606852612632
 20
-312.1974081135694
 40
0.424244615383202
 50
270.0
 51
360.0
 73
     1
 72
     1
 10
-147.6364406458793
 20
-312.1974081135694
 11
-147.6364406458793
 21
-306.6328973443692
 72
     2
 10
-148.0606852612632
 20
-306.6328973443692
 40
0.4242446153838841
 50
0.0
 51
90.0
 73
     1
 72
     1
 10
-148.0606852612632
 20
-306.2086527289853
 11
-153.5339973519801
 21
-306.2086527289853
 97
        8
330
30C
330
299
330
30B
330
29A
330
302
330
297
330
30D
330
298
 92
       16
 93
       12
 72
     1
 10
-152.9401026752336
 20
-311.9090971733957
 11
-151.464269414224
 21
-311.9090971733957
 72
     2
 10
-151.464269414224
 20
-311.593380250319
 40
0.3157169230767067
 50
270.0
 51
360.0
 73
     1
 72
     1
 10
-151.1485524911474
 20
-311.593380250319
 11
-151.1485524911474
 21
-310.0626093187874
 72
     2
 10
-151.464269414224
 20
-310.0626093187874
 40
0.315716923076593
 50
0.0
 51
64.80558935144627
 73
     1
 72
     2
 10
-150.941684966649
 20
-308.9517795727247
 40
0.9118975235576555
 50
115.1944106485105
 51
244.8055893514789
 73
     0
 72
     2
 10
-151.464269414224
 20
-307.8409498266625
 40
0.3157169230761051
 50
295.1944106485581
 51
360.0
 73
     1
 72
     1
 10
-151.1485524911474
 20
-307.8409498266625
 11
-151.1485524911474
 21
-307.2369252076019
 72
     2
 10
-151.464269414224
 20
-307.2369252076019
 40
0.315716923076593
 50
0.0
 51
90.0
 73
     1
 72
     1
 10
-151.464269414224
 20
-306.9212082845258
 11
-152.9401026752336
 21
-306.9212082845258
 72
     2
 10
-152.9401026752336
 20
-307.2369252076019
 40
0.3157169230761383
 50
90.0
 51
180.0
 73
     1
 72
     1
 10
-153.2558195983092
 20
-307.2369252076019
 11
-153.2558195983092
 21
-311.593380250319
 72
     2
 10
-152.9401026752336
 20
-311.593380250319
 40
0.3157169230755983
 50
180.0
 51
270.0
 73
     1
 97
       12
330
29E
330
2FF
330
29D
330
310
330
29C
330
30F
330
300
330
301
330
29B
330
30E
330
296
330
311
 92
       16
 93
        8
 72
     2
 10
-150.8905966867897
 20
-308.9517795727247
 40
0.9118481501443941
 50
295.3740086781804
 51
424.6259913218089
 73
     1
 72
     2
 10
-150.3645539887018
 20
-307.8426379727569
 40
0.315716923076792
 50
115.3740086783607
 51
180.0
 73
     0
 72
     1
 10
-150.6802709117786
 20
-307.8426379727569
 11
-150.6802709117786
 21
-307.2371026842501
 72
     2
 10
-150.3645539887018
 20
-307.2371026842501
 40
0.3157169230761283
 50
180.0
 51
269.8110329574335
 73
     0
 72
     2
 10
-150.3589378533918
 20
-308.9399376318191
 40
2.018561131933266
 50
269.8110329575834
 51
450.1889670424166
 73
     0
 72
     2
 10
-150.3645539887018
 20
-310.6427725793881
 40
0.315716923076792
 50
90.18896704256652
 51
180.0
 73
     0
 72
     1
 10
-150.6802709117786
 20
-310.6427725793881
 11
-150.6802709117786
 21
-310.060921172693
 72
     2
 10
-150.3645539887018
 20
-310.060921172693
 40
0.3157169230764815
 50
180.0
 51
244.6259913216437
 73
     0
 97
        8
330
31A
330
2F6
330
2D2
330
319
330
2F7
330
2F8
330
2D1
330
2F5
 92
       16
 93
        1
 72
     2
 10
-150.9144117014625
 20
-308.9517795727247
 40
0.4709789327785074
 50
0.0
 51
360.0
 73
     1
 97
        1
330
320
 75
     1
 76
     2
 52
45.0
 41
0.1
 77
     0
 78
     1
 53
45.0
 43
62.7811309658083
 44
-72.3161373035813
 45
-0.1414213562373095
 46
0.0
 79
     0
 98
        1
 10
0.0
 20
0.0
  0
HATCH
  5
352
330
81
100
AcDbEntity
  8
1
  6
Continuous
 62
     2
100
AcDbHatch
 10
0.0
 20
0.0
 30
0.0
210
0.0
220
0.0
230
1.0
  2
CUSTOM5
 70
     0
 71
     1
 91
        4
 92
        1
 93
        8
 72
     2
 10
-153.5339973519801
 20
-306.6328973443692
 40
0.4242446153838841
 50
90.0
 51
180.0
 73
     1
 72
     1
 10
-153.9582419673629
 20
-306.6328973443692
 11
-153.9582419673629
 21
-312.1974081135694
 72
     2
 10
-153.5339973519801
 20
-312.1974081135694
 40
0.4242446153828041
 50
180.0
 51
270.0
 73
     1
 72
     1
 10
-153.5339973519801
 20
-312.6216527289526
 11
-148.0606852612632
 21
-312.6216527289526
 72
     2
 10
-148.0606852612632
 20
-312.1974081135694
 40
0.424244615383202
 50
270.0
 51
360.0
 73
     1
 72
     1
 10
-147.6364406458793
 20
-312.1974081135694
 11
-147.6364406458793
 21
-306.6328973443692
 72
     2
 10
-148.0606852612632
 20
-306.6328973443692
 40
0.4242446153838841
 50
0.0
 51
90.0
 73
     1
 72
     1
 10
-148.0606852612632
 20
-306.2086527289853
 11
-153.5339973519801
 21
-306.2086527289853
 97
        8
330
30C
330
299
330
30B
330
29A
330
302
330
297
330
30D
330
298
 92
       16
 93
       12
 72
     1
 10
-152.9401026752336
 20
-311.9090971733957
 11
-151.464269414224
 21
-311.9090971733957
 72
     2
 10
-151.464269414224
 20
-311.593380250319
 40
0.3157169230767067
 50
270.0
 51
360.0
 73
     1
 72
     1
 10
-151.1485524911474
 20
-311.593380250319
 11
-151.1485524911474
 21
-310.0626093187874
 72
     2
 10
-151.464269414224
 20
-310.0626093187874
 40
0.315716923076593
 50
0.0
 51
64.80558935144627
 73
     1
 72
     2
 10
-150.941684966649
 20
-308.9517795727247
 40
0.9118975235576555
 50
115.1944106485105
 51
244.8055893514789
 73
     0
 72
     2
 10
-151.464269414224
 20
-307.8409498266625
 40
0.3157169230761051
 50
295.1944106485581
 51
360.0
 73
     1
 72
     1
 10
-151.1485524911474
 20
-307.8409498266625
 11
-151.1485524911474
 21
-307.2369252076019
 72
     2
 10
-151.464269414224
 20
-307.2369252076019
 40
0.315716923076593
 50
0.0
 51
90.0
 73
     1
 72
     1
 10
-151.464269414224
 20
-306.9212082845258
 11
-152.9401026752336
 21
-306.9212082845258
 72
     2
 10
-152.9401026752336
 20
-307.2369252076019
 40
0.3157169230761383
 50
90.0
 51
180.0
 73
     1
 72
     1
 10
-153.2558195983092
 20
-307.2369252076019
 11
-153.2558195983092
 21
-311.593380250319
 72
     2
 10
-152.9401026752336
 20
-311.593380250319
 40
0.3157169230755983
 50
180.0
 51
270.0
 73
     1
 97
       12
330
29E
330
2FF
330
29D
330
310
330
29C
330
30F
330
300
330
301
330
29B
330
30E
330
296
330
311
 92
       16
 93
        8
 72
     2
 10
-150.8905966867897
 20
-308.9517795727247
 40
0.9118481501443941
 50
295.3740086781804
 51
424.6259913218089
 73
     1
 72
     2
 10
-150.3645539887018
 20
-307.8426379727569
 40
0.315716923076792
 50
115.3740086783607
 51
180.0
 73
     0
 72
     1
 10
-150.6802709117786
 20
-307.8426379727569
 11
-150.6802709117786
 21
-307.2371026842501
 72
     2
 10
-150.3645539887018
 20
-307.2371026842501
 40
0.3157169230761283
 50
180.0
 51
269.8110329574335
 73
     0
 72
     2
 10
-150.3589378533918
 20
-308.9399376318191
 40
2.018561131933266
 50
269.8110329575834
 51
450.1889670424166
 73
     0
 72
     2
 10
-150.3645539887018
 20
-310.6427725793881
 40
0.315716923076792
 50
90.18896704256652
 51
180.0
 73
     0
 72
     1
 10
-150.6802709117786
 20
-310.6427725793881
 11
-150.6802709117786
 21
-310.060921172693
 72
     2
 10
-150.3645539887018
 20
-310.060921172693
 40
0.3157169230764815
 50
180.0
 51
244.6259913216437
 73
     0
 97
        8
330
31A
330
2F6
330
2D2
330
319
330
2F7
330
2F8
330
2D1
330
2F5
 92
       16
 93
        1
 72
     2
 10
-150.9144117014625
 20
-308.9517795727247
 40
0.4709789327785074
 50
0.0
 51
360.0
 73
     1
 97
        1
330
320
 75
     1
 76
     2
 52
45.0
 41
0.1
 77
     0
 78
     1
 53
45.0
 43
62.7811309658083
 44
-72.3161373035813
 45
-0.1414213562373095
 46
0.0
 79
     0
 98
        1
 10
0.0
 20
0.0
  0
HATCH
  5
353
330
81
100
AcDbEntity
  8
1
  6
Continuous
 62
     2
100
AcDbHatch
 10
0.0
 20
0.0
 30
0.0
210
0.0
220
0.0
230
1.0
  2
CUSTOM6
 70
     0
 71
     1
 91
        2
 92
        1
 93
       12
 72
     2
 10
-138.8588333479907
 20
-307.735557490873
 40
1.526904761905826
 50
90.0
 51
270.0
 73
     1
 72
     1
 10
-138.8588333479907
 20
-309.2624622527783
 11
-135.7085136242098
 21
-309.2624622527783
 72
     1
 10
-135.7085136242098
 20
-309.2624622527783
 11
-135.7085136242098
 21
-308.5644486473359
 72
     1
 10
-135.7085136242098
 20
-308.5644486473359
 11
-137.0444414506374
 21
-308.5644486473359
 72
     1
 10
-137.0444414506374
 20
-308.5644486473359
 11
-137.0444414506374
 21
-308.0845642935942
 72
     1
 10
-137.0444414506374
 20
-308.0845642935942
 11
-135.7085136242098
 21
-308.0845642935942
 72
     1
 10
-135.7085136242098
 20
-308.0845642935942
 11
-135.7085136242098
 21
-307.3865506881518
 72
     1
 10
-135.7085136242098
 20
-307.3865506881518
 11
-137.0444414506374
 21
-307.3865506881518
 72
     1
 10
-137.0444414506374
 20
-307.3865506881518
 11
-137.0444414506374
 21
-306.9066663344101
 72
     1
 10
-137.0444414506374
 20
-306.9066663344101
 11
-135.7085136242098
 21
-306.9066663344101
 72
     1
 10
-135.7085136242098
 20
-306.9066663344101
 11
-135.7085136242098
 21
-306.2086527289672
 72
     1
 10
-135.7085136242098
 20
-306.2086527289672
 11
-138.8588333479907
 21
-306.2086527289672
 97
       12
330
28D
330
287
330
2AE
330
2AD
330
2AC
330
2AB
330
288
330
289
330
28A
330
28B
330
2FD
330
28C
 92
       16
 93
        4
 72
     2
 10
-138.4428213014793
 20
-307.735557490873
 40
0.7717997786796373
 50
141.8795802028438
 51
218.1204197971529
 73
     1
 72
     2
 10
-138.6425613378255
 20
-307.8922886689935
 40
0.5179085730134564
 50
218.1204197971334
 51
321.8795802028588
 73
     1
 72
     2
 10
-138.8423013741717
 20
-307.735557490873
 40
0.7717997786795351
 50
321.8795802028432
 51
398.1204197971601
 73
     1
 72
     2
 10
-138.6425613378255
 20
-307.5788263127525
 40
0.5179085730133669
 50
38.12041979714121
 51
141.8795802028666
 73
     1
 97
        4
330
30A
330
309
330
304
330
303
 75
     1
 76
     2
 52
45.0
 41
0.1
 77
     0
 78
     1
 53
45.0
 43
62.7811309658083
 44
-72.3161373035813
 45
-0.1414213562373095
 46
0.0
 79
     0
 98
        1
 10
0.0
 20
0.0
  0
HATCH
  5
354
330
81
100
AcDbEntity
  8
1
  6
Continuous
 62
     2
100
AcDbHatch
 10
0.0
 20
0.0
 30
0.0
210
0.0
220
0.0
230
1.0
  2
CUSTOM7
 70
     0
 71
     1
 91
        2
 92
        1
 93
       12
 72
     2
 10
-138.8588333479907
 20
-307.735557490873
 40
1.526904761905826
 50
90.0
 51
270.0
 73
     1
 72
     1
 10
-138.8588333479907
 20
-309.2624622527783
 11
-135.7085136242098
 21
-309.2624622527783
 72
     1
 10
-135.7085136242098
 20
-309.2624622527783
 11
-135.7085136242098
 21
-308.5644486473359
 72
     1
 10
-135.7085136242098
 20
-308.5644486473359
 11
-137.0444414506374
 21
-308.5644486473359
 72
     1
 10
-137.0444414506374
 20
-308.5644486473359
 11
-137.0444414506374
 21
-308.0845642935942
 72
     1
 10
-137.0444414506374
 20
-308.0845642935942
 11
-135.7085136242098
 21
-308.0845642935942
 72
     1
 10
-135.7085136242098
 20
-308.0845642935942
 11
-135.7085136242098
 21
-307.3865506881518
 72
     1
 10
-135.7085136242098
 20
-307.3865506881518
 11
-137.0444414506374
 21
-307.3865506881518
 72
     1
 10
-137.0444414506374
 20
-307.3865506881518
 11
-137.0444414506374
 21
-306.9066663344101
 72
     1
 10
-137.0444414506374
 20
-306.9066663344101
 11
-135.7085136242098
 21
-306.9066663344101
 72
     1
 10
-135.7085136242098
 20
-306.9066663344101
 11
-135.7085136242098
 21
-306.2086527289672
 72
     1
 10
-135.7085136242098
 20
-306.2086527289672
 11
-138.8588333479907
 21
-306.2086527289672
 97
       12
330
28D
330
287
330
2AE
330
2AD
330
2AC
330
2AB
330
288
330
289
330
28A
330
28B
330
2FD
330
28C
 92
       16
 93
        4
 72
     2
 10
-138.4428213014793
 20
-307.735557490873
 40
0.7717997786796373
 50
141.8795802028438
 51
218.1204197971529
 73
     1
 72
     2
 10
-138.6425613378255
 20
-307.8922886689935
 40
0.5179085730134564
 50
218.1204197971334
 51
321.8795802028588
 73
     1
 72
     2
 10
-138.8423013741717
 20
-307.735557490873
 40
0.7717997786795351
 50
321.8795802028432
 51
398.1204197971601
 73
     1
 72
     2
 10
-138.6425613378255
 20
-307.5788263127525
 40
0.5179085730133669
 50
38.12041979714121
 51
141.8795802028666
 73
     1
 97
        4
330
30A
330
309
330
304
330
303
 75
     1
 76
     2
 52
45.0
 41
0.1
 77
     0
 78
     1
 53
45.0
 43
62.7811309658083
 44
-72.3161373035813
 45
-0.1414213562373095
 46
0.0
 79
     0
 98
        1
 10
0.0
 20
0.0
  0
HATCH
  5
355
330
81
100
AcDbEntity
  8
1
  6
Continuous
 62
     2
100
AcDbHatch
 10
0.0
 20
0.0
 30
0.0
210
0.0
220
0.0
230
1.0
  2
CUSTOM8
 70
     0
 71
     1
 91
        2
 92
        1
 93
        4
 72
     2
 10
-142.8844487104524
 20
-311.0947479670474
 40
1.458034083651566
 50
117.5481481756609
 51
242.451851824338
 73
     1
 72
     2
 10
-142.603508818619
 20
-310.556172956744
 40
2.065479772208687
 50
242.4518518243392
 51
297.5481481756852
 73
     1
 72
     2
 10
-142.3225689267858
 20
-311.0947479670474
 40
1.458034083652081
 50
297.5481481757045
 51
422.4518518242966
 73
     1
 72
     2
 10
-142.603508818619
 20
-311.6333229773502
 40
2.065479772208644
 50
62.45185182430745
 51
117.5481481756681
 73
     1
 97
        4
330
308
330
305
330
307
330
306
 92
       16
 93
        4
 72
     2
 10
-142.603508818619
 20
-310.9380167889269
 40
0.5179085730132806
 50
38.12041979716469
 51
141.8795802028567
 73
     1
 72
     2
 10
-142.403768782273
 20
-311.0947479670474
 40
0.7717997786795159
 50
141.8795802028313
 51
218.1204197971654
 73
     1
 72
     2
 10
-142.603508818619
 20
-311.2514791451673
 40
0.5179085730138424
 50
218.1204197971879
 51
321.8795802027908
 73
     1
 72
     2
 10
-142.8032488549654
 20
-311.0947479670474
 40
0.7717997786795702
 50
321.8795802028399
 51
398.1204197971634
 73
     1
 97
        4
330
2EB
330
2EC
330
2ED
330
2EA
 75
     1
 76
     2
 52
45.0
 41
0.1
 77
     0
 78
     1
 53
45.0
 43
62.7811309658083
 44
-72.3161373035813
 45
-0.1414213562373095
 46
0.0
 79
     0
 98
        1
 10
0.0
 20
0.0
  0
HATCH
  5
356
330
81
100
AcDbEntity
  8
1
  6
Continuous
 62
     2
100
AcDbHatch
 10
0.0
 20
0.0
 30
0.0
210
0.0
220
0.0
230
1.0
  2
CUSTOM9
 70
     0
 71
     1
 91
        2
 92
        1
 93
        4
 72
     2
 10
-142.8844487104524
 20
-311.0947479670474
 40
1.458034083651566
 50
117.5481481756609
 51
242.451851824338
 73
     1
 72
     2
 10
-142.603508818619
 20
-310.556172956744
 40
2.065479772208687
 50
242.4518518243392
 51
297.5481481756852
 73
     1
 72
     2
 10
-142.3225689267858
 20
-311.0947479670474
 40
1.458034083652081
 50
297.5481481757045
 51
422.4518518242966
 73
     1
 72
     2
 10
-142.603508818619
 20
-311.6333229773502
 40
2.065479772208644
 50
62.45185182430745
 51
117.5481481756681
 73
     1
 97
        4
330
308
330
305
330
307
330
306
 92
       16
 93
        4
 72
     2
 10
-142.603508818619
 20
-310.9380167889269
 40
0.5179085730132806
 50
38.12041979716469
 51
141.8795802028567
 73
     1
 72
     2
 10
-142.403768782273
 20
-311.0947479670474
 40
0.7717997786795159
 50
141.8795802028313
 51
218.1204197971654
 73
     1
 72
     2
 10
-142.603508818619
 20
-311.2514791451673
 40
0.5179085730138424
 50
218.1204197971879
 51
321.8795802027908
 73
     1
 72
     2
 10
-142.8032488549654
 20
-311.0947479670474
 40
0.7717997786795702
 50
321.8795802028399
 51
398.1204197971634
 73
     1
 97
        4
330
2EB
330
2EC
330
2ED
330
2EA
 75
     1
 76
     2
 52
45.0
 41
0.1
 77
     0
 78
     1
 53
45.0
 43
62.7811309658083
 44
-72.3161373035813
 45
-0.1414213562373095
 46
0.0
 79
     0
 98
        1
 10
0.0
 20
0.0
  0
HATCH
  5
357
330
81
100
AcDbEntity
  8
1
  6
Continuous
 62
     2
100
AcDbHatch
 10
0.0
 20
0.0
 30
0.0
210
0.0
220
0.0
230
1.0
  2
CUSTOM10
 70
     0
 71
     1
 91
        2
 92
        1
 93
        6
 72
     1
 10
-147.1593235650125
 20
-306.2086527289672
 11
-147.1593235650125
 21
-309.2624622527783
 72
     1
 10
-147.1593235650125
 20
-309.2624622527783
 11
-145.9188191547585
 21
-309.2624622527783
 72
     1
 10
-145.9188191547585
 20
-309.2624622527783
 11
-145.9188191547585
 21
-308.3193840116346
 72
     1
 10
-145.9188191547585
 20
-308.3193840116346
 11
-145.1600515669781
 21
-308.3193840116346
 72
     2
 10
-145.1600515669781
 20
-307.2640183703009
 40
1.055365641333708
 50
270.0
 51
450.0
 73
     1
 72
     1
 10
-145.1600515669781
 20
-306.2086527289672
 11
-147.1593235650125
 21
-306.2086527289672
 97
        6
330
312
330
29F
330
295
330
294
330
2A1
330
2A0
 92
       16
 93
        4
 72
     1
 10
-145.6015240932165
 20
-306.8717585744072
 11
-145.9188191547585
 21
-306.8717585744072
 72
     1
 10
-145.9188191547585
 20
-306.8717585744072
 11
-145.9188191547585
 21
-307.5774862237495
 72
     1
 10
-145.9188191547585
 20
-307.5774862237495
 11
-145.6015240932165
 21
-307.5774862237495
 72
     2
 10
-145.6015240932165
 20
-307.2246223990784
 40
0.3528638246710898
 50
270.0
 51
450.0
 73
     1
 97
        4
330
2A2
330
293
330
2A3
330
2FE
 75
     1
 76
     2
 52
45.0
 41
0.1
 77
     0
 78
     1
 53
45.0
 43
62.7811309658083
 44
-72.3161373035813
 45
-0.1414213562373095
 46
0.0
 79
     0
 98
        1
 10
0.0
 20
0.0
  0
HATCH
  5
358
330
81
100
AcDbEntity
  8
1
  6
Continuous
 62
     2
100
AcDbHatch
 10
0.0
 20
0.0
 30
0.0
210
0.0
220
0.0
230
1.0
  2
CUSTOM11
 70
     0
 71
     1
 91
        2
 92
        1
 93
        6
 72
     1
 10
-147.1593235650125
 20
-306.2086527289672
 11
-147.1593235650125
 21
-309.2624622527783
 72
     1
 10
-147.1593235650125
 20
-309.2624622527783
 11
-145.9188191547585
 21
-309.2624622527783
 72
     1
 10
-145.9188191547585
 20
-309.2624622527783
 11
-145.9188191547585
 21
-308.3193840116346
 72
     1
 10
-145.9188191547585
 20
-308.3193840116346
 11
-145.1600515669781
 21
-308.3193840116346
 72
     2
 10
-145.1600515669781
 20
-307.2640183703009
 40
1.055365641333708
 50
270.0
 51
450.0
 73
     1
 72
     1
 10
-145.1600515669781
 20
-306.2086527289672
 11
-147.1593235650125
 21
-306.2086527289672
 97
        6
330
312
330
29F
330
295
330
294
330
2A1
330
2A0
 92
       16
 93
        4
 72
     1
 10
-145.6015240932165
 20
-306.8717585744072
 11
-145.9188191547585
 21
-306.8717585744072
 72
     1
 10
-145.9188191547585
 20
-306.8717585744072
 11
-145.9188191547585
 21
-307.5774862237495
 72
     1
 10
-145.9188191547585
 20
-307.5774862237495
 11
-145.6015240932165
 21
-307.5774862237495
 72
     2
 10
-145.6015240932165
 20
-307.2246223990784
 40
0.3528638246710898
 50
270.0
 51
450.0
 73
     1
 97
        4
330
2A2
330
293
330
2A3
330
2FE
 75
     1
 76
     2
 52
45.0
 41
0.1
 77
     0
 78
     1
 53
45.0
 43
62.7811309658083
 44
-72.3161373035813
 45
-0.1414213562373095
 46
0.0
 79
     0
 98
        1
 10
0.0
 20
0.0
  0
HATCH
  5
359
330
81
100
AcDbEntity
  8
1
  6
Continuous
 62
     2
100
AcDbHatch
 10
0.0
 20
0.0
 30
0.0
210
0.0
220
0.0
230
1.0
  2
CUSTOM12
 70
     0
 71
     1
 91
        1
 92
        1
 93
       12
 72
     1
 10
-127.5450403705793
 20
-306.2086527289672
 11
-126.1423161528321
 21
-306.2086527289672
 72
     1
 10
-126.1423161528321
 20
-306.2086527289672
 11
-127.4448457835987
 21
-307.6816032590034
 72
     1
 10
-127.4448457835987
 20
-307.6816032590034
 11
-126.0468927366584
 21
-309.2624622527783
 72
     1
 10
-126.0468927366584
 20
-309.2624622527783
 11
-127.4496169544067
 21
-309.2624622527783
 72
     1
 10
-127.4496169544067
 20
-309.2624622527783
 11
-128.1462078924721
 21
-308.4747304674846
 72
     1
 10
-128.1462078924721
 20
-308.4747304674846
 11
-128.8427988305379
 21
-309.2624622527783
 72
     1
 10
-128.8427988305379
 20
-309.2624622527783
 11
-130.245523048286
 21
-309.2624622527783
 72
     1
 10
-130.245523048286
 20
-309.2624622527783
 11
-128.8475700013457
 21
-307.6816032590034
 72
     1
 10
-128.8475700013457
 20
-307.6816032590034
 11
-130.1500996321132
 21
-306.2086527289672
 72
     1
 10
-130.1500996321132
 20
-306.2086527289672
 11
-128.747375414364
 21
-306.2086527289672
 72
     1
 10
-128.747375414364
 20
-306.2086527289672
 11
-128.1462078924721
 21
-306.8884760505227
 72
     1
 10
-128.1462078924721
 20
-306.8884760505227
 11
-127.5450403705793
 21
-306.2086527289672
 97
       12
330
26E
330
2C7
330
2C6
330
2C5
330
2C4
330
26F
330
270
330
26C
330
26D
330
2CA
330
2C9
330
2C8
 75
     1
 76
     2
 52
45.0
 41
0.1
 77
     0
 78
     1
 53
45.0
 43
62.7811309658083
 44
-72.3161373035813
 45
-0.1414213562373095
 46
0.0
 79
     0
 98
        1
 10
0.0
 20
0.0
  0
HATCH
  5
35A
330
81
100
AcDbEntity
  8
1
  6
Continuous
 62
     2
100
AcDbHatch
 10
0.0
 20
0.0
 30
0.0
210
0.0
220
0.0
230
1.0
  2
CUSTOM13
 70
     0
 71
     1
 91
        1
 92
        1
 93
       12
 72
     1
 10
-127.5450403705793
 20
-306.2086527289672
 11
-126.1423161528321
 21
-306.2086527289672
 72
     1
 10
-126.1423161528321
 20
-306.2086527289672
 11
-127.4448457835987
 21
-307.6816032590034
 72
     1
 10
-127.4448457835987
 20
-307.6816032590034
 11
-126.0468927366584
 21
-309.2624622527783
 72
     1
 10
-126.0468927366584
 20
-309.2624622527783
 11
-127.4496169544067
 21
-309.2624622527783
 72
     1
 10
-127.4496169544067
 20
-309.2624622527783
 11
-128.1462078924721
 21
-308.4747304674846
 72
     1
 10
-128.1462078924721
 20
-308.4747304674846
 11
-128.8427988305379
 21
-309.2624622527783
 72
     1
 10
-128.8427988305379
 20
-309.2624622527783
 11
-130.245523048286
 21
-309.2624622527783
 72
     1
 10
-130.245523048286
 20
-309.2624622527783
 11
-128.8475700013457
 21
-307.6816032590034
 72
     1
 10
-128.8475700013457
 20
-307.6816032590034
 11
-130.1500996321132
 21
-306.2086527289672
 72
     1
 10
-130.1500996321132
 20
-306.2086527289672
 11
-128.747375414364
 21
-306.2086527289672
 72
     1
 10
-128.747375414364
 20
-306.2086527289672
 11
-128.1462078924721
 21
-306.8884760505227
 72
     1
 10
-128.1462078924721
 20
-306.8884760505227
 11
-127.5450403705793
 21
-306.2086527289672
 97
       12
330
26E
330
2C7
330
2C6
330
2C5
330
2C4
330
26F
330
270
330
26C
330
26D
330
2CA
330
2C9
330
2C8
 75
     1
 76
     2
 52
45.0
 41
0.1
 77
     0
 78
     1
 53
45.0
 43
62.7811309658083
 44
-72.3161373035813
 45
-0.1414213562373095
 46
0.0
 79
     0
 98
        1
 10
0.0
 20
0.0
  0
HATCH
  5
35B
330
81
100
AcDbEntity
  8
1
  6
Continuous
 62
     2
100
AcDbHatch
 10
0.0
 20
0.0
 30
0.0
210
0.0
220
0.0
230
1.0
  2
CUSTOM14
 70
     0
 71
     1
 91
        1
 92
        1
 93
        4
 72
     1
 10
-130.3648023185029
 20
-306.2086527289672
 11
-130.3648023185029
 21
-309.2624622527783
 72
     1
 10
-130.3648023185029
 20
-309.2624622527783
 11
-131.6053067287558
 21
-309.2624622527783
 72
     1
 10
-131.6053067287558
 20
-309.2624622527783
 11
-131.6053067287558
 21
-306.2086527289672
 72
     1
 10
-131.6053067287558
 20
-306.2086527289672
 11
-130.3648023185029
 21
-306.2086527289672
 97
        4
330
2C2
330
271
330
2C1
330
2C3
 75
     1
 76
     2
 52
45.0
 41
0.1
 77
     0
 78
     1
 53
45.0
 43
62.7811309658083
 44
-72.3161373035813
 45
-0.1414213562373095
 46
0.0
 79
     0
 98
        1
 10
0.0
 20
0.0
  0
HATCH
  5
35C
330
81
100
AcDbEntity
  8
1
  6
Continuous
 62
     2
100
AcDbHatch
 10
0.0
 20
0.0
 30
0.0
210
0.0
220
0.0
230
1.0
  2
CUSTOM15
 70
     0
 71
     1
 91
        1
 92
        1
 93
        4
 72
     1
 10
-130.3648023185029
 20
-306.2086527289672
 11
-130.3648023185029
 21
-309.2624622527783
 72
     1
 10
-130.3648023185029
 20
-309.2624622527783
 11
-131.6053067287558
 21
-309.2624622527783
 72
     1
 10
-131.6053067287558
 20
-309.2624622527783
 11
-131.6053067287558
 21
-306.2086527289672
 72
     1
 10
-131.6053067287558
 20
-306.2086527289672
 11
-130.3648023185029
 21
-306.2086527289672
 97
        4
330
2C2
330
271
330
2C1
330
2C3
 75
     1
 76
     2
 52
45.0
 41
0.1
 77
     0
 78
     1
 53
45.0
 43
62.7811309658083
 44
-72.3161373035813
 45
-0.1414213562373095
 46
0.0
 79
     0
 98
        1
 10
0.0
 20
0.0
  0
HATCH
  5
35D
330
81
100
AcDbEntity
  8
1
  6
Continuous
 62
     2
100
AcDbHatch
 10
0.0
 20
0.0
 30
0.0
210
0.0
220
0.0
230
1.0
  2
CUSTOM16
 70
     0
 71
     1
 91
        2
 92
        1
 93
        8
 72
     1
 10
-130.7552463220349
 20
-312.6216527289526
 11
-131.9957507322888
 21
-312.6216527289526
 72
     1
 10
-131.9957507322888
 20
-312.6216527289526
 11
-132.2072307857646
 21
-312.0806921847348
 72
     1
 10
-132.2072307857646
 20
-312.0806921847348
 11
-133.3396723624385
 21
-312.0806921847348
 72
     1
 10
-133.3396723624385
 20
-312.0806921847348
 11
-133.5511524159143
 21
-312.6216527289526
 72
     1
 10
-133.5511524159143
 20
-312.6216527289526
 11
-134.7916568261672
 21
-312.6216527289526
 72
     1
 10
-134.7916568261672
 20
-312.6216527289526
 11
-133.393703779228
 21
-309.5678432051415
 72
     1
 10
-133.393703779228
 20
-309.5678432051415
 11
-132.1531993689752
 21
-309.5678432051415
 72
     1
 10
-132.1531993689752
 20
-309.5678432051415
 11
-130.7552463220349
 21
-312.6216527289526
 97
        8
330
2BD
330
277
330
2BC
330
2BF
330
274
330
2BE
330
275
330
276
 92
       16
 93
        3
 72
     1
 10
-133.0736168112934
 20
-311.4001289194282
 11
-132.4732863369109
 21
-311.4001289194282
 72
     1
 10
-132.4732863369109
 20
-311.4001289194282
 11
-132.7734515741011
 21
-310.6323139534415
 72
     1
 10
-132.7734515741011
 20
-310.6323139534415
 11
-133.0736168112934
 21
-311.4001289194282
 97
        3
330
273
330
272
330
2C0
 75
     1
 76
     2
 52
45.0
 41
0.1
 77
     0
 78
     1
 53
45.0
 43
62.7811309658083
 44
-72.3161373035813
 45
-0.1414213562373095
 46
0.0
 79
     0
 98
        1
 10
0.0
 20
0.0
  0
HATCH
  5
35E
330
81
100
AcDbEntity
  8
1
  6
Continuous
 62
     2
100
AcDbHatch
 10
0.0
 20
0.0
 30
0.0
210
0.0
220
0.0
230
1.0
  2
CUSTOM17
 70
     0
 71
     1
 91
        2
 92
        1
 93
        8
 72
     1
 10
-130.7552463220349
 20
-312.6216527289526
 11
-131.9957507322888
 21
-312.6216527289526
 72
     1
 10
-131.9957507322888
 20
-312.6216527289526
 11
-132.2072307857646
 21
-312.0806921847348
 72
     1
 10
-132.2072307857646
 20
-312.0806921847348
 11
-133.3396723624385
 21
-312.0806921847348
 72
     1
 10
-133.3396723624385
 20
-312.0806921847348
 11
-133.5511524159143
 21
-312.6216527289526
 72
     1
 10
-133.5511524159143
 20
-312.6216527289526
 11
-134.7916568261672
 21
-312.6216527289526
 72
     1
 10
-134.7916568261672
 20
-312.6216527289526
 11
-133.393703779228
 21
-309.5678432051415
 72
     1
 10
-133.393703779228
 20
-309.5678432051415
 11
-132.1531993689752
 21
-309.5678432051415
 72
     1
 10
-132.1531993689752
 20
-309.5678432051415
 11
-130.7552463220349
 21
-312.6216527289526
 97
        8
330
2BD
330
277
330
2BC
330
2BF
330
274
330
2BE
330
275
330
276
 92
       16
 93
        3
 72
     1
 10
-133.0736168112934
 20
-311.4001289194282
 11
-132.4732863369109
 21
-311.4001289194282
 72
     1
 10
-132.4732863369109
 20
-311.4001289194282
 11
-132.7734515741011
 21
-310.6323139534415
 72
     1
 10
-132.7734515741011
 20
-310.6323139534415
 11
-133.0736168112934
 21
-311.4001289194282
 97
        3
330
273
330
272
330
2C0
 75
     1
 76
     2
 52
45.0
 41
0.1
 77
     0
 78
     1
 53
45.0
 43
62.7811309658083
 44
-72.3161373035813
 45
-0.1414213562373095
 46
0.0
 79
     0
 98
        1
 10
0.0
 20
0.0
  0
HATCH
  5
35F
330
81
100
AcDbEntity
  8
1
  6
Continuous
 62
     2
100
AcDbHatch
 10
0.0
 20
0.0
 30
0.0
210
0.0
220
0.0
230
1.0
  2
CUSTOM18
 70
     0
 71
     1
 91
        1
 92
        1
 93
        8
 72
     1
 10
-136.9491689653495
 20
-309.5678432051415
 11
-136.9491689653495
 21
-310.3531085112652
 72
     1
 10
-136.9491689653495
 20
-310.3531085112652
 11
-136.1380699278748
 21
-310.3531085112652
 72
     1
 10
-136.1380699278748
 20
-310.3531085112652
 11
-136.1380699278748
 21
-312.6216527289526
 72
     1
 10
-136.1380699278748
 20
-312.6216527289526
 11
-134.9452772257084
 21
-312.6216527289526
 72
     1
 10
-134.9452772257084
 20
-312.6216527289526
 11
-134.9452772257084
 21
-310.3531085112652
 72
     1
 10
-134.9452772257084
 20
-310.3531085112652
 11
-134.1341781882358
 21
-310.3531085112652
 72
     1
 10
-134.1341781882358
 20
-310.3531085112652
 11
-134.1341781882358
 21
-309.5678432051415
 72
     1
 10
-134.1341781882358
 20
-309.5678432051415
 11
-136.9491689653495
 21
-309.5678432051415
 97
        8
330
2B9
330
2B8
330
2B7
330
278
330
279
330
2BB
330
27A
330
2BA
 75
     1
 76
     2
 52
45.0
 41
0.1
 77
     0
 78
     1
 53
45.0
 43
62.7811309658083
 44
-72.3161373035813
 45
-0.1414213562373095
 46
0.0
 79
     0
 98
        1
 10
0.0
 20
0.0
  0
HATCH
  5
360
330
81
100
AcDbEntity
  8
1
  6
Continuous
 62
     2
100
AcDbHatch
 10
0.0
 20
0.0
 30
0.0
210
0.0
220
0.0
230
1.0
  2
CUSTOM19
 70
     0
 71
     1
 91
        1
 92
        1
 93
        8
 72
     1
 10
-136.9491689653495
 20
-309.5678432051415
 11
-136.9491689653495
 21
-310.3531085112652
 72
     1
 10
-136.9491689653495
 20
-310.3531085112652
 11
-136.1380699278748
 21
-310.3531085112652
 72
     1
 10
-136.1380699278748
 20
-310.3531085112652
 11
-136.1380699278748
 21
-312.6216527289526
 72
     1
 10
-136.1380699278748
 20
-312.6216527289526
 11
-134.9452772257084
 21
-312.6216527289526
 72
     1
 10
-134.9452772257084
 20
-312.6216527289526
 11
-134.9452772257084
 21
-310.3531085112652
 72
     1
 10
-134.9452772257084
 20
-310.3531085112652
 11
-134.1341781882358
 21
-310.3531085112652
 72
     1
 10
-134.1341781882358
 20
-310.3531085112652
 11
-134.1341781882358
 21
-309.5678432051415
 72
     1
 10
-134.1341781882358
 20
-309.5678432051415
 11
-136.9491689653495
 21
-309.5678432051415
 97
        8
330
2B9
330
2B8
330
2B7
330
278
330
279
330
2BB
330
27A
330
2BA
 75
     1
 76
     2
 52
45.0
 41
0.1
 77
     0
 78
     1
 53
45.0
 43
62.7811309658083
 44
-72.3161373035813
 45
-0.1414213562373095
 46
0.0
 79
     0
 98
        1
 10
0.0
 20
0.0
  0
HATCH
  5
361
330
81
100
AcDbEntity
  8
1
  6
Continuous
 62
     2
100
AcDbHatch
 10
0.0
 20
0.0
 30
0.0
210
0.0
220
0.0
230
1.0
  2
CUSTOM20
 70
     0
 71
     1
 91
        1
 92
        1
 93
       10
 72
     1
 10
-134.2771623816104
 20
-306.2086527289672
 11
-135.4699550837768
 21
-306.2086527289672
 72
     1
 10
-135.4699550837768
 20
-306.2086527289672
 11
-135.4699550837768
 21
-309.2624622527783
 72
     1
 10
-135.4699550837768
 20
-309.2624622527783
 11
-134.2771623816104
 21
-309.2624622527783
 72
     1
 10
-134.2771623816104
 20
-309.2624622527783
 11
-134.2771623816104
 21
-307.9536867425736
 72
     1
 10
-134.2771623816104
 20
-307.9536867425736
 11
-133.0366579713563
 21
-309.2624622527783
 72
     1
 10
-133.0366579713563
 20
-309.2624622527783
 11
-131.8438652691897
 21
-309.2624622527783
 72
     1
 10
-131.8438652691897
 20
-309.2624622527783
 11
-131.8438652691897
 21
-306.2086527289672
 72
     1
 10
-131.8438652691897
 20
-306.2086527289672
 11
-133.0366579713563
 21
-306.2086527289672
 72
     1
 10
-133.0366579713563
 20
-306.2086527289672
 11
-133.0366579713563
 21
-307.5174282391723
 72
     1
 10
-133.0366579713563
 20
-307.5174282391723
 11
-134.2771623816104
 21
-306.2086527289672
 97
       10
330
2B3
330
27D
330
27E
330
27F
330
280
330
2B6
330
27B
330
2B5
330
2B4
330
27C
 75
     1
 76
     2
 52
45.0
 41
0.1
 77
     0
 78
     1
 53
45.0
 43
62.7811309658083
 44
-72.3161373035813
 45
-0.1414213562373095
 46
0.0
 79
     0
 98
        1
 10
0.0
 20
0.0
  0
HATCH
  5
362
330
81
100
AcDbEntity
  8
1
  6
Continuous
 62
     2
100
AcDbHatch
 10
0.0
 20
0.0
 30
0.0
210
0.0
220
0.0
230
1.0
  2
CUSTOM21
 70
     0
 71
     1
 91
        1
 92
        1
 93
       10
 72
     1
 10
-134.2771623816104
 20
-306.2086527289672
 11
-135.4699550837768
 21
-306.2086527289672
 72
     1
 10
-135.4699550837768
 20
-306.2086527289672
 11
-135.4699550837768
 21
-309.2624622527783
 72
     1
 10
-135.4699550837768
 20
-309.2624622527783
 11
-134.2771623816104
 21
-309.2624622527783
 72
     1
 10
-134.2771623816104
 20
-309.2624622527783
 11
-134.2771623816104
 21
-307.9536867425736
 72
     1
 10
-134.2771623816104
 20
-307.9536867425736
 11
-133.0366579713563
 21
-309.2624622527783
 72
     1
 10
-133.0366579713563
 20
-309.2624622527783
 11
-131.8438652691897
 21
-309.2624622527783
 72
     1
 10
-131.8438652691897
 20
-309.2624622527783
 11
-131.8438652691897
 21
-306.2086527289672
 72
     1
 10
-131.8438652691897
 20
-306.2086527289672
 11
-133.0366579713563
 21
-306.2086527289672
 72
     1
 10
-133.0366579713563
 20
-306.2086527289672
 11
-133.0366579713563
 21
-307.5174282391723
 72
     1
 10
-133.0366579713563
 20
-307.5174282391723
 11
-134.2771623816104
 21
-306.2086527289672
 97
       10
330
2B3
330
27D
330
27E
330
27F
330
280
330
2B6
330
27B
330
2B5
330
2B4
330
27C
 75
     1
 76
     2
 52
45.0
 41
0.1
 77
     0
 78
     1
 53
45.0
 43
62.7811309658083
 44
-72.3161373035813
 45
-0.1414213562373095
 46
0.0
 79
     0
 98
        1
 10
0.0
 20
0.0
  0
HATCH
  5
363
330
81
100
AcDbEntity
  8
1
  6
Continuous
 62
     2
100
AcDbHatch
 10
0.0
 20
0.0
 30
0.0
210
0.0
220
0.0
230
1.0
  2
CUSTOM22
 70
     0
 71
     1
 91
        1
 92
        1
 93
       10
 72
     1
 10
-139.525601202029
 20
-309.5678432051415
 11
-140.7183939041965
 21
-309.5678432051415
 72
     1
 10
-140.7183939041965
 20
-309.5678432051415
 11
-140.7183939041965
 21
-312.6216527289526
 72
     1
 10
-140.7183939041965
 20
-312.6216527289526
 11
-139.525601202029
 21
-312.6216527289526
 72
     1
 10
-139.525601202029
 20
-312.6216527289526
 11
-139.525601202029
 21
-311.3128772187481
 72
     1
 10
-139.525601202029
 20
-311.3128772187481
 11
-138.285096791776
 21
-312.6216527289526
 72
     1
 10
-138.285096791776
 20
-312.6216527289526
 11
-137.0923040896096
 21
-312.6216527289526
 72
     1
 10
-137.0923040896096
 20
-312.6216527289526
 11
-137.0923040896096
 21
-309.5678432051415
 72
     1
 10
-137.0923040896096
 20
-309.5678432051415
 11
-138.285096791776
 21
-309.5678432051415
 72
     1
 10
-138.285096791776
 20
-309.5678432051415
 11
-138.285096791776
 21
-310.8766187153467
 72
     1
 10
-138.285096791776
 20
-310.8766187153467
 11
-139.525601202029
 21
-309.5678432051415
 97
       10
330
282
330
283
330
284
330
2B0
330
285
330
286
330
2AF
330
2B2
330
2B1
330
281
 75
     1
 76
     2
 52
45.0
 41
0.1
 77
     0
 78
     1
 53
45.0
 43
62.7811309658083
 44
-72.3161373035813
 45
-0.1414213562373095
 46
0.0
 79
     0
 98
        1
 10
0.0
 20
0.0
  0
HATCH
  5
364
330
81
100
AcDbEntity
  8
1
  6
Continuous
 62
     2
100
AcDbHatch
 10
0.0
 20
0.0
 30
0.0
210
0.0
220
0.0
230
1.0
  2
CUSTOM23
 70
     0
 71
     1
 91
        1
 92
        1
 93
       10
 72
     1
 10
-139.525601202029
 20
-309.5678432051415
 11
-140.7183939041965
 21
-309.5678432051415
 72
     1
 10
-140.7183939041965
 20
-309.5678432051415
 11
-140.7183939041965
 21
-312.6216527289526
 72
     1
 10
-140.7183939041965
 20
-312.6216527289526
 11
-139.525601202029
 21
-312.6216527289526
 72
     1
 10
-139.525601202029
 20
-312.6216527289526
 11
-139.525601202029
 21
-311.3128772187481
 72
     1
 10
-139.525601202029
 20
-311.3128772187481
 11
-138.285096791776
 21
-312.6216527289526
 72
     1
 10
-138.285096791776
 20
-312.6216527289526
 11
-137.0923040896096
 21
-312.6216527289526
 72
     1
 10
-137.0923040896096
 20
-312.6216527289526
 11
-137.0923040896096
 21
-309.5678432051415
 72
     1
 10
-137.0923040896096
 20
-309.5678432051415
 11
-138.285096791776
 21
-309.5678432051415
 72
     1
 10
-138.285096791776
 20
-309.5678432051415
 11
-138.285096791776
 21
-310.8766187153467
 72
     1
 10
-138.285096791776
 20
-310.8766187153467
 11
-139.525601202029
 21
-309.5678432051415
 97
       10
330
282
330
283
330
284
330
2B0
330
285
330
286
330
2AF
330
2B2
330
2B1
330
281
 75
     1
 76
     2
 52
45.0
 41
0.1
 77
     0
 78
     1
 53
45.0
 43
62.7811309658083
 44
-72.3161373035813
 45
-0.1414213562373095
 46
0.0
 79
     0
 98
        1
 10
0.0
 20
0.0
  0
HATCH
  5
365
330
81
100
AcDbEntity
  8
1
  6
Continuous
 62
     2
100
AcDbHatch
 10
0.0
 20
0.0
 30
0.0
210
0.0
220
0.0
230
1.0
  2
CUSTOM24
 70
     0
 71
     1
 91
        1
 92
        1
 93
       12
 72
     1
 10
-140.5273961409643
 20
-306.2086527289672
 11
-140.5273961409643
 21
-309.2624622527783
 72
     1
 10
-140.5273961409643
 20
-309.2624622527783
 11
-141.7201888431308
 21
-309.2624622527783
 72
     1
 10
-141.7201888431308
 20
-309.2624622527783
 11
-141.7201888431308
 21
-308.1281901439346
 72
     1
 10
-141.7201888431308
 20
-308.1281901439346
 11
-142.7698464210382
 21
-308.1281901439346
 72
     1
 10
-142.7698464210382
 20
-308.1281901439346
 11
-142.7698464210382
 21
-309.2624622527783
 72
     1
 10
-142.7698464210382
 20
-309.2624622527783
 11
-143.9626391232048
 21
-309.2624622527783
 72
     1
 10
-143.9626391232048
 20
-309.2624622527783
 11
-143.9626391232048
 21
-306.2086527289672
 72
     1
 10
-143.9626391232048
 20
-306.2086527289672
 11
-142.7698464210382
 21
-306.2086527289672
 72
     1
 10
-142.7698464210382
 20
-306.2086527289672
 11
-142.7698464210382
 21
-307.2774860623018
 72
     1
 10
-142.7698464210382
 20
-307.2774860623018
 11
-141.7201888431308
 21
-307.2774860623018
 72
     1
 10
-141.7201888431308
 20
-307.2774860623018
 11
-141.7201888431308
 21
-306.2086527289672
 72
     1
 10
-141.7201888431308
 20
-306.2086527289672
 11
-140.5273961409643
 21
-306.2086527289672
 97
       12
330
2AA
330
2A9
330
2A8
330
290
330
291
330
2A7
330
292
330
2A6
330
2A5
330
2A4
330
28E
330
28F
 75
     1
 76
     2
 52
45.0
 41
0.1
 77
     0
 78
     1
 53
45.0
 43
62.7811309658083
 44
-72.3161373035813
 45
-0.1414213562373095
 46
0.0
 79
     0
 98
        1
 10
0.0
 20
0.0
  0
HATCH
  5
366
330
81
100
AcDbEntity
  8
1
  6
Continuous
 62
     2
100
AcDbHatch
 10
0.0
 20
0.0
 30
0.0
210
0.0
220
0.0
230
1.0
  2
CUSTOM25
 70
     0
 71
     1
 91
        1
 92
        1
 93
       12
 72
     1
 10
-140.5273961409643
 20
-306.2086527289672
 11
-140.5273961409643
 21
-309.2624622527783
 72
     1
 10
-140.5273961409643
 20
-309.2624622527783
 11
-141.7201888431308
 21
-309.2624622527783
 72
     1
 10
-141.7201888431308
 20
-309.2624622527783
 11
-141.7201888431308
 21
-308.1281901439346
 72
     1
 10
-141.7201888431308
 20
-308.1281901439346
 11
-142.7698464210382
 21
-308.1281901439346
 72
     1
 10
-142.7698464210382
 20
-308.1281901439346
 11
-142.7698464210382
 21
-309.2624622527783
 72
     1
 10
-142.7698464210382
 20
-309.2624622527783
 11
-143.9626391232048
 21
-309.2624622527783
 72
     1
 10
-143.9626391232048
 20
-309.2624622527783
 11
-143.9626391232048
 21
-306.2086527289672
 72
     1
 10
-143.9626391232048
 20
-306.2086527289672
 11
-142.7698464210382
 21
-306.2086527289672
 72
     1
 10
-142.7698464210382
 20
-306.2086527289672
 11
-142.7698464210382
 21
-307.2774860623018
 72
     1
 10
-142.7698464210382
 20
-307.2774860623018
 11
-141.7201888431308
 21
-307.2774860623018
 72
     1
 10
-141.7201888431308
 20
-307.2774860623018
 11
-141.7201888431308
 21
-306.2086527289672
 72
     1
 10
-141.7201888431308
 20
-306.2086527289672
 11
-140.5273961409643
 21
-306.2086527289672
 97
       12
330
2AA
330
2A9
330
2A8
330
290
330
291
330
2A7
330
292
330
2A6
330
2A5
330
2A4
330
28E
330
28F
 75
     1
 76
     2
 52
45.0
 41
0.1
 77
     0
 78
     1
 53
45.0
 43
62.7811309658083
 44
-72.3161373035813
 45
-0.1414213562373095
 46
0.0
 79
     0
 98
        1
 10
0.0
 20
0.0
  0
ENDBLK
  5
83
330
81
100
AcDbEntity
  8
0
100
AcDbBlockEnd
  0
BLOCK
  5
85
330
84
100
AcDbEntity
  8
0
100
AcDbBlockBegin
  2
_punkt
 70
     0
 10
-28.65009232717557
 20
-319.9151527289689
 30
0.0
  3
_punkt
  1

  0
LINE
  5
367
330
84
100
AcDbEntity
  8
1
  6
Continuous
 62
     2
100
AcDbLine
 10
-28.65009232717551
 20
-319.9151527289689
 30
0.0
 11
-28.65009232717551
 21
-324.9151527289684
 31
0.0
  0
LINE
  5
368
330
84
100
AcDbEntity
  8
1
  6
Continuous
 62
     2
100
AcDbLine
 10
-28.65009232717551
 20
-319.9151527289689
 30
0.0
 11
-23.6500923271779
 21
-319.9151527289689
 31
0.0
  0
ENDBLK
  5
86
330
84
100
AcDbEntity
  8
0
100
AcDbBlockEnd
  0
BLOCK
  5
8A
330
87
100
AcDbEntity
  8
0
100
AcDbBlockBegin
  2
A3I_CS
 70
     0
 10
-28.65009232717551
 20
-324.9151527289684
 30
0.0
  3
A3I_CS
  1

  0
INSERT
  5
88
330
87
100
AcDbEntity
  8
1
100
AcDbBlockReference
  2
_rahmen
 10
-28.65009232717551
 20
-324.9151527289684
 30
0.0
  0
INSERT
  5
89
330
87
100
AcDbEntity
  8
1
100
AcDbBlockReference
  2
_punkt
 10
-28.65009232717557
 20
-319.9151527289689
 30
0.0
  0
ENDBLK
  5
8B
330
87
100
AcDbEntity
  8
0
100
AcDbBlockEnd
  0
BLOCK
  5
94
330
8C
100
AcDbEntity
  8
0
100
AcDbBlockBegin
  2
1__7
 70
     0
 10
0.0
 20
0.0
 30
0.0
  3
1__7
  1

  0
INSERT
  5
8D
330
8C
100
AcDbEntity
  8
0
100
AcDbBlockReference
  2
Paste1
 10
-114.0
 20
-224.0
 30
0.0
  0
INSERT
  5
8E
330
8C
100
AcDbEntity
  8
0
100
AcDbBlockReference
  2
Right1
 10
551.8499260526601
 20
-107.9740690827132
 30
0.0
  0
INSERT
  5
8F
330
8C
100
AcDbEntity
  8
0
100
AcDbBlockReference
  2
Left1
 10
-168.349954052657
 20
-107.9740690827129
 30
0.0
  0
INSERT
  5
90
330
8C
100
AcDbEntity
  8
0
100
AcDbBlockReference
  2
Top1
 10
-261.00001416596
 20
676.9999999999947
 30
0.0
  0
INSERT
  5
91
330
8C
100
AcDbEntity
  8
0
100
AcDbBlockReference
  2
Back1
 10
-78.69989393936169
 20
-107.9740690827132
 30
0.0
  0
INSERT
  5
92
330
8C
100
AcDbEntity
  8
0
100
AcDbBlockReference
  2
Front1
 10
-261.00001416596
 20
-107.9740690827132
 30
0.0
  0
INSERT
  5
93
330
8C
100
AcDbEntity
  8
0
100
AcDbBlockReference
  2
A3I_CS
 10
-28.65009232717551
 20
-324.9151527289684
 30
0.0
  0
ENDBLK
  5
95
330
8C
100
AcDbEntity
  8
0
100
AcDbBlockEnd
  0
BLOCK
  5
1C6
330
1BF
100
AcDbEntity
  8
0
100
AcDbBlockBegin
  2
*D21
 70
     1
 10
0.0
 20
0.0
 30
0.0
  3
*D21
  1

  0
LINE
  5
1C0
330
1BF
100
AcDbEntity
  8
1
  6
Continuous
 62
     2
100
AcDbLine
 10
-297.6500569267656
 20
-273.0000000000102
 30
0.0
 11
-297.6500569267656
 21
-173.0000000000101
 31
0.0
  0
LINE
  5
1C1
330
1BF
100
AcDbEntity
  8
1
  6
Continuous
 62
     2
100
AcDbLine
 10
-287.6500569267656
 20
-273.0000000000102
 30
0.0
 11
-299.1500569267656
 21
-273.0000000000102
 31
0.0
  0
LINE
  5
1C2
330
1BF
100
AcDbEntity
  8
1
  6
Continuous
 62
     2
100
AcDbLine
 10
-287.6500569267654
 20
-173.0000000000101
 30
0.0
 11
-299.1500569267656
 21
-173.0000000000101
 31
0.0
  0
SOLID
  5
1C3
330
1BF
100
AcDbEntity
  8
1
 62
     2
100
AcDbTrace
 10
-298.1108406683215
 20
-269.5000000000102
 30
0.0
 11
-297.1892731852097
 21
-269.5000000000102
 31
0.0
 12
-297.6500569267656
 22
-273.0000000000102
 32
0.0
 13
-297.6500569267656
 23
-273.0000000000102
 33
0.0
  0
SOLID
  5
1C4
330
1BF
100
AcDbEntity
  8
1
 62
     2
100
AcDbTrace
 10
-297.1892731852097
 20
-176.5000000000101
 30
0.0
 11
-298.1108406683215
 21
-176.5000000000101
 31
0.0
 12
-297.6500569267656
 22
-173.0000000000101
 32
0.0
 13
-297.6500569267656
 23
-173.0000000000101
 33
0.0
  0
MTEXT
  5
1C5
330
1BF
100
AcDbEntity
  8
1
 62
     3
100
AcDbMText
 10
-299.1500569267656
 20
-229.344987425438
 30
0.0
 40
3.5
 41
0.0
 71
     7
 72
     1
  1
1000
  7
CONVERTER_11
 11
0.0
 21
1.0
 31
0.0
 73
     1
 44
0.60024009603842
  0
ENDBLK
  5
1C7
330
1BF
100
AcDbEntity
  8
0
100
AcDbBlockEnd
  0
BLOCK
  5
20D
330
206
100
AcDbEntity
  8
0
100
AcDbBlockBegin
  2
*D22
 70
     1
 10
0.0
 20
0.0
 30
0.0
  3
*D22
  1

  0
LINE
  5
207
330
206
100
AcDbEntity
  8
1
  6
Continuous
 62
     2
100
AcDbLine
 10
-296.6086997757789
 20
-116.9997307665614
 30
0.0
 11
-296.6086997757789
 21
-98.94836999539004
 31
0.0
  0
LINE
  5
208
330
206
100
AcDbEntity
  8
1
  6
Continuous
 62
     2
100
AcDbLine
 10
-285.0465114617007
 20
-116.9997307665614
 30
0.0
 11
-298.1086997757789
 21
-116.9997307665614
 31
0.0
  0
LINE
  5
209
330
206
100
AcDbEntity
  8
1
  6
Continuous
 62
     2
100
AcDbLine
 10
-279.8661150722499
 20
-98.94836999539004
 30
0.0
 11
-298.1086997757789
 21
-98.94836999539004
 31
0.0
  0
SOLID
  5
20A
330
206
100
AcDbEntity
  8
1
 62
     2
100
AcDbTrace
 10
-297.0694835173348
 20
-113.4997307665614
 30
0.0
 11
-296.147916034223
 21
-113.4997307665614
 31
0.0
 12
-296.6086997757789
 22
-116.9997307665614
 32
0.0
 13
-296.6086997757789
 23
-116.9997307665614
 33
0.0
  0
SOLID
  5
20B
330
206
100
AcDbEntity
  8
1
 62
     2
100
AcDbTrace
 10
-296.147916034223
 20
-102.44836999539
 30
0.0
 11
-297.0694835173348
 21
-102.44836999539
 31
0.0
 12
-296.6086997757789
 22
-98.94836999539004
 32
0.0
 13
-296.6086997757789
 23
-98.94836999539004
 33
0.0
  0
MTEXT
  5
20C
330
206
100
AcDbEntity
  8
1
 62
     3
100
AcDbMText
 10
-298.4586997757789
 20
-114.6701395797527
 30
0.0
 40
3.5
 41
0.0
 71
     7
 72
     1
  1
18,05
  7
CONVERTER_11
 11
0.0
 21
1.0
 31
0.0
 73
     1
 44
0.60024009603842
  0
ENDBLK
  5
20E
330
206
100
AcDbEntity
  8
0
100
AcDbBlockEnd
  0
BLOCK
  5
218
330
211
100
AcDbEntity
  8
0
100
AcDbBlockBegin
  2
*D23
 70
     1
 10
0.0
 20
0.0
 30
0.0
  3
*D23
  1

  0
LINE
  5
212
330
211
100
AcDbEntity
  8
1
  6
Continuous
 62
     2
100
AcDbLine
 10
-234.3500352818147
 20
-130.5083908947263
 30
0.0
 11
-287.6500569267658
 21
-130.5083908947263
 31
0.0
  0
LINE
  5
213
330
211
100
AcDbEntity
  8
1
  6
Continuous
 62
     2
100
AcDbLine
 10
-234.3500352818147
 20
-112.4306523626958
 30
0.0
 11
-234.3500352818147
 21
-132.0083908947263
 31
0.0
  0
LINE
  5
214
330
211
100
AcDbEntity
  8
1
  6
Continuous
 62
     2
100
AcDbLine
 10
-287.6500569267657
 20
-112.4303527653318
 30
0.0
 11
-287.6500569267657
 21
-132.0083908947263
 31
0.0
  0
SOLID
  5
215
330
211
100
AcDbEntity
  8
1
 62
     2
100
AcDbTrace
 10
-237.8500352818147
 20
-130.9691746362822
 30
0.0
 11
-237.8500352818147
 21
-130.0476071531704
 31
0.0
 12
-234.3500352818147
 22
-130.5083908947263
 32
0.0
 13
-234.3500352818147
 23
-130.5083908947263
 33
0.0
  0
SOLID
  5
216
330
211
100
AcDbEntity
  8
1
 62
     2
100
AcDbTrace
 10
-284.1500569267658
 20
-130.0476071531704
 30
0.0
 11
-284.1500569267658
 21
-130.9691746362822
 31
0.0
 12
-287.6500569267658
 22
-130.5083908947263
 32
0.0
 13
-287.6500569267658
 23
-130.5083908947263
 33
0.0
  0
MTEXT
  5
217
330
211
100
AcDbEntity
  8
1
 62
     3
100
AcDbMText
 10
-266.9364924087652
 20
-128.6583908947263
 30
0.0
 40
3.5
 41
0.0
 71
     7
 72
     1
  1
53,3
  7
CONVERTER_11
 11
0.9999999999970619
 21
2.424068405545306E-6
 31
0.0
 73
     1
 44
0.60024009603842
  0
ENDBLK
  5
219
330
211
100
AcDbEntity
  8
0
100
AcDbBlockEnd
  0
ENDSEC
  0
SECTION
  2
ENTITIES
  0
INSERT
  5
96
330
1F
100
AcDbEntity
  8
1
100
AcDbBlockReference
  2
1__7
 10
0.0
 20
0.0
 30
0.0
  0
ENDSEC
  0
SECTION
  2
OBJECTS
  0
DICTIONARY
  5
C
330
0
100
AcDbDictionary
281
     1
  3
ACAD_GROUP
350
D
  3
ACAD_LAYOUT
350
1A
  3
ACAD_MATERIAL
350
3B
  3
ACAD_MLEADERSTYLE
350
390
  3
ACAD_MLINESTYLE
350
17
  3
ACAD_PLOTSETTINGS
350
19
  3
ACAD_PLOTSTYLENAME
350
E
  3
ACAD_TABLESTYLE
350
38F
  3
ACAD_VISUALSTYLE
350
2A
  0
DICTIONARY
  5
D
102
{ACAD_REACTORS
330
C
102
}
330
C
100
AcDbDictionary
281
     1
  0
DICTIONARY
  5
1A
102
{ACAD_REACTORS
330
C
102
}
330
C
100
AcDbDictionary
281
     1
  3
Layout1
350
1E
  3
Layout2
350
26
  3
Model
350
22
  0
DICTIONARY
  5
3B
102
{ACAD_REACTORS
330
C
102
}
330
C
100
AcDbDictionary
281
     1
  3
ByBlock
350
3D
  3
ByLayer
350
3C
  3
Global
350
3E
  0
DICTIONARY
  5
390
102
{ACAD_REACTORS
330
C
102
}
330
C
100
AcDbDictionary
281
     1
  0
DICTIONARY
  5
17
102
{ACAD_REACTORS
330
C
102
}
330
C
100
AcDbDictionary
281
     1
  3
Standard
350
18
  0
DICTIONARY
  5
19
102
{ACAD_REACTORS
330
C
102
}
330
C
100
AcDbDictionary
281
     1
  0
ACDBDICTIONARYWDFLT
  5
E
102
{ACAD_REACTORS
330
C
102
}
330
C
100
AcDbDictionary
281
     1
  3
Normal
350
F
100
AcDbDictionaryWithDefault
340
F
  0
DICTIONARY
  5
38F
102
{ACAD_REACTORS
330
C
102
}
330
C
100
AcDbDictionary
281
     1
  0
DICTIONARY
  5
2A
102
{ACAD_REACTORS
330
C
102
}
330
C
100
AcDbDictionary
281
     1
  3
2dWireframe
350
2F
  3
3D Hidden
350
31
  3
3dWireframe
350
30
  3
Basic
350
32
  3
Brighten
350
36
  3
ColorChange
350
3A
  3
Conceptual
350
34
  3
Dim
350
35
  3
Facepattern
350
39
  3
Flat
350
2B
  3
FlatWithEdges
350
2C
  3
Gouraud
350
2D
  3
GouraudWithEdges
350
2E
  3
Linepattern
350
38
  3
Realistic
350
33
  3
Thicken
350
37
  0
LAYOUT
  5
1E
102
{ACAD_REACTORS
330
1A
102
}
330
1A
100
AcDbPlotSettings
  1

  2
none_device
  4

  6

 40
0.0
 41
0.0
 42
0.0
 43
0.0
 44
0.0
 45
0.0
 46
0.0
 47
0.0
 48
0.0
 49
0.0
140
0.0
141
0.0
142
1.0
143
1.0
 70
   688
 72
     0
 73
     0
 74
     5
  7

 75
    16
 76
     0
 77
     2
 78
   300
147
1.0
148
0.0
149
0.0
100
AcDbLayout
  1
Layout1
 70
     1
 71
     1
 10
0.0
 20
0.0
 11
12.0
 21
9.0
 12
0.0
 22
0.0
 32
0.0
 14
1.00000000000000E+20
 24
1.00000000000000E+20
 34
1.00000000000000E+20
 15
-1.00000000000000E+20
 25
-1.00000000000000E+20
 35
-1.00000000000000E+20
146
0.0
 13
0.0
 23
0.0
 33
0.0
 16
1.0
 26
0.0
 36
0.0
 17
0.0
 27
1.0
 37
0.0
 76
     0
330
1B
  0
LAYOUT
  5
26
102
{ACAD_REACTORS
330
1A
102
}
330
1A
100
AcDbPlotSettings
  1

  2
none_device
  4

  6

 40
0.0
 41
0.0
 42
0.0
 43
0.0
 44
0.0
 45
0.0
 46
0.0
 47
0.0
 48
0.0
 49
0.0
140
0.0
141
0.0
142
1.0
143
1.0
 70
   688
 72
     0
 73
     0
 74
     5
  7

 75
    16
 76
     0
 77
     2
 78
   300
147
1.0
148
0.0
149
0.0
100
AcDbLayout
  1
Layout2
 70
     1
 71
     2
 10
0.0
 20
0.0
 11
0.0
 21
0.0
 12
0.0
 22
0.0
 32
0.0
 14
0.0
 24
0.0
 34
0.0
 15
0.0
 25
0.0
 35
0.0
146
0.0
 13
0.0
 23
0.0
 33
0.0
 16
1.0
 26
0.0
 36
0.0
 17
0.0
 27
1.0
 37
0.0
 76
     0
330
23
  0
LAYOUT
  5
22
102
{ACAD_REACTORS
330
1A
102
}
330
1A
100
AcDbPlotSettings
  1

  2
none_device
  4

  6

 40
0.0
 41
0.0
 42
0.0
 43
0.0
 44
0.0
 45
0.0
 46
0.0
 47
0.0
 48
0.0
 49
0.0
140
0.0
141
0.0
142
1.0
143
1.0
 70
  1712
 72
     0
 73
     0
 74
     0
  7

 75
     0
 76
     0
 77
     2
 78
   300
147
1.0
148
0.0
149
0.0
100
AcDbLayout
  1
Model
 70
     1
 71
     0
 10
0.0
 20
0.0
 11
12.0
 21
9.0
 12
0.0
 22
0.0
 32
0.0
 14
-443.6500923271763
 24
-324.9151527289684
 34
0.0
 15
-23.6500923271779
 25
-27.9151527289684
 35
0.0
146
0.0
 13
0.0
 23
0.0
 33
0.0
 16
1.0
 26
0.0
 36
0.0
 17
0.0
 27
1.0
 37
0.0
 76
     0
330
1F
331
29
  0
MATERIAL
  5
3D
102
{ACAD_REACTORS
330
3B
102
}
102
{ACAD_XDICTIONARY
360
38B
102
}
330
3B
100
AcDbMaterial
  1
ByBlock
  0
MATERIAL
  5
3C
102
{ACAD_REACTORS
330
3B
102
}
102
{ACAD_XDICTIONARY
360
389
102
}
330
3B
100
AcDbMaterial
  1
ByLayer
  0
MATERIAL
  5
3E
102
{ACAD_REACTORS
330
3B
102
}
102
{ACAD_XDICTIONARY
360
38D
102
}
330
3B
100
AcDbMaterial
  1
Global
  0
MLINESTYLE
  5
18
102
{ACAD_REACTORS
330
17
102
}
330
17
100
AcDbMlineStyle
  2
Standard
 70
     0
  3

 62
   256
 51
90.0
 52
90.0
 71
     2
 49
0.5
 62
   256
  6
BYLAYER
 49
-0.5
 62
   256
  6
BYLAYER
  0
ACDBPLACEHOLDER
  5
F
102
{ACAD_REACTORS
330
E
102
}
330
E
  0
VISUALSTYLE
  5
2F
102
{ACAD_REACTORS
330
2A
102
}
102
{ACAD_XDICTIONARY
360
371
102
}
330
2A
100
AcDbVisualStyle
  2
2dWireframe
 70
     4
 71
     0
 72
     2
 73
     0
 90
        0
 40
-0.6
 41
-30.0
 62
     5
 63
     7
421
 16777215
 74
     1
 91
        4
 64
     7
 65
   257
 75
     1
175
     1
 42
1.0
 92
        0
 66
   257
 43
1.0
 76
     1
 77
     6
 78
     2
 67
     7
 79
     5
170
     0
171
     0
290
     0
174
     0
 93
        1
 44
0.0
173
     0
291
     0
 45
0.0
1001
ACAD
1000
AcDbSavedByObjectVersion
1070
     0
  0
VISUALSTYLE
  5
31
102
{ACAD_REACTORS
330
2A
102
}
102
{ACAD_XDICTIONARY
360
375
102
}
330
2A
100
AcDbVisualStyle
  2
3D Hidden
 70
     6
 71
     1
 72
     2
 73
     2
 90
        0
 40
-0.6
 41
-30.0
 62
     5
 63
     7
421
 16777215
 74
     2
 91
        2
 64
     7
 65
   257
 75
     2
175
     1
 42
40.0
 92
        0
 66
   257
 43
1.0
 76
     1
 77
     6
 78
     2
 67
     7
 79
     3
170
     0
171
     0
290
     0
174
     0
 93
        1
 44
0.0
173
     0
291
     0
 45
0.0
1001
ACAD
1000
AcDbSavedByObjectVersion
1070
     0
  0
VISUALSTYLE
  5
30
102
{ACAD_REACTORS
330
2A
102
}
102
{ACAD_XDICTIONARY
360
373
102
}
330
2A
100
AcDbVisualStyle
  2
3dWireframe
 70
     5
 71
     0
 72
     2
 73
     0
 90
        0
 40
-0.6
 41
-30.0
 62
     5
 63
     7
421
 16777215
 74
     1
 91
        4
 64
     7
 65
   257
 75
     1
175
     1
 42
1.0
 92
        0
 66
   257
 43
1.0
 76
     1
 77
     6
 78
     2
 67
     7
 79
     5
170
     0
171
     0
290
     0
174
     0
 93
        1
 44
0.0
173
     0
291
     0
 45
0.0
1001
ACAD
1000
AcDbSavedByObjectVersion
1070
     0
  0
VISUALSTYLE
  5
32
102
{ACAD_REACTORS
330
2A
102
}
102
{ACAD_XDICTIONARY
360
377
102
}
330
2A
100
AcDbVisualStyle
  2
Basic
 70
     7
 71
     1
 72
     0
 73
     1
 90
        0
 40
-0.6
 41
-30.0
 62
     5
 63
     7
421
 16777215
 74
     0
 91
        4
 64
     7
 65
   257
 75
     1
175
     1
 42
1.0
 92
        8
 66
     7
 43
1.0
 76
     1
 77
     6
 78
     2
 67
     7
 79
     5
170
     0
171
     0
290
     0
174
     0
 93
        1
 44
0.0
173
     0
291
     1
 45
0.0
1001
ACAD
1000
AcDbSavedByObjectVersion
1070
     0
  0
VISUALSTYLE
  5
36
102
{ACAD_REACTORS
330
2A
102
}
102
{ACAD_XDICTIONARY
360
37F
102
}
330
2A
100
AcDbVisualStyle
  2
Brighten
 70
    12
 71
     2
 72
     2
 73
     0
 90
        0
 40
-0.6
 41
-30.0
 62
     5
 63
     7
421
 16777215
 74
     1
 91
        4
 64
     7
 65
   257
 75
     1
175
     1
 42
1.0
 92
        8
 66
     7
 43
1.0
 76
     1
 77
     6
 78
     2
 67
     7
 79
     5
170
     0
171
     0
290
     0
174
     0
 93
        1
 44
50.0
173
     0
291
     1
 45
0.0
1001
ACAD
1000
AcDbSavedByObjectVersion
1070
     0
  0
VISUALSTYLE
  5
3A
102
{ACAD_REACTORS
330
2A
102
}
102
{ACAD_XDICTIONARY
360
387
102
}
330
2A
100
AcDbVisualStyle
  2
ColorChange
 70
    16
 71
     2
 72
     2
 73
     3
 90
        0
 40
-0.6
 41
-30.0
 62
     5
 63
     8
421
  8421504
 74
     1
 91
        4
 64
     7
 65
   257
 75
     1
175
     1
 42
1.0
 92
        8
 66
     8
424
  8421504
 43
1.0
 76
     1
 77
     6
 78
     2
 67
     7
 79
     5
170
     0
171
     0
290
     0
174
     0
 93
        1
 44
0.0
173
     0
291
     1
 45
0.0
1001
ACAD
1000
AcDbSavedByObjectVersion
1070
     0
  0
VISUALSTYLE
  5
34
102
{ACAD_REACTORS
330
2A
102
}
102
{ACAD_XDICTIONARY
360
37B
102
}
330
2A
100
AcDbVisualStyle
  2
Conceptual
 70
     9
 71
     3
 72
     2
 73
     0
 90
        0
 40
-0.6
 41
-30.0
 62
     5
 63
     7
421
 16777215
 74
     2
 91
        2
 64
     7
 65
   257
 75
     1
175
     1
 42
40.0
 92
        8
 66
     7
 43
1.0
 76
     1
 77
     6
 78
     2
 67
     7
 79
     3
170
     0
171
     0
290
     0
174
     0
 93
        1
 44
0.0
173
     0
291
     0
 45
0.0
1001
ACAD
1000
AcDbSavedByObjectVersion
1070
     0
  0
VISUALSTYLE
  5
35
102
{ACAD_REACTORS
330
2A
102
}
102
{ACAD_XDICTIONARY
360
37D
102
}
330
2A
100
AcDbVisualStyle
  2
Dim
 70
    11
 71
     2
 72
     2
 73
     0
 90
        0
 40
-0.6
 41
-30.0
 62
     5
 63
     7
421
 16777215
 74
     1
 91
        4
 64
     7
 65
   257
 75
     1
175
     1
 42
1.0
 92
        8
 66
     7
 43
1.0
 76
     1
 77
     6
 78
     2
 67
     7
 79
     5
170
     0
171
     0
290
     0
174
     0
 93
        1
 44
-50.0
173
     0
291
     1
 45
0.0
1001
ACAD
1000
AcDbSavedByObjectVersion
1070
     0
  0
VISUALSTYLE
  5
39
102
{ACAD_REACTORS
330
2A
102
}
102
{ACAD_XDICTIONARY
360
385
102
}
330
2A
100
AcDbVisualStyle
  2
Facepattern
 70
    15
 71
     2
 72
     2
 73
     0
 90
        0
 40
-0.6
 41
-30.0
 62
     5
 63
     7
421
 16777215
 74
     1
 91
        4
 64
     7
 65
   257
 75
     1
175
     1
 42
1.0
 92
        8
 66
     7
 43
1.0
 76
     1
 77
     6
 78
     2
 67
     7
 79
     5
170
     0
171
     0
290
     0
174
     0
 93
        1
 44
0.0
173
     0
291
     1
 45
0.0
1001
ACAD
1000
AcDbSavedByObjectVersion
1070
     0
  0
VISUALSTYLE
  5
2B
102
{ACAD_REACTORS
330
2A
102
}
102
{ACAD_XDICTIONARY
360
369
102
}
330
2A
100
AcDbVisualStyle
  2
Flat
 70
     0
 71
     2
 72
     1
 73
     1
 90
        2
 40
-0.6
 41
30.0
 62
     5
 63
     7
421
 16777215
 74
     0
 91
        4
 64
     7
 65
   257
 75
     1
175
     1
 42
1.0
 92
        8
 66
     7
 43
1.0
 76
     1
 77
     6
 78
     2
 67
     7
 79
     5
170
     0
171
     0
290
     0
174
     0
 93
       13
 44
0.0
173
     0
291
     1
 45
0.0
1001
ACAD
1000
AcDbSavedByObjectVersion
1070
     0
  0
VISUALSTYLE
  5
2C
102
{ACAD_REACTORS
330
2A
102
}
102
{ACAD_XDICTIONARY
360
36B
102
}
330
2A
100
AcDbVisualStyle
  2
FlatWithEdges
 70
     1
 71
     2
 72
     1
 73
     1
 90
        2
 40
-0.6
 41
30.0
 62
     5
 63
     7
421
 16777215
 74
     1
 91
        4
 64
     7
 65
   257
 75
     1
175
     1
 42
1.0
 92
        0
 66
   257
 43
1.0
 76
     1
 77
     6
 78
     2
 67
     7
 79
     5
170
     0
171
     0
290
     0
174
     0
 93
       13
 44
0.0
173
     0
291
     1
 45
0.0
1001
ACAD
1000
AcDbSavedByObjectVersion
1070
     0
  0
VISUALSTYLE
  5
2D
102
{ACAD_REACTORS
330
2A
102
}
102
{ACAD_XDICTIONARY
360
36D
102
}
330
2A
100
AcDbVisualStyle
  2
Gouraud
 70
     2
 71
     2
 72
     2
 73
     1
 90
        2
 40
-0.6
 41
30.0
 62
     5
 63
     7
421
 16777215
 74
     0
 91
        4
 64
     7
 65
   257
 75
     1
175
     1
 42
1.0
 92
        0
 66
     7
 43
1.0
 76
     1
 77
     6
 78
     2
 67
     7
 79
     5
170
     0
171
     0
290
     0
174
     0
 93
       13
 44
0.0
173
     0
291
     1
 45
0.0
1001
ACAD
1000
AcDbSavedByObjectVersion
1070
     0
  0
VISUALSTYLE
  5
2E
102
{ACAD_REACTORS
330
2A
102
}
102
{ACAD_XDICTIONARY
360
36F
102
}
330
2A
100
AcDbVisualStyle
  2
GouraudWithEdges
 70
     3
 71
     2
 72
     2
 73
     1
 90
        2
 40
-0.6
 41
30.0
 62
     5
 63
     7
421
 16777215
 74
     1
 91
        4
 64
     7
 65
   257
 75
     1
175
     1
 42
1.0
 92
        0
 66
   257
 43
1.0
 76
     1
 77
     6
 78
     2
 67
     7
 79
     5
170
     0
171
     0
290
     0
174
     0
 93
       13
 44
0.0
173
     0
291
     1
 45
0.0
1001
ACAD
1000
AcDbSavedByObjectVersion
1070
     0
  0
VISUALSTYLE
  5
38
102
{ACAD_REACTORS
330
2A
102
}
102
{ACAD_XDICTIONARY
360
383
102
}
330
2A
100
AcDbVisualStyle
  2
Linepattern
 70
    14
 71
     2
 72
     2
 73
     0
 90
        0
 40
-0.6
 41
-30.0
 62
     5
 63
     7
421
 16777215
 74
     1
 91
        4
 64
     7
 65
   257
 75
     7
175
     7
 42
1.0
 92
        8
 66
     7
 43
1.0
 76
     1
 77
     6
 78
     2
 67
     7
 79
     5
170
     0
171
     0
290
     0
174
     0
 93
        1
 44
0.0
173
     0
291
     1
 45
0.0
1001
ACAD
1000
AcDbSavedByObjectVersion
1070
     0
  0
VISUALSTYLE
  5
33
102
{ACAD_REACTORS
330
2A
102
}
102
{ACAD_XDICTIONARY
360
379
102
}
330
2A
100
AcDbVisualStyle
  2
Realistic
 70
     8
 71
     2
 72
     2
 73
     0
 90
        0
 40
-0.6
 41
-30.0
 62
     5
 63
     7
421
 16777215
 74
     1
 91
        0
 64
     7
 65
   257
 75
     1
175
     1
 42
1.0
 92
        8
 66
     8
424
  7895160
 43
1.0
 76
     1
 77
     6
 78
     2
 67
     7
 79
     5
170
     0
171
     0
290
     0
174
     0
 93
       13
 44
0.0
173
     0
291
     0
 45
0.0
1001
ACAD
1000
AcDbSavedByObjectVersion
1070
     0
  0
VISUALSTYLE
  5
37
102
{ACAD_REACTORS
330
2A
102
}
102
{ACAD_XDICTIONARY
360
381
102
}
330
2A
100
AcDbVisualStyle
  2
Thicken
 70
    13
 71
     2
 72
     2
 73
     0
 90
        0
 40
-0.6
 41
-30.0
 62
     5
 63
     7
421
 16777215
 74
     1
 91
        4
 64
     7
 65
   257
 75
     1
175
     1
 42
1.0
 92
       12
 66
     7
 43
1.0
 76
     1
 77
     6
 78
     2
 67
     7
 79
     5
170
     0
171
     0
290
     0
174
     0
 93
        1
 44
0.0
173
     0
291
     1
 45
0.0
1001
ACAD
1000
AcDbSavedByObjectVersion
1070
     0
  0
DICTIONARY
  5
38B
330
3D
100
AcDbDictionary
280
     1
281
     1
  3
ACAD_XREC_ROUNDTRIP
360
38C
  0
DICTIONARY
  5
389
330
3C
100
AcDbDictionary
280
     1
281
     1
  3
ACAD_XREC_ROUNDTRIP
360
38A
  0
DICTIONARY
  5
38D
330
3E
100
AcDbDictionary
280
     1
281
     1
  3
ACAD_XREC_ROUNDTRIP
360
38E
  0
DICTIONARY
  5
371
330
2F
100
AcDbDictionary
280
     1
281
     1
  3
ACAD_XREC_ROUNDTRIP
360
372
  0
DICTIONARY
  5
375
330
31
100
AcDbDictionary
280
     1
281
     1
  3
ACAD_XREC_ROUNDTRIP
360
376
  0
DICTIONARY
  5
373
330
30
100
AcDbDictionary
280
     1
281
     1
  3
ACAD_XREC_ROUNDTRIP
360
374
  0
DICTIONARY
  5
377
330
32
100
AcDbDictionary
280
     1
281
     1
  3
ACAD_XREC_ROUNDTRIP
360
378
  0
DICTIONARY
  5
37F
330
36
100
AcDbDictionary
280
     1
281
     1
  3
ACAD_XREC_ROUNDTRIP
360
380
  0
DICTIONARY
  5
387
330
3A
100
AcDbDictionary
280
     1
281
     1
  3
ACAD_XREC_ROUNDTRIP
360
388
  0
DICTIONARY
  5
37B
330
34
100
AcDbDictionary
280
     1
281
     1
  3
ACAD_XREC_ROUNDTRIP
360
37C
  0
DICTIONARY
  5
37D
330
35
100
AcDbDictionary
280
     1
281
     1
  3
ACAD_XREC_ROUNDTRIP
360
37E
  0
DICTIONARY
  5
385
330
39
100
AcDbDictionary
280
     1
281
     1
  3
ACAD_XREC_ROUNDTRIP
360
386
  0
DICTIONARY
  5
369
330
2B
100
AcDbDictionary
280
     1
281
     1
  3
ACAD_XREC_ROUNDTRIP
360
36A
  0
DICTIONARY
  5
36B
330
2C
100
AcDbDictionary
280
     1
281
     1
  3
ACAD_XREC_ROUNDTRIP
360
36C
  0
DICTIONARY
  5
36D
330
2D
100
AcDbDictionary
280
     1
281
     1
  3
ACAD_XREC_ROUNDTRIP
360
36E
  0
DICTIONARY
  5
36F
330
2E
100
AcDbDictionary
280
     1
281
     1
  3
ACAD_XREC_ROUNDTRIP
360
370
  0
DICTIONARY
  5
383
330
38
100
AcDbDictionary
280
     1
281
     1
  3
ACAD_XREC_ROUNDTRIP
360
384
  0
DICTIONARY
  5
379
330
33
100
AcDbDictionary
280
     1
281
     1
  3
ACAD_XREC_ROUNDTRIP
360
37A
  0
DICTIONARY
  5
381
330
37
100
AcDbDictionary
280
     1
281
     1
  3
ACAD_XREC_ROUNDTRIP
360
382
  0
XRECORD
  5
38C
102
{ACAD_REACTORS
330
38B
102
}
330
38B
100
AcDbXrecord
280
     1
102
MATERIAL
148
0.0
149
0.0
149
0.0
 93
        0
 94
      127
282
     0
 72
     1
 77
     1
171
     1
175
     1
179
     1
273
     0
  0
XRECORD
  5
38A
102
{ACAD_REACTORS
330
389
102
}
330
389
100
AcDbXrecord
280
     1
102
MATERIAL
148
0.0
149
0.0
149
0.0
 93
        0
 94
      127
282
     0
 72
     1
 77
     1
171
     1
175
     1
179
     1
273
     0
  0
XRECORD
  5
38E
102
{ACAD_REACTORS
330
38D
102
}
330
38D
100
AcDbXrecord
280
     1
102
MATERIAL
148
0.0
149
0.0
149
0.0
 93
        0
 94
      127
282
     0
 72
     1
 77
     1
171
     1
175
     1
179
     1
273
     0
  0
XRECORD
  5
372
102
{ACAD_REACTORS
330
371
102
}
330
371
100
AcDbXrecord
280
     1
102
RTVSPropertyOp0
 70
     1
102
RTVSPropertyOp1
 70
     1
102
RTVSPropertyOp2
 70
     1
102
RTVSPropertyOp3
 70
     1
102
RTVSPropertyOp4
 70
     1
102
RTVSPropertyOp5
 70
     1
102
RTVSPropertyOp6
 70
     1
102
RTVSPropertyOp7
 70
     1
102
RTVSPropertyOp8
 70
     1
102
RTVSPropertyOp9
 70
     1
102
RTVSPropertyOp10
 70
     1
102
RTVSPropertyOp11
 70
     1
102
RTVSPropertyOp12
 70
     1
102
RTVSPropertyOp13
 70
     1
102
RTVSPropertyOp14
 70
     1
102
RTVSPropertyOp15
 70
     1
102
RTVSPropertyOp16
 70
     1
102
RTVSPropertyOp17
 70
     1
102
RTVSPropertyOp18
 70
     1
102
RTVSPropertyOp19
 70
     1
102
RTVSPropertyOp20
 70
     1
102
RTVSPropertyOp21
 70
     1
102
RTVSPropertyOp22
 70
     1
102
RTVSPropertyOp23
 70
     1
102
RTVSPropertyOp24
 70
     1
102
RTVSPropertyOp25
 70
     1
102
RTVSPropertyOp26
 70
     1
102
RTVSPropertyOp27
 70
     1
102
RTVSPropertyOp28
 70
     1
102
RTVSPropertyOp29
 70
     1
102
RTVSPropertyOp30
 70
     1
102
RTVSPropertyOp31
 70
     1
102
RTVSPropertyOp32
 70
     1
  0
XRECORD
  5
376
102
{ACAD_REACTORS
330
375
102
}
330
375
100
AcDbXrecord
280
     1
102
RTVSPropertyOp0
 70
     1
102
RTVSPropertyOp1
 70
     1
102
RTVSPropertyOp2
 70
     1
102
RTVSPropertyOp3
 70
     1
102
RTVSPropertyOp4
 70
     1
102
RTVSPropertyOp5
 70
     1
102
RTVSPropertyOp6
 70
     1
102
RTVSPropertyOp7
 70
     1
102
RTVSPropertyOp8
 70
     1
102
RTVSPropertyOp9
 70
     1
102
RTVSPropertyOp10
 70
     1
102
RTVSPropertyOp11
 70
     1
102
RTVSPropertyOp12
 70
     1
102
RTVSPropertyOp13
 70
     1
102
RTVSPropertyOp14
 70
     1
102
RTVSPropertyOp15
 70
     1
102
RTVSPropertyOp16
 70
     1
102
RTVSPropertyOp17
 70
     1
102
RTVSPropertyOp18
 70
     1
102
RTVSPropertyOp19
 70
     1
102
RTVSPropertyOp20
 70
     1
102
RTVSPropertyOp21
 70
     1
102
RTVSPropertyOp22
 70
     1
102
RTVSPropertyOp23
 70
     1
102
RTVSPropertyOp24
 70
     1
102
RTVSPropertyOp25
 70
     1
102
RTVSPropertyOp26
 70
     1
102
RTVSPropertyOp27
 70
     1
102
RTVSPropertyOp28
 70
     1
102
RTVSPropertyOp29
 70
     1
102
RTVSPropertyOp30
 70
     1
102
RTVSPropertyOp31
 70
     1
102
RTVSPropertyOp32
 70
     1
  0
XRECORD
  5
374
102
{ACAD_REACTORS
330
373
102
}
330
373
100
AcDbXrecord
280
     1
102
RTVSPropertyOp0
 70
     1
102
RTVSPropertyOp1
 70
     1
102
RTVSPropertyOp2
 70
     1
102
RTVSPropertyOp3
 70
     1
102
RTVSPropertyOp4
 70
     1
102
RTVSPropertyOp5
 70
     1
102
RTVSPropertyOp6
 70
     1
102
RTVSPropertyOp7
 70
     1
102
RTVSPropertyOp8
 70
     1
102
RTVSPropertyOp9
 70
     1
102
RTVSPropertyOp10
 70
     1
102
RTVSPropertyOp11
 70
     1
102
RTVSPropertyOp12
 70
     1
102
RTVSPropertyOp13
 70
     1
102
RTVSPropertyOp14
 70
     1
102
RTVSPropertyOp15
 70
     1
102
RTVSPropertyOp16
 70
     1
102
RTVSPropertyOp17
 70
     1
102
RTVSPropertyOp18
 70
     1
102
RTVSPropertyOp19
 70
     1
102
RTVSPropertyOp20
 70
     1
102
RTVSPropertyOp21
 70
     1
102
RTVSPropertyOp22
 70
     1
102
RTVSPropertyOp23
 70
     1
102
RTVSPropertyOp24
 70
     1
102
RTVSPropertyOp25
 70
     1
102
RTVSPropertyOp26
 70
     1
102
RTVSPropertyOp27
 70
     1
102
RTVSPropertyOp28
 70
     1
102
RTVSPropertyOp29
 70
     1
102
RTVSPropertyOp30
 70
     1
102
RTVSPropertyOp31
 70
     1
102
RTVSPropertyOp32
 70
     1
  0
XRECORD
  5
378
102
{ACAD_REACTORS
330
377
102
}
330
377
100
AcDbXrecord
280
     1
102
RTVSPropertyOp0
 70
     1
102
RTVSPropertyOp1
 70
     1
102
RTVSPropertyOp2
 70
     1
102
RTVSPropertyOp3
 70
     1
102
RTVSPropertyOp4
 70
     1
102
RTVSPropertyOp5
 70
     1
102
RTVSPropertyOp6
 70
     1
102
RTVSPropertyOp7
 70
     1
102
RTVSPropertyOp8
 70
     1
102
RTVSPropertyOp9
 70
     1
102
RTVSPropertyOp10
 70
     1
102
RTVSPropertyOp11
 70
     1
102
RTVSPropertyOp12
 70
     1
102
RTVSPropertyOp13
 70
     1
102
RTVSPropertyOp14
 70
     1
102
RTVSPropertyOp15
 70
     1
102
RTVSPropertyOp16
 70
     1
102
RTVSPropertyOp17
 70
     1
102
RTVSPropertyOp18
 70
     1
102
RTVSPropertyOp19
 70
     1
102
RTVSPropertyOp20
 70
     1
102
RTVSPropertyOp21
 70
     1
102
RTVSPropertyOp22
 70
     1
102
RTVSPropertyOp23
 70
     1
102
RTVSPropertyOp24
 70
     1
102
RTVSPropertyOp25
 70
     1
102
RTVSPropertyOp26
 70
     1
102
RTVSPropertyOp27
 70
     1
102
RTVSPropertyOp28
 70
     1
102
RTVSPropertyOp29
 70
     1
102
RTVSPropertyOp30
 70
     1
102
RTVSPropertyOp31
 70
     1
102
RTVSPropertyOp32
 70
     1
  0
XRECORD
  5
380
102
{ACAD_REACTORS
330
37F
102
}
330
37F
100
AcDbXrecord
280
     1
102
RTVSPropertyOp0
 70
     1
102
RTVSPropertyOp1
 70
     1
102
RTVSPropertyOp2
 70
     1
102
RTVSPropertyOp3
 70
     1
102
RTVSPropertyOp4
 70
     1
102
RTVSPropertyOp5
 70
     1
102
RTVSPropertyOp6
 70
     1
102
RTVSPropertyOp7
 70
     1
102
RTVSPropertyOp8
 70
     1
102
RTVSPropertyOp9
 70
     1
102
RTVSPropertyOp10
 70
     1
102
RTVSPropertyOp11
 70
     1
102
RTVSPropertyOp12
 70
     1
102
RTVSPropertyOp13
 70
     1
102
RTVSPropertyOp14
 70
     1
102
RTVSPropertyOp15
 70
     1
102
RTVSPropertyOp16
 70
     1
102
RTVSPropertyOp17
 70
     1
102
RTVSPropertyOp18
 70
     1
102
RTVSPropertyOp19
 70
     1
102
RTVSPropertyOp20
 70
     1
102
RTVSPropertyOp21
 70
     1
102
RTVSPropertyOp22
 70
     1
102
RTVSPropertyOp23
 70
     1
102
RTVSPropertyOp24
 70
     1
102
RTVSPropertyOp25
 70
     1
102
RTVSPropertyOp26
 70
     1
102
RTVSPropertyOp27
 70
     1
102
RTVSPropertyOp28
 70
     1
102
RTVSPropertyOp29
 70
     1
102
RTVSPropertyOp30
 70
     1
102
RTVSPropertyOp31
 70
     1
102
RTVSPropertyOp32
 70
     1
  0
XRECORD
  5
388
102
{ACAD_REACTORS
330
387
102
}
330
387
100
AcDbXrecord
280
     1
102
RTVSPropertyOp0
 70
     1
102
RTVSPropertyOp1
 70
     1
102
RTVSPropertyOp2
 70
     1
102
RTVSPropertyOp3
 70
     1
102
RTVSPropertyOp4
 70
     1
102
RTVSPropertyOp5
 70
     1
102
RTVSPropertyOp6
 70
     1
102
RTVSPropertyOp7
 70
     1
102
RTVSPropertyOp8
 70
     1
102
RTVSPropertyOp9
 70
     1
102
RTVSPropertyOp10
 70
     1
102
RTVSPropertyOp11
 70
     1
102
RTVSPropertyOp12
 70
     1
102
RTVSPropertyOp13
 70
     1
102
RTVSPropertyOp14
 70
     1
102
RTVSPropertyOp15
 70
     1
102
RTVSPropertyOp16
 70
     1
102
RTVSPropertyOp17
 70
     1
102
RTVSPropertyOp18
 70
     1
102
RTVSPropertyOp19
 70
     1
102
RTVSPropertyOp20
 70
     1
102
RTVSPropertyOp21
 70
     1
102
RTVSPropertyOp22
 70
     1
102
RTVSPropertyOp23
 70
     1
102
RTVSPropertyOp24
 70
     1
102
RTVSPropertyOp25
 70
     1
102
RTVSPropertyOp26
 70
     1
102
RTVSPropertyOp27
 70
     1
102
RTVSPropertyOp28
 70
     1
102
RTVSPropertyOp29
 70
     1
102
RTVSPropertyOp30
 70
     1
102
RTVSPropertyOp31
 70
     1
102
RTVSPropertyOp32
 70
     1
  0
XRECORD
  5
37C
102
{ACAD_REACTORS
330
37B
102
}
330
37B
100
AcDbXrecord
280
     1
102
RTVSPropertyOp0
 70
     1
102
RTVSPropertyOp1
 70
     1
102
RTVSPropertyOp2
 70
     1
102
RTVSPropertyOp3
 70
     1
102
RTVSPropertyOp4
 70
     1
102
RTVSPropertyOp5
 70
     1
102
RTVSPropertyOp6
 70
     1
102
RTVSPropertyOp7
 70
     1
102
RTVSPropertyOp8
 70
     1
102
RTVSPropertyOp9
 70
     1
102
RTVSPropertyOp10
 70
     1
102
RTVSPropertyOp11
 70
     1
102
RTVSPropertyOp12
 70
     1
102
RTVSPropertyOp13
 70
     1
102
RTVSPropertyOp14
 70
     1
102
RTVSPropertyOp15
 70
     1
102
RTVSPropertyOp16
 70
     1
102
RTVSPropertyOp17
 70
     1
102
RTVSPropertyOp18
 70
     1
102
RTVSPropertyOp19
 70
     1
102
RTVSPropertyOp20
 70
     1
102
RTVSPropertyOp21
 70
     1
102
RTVSPropertyOp22
 70
     1
102
RTVSPropertyOp23
 70
     1
102
RTVSPropertyOp24
 70
     1
102
RTVSPropertyOp25
 70
     1
102
RTVSPropertyOp26
 70
     1
102
RTVSPropertyOp27
 70
     1
102
RTVSPropertyOp28
 70
     1
102
RTVSPropertyOp29
 70
     1
102
RTVSPropertyOp30
 70
     1
102
RTVSPropertyOp31
 70
     1
102
RTVSPropertyOp32
 70
     1
  0
XRECORD
  5
37E
102
{ACAD_REACTORS
330
37D
102
}
330
37D
100
AcDbXrecord
280
     1
102
RTVSPropertyOp0
 70
     1
102
RTVSPropertyOp1
 70
     1
102
RTVSPropertyOp2
 70
     1
102
RTVSPropertyOp3
 70
     1
102
RTVSPropertyOp4
 70
     1
102
RTVSPropertyOp5
 70
     1
102
RTVSPropertyOp6
 70
     1
102
RTVSPropertyOp7
 70
     1
102
RTVSPropertyOp8
 70
     1
102
RTVSPropertyOp9
 70
     1
102
RTVSPropertyOp10
 70
     1
102
RTVSPropertyOp11
 70
     1
102
RTVSPropertyOp12
 70
     1
102
RTVSPropertyOp13
 70
     1
102
RTVSPropertyOp14
 70
     1
102
RTVSPropertyOp15
 70
     1
102
RTVSPropertyOp16
 70
     1
102
RTVSPropertyOp17
 70
     1
102
RTVSPropertyOp18
 70
     1
102
RTVSPropertyOp19
 70
     1
102
RTVSPropertyOp20
 70
     1
102
RTVSPropertyOp21
 70
     1
102
RTVSPropertyOp22
 70
     1
102
RTVSPropertyOp23
 70
     1
102
RTVSPropertyOp24
 70
     1
102
RTVSPropertyOp25
 70
     1
102
RTVSPropertyOp26
 70
     1
102
RTVSPropertyOp27
 70
     1
102
RTVSPropertyOp28
 70
     1
102
RTVSPropertyOp29
 70
     1
102
RTVSPropertyOp30
 70
     1
102
RTVSPropertyOp31
 70
     1
102
RTVSPropertyOp32
 70
     1
  0
XRECORD
  5
386
102
{ACAD_REACTORS
330
385
102
}
330
385
100
AcDbXrecord
280
     1
102
RTVSPropertyOp0
 70
     1
102
RTVSPropertyOp1
 70
     1
102
RTVSPropertyOp2
 70
     1
102
RTVSPropertyOp3
 70
     1
102
RTVSPropertyOp4
 70
     1
102
RTVSPropertyOp5
 70
     1
102
RTVSPropertyOp6
 70
     1
102
RTVSPropertyOp7
 70
     1
102
RTVSPropertyOp8
 70
     1
102
RTVSPropertyOp9
 70
     1
102
RTVSPropertyOp10
 70
     1
102
RTVSPropertyOp11
 70
     1
102
RTVSPropertyOp12
 70
     1
102
RTVSPropertyOp13
 70
     1
102
RTVSPropertyOp14
 70
     1
102
RTVSPropertyOp15
 70
     1
102
RTVSPropertyOp16
 70
     1
102
RTVSPropertyOp17
 70
     1
102
RTVSPropertyOp18
 70
     1
102
RTVSPropertyOp19
 70
     1
102
RTVSPropertyOp20
 70
     1
102
RTVSPropertyOp21
 70
     1
102
RTVSPropertyOp22
 70
     1
102
RTVSPropertyOp23
 70
     1
102
RTVSPropertyOp24
 70
     1
102
RTVSPropertyOp25
 70
     1
102
RTVSPropertyOp26
 70
     1
102
RTVSPropertyOp27
 70
     1
102
RTVSPropertyOp28
 70
     1
102
RTVSPropertyOp29
 70
     1
102
RTVSPropertyOp30
 70
     1
102
RTVSPropertyOp31
 70
     1
102
RTVSPropertyOp32
 70
     1
  0
XRECORD
  5
36A
102
{ACAD_REACTORS
330
369
102
}
330
369
100
AcDbXrecord
280
     1
102
RTVSPropertyOp0
 70
     1
102
RTVSPropertyOp1
 70
     1
102
RTVSPropertyOp2
 70
     1
102
RTVSPropertyOp3
 70
     1
102
RTVSPropertyOp4
 70
     1
102
RTVSPropertyOp5
 70
     1
102
RTVSPropertyOp6
 70
     1
102
RTVSPropertyOp7
 70
     1
102
RTVSPropertyOp8
 70
     1
102
RTVSPropertyOp9
 70
     1
102
RTVSPropertyOp10
 70
     1
102
RTVSPropertyOp11
 70
     1
102
RTVSPropertyOp12
 70
     1
102
RTVSPropertyOp13
 70
     1
102
RTVSPropertyOp14
 70
     1
102
RTVSPropertyOp15
 70
     1
102
RTVSPropertyOp16
 70
     1
102
RTVSPropertyOp17
 70
     1
102
RTVSPropertyOp18
 70
     1
102
RTVSPropertyOp19
 70
     1
102
RTVSPropertyOp20
 70
     1
102
RTVSPropertyOp21
 70
     1
102
RTVSPropertyOp22
 70
     1
102
RTVSPropertyOp23
 70
     1
102
RTVSPropertyOp24
 70
     1
102
RTVSPropertyOp25
 70
     1
102
RTVSPropertyOp26
 70
     1
102
RTVSPropertyOp27
 70
     1
102
RTVSPropertyOp28
 70
     1
102
RTVSPropertyOp29
 70
     1
102
RTVSPropertyOp30
 70
     1
102
RTVSPropertyOp31
 70
     1
102
RTVSPropertyOp32
 70
     1
  0
XRECORD
  5
36C
102
{ACAD_REACTORS
330
36B
102
}
330
36B
100
AcDbXrecord
280
     1
102
RTVSPropertyOp0
 70
     1
102
RTVSPropertyOp1
 70
     1
102
RTVSPropertyOp2
 70
     1
102
RTVSPropertyOp3
 70
     1
102
RTVSPropertyOp4
 70
     1
102
RTVSPropertyOp5
 70
     1
102
RTVSPropertyOp6
 70
     1
102
RTVSPropertyOp7
 70
     1
102
RTVSPropertyOp8
 70
     1
102
RTVSPropertyOp9
 70
     1
102
RTVSPropertyOp10
 70
     1
102
RTVSPropertyOp11
 70
     1
102
RTVSPropertyOp12
 70
     1
102
RTVSPropertyOp13
 70
     1
102
RTVSPropertyOp14
 70
     1
102
RTVSPropertyOp15
 70
     1
102
RTVSPropertyOp16
 70
     1
102
RTVSPropertyOp17
 70
     1
102
RTVSPropertyOp18
 70
     1
102
RTVSPropertyOp19
 70
     1
102
RTVSPropertyOp20
 70
     1
102
RTVSPropertyOp21
 70
     1
102
RTVSPropertyOp22
 70
     1
102
RTVSPropertyOp23
 70
     1
102
RTVSPropertyOp24
 70
     1
102
RTVSPropertyOp25
 70
     1
102
RTVSPropertyOp26
 70
     1
102
RTVSPropertyOp27
 70
     1
102
RTVSPropertyOp28
 70
     1
102
RTVSPropertyOp29
 70
     1
102
RTVSPropertyOp30
 70
     1
102
RTVSPropertyOp31
 70
     1
102
RTVSPropertyOp32
 70
     1
  0
XRECORD
  5
36E
102
{ACAD_REACTORS
330
36D
102
}
330
36D
100
AcDbXrecord
280
     1
102
RTVSPropertyOp0
 70
     1
102
RTVSPropertyOp1
 70
     1
102
RTVSPropertyOp2
 70
     1
102
RTVSPropertyOp3
 70
     1
102
RTVSPropertyOp4
 70
     1
102
RTVSPropertyOp5
 70
     1
102
RTVSPropertyOp6
 70
     1
102
RTVSPropertyOp7
 70
     1
102
RTVSPropertyOp8
 70
     1
102
RTVSPropertyOp9
 70
     1
102
RTVSPropertyOp10
 70
     1
102
RTVSPropertyOp11
 70
     1
102
RTVSPropertyOp12
 70
     1
102
RTVSPropertyOp13
 70
     1
102
RTVSPropertyOp14
 70
     1
102
RTVSPropertyOp15
 70
     1
102
RTVSPropertyOp16
 70
     1
102
RTVSPropertyOp17
 70
     1
102
RTVSPropertyOp18
 70
     1
102
RTVSPropertyOp19
 70
     1
102
RTVSPropertyOp20
 70
     1
102
RTVSPropertyOp21
 70
     1
102
RTVSPropertyOp22
 70
     1
102
RTVSPropertyOp23
 70
     1
102
RTVSPropertyOp24
 70
     1
102
RTVSPropertyOp25
 70
     1
102
RTVSPropertyOp26
 70
     1
102
RTVSPropertyOp27
 70
     1
102
RTVSPropertyOp28
 70
     1
102
RTVSPropertyOp29
 70
     1
102
RTVSPropertyOp30
 70
     1
102
RTVSPropertyOp31
 70
     1
102
RTVSPropertyOp32
 70
     1
  0
XRECORD
  5
370
102
{ACAD_REACTORS
330
36F
102
}
330
36F
100
AcDbXrecord
280
     1
102
RTVSPropertyOp0
 70
     1
102
RTVSPropertyOp1
 70
     1
102
RTVSPropertyOp2
 70
     1
102
RTVSPropertyOp3
 70
     1
102
RTVSPropertyOp4
 70
     1
102
RTVSPropertyOp5
 70
     1
102
RTVSPropertyOp6
 70
     1
102
RTVSPropertyOp7
 70
     1
102
RTVSPropertyOp8
 70
     1
102
RTVSPropertyOp9
 70
     1
102
RTVSPropertyOp10
 70
     1
102
RTVSPropertyOp11
 70
     1
102
RTVSPropertyOp12
 70
     1
102
RTVSPropertyOp13
 70
     1
102
RTVSPropertyOp14
 70
     1
102
RTVSPropertyOp15
 70
     1
102
RTVSPropertyOp16
 70
     1
102
RTVSPropertyOp17
 70
     1
102
RTVSPropertyOp18
 70
     1
102
RTVSPropertyOp19
 70
     1
102
RTVSPropertyOp20
 70
     1
102
RTVSPropertyOp21
 70
     1
102
RTVSPropertyOp22
 70
     1
102
RTVSPropertyOp23
 70
     1
102
RTVSPropertyOp24
 70
     1
102
RTVSPropertyOp25
 70
     1
102
RTVSPropertyOp26
 70
     1
102
RTVSPropertyOp27
 70
     1
102
RTVSPropertyOp28
 70
     1
102
RTVSPropertyOp29
 70
     1
102
RTVSPropertyOp30
 70
     1
102
RTVSPropertyOp31
 70
     1
102
RTVSPropertyOp32
 70
     1
  0
XRECORD
  5
384
102
{ACAD_REACTORS
330
383
102
}
330
383
100
AcDbXrecord
280
     1
102
RTVSPropertyOp0
 70
     1
102
RTVSPropertyOp1
 70
     1
102
RTVSPropertyOp2
 70
     1
102
RTVSPropertyOp3
 70
     1
102
RTVSPropertyOp4
 70
     1
102
RTVSPropertyOp5
 70
     1
102
RTVSPropertyOp6
 70
     1
102
RTVSPropertyOp7
 70
     1
102
RTVSPropertyOp8
 70
     1
102
RTVSPropertyOp9
 70
     1
102
RTVSPropertyOp10
 70
     1
102
RTVSPropertyOp11
 70
     1
102
RTVSPropertyOp12
 70
     1
102
RTVSPropertyOp13
 70
     1
102
RTVSPropertyOp14
 70
     1
102
RTVSPropertyOp15
 70
     1
102
RTVSPropertyOp16
 70
     1
102
RTVSPropertyOp17
 70
     1
102
RTVSPropertyOp18
 70
     1
102
RTVSPropertyOp19
 70
     1
102
RTVSPropertyOp20
 70
     1
102
RTVSPropertyOp21
 70
     1
102
RTVSPropertyOp22
 70
     1
102
RTVSPropertyOp23
 70
     1
102
RTVSPropertyOp24
 70
     1
102
RTVSPropertyOp25
 70
     1
102
RTVSPropertyOp26
 70
     1
102
RTVSPropertyOp27
 70
     1
102
RTVSPropertyOp28
 70
     1
102
RTVSPropertyOp29
 70
     1
102
RTVSPropertyOp30
 70
     1
102
RTVSPropertyOp31
 70
     1
102
RTVSPropertyOp32
 70
     1
  0
XRECORD
  5
37A
102
{ACAD_REACTORS
330
379
102
}
330
379
100
AcDbXrecord
280
     1
102
RTVSPropertyOp0
 70
     1
102
RTVSPropertyOp1
 70
     1
102
RTVSPropertyOp2
 70
     1
102
RTVSPropertyOp3
 70
     1
102
RTVSPropertyOp4
 70
     1
102
RTVSPropertyOp5
 70
     1
102
RTVSPropertyOp6
 70
     1
102
RTVSPropertyOp7
 70
     1
102
RTVSPropertyOp8
 70
     1
102
RTVSPropertyOp9
 70
     1
102
RTVSPropertyOp10
 70
     1
102
RTVSPropertyOp11
 70
     1
102
RTVSPropertyOp12
 70
     1
102
RTVSPropertyOp13
 70
     1
102
RTVSPropertyOp14
 70
     1
102
RTVSPropertyOp15
 70
     1
102
RTVSPropertyOp16
 70
     1
102
RTVSPropertyOp17
 70
     1
102
RTVSPropertyOp18
 70
     1
102
RTVSPropertyOp19
 70
     1
102
RTVSPropertyOp20
 70
     1
102
RTVSPropertyOp21
 70
     1
102
RTVSPropertyOp22
 70
     1
102
RTVSPropertyOp23
 70
     1
102
RTVSPropertyOp24
 70
     1
102
RTVSPropertyOp25
 70
     1
102
RTVSPropertyOp26
 70
     1
102
RTVSPropertyOp27
 70
     1
102
RTVSPropertyOp28
 70
     1
102
RTVSPropertyOp29
 70
     1
102
RTVSPropertyOp30
 70
     1
102
RTVSPropertyOp31
 70
     1
102
RTVSPropertyOp32
 70
     1
  0
XRECORD
  5
382
102
{ACAD_REACTORS
330
381
102
}
330
381
100
AcDbXrecord
280
     1
102
RTVSPropertyOp0
 70
     1
102
RTVSPropertyOp1
 70
     1
102
RTVSPropertyOp2
 70
     1
102
RTVSPropertyOp3
 70
     1
102
RTVSPropertyOp4
 70
     1
102
RTVSPropertyOp5
 70
     1
102
RTVSPropertyOp6
 70
     1
102
RTVSPropertyOp7
 70
     1
102
RTVSPropertyOp8
 70
     1
102
RTVSPropertyOp9
 70
     1
102
RTVSPropertyOp10
 70
     1
102
RTVSPropertyOp11
 70
     1
102
RTVSPropertyOp12
 70
     1
102
RTVSPropertyOp13
 70
     1
102
RTVSPropertyOp14
 70
     1
102
RTVSPropertyOp15
 70
     1
102
RTVSPropertyOp16
 70
     1
102
RTVSPropertyOp17
 70
     1
102
RTVSPropertyOp18
 70
     1
102
RTVSPropertyOp19
 70
     1
102
RTVSPropertyOp20
 70
     1
102
RTVSPropertyOp21
 70
     1
102
RTVSPropertyOp22
 70
     1
102
RTVSPropertyOp23
 70
     1
102
RTVSPropertyOp24
 70
     1
102
RTVSPropertyOp25
 70
     1
102
RTVSPropertyOp26
 70
     1
102
RTVSPropertyOp27
 70
     1
102
RTVSPropertyOp28
 70
     1
102
RTVSPropertyOp29
 70
     1
102
RTVSPropertyOp30
 70
     1
102
RTVSPropertyOp31
 70
     1
102
RTVSPropertyOp32
 70
     1
  0
ENDSEC
  0
EOF
