  0
SECTION
  2
HEADER
  9
$ACADVER
  1
AC1018
  9
$ACADMAINTVER
 70
     0
  9
$DWGCODEPAGE
  3
ANSI_1252
  9
$INSBASE
 10
0.0
 20
0.0
 30
0.0
  9
$EXTMIN
 10
-415.499999999989
 20
-267.0000000000051
 30
0.0
  9
$EXTMAX
 10
-118.4999999999909
 20
-57.000000000005
 30
0.0
  9
$LIMMIN
 10
0.0
 20
0.0
  9
$LIMMAX
 10
12.0
 20
9.0
  9
$ORTHOMODE
 70
     0
  9
$REGENMODE
 70
     1
  9
$FILLMODE
 70
     1
  9
$QTEXTMODE
 70
     0
  9
$MIRRTEXT
 70
     1
  9
$LTSCALE
 40
1.0
  9
$ATTMODE
 70
     1
  9
$TEXTSIZE
 40
0.2
  9
$TRACEWID
 40
0.05
  9
$TEXTSTYLE
  7
Standard
  9
$CLAYER
  8
0
  9
$CELTYPE
  6
ByLayer
  9
$CECOLOR
 62
   256
  9
$CELTSCALE
 40
1.0
  9
$DISPSILH
 70
     0
  9
$DIMSCALE
 40
1.0
  9
$DIMASZ
 40
0.18
  9
$DIMEXO
 40
0.0625
  9
$DIMDLI
 40
0.38
  9
$DIMRND
 40
0.0
  9
$DIMDLE
 40
0.0
  9
$DIMEXE
 40
0.18
  9
$DIMTP
 40
0.0
  9
$DIMTM
 40
0.0
  9
$DIMTXT
 40
0.18
  9
$DIMCEN
 40
0.09
  9
$DIMTSZ
 40
0.0
  9
$DIMTOL
 70
     0
  9
$DIMLIM
 70
     0
  9
$DIMTIH
 70
     1
  9
$DIMTOH
 70
     1
  9
$DIMSE1
 70
     0
  9
$DIMSE2
 70
     0
  9
$DIMTAD
 70
     0
  9
$DIMZIN
 70
     0
  9
$DIMBLK
  1

  9
$DIMASO
 70
     1
  9
$DIMSHO
 70
     1
  9
$DIMPOST
  1

  9
$DIMAPOST
  1

  9
$DIMALT
 70
     0
  9
$DIMALTD
 70
     2
  9
$DIMALTF
 40
25.4
  9
$DIMLFAC
 40
1.0
  9
$DIMTOFL
 70
     0
  9
$DIMTVP
 40
0.0
  9
$DIMTIX
 70
     0
  9
$DIMSOXD
 70
     0
  9
$DIMSAH
 70
     0
  9
$DIMBLK1
  1

  9
$DIMBLK2
  1

  9
$DIMSTYLE
  2
Standard
  9
$DIMCLRD
 70
     0
  9
$DIMCLRE
 70
     0
  9
$DIMCLRT
 70
     0
  9
$DIMTFAC
 40
1.0
  9
$DIMGAP
 40
0.09
  9
$DIMJUST
 70
     0
  9
$DIMSD1
 70
     0
  9
$DIMSD2
 70
     0
  9
$DIMTOLJ
 70
     1
  9
$DIMTZIN
 70
     0
  9
$DIMALTZ
 70
     0
  9
$DIMALTTZ
 70
     0
  9
$DIMUPT
 70
     0
  9
$DIMDEC
 70
     4
  9
$DIMTDEC
 70
     4
  9
$DIMALTU
 70
     2
  9
$DIMALTTD
 70
     2
  9
$DIMTXSTY
  7
Standard
  9
$DIMAUNIT
 70
     0
  9
$DIMADEC
 70
     0
  9
$DIMALTRND
 40
0.0
  9
$DIMAZIN
 70
     0
  9
$DIMDSEP
 70
    46
  9
$DIMATFIT
 70
     3
  9
$DIMFRAC
 70
     0
  9
$DIMLDRBLK
  1

  9
$DIMLUNIT
 70
     2
  9
$DIMLWD
 70
    -2
  9
$DIMLWE
 70
    -2
  9
$DIMTMOVE
 70
     0
  9
$LUNITS
 70
     2
  9
$LUPREC
 70
     4
  9
$SKETCHINC
 40
0.1
  9
$FILLETRAD
 40
0.5
  9
$AUNITS
 70
     0
  9
$AUPREC
 70
     0
  9
$MENU
  1
.
  9
$ELEVATION
 40
0.0
  9
$PELEVATION
 40
0.0
  9
$THICKNESS
 40
0.0
  9
$LIMCHECK
 70
     0
  9
$CHAMFERA
 40
0.5
  9
$CHAMFERB
 40
0.5
  9
$CHAMFERC
 40
1.0
  9
$CHAMFERD
 40
0.0
  9
$SKPOLY
 70
     0
  9
$TDCREATE
 40
2458100.479533379
  9
$TDUCREATE
 40
2458100.437866713
  9
$TDUPDATE
 40
2458100.479534282
  9
$TDUUPDATE
 40
2458100.437867616
  9
$TDINDWG
 40
0.0000000116
  9
$TDUSRTIMER
 40
0.0000000116
  9
$USRTIMER
 70
     1
  9
$ANGBASE
 50
0.0
  9
$ANGDIR
 70
     0
  9
$PDMODE
 70
     0
  9
$PDSIZE
 40
0.0
  9
$PLINEWID
 40
0.0
  9
$SPLFRAME
 70
     0
  9
$SPLINETYPE
 70
     6
  9
$SPLINESEGS
 70
     8
  9
$HANDSEED
  5
4D6
  9
$SURFTAB1
 70
     6
  9
$SURFTAB2
 70
     6
  9
$SURFTYPE
 70
     6
  9
$SURFU
 70
     6
  9
$SURFV
 70
     6
  9
$UCSBASE
  2

  9
$UCSNAME
  2

  9
$UCSORG
 10
0.0
 20
0.0
 30
0.0
  9
$UCSXDIR
 10
1.0
 20
0.0
 30
0.0
  9
$UCSYDIR
 10
0.0
 20
1.0
 30
0.0
  9
$UCSORTHOREF
  2

  9
$UCSORTHOVIEW
 70
     0
  9
$UCSORGTOP
 10
0.0
 20
0.0
 30
0.0
  9
$UCSORGBOTTOM
 10
0.0
 20
0.0
 30
0.0
  9
$UCSORGLEFT
 10
0.0
 20
0.0
 30
0.0
  9
$UCSORGRIGHT
 10
0.0
 20
0.0
 30
0.0
  9
$UCSORGFRONT
 10
0.0
 20
0.0
 30
0.0
  9
$UCSORGBACK
 10
0.0
 20
0.0
 30
0.0
  9
$PUCSBASE
  2

  9
$PUCSNAME
  2

  9
$PUCSORG
 10
0.0
 20
0.0
 30
0.0
  9
$PUCSXDIR
 10
1.0
 20
0.0
 30
0.0
  9
$PUCSYDIR
 10
0.0
 20
1.0
 30
0.0
  9
$PUCSORTHOREF
  2

  9
$PUCSORTHOVIEW
 70
     0
  9
$PUCSORGTOP
 10
0.0
 20
0.0
 30
0.0
  9
$PUCSORGBOTTOM
 10
0.0
 20
0.0
 30
0.0
  9
$PUCSORGLEFT
 10
0.0
 20
0.0
 30
0.0
  9
$PUCSORGRIGHT
 10
0.0
 20
0.0
 30
0.0
  9
$PUCSORGFRONT
 10
0.0
 20
0.0
 30
0.0
  9
$PUCSORGBACK
 10
0.0
 20
0.0
 30
0.0
  9
$USERI1
 70
     0
  9
$USERI2
 70
     0
  9
$USERI3
 70
     0
  9
$USERI4
 70
     0
  9
$USERI5
 70
     0
  9
$USERR1
 40
18.1
  9
$USERR2
 40
0.0
  9
$USERR3
 40
0.0
  9
$USERR4
 40
0.0
  9
$USERR5
 40
0.0
  9
$WORLDVIEW
 70
     1
  9
$SHADEDGE
 70
     3
  9
$SHADEDIF
 70
    70
  9
$TILEMODE
 70
     1
  9
$MAXACTVP
 70
    64
  9
$PINSBASE
 10
0.0
 20
0.0
 30
0.0
  9
$PLIMCHECK
 70
     0
  9
$PEXTMIN
 10
1.00000000000000E+20
 20
1.00000000000000E+20
 30
1.00000000000000E+20
  9
$PEXTMAX
 10
-1.00000000000000E+20
 20
-1.00000000000000E+20
 30
-1.00000000000000E+20
  9
$PLIMMIN
 10
0.0
 20
0.0
  9
$PLIMMAX
 10
12.0
 20
9.0
  9
$UNITMODE
 70
     0
  9
$VISRETAIN
 70
     1
  9
$PLINEGEN
 70
     0
  9
$PSLTSCALE
 70
     1
  9
$TREEDEPTH
 70
  3020
  9
$CMLSTYLE
  2
Standard
  9
$CMLJUST
 70
     0
  9
$CMLSCALE
 40
1.0
  9
$PROXYGRAPHICS
 70
     1
  9
$MEASUREMENT
 70
     1
  9
$CELWEIGHT
370
    -1
  9
$ENDCAPS
280
     0
  9
$JOINSTYLE
280
     0
  9
$LWDISPLAY
290
     0
  9
$INSUNITS
 70
     4
  9
$HYPERLINKBASE
  1

  9
$STYLESHEET
  1

  9
$XEDIT
290
     1
  9
$CEPSNTYPE
380
     0
  9
$PSTYLEMODE
290
     1
  9
$FINGERPRINTGUID
  2
{6CB6B8DB-D485-41F8-8BCD-F7871800950E}
  9
$VERSIONGUID
  2
{FAEB1C32-E019-11D5-929B-00C0DF256EC4}
  9
$EXTNAMES
290
     1
  9
$PSVPSCALE
 40
0.0
  9
$OLESTARTUP
290
     0
  9
$SORTENTS
280
   127
  9
$INDEXCTL
280
     0
  9
$HIDETEXT
280
     1
  9
$XCLIPFRAME
290
     0
  9
$HALOGAP
280
     0
  9
$OBSCOLOR
 70
   257
  9
$OBSLTYPE
280
     0
  9
$INTERSECTIONDISPLAY
280
     0
  9
$INTERSECTIONCOLOR
 70
   257
  9
$DIMASSOC
280
     2
  9
$PROJECTNAME
  1

  0
ENDSEC
  0
SECTION
  2
CLASSES
  0
CLASS
  1
ACDBDICTIONARYWDFLT
  2
AcDbDictionaryWithDefault
  3
ObjectDBX Classes
 90
        0
 91
        4
280
     0
281
     0
  0
CLASS
  1
VISUALSTYLE
  2
AcDbVisualStyle
  3
ObjectDBX Classes
 90
     4095
 91
        4
280
     0
281
     0
  0
CLASS
  1
MATERIAL
  2
AcDbMaterial
  3
ObjectDBX Classes
 90
     1153
 91
        4
280
     0
281
     0
  0
ENDSEC
  0
SECTION
  2
TABLES
  0
TABLE
  2
VPORT
  5
8
330
0
100
AcDbSymbolTable
 70
     1
  0
VPORT
  5
29
330
8
100
AcDbSymbolTableRecord
100
AcDbViewportTableRecord
  2
*Active
 70
     0
 10
0.0
 20
0.0
 11
1.0
 21
1.0
 12
-266.9999999999899
 22
-162.0000000000051
 13
0.0
 23
0.0
 14
0.5
 24
0.5
 15
0.5
 25
0.5
 16
0.0
 26
0.0
 36
1.0
 17
0.0
 27
0.0
 37
0.0
 40
231.0000000000001
 41
1.60267857142857
 42
50.0
 43
0.0
 44
0.0
 50
0.0
 51
0.0
 71
     0
 72
   100
 73
     1
 74
     3
 75
     0
 76
     0
 77
     0
 78
     0
281
     0
 65
     1
110
0.0
120
0.0
130
0.0
111
1.0
121
0.0
131
0.0
112
0.0
122
1.0
132
0.0
 79
     0
146
0.0
  0
ENDTAB
  0
TABLE
  2
LTYPE
  5
5
330
0
100
AcDbSymbolTable
 70
     8
  0
LTYPE
  5
14
330
5
100
AcDbSymbolTableRecord
100
AcDbLinetypeTableRecord
  2
ByBlock
 70
     0
  3

 72
    65
 73
     0
 40
0.0
  0
LTYPE
  5
15
330
5
100
AcDbSymbolTableRecord
100
AcDbLinetypeTableRecord
  2
ByLayer
 70
     0
  3

 72
    65
 73
     0
 40
0.0
  0
LTYPE
  5
16
330
5
100
AcDbSymbolTableRecord
100
AcDbLinetypeTableRecord
  2
Continuous
 70
     0
  3
Solid line
 72
    65
 73
     0
 40
0.0
  0
LTYPE
  5
3F
330
5
100
AcDbSymbolTableRecord
100
AcDbLinetypeTableRecord
  2
DASHED
 70
     0
  3
Dashed
 72
    65
 73
     2
 40
15.0
 49
7.0
 74
     0
 49
-8.0
 74
     0
  0
LTYPE
  5
40
330
5
100
AcDbSymbolTableRecord
100
AcDbLinetypeTableRecord
  2
DOTTED
 70
     0
  3
Dotted
 72
    65
 73
     2
 40
1.0
 49
0.0
 74
     0
 49
-1.0
 74
     0
  0
LTYPE
  5
41
330
5
100
AcDbSymbolTableRecord
100
AcDbLinetypeTableRecord
  2
DOT_CENTER
 70
     0
  3
Dot_Center
 72
    65
 73
     4
 40
14.0
 49
12.0
 74
     0
 49
-1.0
 74
     0
 49
0.0
 74
     0
 49
-1.0
 74
     0
  0
LTYPE
  5
42
330
5
100
AcDbSymbolTableRecord
100
AcDbLinetypeTableRecord
  2
LONG_DASHED
 70
     0
  3
Long_Dashed
 72
    65
 73
     2
 40
15.0
 49
10.0
 74
     0
 49
-5.0
 74
     0
  0
LTYPE
  5
43
330
5
100
AcDbSymbolTableRecord
100
AcDbLinetypeTableRecord
  2
DASH_CENTER
 70
     0
  3
Dash_Center
 72
    65
 73
     4
 40
14.0
 49
11.0
 74
     0
 49
-1.0
 74
     0
 49
1.0
 74
     0
 49
-1.0
 74
     0
  0
LTYPE
  5
44
330
5
100
AcDbSymbolTableRecord
100
AcDbLinetypeTableRecord
  2
PHANTOM
 70
     0
  3
Phantom
 72
    65
 73
     6
 40
13.0
 49
10.0
 74
     0
 49
-1.0
 74
     0
 49
0.0
 74
     0
 49
-1.0
 74
     0
 49
0.0
 74
     0
 49
-1.0
 74
     0
  0
LTYPE
  5
45
330
5
100
AcDbSymbolTableRecord
100
AcDbLinetypeTableRecord
  2
CENTER_DASH_DASH
 70
     0
  3
Center_Dash_Dash
 72
    65
 73
     6
 40
14.0
 49
9.0
 74
     0
 49
-1.0
 74
     0
 49
1.0
 74
     0
 49
-1.0
 74
     0
 49
1.0
 74
     0
 49
-1.0
 74
     0
  0
ENDTAB
  0
TABLE
  2
LAYER
  5
2
330
0
100
AcDbSymbolTable
 70
     2
  0
LAYER
  5
10
330
2
100
AcDbSymbolTableRecord
100
AcDbLayerTableRecord
  2
0
 70
     0
 62
     7
  6
Continuous
370
    -3
390
F
  0
LAYER
  5
46
330
2
100
AcDbSymbolTableRecord
100
AcDbLayerTableRecord
  2
1
 70
     0
 62
     7
  6
Continuous
370
    -3
390
F
  0
ENDTAB
  0
TABLE
  2
STYLE
  5
3
330
0
100
AcDbSymbolTable
 70
     5
  0
STYLE
  5
11
330
3
100
AcDbSymbolTableRecord
100
AcDbTextStyleTableRecord
  2
Standard
 70
     0
 40
0.0
 41
1.0
 50
0.0
 71
     0
 42
0.2
  3
txt
  4

  0
STYLE
  5
157
330
3
100
AcDbSymbolTableRecord
100
AcDbTextStyleTableRecord
  2
CONVERTER_11
 70
     0
 40
0.0
 41
0.9
 50
0.0
 71
     0
 42
0.2
  3
txt.shx
  4

  0
STYLE
  5
471
330
3
100
AcDbSymbolTableRecord
100
AcDbTextStyleTableRecord
  2
CONVERTER_12
 70
     0
 40
0.0
 41
0.81
 50
0.0
 71
     0
 42
0.2
  3
txt.shx
  4

  0
STYLE
  5
487
330
3
100
AcDbSymbolTableRecord
100
AcDbTextStyleTableRecord
  2
CONVERTER_13
 70
     0
 40
0.0
 41
0.72
 50
0.0
 71
     0
 42
0.2
  3
txt.shx
  4

  0
STYLE
  5
48A
330
3
100
AcDbSymbolTableRecord
100
AcDbTextStyleTableRecord
  2
CONVERTER_14
 70
     0
 40
0.0
 41
0.855
 50
0.0
 71
     0
 42
0.2
  3
txt.shx
  4

  0
ENDTAB
  0
TABLE
  2
VIEW
  5
6
330
0
100
AcDbSymbolTable
 70
     0
  0
ENDTAB
  0
TABLE
  2
UCS
  5
7
330
0
100
AcDbSymbolTable
 70
     0
  0
ENDTAB
  0
TABLE
  2
APPID
  5
9
330
0
100
AcDbSymbolTable
 70
     1
  0
APPID
  5
12
330
9
100
AcDbSymbolTableRecord
100
AcDbRegAppTableRecord
  2
ACAD
 70
     0
  0
ENDTAB
  0
TABLE
  2
DIMSTYLE
  5
A
330
0
100
AcDbSymbolTable
 70
     7
100
AcDbDimStyleTable
  0
DIMSTYLE
105
27
330
A
100
AcDbSymbolTableRecord
100
AcDbDimStyleTableRecord
  2
Standard
 70
     0
178
     0
340
11
  0
DIMSTYLE
105
1F6
102
{ACAD_REACTORS
330
1F7
102
}
330
A
100
AcDbSymbolTableRecord
100
AcDbDimStyleTableRecord
  2
ME10_DIM_10
 70
     0
 41
3.5
 42
0.0
 44
1.5
 73
     0
 74
     0
 77
     1
 78
     8
140
3.5
147
1.5
172
     1
173
     1
174
     1
175
     1
176
     2
177
     2
178
     3
340
157
  0
DIMSTYLE
105
347
102
{ACAD_REACTORS
330
348
102
}
330
A
100
AcDbSymbolTableRecord
100
AcDbDimStyleTableRecord
  2
ME10_DIM_11
 70
     0
 41
3.5
 42
0.0
 44
1.5
 73
     0
 74
     0
 77
     1
 78
     8
140
3.5
147
1.5
172
     1
173
     1
174
     1
175
     1
176
     2
177
     2
178
     3
340
157
  0
DIMSTYLE
105
352
102
{ACAD_REACTORS
330
353
102
}
330
A
100
AcDbSymbolTableRecord
100
AcDbDimStyleTableRecord
  2
ME10_DIM_12
 70
     0
 41
3.5
 42
0.0
 44
1.5
 73
     0
 74
     0
 77
     1
 78
     8
140
3.5
147
1.5
172
     1
173
     1
174
     1
175
     1
176
     2
177
     2
178
     3
340
157
  0
DIMSTYLE
105
35D
102
{ACAD_REACTORS
330
35E
102
}
330
A
100
AcDbSymbolTableRecord
100
AcDbDimStyleTableRecord
  2
ME10_DIM_13
 70
     0
 41
3.5
 42
0.0
 44
1.5
 73
     0
 74
     0
 77
     1
 78
     8
140
3.5
147
1.5
172
     1
173
     1
174
     1
175
     1
176
     2
177
     2
178
     3
340
157
  0
DIMSTYLE
105
368
102
{ACAD_REACTORS
330
369
102
}
330
A
100
AcDbSymbolTableRecord
100
AcDbDimStyleTableRecord
  2
ME10_DIM_14
 70
     0
 41
3.5
 42
0.0
 44
1.5
 73
     0
 74
     0
 77
     1
 78
     8
140
3.5
147
1.5
172
     1
173
     1
174
     1
175
     1
176
     2
177
     2
178
     3
340
157
  0
DIMSTYLE
105
373
102
{ACAD_REACTORS
330
374
102
}
330
A
100
AcDbSymbolTableRecord
100
AcDbDimStyleTableRecord
  2
ME10_DIM_15
 70
     0
 41
3.5
 42
0.0
 44
1.5
 73
     0
 74
     0
 77
     1
 78
     8
140
3.5
147
1.5
172
     1
173
     1
174
     1
175
     1
176
     2
177
     2
178
     3
340
157
  0
ENDTAB
  0
TABLE
  2
BLOCK_RECORD
  5
1
330
0
100
AcDbSymbolTable
 70
    23
  0
BLOCK_RECORD
  5
1F
330
1
100
AcDbSymbolTableRecord
100
AcDbBlockTableRecord
  2
*Model_Space
340
22
  0
BLOCK_RECORD
  5
1B
330
1
100
AcDbSymbolTableRecord
100
AcDbBlockTableRecord
  2
*Paper_Space
340
1E
  0
BLOCK_RECORD
  5
23
330
1
100
AcDbSymbolTableRecord
100
AcDbBlockTableRecord
  2
*Paper_Space0
340
26
  0
BLOCK_RECORD
  5
47
330
1
100
AcDbSymbolTableRecord
100
AcDbBlockTableRecord
  2
RTO_3-TC_BU-select__1
340
0
102
{BLKREFS
331
4B
102
}
  0
BLOCK_RECORD
  5
4A
330
1
100
AcDbSymbolTableRecord
100
AcDbBlockTableRecord
  2
Allg1
340
0
102
{BLKREFS
331
7D
102
}
  0
BLOCK_RECORD
  5
4E
330
1
100
AcDbSymbolTableRecord
100
AcDbBlockTableRecord
  2
RTO_3-TC_BU-select__2
340
0
102
{BLKREFS
331
52
102
}
  0
BLOCK_RECORD
  5
51
330
1
100
AcDbSymbolTableRecord
100
AcDbBlockTableRecord
  2
Drfsicht1
340
0
102
{BLKREFS
331
7E
102
}
  0
BLOCK_RECORD
  5
55
330
1
100
AcDbSymbolTableRecord
100
AcDbBlockTableRecord
  2
RTO_3-TC_BU-select__3
340
0
102
{BLKREFS
331
59
102
}
  0
BLOCK_RECORD
  5
58
330
1
100
AcDbSymbolTableRecord
100
AcDbBlockTableRecord
  2
Rckans1
340
0
102
{BLKREFS
331
7F
102
}
  0
BLOCK_RECORD
  5
5C
330
1
100
AcDbSymbolTableRecord
100
AcDbBlockTableRecord
  2
RTO_3-TC_BU-select__4
340
0
102
{BLKREFS
331
60
102
}
  0
BLOCK_RECORD
  5
5F
330
1
100
AcDbSymbolTableRecord
100
AcDbBlockTableRecord
  2
SA_Links1
340
0
102
{BLKREFS
331
80
102
}
  0
BLOCK_RECORD
  5
63
330
1
100
AcDbSymbolTableRecord
100
AcDbBlockTableRecord
  2
RTO_3-TC_BU-select__5
340
0
102
{BLKREFS
331
67
102
}
  0
BLOCK_RECORD
  5
66
330
1
100
AcDbSymbolTableRecord
100
AcDbBlockTableRecord
  2
SA_Rechts1
340
0
102
{BLKREFS
331
81
102
}
  0
BLOCK_RECORD
  5
6A
330
1
100
AcDbSymbolTableRecord
100
AcDbBlockTableRecord
  2
RTO_3-TC_BU-select__6
340
0
102
{BLKREFS
331
6E
102
}
  0
BLOCK_RECORD
  5
6D
330
1
100
AcDbSymbolTableRecord
100
AcDbBlockTableRecord
  2
Vordans1
340
0
102
{BLKREFS
331
82
102
}
  0
BLOCK_RECORD
  5
71
330
1
100
AcDbSymbolTableRecord
100
AcDbBlockTableRecord
  2
_rahmen
340
0
102
{BLKREFS
331
78
102
}
  0
BLOCK_RECORD
  5
74
330
1
100
AcDbSymbolTableRecord
100
AcDbBlockTableRecord
  2
_punkt
340
0
102
{BLKREFS
331
79
102
}
  0
BLOCK_RECORD
  5
77
330
1
100
AcDbSymbolTableRecord
100
AcDbBlockTableRecord
  2
A4I_CS
340
0
102
{BLKREFS
331
83
102
}
  0
BLOCK_RECORD
  5
7C
330
1
100
AcDbSymbolTableRecord
100
AcDbBlockTableRecord
  2
1
340
0
102
{BLKREFS
331
86
102
}
  0
BLOCK_RECORD
  5
1ED
330
1
100
AcDbSymbolTableRecord
100
AcDbBlockTableRecord
  2
*D17
340
0
  0
BLOCK_RECORD
  5
33E
330
1
100
AcDbSymbolTableRecord
100
AcDbBlockTableRecord
  2
*D18
340
0
  0
BLOCK_RECORD
  5
349
330
1
100
AcDbSymbolTableRecord
100
AcDbBlockTableRecord
  2
*D19
340
0
  0
BLOCK_RECORD
  5
354
330
1
100
AcDbSymbolTableRecord
100
AcDbBlockTableRecord
  2
*D20
340
0
  0
BLOCK_RECORD
  5
35F
330
1
100
AcDbSymbolTableRecord
100
AcDbBlockTableRecord
  2
*D21
340
0
  0
BLOCK_RECORD
  5
36A
330
1
100
AcDbSymbolTableRecord
100
AcDbBlockTableRecord
  2
*D22
340
0
  0
ENDTAB
  0
ENDSEC
  0
SECTION
  2
BLOCKS
  0
BLOCK
  5
20
330
1F
100
AcDbEntity
  8
0
100
AcDbBlockBegin
  2
*Model_Space
 70
     0
 10
0.0
 20
0.0
 30
0.0
  3
*Model_Space
  1

  0
ENDBLK
  5
21
330
1F
100
AcDbEntity
  8
0
100
AcDbBlockEnd
  0
BLOCK
  5
1C
330
1B
100
AcDbEntity
 67
     1
  8
0
100
AcDbBlockBegin
  2
*Paper_Space
 70
     0
 10
0.0
 20
0.0
 30
0.0
  3
*Paper_Space
  1

  0
ENDBLK
  5
1D
330
1B
100
AcDbEntity
 67
     1
  8
0
100
AcDbBlockEnd
  0
BLOCK
  5
24
330
23
100
AcDbEntity
  8
0
100
AcDbBlockBegin
  2
*Paper_Space0
 70
     0
 10
0.0
 20
0.0
 30
0.0
  3
*Paper_Space0
  1

  0
ENDBLK
  5
25
330
23
100
AcDbEntity
  8
0
100
AcDbBlockEnd
  0
BLOCK
  5
48
330
47
100
AcDbEntity
  8
0
100
AcDbBlockBegin
  2
RTO_3-TC_BU-select__1
 70
     0
 10
-216.6538398508051
 20
-221.069224042072
 30
0.0
  3
RTO_3-TC_BU-select__1
  1

  0
LINE
  5
87
330
47
100
AcDbEntity
  8
0
  6
Continuous
 62
     7
100
AcDbLine
 10
-194.3195727528048
 20
-165.0681766503812
 30
0.0
 11
-194.1920974133788
 21
-164.9577797680823
 31
0.0
  0
LINE
  5
88
330
47
100
AcDbEntity
  8
0
  6
Continuous
 62
     7
100
AcDbLine
 10
-193.330463236307
 20
-165.3537079732055
 30
0.0
 11
-195.1572522515253
 21
-164.8263594083372
 31
0.0
  0
LINE
  5
89
330
47
100
AcDbEntity
  8
0
  6
Continuous
 62
     7
100
AcDbLine
 10
-207.2602536006684
 20
-167.077159043633
 30
0.0
 11
-200.88258092492
 21
-168.9182345617181
 31
0.0
  0
LINE
  5
8A
330
47
100
AcDbEntity
  8
0
  6
Continuous
 62
     7
100
AcDbLine
 10
-207.2602536006684
 20
-167.077159043633
 30
0.0
 11
-201.1602536005975
 21
-161.7944040805213
 31
0.0
  0
LINE
  5
8B
330
47
100
AcDbEntity
  8
0
  6
Continuous
 62
     7
100
AcDbLine
 10
-194.7825809248546
 20
-163.6354795986113
 30
0.0
 11
-194.2722290225898
 21
-164.3715930693039
 31
0.0
  0
LINE
  5
8C
330
47
100
AcDbEntity
  8
0
  6
Continuous
 62
     7
100
AcDbLine
 10
-194.2722290225898
 20
-164.3715930693039
 30
0.0
 11
-194.2722290225899
 21
-165.0271757773052
 31
0.0
  0
LINE
  5
8D
330
47
100
AcDbEntity
  8
0
  6
Continuous
 62
     7
100
AcDbLine
 10
-194.8873240322166
 20
-164.9042809733782
 30
0.0
 11
-194.2722290225898
 21
-164.3715930693039
 31
0.0
  0
LINE
  5
8E
330
47
100
AcDbEntity
  8
0
  6
Continuous
 62
     7
100
AcDbLine
 10
-201.1602536005975
 20
-161.7944040805213
 30
0.0
 11
-194.7825809248546
 21
-163.6354795986113
 31
0.0
  0
LINE
  5
8F
330
47
100
AcDbEntity
  8
0
  6
Continuous
 62
     7
100
AcDbLine
 10
-195.1572522515253
 20
-164.8263594083372
 30
0.0
 11
-199.7572522520666
 21
-168.8100762662002
 31
0.0
  0
LINE
  5
90
330
47
100
AcDbEntity
  8
0
  6
Continuous
 62
     7
100
AcDbLine
 10
-200.88258092492
 20
-168.9182345617181
 30
0.0
 11
-194.7825809248546
 21
-163.6354795986113
 31
0.0
  0
LINE
  5
91
330
47
100
AcDbEntity
  8
0
  6
Continuous
 62
     7
100
AcDbLine
 10
-190.2406702959891
 20
-169.2096213488318
 30
0.0
 11
-190.2406702959905
 21
-166.3033893934206
 31
0.0
  0
LINE
  5
92
330
47
100
AcDbEntity
  8
0
  6
Continuous
 62
     7
100
AcDbLine
 10
-191.7985795837125
 20
-166.431010129165
 30
0.0
 11
-191.2617244748104
 21
-166.5859868499852
 31
0.0
  0
LINE
  5
93
330
47
100
AcDbEntity
  8
0
  6
Continuous
 62
     7
100
AcDbLine
 10
-190.7617243536756
 20
-166.1529740431872
 30
0.0
 11
-190.2406702959905
 21
-166.3033893934206
 31
0.0
  0
LINE
  5
94
330
47
100
AcDbEntity
  8
0
  6
Continuous
 62
     7
100
AcDbLine
 10
-191.2617244748104
 20
-166.5859868499852
 30
0.0
 11
-190.7617243536756
 21
-166.1529740431872
 31
0.0
  0
LINE
  5
95
330
47
100
AcDbEntity
  8
0
  6
Continuous
 62
     7
100
AcDbLine
 10
-191.536723945356
 20
-166.8241438485906
 30
0.0
 11
-196.1367239459226
 21
-170.8078607064314
 31
0.0
  0
LINE
  5
96
330
47
100
AcDbEntity
  8
0
  6
Continuous
 62
     7
100
AcDbLine
 10
-186.3104747657273
 20
-178.4407923497248
 30
0.0
 11
-185.8533012826123
 21
-178.5727669664962
 31
0.0
  0
LINE
  5
97
330
47
100
AcDbEntity
  8
0
  6
Continuous
 62
     7
100
AcDbLine
 10
-186.3104747657273
 20
-179.3674395317731
 30
0.0
 11
-186.3104747657273
 21
-178.4407923497248
 31
0.0
  0
LINE
  5
98
330
47
100
AcDbEntity
  8
0
  6
Continuous
 62
     7
100
AcDbLine
 10
-185.8533012826123
 20
-178.5727669664962
 30
0.0
 11
-186.6544205436792
 21
-176.5185202810179
 31
0.0
  0
LINE
  5
99
330
47
100
AcDbEntity
  8
0
  6
Continuous
 62
     7
100
AcDbLine
 10
-195.652723809041
 20
-179.5500989993579
 30
0.0
 11
-195.6527238090411
 21
-176.7761961644197
 31
0.0
  0
LINE
  5
9A
330
47
100
AcDbEntity
  8
0
  6
Continuous
 62
     7
100
AcDbLine
 10
-196.3906704167454
 20
-171.6294457312752
 30
0.0
 11
-196.3906704167454
 21
-174.5356776866865
 31
0.0
  0
LINE
  5
9B
330
47
100
AcDbEntity
  8
0
  6
Continuous
 62
     7
100
AcDbLine
 10
-196.3906704167454
 20
-171.6294457312752
 30
0.0
 11
-196.9117244744337
 21
-171.4790303810409
 31
0.0
  0
LINE
  5
9C
330
47
100
AcDbEntity
  8
0
  6
Continuous
 62
     7
100
AcDbLine
 10
-200.4992022403001
 20
-170.4434147541236
 30
0.0
 11
-206.7474155461682
 21
-168.6397109370751
 31
0.0
  0
LINE
  5
9D
330
47
100
AcDbEntity
  8
0
  6
Continuous
 62
     7
100
AcDbLine
 10
-206.7224154253178
 20
-168.618060197321
 30
0.0
 11
-200.4793476492203
 21
-170.4202786278821
 31
0.0
  0
LINE
  5
9E
330
47
100
AcDbEntity
  8
0
  6
Continuous
 62
     7
100
AcDbLine
 10
-206.7474155461682
 20
-168.6397109370751
 30
0.0
 11
-206.7224154253178
 21
-168.618060197321
 31
0.0
  0
LINE
  5
9F
330
47
100
AcDbEntity
  8
0
  6
Continuous
 62
     2
100
AcDbLine
 10
-193.330463236307
 20
-165.3537079732055
 30
0.0
 11
-197.9304632368767
 21
-169.3374248310372
 31
0.0
  0
LINE
  5
A0
330
47
100
AcDbEntity
  8
0
  6
Continuous
 62
     7
100
AcDbLine
 10
-190.2406702959905
 20
-166.3033893934206
 30
0.0
 11
-196.3906704167454
 21
-171.6294457312752
 31
0.0
  0
LINE
  5
A1
330
47
100
AcDbEntity
  8
0
  6
Continuous
 62
     7
100
AcDbLine
 10
-209.6628143260693
 20
-167.8424869441644
 30
0.0
 11
-201.1602536005975
 21
-161.7944040805213
 31
0.0
  0
LINE
  5
A2
330
47
100
AcDbEntity
  8
0
  6
Continuous
 62
     7
100
AcDbLine
 10
-168.2513964813934
 20
-171.2943728388498
 30
0.0
 11
-161.8737238056506
 21
-173.1354483569398
 31
0.0
  0
LINE
  5
A3
330
47
100
AcDbEntity
  8
0
  6
Continuous
 62
     7
100
AcDbLine
 10
-169.3768433933191
 20
-172.2685224054893
 30
0.0
 11
-168.7617483836582
 21
-171.7358345013855
 31
0.0
  0
LINE
  5
A4
330
47
100
AcDbEntity
  8
0
  6
Continuous
 62
     7
100
AcDbLine
 10
-167.973723805687
 20
-178.4182033200215
 30
0.0
 11
-161.8737238056506
 21
-173.1354483569398
 31
0.0
  0
LINE
  5
A5
330
47
100
AcDbEntity
  8
0
  6
Continuous
 62
     7
100
AcDbLine
 10
-190.1027235675299
 20
-174.7436577991981
 30
0.0
 11
-190.1027235675103
 21
-176.9087213086645
 31
0.0
  0
LINE
  5
A6
330
47
100
AcDbEntity
  8
0
  6
Continuous
 62
     7
100
AcDbLine
 10
-177.715148346662
 20
-176.2383232994703
 30
0.0
 11
-178.2151484674202
 21
-176.6713361059422
 31
0.0
  0
LINE
  5
A7
330
47
100
AcDbEntity
  8
0
  6
Continuous
 62
     7
100
AcDbLine
 10
-180.4889183088386
 20
-178.2983474685049
 30
0.0
 11
-178.8933072313081
 21
-176.9165077408037
 31
0.0
  0
LINE
  5
A8
330
47
100
AcDbEntity
  8
0
  6
Continuous
 62
     7
100
AcDbLine
 10
-215.7878144470276
 20
-179.4647341878744
 30
0.0
 11
-215.7878144470276
 21
-175.0853580256388
 31
0.0
  0
LINE
  5
A9
330
47
100
AcDbEntity
  8
0
  6
Continuous
 62
     7
100
AcDbLine
 10
-178.8933072313081
 20
-178.758960711072
 30
0.0
 11
-178.8933072313081
 21
-176.6804994038853
 31
0.0
  0
LINE
  5
AA
330
47
100
AcDbEntity
  8
0
  6
Continuous
 62
     7
100
AcDbLine
 10
-187.374743545572
 20
-175.5311577992084
 30
0.0
 11
-189.2497435455716
 21
-177.1549554313042
 31
0.0
  0
LINE
  5
AB
330
47
100
AcDbEntity
  8
0
  6
Continuous
 62
     7
100
AcDbLine
 10
-186.3104747657273
 20
-179.3674395317731
 30
0.0
 11
-180.1604746449693
 21
-174.0413831939194
 31
0.0
  0
LINE
  5
AC
330
47
100
AcDbEntity
  8
0
  6
Continuous
 62
     7
100
AcDbLine
 10
-185.8533012826123
 20
-178.5727669664962
 30
0.0
 11
-179.7033011618544
 21
-173.2467106286423
 31
0.0
  0
LINE
  5
AD
330
47
100
AcDbEntity
  8
0
  6
Continuous
 62
     7
100
AcDbLine
 10
-161.8737238056506
 20
-173.1354483569398
 30
0.0
 11
-153.3711630801783
 21
-184.0924869442841
 31
0.0
  0
LINE
  5
AE
330
47
100
AcDbEntity
  8
0
  6
Continuous
 62
     7
100
AcDbLine
 10
-180.8328640867906
 20
-180.0220423497247
 30
0.0
 11
-180.8328640867906
 21
-180.948689531773
 31
0.0
  0
LINE
  5
AF
330
47
100
AcDbEntity
  8
0
  6
Continuous
 62
     7
100
AcDbLine
 10
-181.2900375699073
 20
-179.8900677329528
 30
0.0
 11
-180.8328640867906
 21
-180.0220423497247
 31
0.0
  0
LINE
  5
B0
330
47
100
AcDbEntity
  8
0
  6
Continuous
 62
     7
100
AcDbLine
 10
-186.3104747657273
 20
-179.3674395317731
 30
0.0
 11
-180.8328640867906
 21
-180.948689531773
 31
0.0
  0
LINE
  5
B1
330
47
100
AcDbEntity
  8
0
  6
Continuous
 62
     7
100
AcDbLine
 10
-195.652723809041
 20
-179.5500989993579
 30
0.0
 11
-188.7245205787658
 21
-181.5500989993577
 31
0.0
  0
LINE
  5
B2
330
47
100
AcDbEntity
  8
0
  6
Continuous
 62
     2
100
AcDbLine
 10
-212.1794641100557
 20
-200.5285092401705
 30
0.0
 11
-216.062480715013
 21
-203.8913002633802
 31
0.0
  0
LINE
  5
B3
330
47
100
AcDbEntity
  8
0
  6
Continuous
 62
     7
100
AcDbLine
 10
-212.1505191401211
 20
-199.9363981604862
 30
0.0
 11
-216.5692911575745
 21
-203.7631669811325
 31
0.0
  0
LINE
  5
B4
330
47
100
AcDbEntity
  8
0
  6
Continuous
 62
     7
100
AcDbLine
 10
-203.0139397412005
 20
-207.6309737157081
 30
0.0
 11
-202.2345168777945
 21
-207.7877830510671
 31
0.0
  0
LINE
  5
B5
330
47
100
AcDbEntity
  8
0
  6
Continuous
 62
     7
100
AcDbLine
 10
-203.0139397412005
 20
-206.6967576472879
 30
0.0
 11
-203.0139397412005
 21
-207.6309737157081
 31
0.0
  0
LINE
  5
B6
330
47
100
AcDbEntity
  8
0
  6
Continuous
 62
     7
100
AcDbLine
 10
-216.6538398508049
 20
-208.4317240420767
 30
0.0
 11
-216.6538398508051
 21
-203.9655385595399
 31
0.0
  0
LINE
  5
B7
330
47
100
AcDbEntity
  8
0
  6
Continuous
 62
     7
100
AcDbLine
 10
-202.2345168777945
 20
-207.7877830510671
 30
0.0
 11
-202.2345168777945
 21
-208.2696967404919
 31
0.0
  0
LINE
  5
B8
330
47
100
AcDbEntity
  8
0
  6
Continuous
 62
     7
100
AcDbLine
 10
-215.3548017451283
 20
-206.7715640833708
 30
0.0
 11
-213.2925026554644
 21
-207.3668985506544
 31
0.0
  0
LINE
  5
B9
330
47
100
AcDbEntity
  8
0
  6
Continuous
 62
     7
100
AcDbLine
 10
-213.1462378433235
 20
-206.1100836831458
 30
0.0
 11
-213.1243722416358
 21
-206.1163957386559
 31
0.0
  0
LINE
  5
BA
330
47
100
AcDbEntity
  8
0
  6
Continuous
 62
     7
100
AcDbLine
 10
-193.1777235675291
 20
-177.4066859158353
 30
0.0
 11
-191.9777235675294
 21
-176.367455431294
 31
0.0
  0
LINE
  5
BB
330
47
100
AcDbEntity
  8
0
  6
Continuous
 62
     7
100
AcDbLine
 10
-193.1777235675291
 20
-177.4066859158353
 30
0.0
 11
-193.1777235675092
 21
-179.5717494253019
 31
0.0
  0
LINE
  5
BC
330
47
100
AcDbEntity
  8
0
  6
Continuous
 62
     7
100
AcDbLine
 10
-188.0004975633212
 20
-176.1299413161978
 30
0.0
 11
-186.6544205436792
 21
-176.5185202810179
 31
0.0
  0
LINE
  5
BD
330
47
100
AcDbEntity
  8
0
  6
Continuous
 62
     7
100
AcDbLine
 10
-188.7245205787658
 20
-177.9101707608641
 30
0.0
 11
-188.0004975633212
 21
-176.1299413161978
 31
0.0
  0
LINE
  5
BE
330
47
100
AcDbEntity
  8
0
  6
Continuous
 62
     7
100
AcDbLine
 10
-188.7245205787658
 20
-177.9101707608641
 30
0.0
 11
-188.7245205787658
 21
-181.5500989993577
 31
0.0
  0
LINE
  5
BF
330
47
100
AcDbEntity
  8
0
  6
Continuous
 62
     7
100
AcDbLine
 10
-189.2497435455716
 20
-177.1549554313042
 30
0.0
 11
-191.9777235675294
 21
-176.367455431294
 31
0.0
  0
LINE
  5
C0
330
47
100
AcDbEntity
  8
0
  6
Continuous
 62
     7
100
AcDbLine
 10
-193.1777235675291
 20
-177.4066859158353
 30
0.0
 11
-190.4497435455711
 21
-178.1941859158457
 31
0.0
  0
LINE
  5
C1
330
47
100
AcDbEntity
  8
0
  6
Continuous
 62
     7
100
AcDbLine
 10
-190.4497435455711
 20
-178.1941859158457
 30
0.0
 11
-192.3247435455706
 21
-179.8179835479416
 31
0.0
  0
LINE
  5
C2
330
47
100
AcDbEntity
  8
0
  6
Continuous
 62
     7
100
AcDbLine
 10
-204.0483463643004
 20
-212.070616570927
 30
0.0
 11
-216.6538398508049
 21
-208.4317240420767
 31
0.0
  0
LINE
  5
C3
330
47
100
AcDbEntity
  8
0
  6
Continuous
 62
     7
100
AcDbLine
 10
-180.4889183088386
 20
-178.2983474685049
 30
0.0
 11
-178.8933072313081
 21
-178.758960711072
 31
0.0
  0
LINE
  5
C4
330
47
100
AcDbEntity
  8
0
  6
Continuous
 62
     7
100
AcDbLine
 10
-175.257825549917
 20
-218.3032630729886
 30
0.0
 11
-175.257825549917
 21
-216.8743211567368
 31
0.0
  0
LINE
  5
C5
330
47
100
AcDbEntity
  8
0
  6
Continuous
 62
     7
100
AcDbLine
 10
-153.3461630802631
 20
-211.7352837328448
 30
0.0
 11
-153.3461630802631
 21
-204.1364049348949
 31
0.0
  0
LINE
  5
C6
330
47
100
AcDbEntity
  8
0
  6
Continuous
 62
     7
100
AcDbLine
 10
-153.3711630801783
 20
-184.0924869442841
 30
0.0
 11
-153.3711630801783
 21
-185.459028744989
 31
0.0
  0
LINE
  5
C7
330
47
100
AcDbEntity
  8
0
  6
Continuous
 62
     7
100
AcDbLine
 10
-153.3461630802642
 20
-186.009301687789
 30
0.0
 11
-153.6115937364665
 21
-185.6672478011818
 31
0.0
  0
LINE
  5
C8
330
47
100
AcDbEntity
  8
0
  6
Continuous
 62
     7
100
AcDbLine
 10
-153.3461630802642
 20
-190.388677850024
 30
0.0
 11
-153.3461630802642
 21
-186.009301687789
 31
0.0
  0
LINE
  5
C9
330
47
100
AcDbEntity
  8
0
  6
Continuous
 62
     7
100
AcDbLine
 10
-153.3461630802642
 20
-190.388677850024
 30
0.0
 11
-153.8461632013991
 21
-190.8216906568223
 31
0.0
  0
LINE
  5
CA
330
47
100
AcDbEntity
  8
0
  6
Continuous
 62
     7
100
AcDbLine
 10
-153.8461632013992
 20
-186.4423144945871
 30
0.0
 11
-153.3461630802642
 21
-186.009301687789
 31
0.0
  0
LINE
  5
CB
330
47
100
AcDbEntity
  8
0
  6
Continuous
 62
     7
100
AcDbLine
 10
-153.3461630802631
 20
-204.1364049348949
 30
0.0
 11
-153.8461632013813
 21
-204.5694177417647
 31
0.0
  0
LINE
  5
CC
330
47
100
AcDbEntity
  8
0
  6
Continuous
 62
     7
100
AcDbLine
 10
-153.8461632013991
 20
-190.8216906568223
 30
0.0
 11
-153.8461632013992
 21
-186.4423144945871
 31
0.0
  0
LINE
  5
CD
330
47
100
AcDbEntity
  8
0
  6
Continuous
 62
     7
100
AcDbLine
 10
-153.8461632013983
 20
-208.0442286686121
 30
0.0
 11
-153.8461632013813
 21
-204.5694177417647
 31
0.0
  0
LINE
  5
CE
330
47
100
AcDbEntity
  8
0
  6
Continuous
 62
     7
100
AcDbLine
 10
-153.8461632013992
 20
-186.4423144945871
 30
0.0
 11
-154.1115938576028
 21
-186.1002606079783
 31
0.0
  0
LINE
  5
CF
330
47
100
AcDbEntity
  8
0
  6
Continuous
 62
     7
100
AcDbLine
 10
-159.510345720626
 20
-206.4091200175046
 30
0.0
 11
-153.8461632013983
 21
-208.0442286686121
 31
0.0
  0
LINE
  5
D0
330
47
100
AcDbEntity
  8
0
  6
Continuous
 62
     7
100
AcDbLine
 10
-158.9961630802597
 20
-212.5042593931924
 30
0.0
 11
-153.8461632013983
 21
-208.0442286686121
 31
0.0
  0
LINE
  5
D1
330
47
100
AcDbEntity
  8
0
  6
Continuous
 62
     7
100
AcDbLine
 10
-158.9961630802597
 20
-209.0294484662738
 30
0.0
 11
-159.4961632010212
 21
-209.4624612727485
 31
0.0
  0
LINE
  5
D2
330
47
100
AcDbEntity
  8
0
  6
Continuous
 62
     7
100
AcDbLine
 10
-158.9961630802597
 20
-209.0294484662738
 30
0.0
 11
-158.9961630802597
 21
-212.5042593931924
 31
0.0
  0
LINE
  5
D3
330
47
100
AcDbEntity
  8
0
  6
Continuous
 62
     7
100
AcDbLine
 10
-159.4711630802073
 20
-189.3752419073593
 30
0.0
 11
-159.4711630802072
 21
-190.7417837080643
 31
0.0
  0
LINE
  5
D4
330
47
100
AcDbEntity
  8
0
  6
Continuous
 62
     7
100
AcDbLine
 10
-167.973723805687
 20
-178.4182033200215
 30
0.0
 11
-159.4711630802073
 21
-189.3752419073593
 31
0.0
  0
LINE
  5
D5
330
47
100
AcDbEntity
  8
0
  6
Continuous
 62
     7
100
AcDbLine
 10
-159.4711630802072
 20
-190.7417837080643
 30
0.0
 11
-159.752133387586
 21
-190.9516278373303
 31
0.0
  0
LINE
  5
D6
330
47
100
AcDbEntity
  8
0
  6
Continuous
 62
     7
100
AcDbLine
 10
-158.9961630802606
 20
-190.9023452191677
 30
0.0
 11
-159.4961632010223
 21
-191.3353580256426
 31
0.0
  0
LINE
  5
D7
330
47
100
AcDbEntity
  8
0
  6
Continuous
 62
     7
100
AcDbLine
 10
-159.26159373648
 20
-190.5602913325432
 30
0.0
 11
-158.9961630802606
 21
-190.9023452191677
 31
0.0
  0
LINE
  5
D8
330
47
100
AcDbEntity
  8
0
  6
Continuous
 62
     7
100
AcDbLine
 10
-158.9961630802606
 20
-190.9023452191677
 30
0.0
 11
-158.9961630802605
 21
-195.2817213814029
 31
0.0
  0
LINE
  5
D9
330
47
100
AcDbEntity
  8
0
  6
Continuous
 62
     7
100
AcDbLine
 10
-158.9961630802605
 20
-195.2817213814029
 30
0.0
 11
-159.4961632010222
 21
-195.7147341878778
 31
0.0
  0
LINE
  5
DA
330
47
100
AcDbEntity
  8
0
  6
Continuous
 62
     7
100
AcDbLine
 10
-159.496163201021
 20
-217.0613400706989
 30
0.0
 11
-167.3336933843497
 21
-217.1266616563596
 31
0.0
  0
LINE
  5
DB
330
47
100
AcDbEntity
  8
0
  6
Continuous
 62
     7
100
AcDbLine
 10
-159.4961632010212
 20
-209.4624612727485
 30
0.0
 11
-159.496163201021
 21
-217.0613400706989
 31
0.0
  0
LINE
  5
DC
330
47
100
AcDbEntity
  8
0
  6
Continuous
 62
     7
100
AcDbLine
 10
-168.5515486590825
 20
-179.6659079516694
 30
0.0
 11
-174.7847754077169
 21
-177.8665303810473
 31
0.0
  0
LINE
  5
DD
330
47
100
AcDbEntity
  8
0
  6
Continuous
 62
     7
100
AcDbLine
 10
-168.5515486590825
 20
-179.6659079516694
 30
0.0
 11
-159.4961632010223
 21
-191.3353580256426
 31
0.0
  0
LINE
  5
DE
330
47
100
AcDbEntity
  8
0
  6
Continuous
 62
     7
100
AcDbLine
 10
-168.5265485382945
 20
-179.6442572119693
 30
0.0
 11
-159.752133387586
 21
-190.9516278373303
 31
0.0
  0
LINE
  5
DF
330
47
100
AcDbEntity
  8
0
  6
Continuous
 62
     7
100
AcDbLine
 10
-159.4711630802073
 20
-189.3752419073593
 30
0.0
 11
-153.3711630801783
 21
-184.0924869442841
 31
0.0
  0
LINE
  5
E0
330
47
100
AcDbEntity
  8
0
  6
Continuous
 62
     7
100
AcDbLine
 10
-159.4711630802072
 20
-190.7417837080643
 30
0.0
 11
-153.3711630801783
 21
-185.459028744989
 31
0.0
  0
LINE
  5
E1
330
47
100
AcDbEntity
  8
0
  6
Continuous
 62
     7
100
AcDbLine
 10
-153.3461630802631
 20
-211.7352837328448
 30
0.0
 11
-159.496163201021
 21
-217.0613400706989
 31
0.0
  0
LINE
  5
E2
330
47
100
AcDbEntity
  8
0
  6
Continuous
 62
     7
100
AcDbLine
 10
-168.5515486590825
 20
-179.6659079516694
 30
0.0
 11
-168.5265485382945
 21
-179.6442572119693
 31
0.0
  0
LINE
  5
E3
330
47
100
AcDbEntity
  8
0
  6
Continuous
 62
     7
100
AcDbLine
 10
-174.7597752869157
 20
-177.8448796413361
 30
0.0
 11
-168.5265485382945
 21
-179.6442572119693
 31
0.0
  0
LINE
  5
E4
330
47
100
AcDbEntity
  8
0
  6
Continuous
 62
     7
100
AcDbLine
 10
-174.3513964814355
 20
-176.5771278019364
 30
0.0
 11
-167.973723805687
 21
-178.4182033200215
 31
0.0
  0
LINE
  5
E5
330
47
100
AcDbEntity
  8
0
  6
Continuous
 62
     7
100
AcDbLine
 10
-172.8762556895018
 20
-221.069224042072
 30
0.0
 11
-173.8024715114917
 21
-220.8018485649952
 31
0.0
  0
LINE
  5
E6
330
47
100
AcDbEntity
  8
0
  6
Continuous
 62
     7
100
AcDbLine
 10
-175.257825549917
 20
-216.8743211567368
 30
0.0
 11
-174.0867202966859
 21
-216.0412848701069
 31
0.0
  0
LINE
  5
E7
330
47
100
AcDbEntity
  8
0
  6
Continuous
 62
     7
100
AcDbLine
 10
-174.0867202966859
 20
-216.0412848701069
 30
0.0
 11
-172.9628582298881
 21
-216.0645779703034
 31
0.0
  0
LINE
  5
E8
330
47
100
AcDbEntity
  8
0
  6
Continuous
 62
     7
100
AcDbLine
 10
-174.7597752869157
 20
-177.8448796413361
 30
0.0
 11
-174.7847754077169
 21
-177.8665303810473
 31
0.0
  0
LINE
  5
E9
330
47
100
AcDbEntity
  8
0
  6
Continuous
 62
     7
100
AcDbLine
 10
-172.9628582298881
 20
-216.0645779703034
 30
0.0
 11
-172.9628582298882
 21
-215.111950026145
 31
0.0
  0
LINE
  5
EA
330
47
100
AcDbEntity
  8
0
  6
Continuous
 62
     7
100
AcDbLine
 10
-174.861748383698
 20
-177.6767942438485
 30
0.0
 11
-174.8617483837006
 21
-177.0185894644724
 31
0.0
  0
LINE
  5
EB
330
47
100
AcDbEntity
  8
0
  6
Continuous
 62
     7
100
AcDbLine
 10
-174.8617483837006
 20
-177.0185894644724
 30
0.0
 11
-174.3513964814355
 21
-176.5771278019364
 31
0.0
  0
LINE
  5
EC
330
47
100
AcDbEntity
  8
0
  6
Continuous
 62
     7
100
AcDbLine
 10
-174.8617483837006
 20
-177.0185894644724
 30
0.0
 11
-174.1117483839094
 21
-176.3690704118192
 31
0.0
  0
LINE
  5
ED
330
47
100
AcDbEntity
  8
0
  6
Continuous
 62
     7
100
AcDbLine
 10
-173.0009271964934
 20
-215.1009604620863
 30
0.0
 11
-174.0867202966859
 21
-216.0412848701069
 31
0.0
  0
LINE
  5
EE
330
47
100
AcDbEntity
  8
0
  6
Continuous
 62
     7
100
AcDbLine
 10
-173.8024715114917
 20
-220.8018485649952
 30
0.0
 11
-175.257825549917
 21
-218.3032630729886
 31
0.0
  0
LINE
  5
EF
330
47
100
AcDbEntity
  8
0
  6
Continuous
 62
     7
100
AcDbLine
 10
-173.1578255499209
 20
-215.055667808793
 30
0.0
 11
-175.257825549917
 21
-216.8743211567368
 31
0.0
  0
LINE
  5
F0
330
47
100
AcDbEntity
  8
0
  6
Continuous
 62
     7
100
AcDbLine
 10
-167.3336933843497
 20
-217.1266616563596
 30
0.0
 11
-172.8762556895018
 21
-221.069224042072
 31
0.0
  0
LINE
  5
F1
330
47
100
AcDbEntity
  8
0
  6
Continuous
 62
     7
100
AcDbLine
 10
-215.7628143261477
 20
-173.1252419072825
 30
0.0
 11
-207.2602536006684
 21
-167.077159043633
 31
0.0
  0
LINE
  5
F2
330
47
100
AcDbEntity
  8
0
  6
Continuous
 62
     7
100
AcDbLine
 10
-215.7628143261477
 20
-173.1252419072825
 30
0.0
 11
-209.6628143260693
 21
-167.8424869441644
 31
0.0
  0
LINE
  5
F3
330
47
100
AcDbEntity
  8
0
  6
Continuous
 62
     7
100
AcDbLine
 10
-168.7617483836582
 20
-171.7358345013855
 30
0.0
 11
-168.2513964813934
 21
-171.2943728388498
 31
0.0
  0
LINE
  5
F4
330
47
100
AcDbEntity
  8
0
  6
Continuous
 62
     7
100
AcDbLine
 10
-176.9245574033535
 20
-174.9755120391804
 30
0.0
 11
-180.1604746449693
 21
-174.0413831939194
 31
0.0
  0
LINE
  5
F5
330
47
100
AcDbEntity
  8
0
  6
Continuous
 62
     7
100
AcDbLine
 10
-177.4401486022912
 20
-176.0001660184822
 30
0.0
 11
-172.8401486017991
 21
-172.0164491607177
 31
0.0
  0
LINE
  5
F6
330
47
100
AcDbEntity
  8
0
  6
Continuous
 62
     7
100
AcDbLine
 10
-172.7433071105501
 20
-171.3544430660316
 30
0.0
 11
-178.8933072313081
 21
-176.6804994038853
 31
0.0
  0
LINE
  5
F7
330
47
100
AcDbEntity
  8
0
  6
Continuous
 62
     7
100
AcDbLine
 10
-175.8035141700415
 20
-175.7249248310868
 30
0.0
 11
-173.9767251547268
 21
-176.2522733959339
 31
0.0
  0
LINE
  5
F8
330
47
100
AcDbEntity
  8
0
  6
Continuous
 62
     7
100
AcDbLine
 10
-172.7433071105501
 20
-171.3544430660316
 30
0.0
 11
-172.2426236864354
 21
-171.4989779208773
 31
0.0
  0
LINE
  5
F9
330
47
100
AcDbEntity
  8
0
  6
Continuous
 62
     7
100
AcDbLine
 10
-172.565148467797
 20
-171.7782925748864
 30
0.0
 11
-172.0651483466622
 21
-171.3452797680884
 31
0.0
  0
LINE
  5
FA
330
47
100
AcDbEntity
  8
0
  6
Continuous
 62
     7
100
AcDbLine
 10
-171.2035141695462
 20
-171.7412079733196
 30
0.0
 11
-169.3767251542756
 21
-172.2685565381611
 31
0.0
  0
LINE
  5
FB
330
47
100
AcDbEntity
  8
0
  6
Continuous
 62
     7
100
AcDbLine
 10
-173.9767251547268
 20
-176.2522733959339
 30
0.0
 11
-169.3767251542756
 21
-172.2685565381611
 31
0.0
  0
LINE
  5
FC
330
47
100
AcDbEntity
  8
0
  6
Continuous
 62
     7
100
AcDbLine
 10
-174.1117483839094
 20
-176.3690704118192
 30
0.0
 11
-173.9767251547268
 21
-176.2522733959339
 31
0.0
  0
LINE
  5
FD
330
47
100
AcDbEntity
  8
0
  6
Continuous
 62
     7
100
AcDbLine
 10
-174.3513964814355
 20
-176.5771278019364
 30
0.0
 11
-168.2513964813934
 21
-171.2943728388498
 31
0.0
  0
LINE
  5
FE
330
47
100
AcDbEntity
  8
0
  6
Continuous
 62
     2
100
AcDbLine
 10
-171.2035141695462
 20
-171.7412079733196
 30
0.0
 11
-175.8035141700415
 21
-175.7249248310868
 31
0.0
  0
LINE
  5
FF
330
47
100
AcDbEntity
  8
0
  6
Continuous
 62
     7
100
AcDbLine
 10
-200.3722290226548
 20
-169.6543480324103
 30
0.0
 11
-200.3722290226547
 21
-170.3106970777699
 31
0.0
  0
LINE
  5
100
330
47
100
AcDbEntity
  8
0
  6
Continuous
 62
     7
100
AcDbLine
 10
-200.88258092492
 20
-168.9182345617181
 30
0.0
 11
-200.3722290226548
 21
-169.6543480324103
 31
0.0
  0
LINE
  5
101
330
47
100
AcDbEntity
  8
0
  6
Continuous
 62
     7
100
AcDbLine
 10
-180.1604746449693
 20
-173.6426344789567
 30
0.0
 11
-180.1604746449693
 21
-174.0413831939194
 31
0.0
  0
LINE
  5
102
330
47
100
AcDbEntity
  8
0
  6
Continuous
 62
     7
100
AcDbLine
 10
-186.7254974425584
 20
-175.025758821789
 30
0.0
 11
-189.5027236882845
 21
-174.2240426615038
 31
0.0
  0
LINE
  5
103
330
47
100
AcDbEntity
  8
0
  6
Continuous
 62
     7
100
AcDbLine
 10
-195.6527238090411
 20
-176.7761961644197
 30
0.0
 11
-196.3906704167454
 21
-174.5356776866865
 31
0.0
  0
LINE
  5
104
330
47
100
AcDbEntity
  8
0
  6
Continuous
 62
     7
100
AcDbLine
 10
-178.3722531735838
 20
-176.83091475413
 30
0.0
 11
-178.8933072313081
 21
-176.6804994038853
 31
0.0
  0
LINE
  5
105
330
47
100
AcDbEntity
  8
0
  6
Continuous
 62
     7
100
AcDbLine
 10
-190.1027235675299
 20
-174.7436577991981
 30
0.0
 11
-187.374743545572
 21
-175.5311577992084
 31
0.0
  0
LINE
  5
106
330
47
100
AcDbEntity
  8
0
  6
Continuous
 62
     7
100
AcDbLine
 10
-190.1027235675299
 20
-174.7436577991981
 30
0.0
 11
-189.5027236882845
 21
-174.2240426615038
 31
0.0
  0
LINE
  5
107
330
47
100
AcDbEntity
  8
0
  6
Continuous
 62
     7
100
AcDbLine
 10
-189.5027236882846
 20
-171.4501398265654
 30
0.0
 11
-189.5027236882845
 21
-174.2240426615038
 31
0.0
  0
LINE
  5
108
330
47
100
AcDbEntity
  8
0
  6
Continuous
 62
     7
100
AcDbLine
 10
-189.5027236882846
 20
-171.4501398265654
 30
0.0
 11
-195.6527238090411
 21
-176.7761961644197
 31
0.0
  0
LINE
  5
109
330
47
100
AcDbEntity
  8
0
  6
Continuous
 62
     7
100
AcDbLine
 10
-196.9117244744337
 20
-171.4790303810409
 30
0.0
 11
-196.4117243536772
 21
-171.0460175745705
 31
0.0
  0
LINE
  5
10A
330
47
100
AcDbEntity
  8
0
  6
Continuous
 62
     7
100
AcDbLine
 10
-196.6735802016958
 20
-170.6528836545311
 30
0.0
 11
-196.1367239459226
 21
-170.8078607064314
 31
0.0
  0
LINE
  5
10B
330
47
100
AcDbEntity
  8
0
  6
Continuous
 62
     7
100
AcDbLine
 10
-199.7843706264351
 20
-169.8034525067952
 30
0.0
 11
-199.6222290228948
 21
-169.6630337591198
 31
0.0
  0
LINE
  5
10C
330
47
100
AcDbEntity
  8
0
  6
Continuous
 62
     7
100
AcDbLine
 10
-180.5044204229211
 20
-171.1924639431643
 30
0.0
 11
-179.7033011618544
 21
-173.2467106286423
 31
0.0
  0
LINE
  5
10D
330
47
100
AcDbEntity
  8
0
  6
Continuous
 62
     7
100
AcDbLine
 10
-199.6222290228952
 20
-169.0048289797845
 30
0.0
 11
-199.6222290228948
 21
-169.6630337591198
 31
0.0
  0
LINE
  5
10E
330
47
100
AcDbEntity
  8
0
  6
Continuous
 62
     7
100
AcDbLine
 10
-200.3722290226548
 20
-169.6543480324103
 30
0.0
 11
-199.6222290228952
 21
-169.0048289797845
 31
0.0
  0
LINE
  5
10F
330
47
100
AcDbEntity
  8
0
  6
Continuous
 62
     7
100
AcDbLine
 10
-199.7572522520666
 20
-168.8100762662002
 30
0.0
 11
-197.9304632368767
 21
-169.3374248310372
 31
0.0
  0
LINE
  5
110
330
47
100
AcDbEntity
  8
0
  6
Continuous
 62
     7
100
AcDbLine
 10
-199.7572522520666
 20
-168.8100762662002
 30
0.0
 11
-199.6222290228952
 21
-169.0048289797845
 31
0.0
  0
LINE
  5
111
330
47
100
AcDbEntity
  8
0
  6
Continuous
 62
     7
100
AcDbLine
 10
-215.5016895331597
 20
-174.8375665815735
 30
0.0
 11
-215.7878144470276
 21
-175.0853580256388
 31
0.0
  0
LINE
  5
112
330
47
100
AcDbEntity
  8
0
  6
Continuous
 62
     7
100
AcDbLine
 10
-215.7628143261477
 20
-174.4917837079893
 30
0.0
 11
-215.7628143261477
 21
-173.1252419072825
 31
0.0
  0
LINE
  5
113
330
47
100
AcDbEntity
  8
0
  6
Continuous
 62
     7
100
AcDbLine
 10
-215.482072654266
 20
-174.8635433594853
 30
0.0
 11
-215.7628143261477
 21
-174.4917837079893
 31
0.0
  0
LINE
  5
114
330
47
100
AcDbEntity
  8
0
  6
Continuous
 62
     7
100
AcDbLine
 10
-200.3420975341368
 20
-170.2838361059361
 30
0.0
 11
-199.8420974133804
 21
-169.8508232994658
 31
0.0
  0
LINE
  5
115
330
47
100
AcDbEntity
  8
0
  6
Continuous
 62
     7
100
AcDbLine
 10
-190.2406702959891
 20
-169.2096213488318
 30
0.0
 11
-189.5027236882846
 21
-171.4501398265654
 31
0.0
  0
LINE
  5
116
330
47
100
AcDbEntity
  8
0
  6
Continuous
 62
     7
100
AcDbLine
 10
-180.5044204229211
 20
-171.1924639431643
 30
0.0
 11
-181.8504974425631
 21
-170.803884978344
 31
0.0
  0
LINE
  5
117
330
47
100
AcDbEntity
  8
0
  6
Continuous
 62
     7
100
AcDbLine
 10
-206.7474155461682
 20
-168.6397109370751
 30
0.0
 11
-215.7878144470276
 21
-175.0853580256388
 31
0.0
  0
LINE
  5
118
330
47
100
AcDbEntity
  8
0
  6
Continuous
 62
     7
100
AcDbLine
 10
-196.3906704167454
 20
-174.5356776866865
 30
0.0
 11
-190.2406702959891
 21
-169.2096213488318
 31
0.0
  0
LINE
  5
119
330
47
100
AcDbEntity
  8
0
  6
Continuous
 62
     7
100
AcDbLine
 10
-188.0004975633212
 20
-176.1299413161978
 30
0.0
 11
-181.8504974425631
 21
-170.803884978344
 31
0.0
  0
LINE
  5
11A
330
47
100
AcDbEntity
  8
0
  6
Continuous
 62
     7
100
AcDbLine
 10
-186.6544205436792
 20
-176.5185202810179
 30
0.0
 11
-180.5044204229211
 21
-171.1924639431643
 31
0.0
  0
LINE
  5
11B
330
47
100
AcDbEntity
  8
0
  6
Continuous
 62
     7
100
AcDbLine
 10
-215.482072654266
 20
-174.8635433594853
 30
0.0
 11
-206.7224154253178
 21
-168.618060197321
 31
0.0
  0
LINE
  5
11C
330
47
100
AcDbEntity
  8
0
  6
Continuous
 62
     7
100
AcDbLine
 10
-188.9775003591714
 20
-178.6191859158357
 30
0.0
 11
-188.9775003591714
 21
-180.7842494252965
 31
0.0
  0
LINE
  5
11D
330
47
100
AcDbEntity
  8
0
  6
Continuous
 62
     7
100
AcDbLine
 10
-188.9775003591714
 20
-178.6191859158357
 30
0.0
 11
-188.7245205787658
 21
-178.6922148879941
 31
0.0
  0
LINE
  5
11E
330
47
100
AcDbEntity
  8
0
  6
Continuous
 62
     7
100
AcDbLine
 10
-188.7245205787658
 20
-180.8572783974549
 30
0.0
 11
-190.8525003591709
 21
-180.2429835479317
 31
0.0
  0
LINE
  5
11F
330
47
100
AcDbEntity
  8
0
  6
Continuous
 62
     7
100
AcDbLine
 10
-190.8525003591709
 20
-180.2429835479317
 30
0.0
 11
-188.9775003591714
 21
-178.6191859158357
 31
0.0
  0
LINE
  5
120
330
47
100
AcDbEntity
  8
0
  6
Continuous
 62
     7
100
AcDbLine
 10
-201.2595168777954
 20
-206.9434082823781
 30
0.0
 11
-202.2345168777945
 21
-207.7877830510671
 31
0.0
  0
LINE
  5
121
330
47
100
AcDbEntity
  8
0
  6
Continuous
 62
     2
100
AcDbLine
 10
-200.8421673803219
 20
-207.0638867047343
 30
0.0
 11
-202.2345168777945
 21
-208.2696967404919
 31
0.0
  0
LINE
  5
122
330
47
100
AcDbEntity
  8
0
  6
Continuous
 62
     7
100
AcDbLine
 10
-203.0139397412005
 20
-207.6309737157081
 30
0.0
 11
-201.9798848933214
 21
-206.7354559485384
 31
0.0
  0
LINE
  5
123
330
47
100
AcDbEntity
  8
0
  6
Continuous
 62
     7
100
AcDbLine
 10
-195.652723809041
 20
-179.5500989993579
 30
0.0
 11
-195.0527235675286
 21
-179.0304835479312
 31
0.0
  0
LINE
  5
124
330
47
100
AcDbEntity
  8
0
  6
Continuous
 62
     7
100
AcDbLine
 10
-192.3247435455706
 20
-179.8179835479416
 30
0.0
 11
-195.0527235675286
 21
-179.0304835479312
 31
0.0
  0
LINE
  5
125
330
47
100
AcDbEntity
  8
0
  6
Continuous
 62
     7
100
AcDbLine
 10
-180.4889183088386
 20
-178.2983474685049
 30
0.0
 11
-181.2900375699073
 21
-179.8900677329528
 31
0.0
  0
LINE
  5
126
330
47
100
AcDbEntity
  8
0
  6
Continuous
 62
     7
100
AcDbLine
 10
-198.88483774064
 20
-207.6289191019158
 30
0.0
 11
-203.7141190093298
 21
-211.8111993626214
 31
0.0
  0
LINE
  5
127
330
47
100
AcDbEntity
  8
0
  6
Continuous
 62
     7
100
AcDbLine
 10
-216.062480715013
 20
-203.8913002633802
 30
0.0
 11
-215.3232817952729
 21
-204.8438875307685
 31
0.0
  0
LINE
  5
128
330
47
100
AcDbEntity
  8
0
  6
Continuous
 62
     2
100
AcDbLine
 10
-202.048940005555
 20
-205.8610433615736
 30
0.0
 11
-203.0139397412005
 21
-206.6967576472879
 31
0.0
  0
LINE
  5
129
330
47
100
AcDbEntity
  8
0
  6
Continuous
 62
     2
100
AcDbLine
 10
-202.0509141250681
 20
-203.4639608837126
 30
0.0
 11
-202.1783738823986
 21
-203.574344271521
 31
0.0
  0
LINE
  5
12A
330
47
100
AcDbEntity
  8
0
  6
Continuous
 62
     7
100
AcDbLine
 10
-215.2852286837618
 20
-205.9162597485444
 30
0.0
 11
-212.8575278813856
 21
-203.8138091808989
 31
0.0
  0
LINE
  5
12B
330
47
100
AcDbEntity
  8
0
  6
Continuous
 62
     2
100
AcDbLine
 10
-215.3232817952729
 20
-204.8438875307685
 30
0.0
 11
-212.6022409692045
 21
-202.487397050659
 31
0.0
  0
LINE
  5
12C
330
47
100
AcDbEntity
  8
0
  6
Continuous
 62
     7
100
AcDbLine
 10
-213.1462378433235
 20
-206.1100836831458
 30
0.0
 11
-213.1224734976289
 21
-206.0895031560698
 31
0.0
  0
LINE
  5
12D
330
47
100
AcDbEntity
  8
0
  6
Continuous
 62
     7
100
AcDbLine
 10
-215.3548017451284
 20
-205.9668711990589
 30
0.0
 11
-215.3548017451283
 21
-206.7715640833708
 31
0.0
  0
LINE
  5
12E
330
47
100
AcDbEntity
  8
0
  6
Continuous
 62
     7
100
AcDbLine
 10
-215.3548017451283
 20
-206.7715640833708
 30
0.0
 11
-212.98854094589
 21
-204.7223221192513
 31
0.0
  0
LINE
  5
12F
330
47
100
AcDbEntity
  8
0
  6
Continuous
 62
     7
100
AcDbLine
 10
-212.173120844424
 20
-199.3761926290956
 30
0.0
 11
-215.7878144470273
 21
-198.3327204668451
 31
0.0
  0
LINE
  5
130
330
47
100
AcDbEntity
  8
0
  6
Continuous
 62
     7
100
AcDbLine
 10
-215.7878144470273
 20
-198.3327204668451
 30
0.0
 11
-215.7878144470276
 21
-193.2124612726531
 31
0.0
  0
LINE
  5
131
330
47
100
AcDbEntity
  8
0
  6
Continuous
 62
     7
100
AcDbLine
 10
-159.4961632010223
 20
-191.3353580256426
 30
0.0
 11
-159.4961632010222
 21
-195.7147341878778
 31
0.0
  0
LINE
  5
132
330
47
100
AcDbEntity
  8
0
  6
Continuous
 62
     7
100
AcDbLine
 10
-172.9628582298882
 20
-215.111950026145
 30
0.0
 11
-202.1425735687309
 21
-206.6884917732674
 31
0.0
  0
SPLINE
  5
133
330
47
100
AcDbEntity
  8
0
  6
Continuous
 62
     7
100
AcDbSpline
210
0.0
220
0.0
230
1.0
 70
     8
 71
     3
 72
    13
 73
     9
 74
     7
 42
0.000000001
 43
0.0000000001
 44
0.00000001
 40
0.0
 40
0.0
 40
0.0
 40
0.0
 40
0.5070888718540301
 40
1.052063086687701
 40
1.636078277046193
 40
2.251077626403627
 40
2.882786406966678
 40
3.513897711457368
 40
3.513897711457368
 40
3.513897711457368
 40
3.513897711457368
 10
-194.1842524873189
 20
-165.1072402462344
 30
0.0
 10
-194.0179965557965
 20
-165.0706993446068
 30
0.0
 10
-193.6730634694453
 20
-164.9948875321441
 30
0.0
 10
-193.1233496700798
 20
-165.0759791247933
 30
0.0
 10
-192.5766847357744
 20
-165.2827979969485
 30
0.0
 10
-192.0627711494086
 20
-165.6191256496252
 30
0.0
 10
-191.6043301434926
 20
-166.0534121287395
 30
0.0
 10
-191.3758903333137
 20
-166.4085179436782
 30
0.0
 10
-191.2617244748104
 20
-166.5859868499852
 30
0.0
 11
-194.1842524873189
 21
-165.1072402462344
 31
0.0
 11
-193.6834972834585
 21
-165.0273443588473
 31
0.0
 11
-193.1423962053245
 21
-165.0922020712995
 31
0.0
 11
-192.5957103510294
 21
-165.2976487137093
 31
0.0
 11
-192.0785597435518
 21
-165.6304841846136
 31
0.0
 11
-191.6241677844809
 21
-166.0693280420089
 31
0.0
 11
-191.2617244748104
 21
-166.5859868499852
 31
0.0
  0
SPLINE
  5
134
330
47
100
AcDbEntity
  8
0
  6
Continuous
 62
     7
100
AcDbSpline
210
0.0
220
0.0
230
1.0
 70
     8
 71
     3
 72
    15
 73
    11
 74
     9
 42
0.000000001
 43
0.0000000001
 44
0.00000001
 40
0.0
 40
0.0
 40
0.0
 40
0.0
 40
0.430957110803272
 40
0.8782813740218294
 40
1.35355123317155
 40
1.861240254240951
 40
2.398939720746277
 40
2.958869869796022
 40
3.52975872698063
 40
4.098739450855655
 40
4.098739450855655
 40
4.098739450855655
 40
4.098739450855655
 10
-194.1920974133788
 20
-164.9577797680823
 30
0.0
 10
-194.074554740891
 20
-164.8732970401694
 30
0.0
 10
-193.8350052813316
 20
-164.7011230594553
 30
0.0
 10
-193.3879250953447
 20
-164.5894060699081
 30
0.0
 10
-192.9078026682445
 20
-164.5900724064051
 30
0.0
 10
-192.410814789896
 20
-164.710380940156
 30
0.0
 10
-191.9234614238503
 20
-164.9393241990423
 30
0.0
 10
-191.4709236962345
 20
-165.2666968655104
 30
0.0
 10
-191.0679942563654
 20
-165.6710366706278
 30
0.0
 10
-190.8637003218529
 20
-165.992507629671
 30
0.0
 10
-190.7617243536756
 20
-166.1529740431872
 30
0.0
 11
-194.1920974133788
 21
-164.9577797680823
 31
0.0
 11
-193.8272989169896
 21
-164.7283324046785
 31
0.0
 11
-193.3959883116262
 21
-164.6097146879806
 31
0.0
 11
-192.920721088406
 21
-164.6081309137035
 31
0.0
 11
-192.4263522859353
 21
-164.7236628612831
 31
0.0
 11
-191.9387355493917
 21
-164.950269647316
 31
0.0
 11
-191.483371296225
 21
-165.2760996168179
 31
0.0
 11
-191.0840738245636
 21
-165.6841138513983
 31
0.0
 11
-190.7617243536756
 21
-166.1529740431872
 31
0.0
  0
SPLINE
  5
135
330
47
100
AcDbEntity
  8
0
  6
Continuous
 62
     7
100
AcDbSpline
210
0.0
220
0.0
230
1.0
 70
     8
 71
     3
 72
    11
 73
     7
 74
     5
 42
0.000000001
 43
0.0000000001
 44
0.00000001
 40
0.0
 40
0.0
 40
0.0
 40
0.0
 40
0.6061205724458902
 40
1.213441006247734
 40
1.806533062991467
 40
2.372336399509682
 40
2.372336399509682
 40
2.372336399509682
 40
2.372336399509682
 10
-191.536723945356
 20
-166.8241438485906
 30
0.0
 10
-191.6459171110513
 20
-166.653373589828
 30
0.0
 10
-191.8645196106699
 20
-166.3114950283985
 30
0.0
 10
-192.3011023854766
 20
-165.8907817416679
 30
0.0
 10
-192.787824078134
 20
-165.5502881234836
 30
0.0
 10
-193.1524454502158
 20
-165.4181979013123
 30
0.0
 10
-193.330463236307
 20
-165.3537079732055
 30
0.0
 11
-191.536723945356
 21
-166.8241438485906
 31
0.0
 11
-191.8829286578221
 21
-166.3266255614064
 31
0.0
 11
-192.3149583564783
 21
-165.8997901703323
 31
0.0
 11
-192.8071984936177
 21
-165.5689460413365
 31
0.0
 11
-193.330463236307
 21
-165.3537079732055
 31
0.0
  0
SPLINE
  5
136
330
47
100
AcDbEntity
  8
0
  6
Continuous
 62
     7
100
AcDbSpline
210
0.0
220
0.0
230
1.0
 70
     8
 71
     3
 72
    15
 73
    11
 74
     9
 42
0.000000001
 43
0.0000000001
 44
0.00000001
 40
0.0
 40
0.0
 40
0.0
 40
0.0
 40
0.4309571108031784
 40
0.8782813740216885
 40
1.353551233171409
 40
1.861240254240783
 40
2.398939720746057
 40
2.958869869795782
 40
3.52975872698043
 40
4.098739450855399
 40
4.098739450855399
 40
4.098739450855399
 40
4.098739450855399
 10
-200.3420975341368
 20
-170.2838361059361
 30
0.0
 10
-200.224554861649
 20
-170.1993533780233
 30
0.0
 10
-199.9850054020897
 20
-170.0271793973093
 30
0.0
 10
-199.5379252161028
 20
-169.915462407762
 30
0.0
 10
-199.0578027890026
 20
-169.9161287442589
 30
0.0
 10
-198.5608149106541
 20
-170.0364372780099
 30
0.0
 10
-198.0734615446085
 20
-170.2653805368963
 30
0.0
 10
-197.6209238169927
 20
-170.5927532033642
 30
0.0
 10
-197.2179943771233
 20
-170.9970930084814
 30
0.0
 10
-197.013700442611
 20
-171.3185639675247
 30
0.0
 10
-196.9117244744337
 20
-171.4790303810409
 30
0.0
 11
-200.3420975341368
 21
-170.2838361059361
 31
0.0
 11
-199.9772990377476
 21
-170.0543887425324
 31
0.0
 11
-199.5459884323843
 21
-169.9357710258345
 31
0.0
 11
-199.0707212091641
 21
-169.9341872515573
 31
0.0
 11
-198.5763524066934
 21
-170.049719199137
 31
0.0
 11
-198.0887356701498
 21
-170.2763259851699
 31
0.0
 11
-197.6333714169831
 21
-170.6021559546716
 31
0.0
 11
-197.2340739453217
 21
-171.0101701892521
 31
0.0
 11
-196.9117244744337
 21
-171.4790303810409
 31
0.0
  0
SPLINE
  5
137
330
47
100
AcDbEntity
  8
0
  6
Continuous
 62
     7
100
AcDbSpline
210
0.0
220
0.0
230
1.0
 70
     8
 71
     3
 72
     9
 73
     5
 74
     3
 42
0.000000001
 43
0.0000000001
 44
0.00000001
 40
0.0
 40
0.0
 40
0.0
 40
0.0
 40
0.1122101701985918
 40
0.2241120175556162
 40
0.2241120175556162
 40
0.2241120175556162
 40
0.2241120175556162
 10
-200.4992022403001
 20
-170.4434147541236
 30
0.0
 10
-200.4745665491637
 20
-170.4152216666781
 30
0.0
 10
-200.4253628445225
 20
-170.3589129724047
 30
0.0
 10
-200.3698271744491
 20
-170.3088387600807
 30
0.0
 10
-200.3420975341368
 20
-170.2838361059361
 30
0.0
 11
-200.4992022403001
 21
-170.4434147541236
 31
0.0
 11
-200.4237078095252
 21
-170.3603984105101
 31
0.0
 11
-200.3420975341368
 21
-170.2838361059361
 31
0.0
  0
SPLINE
  5
138
330
47
100
AcDbEntity
  8
0
  6
Continuous
 62
     7
100
AcDbSpline
210
0.0
220
0.0
230
1.0
 70
     8
 71
     3
 72
     9
 73
     5
 74
     3
 42
0.000000001
 43
0.0000000001
 44
0.00000001
 40
0.0
 40
0.0
 40
0.0
 40
0.0
 40
0.0912687751008002
 40
0.1823708739926745
 40
0.1823708739926745
 40
0.1823708739926745
 40
0.1823708739926745
 10
-172.6949279236895
 20
-171.9062835572586
 30
0.0
 10
-172.6743134826666
 20
-171.8838824663694
 30
0.0
 10
-172.6331222327196
 20
-171.8391212077501
 30
0.0
 10
-172.5877925844925
 20
-171.7985564230886
 30
0.0
 10
-172.565148467797
 20
-171.7782925748864
 30
0.0
 11
-172.6949279236895
 21
-171.9062835572586
 31
0.0
 11
-172.6320481018113
 21
-171.8401313285134
 31
0.0
 11
-172.565148467797
 21
-171.7782925748864
 31
0.0
  0
SPLINE
  5
139
330
47
100
AcDbEntity
  8
0
  6
Continuous
 62
     7
100
AcDbSpline
210
0.0
220
0.0
230
1.0
 70
     8
 71
     3
 72
    13
 73
     9
 74
     7
 42
0.000000001
 43
0.0000000001
 44
0.00000001
 40
0.0
 40
0.0
 40
0.0
 40
0.0
 40
0.4405432018369543
 40
0.8985099613479258
 40
1.386024466482168
 40
1.907433692262587
 40
2.459661687013223
 40
3.033946811851232
 40
3.033946811851232
 40
3.033946811851232
 40
3.033946811851232
 10
-172.565148467797
 20
-171.7782925748864
 30
0.0
 10
-172.4447665194226
 20
-171.6921524277179
 30
0.0
 10
-172.1992414889842
 20
-171.5164652881326
 30
0.0
 10
-171.7399723316502
 20
-171.4066285006328
 30
0.0
 10
-171.247346965169
 20
-171.41398136881
 30
0.0
 10
-170.7399847160266
 20
-171.5470884593601
 30
0.0
 10
-170.240975459346
 20
-171.7879208305121
 30
0.0
 10
-169.9487160709984
 20
-172.0253883707512
 30
0.0
 10
-169.7997251612963
 20
-172.146446954199
 30
0.0
 11
-172.565148467797
 21
-171.7782925748864
 31
0.0
 11
-172.1914531830119
 21
-171.5449898743657
 31
0.0
 11
-171.7487710634982
 21
-171.4276608594571
 31
0.0
 11
-171.2612827620316
 21
-171.4327157084261
 31
0.0
 11
-170.7556172996132
 21
-171.5598771124428
 31
0.0
 11
-170.2593962627897
 21
-171.8022001230061
 31
0.0
 11
-169.7997251612963
 21
-172.146446954199
 31
0.0
  0
SPLINE
  5
13A
330
47
100
AcDbEntity
  8
0
  6
Continuous
 62
     7
100
AcDbSpline
210
0.0
220
0.0
230
1.0
 70
     8
 71
     3
 72
    13
 73
     9
 74
     7
 42
0.000000001
 43
0.0000000001
 44
0.00000001
 40
0.0
 40
0.0
 40
0.0
 40
0.0
 40
0.6426477925523775
 40
1.265956530623461
 40
1.855488115623321
 40
2.403982334497531
 40
2.914531155137869
 40
3.401905637543039
 40
3.401905637543039
 40
3.401905637543039
 40
3.401905637543039
 10
-174.6889660662126
 20
-176.8689555882041
 30
0.0
 10
-174.8403708995649
 20
-176.7164238185678
 30
0.0
 10
-175.1386243844383
 20
-176.4159503936495
 30
0.0
 10
-175.6743749304274
 20
-176.0948625420219
 30
0.0
 10
-176.2333679334611
 20
-175.8990008273547
 30
0.0
 10
-176.7856314299892
 20
-175.8537257137895
 30
0.0
 10
-177.3055832271612
 20
-175.9516501629849
 30
0.0
 10
-177.5807567205439
 20
-176.1442565212234
 30
0.0
 10
-177.715148346662
 20
-176.2383232994703
 30
0.0
 11
-174.6889660662126
 21
-176.8689555882041
 31
0.0
 11
-175.1605175335188
 21
-176.4323374529657
 31
0.0
 11
-175.6932990561161
 21
-176.1088291336485
 31
0.0
 11
-176.2517746645489
 21
-175.9200104732201
 31
0.0
 11
-176.7986938584511
 21
-175.8784736594741
 31
0.0
 11
-177.2975766226467
 21
-175.986991356915
 31
0.0
 11
-177.715148346662
 21
-176.2383232994703
 31
0.0
  0
SPLINE
  5
13B
330
47
100
AcDbEntity
  8
0
  6
Continuous
 62
     7
100
AcDbSpline
210
0.0
220
0.0
230
1.0
 70
     8
 71
     3
 72
    11
 73
     7
 74
     5
 42
0.000000001
 43
0.0000000001
 44
0.00000001
 40
0.0
 40
0.0
 40
0.0
 40
0.0
 40
3.655036430302984
 40
7.188575665862376
 40
10.59686910580534
 40
13.88401472372471
 40
13.88401472372471
 40
13.88401472372471
 40
13.88401472372471
 10
-215.7878144470276
 20
-179.4647341878744
 30
0.0
 10
-215.5413331394756
 20
-180.6594911371976
 30
0.0
 10
-215.0565638328334
 20
-183.009290080488
 30
0.0
 10
-214.8595767361032
 20
-186.5458643284117
 30
0.0
 10
-215.0364732602966
 20
-189.9649721906938
 30
0.0
 10
-215.5404067847534
 20
-192.1431019992466
 30
0.0
 10
-215.7878144470276
 20
-193.2124612726531
 30
0.0
 11
-215.7878144470276
 21
-179.4647341878744
 31
0.0
 11
-215.1391478827829
 21
-183.0617500339969
 31
0.0
 11
-214.9217890432545
 21
-186.5885977302604
 31
0.0
 11
-215.1391478827829
 21
-189.9899532420116
 31
0.0
 11
-215.7878144470276
 21
-193.2124612726531
 31
0.0
  0
SPLINE
  5
13C
330
47
100
AcDbEntity
  8
0
  6
Continuous
 62
     7
100
AcDbSpline
210
0.0
220
0.0
230
1.0
 70
     8
 71
     3
 72
    13
 73
     9
 74
     7
 42
0.000000001
 43
0.0000000001
 44
0.00000001
 40
0.0
 40
0.0
 40
0.0
 40
0.0
 40
0.1090550105881493
 40
0.2155390160125916
 40
0.316490479423666
 40
0.4102219466709974
 40
0.4970140862073109
 40
0.5794720028738737
 40
0.5794720028738737
 40
0.5794720028738737
 40
0.5794720028738737
 10
-216.062480715013
 20
-203.8913002633802
 30
0.0
 10
-216.0865030188024
 20
-203.8638440447226
 30
0.0
 10
-216.1339813033789
 20
-203.8095789058971
 30
0.0
 10
-216.2224702102484
 20
-203.7500957353014
 30
0.0
 10
-216.3164492018306
 20
-203.7122076937715
 30
0.0
 10
-216.4104083373007
 20
-203.7008249692871
 30
0.0
 10
-216.4995040817803
 20
-203.7149713168531
 30
0.0
 10
-216.5464293616581
 20
-203.7473783868139
 30
0.0
 10
-216.5692911575745
 20
-203.7631669811325
 30
0.0
 11
-216.062480715013
 21
-203.8913002633802
 31
0.0
 11
-216.137820629502
 21
-203.8124529926895
 31
0.0
 11
-216.2257911401985
 21
-203.7524527199411
 31
0.0
 11
-216.3198412915234
 21
-203.7157680182275
 31
0.0
 11
-216.4129671647686
 21
-203.705130335925
 31
0.0
 11
-216.4982336391041
 21
-203.7213323329578
 31
0.0
 11
-216.5692911575745
 21
-203.7631669811325
 31
0.0
  0
SPLINE
  5
13D
330
47
100
AcDbEntity
  8
0
  6
Continuous
 62
     7
100
AcDbSpline
210
0.0
220
0.0
230
1.0
 70
     8
 71
     3
 72
     9
 73
     5
 74
     3
 42
0.000000001
 43
0.0000000001
 44
0.00000001
 40
0.0
 40
0.0
 40
0.0
 40
0.0
 40
0.1077881273743998
 40
0.2245587738524737
 40
0.2245587738524737
 40
0.2245587738524737
 40
0.2245587738524737
 10
-216.5692911575745
 20
-203.7631669811325
 30
0.0
 10
-216.5936051444385
 20
-203.7909281540539
 30
0.0
 10
-216.6442593065672
 20
-203.8487639856932
 30
0.0
 10
-216.650562300911
 20
-203.9255893423361
 30
0.0
 10
-216.6538398508051
 20
-203.9655385595399
 30
0.0
 11
-216.5692911575745
 21
-203.7631669811325
 31
0.0
 11
-216.6320146182283
 21
-203.8508256849197
 31
0.0
 11
-216.6538398508051
 21
-203.9655385595399
 31
0.0
  0
SPLINE
  5
13E
330
47
100
AcDbEntity
  8
0
  6
Continuous
 62
     7
100
AcDbSpline
210
0.0
220
0.0
230
1.0
 70
     8
 71
     3
 72
    11
 73
     7
 74
     5
 42
0.000000001
 43
0.0000000001
 44
0.00000001
 40
0.0
 40
0.0
 40
0.0
 40
0.0
 40
0.9384046815762018
 40
1.899034063295788
 40
2.899984565307776
 40
3.952560471723451
 40
3.952560471723451
 40
3.952560471723451
 40
3.952560471723451
 10
-203.7141190093298
 20
-211.8111993626214
 30
0.0
 10
-203.4913227050207
 20
-211.5894021212505
 30
0.0
 10
-203.0404535129086
 20
-211.1405546953931
 30
0.0
 10
-202.5818929526922
 20
-210.2761025088633
 30
0.0
 10
-202.2858304718061
 20
-209.3075026285203
 30
0.0
 10
-202.2519056924268
 20
-208.6213817026134
 30
0.0
 10
-202.2345168777945
 20
-208.2696967404919
 30
0.0
 11
-203.7141190093298
 21
-211.8111993626214
 31
0.0
 11
-203.082500125916
 21
-211.1171813978149
 31
0.0
 11
-202.6164487251849
 21
-210.2771784779123
 31
0.0
 11
-202.3307640383741
 21
-209.3178630077985
 31
0.0
 11
-202.2345168777945
 21
-208.2696967404919
 31
0.0
  0
SPLINE
  5
13F
330
47
100
AcDbEntity
  8
0
  6
Continuous
 62
     7
100
AcDbSpline
210
0.0
220
0.0
230
1.0
 70
     8
 71
     3
 72
    13
 73
     9
 74
     7
 42
0.000000001
 43
0.0000000001
 44
0.00000001
 40
0.0
 40
0.0
 40
0.0
 40
0.0
 40
0.2224039807169679
 40
0.4373469747287052
 40
0.6404472395635086
 40
0.829714388543377
 40
1.006476201991777
 40
1.175701723747578
 40
1.175701723747578
 40
1.175701723747578
 40
1.175701723747578
 10
-215.3232817952729
 20
-204.8438875307685
 30
0.0
 10
-215.2808883042771
 20
-204.9049851046981
 30
0.0
 10
-215.1975235087101
 20
-205.0251306196573
 30
0.0
 10
-215.120855172932
 20
-205.2265229538106
 30
0.0
 10
-215.0874380137097
 20
-205.4279349253314
 30
0.0
 10
-215.1038579155068
 20
-205.6184732358534
 30
0.0
 10
-215.1661029947831
 20
-205.7903951432784
 30
0.0
 10
-215.2461009553889
 20
-205.8749185791486
 30
0.0
 10
-215.2852286837618
 20
-205.9162597485444
 30
0.0
 11
-215.3232817952729
 21
-204.8438875307685
 31
0.0
 11
-215.2041205205963
 21
-205.0316749645437
 31
0.0
 11
-215.1265862818251
 21
-205.2321467398693
 31
0.0
 11
-215.0954947270388
 21
-205.4328530763476
 31
0.0
 11
-215.1127761333307
 21
-205.6213296208672
 31
0.0
 11
-215.1773578780974
 21
-205.7858712221053
 31
0.0
 11
-215.2852286837618
 21
-205.9162597485444
 31
0.0
  0
SPLINE
  5
140
330
47
100
AcDbEntity
  8
0
  6
Continuous
 62
     7
100
AcDbSpline
210
0.0
220
0.0
230
1.0
 70
     8
 71
     3
 72
     9
 73
     5
 74
     3
 42
0.000000001
 43
0.0000000001
 44
0.00000001
 40
0.0
 40
0.0
 40
0.0
 40
0.0
 40
0.6486295325558896
 40
1.26944582148998
 40
1.26944582148998
 40
1.26944582148998
 40
1.26944582148998
 10
-213.1462378433235
 20
-206.1100836831458
 30
0.0
 10
-213.1453160720893
 20
-206.3271951750563
 30
0.0
 10
-213.1435120750158
 20
-206.7521084134344
 30
0.0
 10
-213.2435698694104
 20
-207.164983838726
 30
0.0
 10
-213.2925026554644
 20
-207.3668985506544
 30
0.0
 11
-213.1462378433235
 21
-206.1100836831458
 31
0.0
 11
-213.1700660955008
 21
-206.7582753877749
 31
0.0
 11
-213.2925026554644
 21
-207.3668985506544
 31
0.0
  0
SPLINE
  5
141
330
47
100
AcDbEntity
  8
0
  6
Continuous
 62
     7
100
AcDbSpline
210
0.0
220
0.0
230
1.0
 70
     8
 71
     3
 72
     9
 73
     5
 74
     3
 42
0.000000001
 43
0.0000000001
 44
0.00000001
 40
0.0
 40
0.0
 40
0.0
 40
0.0
 40
2.396199671400972
 40
4.732080784313792
 40
4.732080784313792
 40
4.732080784313792
 40
4.732080784313792
 10
-213.1243722416358
 20
-206.1163957386559
 30
0.0
 10
-213.0506457005604
 20
-205.3198606889245
 30
0.0
 10
-212.9050484868429
 20
-203.7468414447082
 30
0.0
 10
-212.5316507730844
 20
-202.2119357220028
 30
0.0
 10
-212.3473317065445
 20
-201.4542653773185
 30
0.0
 11
-213.1243722416358
 21
-206.1163957386559
 31
0.0
 11
-212.8447813742511
 21
-203.7365634306064
 31
0.0
 11
-212.3473317065445
 21
-201.4542653773185
 31
0.0
  0
SPLINE
  5
142
330
47
100
AcDbEntity
  8
0
  6
Continuous
 62
     7
100
AcDbSpline
210
0.0
220
0.0
230
1.0
 70
     8
 71
     3
 72
    11
 73
     7
 74
     5
 42
0.000000001
 43
0.0000000001
 44
0.00000001
 40
0.0
 40
0.0
 40
0.0
 40
0.0
 40
3.287145617940522
 40
6.695439057906375
 40
10.22897829349041
 40
13.88401472381963
 40
13.88401472381963
 40
13.88401472381963
 40
13.88401472381963
 10
-153.3461630802642
 20
-190.388677850024
 30
0.0
 10
-153.5935707425416
 20
-191.458037123437
 30
0.0
 10
-154.097504267005
 20
-193.6361669320035
 30
0.0
 10
-154.2744007912005
 20
-197.0552747943086
 30
0.0
 10
-154.0774136944674
 20
-200.5918490422571
 30
0.0
 10
-153.5926443878184
 20
-202.9416479855634
 30
0.0
 10
-153.3461630802631
 20
-204.1364049348949
 30
0.0
 11
-153.3461630802642
 21
-190.388677850024
 31
0.0
 11
-153.9948296445173
 21
-193.6111858806854
 31
0.0
 11
-154.2121884840483
 21
-197.0125413924594
 31
0.0
 11
-153.9948296445168
 21
-200.5393890887474
 31
0.0
 11
-153.3461630802631
 21
-204.1364049348949
 31
0.0
  0
SPLINE
  5
143
330
47
100
AcDbEntity
  8
0
  6
Continuous
 62
     7
100
AcDbSpline
210
0.0
220
0.0
230
1.0
 70
     8
 71
     3
 72
    11
 73
     7
 74
     5
 42
0.000000001
 43
0.0000000001
 44
0.00000001
 40
0.0
 40
0.0
 40
0.0
 40
0.0
 40
3.287145617957126
 40
6.695439057940741
 40
10.22897829354373
 40
13.88401472389305
 40
13.88401472389305
 40
13.88401472389305
 40
13.88401472389305
 10
-153.8461632013991
 20
-190.8216906568223
 30
0.0
 10
-154.0935708636777
 20
-191.8910499302407
 30
0.0
 10
-154.5975043881433
 20
-194.0691797388184
 30
0.0
 10
-154.7744009123361
 20
-197.4882876011418
 30
0.0
 10
-154.5774138155969
 20
-201.024861849109
 30
0.0
 10
-154.0926445089404
 20
-203.374660792427
 30
0.0
 10
-153.8461632013813
 20
-204.5694177417647
 30
0.0
 11
-153.8461632013991
 21
-190.8216906568223
 31
0.0
 11
-154.4948297656546
 21
-194.0441986875002
 31
0.0
 11
-154.7121886051835
 21
-197.445554199292
 31
0.0
 11
-154.4948297656456
 21
-200.9724018955987
 31
0.0
 11
-153.8461632013813
 21
-204.5694177417647
 31
0.0
  0
SPLINE
  5
144
330
47
100
AcDbEntity
  8
0
  6
Continuous
 62
     7
100
AcDbSpline
210
0.0
220
0.0
230
1.0
 70
     8
 71
     3
 72
    11
 73
     7
 74
     5
 42
0.000000001
 43
0.0000000001
 44
0.00000001
 40
0.0
 40
0.0
 40
0.0
 40
0.0
 40
3.287145617940572
 40
6.695439057906372
 40
10.22897829349038
 40
13.88401472381967
 40
13.88401472381967
 40
13.88401472381967
 40
13.88401472381967
 10
-158.9961630802605
 20
-195.2817213814029
 30
0.0
 10
-159.243570742538
 20
-196.3510806548159
 30
0.0
 10
-159.7475042670014
 20
-198.5292104633824
 30
0.0
 10
-159.9244007911969
 20
-201.9483183256875
 30
0.0
 10
-159.7274136944639
 20
-205.4848925736358
 30
0.0
 10
-159.242644387815
 20
-207.8346915169423
 30
0.0
 10
-158.9961630802597
 20
-209.0294484662738
 30
0.0
 11
-158.9961630802605
 21
-195.2817213814029
 31
0.0
 11
-159.6448296445137
 21
-198.5042294120643
 31
0.0
 11
-159.8621884840448
 21
-201.9055849238382
 31
0.0
 11
-159.6448296445134
 21
-205.4324326201262
 31
0.0
 11
-158.9961630802597
 21
-209.0294484662738
 31
0.0
  0
SPLINE
  5
145
330
47
100
AcDbEntity
  8
0
  6
Continuous
 62
     7
100
AcDbSpline
210
0.0
220
0.0
230
1.0
 70
     8
 71
     3
 72
    11
 73
     7
 74
     5
 42
0.000000001
 43
0.0000000001
 44
0.00000001
 40
0.0
 40
0.0
 40
0.0
 40
0.0
 40
3.287145617940517
 40
6.695439057906341
 40
10.22897829349032
 40
13.88401472381946
 40
13.88401472381946
 40
13.88401472381946
 40
13.88401472381946
 10
-159.4961632010222
 20
-195.7147341878778
 30
0.0
 10
-159.7435708632997
 20
-196.7840934612907
 30
0.0
 10
-160.2475043877631
 20
-198.9622232698572
 30
0.0
 10
-160.4244009119586
 20
-202.3813311321624
 30
0.0
 10
-160.2274138152256
 20
-205.9179053801107
 30
0.0
 10
-159.7426445085765
 20
-208.267704323417
 30
0.0
 10
-159.4961632010212
 20
-209.4624612727485
 30
0.0
 11
-159.4961632010222
 21
-195.7147341878778
 31
0.0
 11
-160.1448297652754
 21
-198.9372422185392
 31
0.0
 11
-160.3621886048064
 21
-202.3385977303131
 31
0.0
 11
-160.1448297652749
 21
-205.8654454266011
 31
0.0
 11
-159.4961632010212
 21
-209.4624612727485
 31
0.0
  0
SPLINE
  5
146
330
47
100
AcDbEntity
  8
0
  6
Continuous
 62
     7
100
AcDbSpline
210
0.0
220
0.0
230
1.0
 70
     8
 71
     3
 72
     9
 73
     5
 74
     3
 42
0.000000001
 43
0.0000000001
 44
0.00000001
 40
0.0
 40
0.0
 40
0.0
 40
0.0
 40
0.0981226066522289
 40
0.1966219382665672
 40
0.1966219382665672
 40
0.1966219382665672
 40
0.1966219382665672
 10
-174.7597752869157
 20
-177.8448796413361
 30
0.0
 10
-174.7760987699684
 20
-177.8165311589332
 30
0.0
 10
-174.8088084244694
 20
-177.7597253652189
 30
0.0
 10
-174.8440791988304
 20
-177.7044732349087
 30
0.0
 10
-174.861748383698
 20
-177.6767942438485
 30
0.0
 11
-174.7597752869157
 21
-177.8448796413361
 31
0.0
 11
-174.809383573446
 21
-177.7602211280391
 31
0.0
 11
-174.861748383698
 21
-177.6767942438485
 31
0.0
  0
SPLINE
  5
147
330
47
100
AcDbEntity
  8
0
  6
Continuous
 62
     7
100
AcDbSpline
210
0.0
220
0.0
230
1.0
 70
     8
 71
     3
 72
    15
 73
    11
 74
     9
 42
0.000000001
 43
0.0000000001
 44
0.00000001
 40
0.0
 40
0.0
 40
0.0
 40
0.0
 40
0.5689807238751117
 40
1.13986958105972
 40
1.699799730109495
 40
2.237499196614845
 40
2.745188217684252
 40
3.220458076833972
 40
3.667782340052599
 40
4.098739450855808
 40
4.098739450855808
 40
4.098739450855808
 40
4.098739450855808
 10
-174.7847754077169
 20
-177.8665303810473
 30
0.0
 10
-174.8867513758942
 20
-177.7060639675311
 30
0.0
 10
-175.0910453104067
 20
-177.3845930084879
 30
0.0
 10
-175.4939747502758
 20
-176.9802532033704
 30
0.0
 10
-175.9465124778918
 20
-176.6528805369024
 30
0.0
 10
-176.4338658439374
 20
-176.423937278016
 30
0.0
 10
-176.9308537222859
 20
-176.3036287442651
 30
0.0
 10
-177.4109761493861
 20
-176.302962407768
 30
0.0
 10
-177.858056335373
 20
-176.4146793973153
 30
0.0
 10
-178.0976057949324
 20
-176.5868533780292
 30
0.0
 10
-178.2151484674202
 20
-176.6713361059422
 30
0.0
 11
-174.7847754077169
 21
-177.8665303810473
 31
0.0
 11
-175.107124878605
 21
-177.3976701892583
 31
0.0
 11
-175.5064223502663
 21
-176.9896559546779
 31
0.0
 11
-175.961786603433
 21
-176.6638259851761
 31
0.0
 11
-176.4494033399766
 21
-176.4372191991431
 31
0.0
 11
-176.9437721424474
 21
-176.3216872515634
 31
0.0
 11
-177.4190393656675
 21
-176.3232710258405
 31
0.0
 11
-177.850349971031
 21
-176.4418887425385
 31
0.0
 11
-178.2151484674202
 21
-176.6713361059422
 31
0.0
  0
SPLINE
  5
148
330
47
100
AcDbEntity
  8
0
  6
Continuous
 62
     7
100
AcDbSpline
210
0.0
220
0.0
230
1.0
 70
     8
 71
     3
 72
    13
 73
     9
 74
     7
 42
0.000000001
 43
0.0000000001
 44
0.00000001
 40
0.0
 40
0.0
 40
0.0
 40
0.0
 40
0.6426477925567777
 40
1.265956530632439
 40
1.855488115636868
 40
2.403982334515217
 40
2.914531155159015
 40
3.401905637567284
 40
3.401905637567284
 40
3.401905637567284
 40
3.401905637567284
 10
-169.0389660661966
 20
-171.9759120568404
 30
0.0
 10
-169.1903708995489
 20
-171.823380287202
 30
0.0
 10
-169.4886243844224
 20
-171.5229068622796
 30
0.0
 10
-170.0243749304135
 20
-171.2018190106463
 30
0.0
 10
-170.5833679334505
 20
-171.0059572959748
 30
0.0
 10
-171.1356314299825
 20
-170.960682182407
 30
0.0
 10
-171.6555832271584
 20
-171.0586066316013
 30
0.0
 10
-171.9307567205433
 20
-171.251212989841
 30
0.0
 10
-172.0651483466622
 20
-171.3452797680884
 30
0.0
 11
-169.0389660661966
 21
-171.9759120568404
 31
0.0
 11
-169.5105175335031
 21
-171.5392939215959
 31
0.0
 11
-170.0432990561024
 21
-171.2157856022731
 31
0.0
 11
-170.6017746645386
 21
-171.0269669418403
 31
0.0
 11
-171.1486938584447
 21
-170.9854301280918
 31
0.0
 11
-171.647576622644
 21
-171.0939478255319
 31
0.0
 11
-172.0651483466622
 21
-171.3452797680884
 31
0.0
  0
SPLINE
  5
149
330
47
100
AcDbEntity
  8
0
  6
Continuous
 62
     7
100
AcDbSpline
210
0.0
220
0.0
230
1.0
 70
     8
 71
     3
 72
    11
 73
     7
 74
     5
 42
0.000000001
 43
0.0000000001
 44
0.00000001
 40
0.0
 40
0.0
 40
0.0
 40
0.0
 40
0.4027634706925017
 40
0.8190183374035552
 40
1.258756121101962
 40
1.726609171635721
 40
1.726609171635721
 40
1.726609171635721
 40
1.726609171635721
 10
-177.4401486022912
 20
-176.0001660184822
 30
0.0
 10
-177.3308669739695
 20
-175.9205413404241
 30
0.0
 10
-177.1086430952162
 20
-175.7586248034372
 30
0.0
 10
-176.6974568316157
 20
-175.6438017374529
 30
0.0
 10
-176.2522953767671
 20
-175.6214342612899
 30
0.0
 10
-175.9561657306249
 20
-175.6897228239023
 30
0.0
 10
-175.8035141700415
 20
-175.7249248310868
 30
0.0
 11
-177.4401486022912
 21
-176.0001660184822
 31
0.0
 11
-177.1013445631722
 21
-175.7823811751284
 31
0.0
 11
-176.7031839494445
 21
-175.6609882506912
 31
0.0
 11
-176.2638764476126
 21
-175.6415398766736
 31
0.0
 11
-175.8035141700415
 21
-175.7249248310868
 31
0.0
  0
SPLINE
  5
14A
330
47
100
AcDbEntity
  8
0
  6
Continuous
 62
     7
100
AcDbSpline
210
0.0
220
0.0
230
1.0
 70
     8
 71
     3
 72
     9
 73
     5
 74
     3
 42
0.000000001
 43
0.0000000001
 44
0.00000001
 40
0.0
 40
0.0
 40
0.0
 40
0.0
 40
0.0912703402659948
 40
0.1823739958510316
 40
0.1823739958510316
 40
0.1823739958510316
 40
0.1823739958510316
 10
-177.5699301374072
 20
-176.1281593316078
 30
0.0
 10
-177.549315385202
 20
-176.1057578166944
 30
0.0
 10
-177.5081235147266
 20
-176.0609957121787
 30
0.0
 10
-177.4627931007922
 20
-176.0204302196631
 30
0.0
 10
-177.4401486022912
 20
-176.0001660184822
 30
0.0
 11
-177.5699301374072
 21
-176.1281593316078
 31
0.0
 11
-177.5070493455572
 21
-176.0620058654282
 31
0.0
 11
-177.4401486022912
 21
-176.0001660184822
 31
0.0
  0
SPLINE
  5
14B
330
47
100
AcDbEntity
  8
0
  6
Continuous
 62
     7
100
AcDbSpline
210
0.0
220
0.0
230
1.0
 70
     8
 71
     3
 72
    11
 73
     7
 74
     5
 42
0.000000001
 43
0.0000000001
 44
0.00000001
 40
0.0
 40
0.0
 40
0.0
 40
0.0
 40
0.4027634706924231
 40
0.8190183374035227
 40
1.258756121102314
 40
1.726609171638401
 40
1.726609171638401
 40
1.726609171638401
 40
1.726609171638401
 10
-172.8401486017991
 20
-172.0164491607177
 30
0.0
 10
-172.7308669734773
 20
-171.9368244826596
 30
0.0
 10
-172.5086430947241
 20
-171.7749079456728
 30
0.0
 10
-172.0974568311234
 20
-171.6600848796884
 30
0.0
 10
-171.6522953762741
 20
-171.6377174035258
 30
0.0
 10
-171.3561657301306
 20
-171.7060059661361
 30
0.0
 10
-171.2035141695462
 20
-171.7412079733196
 30
0.0
 11
-172.8401486017991
 21
-172.0164491607177
 31
0.0
 11
-172.5013445626802
 21
-171.798664317364
 31
0.0
 11
-172.1031839489523
 21
-171.6772713929269
 31
0.0
 11
-171.6638764471201
 21
-171.6578230189089
 31
0.0
 11
-171.2035141695462
 21
-171.7412079733196
 31
0.0
  0
SPLINE
  5
14C
330
47
100
AcDbEntity
  8
0
  6
Continuous
 62
     7
100
AcDbSpline
210
0.0
220
0.0
230
1.0
 70
     8
 71
     3
 72
     9
 73
     5
 74
     3
 42
0.000000001
 43
0.0000000001
 44
0.00000001
 40
0.0
 40
0.0
 40
0.0
 40
0.0
 40
0.1119018473572279
 40
0.2241120175560434
 40
0.2241120175560434
 40
0.2241120175560434
 40
0.2241120175560434
 10
-178.2151484674202
 20
-176.6713361059422
 30
0.0
 10
-178.2428781077326
 20
-176.6963387600868
 30
0.0
 10
-178.298413777806
 20
-176.7464129724108
 30
0.0
 10
-178.3476174824474
 20
-176.8027216666844
 30
0.0
 10
-178.3722531735838
 20
-176.83091475413
 30
0.0
 11
-178.2151484674202
 21
-176.6713361059422
 31
0.0
 11
-178.2967587428088
 21
-176.7478984105163
 31
0.0
 11
-178.3722531735838
 21
-176.83091475413
 31
0.0
  0
SPLINE
  5
14D
330
47
100
AcDbEntity
  8
0
  6
Continuous
 62
     7
100
AcDbSpline
210
0.0
220
0.0
230
1.0
 70
     8
 71
     3
 72
     9
 73
     5
 74
     3
 42
0.000000001
 43
0.0000000001
 44
0.00000001
 40
0.0
 40
0.0
 40
0.0
 40
0.0
 40
0.0538977475464352
 40
0.1077138159647159
 40
0.1077138159647159
 40
0.1077138159647159
 40
0.1077138159647159
 10
-199.6968779352616
 20
-169.7406584921205
 30
0.0
 10
-199.6847967961993
 20
-169.7273556112138
 30
0.0
 10
-199.6606528118471
 20
-169.7007700229198
 30
0.0
 10
-199.6350304808506
 20
-169.6756061484896
 30
0.0
 10
-199.6222290228948
 20
-169.6630337591198
 30
0.0
 11
-199.6968779352616
 21
-169.7406584921205
 31
0.0
 11
-199.6602643633425
 21
-169.7011058239117
 31
0.0
 11
-199.6222290228948
 21
-169.6630337591198
 31
0.0
  0
SPLINE
  5
14E
330
47
100
AcDbEntity
  8
0
  6
Continuous
 62
     7
100
AcDbSpline
210
0.0
220
0.0
230
1.0
 70
     8
 71
     3
 72
    11
 73
     7
 74
     5
 42
0.000000001
 43
0.0000000001
 44
0.00000001
 40
0.0
 40
0.0
 40
0.0
 40
0.0
 40
0.6061205724543334
 40
1.213441006257235
 40
1.806533063001132
 40
2.372336399520993
 40
2.372336399520993
 40
2.372336399520993
 40
2.372336399520993
 10
-196.1367239459226
 20
-170.8078607064314
 30
0.0
 10
-196.2459171116174
 20
-170.6370904476651
 30
0.0
 10
-196.4645196112337
 20
-170.29521188623
 30
0.0
 10
-196.9011023860429
 20
-169.874498599497
 30
0.0
 10
-197.387824078701
 20
-169.5340049813118
 30
0.0
 10
-197.7524454507844
 20
-169.401914759143
 30
0.0
 10
-197.9304632368767
 20
-169.3374248310372
 30
0.0
 11
-196.1367239459226
 21
-170.8078607064314
 31
0.0
 11
-196.4829286583887
 21
-170.3103424192368
 31
0.0
 11
-196.9149583570448
 21
-169.8835070281612
 31
0.0
 11
-197.4071984941846
 21
-169.5526628991657
 31
0.0
 11
-197.9304632368767
 21
-169.3374248310372
 31
0.0
  0
SPLINE
  5
14F
330
47
100
AcDbEntity
  8
0
  6
Continuous
 62
     7
100
AcDbSpline
210
0.0
220
0.0
230
1.0
 70
     8
 71
     3
 72
    15
 73
    11
 74
     9
 42
0.000000001
 43
0.0000000001
 44
0.00000001
 40
0.0
 40
0.0
 40
0.0
 40
0.0
 40
0.4309571108032417
 40
0.8782813740217592
 40
1.353551233171451
 40
1.861240254240846
 40
2.398939720746158
 40
2.958869869795893
 40
3.529758726980461
 40
4.098739450855441
 40
4.098739450855441
 40
4.098739450855441
 40
4.098739450855441
 10
-199.8420974133804
 20
-169.8508232994658
 30
0.0
 10
-199.7245547408926
 20
-169.7663405715529
 30
0.0
 10
-199.4850052813333
 20
-169.594166590839
 30
0.0
 10
-199.0379250953463
 20
-169.4824496012916
 30
0.0
 10
-198.5578026682462
 20
-169.4831159377886
 30
0.0
 10
-198.0608147898977
 20
-169.6034244715395
 30
0.0
 10
-197.5734614238521
 20
-169.8323677304259
 30
0.0
 10
-197.1209236962362
 20
-170.1597403968938
 30
0.0
 10
-196.7179942563671
 20
-170.5640802020112
 30
0.0
 10
-196.5137003218546
 20
-170.8855511610543
 30
0.0
 10
-196.4117243536772
 20
-171.0460175745705
 30
0.0
 11
-199.8420974133804
 21
-169.8508232994658
 31
0.0
 11
-199.4772989169912
 21
-169.6213759360621
 31
0.0
 11
-199.0459883116278
 21
-169.5027582193641
 31
0.0
 11
-198.5707210884077
 21
-169.501174445087
 31
0.0
 11
-198.0763522859369
 21
-169.6167063926666
 31
0.0
 11
-197.5887355493934
 21
-169.8433131786996
 31
0.0
 11
-197.1333712962266
 21
-170.1691431482014
 31
0.0
 11
-196.7340738245653
 21
-170.5771573827817
 31
0.0
 11
-196.4117243536772
 21
-171.0460175745705
 31
0.0
  0
SPLINE
  5
150
330
47
100
AcDbEntity
  8
0
  6
Continuous
 62
     7
100
AcDbSpline
210
0.0
220
0.0
230
1.0
 70
     8
 71
     3
 72
     9
 73
     5
 74
     3
 42
0.000000001
 43
0.0000000001
 44
0.00000001
 40
0.0
 40
0.0
 40
0.0
 40
0.0
 40
0.2117542585726893
 40
0.4232422496003725
 40
0.4232422496003725
 40
0.4232422496003725
 40
0.4232422496003725
 10
-204.0483463643004
 20
-212.070616570927
 30
0.0
 10
-203.9908664058806
 20
-212.0295953253918
 30
0.0
 10
-203.875978778485
 20
-211.947604399983
 30
0.0
 10
-203.7680496283223
 20
-211.8566486397714
 30
0.0
 10
-203.7141190093298
 20
-211.8111993626214
 30
0.0
 11
-204.0483463643004
 21
-212.070616570927
 31
0.0
 11
-203.877648303794
 21
-211.9453087967205
 31
0.0
 11
-203.7141190093298
 21
-211.8111993626214
 31
0.0
  0
SPLINE
  5
151
330
47
100
AcDbEntity
  8
0
  6
Continuous
 62
     7
100
AcDbSpline
210
0.0
220
0.0
230
1.0
 70
     8
 71
     3
 72
    11
 73
     7
 74
     5
 42
0.000000001
 43
0.0000000001
 44
0.00000001
 40
0.0
 40
0.0
 40
0.0
 40
0.0
 40
0.7807188583422177
 40
1.583402860134095
 40
2.41290344408107
 40
3.272117413038622
 40
3.272117413038622
 40
3.272117413038622
 40
3.272117413038622
 10
-202.1783738823986
 20
-203.574344271521
 30
0.0
 10
-202.3063820729362
 20
-203.8015486290427
 30
0.0
 10
-202.5659998885311
 20
-204.2623496344509
 30
0.0
 10
-202.8202241711071
 20
-205.0296591717193
 30
0.0
 10
-202.985035475497
 20
-205.8465817658533
 30
0.0
 10
-203.0041926325418
 20
-206.4100608314002
 30
0.0
 10
-203.0139397412005
 20
-206.6967576472879
 30
0.0
 11
-202.1783738823986
 21
-203.574344271521
 31
0.0
 11
-202.5398400873401
 21
-204.2663443581833
 31
0.0
 11
-202.8019214191672
 21
-205.0250373031348
 31
0.0
 11
-202.9607382583707
 21
-205.8391923452306
 31
0.0
 11
-203.0139397412005
 21
-206.6967576472879
 31
0.0
  0
SPLINE
  5
152
330
47
100
AcDbEntity
  8
0
  6
Continuous
 62
     7
100
AcDbSpline
210
0.0
220
0.0
230
1.0
 70
     8
 71
     3
 72
     9
 73
     5
 74
     3
 42
0.000000001
 43
0.0000000001
 44
0.00000001
 40
0.0
 40
0.0
 40
0.0
 40
0.0
 40
0.0425470215157603
 40
0.0855117904535058
 40
0.0855117904535058
 40
0.0855117904535058
 40
0.0855117904535058
 10
-202.1230233085593
 20
-203.509476989823
 30
0.0
 10
-202.1334139945618
 20
-203.5192015802373
 30
0.0
 10
-202.154297372757
 20
-203.5387462553281
 30
0.0
 10
-202.1703222891113
 20
-203.5624396791315
 30
0.0
 10
-202.1783738823986
 20
-203.574344271521
 30
0.0
 11
-202.1230233085593
 21
-203.509476989823
 31
0.0
 11
-202.1529925825862
 21
-203.5396778460648
 31
0.0
 11
-202.1783738823986
 21
-203.574344271521
 31
0.0
  0
SPLINE
  5
153
330
47
100
AcDbEntity
  8
0
  6
Continuous
 62
     7
100
AcDbSpline
210
0.0
220
0.0
230
1.0
 70
     8
 71
     3
 72
    17
 73
    13
 74
    11
 42
0.000000001
 43
0.0000000001
 44
0.00000001
 40
0.0
 40
0.0
 40
0.0
 40
0.0
 40
0.1143928127713877
 40
0.2383595130496915
 40
0.3725842704090759
 40
0.5145572837841541
 40
0.6597504159112593
 40
0.8028759345126018
 40
0.9391287946691776
 40
1.065442565537089
 40
1.181708891349549
 40
1.291518423409264
 40
1.291518423409264
 40
1.291518423409264
 40
1.291518423409264
 10
-201.413019064012
 20
-204.2005386541435
 30
0.0
 10
-201.3964480832722
 20
-204.1657807773831
 30
0.0
 10
-201.3619192588173
 20
-204.0933560245809
 30
0.0
 10
-201.3596964544053
 20
-203.9659277719169
 30
0.0
 10
-201.3903860057902
 20
-203.8352841533428
 30
0.0
 10
-201.4549678315533
 20
-203.7089699761293
 30
0.0
 10
-201.5469189457277
 20
-203.5975010761181
 30
0.0
 10
-201.6592179913543
 20
-203.5095568201023
 30
0.0
 10
-201.7833186792369
 20
-203.4519851686906
 30
0.0
 10
-201.9089143978543
 20
-203.4308651315174
 30
0.0
 10
-202.0292853022178
 20
-203.4457945797488
 30
0.0
 10
-202.0923779569141
 20
-203.4886575758599
 30
0.0
 10
-202.1230233085593
 20
-203.509476989823
 30
0.0
 11
-201.413019064012
 21
-204.2005386541435
 31
0.0
 11
-201.3709312962464
 21
-204.0941697862278
 31
0.0
 11
-201.3646775226358
 21
-203.9703609257372
 31
0.0
 11
-201.3947861622017
 21
-203.8395566610619
 31
0.0
 11
-201.4587163542877
 21
-203.7127920488812
 31
0.0
 11
-201.551075482735
 21
-203.6007615316695
 31
0.0
 11
-201.6640713008599
 21
-203.5129158759646
 31
0.0
 11
-201.7881715237794
 21
-203.4566666364191
 31
0.0
 11
-201.9129065656726
 21
-203.4367583764294
 31
0.0
 11
-202.0277533142435
 21
-203.4548714715976
 31
0.0
 11
-202.1230233085593
 21
-203.509476989823
 31
0.0
  0
SPLINE
  5
154
330
47
100
AcDbEntity
  8
0
  6
Continuous
 62
     7
100
AcDbSpline
210
0.0
220
0.0
230
1.0
 70
     8
 71
     3
 72
     9
 73
     5
 74
     3
 42
0.000000001
 43
0.0000000001
 44
0.00000001
 40
0.0
 40
0.0
 40
0.0
 40
0.0
 40
1.269097423717784
 40
2.6145873781884
 40
2.6145873781884
 40
2.6145873781884
 40
2.6145873781884
 10
-201.413019064012
 20
-204.2005386541435
 30
0.0
 10
-201.6103693482306
 20
-204.5794973783209
 30
0.0
 10
-202.0169492759022
 20
-205.3602260184876
 30
0.0
 10
-202.0998910188725
 20
-206.2371954763044
 30
0.0
 10
-202.1425735687309
 20
-206.6884917732674
 30
0.0
 11
-201.413019064012
 21
-204.2005386541435
 31
0.0
 11
-201.9288192915457
 21
-205.360089601468
 31
0.0
 11
-202.1425735687309
 21
-206.6884917732674
 31
0.0
  0
SPLINE
  5
155
330
47
100
AcDbEntity
  8
0
  6
Continuous
 62
     7
100
AcDbSpline
210
0.0
220
0.0
230
1.0
 70
     8
 71
     3
 72
     9
 73
     5
 74
     3
 42
0.000000001
 43
0.0000000001
 44
0.00000001
 40
0.0
 40
0.0
 40
0.0
 40
0.0
 40
0.0429883665477568
 40
0.0861115098981885
 40
0.0861115098981885
 40
0.0861115098981885
 40
0.0861115098981885
 10
-215.2852286837618
 20
-205.9162597485444
 30
0.0
 10
-215.2962709695797
 20
-205.9254172275227
 30
0.0
 10
-215.318390172995
 20
-205.943760880044
 30
0.0
 10
-215.3426518929249
 20
-205.9591597310598
 30
0.0
 10
-215.3548017451284
 20
-205.9668711990589
 30
0.0
 11
-215.2852286837618
 21
-205.9162597485444
 31
0.0
 11
-215.3188895011703
 21
-205.9429982800335
 31
0.0
 11
-215.3548017451284
 21
-205.9668711990589
 31
0.0
  0
SPLINE
  5
156
330
47
100
AcDbEntity
  8
0
  6
Continuous
 62
     7
100
AcDbSpline
210
0.0
220
0.0
230
1.0
 70
     8
 71
     3
 72
     9
 73
     5
 74
     3
 42
0.000000001
 43
0.0000000001
 44
0.00000001
 40
0.0
 40
0.0
 40
0.0
 40
0.0
 40
1.021536055281533
 40
2.093204834986844
 40
2.093204834986844
 40
2.093204834986844
 40
2.093204834986844
 10
-212.3473317065445
 20
-201.4542653773185
 30
0.0
 10
-212.2746172541291
 20
-201.1200279811152
 30
0.0
 10
-212.1256198472874
 20
-200.4351502102279
 30
0.0
 10
-212.1570363610875
 20
-199.7347699114267
 30
0.0
 10
-212.173120844424
 20
-199.3761926290956
 30
0.0
 11
-212.3473317065445
 21
-201.4542653773185
 31
0.0
 11
-212.1721572337934
 21
-200.4478609764418
 31
0.0
 11
-212.173120844424
 21
-199.3761926290956
 31
0.0
  0
ENDBLK
  5
49
330
47
100
AcDbEntity
  8
0
100
AcDbBlockEnd
  0
BLOCK
  5
4C
330
4A
100
AcDbEntity
  8
0
100
AcDbBlockBegin
  2
Allg1
 70
     0
 10
-185.000000000001
 20
-192.0
 30
0.0
  3
Allg1
  1

  0
INSERT
  5
4B
330
4A
100
AcDbEntity
  8
0
100
AcDbBlockReference
  2
RTO_3-TC_BU-select__1
 10
-216.6538398508051
 20
-221.069224042072
 30
0.0
  0
MTEXT
  5
158
330
4A
100
AcDbEntity
  8
1
 62
     6
100
AcDbMText
 10
-184.59832713274
 20
-236.2087963164954
 30
0.0
 40
5.0
 41
0.0
 71
     2
 72
     1
  1
 
  7
CONVERTER_11
 73
     1
 44
1.32052821128451
  0
ENDBLK
  5
4D
330
4A
100
AcDbEntity
  8
0
100
AcDbBlockEnd
  0
BLOCK
  5
4F
330
4E
100
AcDbEntity
  8
0
100
AcDbBlockBegin
  2
RTO_3-TC_BU-select__2
 70
     0
 10
-347.0557597881659
 20
-209.5734469546413
 30
0.0
  3
RTO_3-TC_BU-select__2
  1

  0
LINE
  5
159
330
4E
100
AcDbEntity
  8
0
  6
Continuous
 62
     7
100
AcDbLine
 10
-291.5120182518085
 20
-209.5234467130648
 30
0.0
 11
-290.8736712354363
 21
-209.5234467130666
 31
0.0
  0
LINE
  5
15A
330
4E
100
AcDbEntity
  8
0
  6
Continuous
 62
     7
100
AcDbLine
 10
-298.2379733077416
 20
-209.5234467130458
 30
0.0
 11
-291.5120182518085
 21
-209.5234467130648
 31
0.0
  0
LINE
  5
15B
330
4E
100
AcDbEntity
  8
0
  6
Continuous
 62
     7
100
AcDbLine
 10
-290.8736712354363
 20
-209.5234467130666
 30
0.0
 11
-281.0557597881063
 21
-209.5234467130947
 31
0.0
  0
LINE
  5
15C
330
4E
100
AcDbEntity
  8
0
  6
Continuous
 62
     7
100
AcDbLine
 10
-346.0557597881738
 20
-209.5734469546413
 30
0.0
 11
-346.0557597881568
 21
-209.523446712911
 31
0.0
  0
LINE
  5
15D
330
4E
100
AcDbEntity
  8
0
  6
Continuous
 62
     7
100
AcDbLine
 10
-281.0557597880718
 20
-197.3234467130965
 30
0.0
 11
-281.0557597881548
 21
-197.2734467131246
 31
0.0
  0
LINE
  5
15E
330
4E
100
AcDbEntity
  8
0
  6
Continuous
 62
     7
100
AcDbLine
 10
-281.0557597881063
 20
-209.5234467130947
 30
0.0
 11
-281.0557597880718
 21
-197.3234467130965
 31
0.0
  0
LINE
  5
15F
330
4E
100
AcDbEntity
  8
0
  6
Continuous
 62
     7
100
AcDbLine
 10
-328.4019910419943
 20
-197.2734467131248
 30
0.0
 11
-335.6168063101885
 21
-197.2734467131249
 31
0.0
  0
LINE
  5
160
330
4E
100
AcDbEntity
  8
0
  6
Continuous
 62
     7
100
AcDbLine
 10
-291.5120182518085
 20
-197.2734467131247
 30
0.0
 11
-298.709528534297
 21
-197.2734467131247
 31
0.0
  0
LINE
  5
161
330
4E
100
AcDbEntity
  8
0
  6
Continuous
 62
     7
100
AcDbLine
 10
-298.709528534297
 20
-197.2734467131247
 30
0.0
 11
-298.7095285342963
 21
-197.3234467130194
 31
0.0
  0
LINE
  5
162
330
4E
100
AcDbEntity
  8
0
  6
Continuous
 62
     7
100
AcDbLine
 10
-298.709528534297
 20
-197.2734467131247
 30
0.0
 11
-302.8519910419669
 21
-197.2734467131247
 31
0.0
  0
LINE
  5
163
330
4E
100
AcDbEntity
  8
0
  6
Continuous
 62
     7
100
AcDbLine
 10
-281.0557597881548
 20
-197.2734467131246
 30
0.0
 11
-291.5120182518085
 21
-197.2734467131247
 31
0.0
  0
LINE
  5
164
330
4E
100
AcDbEntity
  8
0
  6
Continuous
 62
     7
100
AcDbLine
 10
-291.5120182518087
 20
-197.3234467130507
 30
0.0
 11
-291.5120182518085
 21
-197.2734467131247
 31
0.0
  0
LINE
  5
165
330
4E
100
AcDbEntity
  8
0
  6
Continuous
 62
     7
100
AcDbLine
 10
-303.4536524429457
 20
-197.2734467131247
 30
0.0
 11
-302.8519910419669
 21
-197.2734467131247
 31
0.0
  0
LINE
  5
166
330
4E
100
AcDbEntity
  8
0
  6
Continuous
 62
     7
100
AcDbLine
 10
-298.7095285342963
 20
-197.3234467130194
 30
0.0
 11
-298.2379733077072
 21
-197.3234467130214
 31
0.0
  0
LINE
  5
167
330
4E
100
AcDbEntity
  8
0
  6
Continuous
 62
     7
100
AcDbLine
 10
-291.5120182518087
 20
-197.3234467130507
 30
0.0
 11
-290.8736712354018
 21
-197.3234467130534
 31
0.0
  0
LINE
  5
168
330
4E
100
AcDbEntity
  8
0
  6
Continuous
 62
     7
100
AcDbLine
 10
-290.8736712354018
 20
-197.3234467130534
 30
0.0
 11
-281.0557597880718
 21
-197.3234467130965
 31
0.0
  0
LINE
  5
169
330
4E
100
AcDbEntity
  8
0
  6
Continuous
 62
     7
100
AcDbLine
 10
-302.8519910419666
 20
-198.2734469553944
 30
0.0
 11
-302.8519910419669
 21
-197.2734467131247
 31
0.0
  0
LINE
  5
16A
330
4E
100
AcDbEntity
  8
0
  6
Continuous
 62
     7
100
AcDbLine
 10
-298.2379733077072
 20
-197.3234467130214
 30
0.0
 11
-291.5120182518087
 21
-197.3234467130507
 31
0.0
  0
LINE
  5
16B
330
4E
100
AcDbEntity
  8
0
  6
Continuous
 62
     7
100
AcDbLine
 10
-346.3729170756913
 20
-197.2734467131249
 30
0.0
 11
-347.0557597881659
 21
-197.2734467131249
 31
0.0
  0
LINE
  5
16C
330
4E
100
AcDbEntity
  8
0
  6
Continuous
 62
     7
100
AcDbLine
 10
-346.0557597881737
 20
-197.2734467131252
 30
0.0
 11
-335.6168063101885
 21
-197.2734467131249
 31
0.0
  0
LINE
  5
16D
330
4E
100
AcDbEntity
  8
0
  6
Continuous
 62
     7
100
AcDbLine
 10
-298.8272769240166
 20
-197.3234467130189
 30
0.0
 11
-298.7095285342963
 21
-197.3234467130194
 31
0.0
  0
LINE
  5
16E
330
4E
100
AcDbEntity
  8
0
  6
Continuous
 62
     7
100
AcDbLine
 10
-298.8272769240385
 20
-198.2734469553944
 30
0.0
 11
-298.8272769240166
 21
-197.3234467130189
 31
0.0
  0
LINE
  5
16F
330
4E
100
AcDbEntity
  8
0
  6
Continuous
 62
     7
100
AcDbLine
 10
-298.827276924051
 20
-209.5234467130441
 30
0.0
 11
-298.7095285342964
 21
-209.5234467130445
 31
0.0
  0
LINE
  5
170
330
4E
100
AcDbEntity
  8
0
  6
Continuous
 62
     7
100
AcDbLine
 10
-298.827276924051
 20
-209.5234467130441
 30
0.0
 11
-298.8272769240484
 21
-208.5734467131298
 31
0.0
  0
LINE
  5
171
330
4E
100
AcDbEntity
  8
0
  6
Continuous
 62
     7
100
AcDbLine
 10
-298.8272769240209
 20
-198.823446712594
 30
0.0
 11
-298.6713655285997
 21
-198.8234467125947
 31
0.0
  0
LINE
  5
172
330
4E
100
AcDbEntity
  8
0
  6
Continuous
 62
     7
100
AcDbLine
 10
-300.0355619372931
 20
-198.8234467126006
 30
0.0
 11
-298.8272769240209
 21
-198.823446712594
 31
0.0
  0
LINE
  5
173
330
4E
100
AcDbEntity
  8
0
  6
Continuous
 62
     7
100
AcDbLine
 10
-298.7095285342964
 20
-209.5234467130445
 30
0.0
 11
-298.2379733077416
 21
-209.5234467130458
 31
0.0
  0
LINE
  5
174
330
4E
100
AcDbEntity
  8
0
  6
Continuous
 62
     7
100
AcDbLine
 10
-298.6713655286158
 20
-208.0234467134694
 30
0.0
 11
-298.6713655285997
 21
-198.8234467125947
 31
0.0
  0
LINE
  5
175
330
4E
100
AcDbEntity
  8
0
  6
Continuous
 62
     7
100
AcDbLine
 10
-298.7095285342964
 20
-209.5234467130445
 30
0.0
 11
-298.7095285342969
 21
-209.5734469546409
 31
0.0
  0
LINE
  5
176
330
4E
100
AcDbEntity
  8
0
  6
Continuous
 62
     7
100
AcDbLine
 10
-298.2379733077416
 20
-209.5234467130458
 30
0.0
 11
-298.2379733077072
 21
-197.3234467130214
 31
0.0
  0
LINE
  5
177
330
4E
100
AcDbEntity
  8
0
  6
Continuous
 62
     7
100
AcDbLine
 10
-298.8272769240209
 20
-198.823446712594
 30
0.0
 11
-298.8272769240385
 21
-198.2734469553944
 31
0.0
  0
LINE
  5
178
330
4E
100
AcDbEntity
  8
0
  6
Continuous
 62
     7
100
AcDbLine
 10
-302.8519910419666
 20
-198.2734469553944
 30
0.0
 11
-298.8272769240385
 21
-198.2734469553944
 31
0.0
  0
LINE
  5
179
330
4E
100
AcDbEntity
  8
0
  6
Continuous
 62
     7
100
AcDbLine
 10
-290.8736712354363
 20
-209.5234467130666
 30
0.0
 11
-290.8736712354018
 21
-197.3234467130534
 31
0.0
  0
LINE
  5
17A
330
4E
100
AcDbEntity
  8
0
  6
Continuous
 62
     7
100
AcDbLine
 10
-298.8272769240468
 20
-208.023446713469
 30
0.0
 11
-298.6713655286158
 21
-208.0234467134694
 31
0.0
  0
LINE
  5
17B
330
4E
100
AcDbEntity
  8
0
  6
Continuous
 62
     7
100
AcDbLine
 10
-300.0355624105505
 20
-208.0234467134537
 30
0.0
 11
-298.8272769240468
 21
-208.023446713469
 31
0.0
  0
LINE
  5
17C
330
4E
100
AcDbEntity
  8
0
  6
Continuous
 62
     7
100
AcDbLine
 10
-298.8272769240484
 20
-208.5734467131298
 30
0.0
 11
-298.8272769240468
 21
-208.023446713469
 31
0.0
  0
LINE
  5
17D
330
4E
100
AcDbEntity
  8
0
  6
Continuous
 62
     7
100
AcDbLine
 10
-346.3729170756913
 20
-209.5734469546411
 30
0.0
 11
-347.0557597881659
 21
-209.5734469546411
 31
0.0
  0
LINE
  5
17E
330
4E
100
AcDbEntity
  8
0
  6
Continuous
 62
     7
100
AcDbLine
 10
-346.0557597881223
 20
-197.3234467128139
 30
0.0
 11
-346.0557597881737
 21
-197.2734467131252
 31
0.0
  0
LINE
  5
17F
330
4E
100
AcDbEntity
  8
0
  6
Continuous
 62
     7
100
AcDbLine
 10
-346.0557597881738
 20
-209.5734469546413
 30
0.0
 11
-335.6168063101884
 21
-209.573446954641
 31
0.0
  0
LINE
  5
180
330
4E
100
AcDbEntity
  8
0
  6
Continuous
 62
     7
100
AcDbLine
 10
-346.3729170756913
 20
-209.5734469546411
 30
0.0
 11
-346.0557597881738
 21
-209.5734469546413
 31
0.0
  0
LINE
  5
181
330
4E
100
AcDbEntity
  8
0
  6
Continuous
 62
     7
100
AcDbLine
 10
-323.6578671333909
 20
-197.2734467131248
 30
0.0
 11
-323.6578671333874
 21
-209.573446954641
 31
0.0
  0
LINE
  5
182
330
4E
100
AcDbEntity
  8
0
  6
Continuous
 62
     7
100
AcDbLine
 10
-322.8057597881761
 20
-208.3734464716158
 30
0.0
 11
-322.805759788176
 21
-209.573446954641
 31
0.0
  0
LINE
  5
183
330
4E
100
AcDbEntity
  8
0
  6
Continuous
 62
     7
100
AcDbLine
 10
-313.9697300224435
 20
-209.5734469546409
 30
0.0
 11
-313.9697300224434
 21
-197.2734467131248
 31
0.0
  0
LINE
  5
184
330
4E
100
AcDbEntity
  8
0
  6
Continuous
 62
     7
100
AcDbLine
 10
-312.4154141631629
 20
-209.5734469546409
 30
0.0
 11
-312.4154141631628
 21
-197.2734467131248
 31
0.0
  0
LINE
  5
185
330
4E
100
AcDbEntity
  8
0
  6
Continuous
 62
     7
100
AcDbLine
 10
-311.490361321103
 20
-209.5734469546409
 30
0.0
 11
-311.4903613211031
 21
-197.2734467131248
 31
0.0
  0
LINE
  5
186
330
4E
100
AcDbEntity
  8
0
  6
Continuous
 62
     7
100
AcDbLine
 10
-306.221158255276
 20
-209.5734469546409
 30
0.0
 11
-306.221158255276
 21
-197.2734467131247
 31
0.0
  0
LINE
  5
187
330
4E
100
AcDbEntity
  8
0
  6
Continuous
 62
     7
100
AcDbLine
 10
-305.2961054132139
 20
-209.5734469546409
 30
0.0
 11
-305.296105413214
 21
-197.2734467131247
 31
0.0
  0
LINE
  5
188
330
4E
100
AcDbEntity
  8
0
  6
Continuous
 62
     7
100
AcDbLine
 10
-347.0557597881659
 20
-197.2734467131249
 30
0.0
 11
-347.0557597881659
 21
-209.5734469546411
 31
0.0
  0
LINE
  5
189
330
4E
100
AcDbEntity
  8
0
  6
Continuous
 62
     7
100
AcDbLine
 10
-346.0557597881737
 20
-197.2734467131252
 30
0.0
 11
-346.3729170756913
 21
-197.2734467131249
 31
0.0
  0
LINE
  5
18A
330
4E
100
AcDbEntity
  8
0
  6
Continuous
 62
     2
100
AcDbLine
 10
-346.3729170756913
 20
-197.2734467131249
 30
0.0
 11
-346.3729170756913
 21
-209.5734469546411
 31
0.0
  0
LINE
  5
18B
330
4E
100
AcDbEntity
  8
0
  6
Continuous
 62
     7
100
AcDbLine
 10
-303.4536524429457
 20
-197.2734467131247
 30
0.0
 11
-305.296105413214
 21
-197.2734467131247
 31
0.0
  0
LINE
  5
18C
330
4E
100
AcDbEntity
  8
0
  6
Continuous
 62
     7
100
AcDbLine
 10
-306.221158255276
 20
-197.2734467131247
 30
0.0
 11
-305.296105413214
 21
-197.2734467131247
 31
0.0
  0
LINE
  5
18D
330
4E
100
AcDbEntity
  8
0
  6
Continuous
 62
     7
100
AcDbLine
 10
-312.4154141631628
 20
-197.2734467131248
 30
0.0
 11
-311.4903613211031
 21
-197.2734467131248
 31
0.0
  0
LINE
  5
18E
330
4E
100
AcDbEntity
  8
0
  6
Continuous
 62
     7
100
AcDbLine
 10
-314.8057597881778
 20
-198.4734464716146
 30
0.0
 11
-314.805759788178
 21
-197.2734467131248
 31
0.0
  0
LINE
  5
18F
330
4E
100
AcDbEntity
  8
0
  6
Continuous
 62
     7
100
AcDbLine
 10
-322.8057597881778
 20
-197.2734467131248
 30
0.0
 11
-322.8057597881776
 21
-198.4734464716159
 31
0.0
  0
LINE
  5
190
330
4E
100
AcDbEntity
  8
0
  6
Continuous
 62
     7
100
AcDbLine
 10
-324.2595285343247
 20
-198.2734469553944
 30
0.0
 11
-324.2595285343247
 21
-197.2734467131248
 31
0.0
  0
LINE
  5
191
330
4E
100
AcDbEntity
  8
0
  6
Continuous
 62
     7
100
AcDbLine
 10
-336.2378483407933
 20
-197.3234467128562
 30
0.0
 11
-335.6168063101887
 21
-197.323446712859
 31
0.0
  0
LINE
  5
192
330
4E
100
AcDbEntity
  8
0
  6
Continuous
 62
     7
100
AcDbLine
 10
-335.6168063101885
 20
-197.2734467131249
 30
0.0
 11
-335.6168063101887
 21
-197.323446712859
 31
0.0
  0
LINE
  5
193
330
4E
100
AcDbEntity
  8
0
  6
Continuous
 62
     7
100
AcDbLine
 10
-328.4019910419594
 20
-197.3234467128903
 30
0.0
 11
-328.4019910419943
 21
-197.2734467131248
 31
0.0
  0
LINE
  5
194
330
4E
100
AcDbEntity
  8
0
  6
Continuous
 62
     7
100
AcDbLine
 10
-324.2595280632391
 20
-198.8234467124298
 30
0.0
 11
-326.3307597882208
 21
-198.823446712415
 31
0.0
  0
LINE
  5
195
330
4E
100
AcDbEntity
  8
0
  6
Continuous
 62
     7
100
AcDbLine
 10
-326.3307597882208
 20
-198.823446712415
 30
0.0
 11
-327.0759571664869
 21
-198.8234467124254
 31
0.0
  0
LINE
  5
196
330
4E
100
AcDbEntity
  8
0
  6
Continuous
 62
     7
100
AcDbLine
 10
-335.6168063101887
 20
-197.323446712859
 30
0.0
 11
-328.8735462684879
 21
-197.3234467128882
 31
0.0
  0
LINE
  5
197
330
4E
100
AcDbEntity
  8
0
  6
Continuous
 62
     7
100
AcDbLine
 10
-328.2842426521826
 20
-198.8234467124025
 30
0.0
 11
-328.4401540476065
 21
-198.8234467124013
 31
0.0
  0
LINE
  5
198
330
4E
100
AcDbEntity
  8
0
  6
Continuous
 62
     7
100
AcDbLine
 10
-322.8057597881776
 20
-198.4734464716159
 30
0.0
 11
-319.6557597881352
 21
-198.4734464716153
 31
0.0
  0
LINE
  5
199
330
4E
100
AcDbEntity
  8
0
  6
Continuous
 62
     7
100
AcDbLine
 10
-317.9557597881746
 20
-198.4734464716151
 30
0.0
 11
-314.8057597881778
 21
-198.4734464716146
 31
0.0
  0
LINE
  5
19A
330
4E
100
AcDbEntity
  8
0
  6
Continuous
 62
     7
100
AcDbLine
 10
-314.805759788178
 20
-197.2734467131248
 30
0.0
 11
-322.8057597881778
 21
-197.2734467131248
 31
0.0
  0
LINE
  5
19B
330
4E
100
AcDbEntity
  8
0
  6
Continuous
 62
     7
100
AcDbLine
 10
-313.9697300224434
 20
-197.2734467131248
 30
0.0
 11
-314.805759788178
 21
-197.2734467131248
 31
0.0
  0
LINE
  5
19C
330
4E
100
AcDbEntity
  8
0
  6
Continuous
 62
     7
100
AcDbLine
 10
-312.4154141631628
 20
-197.2734467131248
 30
0.0
 11
-313.9697300224434
 21
-197.2734467131248
 31
0.0
  0
LINE
  5
19D
330
4E
100
AcDbEntity
  8
0
  6
Continuous
 62
     7
100
AcDbLine
 10
-306.221158255276
 20
-197.2734467131247
 30
0.0
 11
-311.4903613211031
 21
-197.2734467131248
 31
0.0
  0
LINE
  5
19E
330
4E
100
AcDbEntity
  8
0
  6
Continuous
 62
     7
100
AcDbLine
 10
-328.2842426521811
 20
-198.2734469553944
 30
0.0
 11
-324.2595285343247
 21
-198.2734469553944
 31
0.0
  0
LINE
  5
19F
330
4E
100
AcDbEntity
  8
0
  6
Continuous
 62
     7
100
AcDbLine
 10
-328.4019910419943
 20
-197.2734467131248
 30
0.0
 11
-324.2595285343247
 21
-197.2734467131248
 31
0.0
  0
LINE
  5
1A0
330
4E
100
AcDbEntity
  8
0
  6
Continuous
 62
     7
100
AcDbLine
 10
-328.2842426522102
 20
-208.5734467131283
 30
0.0
 11
-324.2595285343246
 21
-208.5734467131277
 31
0.0
  0
LINE
  5
1A1
330
4E
100
AcDbEntity
  8
0
  6
Continuous
 62
     7
100
AcDbLine
 10
-346.0557597881568
 20
-209.523446712911
 30
0.0
 11
-336.2378483408278
 21
-209.5234467129384
 31
0.0
  0
LINE
  5
1A2
330
4E
100
AcDbEntity
  8
0
  6
Continuous
 62
     7
100
AcDbLine
 10
-322.8057597881776
 20
-198.4734464716159
 30
0.0
 11
-322.805759788177
 21
-202.2234464716158
 31
0.0
  0
LINE
  5
1A3
330
4E
100
AcDbEntity
  8
0
  6
Continuous
 62
     7
100
AcDbLine
 10
-324.2595280632391
 20
-198.8234467124298
 30
0.0
 11
-324.2595280632988
 21
-208.0234467134508
 31
0.0
  0
LINE
  5
1A4
330
4E
100
AcDbEntity
  8
0
  6
Continuous
 62
     7
100
AcDbLine
 10
-324.2595285343247
 20
-197.2734467131248
 30
0.0
 11
-323.6578671333909
 21
-197.2734467131248
 31
0.0
  0
LINE
  5
1A5
330
4E
100
AcDbEntity
  8
0
  6
Continuous
 62
     7
100
AcDbLine
 10
-323.6578671333909
 20
-197.2734467131248
 30
0.0
 11
-322.8057597881778
 21
-197.2734467131248
 31
0.0
  0
LINE
  5
1A6
330
4E
100
AcDbEntity
  8
0
  6
Continuous
 62
     7
100
AcDbLine
 10
-319.6557597881352
 20
-198.4734464716153
 30
0.0
 11
-319.6557597881348
 21
-202.2234464716153
 31
0.0
  0
LINE
  5
1A7
330
4E
100
AcDbEntity
  8
0
  6
Continuous
 62
     7
100
AcDbLine
 10
-317.955759788174
 20
-202.223446471615
 30
0.0
 11
-317.9557597881746
 21
-198.4734464716151
 31
0.0
  0
LINE
  5
1A8
330
4E
100
AcDbEntity
  8
0
  6
Continuous
 62
     7
100
AcDbLine
 10
-314.8057597881773
 20
-202.2234464716145
 30
0.0
 11
-314.8057597881778
 21
-198.4734464716146
 31
0.0
  0
LINE
  5
1A9
330
4E
100
AcDbEntity
  8
0
  6
Continuous
 62
     7
100
AcDbLine
 10
-324.2595280632988
 20
-208.0234467134508
 30
0.0
 11
-326.3307597882806
 21
-208.0234467134507
 31
0.0
  0
LINE
  5
1AA
330
4E
100
AcDbEntity
  8
0
  6
Continuous
 62
     7
100
AcDbLine
 10
-346.0557597881223
 20
-197.3234467128139
 30
0.0
 11
-346.0557597881568
 21
-209.523446712911
 31
0.0
  0
LINE
  5
1AB
330
4E
100
AcDbEntity
  8
0
  6
Continuous
 62
     7
100
AcDbLine
 10
-336.2378483408278
 20
-209.5234467129384
 30
0.0
 11
-336.2378483407933
 21
-197.3234467128562
 31
0.0
  0
LINE
  5
1AC
330
4E
100
AcDbEntity
  8
0
  6
Continuous
 62
     7
100
AcDbLine
 10
-328.4019910419594
 20
-197.3234467128903
 30
0.0
 11
-328.2842426521784
 21
-197.3234467128908
 31
0.0
  0
LINE
  5
1AD
330
4E
100
AcDbEntity
  8
0
  6
Continuous
 62
     7
100
AcDbLine
 10
-328.8735462684879
 20
-197.3234467128882
 30
0.0
 11
-328.4019910419594
 21
-197.3234467128903
 31
0.0
  0
LINE
  5
1AE
330
4E
100
AcDbEntity
  8
0
  6
Continuous
 62
     7
100
AcDbLine
 10
-327.0759571664869
 20
-198.8234467124254
 30
0.0
 11
-328.2842426521826
 21
-198.8234467124025
 31
0.0
  0
LINE
  5
1AF
330
4E
100
AcDbEntity
  8
0
  6
Continuous
 62
     7
100
AcDbLine
 10
-328.2842426521826
 20
-198.8234467124025
 30
0.0
 11
-328.2842426521811
 21
-198.2734469553944
 31
0.0
  0
LINE
  5
1B0
330
4E
100
AcDbEntity
  8
0
  6
Continuous
 62
     7
100
AcDbLine
 10
-328.2842426521811
 20
-198.2734469553944
 30
0.0
 11
-328.2842426521784
 21
-197.3234467128908
 31
0.0
  0
LINE
  5
1B1
330
4E
100
AcDbEntity
  8
0
  6
Continuous
 62
     7
100
AcDbLine
 10
-328.4401540476065
 20
-198.8234467124013
 30
0.0
 11
-328.4401540476265
 21
-208.0234467134494
 31
0.0
  0
LINE
  5
1B2
330
4E
100
AcDbEntity
  8
0
  6
Continuous
 62
     2
100
AcDbLine
 10
-326.3307597882208
 20
-198.823446712415
 30
0.0
 11
-326.3307597882806
 21
-208.0234467134507
 31
0.0
  0
LINE
  5
1B3
330
4E
100
AcDbEntity
  8
0
  6
Continuous
 62
     7
100
AcDbLine
 10
-328.8735462685224
 20
-209.5234467129592
 30
0.0
 11
-328.8735462684879
 21
-197.3234467128882
 31
0.0
  0
LINE
  5
1B4
330
4E
100
AcDbEntity
  8
0
  6
Continuous
 62
     7
100
AcDbLine
 10
-346.0557597881223
 20
-197.3234467128139
 30
0.0
 11
-336.2378483407933
 21
-197.3234467128562
 31
0.0
  0
LINE
  5
1B5
330
4E
100
AcDbEntity
  8
0
  6
Continuous
 62
     7
100
AcDbLine
 10
-300.7807597880459
 20
-198.8234467125811
 30
0.0
 11
-300.0355619372931
 21
-198.8234467126006
 31
0.0
  0
LINE
  5
1B6
330
4E
100
AcDbEntity
  8
0
  6
Continuous
 62
     7
100
AcDbLine
 10
-300.7807597881057
 20
-208.0234467134679
 30
0.0
 11
-300.0355624105505
 21
-208.0234467134537
 31
0.0
  0
LINE
  5
1B7
330
4E
100
AcDbEntity
  8
0
  6
Continuous
 62
     7
100
AcDbLine
 10
-302.8519915130045
 20
-198.823446712569
 30
0.0
 11
-300.7807597880459
 21
-198.8234467125811
 31
0.0
  0
LINE
  5
1B8
330
4E
100
AcDbEntity
  8
0
  6
Continuous
 62
     2
100
AcDbLine
 10
-300.7807597880459
 20
-198.8234467125811
 30
0.0
 11
-300.7807597881057
 21
-208.0234467134679
 31
0.0
  0
LINE
  5
1B9
330
4E
100
AcDbEntity
  8
0
  6
Continuous
 62
     7
100
AcDbLine
 10
-302.8519915130589
 20
-208.0234467134652
 30
0.0
 11
-300.7807597881057
 21
-208.0234467134679
 31
0.0
  0
LINE
  5
1BA
330
4E
100
AcDbEntity
  8
0
  6
Continuous
 62
     7
100
AcDbLine
 10
-302.8519915130589
 20
-208.0234467134652
 30
0.0
 11
-302.8519915130045
 21
-198.823446712569
 31
0.0
  0
LINE
  5
1BB
330
4E
100
AcDbEntity
  8
0
  6
Continuous
 62
     7
100
AcDbLine
 10
-302.8519910419667
 20
-209.5734469546409
 30
0.0
 11
-303.4536524429456
 21
-209.5734469546409
 31
0.0
  0
LINE
  5
1BC
330
4E
100
AcDbEntity
  8
0
  6
Continuous
 62
     7
100
AcDbLine
 10
-298.8272769240484
 20
-208.5734467131298
 30
0.0
 11
-302.8519910419667
 21
-208.5734467131246
 31
0.0
  0
LINE
  5
1BD
330
4E
100
AcDbEntity
  8
0
  6
Continuous
 62
     7
100
AcDbLine
 10
-302.8519910419667
 20
-208.5734467131246
 30
0.0
 11
-302.8519910419667
 21
-209.5734469546409
 31
0.0
  0
LINE
  5
1BE
330
4E
100
AcDbEntity
  8
0
  6
Continuous
 62
     7
100
AcDbLine
 10
-303.4536524429457
 20
-197.2734467131247
 30
0.0
 11
-303.4536524429456
 21
-209.5734469546409
 31
0.0
  0
LINE
  5
1BF
330
4E
100
AcDbEntity
  8
0
  6
Continuous
 62
     7
100
AcDbLine
 10
-314.8057597881762
 20
-209.5734469546409
 30
0.0
 11
-314.8057597881764
 21
-208.3734464716146
 31
0.0
  0
LINE
  5
1C0
330
4E
100
AcDbEntity
  8
0
  6
Continuous
 62
     7
100
AcDbLine
 10
-328.2842426522129
 20
-209.5234467129609
 30
0.0
 11
-328.2842426522102
 21
-208.5734467131283
 31
0.0
  0
LINE
  5
1C1
330
4E
100
AcDbEntity
  8
0
  6
Continuous
 62
     7
100
AcDbLine
 10
-335.6168063101885
 20
-209.5234467129402
 30
0.0
 11
-328.8735462685224
 21
-209.5234467129592
 31
0.0
  0
LINE
  5
1C2
330
4E
100
AcDbEntity
  8
0
  6
Continuous
 62
     7
100
AcDbLine
 10
-319.6557597881336
 20
-208.3734464716153
 30
0.0
 11
-322.8057597881761
 21
-208.3734464716158
 31
0.0
  0
LINE
  5
1C3
330
4E
100
AcDbEntity
  8
0
  6
Continuous
 62
     7
100
AcDbLine
 10
-314.8057597881764
 20
-208.3734464716146
 30
0.0
 11
-317.9557597881728
 21
-208.3734464716151
 31
0.0
  0
LINE
  5
1C4
330
4E
100
AcDbEntity
  8
0
  6
Continuous
 62
     7
100
AcDbLine
 10
-314.8057597881773
 20
-202.2234464716145
 30
0.0
 11
-317.955759788174
 21
-202.223446471615
 31
0.0
  0
LINE
  5
1C5
330
4E
100
AcDbEntity
  8
0
  6
Continuous
 62
     7
100
AcDbLine
 10
-314.8057597881769
 20
-204.6234464716146
 30
0.0
 11
-314.8057597881773
 21
-202.2234464716145
 31
0.0
  0
LINE
  5
1C6
330
4E
100
AcDbEntity
  8
0
  6
Continuous
 62
     7
100
AcDbLine
 10
-322.805759788177
 20
-202.2234464716158
 30
0.0
 11
-322.8057597881767
 21
-204.6234464716159
 31
0.0
  0
LINE
  5
1C7
330
4E
100
AcDbEntity
  8
0
  6
Continuous
 62
     7
100
AcDbLine
 10
-328.4401540476265
 20
-208.0234467134494
 30
0.0
 11
-328.2842426522086
 21
-208.0234467134492
 31
0.0
  0
LINE
  5
1C8
330
4E
100
AcDbEntity
  8
0
  6
Continuous
 62
     7
100
AcDbLine
 10
-327.0759571657461
 20
-208.0234467134361
 30
0.0
 11
-326.3307597882806
 21
-208.0234467134507
 31
0.0
  0
LINE
  5
1C9
330
4E
100
AcDbEntity
  8
0
  6
Continuous
 62
     7
100
AcDbLine
 10
-328.2842426522086
 20
-208.0234467134492
 30
0.0
 11
-327.0759571657461
 21
-208.0234467134361
 31
0.0
  0
LINE
  5
1CA
330
4E
100
AcDbEntity
  8
0
  6
Continuous
 62
     7
100
AcDbLine
 10
-319.6557597881348
 20
-202.2234464716153
 30
0.0
 11
-322.805759788177
 21
-202.2234464716158
 31
0.0
  0
LINE
  5
1CB
330
4E
100
AcDbEntity
  8
0
  6
Continuous
 62
     7
100
AcDbLine
 10
-322.8057597881767
 20
-204.6234464716159
 30
0.0
 11
-319.6557597881342
 21
-204.6234464716154
 31
0.0
  0
LINE
  5
1CC
330
4E
100
AcDbEntity
  8
0
  6
Continuous
 62
     7
100
AcDbLine
 10
-319.6557597881342
 20
-204.6234464716154
 30
0.0
 11
-319.6557597881336
 21
-208.3734464716153
 31
0.0
  0
LINE
  5
1CD
330
4E
100
AcDbEntity
  8
0
  6
Continuous
 62
     7
100
AcDbLine
 10
-322.8057597881767
 20
-204.6234464716159
 30
0.0
 11
-322.8057597881761
 21
-208.3734464716158
 31
0.0
  0
LINE
  5
1CE
330
4E
100
AcDbEntity
  8
0
  6
Continuous
 62
     7
100
AcDbLine
 10
-317.9557597881728
 20
-208.3734464716151
 30
0.0
 11
-317.9557597881734
 21
-204.6234464716151
 31
0.0
  0
LINE
  5
1CF
330
4E
100
AcDbEntity
  8
0
  6
Continuous
 62
     7
100
AcDbLine
 10
-317.9557597881734
 20
-204.6234464716151
 30
0.0
 11
-314.8057597881769
 21
-204.6234464716146
 31
0.0
  0
LINE
  5
1D0
330
4E
100
AcDbEntity
  8
0
  6
Continuous
 62
     7
100
AcDbLine
 10
-314.8057597881764
 20
-208.3734464716146
 30
0.0
 11
-314.8057597881769
 21
-204.6234464716146
 31
0.0
  0
LINE
  5
1D1
330
4E
100
AcDbEntity
  8
0
  6
Continuous
 62
     7
100
AcDbLine
 10
-336.2378483408278
 20
-209.5234467129384
 30
0.0
 11
-335.6168063101885
 21
-209.5234467129402
 31
0.0
  0
LINE
  5
1D2
330
4E
100
AcDbEntity
  8
0
  6
Continuous
 62
     7
100
AcDbLine
 10
-328.2842426522102
 20
-208.5734467131283
 30
0.0
 11
-328.2842426522086
 21
-208.0234467134492
 31
0.0
  0
LINE
  5
1D3
330
4E
100
AcDbEntity
  8
0
  6
Continuous
 62
     7
100
AcDbLine
 10
-328.4019910419942
 20
-209.5234467129665
 30
0.0
 11
-328.2842426522129
 21
-209.5234467129609
 31
0.0
  0
LINE
  5
1D4
330
4E
100
AcDbEntity
  8
0
  6
Continuous
 62
     7
100
AcDbLine
 10
-328.8735462685224
 20
-209.5234467129592
 30
0.0
 11
-328.4019910419942
 21
-209.5234467129665
 31
0.0
  0
LINE
  5
1D5
330
4E
100
AcDbEntity
  8
0
  6
Continuous
 62
     7
100
AcDbLine
 10
-323.6578671333874
 20
-209.573446954641
 30
0.0
 11
-324.2595285343246
 21
-209.573446954641
 31
0.0
  0
LINE
  5
1D6
330
4E
100
AcDbEntity
  8
0
  6
Continuous
 62
     7
100
AcDbLine
 10
-328.4019910419942
 20
-209.573446954641
 30
0.0
 11
-335.6168063101884
 21
-209.573446954641
 31
0.0
  0
LINE
  5
1D7
330
4E
100
AcDbEntity
  8
0
  6
Continuous
 62
     7
100
AcDbLine
 10
-328.4019910419942
 20
-209.573446954641
 30
0.0
 11
-324.2595285343246
 21
-209.573446954641
 31
0.0
  0
LINE
  5
1D8
330
4E
100
AcDbEntity
  8
0
  6
Continuous
 62
     7
100
AcDbLine
 10
-328.4019910419942
 20
-209.573446954641
 30
0.0
 11
-328.4019910419942
 21
-209.5234467129665
 31
0.0
  0
LINE
  5
1D9
330
4E
100
AcDbEntity
  8
0
  6
Continuous
 62
     7
100
AcDbLine
 10
-335.6168063101884
 20
-209.573446954641
 30
0.0
 11
-335.6168063101885
 21
-209.5234467129402
 31
0.0
  0
LINE
  5
1DA
330
4E
100
AcDbEntity
  8
0
  6
Continuous
 62
     7
100
AcDbLine
 10
-298.7095285342969
 20
-209.5734469546409
 30
0.0
 11
-302.8519910419667
 21
-209.5734469546409
 31
0.0
  0
LINE
  5
1DB
330
4E
100
AcDbEntity
  8
0
  6
Continuous
 62
     7
100
AcDbLine
 10
-291.5120182518085
 20
-209.5734469546408
 30
0.0
 11
-291.5120182518085
 21
-209.5234467130648
 31
0.0
  0
LINE
  5
1DC
330
4E
100
AcDbEntity
  8
0
  6
Continuous
 62
     7
100
AcDbLine
 10
-305.2961054132139
 20
-209.5734469546409
 30
0.0
 11
-306.221158255276
 21
-209.5734469546409
 31
0.0
  0
LINE
  5
1DD
330
4E
100
AcDbEntity
  8
0
  6
Continuous
 62
     7
100
AcDbLine
 10
-305.2961054132139
 20
-209.5734469546409
 30
0.0
 11
-303.4536524429456
 21
-209.5734469546409
 31
0.0
  0
LINE
  5
1DE
330
4E
100
AcDbEntity
  8
0
  6
Continuous
 62
     7
100
AcDbLine
 10
-314.8057597881762
 20
-209.5734469546409
 30
0.0
 11
-313.9697300224435
 21
-209.5734469546409
 31
0.0
  0
LINE
  5
1DF
330
4E
100
AcDbEntity
  8
0
  6
Continuous
 62
     7
100
AcDbLine
 10
-322.805759788176
 20
-209.573446954641
 30
0.0
 11
-323.6578671333874
 21
-209.573446954641
 31
0.0
  0
LINE
  5
1E0
330
4E
100
AcDbEntity
  8
0
  6
Continuous
 62
     7
100
AcDbLine
 10
-322.805759788176
 20
-209.573446954641
 30
0.0
 11
-314.8057597881762
 21
-209.5734469546409
 31
0.0
  0
LINE
  5
1E1
330
4E
100
AcDbEntity
  8
0
  6
Continuous
 62
     7
100
AcDbLine
 10
-291.5120182518085
 20
-209.5734469546408
 30
0.0
 11
-298.7095285342969
 21
-209.5734469546409
 31
0.0
  0
LINE
  5
1E2
330
4E
100
AcDbEntity
  8
0
  6
Continuous
 62
     7
100
AcDbLine
 10
-311.490361321103
 20
-209.5734469546409
 30
0.0
 11
-312.4154141631629
 21
-209.5734469546409
 31
0.0
  0
LINE
  5
1E3
330
4E
100
AcDbEntity
  8
0
  6
Continuous
 62
     7
100
AcDbLine
 10
-313.9697300224435
 20
-209.5734469546409
 30
0.0
 11
-312.4154141631629
 21
-209.5734469546409
 31
0.0
  0
LINE
  5
1E4
330
4E
100
AcDbEntity
  8
0
  6
Continuous
 62
     7
100
AcDbLine
 10
-311.490361321103
 20
-209.5734469546409
 30
0.0
 11
-306.221158255276
 21
-209.5734469546409
 31
0.0
  0
LINE
  5
1E5
330
4E
100
AcDbEntity
  8
0
  6
Continuous
 62
     7
100
AcDbLine
 10
-281.0557597881063
 20
-209.5234467130947
 30
0.0
 11
-281.0557597881548
 21
-209.5734469546408
 31
0.0
  0
LINE
  5
1E6
330
4E
100
AcDbEntity
  8
0
  6
Continuous
 62
     7
100
AcDbLine
 10
-324.2595285343246
 20
-209.573446954641
 30
0.0
 11
-324.2595285343246
 21
-208.5734467131277
 31
0.0
  0
LINE
  5
1E7
330
4E
100
AcDbEntity
  8
0
  6
Continuous
 62
     7
100
AcDbLine
 10
-291.5120182518085
 20
-209.5734469546408
 30
0.0
 11
-281.0557597881548
 21
-209.5734469546408
 31
0.0
  0
ARC
  5
1E8
330
4E
100
AcDbEntity
  8
0
  6
Continuous
 62
     7
100
AcDbCircle
 10
-297.7557597881721
 20
-203.2734469553942
 30
0.0
 40
4.999999999999966
100
AcDbArc
 50
102.3746641268467
 51
117.1267470154076
  0
ARC
  5
1E9
330
4E
100
AcDbEntity
  8
0
  6
Continuous
 62
     7
100
AcDbCircle
 10
-297.7557597881721
 20
-203.573446713117
 30
0.0
 40
4.999999999999999
100
AcDbArc
 50
242.873246891188
 51
257.6253358728206
  0
ARC
  5
1EA
330
4E
100
AcDbEntity
  8
0
  6
Continuous
 62
     7
100
AcDbCircle
 10
-329.3557597881677
 20
-203.2734467131194
 30
0.0
 40
4.999999999999917
100
AcDbArc
 50
62.87324690016919
 51
77.62533587152622
  0
ARC
  5
1EB
330
4E
100
AcDbEntity
  8
0
  6
Continuous
 62
     7
100
AcDbCircle
 10
-329.3557597881677
 20
-203.5734467131215
 30
0.0
 40
5.000000000000032
100
AcDbArc
 50
282.3746641281389
 51
297.1267531093681
  0
ENDBLK
  5
50
330
4E
100
AcDbEntity
  8
0
100
AcDbBlockEnd
  0
BLOCK
  5
53
330
51
100
AcDbEntity
  8
0
100
AcDbBlockBegin
  2
Drfsicht1
 70
     0
 10
-314.055758
 20
-203.423447
 30
0.0
  3
Drfsicht1
  1

  0
INSERT
  5
52
330
51
100
AcDbEntity
  8
0
100
AcDbBlockReference
  2
RTO_3-TC_BU-select__2
 10
-347.0557597881659
 20
-209.5734469546413
 30
0.0
  0
MTEXT
  5
1EC
330
51
100
AcDbEntity
  8
1
 62
     6
100
AcDbMText
 10
-313.5919463782142
 20
-214.5734472807804
 30
0.0
 40
5.0
 41
0.0
 71
     2
 72
     1
  1
 
  7
CONVERTER_11
 73
     1
 44
1.32052821128451
  0
DIMENSION
  5
1F7
330
51
100
AcDbEntity
  8
1
100
AcDbDimension
  2
*D17
 10
-357.0557597881659
 20
-197.2734467131249
 30
0.0
 11
-360.4807597881659
 21
-203.710217393164
 31
0.0
 70
    32
  1
<>
 71
     5
 42
-1.0
 53
90.0
  3
ME10_DIM_10
100
AcDbAlignedDimension
 13
-347.0557597881659
 23
-209.5734469546411
 33
0.0
 14
-347.0557597881659
 24
-197.2734467131249
 34
0.0
 50
90.0
100
AcDbRotatedDimension
  0
ENDBLK
  5
54
330
51
100
AcDbEntity
  8
0
100
AcDbBlockEnd
  0
BLOCK
  5
56
330
55
100
AcDbEntity
  8
0
100
AcDbBlockBegin
  2
RTO_3-TC_BU-select__3
 70
     0
 10
-218.9442402119288
 20
-144.4250005783929
 30
0.0
  3
RTO_3-TC_BU-select__3
  1

  0
LINE
  5
1F8
330
55
100
AcDbEntity
  8
0
  6
Continuous
 62
     7
100
AcDbLine
 10
-173.6692402117798
 20
-94.07500018800846
 30
0.0
 11
-171.5598459523941
 21
-94.07500018799004
 31
0.0
  0
LINE
  5
1F9
330
55
100
AcDbEntity
  8
0
  6
Continuous
 62
     7
100
AcDbLine
 10
-171.5598459523941
 20
-94.07500018799004
 30
0.0
 11
-171.7157573478222
 21
-94.25487350816664
 31
0.0
  0
LINE
  5
1FA
330
55
100
AcDbEntity
  8
0
  6
Continuous
 62
     7
100
AcDbLine
 10
-169.5942402118343
 20
-139.4314665750174
 30
0.0
 11
-169.5942402118343
 21
-138.8750005783862
 31
0.0
  0
LINE
  5
1FB
330
55
100
AcDbEntity
  8
0
  6
Continuous
 62
     7
100
AcDbLine
 10
-168.6942402118343
 20
-138.9537403755595
 30
0.0
 11
-168.6942402118342
 21
-137.875000578392
 31
0.0
  0
LINE
  5
1FC
330
55
100
AcDbEntity
  8
0
  6
Continuous
 62
     7
100
AcDbLine
 10
-176.3421328666112
 20
-98.53082779154201
 30
0.0
 11
-177.1942402118228
 21
-100.8719734814615
 31
0.0
  0
LINE
  5
1FD
330
55
100
AcDbEntity
  8
0
  6
Continuous
 62
     7
100
AcDbLine
 10
-169.5942402118343
 20
-138.8750005783862
 30
0.0
 11
-168.6942402118343
 21
-138.9537403755595
 31
0.0
  0
LINE
  5
1FE
330
55
100
AcDbEntity
  8
0
  6
Continuous
 62
     7
100
AcDbLine
 10
-152.9442402118348
 20
-144.4250005783929
 30
0.0
 11
-167.4998103272378
 21
-144.4250005783923
 31
0.0
  0
LINE
  5
1FF
330
55
100
AcDbEntity
  8
0
  6
Continuous
 62
     7
100
AcDbLine
 10
-157.0197183603344
 20
-140.5750005368518
 30
0.0
 11
-155.2170323764299
 21
-140.5750005368519
 31
0.0
  0
LINE
  5
200
330
55
100
AcDbEntity
  8
0
  6
Continuous
 62
     7
100
AcDbLine
 10
-155.2170323764299
 20
-140.5750005368519
 30
0.0
 11
-153.6270829243093
 21
-138.9850510847314
 31
0.0
  0
LINE
  5
201
330
55
100
AcDbEntity
  8
0
  6
Continuous
 62
     7
100
AcDbLine
 10
-164.3831936898121
 20
-95.17500018797442
 30
0.0
 11
-171.5980089580063
 21
-95.17500018797429
 31
0.0
  0
LINE
  5
202
330
55
100
AcDbEntity
  8
0
  6
Continuous
 62
     7
100
AcDbLine
 10
-203.3942402118253
 20
-137.5750005783861
 30
0.0
 11
-203.3942402118253
 21
-138.6750005783809
 31
0.0
  0
LINE
  5
203
330
55
100
AcDbEntity
  8
0
  6
Continuous
 62
     7
100
AcDbLine
 10
-203.3942402118253
 20
-138.6750005783809
 30
0.0
 11
-202.0965160782299
 21
-139.0227247119761
 31
0.0
  0
LINE
  5
204
330
55
100
AcDbEntity
  8
0
  6
Continuous
 62
     7
100
AcDbLine
 10
-202.0965160782299
 20
-139.0227247119761
 30
0.0
 11
-200.7442402118252
 21
-140.3750005783806
 31
0.0
  0
LINE
  5
205
330
55
100
AcDbEntity
  8
0
  6
Continuous
 62
     7
100
AcDbLine
 10
-200.7442402118252
 20
-140.3750005783806
 30
0.0
 11
-200.7442402118252
 21
-142.0250005783893
 31
0.0
  0
LINE
  5
206
330
55
100
AcDbEntity
  8
0
  6
Continuous
 62
     7
100
AcDbLine
 10
-194.3067402118121
 20
-99.68000057837949
 30
0.0
 11
-193.7788417447246
 21
-99.6800005783795
 31
0.0
  0
LINE
  5
207
330
55
100
AcDbEntity
  8
0
  6
Continuous
 62
     7
100
AcDbLine
 10
-186.0302699775572
 20
-97.57500057838293
 30
0.0
 11
-185.1942402118244
 21
-99.87197348172586
 31
0.0
  0
LINE
  5
208
330
55
100
AcDbEntity
  8
0
  6
Continuous
 62
     7
100
AcDbLine
 10
-187.5845858368377
 20
-97.57500057838307
 30
0.0
 11
-186.0302699775572
 21
-97.57500057838293
 31
0.0
  0
LINE
  5
209
330
55
100
AcDbEntity
  8
0
  6
Continuous
 62
     7
100
AcDbLine
 10
-187.5845858368377
 20
-97.57500057838307
 30
0.0
 11
-188.5096386788975
 21
-99.68000057837938
 31
0.0
  0
LINE
  5
20A
330
55
100
AcDbEntity
  8
0
  6
Continuous
 62
     7
100
AcDbLine
 10
-188.5096386788975
 20
-99.68000057837938
 30
0.0
 11
-187.981740211812
 21
-99.6800005783796
 31
0.0
  0
LINE
  5
20B
330
55
100
AcDbEntity
  8
0
  6
Continuous
 62
     7
100
AcDbLine
 10
-187.981740211812
 20
-99.6800005783796
 30
0.0
 11
-187.981740211812
 21
-100.7500005783784
 31
0.0
  0
LINE
  5
20C
330
55
100
AcDbEntity
  8
0
  6
Continuous
 62
     7
100
AcDbLine
 10
-194.3067402118121
 20
-100.7500005783783
 30
0.0
 11
-187.981740211812
 21
-100.7500005783784
 31
0.0
  0
LINE
  5
20D
330
55
100
AcDbEntity
  8
0
  6
Continuous
 62
     7
100
AcDbLine
 10
-194.3067402118121
 20
-100.7500005783783
 30
0.0
 11
-194.3067402118121
 21
-99.68000057837949
 31
0.0
  0
LINE
  5
20E
330
55
100
AcDbEntity
  8
0
  6
Continuous
 62
     7
100
AcDbLine
 10
-193.7788417447246
 20
-99.6800005783795
 30
0.0
 11
-194.7038945867866
 21
-97.5750005783828
 31
0.0
  0
LINE
  5
20F
330
55
100
AcDbEntity
  8
0
  6
Continuous
 62
     7
100
AcDbLine
 10
-203.4942402118344
 20
-144.4250005783877
 30
0.0
 11
-209.8942398703628
 21
-138.0250008358775
 31
0.0
  0
LINE
  5
210
330
55
100
AcDbEntity
  8
0
  6
Continuous
 62
     7
100
AcDbLine
 10
-218.9442402119288
 20
-103.3929116353187
 30
0.0
 11
-218.9442402119288
 21
-104.9708581883104
 31
0.0
  0
LINE
  5
211
330
55
100
AcDbEntity
  8
0
  6
Continuous
 62
     7
100
AcDbLine
 10
-176.3421328666112
 20
-98.53082779154201
 30
0.0
 11
-176.3421328666096
 21
-95.17500018797419
 31
0.0
  0
LINE
  5
212
330
55
100
AcDbEntity
  8
0
  6
Continuous
 62
     7
100
AcDbLine
 10
-218.6198036466964
 20
-105.3068220864774
 30
0.0
 11
-208.4879817481921
 21
-95.17500018797362
 31
0.0
  0
LINE
  5
213
330
55
100
AcDbEntity
  8
0
  6
Continuous
 62
     7
100
AcDbLine
 10
-202.4247383035273
 20
-144.4250005783877
 30
0.0
 11
-203.4942402118344
 21
-144.4250005783877
 31
0.0
  0
LINE
  5
214
330
55
100
AcDbEntity
  8
0
  6
Continuous
 62
     7
100
AcDbLine
 10
-177.1942402118228
 20
-100.8719734814615
 30
0.0
 11
-177.1942402118228
 21
-104.0750005783766
 31
0.0
  0
LINE
  5
215
330
55
100
AcDbEntity
  8
0
  6
Continuous
 62
     7
100
AcDbLine
 10
-200.7442402118252
 20
-142.0250005783893
 30
0.0
 11
-202.4247383035273
 21
-144.4250005783877
 31
0.0
  0
LINE
  5
216
330
55
100
AcDbEntity
  8
0
  6
Continuous
 62
     7
100
AcDbLine
 10
-209.8942398703628
 20
-138.0250008358775
 30
0.0
 11
-218.9442402118471
 21
-135.3370639693875
 31
0.0
  0
LINE
  5
217
330
55
100
AcDbEntity
  8
0
  6
Continuous
 62
     7
100
AcDbLine
 10
-218.9442402118471
 20
-135.3370639693875
 30
0.0
 11
-218.9442402118471
 21
-126.5626345303161
 31
0.0
  0
LINE
  5
218
330
55
100
AcDbEntity
  8
0
  6
Continuous
 62
     7
100
AcDbLine
 10
-218.9442402119288
 20
-104.9708581883104
 30
0.0
 11
-218.6198036466964
 21
-105.3068220864774
 31
0.0
  0
LINE
  5
219
330
55
100
AcDbEntity
  8
0
  6
Continuous
 62
     7
100
AcDbLine
 10
-218.9442402118459
 20
-110.688126663925
 30
0.0
 11
-218.9442402118458
 21
-105.631258651627
 31
0.0
  0
LINE
  5
21A
330
55
100
AcDbEntity
  8
0
  6
Continuous
 62
     7
100
AcDbLine
 10
-218.9442402118458
 20
-105.631258651627
 30
0.0
 11
-218.6198036466964
 21
-105.3068220864774
 31
0.0
  0
LINE
  5
21B
330
55
100
AcDbEntity
  8
0
  6
Continuous
 62
     7
100
AcDbLine
 10
-185.1942402118226
 20
-104.0750005783765
 30
0.0
 11
-185.1942402118244
 21
-99.87197348172586
 31
0.0
  0
LINE
  5
21C
330
55
100
AcDbEntity
  8
0
  6
Continuous
 62
     7
100
AcDbLine
 10
-171.1264537315127
 20
-93.57500018800638
 30
0.0
 11
-171.5598459523941
 21
-94.07500018799004
 31
0.0
  0
LINE
  5
21D
330
55
100
AcDbEntity
  8
0
  6
Continuous
 62
     7
100
AcDbLine
 10
-201.172723075984
 20
-94.2548735081501
 30
0.0
 11
-201.3286344714008
 21
-94.07500018797668
 31
0.0
  0
LINE
  5
21E
330
55
100
AcDbEntity
  8
0
  6
Continuous
 62
     7
100
AcDbLine
 10
-201.1727230759521
 20
-95.01490292126172
 30
0.0
 11
-201.172723075984
 21
-94.2548735081501
 31
0.0
  0
LINE
  5
21F
330
55
100
AcDbEntity
  8
0
  6
Continuous
 62
     7
100
AcDbLine
 10
-201.2904714657036
 20
-95.17500018797375
 30
0.0
 11
-208.4879817481921
 21
-95.17500018797362
 31
0.0
  0
LINE
  5
220
330
55
100
AcDbEntity
  8
0
  6
Continuous
 62
     7
100
AcDbLine
 10
-175.7404714656759
 20
-95.17500018797422
 30
0.0
 11
-176.3421328666096
 21
-95.17500018797419
 31
0.0
  0
LINE
  5
221
330
55
100
AcDbEntity
  8
0
  6
Continuous
 62
     7
100
AcDbLine
 10
-196.546347557055
 20
-97.57500057838277
 30
0.0
 11
-194.7038945867866
 21
-97.5750005783828
 31
0.0
  0
LINE
  5
222
330
55
100
AcDbEntity
  8
0
  6
Continuous
 62
     7
100
AcDbLine
 10
-196.5463475570549
 20
-95.17500018797384
 30
0.0
 11
-196.546347557055
 21
-97.57500057838277
 31
0.0
  0
LINE
  5
223
330
55
100
AcDbEntity
  8
0
  6
Continuous
 62
     7
100
AcDbLine
 10
-196.5463475570549
 20
-95.17500018797384
 30
0.0
 11
-197.1480089580337
 21
-95.17500018797381
 31
0.0
  0
LINE
  5
224
330
55
100
AcDbEntity
  8
0
  6
Continuous
 62
     7
100
AcDbLine
 10
-199.2192402119546
 20
-94.07500018800671
 30
0.0
 11
-201.3286344714008
 21
-94.07500018797668
 31
0.0
  0
LINE
  5
225
330
55
100
AcDbEntity
  8
0
  6
Continuous
 62
     7
100
AcDbLine
 10
-201.3286344714008
 20
-94.07500018797668
 30
0.0
 11
-201.7620266922934
 21
-93.5750001879898
 31
0.0
  0
LINE
  5
226
330
55
100
AcDbEntity
  8
0
  6
Continuous
 62
     7
100
AcDbLine
 10
-201.7620266922934
 20
-93.5750001879898
 30
0.0
 11
-209.1263287645988
 21
-93.57500018798949
 31
0.0
  0
LINE
  5
227
330
55
100
AcDbEntity
  8
0
  6
Continuous
 62
     7
100
AcDbLine
 10
-209.1263287645988
 20
-93.57500018798949
 30
0.0
 11
-218.9442402119288
 21
-103.3929116353187
 31
0.0
  0
LINE
  5
228
330
55
100
AcDbEntity
  8
0
  6
Continuous
 62
     7
100
AcDbLine
 10
-163.7621516592073
 20
-93.57500018800667
 30
0.0
 11
-171.1264537315127
 21
-93.57500018800638
 31
0.0
  0
LINE
  5
229
330
55
100
AcDbEntity
  8
0
  6
Continuous
 62
     7
100
AcDbLine
 10
-153.9442402118268
 20
-126.5626345302112
 30
0.0
 11
-153.9442402118269
 21
-132.4750005783864
 31
0.0
  0
LINE
  5
22A
330
55
100
AcDbEntity
  8
0
  6
Continuous
 62
     7
100
AcDbLine
 10
-152.9442402118347
 20
-139.2678937972061
 30
0.0
 11
-152.9442402118348
 21
-144.4250005783929
 31
0.0
  0
LINE
  5
22B
330
55
100
AcDbEntity
  8
0
  6
Continuous
 62
     7
100
AcDbLine
 10
-153.9442402118269
 20
-132.4750005783864
 30
0.0
 11
-158.1181288608289
 21
-132.4750005783864
 31
0.0
  0
LINE
  5
22C
330
55
100
AcDbEntity
  8
0
  6
Continuous
 62
     7
100
AcDbLine
 10
-153.9442402118265
 20
-105.631258651628
 30
0.0
 11
-154.2684127715143
 21
-105.3065487007655
 31
0.0
  0
LINE
  5
22D
330
55
100
AcDbEntity
  8
0
  6
Continuous
 62
     7
100
AcDbLine
 10
-153.9442402118265
 20
-105.631258651628
 30
0.0
 11
-153.9442402118266
 21
-110.6881266639264
 31
0.0
  0
LINE
  5
22E
330
55
100
AcDbEntity
  8
0
  6
Continuous
 62
     7
100
AcDbLine
 10
-154.2684127715143
 20
-105.3065487007655
 30
0.0
 11
-164.3831936898121
 21
-95.17500018797442
 31
0.0
  0
LINE
  5
22F
330
55
100
AcDbEntity
  8
0
  6
Continuous
 62
     7
100
AcDbLine
 10
-154.2684127715143
 20
-105.3065487007655
 30
0.0
 11
-153.9442402118783
 21
-104.9708581883308
 31
0.0
  0
LINE
  5
230
330
55
100
AcDbEntity
  8
0
  6
Continuous
 62
     7
100
AcDbLine
 10
-153.9442402118783
 20
-104.9708581883308
 30
0.0
 11
-153.9442402118783
 21
-103.3929116353365
 31
0.0
  0
LINE
  5
231
330
55
100
AcDbEntity
  8
0
  6
Continuous
 62
     7
100
AcDbLine
 10
-153.9442402118783
 20
-103.3929116353365
 30
0.0
 11
-163.7621516592073
 21
-93.57500018800667
 31
0.0
  0
LINE
  5
232
330
55
100
AcDbEntity
  8
0
  6
Continuous
 62
     7
100
AcDbLine
 10
-185.1942402118226
 20
-104.0750005783765
 30
0.0
 11
-177.1942402118228
 21
-104.0750005783766
 31
0.0
  0
LINE
  5
233
330
55
100
AcDbEntity
  8
0
  6
Continuous
 62
     7
100
AcDbLine
 10
-171.7157573478222
 20
-94.25487350816664
 30
0.0
 11
-171.7157573478209
 21
-95.01490292118734
 31
0.0
  0
LINE
  5
234
330
55
100
AcDbEntity
  8
0
  6
Continuous
 62
     7
100
AcDbLine
 10
-169.7004072003103
 20
-137.5750005783875
 30
0.0
 11
-203.3942402118253
 21
-137.5750005783861
 31
0.0
  0
ARC
  5
235
330
55
100
AcDbEntity
  8
0
  6
Continuous
 62
     7
100
AcDbCircle
 10
-176.9942402118343
 20
-137.8750005783918
 30
0.0
 40
7.299999999999976
100
AcDbArc
 50
2.35528435580823
 51
27.90122555985819
  0
ARC
  5
236
330
55
100
AcDbEntity
  8
0
  6
Continuous
 62
     7
100
AcDbCircle
 10
-170.1009463692651
 20
-134.2250005783921
 30
0.0
 40
0.5000000000000151
100
AcDbArc
 50
27.90122555986292
 51
207.9012255598367
  0
ARC
  5
237
330
55
100
AcDbEntity
  8
0
  6
Continuous
 62
     7
100
AcDbCircle
 10
-176.9942402118343
 20
-137.8750005783918
 30
0.0
 40
8.300000000000097
100
AcDbArc
 50
359.9999999999986
 51
27.90122555985717
  0
ARC
  5
238
330
55
100
AcDbEntity
  8
0
  6
Continuous
 62
     7
100
AcDbCircle
 10
-162.5942402118343
 20
-139.4314665750175
 30
0.0
 40
7.0
100
AcDbArc
 50
179.9999999999991
 51
225.509119494185
  0
ARC
  5
239
330
55
100
AcDbEntity
  8
0
  6
Continuous
 62
     7
100
AcDbCircle
 10
-150.6442402118162
 20
-133.1002912805064
 30
0.0
 40
7.499999999999914
100
AcDbArc
 50
175.2175795970573
 51
194.1411102338231
  0
ARC
  5
23A
330
55
100
AcDbEntity
  8
0
  6
Continuous
 62
     7
100
AcDbCircle
 10
-189.0442402118348
 20
-142.7750005783912
 30
0.0
 40
32.09999999999999
100
AcDbArc
 50
3.92989428446633
 51
14.14111023382173
  0
ARC
  5
23B
330
55
100
AcDbEntity
  8
0
  6
Continuous
 62
     7
100
AcDbCircle
 10
-199.2192402118493
 20
-96.57500057835257
 30
0.0
 40
2.500000000000724
100
AcDbArc
 50
141.3883080729452
 51
145.9441914585252
  0
ARC
  5
23C
330
55
100
AcDbEntity
  8
0
  6
Continuous
 62
     7
100
AcDbCircle
 10
-199.219239806198
 20
-96.57500038319404
 30
0.0
 40
2.500000195187359
100
AcDbArc
 50
90.00000929925542
 51
141.3883173694779
  0
ARC
  5
23D
330
55
100
AcDbEntity
  8
0
  6
Continuous
 62
     7
100
AcDbCircle
 10
-199.2192405793928
 20
-96.57500038319301
 30
0.0
 40
2.500000195186316
100
AcDbArc
 50
34.05580011920183
 51
89.99999157893765
  0
ARC
  5
23E
330
55
100
AcDbEntity
  8
0
  6
Continuous
 62
     7
100
AcDbCircle
 10
-249.9442402118461
 20
-118.6253805971184
 30
0.0
 40
32.00000000000001
100
AcDbArc
 50
345.6384884370761
 51
14.36151156291581
  0
ARC
  5
23F
330
55
100
AcDbEntity
  8
0
  6
Continuous
 62
     7
100
AcDbCircle
 10
-153.3442402118347
 20
-139.267893797206
 30
0.0
 40
0.3999999999999773
100
AcDbArc
 50
359.9999999999837
 51
135.0
  0
ARC
  5
240
330
55
100
AcDbEntity
  8
0
  6
Continuous
 62
     7
100
AcDbCircle
 10
-122.9442402118135
 20
-118.6253805970694
 30
0.0
 40
32.00000000000011
100
AcDbArc
 50
165.6384884371773
 51
194.3615115628205
  0
ARC
  5
241
330
55
100
AcDbEntity
  8
0
  6
Continuous
 62
     7
100
AcDbCircle
 10
-173.6692402118411
 20
-96.57500057838038
 30
0.0
 40
2.499999999999866
100
AcDbArc
 50
34.05580854224284
 51
38.61169193006614
  0
ARC
  5
242
330
55
100
AcDbEntity
  8
0
  6
Continuous
 62
     7
100
AcDbCircle
 10
-173.6692398443179
 20
-96.57500038319435
 30
0.0
 40
2.500000195185918
100
AcDbArc
 50
90.00000842160561
 51
145.9441998807668
  0
ARC
  5
243
330
55
100
AcDbEntity
  8
0
  6
Continuous
 62
     7
100
AcDbCircle
 10
-173.6692406175135
 20
-96.57500038319436
 30
0.0
 40
2.50000019518593
100
AcDbArc
 50
38.61168263273922
 51
89.99999070126893
  0
ENDBLK
  5
57
330
55
100
AcDbEntity
  8
0
100
AcDbBlockEnd
  0
BLOCK
  5
5A
330
58
100
AcDbEntity
  8
0
100
AcDbBlockBegin
  2
Rckans1
 70
     0
 10
-185.9442420000003
 20
-119.0
 30
0.0
  3
Rckans1
  1

  0
INSERT
  5
59
330
58
100
AcDbEntity
  8
0
100
AcDbBlockReference
  2
RTO_3-TC_BU-select__3
 10
-218.9442402119288
 20
-144.4250005783929
 30
0.0
  0
MTEXT
  5
244
330
58
100
AcDbEntity
  8
1
 62
     6
100
AcDbMText
 10
-186.4080536217866
 20
-157.2734473367943
 30
0.0
 40
5.0
 41
0.0
 71
     2
 72
     1
  1
 
  7
CONVERTER_11
 73
     1
 44
1.32052821128451
  0
ENDBLK
  5
5B
330
58
100
AcDbEntity
  8
0
100
AcDbBlockEnd
  0
BLOCK
  5
5D
330
5C
100
AcDbEntity
  8
0
100
AcDbBlockBegin
  2
RTO_3-TC_BU-select__4
 70
     0
 10
-256.1500002868753
 20
-144.4250005783877
 30
0.0
  3
RTO_3-TC_BU-select__4
  1

  0
LINE
  5
245
330
5C
100
AcDbEntity
  8
0
  6
Continuous
 62
     7
100
AcDbLine
 10
-243.9000002872099
 20
-95.17500018797355
 30
0.0
 11
-243.9000002869543
 21
-93.57500018798926
 31
0.0
  0
LINE
  5
246
330
5C
100
AcDbEntity
  8
0
  6
Continuous
 62
     7
100
AcDbLine
 10
-243.9000002869543
 20
-93.57500018798926
 30
0.0
 11
-256.1000002869786
 21
-93.57500018798974
 31
0.0
  0
LINE
  5
247
330
5C
100
AcDbEntity
  8
0
  6
Continuous
 62
     7
100
AcDbLine
 10
-243.8500000453591
 20
-95.17500018797355
 30
0.0
 11
-243.8500000453591
 21
-94.07500057838033
 31
0.0
  0
LINE
  5
248
330
5C
100
AcDbEntity
  8
0
  6
Continuous
 62
     7
100
AcDbLine
 10
-252.7500002861146
 20
-122.4750005783914
 30
0.0
 11
-250.0000002861146
 21
-122.4750005783914
 31
0.0
  0
LINE
  5
249
330
5C
100
AcDbEntity
  8
0
  6
Continuous
 62
     7
100
AcDbLine
 10
-250.0000002861146
 20
-122.4750005783914
 30
0.0
 11
-247.2500002861146
 21
-122.4750005783912
 31
0.0
  0
LINE
  5
24A
330
5C
100
AcDbEntity
  8
0
  6
Continuous
 62
     7
100
AcDbLine
 10
-253.2500002868792
 20
-126.5469639602407
 30
0.0
 11
-246.7500002868695
 21
-126.5469639602396
 31
0.0
  0
LINE
  5
24B
330
5C
100
AcDbEntity
  8
0
  6
Continuous
 62
     2
100
AcDbLine
 10
-256.1500002868751
 20
-139.2678937972059
 30
0.0
 11
-243.8500000453589
 21
-139.2678937972058
 31
0.0
  0
LINE
  5
24C
330
5C
100
AcDbEntity
  8
0
  6
Continuous
 62
     7
100
AcDbLine
 10
-256.1500002868751
 20
-138.867893797206
 30
0.0
 11
-243.850000045359
 21
-138.8678937972057
 31
0.0
  0
LINE
  5
24D
330
5C
100
AcDbEntity
  8
0
  6
Continuous
 62
     2
100
AcDbLine
 10
-243.8500000453589
 20
-134.9326225869237
 30
0.0
 11
-256.1500002868751
 21
-134.932622586924
 31
0.0
  0
LINE
  5
24E
330
5C
100
AcDbEntity
  8
0
  6
Continuous
 62
     7
100
AcDbLine
 10
-256.1500002868751
 20
-132.4750005783863
 30
0.0
 11
-243.850000045359
 21
-132.4750005783861
 31
0.0
  0
LINE
  5
24F
330
5C
100
AcDbEntity
  8
0
  6
Continuous
 62
     7
100
AcDbLine
 10
-256.1500002868751
 20
-138.867893797206
 30
0.0
 11
-256.1500002868751
 21
-139.2678937972059
 31
0.0
  0
LINE
  5
250
330
5C
100
AcDbEntity
  8
0
  6
Continuous
 62
     7
100
AcDbLine
 10
-256.1000002871766
 20
-94.07500057837936
 30
0.0
 11
-256.1500002868753
 21
-94.07500057837933
 31
0.0
  0
LINE
  5
251
330
5C
100
AcDbEntity
  8
0
  6
Continuous
 62
     7
100
AcDbLine
 10
-256.1500002868751
 20
-134.932622586924
 30
0.0
 11
-256.1500002868751
 21
-138.867893797206
 31
0.0
  0
LINE
  5
252
330
5C
100
AcDbEntity
  8
0
  6
Continuous
 62
     7
100
AcDbLine
 10
-256.1000002871411
 20
-95.17500018797435
 30
0.0
 11
-256.1000002869786
 21
-93.57500018798974
 31
0.0
  0
LINE
  5
253
330
5C
100
AcDbEntity
  8
0
  6
Continuous
 62
     7
100
AcDbLine
 10
-253.2500002868791
 20
-130.5750005783975
 30
0.0
 11
-253.2500002868792
 21
-126.5469639602407
 31
0.0
  0
LINE
  5
254
330
5C
100
AcDbEntity
  8
0
  6
Continuous
 62
     7
100
AcDbLine
 10
-255.1500000446051
 20
-122.4750005783931
 30
0.0
 11
-252.7500002861146
 21
-122.4750005783914
 31
0.0
  0
LINE
  5
255
330
5C
100
AcDbEntity
  8
0
  6
Continuous
 62
     7
100
AcDbLine
 10
-256.1500002868751
 20
-139.2678937972059
 30
0.0
 11
-256.1500002868753
 21
-144.4250005783877
 31
0.0
  0
LINE
  5
256
330
5C
100
AcDbEntity
  8
0
  6
Continuous
 62
     7
100
AcDbLine
 10
-243.8500000453592
 20
-144.4250005783874
 30
0.0
 11
-256.1500002868753
 21
-144.4250005783877
 31
0.0
  0
LINE
  5
257
330
5C
100
AcDbEntity
  8
0
  6
Continuous
 62
     7
100
AcDbLine
 10
-243.8500000453589
 20
-105.6312586516278
 30
0.0
 11
-243.8500000453591
 21
-95.17500018797355
 31
0.0
  0
LINE
  5
258
330
5C
100
AcDbEntity
  8
0
  6
Continuous
 62
     7
100
AcDbLine
 10
-243.9000002872099
 20
-95.17500018797355
 30
0.0
 11
-243.8500000453591
 21
-95.17500018797355
 31
0.0
  0
LINE
  5
259
330
5C
100
AcDbEntity
  8
0
  6
Continuous
 62
     7
100
AcDbLine
 10
-243.8500000453589
 20
-134.9326225869237
 30
0.0
 11
-243.850000045359
 21
-138.8678937972057
 31
0.0
  0
LINE
  5
25A
330
5C
100
AcDbEntity
  8
0
  6
Continuous
 62
     7
100
AcDbLine
 10
-256.1500002868753
 20
-94.07500057837933
 30
0.0
 11
-256.1500002868753
 21
-95.17500018797375
 31
0.0
  0
LINE
  5
25B
330
5C
100
AcDbEntity
  8
0
  6
Continuous
 62
     7
100
AcDbLine
 10
-243.8500000453591
 20
-94.07500057838033
 30
0.0
 11
-243.9000002870829
 21
-94.07500057838033
 31
0.0
  0
LINE
  5
25C
330
5C
100
AcDbEntity
  8
0
  6
Continuous
 62
     7
100
AcDbLine
 10
-243.850000045359
 20
-132.4750005783861
 30
0.0
 11
-243.8500000453589
 21
-134.9326225869237
 31
0.0
  0
LINE
  5
25D
330
5C
100
AcDbEntity
  8
0
  6
Continuous
 62
     7
100
AcDbLine
 10
-243.8500000453592
 20
-144.4250005783874
 30
0.0
 11
-243.8500000453589
 21
-139.2678937972058
 31
0.0
  0
LINE
  5
25E
330
5C
100
AcDbEntity
  8
0
  6
Continuous
 62
     7
100
AcDbLine
 10
-255.1500000446051
 20
-126.5626345302112
 30
0.0
 11
-256.1500002868748
 21
-126.5626345302111
 31
0.0
  0
LINE
  5
25F
330
5C
100
AcDbEntity
  8
0
  6
Continuous
 62
     7
100
AcDbLine
 10
-256.1500002868751
 20
-134.932622586924
 30
0.0
 11
-256.1500002868751
 21
-132.4750005783863
 31
0.0
  0
LINE
  5
260
330
5C
100
AcDbEntity
  8
0
  6
Continuous
 62
     7
100
AcDbLine
 10
-256.1500002868748
 20
-126.5626345302111
 30
0.0
 11
-256.1500002868751
 21
-132.4750005783863
 31
0.0
  0
LINE
  5
261
330
5C
100
AcDbEntity
  8
0
  6
Continuous
 62
     7
100
AcDbLine
 10
-255.1500000446051
 20
-126.5626345302112
 30
0.0
 11
-255.150000044605
 21
-130.5750005783978
 31
0.0
  0
LINE
  5
262
330
5C
100
AcDbEntity
  8
0
  6
Continuous
 62
     7
100
AcDbLine
 10
-255.1500000446051
 20
-122.4750005783931
 30
0.0
 11
-255.1500000446051
 21
-126.5626345302112
 31
0.0
  0
LINE
  5
263
330
5C
100
AcDbEntity
  8
0
  6
Continuous
 62
     7
100
AcDbLine
 10
-252.7500002861147
 20
-120.0750005783932
 30
0.0
 11
-252.7500002861146
 21
-122.4750005783914
 31
0.0
  0
LINE
  5
264
330
5C
100
AcDbEntity
  8
0
  6
Continuous
 62
     7
100
AcDbLine
 10
-251.5000002861147
 20
-120.0750005783932
 30
0.0
 11
-252.7500002861147
 21
-120.0750005783932
 31
0.0
  0
LINE
  5
265
330
5C
100
AcDbEntity
  8
0
  6
Continuous
 62
     7
100
AcDbLine
 10
-250.0000002861146
 20
-120.0750005783932
 30
0.0
 11
-251.5000002861147
 21
-120.0750005783932
 31
0.0
  0
LINE
  5
266
330
5C
100
AcDbEntity
  8
0
  6
Continuous
 62
     7
100
AcDbLine
 10
-243.9000002870889
 20
-103.3929116353359
 30
0.0
 11
-256.1000002871861
 21
-103.3929116353364
 31
0.0
  0
LINE
  5
267
330
5C
100
AcDbEntity
  8
0
  6
Continuous
 62
     7
100
AcDbLine
 10
-247.2500002861146
 20
-122.4750005783912
 30
0.0
 11
-244.85000028687
 21
-122.4750005783927
 31
0.0
  0
LINE
  5
268
330
5C
100
AcDbEntity
  8
0
  6
Continuous
 62
     7
100
AcDbLine
 10
-244.8500002868781
 20
-115.9250005783903
 30
0.0
 11
-248.5000002861176
 21
-115.9250005783902
 31
0.0
  0
LINE
  5
269
330
5C
100
AcDbEntity
  8
0
  6
Continuous
 62
     7
100
AcDbLine
 10
-246.7500002868695
 20
-126.5469639602396
 30
0.0
 11
-246.7500002868682
 21
-130.5750005783972
 31
0.0
  0
LINE
  5
26A
330
5C
100
AcDbEntity
  8
0
  6
Continuous
 62
     7
100
AcDbLine
 10
-244.8500002868643
 20
-110.6881266640065
 30
0.0
 11
-244.8500002868689
 21
-105.6312586516278
 31
0.0
  0
LINE
  5
26B
330
5C
100
AcDbEntity
  8
0
  6
Continuous
 62
     7
100
AcDbLine
 10
-248.5000002861148
 20
-112.7750004524939
 30
0.0
 11
-248.5000002861147
 21
-120.0750005783931
 31
0.0
  0
LINE
  5
26C
330
5C
100
AcDbEntity
  8
0
  6
Continuous
 62
     7
100
AcDbLine
 10
-251.5000002861176
 20
-115.9250005783903
 30
0.0
 11
-255.1500002868802
 21
-115.9250005783905
 31
0.0
  0
LINE
  5
26D
330
5C
100
AcDbEntity
  8
0
  6
Continuous
 62
     7
100
AcDbLine
 10
-255.1500002868802
 20
-115.9250005783905
 30
0.0
 11
-255.1500000446051
 21
-122.4750005783931
 31
0.0
  0
LINE
  5
26E
330
5C
100
AcDbEntity
  8
0
  6
Continuous
 62
     7
100
AcDbLine
 10
-255.1500000446053
 20
-110.6881266639264
 30
0.0
 11
-255.1500002868802
 21
-115.9250005783905
 31
0.0
  0
LINE
  5
26F
330
5C
100
AcDbEntity
  8
0
  6
Continuous
 62
     7
100
AcDbLine
 10
-251.5000002861148
 20
-112.775000452494
 30
0.0
 11
-251.5000002861147
 21
-120.0750005783932
 31
0.0
  0
LINE
  5
270
330
5C
100
AcDbEntity
  8
0
  6
Continuous
 62
     7
100
AcDbLine
 10
-244.850000286869
 20
-105.3065487007654
 30
0.0
 11
-244.8500002868689
 21
-105.6312586516278
 31
0.0
  0
LINE
  5
271
330
5C
100
AcDbEntity
  8
0
  6
Continuous
 62
     7
100
AcDbLine
 10
-256.1000002871861
 20
-104.9708581883308
 30
0.0
 11
-256.1000002871861
 21
-103.3929116353364
 31
0.0
  0
LINE
  5
272
330
5C
100
AcDbEntity
  8
0
  6
Continuous
 62
     7
100
AcDbLine
 10
-243.9000002870889
 20
-104.9708581883298
 30
0.0
 11
-256.1000002871861
 21
-104.9708581883308
 31
0.0
  0
LINE
  5
273
330
5C
100
AcDbEntity
  8
0
  6
Continuous
 62
     7
100
AcDbLine
 10
-243.900000287088
 20
-105.3065487007654
 30
0.0
 11
-244.850000286869
 21
-105.3065487007654
 31
0.0
  0
LINE
  5
274
330
5C
100
AcDbEntity
  8
0
  6
Continuous
 62
     7
100
AcDbLine
 10
-244.850000286869
 20
-105.3065487007654
 30
0.0
 11
-255.1500000446054
 21
-105.3065487007658
 31
0.0
  0
LINE
  5
275
330
5C
100
AcDbEntity
  8
0
  6
Continuous
 62
     7
100
AcDbLine
 10
-248.5000002861148
 20
-112.7750004524939
 30
0.0
 11
-250.0000002861148
 21
-112.775000452494
 31
0.0
  0
LINE
  5
276
330
5C
100
AcDbEntity
  8
0
  6
Continuous
 62
     7
100
AcDbLine
 10
-250.0000002861148
 20
-112.775000452494
 30
0.0
 11
-251.5000002861148
 21
-112.775000452494
 31
0.0
  0
LINE
  5
277
330
5C
100
AcDbEntity
  8
0
  6
Continuous
 62
     7
100
AcDbLine
 10
-250.0000002868793
 20
-105.3065487007656
 30
0.0
 11
-250.0000002861148
 21
-112.775000452494
 31
0.0
  0
LINE
  5
278
330
5C
100
AcDbEntity
  8
0
  6
Continuous
 62
     7
100
AcDbLine
 10
-256.1500002868751
 20
-105.631258651628
 30
0.0
 11
-255.1500000446054
 21
-105.631258651628
 31
0.0
  0
LINE
  5
279
330
5C
100
AcDbEntity
  8
0
  6
Continuous
 62
     7
100
AcDbLine
 10
-256.1500002868751
 20
-105.631258651628
 30
0.0
 11
-256.1500002868753
 21
-95.17500018797375
 31
0.0
  0
LINE
  5
27A
330
5C
100
AcDbEntity
  8
0
  6
Continuous
 62
     7
100
AcDbLine
 10
-255.1500000446054
 20
-105.631258651628
 30
0.0
 11
-255.1500000446054
 21
-105.3065487007658
 31
0.0
  0
LINE
  5
27B
330
5C
100
AcDbEntity
  8
0
  6
Continuous
 62
     7
100
AcDbLine
 10
-255.1500000446054
 20
-105.631258651628
 30
0.0
 11
-255.1500000446053
 21
-110.6881266639264
 31
0.0
  0
LINE
  5
27C
330
5C
100
AcDbEntity
  8
0
  6
Continuous
 62
     7
100
AcDbLine
 10
-255.1500000446054
 20
-105.3065487007658
 30
0.0
 11
-256.1000002871846
 21
-105.306548700748
 31
0.0
  0
LINE
  5
27D
330
5C
100
AcDbEntity
  8
0
  6
Continuous
 62
     7
100
AcDbLine
 10
-256.1500002868751
 20
-105.631258651628
 30
0.0
 11
-256.1500002868751
 21
-110.6881266639264
 31
0.0
  0
LINE
  5
27E
330
5C
100
AcDbEntity
  8
0
  6
Continuous
 62
     7
100
AcDbLine
 10
-255.1500000446053
 20
-110.6881266639264
 30
0.0
 11
-256.1500002868751
 21
-110.6881266639264
 31
0.0
  0
LINE
  5
27F
330
5C
100
AcDbEntity
  8
0
  6
Continuous
 62
     7
100
AcDbLine
 10
-256.1000002871861
 20
-103.3929116353364
 30
0.0
 11
-256.1000002871411
 21
-95.17500018797435
 31
0.0
  0
LINE
  5
280
330
5C
100
AcDbEntity
  8
0
  6
Continuous
 62
     7
100
AcDbLine
 10
-256.1000002871846
 20
-105.306548700748
 30
0.0
 11
-256.1000002871861
 21
-104.9708581883308
 31
0.0
  0
LINE
  5
281
330
5C
100
AcDbEntity
  8
0
  6
Continuous
 62
     7
100
AcDbLine
 10
-243.900000287088
 20
-105.3065487007654
 30
0.0
 11
-243.9000002870889
 21
-104.9708581883298
 31
0.0
  0
LINE
  5
282
330
5C
100
AcDbEntity
  8
0
  6
Continuous
 62
     7
100
AcDbLine
 10
-243.9000002870889
 20
-104.9708581883298
 30
0.0
 11
-243.9000002870889
 21
-103.3929116353359
 31
0.0
  0
LINE
  5
283
330
5C
100
AcDbEntity
  8
0
  6
Continuous
 62
     7
100
AcDbLine
 10
-244.85000028687
 20
-122.4750005783927
 30
0.0
 11
-244.850000286864
 21
-126.5626345302111
 31
0.0
  0
LINE
  5
284
330
5C
100
AcDbEntity
  8
0
  6
Continuous
 62
     7
100
AcDbLine
 10
-244.8500002868781
 20
-115.9250005783903
 30
0.0
 11
-244.85000028687
 21
-122.4750005783927
 31
0.0
  0
LINE
  5
285
330
5C
100
AcDbEntity
  8
0
  6
Continuous
 62
     7
100
AcDbLine
 10
-244.8500002868643
 20
-110.6881266640065
 30
0.0
 11
-244.8500002868781
 21
-115.9250005783903
 31
0.0
  0
LINE
  5
286
330
5C
100
AcDbEntity
  8
0
  6
Continuous
 62
     7
100
AcDbLine
 10
-243.9000002870889
 20
-103.3929116353359
 30
0.0
 11
-243.9000002872099
 21
-95.17500018797355
 31
0.0
  0
LINE
  5
287
330
5C
100
AcDbEntity
  8
0
  6
Continuous
 62
     7
100
AcDbLine
 10
-256.1500002868753
 20
-95.17500018797375
 30
0.0
 11
-256.1000002871411
 21
-95.17500018797435
 31
0.0
  0
LINE
  5
288
330
5C
100
AcDbEntity
  8
0
  6
Continuous
 62
     7
100
AcDbLine
 10
-255.150000044605
 20
-130.5750005783978
 30
0.0
 11
-253.2500002868791
 21
-130.5750005783975
 31
0.0
  0
LINE
  5
289
330
5C
100
AcDbEntity
  8
0
  6
Continuous
 62
     7
100
AcDbLine
 10
-253.2500002868791
 20
-130.5750005783975
 30
0.0
 11
-246.7500002868682
 21
-130.5750005783972
 31
0.0
  0
LINE
  5
28A
330
5C
100
AcDbEntity
  8
0
  6
Continuous
 62
     7
100
AcDbLine
 10
-247.2500002861147
 20
-120.0750005783931
 30
0.0
 11
-248.5000002861147
 21
-120.0750005783931
 31
0.0
  0
LINE
  5
28B
330
5C
100
AcDbEntity
  8
0
  6
Continuous
 62
     7
100
AcDbLine
 10
-248.5000002861147
 20
-120.0750005783931
 30
0.0
 11
-250.0000002861146
 21
-120.0750005783932
 31
0.0
  0
LINE
  5
28C
330
5C
100
AcDbEntity
  8
0
  6
Continuous
 62
     7
100
AcDbLine
 10
-247.2500002861147
 20
-120.0750005783931
 30
0.0
 11
-247.2500002861146
 21
-122.4750005783912
 31
0.0
  0
LINE
  5
28D
330
5C
100
AcDbEntity
  8
0
  6
Continuous
 62
     7
100
AcDbLine
 10
-250.0000002861146
 20
-120.0750005783932
 30
0.0
 11
-250.0000002861146
 21
-122.4750005783914
 31
0.0
  0
LINE
  5
28E
330
5C
100
AcDbEntity
  8
0
  6
Continuous
 62
     7
100
AcDbLine
 10
-243.8500000453589
 20
-139.2678937972058
 30
0.0
 11
-243.850000045359
 21
-138.8678937972057
 31
0.0
  0
LINE
  5
28F
330
5C
100
AcDbEntity
  8
0
  6
Continuous
 62
     7
100
AcDbLine
 10
-244.8500002868685
 20
-130.5750005783974
 30
0.0
 11
-244.850000286864
 21
-126.5626345302111
 31
0.0
  0
LINE
  5
290
330
5C
100
AcDbEntity
  8
0
  6
Continuous
 62
     7
100
AcDbLine
 10
-246.7500002868682
 20
-130.5750005783972
 30
0.0
 11
-244.8500002868685
 21
-130.5750005783974
 31
0.0
  0
LINE
  5
291
330
5C
100
AcDbEntity
  8
0
  6
Continuous
 62
     7
100
AcDbLine
 10
-256.1500002868751
 20
-110.6881266639264
 30
0.0
 11
-256.1500002868748
 21
-126.5626345302111
 31
0.0
  0
LINE
  5
292
330
5C
100
AcDbEntity
  8
0
  6
Continuous
 62
     7
100
AcDbLine
 10
-244.8500002868689
 20
-105.6312586516278
 30
0.0
 11
-243.8500000453589
 21
-105.6312586516278
 31
0.0
  0
LINE
  5
293
330
5C
100
AcDbEntity
  8
0
  6
Continuous
 62
     7
100
AcDbLine
 10
-243.8500000453589
 20
-110.6881266639264
 30
0.0
 11
-244.8500002868643
 21
-110.6881266640065
 31
0.0
  0
LINE
  5
294
330
5C
100
AcDbEntity
  8
0
  6
Continuous
 62
     7
100
AcDbLine
 10
-243.850000045359
 20
-132.4750005783861
 30
0.0
 11
-243.8500000453587
 21
-126.5626345302111
 31
0.0
  0
LINE
  5
295
330
5C
100
AcDbEntity
  8
0
  6
Continuous
 62
     7
100
AcDbLine
 10
-243.8500000453587
 20
-126.5626345302111
 30
0.0
 11
-244.850000286864
 21
-126.5626345302111
 31
0.0
  0
LINE
  5
296
330
5C
100
AcDbEntity
  8
0
  6
Continuous
 62
     7
100
AcDbLine
 10
-243.8500000453589
 20
-110.6881266639264
 30
0.0
 11
-243.8500000453589
 21
-105.6312586516278
 31
0.0
  0
LINE
  5
297
330
5C
100
AcDbEntity
  8
0
  6
Continuous
 62
     7
100
AcDbLine
 10
-243.8500000453589
 20
-110.6881266639264
 30
0.0
 11
-243.8500000453587
 21
-126.5626345302111
 31
0.0
  0
LINE
  5
298
330
5C
100
AcDbEntity
  8
1
  6
DOT_CENTER
 62
     2
100
AcDbLine
 10
-250.0000002861148
 20
-112.775000452494
 30
0.0
 11
-250.0000002861146
 21
-120.0750005783932
 31
0.0
  0
ENDBLK
  5
5E
330
5C
100
AcDbEntity
  8
0
100
AcDbBlockEnd
  0
BLOCK
  5
61
330
5F
100
AcDbEntity
  8
0
100
AcDbBlockBegin
  2
SA_Links1
 70
     0
 10
-250.0
 20
-119.0
 30
0.0
  3
SA_Links1
  1

  0
INSERT
  5
60
330
5F
100
AcDbEntity
  8
0
100
AcDbBlockReference
  2
RTO_3-TC_BU-select__4
 10
-256.1500002868753
 20
-144.4250005783877
 30
0.0
  0
MTEXT
  5
299
330
5F
100
AcDbEntity
  8
1
 62
     6
100
AcDbMText
 10
-250.000000000005
 20
-157.2734473367943
 30
0.0
 40
5.0
 41
0.0
 71
     2
 72
     1
  1
 
  7
CONVERTER_11
 73
     1
 44
1.32052821128451
  0
ENDBLK
  5
62
330
5F
100
AcDbEntity
  8
0
100
AcDbBlockEnd
  0
BLOCK
  5
64
330
63
100
AcDbEntity
  8
0
100
AcDbBlockBegin
  2
RTO_3-TC_BU-select__5
 70
     0
 10
-397.3338929546408
 20
-144.4250005783876
 30
0.0
  3
RTO_3-TC_BU-select__5
  1

  0
LINE
  5
29A
330
63
100
AcDbEntity
  8
0
  6
Continuous
 62
     7
100
AcDbLine
 10
-396.3338927131173
 20
-105.3068220864773
 30
0.0
 11
-397.2838927130939
 21
-105.3068220864759
 31
0.0
  0
LINE
  5
29B
330
63
100
AcDbEntity
  8
0
  6
Continuous
 62
     7
100
AcDbLine
 10
-396.3338927131173
 20
-105.3068220864773
 30
0.0
 11
-386.0338929553946
 21
-105.3068220864922
 31
0.0
  0
LINE
  5
29C
330
63
100
AcDbEntity
  8
0
  6
Continuous
 62
     7
100
AcDbLine
 10
-397.2838927130946
 20
-103.3929116353182
 30
0.0
 11
-385.0838927130964
 21
-103.3929116353186
 31
0.0
  0
LINE
  5
29D
330
63
100
AcDbEntity
  8
0
  6
Continuous
 62
     7
100
AcDbLine
 10
-385.0838927130534
 20
-93.57500018798945
 30
0.0
 11
-385.0838927130507
 21
-95.17500018797335
 31
0.0
  0
LINE
  5
29E
330
63
100
AcDbEntity
  8
0
  6
Continuous
 62
     7
100
AcDbLine
 10
-397.2838927130666
 20
-93.57500018798899
 30
0.0
 11
-385.0838927130534
 21
-93.57500018798945
 31
0.0
  0
LINE
  5
29F
330
63
100
AcDbEntity
  8
0
  6
Continuous
 62
     7
100
AcDbLine
 10
-394.4338927131151
 20
-130.5750005783951
 30
0.0
 11
-387.93389271312
 21
-130.5750005783954
 31
0.0
  0
LINE
  5
2A0
330
63
100
AcDbEntity
  8
0
  6
Continuous
 62
     7
100
AcDbLine
 10
-396.3338927131177
 20
-126.5626345303158
 30
0.0
 11
-396.3338927131178
 21
-130.5750005783949
 31
0.0
  0
LINE
  5
2A1
330
63
100
AcDbEntity
  8
0
  6
Continuous
 62
     7
100
AcDbLine
 10
-396.3338927131178
 20
-130.5750005783949
 30
0.0
 11
-394.4338927131151
 21
-130.5750005783951
 31
0.0
  0
LINE
  5
2A2
330
63
100
AcDbEntity
  8
0
  6
Continuous
 62
     7
100
AcDbLine
 10
-394.4338927131151
 20
-130.5750005783951
 30
0.0
 11
-394.4338927131163
 21
-126.5469639602363
 31
0.0
  0
LINE
  5
2A3
330
63
100
AcDbEntity
  8
0
  6
Continuous
 62
     7
100
AcDbLine
 10
-396.3338927131173
 20
-105.3068220864773
 30
0.0
 11
-396.3338927131173
 21
-105.6312586516267
 31
0.0
  0
LINE
  5
2A4
330
63
100
AcDbEntity
  8
0
  6
Continuous
 62
     7
100
AcDbLine
 10
-396.3338927131173
 20
-105.6312586516267
 30
0.0
 11
-396.3338927131175
 21
-110.6881266639249
 31
0.0
  0
LINE
  5
2A5
330
63
100
AcDbEntity
  8
0
  6
Continuous
 62
     7
100
AcDbLine
 10
-396.3338927131176
 20
-122.4750005783909
 30
0.0
 11
-396.3338927131177
 21
-126.5626345303158
 31
0.0
  0
LINE
  5
2A6
330
63
100
AcDbEntity
  8
0
  6
Continuous
 62
     7
100
AcDbLine
 10
-396.3338927131175
 20
-110.6881266639249
 30
0.0
 11
-396.3338927131173
 21
-115.9250005783891
 31
0.0
  0
LINE
  5
2A7
330
63
100
AcDbEntity
  8
0
  6
Continuous
 62
     7
100
AcDbLine
 10
-396.3338927131173
 20
-115.9250005783891
 30
0.0
 11
-396.3338927131176
 21
-122.4750005783909
 31
0.0
  0
LINE
  5
2A8
330
63
100
AcDbEntity
  8
0
  6
Continuous
 62
     7
100
AcDbLine
 10
-397.3338929546408
 20
-105.6312586516267
 30
0.0
 11
-397.3338929546408
 21
-110.688126663925
 31
0.0
  0
LINE
  5
2A9
330
63
100
AcDbEntity
  8
0
  6
Continuous
 62
     7
100
AcDbLine
 10
-397.2838927130947
 20
-104.9708581883099
 30
0.0
 11
-397.2838927130939
 21
-105.3068220864759
 31
0.0
  0
LINE
  5
2AA
330
63
100
AcDbEntity
  8
0
  6
Continuous
 62
     7
100
AcDbLine
 10
-391.1838928342558
 20
-105.3068220864763
 30
0.0
 11
-391.1838928342559
 21
-112.775000452494
 31
0.0
  0
LINE
  5
2AB
330
63
100
AcDbEntity
  8
0
  6
Continuous
 62
     7
100
AcDbLine
 10
-385.0338927131246
 20
-110.688126663925
 30
0.0
 11
-386.0338929553947
 21
-110.688126663925
 31
0.0
  0
LINE
  5
2AC
330
63
100
AcDbEntity
  8
0
  6
Continuous
 62
     7
100
AcDbLine
 10
-396.3338927131173
 20
-105.6312586516267
 30
0.0
 11
-397.3338929546408
 21
-105.6312586516267
 31
0.0
  0
LINE
  5
2AD
330
63
100
AcDbEntity
  8
0
  6
Continuous
 62
     7
100
AcDbLine
 10
-397.2838927130947
 20
-104.9708581883099
 30
0.0
 11
-385.0838927130965
 21
-104.9708581883104
 31
0.0
  0
LINE
  5
2AE
330
63
100
AcDbEntity
  8
0
  6
Continuous
 62
     7
100
AcDbLine
 10
-385.0338927131248
 20
-94.07500057838033
 30
0.0
 11
-385.0338927131247
 21
-95.17500018797357
 31
0.0
  0
LINE
  5
2AF
330
63
100
AcDbEntity
  8
0
  6
Continuous
 62
     7
100
AcDbLine
 10
-385.0338927131246
 20
-135.3370639693875
 30
0.0
 11
-385.0338927131246
 21
-126.562634530316
 31
0.0
  0
LINE
  5
2B0
330
63
100
AcDbEntity
  8
0
  6
Continuous
 62
     7
100
AcDbLine
 10
-387.93389271312
 20
-130.5750005783954
 30
0.0
 11
-386.033892955395
 21
-130.5750005783953
 31
0.0
  0
LINE
  5
2B1
330
63
100
AcDbEntity
  8
0
  6
Continuous
 62
     7
100
AcDbLine
 10
-386.033892955395
 20
-130.5750005783953
 30
0.0
 11
-386.033892955395
 21
-126.5626345303979
 31
0.0
  0
LINE
  5
2B2
330
63
100
AcDbEntity
  8
0
  6
Continuous
 62
     7
100
AcDbLine
 10
-385.0838927130507
 20
-95.17500018797335
 30
0.0
 11
-385.0338927131247
 21
-95.17500018797357
 31
0.0
  0
LINE
  5
2B3
330
63
100
AcDbEntity
  8
0
  6
Continuous
 62
     7
100
AcDbLine
 10
-385.0838927132817
 20
-94.07500057838034
 30
0.0
 11
-385.0338927131248
 21
-94.07500057838033
 31
0.0
  0
LINE
  5
2B4
330
63
100
AcDbEntity
  8
0
  6
Continuous
 62
     7
100
AcDbLine
 10
-385.0338927131246
 20
-105.6312586516269
 30
0.0
 11
-385.0338927131247
 21
-95.17500018797357
 31
0.0
  0
LINE
  5
2B5
330
63
100
AcDbEntity
  8
0
  6
Continuous
 62
     7
100
AcDbLine
 10
-385.0338927131246
 20
-110.688126663925
 30
0.0
 11
-385.0338927131246
 21
-105.6312586516269
 31
0.0
  0
LINE
  5
2B6
330
63
100
AcDbEntity
  8
0
  6
Continuous
 62
     7
100
AcDbLine
 10
-386.0338929553946
 20
-105.6312586516269
 30
0.0
 11
-385.0338927131246
 21
-105.6312586516269
 31
0.0
  0
LINE
  5
2B7
330
63
100
AcDbEntity
  8
0
  6
Continuous
 62
     7
100
AcDbLine
 10
-385.0338927131246
 20
-126.562634530316
 30
0.0
 11
-386.033892955395
 21
-126.5626345303979
 31
0.0
  0
LINE
  5
2B8
330
63
100
AcDbEntity
  8
0
  6
Continuous
 62
     7
100
AcDbLine
 10
-387.93389271312
 20
-126.5469639602365
 30
0.0
 11
-387.93389271312
 21
-130.5750005783954
 31
0.0
  0
LINE
  5
2B9
330
63
100
AcDbEntity
  8
0
  6
Continuous
 62
     7
100
AcDbLine
 10
-386.0338929553946
 20
-105.6312586516269
 30
0.0
 11
-386.0338929553946
 21
-105.3068220864922
 31
0.0
  0
LINE
  5
2BA
330
63
100
AcDbEntity
  8
0
  6
Continuous
 62
     7
100
AcDbLine
 10
-386.0338929553946
 20
-115.9250005783893
 30
0.0
 11
-389.6838927138824
 21
-115.9250005783894
 31
0.0
  0
LINE
  5
2BB
330
63
100
AcDbEntity
  8
0
  6
Continuous
 62
     7
100
AcDbLine
 10
-385.0838927130964
 20
-103.3929116353186
 30
0.0
 11
-385.0838927130965
 21
-104.9708581883104
 31
0.0
  0
LINE
  5
2BC
330
63
100
AcDbEntity
  8
0
  6
Continuous
 62
     7
100
AcDbLine
 10
-385.0838927130951
 20
-105.3068220864934
 30
0.0
 11
-386.0338929553946
 21
-105.3068220864922
 31
0.0
  0
LINE
  5
2BD
330
63
100
AcDbEntity
  8
0
  6
Continuous
 62
     7
100
AcDbLine
 10
-385.0838927130965
 20
-104.9708581883104
 30
0.0
 11
-385.0838927130951
 21
-105.3068220864934
 31
0.0
  0
LINE
  5
2BE
330
63
100
AcDbEntity
  8
0
  6
Continuous
 62
     7
100
AcDbLine
 10
-385.0838927130507
 20
-95.17500018797335
 30
0.0
 11
-385.0838927130964
 21
-103.3929116353186
 31
0.0
  0
LINE
  5
2BF
330
63
100
AcDbEntity
  8
0
  6
Continuous
 62
     7
100
AcDbLine
 10
-386.0338929553948
 20
-122.4750005783913
 30
0.0
 11
-386.033892955395
 21
-126.5626345303979
 31
0.0
  0
LINE
  5
2C0
330
63
100
AcDbEntity
  8
0
  6
Continuous
 62
     7
100
AcDbLine
 10
-386.0338929553947
 20
-110.688126663925
 30
0.0
 11
-386.0338929553946
 21
-105.6312586516269
 31
0.0
  0
LINE
  5
2C1
330
63
100
AcDbEntity
  8
0
  6
Continuous
 62
     7
100
AcDbLine
 10
-386.0338929553947
 20
-110.688126663925
 30
0.0
 11
-386.0338929553946
 21
-115.9250005783893
 31
0.0
  0
LINE
  5
2C2
330
63
100
AcDbEntity
  8
0
  6
Continuous
 62
     7
100
AcDbLine
 10
-386.0338929553946
 20
-115.9250005783893
 30
0.0
 11
-386.0338929553948
 21
-122.4750005783913
 31
0.0
  0
LINE
  5
2C3
330
63
100
AcDbEntity
  8
0
  6
Continuous
 62
     7
100
AcDbLine
 10
-385.0338927131246
 20
-110.688126663925
 30
0.0
 11
-385.0338927131246
 21
-126.562634530316
 31
0.0
  0
LINE
  5
2C4
330
63
100
AcDbEntity
  8
0
  6
Continuous
 62
     7
100
AcDbLine
 10
-385.0338927131246
 20
-138.0250008358775
 30
0.0
 11
-385.0338927131246
 21
-135.3370639693875
 31
0.0
  0
LINE
  5
2C5
330
63
100
AcDbEntity
  8
0
  6
Continuous
 62
     7
100
AcDbLine
 10
-397.3338929546408
 20
-138.0250009006274
 30
0.0
 11
-397.3338929546408
 21
-144.4250005783874
 31
0.0
  0
LINE
  5
2C6
330
63
100
AcDbEntity
  8
0
  6
Continuous
 62
     7
100
AcDbLine
 10
-385.0338927131247
 20
-144.4250005783876
 30
0.0
 11
-385.0338927131246
 21
-138.0250008358775
 31
0.0
  0
LINE
  5
2C7
330
63
100
AcDbEntity
  8
0
  6
Continuous
 62
     7
100
AcDbLine
 10
-388.4338927138853
 20
-122.4750005783913
 30
0.0
 11
-386.0338929553948
 21
-122.4750005783913
 31
0.0
  0
LINE
  5
2C8
330
63
100
AcDbEntity
  8
0
  6
Continuous
 62
     7
100
AcDbLine
 10
-393.9338927138853
 20
-120.0750005783931
 30
0.0
 11
-393.9338927138853
 21
-122.4750005783911
 31
0.0
  0
LINE
  5
2C9
330
63
100
AcDbEntity
  8
0
  6
Continuous
 62
     7
100
AcDbLine
 10
-392.6838927138824
 20
-115.9250005783893
 30
0.0
 11
-392.6838927138825
 21
-120.0750005783931
 31
0.0
  0
LINE
  5
2CA
330
63
100
AcDbEntity
  8
0
  6
Continuous
 62
     7
100
AcDbLine
 10
-393.9338927138853
 20
-122.4750005783911
 30
0.0
 11
-391.1838927138853
 21
-122.4750005783912
 31
0.0
  0
LINE
  5
2CB
330
63
100
AcDbEntity
  8
0
  6
Continuous
 62
     7
100
AcDbLine
 10
-392.6838927138825
 20
-120.0750005783931
 30
0.0
 11
-393.9338927138853
 21
-120.0750005783931
 31
0.0
  0
LINE
  5
2CC
330
63
100
AcDbEntity
  8
0
  6
Continuous
 62
     7
100
AcDbLine
 10
-391.1838927138852
 20
-120.0750005783932
 30
0.0
 11
-392.6838927138825
 21
-120.0750005783931
 31
0.0
  0
LINE
  5
2CD
330
63
100
AcDbEntity
  8
0
  6
Continuous
 62
     7
100
AcDbLine
 10
-396.3338927131176
 20
-122.4750005783909
 30
0.0
 11
-393.9338927138853
 21
-122.4750005783911
 31
0.0
  0
LINE
  5
2CE
330
63
100
AcDbEntity
  8
0
  6
Continuous
 62
     7
100
AcDbLine
 10
-391.1838927138852
 20
-120.0750005783932
 30
0.0
 11
-391.1838927138853
 21
-122.4750005783912
 31
0.0
  0
LINE
  5
2CF
330
63
100
AcDbEntity
  8
0
  6
Continuous
 62
     7
100
AcDbLine
 10
-389.6838927138824
 20
-115.9250005783894
 30
0.0
 11
-389.6838927138825
 21
-120.0750005783932
 31
0.0
  0
LINE
  5
2D0
330
63
100
AcDbEntity
  8
0
  6
Continuous
 62
     7
100
AcDbLine
 10
-388.4338927138853
 20
-120.0750005783932
 30
0.0
 11
-389.6838927138825
 21
-120.0750005783932
 31
0.0
  0
LINE
  5
2D1
330
63
100
AcDbEntity
  8
0
  6
Continuous
 62
     7
100
AcDbLine
 10
-389.6838927138825
 20
-120.0750005783932
 30
0.0
 11
-391.1838927138852
 21
-120.0750005783932
 31
0.0
  0
LINE
  5
2D2
330
63
100
AcDbEntity
  8
0
  6
Continuous
 62
     7
100
AcDbLine
 10
-391.1838927138853
 20
-122.4750005783912
 30
0.0
 11
-388.4338927138853
 21
-122.4750005783913
 31
0.0
  0
LINE
  5
2D3
330
63
100
AcDbEntity
  8
0
  6
Continuous
 62
     7
100
AcDbLine
 10
-392.6838927138824
 20
-115.9250005783893
 30
0.0
 11
-396.3338927131173
 21
-115.9250005783891
 31
0.0
  0
LINE
  5
2D4
330
63
100
AcDbEntity
  8
0
  6
Continuous
 62
     7
100
AcDbLine
 10
-396.3338927131175
 20
-110.6881266639249
 30
0.0
 11
-397.3338929546408
 21
-110.688126663925
 31
0.0
  0
LINE
  5
2D5
330
63
100
AcDbEntity
  8
0
  6
Continuous
 62
     7
100
AcDbLine
 10
-389.6838927138823
 20
-112.775000452494
 30
0.0
 11
-392.6838927138823
 21
-112.7750004524939
 31
0.0
  0
LINE
  5
2D6
330
63
100
AcDbEntity
  8
0
  6
Continuous
 62
     7
100
AcDbLine
 10
-388.4338927138853
 20
-120.0750005783932
 30
0.0
 11
-388.4338927138853
 21
-122.4750005783913
 31
0.0
  0
LINE
  5
2D7
330
63
100
AcDbEntity
  8
0
  6
Continuous
 62
     7
100
AcDbLine
 10
-389.6838927138823
 20
-112.775000452494
 30
0.0
 11
-389.6838927138824
 21
-115.9250005783894
 31
0.0
  0
LINE
  5
2D8
330
63
100
AcDbEntity
  8
0
  6
Continuous
 62
     7
100
AcDbLine
 10
-394.4338927131163
 20
-126.5469639602363
 30
0.0
 11
-387.93389271312
 21
-126.5469639602365
 31
0.0
  0
LINE
  5
2D9
330
63
100
AcDbEntity
  8
0
  6
Continuous
 62
     7
100
AcDbLine
 10
-392.6838927138823
 20
-112.7750004524939
 30
0.0
 11
-392.6838927138824
 21
-115.9250005783893
 31
0.0
  0
LINE
  5
2DA
330
63
100
AcDbEntity
  8
0
  6
Continuous
 62
     7
100
AcDbLine
 10
-385.0338927131246
 20
-135.3370639693875
 30
0.0
 11
-397.3338929546408
 21
-135.3370639693877
 31
0.0
  0
LINE
  5
2DB
330
63
100
AcDbEntity
  8
0
  6
Continuous
 62
     7
100
AcDbLine
 10
-397.3338929546408
 20
-138.0250009006274
 30
0.0
 11
-385.0338927131246
 21
-138.0250008358775
 31
0.0
  0
LINE
  5
2DC
330
63
100
AcDbEntity
  8
0
  6
Continuous
 62
     7
100
AcDbLine
 10
-397.3338929546408
 20
-144.4250005783874
 30
0.0
 11
-385.0338927131247
 21
-144.4250005783876
 31
0.0
  0
LINE
  5
2DD
330
63
100
AcDbEntity
  8
0
  6
Continuous
 62
     7
100
AcDbLine
 10
-397.3338929546408
 20
-135.3370639693877
 30
0.0
 11
-397.3338929546408
 21
-138.0250009006274
 31
0.0
  0
LINE
  5
2DE
330
63
100
AcDbEntity
  8
0
  6
Continuous
 62
     7
100
AcDbLine
 10
-397.3338929546408
 20
-126.5626345303158
 30
0.0
 11
-397.3338929546408
 21
-135.3370639693877
 31
0.0
  0
LINE
  5
2DF
330
63
100
AcDbEntity
  8
0
  6
Continuous
 62
     7
100
AcDbLine
 10
-397.2838927130666
 20
-93.57500018798899
 30
0.0
 11
-397.2838927130648
 21
-95.17500018797334
 31
0.0
  0
LINE
  5
2E0
330
63
100
AcDbEntity
  8
0
  6
Continuous
 62
     7
100
AcDbLine
 10
-397.283892713215
 20
-94.07500057837933
 30
0.0
 11
-397.3338929546408
 21
-94.07500057837933
 31
0.0
  0
LINE
  5
2E1
330
63
100
AcDbEntity
  8
0
  6
Continuous
 62
     7
100
AcDbLine
 10
-397.3338929546408
 20
-95.17500018797337
 30
0.0
 11
-397.2838927130648
 21
-95.17500018797334
 31
0.0
  0
LINE
  5
2E2
330
63
100
AcDbEntity
  8
0
  6
Continuous
 62
     7
100
AcDbLine
 10
-397.2838927130648
 20
-95.17500018797334
 30
0.0
 11
-397.2838927130946
 21
-103.3929116353182
 31
0.0
  0
LINE
  5
2E3
330
63
100
AcDbEntity
  8
0
  6
Continuous
 62
     7
100
AcDbLine
 10
-397.3338929546408
 20
-95.17500018797337
 30
0.0
 11
-397.3338929546408
 21
-94.07500057837933
 31
0.0
  0
LINE
  5
2E4
330
63
100
AcDbEntity
  8
0
  6
Continuous
 62
     7
100
AcDbLine
 10
-397.2838927130946
 20
-103.3929116353182
 30
0.0
 11
-397.2838927130947
 21
-104.9708581883099
 31
0.0
  0
LINE
  5
2E5
330
63
100
AcDbEntity
  8
0
  6
Continuous
 62
     7
100
AcDbLine
 10
-396.3338927131177
 20
-126.5626345303158
 30
0.0
 11
-397.3338929546408
 21
-126.5626345303158
 31
0.0
  0
LINE
  5
2E6
330
63
100
AcDbEntity
  8
0
  6
Continuous
 62
     7
100
AcDbLine
 10
-397.3338929546408
 20
-95.17500018797337
 30
0.0
 11
-397.3338929546408
 21
-105.6312586516267
 31
0.0
  0
LINE
  5
2E7
330
63
100
AcDbEntity
  8
0
  6
Continuous
 62
     7
100
AcDbLine
 10
-397.3338929546408
 20
-110.688126663925
 30
0.0
 11
-397.3338929546408
 21
-126.5626345303158
 31
0.0
  0
LINE
  5
2E8
330
63
100
AcDbEntity
  8
1
  6
DOT_CENTER
 62
     2
100
AcDbLine
 10
-391.1838927138823
 20
-112.7750004524939
 30
0.0
 11
-391.1838927138823
 21
-120.0750005783931
 31
0.0
  0
ENDBLK
  5
65
330
63
100
AcDbEntity
  8
0
100
AcDbBlockEnd
  0
BLOCK
  5
68
330
66
100
AcDbEntity
  8
0
100
AcDbBlockBegin
  2
SA_Rechts1
 70
     0
 10
-391.183893
 20
-119.0
 30
0.0
  3
SA_Rechts1
  1

  0
INSERT
  5
67
330
66
100
AcDbEntity
  8
0
100
AcDbBlockReference
  2
RTO_3-TC_BU-select__5
 10
-397.3338929546408
 20
-144.4250005783876
 30
0.0
  0
MTEXT
  5
2E9
330
66
100
AcDbEntity
  8
1
 62
     6
100
AcDbMText
 10
-391.1838925085688
 20
-157.2734473367943
 30
0.0
 40
5.0
 41
0.0
 71
     2
 72
     1
  1
 
  7
CONVERTER_11
 73
     1
 44
1.32052821128451
  0
ENDBLK
  5
69
330
66
100
AcDbEntity
  8
0
100
AcDbBlockEnd
  0
BLOCK
  5
6B
330
6A
100
AcDbEntity
  8
0
100
AcDbBlockBegin
  2
RTO_3-TC_BU-select__6
 70
     0
 10
-347.0557597881661
 20
-144.4250005783925
 30
0.0
  3
RTO_3-TC_BU-select__6
  1

  0
LINE
  5
2EA
330
6A
100
AcDbEntity
  8
0
  6
Continuous
 62
     7
100
AcDbLine
 10
-328.4401540476267
 20
-94.07500018799652
 30
0.0
 11
-326.3307597882808
 21
-94.07500018799644
 31
0.0
  0
LINE
  5
2EB
330
6A
100
AcDbEntity
  8
0
  6
Continuous
 62
     7
100
AcDbLine
 10
-305.2961054132142
 20
-97.57500057838249
 30
0.0
 11
-303.4536524429458
 21
-97.57500057838244
 31
0.0
  0
LINE
  5
2EC
330
6A
100
AcDbEntity
  8
0
  6
Continuous
 62
     7
100
AcDbLine
 10
-313.9697300224437
 20
-97.57500057838278
 30
0.0
 11
-312.4154141631631
 21
-97.57500057838276
 31
0.0
  0
LINE
  5
2ED
330
6A
100
AcDbEntity
  8
0
  6
Continuous
 62
     7
100
AcDbLine
 10
-323.6578671333876
 20
-95.1750001879739
 30
0.0
 11
-324.2595285343248
 21
-95.17500018797392
 31
0.0
  0
LINE
  5
2EE
330
6A
100
AcDbEntity
  8
0
  6
Continuous
 62
     7
100
AcDbLine
 10
-328.2842426522132
 20
-94.25487350816611
 30
0.0
 11
-328.2842426521813
 21
-95.01490292118905
 31
0.0
  0
LINE
  5
2EF
330
6A
100
AcDbEntity
  8
0
  6
Continuous
 62
     7
100
AcDbLine
 10
-328.4401540476267
 20
-94.07500018799652
 30
0.0
 11
-328.2842426522132
 21
-94.25487350816611
 31
0.0
  0
LINE
  5
2F0
330
6A
100
AcDbEntity
  8
0
  6
Continuous
 62
     7
100
AcDbLine
 10
-328.8735462685226
 20
-93.57500018800582
 30
0.0
 11
-328.4401540476267
 21
-94.07500018799652
 31
0.0
  0
LINE
  5
2F1
330
6A
100
AcDbEntity
  8
0
  6
Continuous
 62
     7
100
AcDbLine
 10
-336.237848340828
 20
-93.57500018800609
 30
0.0
 11
-328.8735462685226
 21
-93.57500018800582
 31
0.0
  0
LINE
  5
2F2
330
6A
100
AcDbEntity
  8
0
  6
Continuous
 62
     7
100
AcDbLine
 10
-346.055759788157
 20
-103.3929116353359
 30
0.0
 11
-336.237848340828
 21
-93.57500018800609
 31
0.0
  0
LINE
  5
2F3
330
6A
100
AcDbEntity
  8
0
  6
Continuous
 62
     7
100
AcDbLine
 10
-346.0557597881571
 20
-104.9708581883298
 30
0.0
 11
-346.055759788157
 21
-103.3929116353359
 31
0.0
  0
LINE
  5
2F4
330
6A
100
AcDbEntity
  8
0
  6
Continuous
 62
     7
100
AcDbLine
 10
-345.7315872284573
 20
-105.3065487007658
 30
0.0
 11
-346.0557597881571
 21
-104.9708581883298
 31
0.0
  0
LINE
  5
2F5
330
6A
100
AcDbEntity
  8
0
  6
Continuous
 62
     7
100
AcDbLine
 10
-305.6932597881887
 20
-99.6800005783792
 30
0.0
 11
-305.6932597881887
 21
-100.750000578378
 31
0.0
  0
LINE
  5
2F6
330
6A
100
AcDbEntity
  8
0
  6
Continuous
 62
     7
100
AcDbLine
 10
-314.8057597881764
 20
-99.87197348172573
 30
0.0
 11
-313.9697300224437
 21
-97.57500057838278
 31
0.0
  0
LINE
  5
2F7
330
6A
100
AcDbEntity
  8
0
  6
Continuous
 62
     7
100
AcDbLine
 10
-322.8057597881762
 20
-100.8719734814614
 30
0.0
 11
-323.6578671333875
 21
-98.53082779154232
 31
0.0
  0
LINE
  5
2F8
330
6A
100
AcDbEntity
  8
0
  6
Continuous
 62
     7
100
AcDbLine
 10
-331.3057597881665
 20
-137.8750005783919
 30
0.0
 11
-331.3057597881665
 21
-138.9537403755592
 31
0.0
  0
LINE
  5
2F9
330
6A
100
AcDbEntity
  8
0
  6
Continuous
 62
     7
100
AcDbLine
 10
-346.3729170756915
 20
-138.9850510847311
 30
0.0
 11
-345.5193636850983
 21
-139.8386044753242
 31
0.0
  0
LINE
  5
2FA
330
6A
100
AcDbEntity
  8
0
  6
Continuous
 62
     7
100
AcDbLine
 10
-331.3057597881665
 20
-138.9537403755592
 30
0.0
 11
-330.4057597881665
 21
-138.8750005783858
 31
0.0
  0
LINE
  5
2FB
330
6A
100
AcDbEntity
  8
0
  6
Continuous
 62
     7
100
AcDbLine
 10
-330.4057597881665
 20
-138.8750005783858
 30
0.0
 11
-330.4057597881665
 21
-139.431466575017
 31
0.0
  0
LINE
  5
2FC
330
6A
100
AcDbEntity
  8
0
  6
Continuous
 62
     7
100
AcDbLine
 10
-346.0557597881739
 20
-132.4750005783861
 30
0.0
 11
-346.055759788174
 21
-126.5626345302111
 31
0.0
  0
LINE
  5
2FD
330
6A
100
AcDbEntity
  8
0
  6
Continuous
 62
     7
100
AcDbLine
 10
-341.8818711391718
 20
-132.4750005783861
 30
0.0
 11
-346.0557597881739
 21
-132.4750005783861
 31
0.0
  0
LINE
  5
2FE
330
6A
100
AcDbEntity
  8
0
  6
Continuous
 62
     7
100
AcDbLine
 10
-306.2211582552762
 20
-99.6800005783792
 30
0.0
 11
-305.6932597881887
 21
-99.6800005783792
 31
0.0
  0
LINE
  5
2FF
330
6A
100
AcDbEntity
  8
0
  6
Continuous
 62
     7
100
AcDbLine
 10
-312.0182597881888
 20
-99.68000057837929
 30
0.0
 11
-311.4903613211032
 21
-99.68000057837928
 31
0.0
  0
LINE
  5
300
330
6A
100
AcDbEntity
  8
0
  6
Continuous
 62
     7
100
AcDbLine
 10
-311.4903613211032
 20
-99.68000057837928
 30
0.0
 11
-312.4154141631631
 21
-97.57500057838276
 31
0.0
  0
LINE
  5
301
330
6A
100
AcDbEntity
  8
0
  6
Continuous
 62
     7
100
AcDbLine
 10
-323.6578671333876
 20
-95.1750001879739
 30
0.0
 11
-323.6578671333875
 21
-98.53082779154232
 31
0.0
  0
LINE
  5
302
330
6A
100
AcDbEntity
  8
0
  6
Continuous
 62
     7
100
AcDbLine
 10
-300.780759788106
 20
-94.07500018799469
 30
0.0
 11
-298.6713655286159
 21
-94.07500018796466
 31
0.0
  0
LINE
  5
303
330
6A
100
AcDbEntity
  8
0
  6
Continuous
 62
     7
100
AcDbLine
 10
-298.8272769240513
 20
-95.01490292126158
 30
0.0
 11
-298.8272769240513
 21
-94.25487350814949
 31
0.0
  0
LINE
  5
304
330
6A
100
AcDbEntity
  8
0
  6
Continuous
 62
     7
100
AcDbLine
 10
-298.8272769240513
 20
-94.25487350814949
 30
0.0
 11
-298.6713655286159
 21
-94.07500018796466
 31
0.0
  0
LINE
  5
305
330
6A
100
AcDbEntity
  8
0
  6
Continuous
 62
     7
100
AcDbLine
 10
-298.6713655286159
 20
-94.07500018796466
 30
0.0
 11
-298.2379733077419
 21
-93.57500018798923
 31
0.0
  0
LINE
  5
306
330
6A
100
AcDbEntity
  8
0
  6
Continuous
 62
     7
100
AcDbLine
 10
-302.8519910419669
 20
-95.17500018797352
 30
0.0
 11
-303.4536524429458
 21
-95.17500018797352
 31
0.0
  0
LINE
  5
307
330
6A
100
AcDbEntity
  8
0
  6
Continuous
 62
     7
100
AcDbLine
 10
-298.2379733077419
 20
-93.57500018798923
 30
0.0
 11
-290.8736712354365
 21
-93.57500018798896
 31
0.0
  0
LINE
  5
308
330
6A
100
AcDbEntity
  8
0
  6
Continuous
 62
     7
100
AcDbLine
 10
-346.0557597881742
 20
-110.6881266639263
 30
0.0
 11
-346.0557597881743
 21
-105.6312586516277
 31
0.0
  0
LINE
  5
309
330
6A
100
AcDbEntity
  8
0
  6
Continuous
 62
     7
100
AcDbLine
 10
-312.0182597881888
 20
-100.7500005783781
 30
0.0
 11
-305.6932597881887
 21
-100.750000578378
 31
0.0
  0
LINE
  5
30A
330
6A
100
AcDbEntity
  8
0
  6
Continuous
 62
     7
100
AcDbLine
 10
-312.0182597881888
 20
-100.7500005783781
 30
0.0
 11
-312.0182597881888
 21
-99.68000057837929
 31
0.0
  0
LINE
  5
30B
330
6A
100
AcDbEntity
  8
0
  6
Continuous
 62
     7
100
AcDbLine
 10
-314.8057597881764
 20
-99.87197348172573
 30
0.0
 11
-314.8057597881764
 21
-104.0750005783761
 31
0.0
  0
LINE
  5
30C
330
6A
100
AcDbEntity
  8
0
  6
Continuous
 62
     7
100
AcDbLine
 10
-322.8057597881762
 20
-104.0750005783763
 30
0.0
 11
-322.8057597881762
 21
-100.8719734814614
 31
0.0
  0
LINE
  5
30D
330
6A
100
AcDbEntity
  8
0
  6
Continuous
 62
     7
100
AcDbLine
 10
-345.7315872284573
 20
-105.3065487007658
 30
0.0
 11
-346.0557597881743
 21
-105.6312586516277
 31
0.0
  0
LINE
  5
30E
330
6A
100
AcDbEntity
  8
0
  6
Continuous
 62
     7
100
AcDbLine
 10
-335.6168063101887
 20
-95.1750001879741
 30
0.0
 11
-345.7315872284573
 21
-105.3065487007658
 31
0.0
  0
LINE
  5
30F
330
6A
100
AcDbEntity
  8
0
  6
Continuous
 62
     7
100
AcDbLine
 10
-303.4536524429458
 20
-97.57500057838244
 30
0.0
 11
-303.4536524429458
 21
-95.17500018797352
 31
0.0
  0
LINE
  5
310
330
6A
100
AcDbEntity
  8
0
  6
Continuous
 62
     7
100
AcDbLine
 10
-299.2557597881756
 20
-142.0250005783892
 30
0.0
 11
-299.2557597881756
 21
-140.3750005783805
 31
0.0
  0
LINE
  5
311
330
6A
100
AcDbEntity
  8
0
  6
Continuous
 62
     7
100
AcDbLine
 10
-281.0557597881065
 20
-103.3929116353181
 30
0.0
 11
-281.0557597881064
 21
-104.9708581883099
 31
0.0
  0
LINE
  5
312
330
6A
100
AcDbEntity
  8
0
  6
Continuous
 62
     7
100
AcDbLine
 10
-281.0557597881064
 20
-104.9708581883099
 30
0.0
 11
-281.3801963533057
 21
-105.3068220864759
 31
0.0
  0
LINE
  5
313
330
6A
100
AcDbEntity
  8
0
  6
Continuous
 62
     7
100
AcDbLine
 10
-281.3801963533057
 20
-105.3068220864759
 30
0.0
 11
-281.055759788155
 21
-105.6312586516266
 31
0.0
  0
LINE
  5
314
330
6A
100
AcDbEntity
  8
0
  6
Continuous
 62
     7
100
AcDbLine
 10
-291.5120182518087
 20
-95.17500018797332
 30
0.0
 11
-298.7095285342971
 21
-95.17500018797345
 31
0.0
  0
LINE
  5
315
330
6A
100
AcDbEntity
  8
0
  6
Continuous
 62
     7
100
AcDbLine
 10
-291.5120182518087
 20
-95.17500018797332
 30
0.0
 11
-281.3801963533057
 21
-105.3068220864759
 31
0.0
  0
LINE
  5
316
330
6A
100
AcDbEntity
  8
0
  6
Continuous
 62
     7
100
AcDbLine
 10
-290.8736712354365
 20
-93.57500018798896
 30
0.0
 11
-281.0557597881065
 21
-103.3929116353181
 31
0.0
  0
LINE
  5
317
330
6A
100
AcDbEntity
  8
0
  6
Continuous
 62
     7
100
AcDbLine
 10
-297.5752616964735
 20
-144.4250005783873
 30
0.0
 11
-299.2557597881756
 21
-142.0250005783892
 31
0.0
  0
LINE
  5
318
330
6A
100
AcDbEntity
  8
0
  6
Continuous
 62
     7
100
AcDbLine
 10
-299.2557597881756
 20
-140.3750005783805
 30
0.0
 11
-297.9034839217709
 21
-139.0227247119758
 31
0.0
  0
LINE
  5
319
330
6A
100
AcDbEntity
  8
0
  6
Continuous
 62
     7
100
AcDbLine
 10
-332.500189672763
 20
-144.425000578392
 30
0.0
 11
-347.0557597881659
 21
-144.4250005783925
 31
0.0
  0
LINE
  5
31A
330
6A
100
AcDbEntity
  8
0
  6
Continuous
 62
     7
100
AcDbLine
 10
-347.0557597881659
 20
-144.4250005783925
 30
0.0
 11
-347.0557597881661
 21
-139.2678937972057
 31
0.0
  0
LINE
  5
31B
330
6A
100
AcDbEntity
  8
0
  6
Continuous
 62
     7
100
AcDbLine
 10
-344.7829676235706
 20
-140.575000536852
 30
0.0
 11
-345.5193636850983
 21
-139.8386044753242
 31
0.0
  0
LINE
  5
31C
330
6A
100
AcDbEntity
  8
0
  6
Continuous
 62
     7
100
AcDbLine
 10
-345.5557597881661
 20
-141.145820971642
 30
0.0
 11
-345.5557597881661
 21
-142.075000278387
 31
0.0
  0
LINE
  5
31D
330
6A
100
AcDbEntity
  8
0
  6
Continuous
 62
     7
100
AcDbLine
 10
-345.5557597881661
 20
-142.075000278387
 30
0.0
 11
-343.174421919032
 21
-142.075000278387
 31
0.0
  0
LINE
  5
31E
330
6A
100
AcDbEntity
  8
0
  6
Continuous
 62
     7
100
AcDbLine
 10
-343.0055298617071
 20
-140.5750005368515
 30
0.0
 11
-344.7829676235706
 21
-140.575000536852
 31
0.0
  0
LINE
  5
31F
330
6A
100
AcDbEntity
  8
0
  6
Continuous
 62
     7
100
AcDbLine
 10
-343.0055298617071
 20
-140.5750005368515
 30
0.0
 11
-342.9802816396664
 21
-140.5750005368515
 31
0.0
  0
LINE
  5
320
330
6A
100
AcDbEntity
  8
0
  6
Continuous
 62
     7
100
AcDbLine
 10
-322.8057597881762
 20
-104.0750005783763
 30
0.0
 11
-314.8057597881764
 21
-104.0750005783761
 31
0.0
  0
LINE
  5
321
330
6A
100
AcDbEntity
  8
0
  6
Continuous
 62
     7
100
AcDbLine
 10
-328.4019910419944
 20
-95.17500018797398
 30
0.0
 11
-335.6168063101887
 21
-95.1750001879741
 31
0.0
  0
LINE
  5
322
330
6A
100
AcDbEntity
  8
0
  6
Continuous
 62
     7
100
AcDbLine
 10
-305.2961054132142
 20
-97.57500057838249
 30
0.0
 11
-306.2211582552762
 21
-99.6800005783792
 31
0.0
  0
LINE
  5
323
330
6A
100
AcDbEntity
  8
0
  6
Continuous
 62
     7
100
AcDbLine
 10
-281.0557597881535
 20
-135.3370639693877
 30
0.0
 11
-290.1057601104067
 21
-138.0250009006274
 31
0.0
  0
LINE
  5
324
330
6A
100
AcDbEntity
  8
0
  6
Continuous
 62
     7
100
AcDbLine
 10
-281.0557597881538
 20
-126.5626345303158
 30
0.0
 11
-281.0557597881535
 21
-135.3370639693877
 31
0.0
  0
LINE
  5
325
330
6A
100
AcDbEntity
  8
0
  6
Continuous
 62
     7
100
AcDbLine
 10
-296.5057597881664
 20
-144.4250005783873
 30
0.0
 11
-297.5752616964735
 21
-144.4250005783873
 31
0.0
  0
LINE
  5
326
330
6A
100
AcDbEntity
  8
0
  6
Continuous
 62
     7
100
AcDbLine
 10
-297.9034839217709
 20
-139.0227247119758
 30
0.0
 11
-296.6057597881755
 21
-138.6750005783806
 31
0.0
  0
LINE
  5
327
330
6A
100
AcDbEntity
  8
0
  6
Continuous
 62
     7
100
AcDbLine
 10
-296.6057597881755
 20
-138.6750005783806
 30
0.0
 11
-296.6057597881755
 21
-137.5750005783858
 31
0.0
  0
LINE
  5
328
330
6A
100
AcDbEntity
  8
0
  6
Continuous
 62
     7
100
AcDbLine
 10
-281.055759788155
 20
-105.6312586516266
 30
0.0
 11
-281.0557597881549
 21
-110.6881266639249
 31
0.0
  0
LINE
  5
329
330
6A
100
AcDbEntity
  8
0
  6
Continuous
 62
     7
100
AcDbLine
 10
-290.1057601104067
 20
-138.0250009006274
 30
0.0
 11
-296.5057597881664
 21
-144.4250005783873
 31
0.0
  0
LINE
  5
32A
330
6A
100
AcDbEntity
  8
0
  6
Continuous
 62
     7
100
AcDbLine
 10
-296.6057597881755
 20
-137.5750005783858
 30
0.0
 11
-330.2995927996905
 21
-137.5750005783871
 31
0.0
  0
ARC
  5
32B
330
6A
100
AcDbEntity
  8
0
  6
Continuous
 62
     7
100
AcDbCircle
 10
-326.330760155694
 20
-96.57500038318834
 30
0.0
 40
2.500000195192041
100
AcDbArc
 50
34.05580011898068
 51
89.99999157950955
  0
ARC
  5
32C
330
6A
100
AcDbEntity
  8
0
  6
Continuous
 62
     7
100
AcDbCircle
 10
-326.3307593824748
 20
-96.57500038318832
 30
0.0
 40
2.50000019519192
100
AcDbArc
 50
90.00000930038688
 51
141.3883173675982
  0
ARC
  5
32D
330
6A
100
AcDbEntity
  8
0
  6
Continuous
 62
     7
100
AcDbCircle
 10
-377.0557597881873
 20
-118.6253805970691
 30
0.0
 40
32.00000000000004
100
AcDbArc
 50
345.6384884371791
 51
14.36151156282234
  0
ARC
  5
32E
330
6A
100
AcDbEntity
  8
0
  6
Continuous
 62
     7
100
AcDbCircle
 10
-323.0057597881665
 20
-137.8750005783915
 30
0.0
 40
8.300000000000061
100
AcDbArc
 50
152.0987744401428
 51
180.0000000000028
  0
ARC
  5
32F
330
6A
100
AcDbEntity
  8
0
  6
Continuous
 62
     7
100
AcDbCircle
 10
-323.0057597881665
 20
-137.8750005783915
 30
0.0
 40
7.30000000000007
100
AcDbArc
 50
152.0987744401429
 51
177.6447156441909
  0
ARC
  5
330
330
6A
100
AcDbEntity
  8
0
  6
Continuous
 62
     7
100
AcDbCircle
 10
-346.6557597881661
 20
-139.2678937972057
 30
0.0
 40
0.3999999999999791
100
AcDbArc
 50
44.99999999999424
 51
180.0
  0
ARC
  5
331
330
6A
100
AcDbEntity
  8
0
  6
Continuous
 62
     7
100
AcDbCircle
 10
-329.8990536307357
 20
-134.2250005783918
 30
0.0
 40
0.4999999999999619
100
AcDbArc
 50
332.0987744401486
 51
152.0987744401342
  0
ARC
  5
332
330
6A
100
AcDbEntity
  8
0
  6
Continuous
 62
     7
100
AcDbCircle
 10
-300.7807601938173
 20
-96.57500038318697
 30
0.0
 40
2.500000195192312
100
AcDbArc
 50
38.61168263022829
 51
89.99999070178352
  0
ARC
  5
333
330
6A
100
AcDbEntity
  8
0
  6
Continuous
 62
     7
100
AcDbCircle
 10
-300.7807597881351
 20
-96.57500057837468
 30
0.0
 40
2.499999999999782
100
AcDbArc
 50
34.05580854210969
 51
38.61169192772573
  0
ARC
  5
334
330
6A
100
AcDbEntity
  8
0
  6
Continuous
 62
     7
100
AcDbCircle
 10
-300.7807594205967
 20
-96.57500038318697
 30
0.0
 40
2.500000195192313
100
AcDbArc
 50
90.0000084226921
 51
145.9441998810501
  0
ARC
  5
335
330
6A
100
AcDbEntity
  8
0
  6
Continuous
 62
     7
100
AcDbCircle
 10
-337.4057597881665
 20
-139.4314665750172
 30
0.0
 40
7.000000000000036
100
AcDbArc
 50
314.4908805058148
 51
0.00000000000163
  0
ARC
  5
336
330
6A
100
AcDbEntity
  8
0
  6
Continuous
 62
     7
100
AcDbCircle
 10
-346.1557597881661
 20
-140.475000578392
 30
0.0
 40
0.9000000000000494
100
AcDbArc
 50
311.8103148957778
 51
45.00000000000128
  0
ARC
  5
337
330
6A
100
AcDbEntity
  8
0
  6
Continuous
 62
     7
100
AcDbCircle
 10
-348.0016485805164
 20
-140.7719719752967
 30
0.0
 40
5.000000000000034
100
AcDbArc
 50
344.8939970714598
 51
2.25771063906638
  0
ARC
  5
338
330
6A
100
AcDbEntity
  8
0
  6
Continuous
 62
     7
100
AcDbCircle
 10
-349.3557597881846
 20
-133.1002912805061
 30
0.0
 40
7.499999999999953
100
AcDbArc
 50
345.8588897661776
 51
4.78242040294263
  0
ARC
  5
339
330
6A
100
AcDbEntity
  8
0
  6
Continuous
 62
     7
100
AcDbCircle
 10
-326.3307597881596
 20
-96.5750005783803
 30
0.0
 40
2.500000000000039
100
AcDbArc
 50
141.3883080699879
 51
145.9441914577529
  0
ARC
  5
33A
330
6A
100
AcDbEntity
  8
0
  6
Continuous
 62
     7
100
AcDbCircle
 10
-310.955759788166
 20
-142.7750005783909
 30
0.0
 40
32.10000000000015
100
AcDbArc
 50
165.8588897661781
 51
176.0701057155337
  0
ARC
  5
33B
330
6A
100
AcDbEntity
  8
0
  6
Continuous
 62
     7
100
AcDbCircle
 10
-250.0557597881547
 20
-118.6253805971181
 30
0.0
 40
32.00000000000005
100
AcDbArc
 50
165.6384884370846
 51
194.3615115629238
  0
ENDBLK
  5
6C
330
6A
100
AcDbEntity
  8
0
100
AcDbBlockEnd
  0
BLOCK
  5
6F
330
6D
100
AcDbEntity
  8
0
100
AcDbBlockBegin
  2
Vordans1
 70
     0
 10
-314.055758
 20
-119.0
 30
0.0
  3
Vordans1
  1

  0
INSERT
  5
6E
330
6D
100
AcDbEntity
  8
0
100
AcDbBlockReference
  2
RTO_3-TC_BU-select__6
 10
-347.0557597881661
 20
-144.4250005783925
 30
0.0
  0
LINE
  5
33C
330
6D
100
AcDbEntity
  8
1
  6
DOT_CENTER
 62
     2
100
AcDbLine
 10
-314.1057597881755
 20
-136.247816606171
 30
0.0
 11
-314.1057597881755
 21
-139.392039721136
 31
0.0
  0
MTEXT
  5
33D
330
6D
100
AcDbEntity
  8
1
 62
     6
100
AcDbMText
 10
-313.5919463782142
 20
-157.2734473367943
 30
0.0
 40
5.0
 41
0.0
 71
     2
 72
     1
  1
 
  7
CONVERTER_11
 73
     1
 44
1.32052821128451
  0
DIMENSION
  5
348
330
6D
100
AcDbEntity
  8
1
100
AcDbDimension
  2
*D18
 10
-365.2307597881659
 20
-144.425000578392
 30
0.0
 11
-368.6557597881659
 21
-118.270598692014
 31
0.0
 70
    32
  1
<>
 71
     5
 42
-1.0
 53
90.0
  3
ME10_DIM_11
100
AcDbAlignedDimension
 13
-328.8735462685226
 23
-93.57500018800582
 33
0.0
 14
-332.500189672763
 24
-144.425000578392
 34
0.0
 50
90.0
100
AcDbRotatedDimension
  0
DIMENSION
  5
353
330
6D
100
AcDbEntity
  8
1
100
AcDbDimension
  2
*D19
 10
-357.2307597881659
 20
-137.5750005783871
 30
0.0
 11
-360.4807597881659
 21
-114.034413664947
 31
0.0
 70
    32
  1
<>
 71
     5
 42
-1.0
 53
90.0
  3
ME10_DIM_12
100
AcDbAlignedDimension
 13
-328.8735462685226
 23
-93.57500018800582
 33
0.0
 14
-330.2995927996905
 24
-137.5750005783871
 34
0.0
 50
90.0
100
AcDbRotatedDimension
  0
DIMENSION
  5
35E
330
6D
100
AcDbEntity
  8
1
100
AcDbDimension
  2
*D20
 10
-347.0557597881659
 20
-172.919504922141
 30
0.0
 11
-310.280486866872
 21
-169.669504922141
 31
0.0
 70
    32
  1
<>
 71
     5
 42
-1.0
 53
0.00013888888889
  3
ME10_DIM_13
100
AcDbAlignedDimension
 13
-281.0557597881535
 23
-135.3370639693877
 33
0.0
 14
-347.0557597881659
 24
-144.4250005783925
 34
0.0
100
AcDbRotatedDimension
  0
DIMENSION
  5
369
330
6D
100
AcDbEntity
  8
1
100
AcDbDimension
  2
*D21
 10
-314.1057597881755
 20
-163.601215073777
 30
0.0
 11
-296.428974930114
 21
-160.176215073777
 31
0.0
 70
    32
  1
<>
 71
     5
 42
-1.0
 53
0.00013888888889
  3
ME10_DIM_14
100
AcDbAlignedDimension
 13
-281.0557597881535
 23
-135.3370639693877
 33
0.0
 14
-314.1057597881755
 24
-139.392039721136
 34
0.0
100
AcDbRotatedDimension
  0
DIMENSION
  5
374
330
6D
100
AcDbEntity
  8
1
100
AcDbDimension
  2
*D22
 10
-296.6057597881755
 20
-154.408848061201
 30
0.0
 11
-305.117650599535
 21
-150.983848061201
 31
0.0
 70
    32
  1
<>
 71
     5
 42
-1.0
 53
0.00013888888889
  3
ME10_DIM_15
100
AcDbAlignedDimension
 13
-314.1057597881755
 23
-139.392039721136
 33
0.0
 14
-296.6057597881755
 24
-138.6750005783806
 34
0.0
100
AcDbRotatedDimension
  0
ENDBLK
  5
70
330
6D
100
AcDbEntity
  8
0
100
AcDbBlockEnd
  0
BLOCK
  5
72
330
71
100
AcDbEntity
  8
0
100
AcDbBlockBegin
  2
_rahmen
 70
     0
 10
-123.4999999999899
 20
-267.0000000000051
 30
0.0
  3
_rahmen
  1

  0
LINE
  5
375
330
71
100
AcDbEntity
  8
1
  6
Continuous
 62
     6
100
AcDbLine
 10
-253.0448045267399
 20
-236.500000000005
 30
0.0
 11
-123.4999999999882
 21
-236.500000000005
 31
0.0
  0
LINE
  5
376
330
71
100
AcDbEntity
  8
1
  6
Continuous
 62
     7
100
AcDbLine
 10
-234.8448045267399
 20
-257.750000000005
 30
0.0
 11
-216.64480452674
 21
-257.750000000005
 31
0.0
  0
LINE
  5
377
330
71
100
AcDbEntity
  8
1
  6
Continuous
 62
     6
100
AcDbLine
 10
-234.8448045267399
 20
-262.000000000005
 30
0.0
 11
-253.0448045267399
 21
-262.0000000000051
 31
0.0
  0
LINE
  5
378
330
71
100
AcDbEntity
  8
1
  6
Continuous
 62
     7
100
AcDbLine
 10
-234.8448045267399
 20
-257.750000000005
 30
0.0
 11
-234.8448045267399
 21
-262.000000000005
 31
0.0
  0
LINE
  5
379
330
71
100
AcDbEntity
  8
1
  6
Continuous
 62
     7
100
AcDbLine
 10
-216.64480452674
 20
-257.750000000005
 30
0.0
 11
-216.64480452674
 21
-262.0000000000051
 31
0.0
  0
LINE
  5
37A
330
71
100
AcDbEntity
  8
1
  6
Continuous
 62
     7
100
AcDbLine
 10
-253.0448045267399
 20
-257.7500000000051
 30
0.0
 11
-253.0448045267399
 21
-262.0000000000051
 31
0.0
  0
LINE
  5
37B
330
71
100
AcDbEntity
  8
1
  6
Continuous
 62
     7
100
AcDbLine
 10
-253.0448045267399
 20
-257.7500000000051
 30
0.0
 11
-234.8448045267399
 21
-257.750000000005
 31
0.0
  0
LINE
  5
37C
330
71
100
AcDbEntity
  8
1
  6
Continuous
 62
     2
100
AcDbLine
 10
-243.8081496401773
 20
-238.3750000000051
 30
0.0
 11
-243.8081496401773
 21
-243.3750000000051
 31
0.0
  0
LINE
  5
37D
330
71
100
AcDbEntity
  8
1
  6
Continuous
 62
     2
100
AcDbLine
 10
-243.8081496401773
 20
-243.3750000000051
 30
0.0
 11
-248.8081496401773
 21
-242.1250000000051
 31
0.0
  0
LINE
  5
37E
330
71
100
AcDbEntity
  8
1
  6
Continuous
 62
     2
100
AcDbLine
 10
-248.8081496401773
 20
-242.1250000000051
 30
0.0
 11
-248.8081496401773
 21
-239.6250000000051
 31
0.0
  0
LINE
  5
37F
330
71
100
AcDbEntity
  8
1
  6
Continuous
 62
     2
100
AcDbLine
 10
-248.8081496401773
 20
-239.6250000000051
 30
0.0
 11
-243.8081496401773
 21
-238.3750000000051
 31
0.0
  0
LINE
  5
380
330
71
100
AcDbEntity
  8
1
  6
Continuous
 62
     6
100
AcDbLine
 10
-375.4999999999881
 20
-262.000000000005
 30
0.0
 11
-410.499999999988
 21
-262.000000000005
 31
0.0
  0
LINE
  5
381
330
71
100
AcDbEntity
  8
1
  6
Continuous
 62
     6
100
AcDbLine
 10
-123.4999999999882
 20
-245.000000000005
 30
0.0
 11
-123.4999999999886
 21
-253.500000000005
 31
0.0
  0
LINE
  5
382
330
71
100
AcDbEntity
  8
1
  6
Continuous
 62
     6
100
AcDbLine
 10
-216.64480452674
 20
-262.0000000000051
 30
0.0
 11
-216.9999999999899
 21
-262.000000000005
 31
0.0
  0
LINE
  5
383
330
71
100
AcDbEntity
  8
1
  6
Continuous
 62
     6
100
AcDbLine
 10
-369.2999999999901
 20
-262.0000000000051
 30
0.0
 11
-375.4999999999881
 21
-262.000000000005
 31
0.0
  0
LINE
  5
384
330
71
100
AcDbEntity
  8
1
  6
Continuous
 62
     7
100
AcDbLine
 10
-216.64480452674
 20
-245.000000000005
 30
0.0
 11
-216.64480452674
 21
-257.750000000005
 31
0.0
  0
LINE
  5
385
330
71
100
AcDbEntity
  8
1
  6
Continuous
 62
     7
100
AcDbLine
 10
-253.0448045267399
 20
-245.000000000005
 30
0.0
 11
-253.0448045267399
 21
-257.7500000000051
 31
0.0
  0
LINE
  5
386
330
71
100
AcDbEntity
  8
1
  6
Continuous
 62
     6
100
AcDbLine
 10
-266.9999999999899
 20
-262.000000000005
 30
0.0
 11
-316.9999999999901
 21
-262.000000000005
 31
0.0
  0
LINE
  5
387
330
71
100
AcDbEntity
  8
1
  6
Continuous
 62
     6
100
AcDbLine
 10
-369.2999999999901
 20
-262.0000000000051
 30
0.0
 11
-366.9999999999899
 21
-262.000000000005
 31
0.0
  0
LINE
  5
388
330
71
100
AcDbEntity
  8
1
  6
Continuous
 62
     6
100
AcDbLine
 10
-216.64480452674
 20
-262.0000000000051
 30
0.0
 11
-166.9999999999899
 21
-262.000000000005
 31
0.0
  0
LINE
  5
389
330
71
100
AcDbEntity
  8
1
  6
Continuous
 62
     6
100
AcDbLine
 10
-123.4999999999899
 20
-262.000000000005
 30
0.0
 11
-123.4999999999886
 21
-253.500000000005
 31
0.0
  0
LINE
  5
38A
330
71
100
AcDbEntity
  8
1
  6
Continuous
 62
     2
100
AcDbLine
 10
-415.499999999989
 20
-262.000000000005
 30
0.0
 11
-415.499999999989
 21
-267.0000000000051
 31
0.0
  0
LINE
  5
38B
330
71
100
AcDbEntity
  8
1
  6
Continuous
 62
     2
100
AcDbLine
 10
-410.499999999988
 20
-262.000000000005
 30
0.0
 11
-415.499999999989
 21
-262.000000000005
 31
0.0
  0
LINE
  5
38C
330
71
100
AcDbEntity
  8
1
  6
Continuous
 62
     2
100
AcDbLine
 10
-410.499999999988
 20
-267.0000000000051
 30
0.0
 11
-366.9999999999899
 21
-267.0000000000051
 31
0.0
  0
LINE
  5
38D
330
71
100
AcDbEntity
  8
1
  6
Continuous
 62
     2
100
AcDbLine
 10
-410.499999999988
 20
-262.000000000005
 30
0.0
 11
-410.499999999988
 21
-267.0000000000051
 31
0.0
  0
LINE
  5
38E
330
71
100
AcDbEntity
  8
1
  6
Continuous
 62
     2
100
AcDbLine
 10
-166.9999999999899
 20
-267.0000000000051
 30
0.0
 11
-216.9999999999899
 21
-267.0000000000051
 31
0.0
  0
LINE
  5
38F
330
71
100
AcDbEntity
  8
1
  6
Continuous
 62
     2
100
AcDbLine
 10
-166.9999999999899
 20
-267.0000000000051
 30
0.0
 11
-166.9999999999899
 21
-262.000000000005
 31
0.0
  0
LINE
  5
390
330
71
100
AcDbEntity
  8
1
  6
Continuous
 62
     2
100
AcDbLine
 10
-216.9999999999899
 20
-267.0000000000051
 30
0.0
 11
-216.9999999999899
 21
-262.000000000005
 31
0.0
  0
LINE
  5
391
330
71
100
AcDbEntity
  8
1
  6
Continuous
 62
     2
100
AcDbLine
 10
-266.9999999999899
 20
-267.0000000000051
 30
0.0
 11
-216.9999999999899
 21
-267.0000000000051
 31
0.0
  0
LINE
  5
392
330
71
100
AcDbEntity
  8
1
  6
Continuous
 62
     2
100
AcDbLine
 10
-266.9999999999899
 20
-267.0000000000051
 30
0.0
 11
-266.9999999999899
 21
-262.000000000005
 31
0.0
  0
LINE
  5
393
330
71
100
AcDbEntity
  8
1
  6
Continuous
 62
     2
100
AcDbLine
 10
-316.9999999999901
 20
-267.0000000000051
 30
0.0
 11
-266.9999999999899
 21
-267.0000000000051
 31
0.0
  0
LINE
  5
394
330
71
100
AcDbEntity
  8
1
  6
Continuous
 62
     2
100
AcDbLine
 10
-316.9999999999901
 20
-267.0000000000051
 30
0.0
 11
-316.9999999999901
 21
-262.000000000005
 31
0.0
  0
LINE
  5
395
330
71
100
AcDbEntity
  8
1
  6
Continuous
 62
     2
100
AcDbLine
 10
-366.9999999999899
 20
-267.0000000000051
 30
0.0
 11
-316.9999999999901
 21
-267.0000000000051
 31
0.0
  0
LINE
  5
396
330
71
100
AcDbEntity
  8
1
  6
Continuous
 62
     2
100
AcDbLine
 10
-366.9999999999899
 20
-267.0000000000051
 30
0.0
 11
-366.9999999999899
 21
-262.000000000005
 31
0.0
  0
LINE
  5
397
330
71
100
AcDbEntity
  8
1
  6
Continuous
 62
     6
100
AcDbLine
 10
-410.4999999999882
 20
-212.0000000000049
 30
0.0
 11
-410.499999999988
 21
-262.000000000005
 31
0.0
  0
LINE
  5
398
330
71
100
AcDbEntity
  8
1
  6
Continuous
 62
     2
100
AcDbLine
 10
-415.499999999989
 20
-212.0000000000049
 30
0.0
 11
-415.499999999989
 21
-262.000000000005
 31
0.0
  0
LINE
  5
399
330
71
100
AcDbEntity
  8
1
  6
Continuous
 62
     2
100
AcDbLine
 10
-415.499999999989
 20
-212.0000000000049
 30
0.0
 11
-410.4999999999882
 21
-212.0000000000049
 31
0.0
  0
LINE
  5
39A
330
71
100
AcDbEntity
  8
1
  6
Continuous
 62
     6
100
AcDbLine
 10
-410.4999999999884
 20
-162.0000000000051
 30
0.0
 11
-410.4999999999882
 21
-212.0000000000049
 31
0.0
  0
LINE
  5
39B
330
71
100
AcDbEntity
  8
1
  6
Continuous
 62
     2
100
AcDbLine
 10
-415.499999999989
 20
-162.0000000000051
 30
0.0
 11
-415.499999999989
 21
-212.0000000000049
 31
0.0
  0
LINE
  5
39C
330
71
100
AcDbEntity
  8
1
  6
Continuous
 62
     2
100
AcDbLine
 10
-415.499999999989
 20
-162.0000000000051
 30
0.0
 11
-410.4999999999884
 21
-162.0000000000051
 31
0.0
  0
LINE
  5
39D
330
71
100
AcDbEntity
  8
1
  6
Continuous
 62
     6
100
AcDbLine
 10
-410.4999999999889
 20
-112.000000000005
 30
0.0
 11
-410.4999999999884
 21
-162.0000000000051
 31
0.0
  0
LINE
  5
39E
330
71
100
AcDbEntity
  8
1
  6
Continuous
 62
     2
100
AcDbLine
 10
-415.499999999989
 20
-112.000000000005
 30
0.0
 11
-415.499999999989
 21
-162.0000000000051
 31
0.0
  0
LINE
  5
39F
330
71
100
AcDbEntity
  8
1
  6
Continuous
 62
     2
100
AcDbLine
 10
-415.499999999989
 20
-112.000000000005
 30
0.0
 11
-410.4999999999889
 21
-112.000000000005
 31
0.0
  0
LINE
  5
3A0
330
71
100
AcDbEntity
  8
1
  6
Continuous
 62
     6
100
AcDbLine
 10
-410.499999999989
 20
-77.000000000005
 30
0.0
 11
-410.4999999999889
 21
-112.000000000005
 31
0.0
  0
LINE
  5
3A1
330
71
100
AcDbEntity
  8
1
  6
Continuous
 62
     2
100
AcDbLine
 10
-415.499999999989
 20
-57.000000000005
 30
0.0
 11
-415.499999999989
 21
-112.000000000005
 31
0.0
  0
LINE
  5
3A2
330
71
100
AcDbEntity
  8
1
  6
Continuous
 62
     2
100
AcDbLine
 10
-415.499999999989
 20
-267.0000000000051
 30
0.0
 11
-410.499999999988
 21
-267.0000000000051
 31
0.0
  0
LINE
  5
3A3
330
71
100
AcDbEntity
  8
1
  6
Continuous
 62
     2
100
AcDbLine
 10
-266.9999999999899
 20
-57.000000000005
 30
0.0
 11
-266.9999999999899
 21
-66.20869184470632
 31
0.0
  0
LINE
  5
3A4
330
71
100
AcDbEntity
  8
1
  6
Continuous
 62
     2
100
AcDbLine
 10
-266.9999999999899
 20
-57.000000000005
 30
0.0
 11
-415.499999999989
 21
-57.000000000005
 31
0.0
  0
LINE
  5
3A5
330
71
100
AcDbEntity
  8
1
  6
Continuous
 62
     2
100
AcDbLine
 10
-118.4999999999909
 20
-262.000000000005
 30
0.0
 11
-118.4999999999909
 21
-212.0000000000049
 31
0.0
  0
LINE
  5
3A6
330
71
100
AcDbEntity
  8
1
  6
Continuous
 62
     2
100
AcDbLine
 10
-118.4999999999909
 20
-112.000000000005
 30
0.0
 11
-118.4999999999909
 21
-57.000000000005
 31
0.0
  0
LINE
  5
3A7
330
71
100
AcDbEntity
  8
1
  6
Continuous
 62
     6
100
AcDbLine
 10
-123.4999999999907
 20
-112.000000000005
 30
0.0
 11
-123.4999999999909
 21
-77.000000000005
 31
0.0
  0
LINE
  5
3A8
330
71
100
AcDbEntity
  8
1
  6
Continuous
 62
     2
100
AcDbLine
 10
-123.4999999999907
 20
-112.000000000005
 30
0.0
 11
-118.4999999999909
 21
-112.000000000005
 31
0.0
  0
LINE
  5
3A9
330
71
100
AcDbEntity
  8
1
  6
Continuous
 62
     2
100
AcDbLine
 10
-118.4999999999909
 20
-162.0000000000051
 30
0.0
 11
-118.4999999999909
 21
-112.000000000005
 31
0.0
  0
LINE
  5
3AA
330
71
100
AcDbEntity
  8
1
  6
Continuous
 62
     6
100
AcDbLine
 10
-123.4999999999895
 20
-162.0000000000051
 30
0.0
 11
-123.4999999999907
 21
-112.000000000005
 31
0.0
  0
LINE
  5
3AB
330
71
100
AcDbEntity
  8
1
  6
Continuous
 62
     2
100
AcDbLine
 10
-123.4999999999895
 20
-162.0000000000051
 30
0.0
 11
-118.4999999999909
 21
-162.0000000000051
 31
0.0
  0
LINE
  5
3AC
330
71
100
AcDbEntity
  8
1
  6
Continuous
 62
     2
100
AcDbLine
 10
-118.4999999999909
 20
-212.0000000000049
 30
0.0
 11
-118.4999999999909
 21
-162.0000000000051
 31
0.0
  0
LINE
  5
3AD
330
71
100
AcDbEntity
  8
1
  6
Continuous
 62
     6
100
AcDbLine
 10
-123.499999999989
 20
-212.0000000000049
 30
0.0
 11
-123.4999999999895
 21
-162.0000000000051
 31
0.0
  0
LINE
  5
3AE
330
71
100
AcDbEntity
  8
1
  6
Continuous
 62
     2
100
AcDbLine
 10
-123.499999999989
 20
-212.0000000000049
 30
0.0
 11
-118.4999999999909
 21
-212.0000000000049
 31
0.0
  0
LINE
  5
3AF
330
71
100
AcDbEntity
  8
1
  6
Continuous
 62
     6
100
AcDbLine
 10
-123.4999999999909
 20
-77.000000000005
 30
0.0
 11
-410.499999999989
 21
-77.000000000005
 31
0.0
  0
LINE
  5
3B0
330
71
100
AcDbEntity
  8
1
  6
Continuous
 62
     2
100
AcDbLine
 10
-118.4999999999909
 20
-57.000000000005
 30
0.0
 11
-266.9999999999899
 21
-57.000000000005
 31
0.0
  0
LINE
  5
3B1
330
71
100
AcDbEntity
  8
1
  6
Continuous
 62
     6
100
AcDbLine
 10
-123.4999999999882
 20
-245.000000000005
 30
0.0
 11
-123.499999999989
 21
-212.0000000000049
 31
0.0
  0
LINE
  5
3B2
330
71
100
AcDbEntity
  8
1
  6
Continuous
 62
     2
100
AcDbLine
 10
-123.4999999999899
 20
-267.0000000000051
 30
0.0
 11
-166.9999999999899
 21
-267.0000000000051
 31
0.0
  0
LINE
  5
3B3
330
71
100
AcDbEntity
  8
1
  6
Continuous
 62
     2
100
AcDbLine
 10
-118.4999999999909
 20
-267.0000000000051
 30
0.0
 11
-123.4999999999899
 21
-267.0000000000051
 31
0.0
  0
LINE
  5
3B4
330
71
100
AcDbEntity
  8
1
  6
Continuous
 62
     2
100
AcDbLine
 10
-118.4999999999909
 20
-267.0000000000051
 30
0.0
 11
-118.4999999999909
 21
-262.000000000005
 31
0.0
  0
LINE
  5
3B5
330
71
100
AcDbEntity
  8
1
  6
Continuous
 62
     6
100
AcDbLine
 10
-253.0448045267399
 20
-245.000000000005
 30
0.0
 11
-216.64480452674
 21
-245.000000000005
 31
0.0
  0
LINE
  5
3B6
330
71
100
AcDbEntity
  8
1
  6
Continuous
 62
     2
100
AcDbLine
 10
-123.4999999999899
 20
-262.000000000005
 30
0.0
 11
-123.4999999999899
 21
-267.0000000000051
 31
0.0
  0
LINE
  5
3B7
330
71
100
AcDbEntity
  8
1
  6
Continuous
 62
     2
100
AcDbLine
 10
-123.4999999999899
 20
-262.000000000005
 30
0.0
 11
-118.4999999999909
 21
-262.000000000005
 31
0.0
  0
LINE
  5
3B8
330
71
100
AcDbEntity
  8
1
  6
Continuous
 62
     6
100
AcDbLine
 10
-216.9999999999899
 20
-262.000000000005
 30
0.0
 11
-234.8448045267399
 21
-262.000000000005
 31
0.0
  0
LINE
  5
3B9
330
71
100
AcDbEntity
  8
1
  6
Continuous
 62
     6
100
AcDbLine
 10
-166.9999999999899
 20
-262.000000000005
 30
0.0
 11
-123.4999999999899
 21
-262.000000000005
 31
0.0
  0
LINE
  5
3BA
330
71
100
AcDbEntity
  8
1
  6
Continuous
 62
     6
100
AcDbLine
 10
-316.9999999999901
 20
-262.000000000005
 30
0.0
 11
-322.0448045267399
 21
-262.000000000005
 31
0.0
  0
LINE
  5
3BB
330
71
100
AcDbEntity
  8
1
  6
Continuous
 62
     6
100
AcDbLine
 10
-266.9999999999899
 20
-262.000000000005
 30
0.0
 11
-253.0448045267399
 21
-262.0000000000051
 31
0.0
  0
LINE
  5
3BC
102
{ACAD_REACTORS
330
4A6
330
4A7
102
}
330
71
100
AcDbEntity
  8
0
  6
Continuous
 62
     2
100
AcDbLine
 10
-245.5301785845931
 20
-249.9274852437929
 30
0.0
 11
-245.5301785845931
 21
-249.3219499552861
 31
0.0
  0
LINE
  5
3BD
102
{ACAD_REACTORS
330
4A6
330
4A7
102
}
330
71
100
AcDbEntity
  8
0
  6
Continuous
 62
     2
100
AcDbLine
 10
-245.5301785845931
 20
-252.7276198504242
 30
0.0
 11
-245.5301785845931
 21
-252.1457684437291
 31
0.0
  0
LINE
  5
3BE
102
{ACAD_REACTORS
330
4A8
330
4A9
102
}
330
71
100
AcDbEntity
  8
0
  6
Continuous
 62
     2
100
AcDbLine
 10
-222.9006921491139
 20
-252.4379557823012
 30
0.0
 11
-222.9006921491139
 21
-254.7064999999887
 31
0.0
  0
LINE
  5
3BF
102
{ACAD_REACTORS
330
4A8
330
4A9
102
}
330
71
100
AcDbEntity
  8
0
  6
Continuous
 62
     2
100
AcDbLine
 10
-224.2817459281015
 20
-251.6526904761781
 30
0.0
 11
-220.8968004094728
 21
-251.6526904761776
 31
0.0
  0
LINE
  5
3C0
102
{ACAD_REACTORS
330
4A8
330
4A9
102
}
330
71
100
AcDbEntity
  8
0
  6
Continuous
 62
     2
100
AcDbLine
 10
-220.8968004094728
 20
-252.4379557823012
 30
0.0
 11
-220.8968004094728
 21
-251.6526904761776
 31
0.0
  0
LINE
  5
3C1
102
{ACAD_REACTORS
330
4A8
330
4A9
102
}
330
71
100
AcDbEntity
  8
0
  6
Continuous
 62
     2
100
AcDbLine
 10
-221.7078994469462
 20
-252.4379557823012
 30
0.0
 11
-220.8968004094728
 21
-252.4379557823012
 31
0.0
  0
LINE
  5
3C2
102
{ACAD_REACTORS
330
4A8
330
4A9
102
}
330
71
100
AcDbEntity
  8
0
  6
Continuous
 62
     2
100
AcDbLine
 10
-221.7078994469462
 20
-254.7064999999887
 30
0.0
 11
-221.7078994469462
 21
-252.4379557823012
 31
0.0
  0
LINE
  5
3C3
102
{ACAD_REACTORS
330
4A8
330
4A9
102
}
330
71
100
AcDbEntity
  8
0
  6
Continuous
 62
     2
100
AcDbLine
 10
-222.9006921491139
 20
-254.7064999999887
 30
0.0
 11
-221.7078994469462
 21
-254.7064999999887
 31
0.0
  0
LINE
  5
3C4
102
{ACAD_REACTORS
330
49E
330
49F
102
}
330
71
100
AcDbEntity
  8
0
  6
Continuous
 62
     2
100
AcDbLine
 10
-223.5972830871784
 20
-248.2935000000032
 30
0.0
 11
-225.0000073049277
 21
-248.2935000000032
 31
0.0
  0
LINE
  5
3C5
102
{ACAD_REACTORS
330
49E
330
49F
102
}
330
71
100
AcDbEntity
  8
0
  6
Continuous
 62
     2
100
AcDbLine
 10
-223.5972830871784
 20
-248.2935000000032
 30
0.0
 11
-222.9961155652866
 21
-248.9733233215587
 31
0.0
  0
LINE
  5
3C6
102
{ACAD_REACTORS
330
49E
330
49F
102
}
330
71
100
AcDbEntity
  8
0
  6
Continuous
 62
     2
100
AcDbLine
 10
-222.9961155652866
 20
-248.9733233215587
 30
0.0
 11
-222.3949480433938
 21
-248.2935000000032
 31
0.0
  0
LINE
  5
3C7
102
{ACAD_REACTORS
330
49E
330
49F
102
}
330
71
100
AcDbEntity
  8
0
  6
Continuous
 62
     2
100
AcDbLine
 10
-222.2947534564131
 20
-249.7664505300394
 30
0.0
 11
-220.9922238256466
 21
-248.2935000000032
 31
0.0
  0
LINE
  5
3C8
102
{ACAD_REACTORS
330
49E
330
49F
102
}
330
71
100
AcDbEntity
  8
0
  6
Continuous
 62
     2
100
AcDbLine
 10
-222.2947534564131
 20
-249.7664505300394
 30
0.0
 11
-220.8968004094728
 21
-251.3473095238144
 31
0.0
  0
LINE
  5
3C9
102
{ACAD_REACTORS
330
49E
330
49F
102
}
330
71
100
AcDbEntity
  8
0
  6
Continuous
 62
     2
100
AcDbLine
 10
-222.2995246272211
 20
-251.3473095238144
 30
0.0
 11
-220.8968004094728
 21
-251.3473095238144
 31
0.0
  0
LINE
  5
3CA
102
{ACAD_REACTORS
330
49E
330
49F
102
}
330
71
100
AcDbEntity
  8
0
  6
Continuous
 62
     2
100
AcDbLine
 10
-222.9961155652866
 20
-250.5595777385207
 30
0.0
 11
-222.2995246272211
 21
-251.3473095238144
 31
0.0
  0
LINE
  5
3CB
102
{ACAD_REACTORS
330
49C
330
49D
102
}
330
71
100
AcDbEntity
  8
0
  6
Continuous
 62
     2
100
AcDbLine
 10
-226.4552144015703
 20
-248.2935000000032
 30
0.0
 11
-225.2147099913174
 21
-248.2935000000032
 31
0.0
  0
LINE
  5
3CC
102
{ACAD_REACTORS
330
49C
330
49D
102
}
330
71
100
AcDbEntity
  8
0
  6
Continuous
 62
     2
100
AcDbLine
 10
-225.2147099913174
 20
-248.2935000000032
 30
0.0
 11
-225.2147099913174
 21
-251.3473095238144
 31
0.0
  0
LINE
  5
3CD
102
{ACAD_REACTORS
330
49C
330
49D
102
}
330
71
100
AcDbEntity
  8
0
  6
Continuous
 62
     2
100
AcDbLine
 10
-226.4552144015703
 20
-251.3473095238144
 30
0.0
 11
-226.4552144015703
 21
-248.2935000000032
 31
0.0
  0
LINE
  5
3CE
102
{ACAD_REACTORS
330
49A
330
49B
102
}
330
71
100
AcDbEntity
  8
0
  6
Continuous
 62
     2
100
AcDbLine
 10
-227.9235244841079
 20
-253.4849761904642
 30
0.0
 11
-227.6233592469155
 21
-252.7171612244775
 31
0.0
  0
LINE
  5
3CF
102
{ACAD_REACTORS
330
49A
330
49B
102
}
330
71
100
AcDbEntity
  8
0
  6
Continuous
 62
     2
100
AcDbLine
 10
-228.4010600887287
 20
-254.7064999999887
 30
0.0
 11
-228.1895800352529
 21
-254.1655394557708
 31
0.0
  0
LINE
  5
3D0
102
{ACAD_REACTORS
330
49A
330
49B
102
}
330
71
100
AcDbEntity
  8
0
  6
Continuous
 62
     2
100
AcDbLine
 10
-228.2436114520424
 20
-251.6526904761776
 30
0.0
 11
-229.6415644989817
 21
-254.7064999999887
 31
0.0
  0
LINE
  5
3D1
102
{ACAD_REACTORS
330
49A
330
49B
102
}
330
71
100
AcDbEntity
  8
0
  6
Continuous
 62
     2
100
AcDbLine
 10
-225.6051539948494
 20
-254.7064999999887
 30
0.0
 11
-226.8456584051033
 21
-254.7064999999887
 31
0.0
  0
LINE
  5
3D2
102
{ACAD_REACTORS
330
49A
330
49B
102
}
330
71
100
AcDbEntity
  8
0
  6
Continuous
 62
     2
100
AcDbLine
 10
-228.1895800352529
 20
-254.1655394557708
 30
0.0
 11
-227.0571384585791
 21
-254.1655394557708
 31
0.0
  0
LINE
  5
3D3
102
{ACAD_REACTORS
330
498
330
499
102
}
330
71
100
AcDbEntity
  8
0
  6
Continuous
 62
     2
100
AcDbLine
 10
-231.7990766381639
 20
-252.4379557823012
 30
0.0
 11
-230.9879776006893
 21
-252.4379557823012
 31
0.0
  0
LINE
  5
3D4
102
{ACAD_REACTORS
330
498
330
499
102
}
330
71
100
AcDbEntity
  8
0
  6
Continuous
 62
     2
100
AcDbLine
 10
-228.9840858610503
 20
-251.6526904761776
 30
0.0
 11
-231.7990766381639
 21
-251.6526904761776
 31
0.0
  0
LINE
  5
3D5
102
{ACAD_REACTORS
330
498
330
499
102
}
330
71
100
AcDbEntity
  8
0
  6
Continuous
 62
     2
100
AcDbLine
 10
-228.9840858610503
 20
-252.4379557823012
 30
0.0
 11
-228.9840858610503
 21
-251.6526904761776
 31
0.0
  0
LINE
  5
3D6
102
{ACAD_REACTORS
330
498
330
499
102
}
330
71
100
AcDbEntity
  8
0
  6
Continuous
 62
     2
100
AcDbLine
 10
-229.7951848985228
 20
-252.4379557823012
 30
0.0
 11
-228.9840858610503
 21
-252.4379557823012
 31
0.0
  0
LINE
  5
3D7
102
{ACAD_REACTORS
330
498
330
499
102
}
330
71
100
AcDbEntity
  8
0
  6
Continuous
 62
     2
100
AcDbLine
 10
-229.7951848985228
 20
-254.7064999999887
 30
0.0
 11
-229.7951848985228
 21
-252.4379557823012
 31
0.0
  0
LINE
  5
3D8
102
{ACAD_REACTORS
330
496
330
497
102
}
330
71
100
AcDbEntity
  8
0
  6
Continuous
 62
     2
100
AcDbLine
 10
-229.1270700544248
 20
-251.3473095238144
 30
0.0
 11
-229.1270700544248
 21
-250.0385340136097
 31
0.0
  0
LINE
  5
3D9
102
{ACAD_REACTORS
330
496
330
497
102
}
330
71
100
AcDbEntity
  8
0
  6
Continuous
 62
     2
100
AcDbLine
 10
-230.3198627565913
 20
-248.2935000000032
 30
0.0
 11
-230.3198627565913
 21
-251.3473095238144
 31
0.0
  0
LINE
  5
3DA
102
{ACAD_REACTORS
330
496
330
497
102
}
330
71
100
AcDbEntity
  8
0
  6
Continuous
 62
     2
100
AcDbLine
 10
-229.1270700544248
 20
-248.2935000000032
 30
0.0
 11
-230.3198627565913
 21
-248.2935000000032
 31
0.0
  0
LINE
  5
3DB
102
{ACAD_REACTORS
330
496
330
497
102
}
330
71
100
AcDbEntity
  8
0
  6
Continuous
 62
     2
100
AcDbLine
 10
-227.8865656441708
 20
-248.2935000000032
 30
0.0
 11
-227.8865656441708
 21
-249.6022755102084
 31
0.0
  0
LINE
  5
3DC
102
{ACAD_REACTORS
330
494
330
495
102
}
330
71
100
AcDbEntity
  8
0
  6
Continuous
 62
     2
100
AcDbLine
 10
-235.568301577011
 20
-251.6526904761776
 30
0.0
 11
-235.568301577011
 21
-254.7064999999887
 31
0.0
  0
LINE
  5
3DD
102
{ACAD_REACTORS
330
494
330
495
102
}
330
71
100
AcDbEntity
  8
0
  6
Continuous
 62
     2
100
AcDbLine
 10
-234.3755088748434
 20
-251.6526904761776
 30
0.0
 11
-235.568301577011
 21
-251.6526904761776
 31
0.0
  0
LINE
  5
3DE
102
{ACAD_REACTORS
330
494
330
495
102
}
330
71
100
AcDbEntity
  8
0
  6
Continuous
 62
     2
100
AcDbLine
 10
-233.1350044645905
 20
-254.7064999999887
 30
0.0
 11
-231.9422117624241
 21
-254.7064999999887
 31
0.0
  0
LINE
  5
3DF
102
{ACAD_REACTORS
330
494
330
495
102
}
330
71
100
AcDbEntity
  8
0
  6
Continuous
 62
     2
100
AcDbLine
 10
-235.568301577011
 20
-254.7064999999887
 30
0.0
 11
-234.3755088748434
 21
-254.7064999999887
 31
0.0
  0
LINE
  5
3E0
102
{ACAD_REACTORS
330
4A4
330
4A5
102
}
330
71
100
AcDbEntity
  8
0
  6
Continuous
 62
     2
100
AcDbLine
 10
-231.8943491234519
 20
-249.4713979591879
 30
0.0
 11
-231.8943491234519
 21
-248.9915136054462
 31
0.0
  0
LINE
  5
3E1
102
{ACAD_REACTORS
330
4A4
330
4A5
102
}
330
71
100
AcDbEntity
  8
0
  6
Continuous
 62
     2
100
AcDbLine
 10
-230.5584212970242
 20
-249.4713979591879
 30
0.0
 11
-231.8943491234519
 21
-249.4713979591879
 31
0.0
  0
LINE
  5
3E2
102
{ACAD_REACTORS
330
4A4
330
4A5
102
}
330
71
100
AcDbEntity
  8
0
  6
Continuous
 62
     2
100
AcDbLine
 10
-230.5584212970242
 20
-250.1694115646302
 30
0.0
 11
-230.5584212970242
 21
-249.4713979591879
 31
0.0
  0
LINE
  5
3E3
102
{ACAD_REACTORS
330
4A4
330
4A5
102
}
330
71
100
AcDbEntity
  8
0
  6
Continuous
 62
     2
100
AcDbLine
 10
-231.8943491234519
 20
-250.1694115646302
 30
0.0
 11
-230.5584212970242
 21
-250.1694115646302
 31
0.0
  0
LINE
  5
3E4
102
{ACAD_REACTORS
330
492
330
493
102
}
330
71
100
AcDbEntity
  8
0
  6
Continuous
 62
     2
100
AcDbLine
 10
-235.3773038137788
 20
-248.2935000000032
 30
0.0
 11
-235.3773038137788
 21
-251.3473095238144
 31
0.0
  0
LINE
  5
3E5
102
{ACAD_REACTORS
330
492
330
493
102
}
330
71
100
AcDbEntity
  8
0
  6
Continuous
 62
     2
100
AcDbLine
 10
-235.3773038137788
 20
-251.3473095238144
 30
0.0
 11
-236.5700965159452
 21
-251.3473095238144
 31
0.0
  0
LINE
  5
3E6
102
{ACAD_REACTORS
330
492
330
493
102
}
330
71
100
AcDbEntity
  8
0
  6
Continuous
 62
     2
100
AcDbLine
 10
-236.5700965159452
 20
-251.3473095238144
 30
0.0
 11
-236.5700965159452
 21
-250.2130374149706
 31
0.0
  0
LINE
  5
3E7
102
{ACAD_REACTORS
330
492
330
493
102
}
330
71
100
AcDbEntity
  8
0
  6
Continuous
 62
     2
100
AcDbLine
 10
-237.6197540938527
 20
-251.3473095238144
 30
0.0
 11
-238.8125467960193
 21
-251.3473095238144
 31
0.0
  0
LINE
  5
3E8
102
{ACAD_REACTORS
330
492
330
493
102
}
330
71
100
AcDbEntity
  8
0
  6
Continuous
 62
     2
100
AcDbLine
 10
-238.8125467960193
 20
-248.2935000000032
 30
0.0
 11
-237.6197540938527
 21
-248.2935000000032
 31
0.0
  0
LINE
  5
3E9
102
{ACAD_REACTORS
330
492
330
493
102
}
330
71
100
AcDbEntity
  8
0
  6
Continuous
 62
     2
100
AcDbLine
 10
-237.6197540938527
 20
-248.2935000000032
 30
0.0
 11
-237.6197540938527
 21
-249.3623333333378
 31
0.0
  0
LINE
  5
3EA
102
{ACAD_REACTORS
330
492
330
493
102
}
330
71
100
AcDbEntity
  8
0
  6
Continuous
 62
     2
100
AcDbLine
 10
-237.6197540938527
 20
-249.3623333333378
 30
0.0
 11
-236.5700965159452
 21
-249.3623333333378
 31
0.0
  0
LINE
  5
3EB
102
{ACAD_REACTORS
330
4A0
330
4A1
102
}
330
71
100
AcDbEntity
  8
0
  6
Continuous
 62
     2
100
AcDbLine
 10
-240.7687268275729
 20
-248.9566058454433
 30
0.0
 11
-240.451431766031
 21
-248.9566058454433
 31
0.0
  0
LINE
  5
3EC
102
{ACAD_REACTORS
330
4A0
330
4A1
102
}
330
71
100
AcDbEntity
  8
0
  6
Continuous
 62
     2
100
AcDbLine
 10
-240.7687268275729
 20
-249.6623334947855
 30
0.0
 11
-240.451431766031
 21
-249.6623334947855
 31
0.0
  0
LINE
  5
3ED
102
{ACAD_REACTORS
330
4A0
330
4A1
102
}
330
71
100
AcDbEntity
  8
0
  6
Continuous
 62
     2
100
AcDbLine
 10
-242.009231237827
 20
-248.2935000000032
 30
0.0
 11
-242.009231237827
 21
-251.3473095238144
 31
0.0
  0
LINE
  5
3EE
102
{ACAD_REACTORS
330
4A0
330
4A1
102
}
330
71
100
AcDbEntity
  8
0
  6
Continuous
 62
     2
100
AcDbLine
 10
-242.009231237827
 20
-248.2935000000032
 30
0.0
 11
-240.0099592397926
 21
-248.2935000000032
 31
0.0
  0
LINE
  5
3EF
102
{ACAD_REACTORS
330
4A0
330
4A1
102
}
330
71
100
AcDbEntity
  8
0
  6
Continuous
 62
     2
100
AcDbLine
 10
-240.7687268275729
 20
-250.4042312826706
 30
0.0
 11
-240.0099592397926
 21
-250.4042312826706
 31
0.0
  0
LINE
  5
3F0
102
{ACAD_REACTORS
330
4A6
330
4A7
102
}
330
71
100
AcDbEntity
  8
0
  6
Continuous
 62
     2
100
AcDbLine
 10
-248.1057272711237
 20
-249.321772478638
 30
0.0
 11
-248.1057272711237
 21
-253.6782275213551
 31
0.0
  0
LINE
  5
3F1
102
{ACAD_REACTORS
330
4A6
330
4A7
102
}
330
71
100
AcDbEntity
  8
0
  6
Continuous
 62
     2
100
AcDbLine
 10
-247.790010348048
 20
-249.0060555555618
 30
0.0
 11
-246.3141770870384
 21
-249.0060555555618
 31
0.0
  0
LINE
  5
3F2
102
{ACAD_REACTORS
330
4A6
330
4A7
102
}
330
71
100
AcDbEntity
  8
0
  6
Continuous
 62
     2
100
AcDbLine
 10
-245.9984601639618
 20
-249.9257970976985
 30
0.0
 11
-245.9984601639618
 21
-249.321772478638
 31
0.0
  0
LINE
  5
3F3
102
{ACAD_REACTORS
330
4A6
330
4A7
102
}
330
71
100
AcDbEntity
  8
0
  6
Continuous
 62
     2
100
AcDbLine
 10
-245.9984601639618
 20
-253.6782275213551
 30
0.0
 11
-245.9984601639618
 21
-252.1474565898235
 31
0.0
  0
LINE
  5
3F4
102
{ACAD_REACTORS
330
4A6
330
4A7
102
}
330
71
100
AcDbEntity
  8
0
  6
Continuous
 62
     2
100
AcDbLine
 10
-242.9105929340777
 20
-254.7064999999887
 30
0.0
 11
-248.3839050247945
 21
-254.7064999999887
 31
0.0
  0
LINE
  5
3F5
102
{ACAD_REACTORS
330
4A6
330
4A7
102
}
330
71
100
AcDbEntity
  8
0
  6
Continuous
 62
     2
100
AcDbLine
 10
-242.4863483186938
 20
-248.7177446154052
 30
0.0
 11
-242.4863483186938
 21
-254.2822553846054
 31
0.0
  0
LINE
  5
3F6
102
{ACAD_REACTORS
330
4A6
330
4A7
102
}
330
71
100
AcDbEntity
  8
0
  6
Continuous
 62
     2
100
AcDbLine
 10
-248.3839050247945
 20
-248.2935000000214
 30
0.0
 11
-242.9105929340777
 21
-248.2935000000214
 31
0.0
  0
LINE
  5
3F7
102
{ACAD_REACTORS
330
4A6
330
4A7
102
}
330
71
100
AcDbEntity
  8
0
  6
Continuous
 62
     2
100
AcDbLine
 10
-248.8081496401773
 20
-248.7177446154052
 30
0.0
 11
-248.8081496401773
 21
-254.2822553846054
 31
0.0
  0
LINE
  5
3F8
102
{ACAD_REACTORS
330
4A6
330
4A7
102
}
330
71
100
AcDbEntity
  8
0
  6
Continuous
 62
     2
100
AcDbLine
 10
-246.3141770870384
 20
-253.9939444444318
 30
0.0
 11
-247.790010348048
 21
-253.9939444444318
 31
0.0
  0
LINE
  5
3F9
102
{ACAD_REACTORS
330
4A0
330
4A1
102
}
330
71
100
AcDbEntity
  8
0
  6
Continuous
 62
     2
100
AcDbLine
 10
-240.7687268275729
 20
-251.3473095238144
 30
0.0
 11
-240.7687268275729
 21
-250.4042312826706
 31
0.0
  0
LINE
  5
3FA
102
{ACAD_REACTORS
330
4A0
330
4A1
102
}
330
71
100
AcDbEntity
  8
0
  6
Continuous
 62
     2
100
AcDbLine
 10
-242.009231237827
 20
-251.3473095238144
 30
0.0
 11
-240.7687268275729
 21
-251.3473095238144
 31
0.0
  0
LINE
  5
3FB
102
{ACAD_REACTORS
330
4A0
330
4A1
102
}
330
71
100
AcDbEntity
  8
0
  6
Continuous
 62
     2
100
AcDbLine
 10
-240.7687268275729
 20
-249.6623334947855
 30
0.0
 11
-240.7687268275729
 21
-248.9566058454433
 31
0.0
  0
LINE
  5
3FC
102
{ACAD_REACTORS
330
492
330
493
102
}
330
71
100
AcDbEntity
  8
0
  6
Continuous
 62
     2
100
AcDbLine
 10
-238.8125467960193
 20
-248.2935000000032
 30
0.0
 11
-238.8125467960193
 21
-251.3473095238144
 31
0.0
  0
LINE
  5
3FD
102
{ACAD_REACTORS
330
492
330
493
102
}
330
71
100
AcDbEntity
  8
0
  6
Continuous
 62
     2
100
AcDbLine
 10
-237.6197540938527
 20
-250.2130374149706
 30
0.0
 11
-237.6197540938527
 21
-251.3473095238144
 31
0.0
  0
LINE
  5
3FE
102
{ACAD_REACTORS
330
492
330
493
102
}
330
71
100
AcDbEntity
  8
0
  6
Continuous
 62
     2
100
AcDbLine
 10
-236.5700965159452
 20
-250.2130374149706
 30
0.0
 11
-237.6197540938527
 21
-250.2130374149706
 31
0.0
  0
LINE
  5
3FF
102
{ACAD_REACTORS
330
492
330
493
102
}
330
71
100
AcDbEntity
  8
0
  6
Continuous
 62
     2
100
AcDbLine
 10
-236.5700965159452
 20
-248.2935000000032
 30
0.0
 11
-235.3773038137788
 21
-248.2935000000032
 31
0.0
  0
LINE
  5
400
102
{ACAD_REACTORS
330
492
330
493
102
}
330
71
100
AcDbEntity
  8
0
  6
Continuous
 62
     2
100
AcDbLine
 10
-236.5700965159452
 20
-249.3623333333378
 30
0.0
 11
-236.5700965159452
 21
-248.2935000000032
 31
0.0
  0
LINE
  5
401
102
{ACAD_REACTORS
330
4A4
330
4A5
102
}
330
71
100
AcDbEntity
  8
0
  6
Continuous
 62
     2
100
AcDbLine
 10
-230.5584212970242
 20
-248.9915136054462
 30
0.0
 11
-230.5584212970242
 21
-248.2935000000032
 31
0.0
  0
LINE
  5
402
102
{ACAD_REACTORS
330
4A4
330
4A5
102
}
330
71
100
AcDbEntity
  8
0
  6
Continuous
 62
     2
100
AcDbLine
 10
-233.7087410208052
 20
-248.2935000000032
 30
0.0
 11
-230.5584212970242
 21
-248.2935000000032
 31
0.0
  0
LINE
  5
403
102
{ACAD_REACTORS
330
4A4
330
4A5
102
}
330
71
100
AcDbEntity
  8
0
  6
Continuous
 62
     2
100
AcDbLine
 10
-233.7087410208052
 20
-251.3473095238144
 30
0.0
 11
-230.5584212970242
 21
-251.3473095238144
 31
0.0
  0
LINE
  5
404
102
{ACAD_REACTORS
330
4A4
330
4A5
102
}
330
71
100
AcDbEntity
  8
0
  6
Continuous
 62
     2
100
AcDbLine
 10
-230.5584212970242
 20
-251.3473095238144
 30
0.0
 11
-230.5584212970242
 21
-250.6492959183719
 31
0.0
  0
LINE
  5
405
102
{ACAD_REACTORS
330
4A4
330
4A5
102
}
330
71
100
AcDbEntity
  8
0
  6
Continuous
 62
     2
100
AcDbLine
 10
-230.5584212970242
 20
-250.6492959183719
 30
0.0
 11
-231.8943491234519
 21
-250.6492959183719
 31
0.0
  0
LINE
  5
406
102
{ACAD_REACTORS
330
4A4
330
4A5
102
}
330
71
100
AcDbEntity
  8
0
  6
Continuous
 62
     2
100
AcDbLine
 10
-231.8943491234519
 20
-250.6492959183719
 30
0.0
 11
-231.8943491234519
 21
-250.1694115646302
 31
0.0
  0
LINE
  5
407
102
{ACAD_REACTORS
330
4A4
330
4A5
102
}
330
71
100
AcDbEntity
  8
0
  6
Continuous
 62
     2
100
AcDbLine
 10
-231.8943491234519
 20
-248.9915136054462
 30
0.0
 11
-230.5584212970242
 21
-248.9915136054462
 31
0.0
  0
LINE
  5
408
102
{ACAD_REACTORS
330
494
330
495
102
}
330
71
100
AcDbEntity
  8
0
  6
Continuous
 62
     2
100
AcDbLine
 10
-234.3755088748434
 20
-254.7064999999887
 30
0.0
 11
-234.3755088748434
 21
-253.3977244897841
 31
0.0
  0
LINE
  5
409
102
{ACAD_REACTORS
330
494
330
495
102
}
330
71
100
AcDbEntity
  8
0
  6
Continuous
 62
     2
100
AcDbLine
 10
-234.3755088748434
 20
-253.3977244897841
 30
0.0
 11
-233.1350044645905
 21
-254.7064999999887
 31
0.0
  0
LINE
  5
40A
102
{ACAD_REACTORS
330
494
330
495
102
}
330
71
100
AcDbEntity
  8
0
  6
Continuous
 62
     2
100
AcDbLine
 10
-231.9422117624241
 20
-254.7064999999887
 30
0.0
 11
-231.9422117624241
 21
-251.6526904761776
 31
0.0
  0
LINE
  5
40B
102
{ACAD_REACTORS
330
494
330
495
102
}
330
71
100
AcDbEntity
  8
0
  6
Continuous
 62
     2
100
AcDbLine
 10
-231.9422117624241
 20
-251.6526904761776
 30
0.0
 11
-233.1350044645905
 21
-251.6526904761776
 31
0.0
  0
LINE
  5
40C
102
{ACAD_REACTORS
330
494
330
495
102
}
330
71
100
AcDbEntity
  8
0
  6
Continuous
 62
     2
100
AcDbLine
 10
-233.1350044645905
 20
-251.6526904761776
 30
0.0
 11
-233.1350044645905
 21
-252.9614659863827
 31
0.0
  0
LINE
  5
40D
102
{ACAD_REACTORS
330
494
330
495
102
}
330
71
100
AcDbEntity
  8
0
  6
Continuous
 62
     2
100
AcDbLine
 10
-233.1350044645905
 20
-252.9614659863827
 30
0.0
 11
-234.3755088748434
 21
-251.6526904761776
 31
0.0
  0
LINE
  5
40E
102
{ACAD_REACTORS
330
496
330
497
102
}
330
71
100
AcDbEntity
  8
0
  6
Continuous
 62
     2
100
AcDbLine
 10
-229.1270700544248
 20
-250.0385340136097
 30
0.0
 11
-227.8865656441708
 21
-251.3473095238144
 31
0.0
  0
LINE
  5
40F
102
{ACAD_REACTORS
330
496
330
497
102
}
330
71
100
AcDbEntity
  8
0
  6
Continuous
 62
     2
100
AcDbLine
 10
-227.8865656441708
 20
-251.3473095238144
 30
0.0
 11
-226.6937729420042
 21
-251.3473095238144
 31
0.0
  0
LINE
  5
410
102
{ACAD_REACTORS
330
496
330
497
102
}
330
71
100
AcDbEntity
  8
0
  6
Continuous
 62
     2
100
AcDbLine
 10
-226.6937729420042
 20
-251.3473095238144
 30
0.0
 11
-226.6937729420042
 21
-248.2935000000032
 31
0.0
  0
LINE
  5
411
102
{ACAD_REACTORS
330
496
330
497
102
}
330
71
100
AcDbEntity
  8
0
  6
Continuous
 62
     2
100
AcDbLine
 10
-226.6937729420042
 20
-248.2935000000032
 30
0.0
 11
-227.8865656441708
 21
-248.2935000000032
 31
0.0
  0
LINE
  5
412
102
{ACAD_REACTORS
330
496
330
497
102
}
330
71
100
AcDbEntity
  8
0
  6
Continuous
 62
     2
100
AcDbLine
 10
-227.8865656441708
 20
-249.6022755102084
 30
0.0
 11
-229.1270700544248
 21
-248.2935000000032
 31
0.0
  0
LINE
  5
413
102
{ACAD_REACTORS
330
496
330
497
102
}
330
71
100
AcDbEntity
  8
0
  6
Continuous
 62
     2
100
AcDbLine
 10
-230.3198627565913
 20
-251.3473095238144
 30
0.0
 11
-229.1270700544248
 21
-251.3473095238144
 31
0.0
  0
LINE
  5
414
102
{ACAD_REACTORS
330
498
330
499
102
}
330
71
100
AcDbEntity
  8
0
  6
Continuous
 62
     2
100
AcDbLine
 10
-231.7990766381639
 20
-251.6526904761776
 30
0.0
 11
-231.7990766381639
 21
-252.4379557823012
 31
0.0
  0
LINE
  5
415
102
{ACAD_REACTORS
330
498
330
499
102
}
330
71
100
AcDbEntity
  8
0
  6
Continuous
 62
     2
100
AcDbLine
 10
-230.9879776006893
 20
-252.4379557823012
 30
0.0
 11
-230.9879776006893
 21
-254.7064999999887
 31
0.0
  0
LINE
  5
416
102
{ACAD_REACTORS
330
498
330
499
102
}
330
71
100
AcDbEntity
  8
0
  6
Continuous
 62
     2
100
AcDbLine
 10
-230.9879776006893
 20
-254.7064999999887
 30
0.0
 11
-229.7951848985228
 21
-254.7064999999887
 31
0.0
  0
LINE
  5
417
102
{ACAD_REACTORS
330
49A
330
49B
102
}
330
71
100
AcDbEntity
  8
0
  6
Continuous
 62
     2
100
AcDbLine
 10
-226.8456584051033
 20
-254.7064999999887
 30
0.0
 11
-227.0571384585791
 21
-254.1655394557708
 31
0.0
  0
LINE
  5
418
102
{ACAD_REACTORS
330
49A
330
49B
102
}
330
71
100
AcDbEntity
  8
0
  6
Continuous
 62
     2
100
AcDbLine
 10
-227.0031070417897
 20
-251.6526904761776
 30
0.0
 11
-225.6051539948494
 21
-254.7064999999887
 31
0.0
  0
LINE
  5
419
102
{ACAD_REACTORS
330
49A
330
49B
102
}
330
71
100
AcDbEntity
  8
0
  6
Continuous
 62
     2
100
AcDbLine
 10
-228.2436114520424
 20
-251.6526904761776
 30
0.0
 11
-227.0031070417897
 21
-251.6526904761776
 31
0.0
  0
LINE
  5
41A
102
{ACAD_REACTORS
330
49A
330
49B
102
}
330
71
100
AcDbEntity
  8
0
  6
Continuous
 62
     2
100
AcDbLine
 10
-229.6415644989817
 20
-254.7064999999887
 30
0.0
 11
-228.4010600887287
 21
-254.7064999999887
 31
0.0
  0
LINE
  5
41B
102
{ACAD_REACTORS
330
49A
330
49B
102
}
330
71
100
AcDbEntity
  8
0
  6
Continuous
 62
     2
100
AcDbLine
 10
-227.9235244841079
 20
-253.4849761904642
 30
0.0
 11
-227.3231940097254
 21
-253.4849761904642
 31
0.0
  0
LINE
  5
41C
102
{ACAD_REACTORS
330
49A
330
49B
102
}
330
71
100
AcDbEntity
  8
0
  6
Continuous
 62
     2
100
AcDbLine
 10
-227.3231940097254
 20
-253.4849761904642
 30
0.0
 11
-227.6233592469155
 21
-252.7171612244775
 31
0.0
  0
LINE
  5
41D
102
{ACAD_REACTORS
330
49C
330
49D
102
}
330
71
100
AcDbEntity
  8
0
  6
Continuous
 62
     2
100
AcDbLine
 10
-225.2147099913174
 20
-251.3473095238144
 30
0.0
 11
-226.4552144015703
 21
-251.3473095238144
 31
0.0
  0
LINE
  5
41E
102
{ACAD_REACTORS
330
49E
330
49F
102
}
330
71
100
AcDbEntity
  8
0
  6
Continuous
 62
     2
100
AcDbLine
 10
-223.6927065033523
 20
-251.3473095238144
 30
0.0
 11
-225.0954307211005
 21
-251.3473095238144
 31
0.0
  0
LINE
  5
41F
102
{ACAD_REACTORS
330
49E
330
49F
102
}
330
71
100
AcDbEntity
  8
0
  6
Continuous
 62
     2
100
AcDbLine
 10
-223.6927065033523
 20
-251.3473095238144
 30
0.0
 11
-222.9961155652866
 21
-250.5595777385207
 31
0.0
  0
LINE
  5
420
102
{ACAD_REACTORS
330
49E
330
49F
102
}
330
71
100
AcDbEntity
  8
0
  6
Continuous
 62
     2
100
AcDbLine
 10
-222.3949480433938
 20
-248.2935000000032
 30
0.0
 11
-220.9922238256466
 21
-248.2935000000032
 31
0.0
  0
LINE
  5
421
102
{ACAD_REACTORS
330
49E
330
49F
102
}
330
71
100
AcDbEntity
  8
0
  6
Continuous
 62
     2
100
AcDbLine
 10
-225.0000073049277
 20
-248.2935000000032
 30
0.0
 11
-223.6974776741602
 21
-249.7664505300394
 31
0.0
  0
LINE
  5
422
102
{ACAD_REACTORS
330
49E
330
49F
102
}
330
71
100
AcDbEntity
  8
0
  6
Continuous
 62
     2
100
AcDbLine
 10
-225.0954307211005
 20
-251.3473095238144
 30
0.0
 11
-223.6974776741602
 21
-249.7664505300394
 31
0.0
  0
LINE
  5
423
102
{ACAD_REACTORS
330
4A8
330
4A9
102
}
330
71
100
AcDbEntity
  8
0
  6
Continuous
 62
     2
100
AcDbLine
 10
-223.2346741057206
 20
-253.6594795918251
 30
0.0
 11
-223.2346741057206
 21
-254.5319965986284
 31
0.0
  0
LINE
  5
424
102
{ACAD_REACTORS
330
4A8
330
4A9
102
}
330
71
100
AcDbEntity
  8
0
  6
Continuous
 62
     2
100
AcDbLine
 10
-224.004331448682
 20
-252.4379557823012
 30
0.0
 11
-222.9006921491139
 21
-252.4379557823012
 31
0.0
  0
LINE
  5
425
102
{ACAD_REACTORS
330
4AA
330
4AB
102
}
330
71
100
AcDbEntity
  8
0
  6
Continuous
 62
     2
100
AcDbLine
 10
-239.3373755849725
 20
-253.6594795918246
 30
0.0
 11
-239.3373755849725
 21
-254.5319965986278
 31
0.0
  0
LINE
  5
426
102
{ACAD_REACTORS
330
4AA
330
4AB
102
}
330
71
100
AcDbEntity
  8
0
  6
Continuous
 62
     2
100
AcDbLine
 10
-239.3373755849725
 20
-252.6997108843417
 30
0.0
 11
-239.3373755849725
 21
-251.8271938775384
 31
0.0
  0
LINE
  5
427
330
71
100
AcDbEntity
  8
1
  6
Continuous
 62
     7
100
AcDbLine
 10
-123.4999999999886
 20
-253.500000000005
 30
0.0
 11
-216.64480452674
 21
-253.500000000005
 31
0.0
  0
LINE
  5
428
330
71
100
AcDbEntity
  8
1
  6
Continuous
 62
     6
100
AcDbLine
 10
-322.0448045267399
 20
-262.000000000005
 30
0.0
 11
-366.9999999999899
 21
-262.000000000005
 31
0.0
  0
LINE
  5
429
330
71
100
AcDbEntity
  8
1
  6
Continuous
 62
     7
100
AcDbLine
 10
-132.4184082816674
 20
-236.500000000005
 30
0.0
 11
-132.4184082816674
 21
-245.000000000005
 31
0.0
  0
LINE
  5
42A
330
71
100
AcDbEntity
  8
1
  6
Continuous
 62
     7
100
AcDbLine
 10
-158.918408281667
 20
-236.500000000005
 30
0.0
 11
-158.918408281667
 21
-245.000000000005
 31
0.0
  0
LINE
  5
42B
330
71
100
AcDbEntity
  8
1
  6
Continuous
 62
     7
100
AcDbLine
 10
-216.64480452674
 20
-245.000000000005
 30
0.0
 11
-216.64480452674
 21
-236.500000000005
 31
0.0
  0
LINE
  5
42C
330
71
100
AcDbEntity
  8
1
  6
Continuous
 62
     7
100
AcDbLine
 10
-253.0448045267399
 20
-245.000000000005
 30
0.0
 11
-253.0448045267399
 21
-236.500000000005
 31
0.0
  0
LINE
  5
42D
330
71
100
AcDbEntity
  8
1
  6
Continuous
 62
     6
100
AcDbLine
 10
-216.64480452674
 20
-245.000000000005
 30
0.0
 11
-123.4999999999882
 21
-245.000000000005
 31
0.0
  0
LINE
  5
42E
330
71
100
AcDbEntity
  8
1
  6
Continuous
 62
     7
100
AcDbLine
 10
-188.7448045267399
 20
-253.5000000000051
 30
0.0
 11
-188.7448045267399
 21
-245.000000000005
 31
0.0
  0
LINE
  5
42F
330
71
100
AcDbEntity
  8
1
  6
PHANTOM
 62
     2
100
AcDbLine
 10
-237.5581496401773
 20
-240.8750000000051
 30
0.0
 11
-243.0581496401773
 21
-240.8750000000051
 31
0.0
  0
LINE
  5
430
330
71
100
AcDbEntity
  8
1
  6
PHANTOM
 62
     2
100
AcDbLine
 10
-240.3081496401773
 20
-238.1250000000051
 30
0.0
 11
-240.3081496401773
 21
-243.6250000000051
 31
0.0
  0
LINE
  5
431
330
71
100
AcDbEntity
  8
1
  6
DOT_CENTER
 62
     2
100
AcDbLine
 10
-249.0581496401773
 20
-240.8750000000051
 30
0.0
 11
-243.5581496401773
 21
-240.8750000000051
 31
0.0
  0
ARC
  5
432
102
{ACAD_REACTORS
330
4AA
330
4AB
102
}
330
71
100
AcDbEntity
  8
0
  6
Continuous
 62
     2
100
AcDbCircle
 10
-240.6733035020903
 20
-256.4922761833393
 30
0.0
 40
4.852596863498068
100
AcDbArc
 50
74.02000874164739
 51
84.84185523037506
  0
ARC
  5
433
102
{ACAD_REACTORS
330
4AA
330
4AB
102
}
330
71
100
AcDbEntity
  8
0
  6
Continuous
 62
     2
100
AcDbCircle
 10
-240.0972628933366
 20
-253.336515827455
 30
0.0
 40
0.9059297849853228
100
AcDbArc
 50
71.55192388185348
 51
113.372277888129
  0
ARC
  5
434
102
{ACAD_REACTORS
330
4AA
330
4AB
102
}
330
71
100
AcDbEntity
  8
0
  6
Continuous
 62
     2
100
AcDbCircle
 10
-240.2537029260386
 20
-253.3846666674219
 30
0.0
 40
0.5115800601948034
100
AcDbArc
 50
208.5214732576956
 51
246.6277221118274
  0
ARC
  5
435
102
{ACAD_REACTORS
330
4AA
330
4AB
102
}
330
71
100
AcDbEntity
  8
0
  6
Continuous
 62
     2
100
AcDbCircle
 10
-240.0972628933366
 20
-253.0226746487119
 30
0.0
 40
0.9059297849849192
100
AcDbArc
 50
246.627722111871
 51
288.4480761181584
  0
ARC
  5
436
102
{ACAD_REACTORS
330
4AA
330
4AB
102
}
330
71
100
AcDbEntity
  8
0
  6
Continuous
 62
     2
100
AcDbCircle
 10
-240.5154306269974
 20
-251.7691288726747
 30
0.0
 40
2.227384008972737
100
AcDbArc
 50
288.4480761181328
 51
301.9309089499593
  0
ARC
  5
437
102
{ACAD_REACTORS
330
4A6
330
4A7
102
}
330
71
100
AcDbEntity
  8
0
  6
Continuous
 62
     2
100
AcDbCircle
 10
-245.7405043596042
 20
-251.0366268437607
 30
0.0
 40
0.911848150144459
100
AcDbArc
 50
295.3740086781764
 51
64.62599132180748
  0
ARC
  5
438
102
{ACAD_REACTORS
330
4A6
330
4A7
102
}
330
71
100
AcDbEntity
  8
0
  6
Continuous
 62
     2
100
AcDbCircle
 10
-245.2144616615163
 20
-249.3219499552861
 30
0.0
 40
0.3157169230760711
100
AcDbArc
 50
90.18896704254594
 51
180.0
  0
ARC
  5
439
102
{ACAD_REACTORS
330
4A8
330
4A9
102
}
330
71
100
AcDbEntity
  8
0
  6
Continuous
 62
     2
100
AcDbCircle
 10
-224.004331448682
 20
-253.3924787891273
 30
0.0
 40
0.9545230068260935
100
AcDbArc
 50
90.0
 51
109.337143219432
  0
ARC
  5
43A
102
{ACAD_REACTORS
330
4A8
330
4A9
102
}
330
71
100
AcDbEntity
  8
0
  6
Continuous
 62
     2
100
AcDbCircle
 10
-223.7736441887043
 20
-253.1795952380834
 30
0.0
 40
0.9410597353348924
100
AcDbArc
 50
151.4785267423624
 51
208.5214732576695
  0
ARC
  5
43B
102
{ACAD_REACTORS
330
4A8
330
4A9
102
}
330
71
100
AcDbEntity
  8
0
  6
Continuous
 62
     2
100
AcDbCircle
 10
-223.9945614140826
 20
-253.0226746487119
 30
0.0
 40
0.9059297849852801
100
AcDbArc
 50
246.6277221118183
 51
288.4480761180817
  0
ARC
  5
43C
102
{ACAD_REACTORS
330
4A8
330
4A9
102
}
330
71
100
AcDbEntity
  8
0
  6
Continuous
 62
     2
100
AcDbCircle
 10
-224.4127291477445
 20
-251.7691288726753
 30
0.0
 40
2.227384008972746
100
AcDbArc
 50
288.4480761181335
 51
301.9309089499397
  0
ARC
  5
43D
102
{ACAD_REACTORS
330
4A8
330
4A9
102
}
330
71
100
AcDbEntity
  8
0
  6
Continuous
 62
     2
100
AcDbCircle
 10
-224.5706020228373
 20
-249.866914292827
 30
0.0
 40
4.852596863498825
100
AcDbArc
 50
275.1581447696364
 51
285.9799912583387
  0
ARC
  5
43E
102
{ACAD_REACTORS
330
4A8
330
4A9
102
}
330
71
100
AcDbEntity
  8
0
  6
Continuous
 62
     2
100
AcDbCircle
 10
-224.2817459281015
 20
-253.0668048760486
 30
0.0
 40
1.639695123940448
100
AcDbArc
 50
195.0618917771012
 51
275.1581447696762
  0
ARC
  5
43F
102
{ACAD_REACTORS
330
4A0
330
4A1
102
}
330
71
100
AcDbEntity
  8
0
  6
Continuous
 62
     2
100
AcDbCircle
 10
-240.0099592397926
 20
-249.3488656413369
 30
0.0
 40
1.055365641333708
100
AcDbArc
 50
270.0
 51
90.0
  0
ARC
  5
440
102
{ACAD_REACTORS
330
4A6
330
4A7
102
}
330
71
100
AcDbEntity
  8
0
  6
Continuous
 62
     2
100
AcDbCircle
 10
-247.790010348048
 20
-253.6782275213551
 30
0.0
 40
0.3157169230756836
100
AcDbArc
 50
180.0
 51
270.0
  0
ARC
  5
441
102
{ACAD_REACTORS
330
4A6
330
4A7
102
}
330
71
100
AcDbEntity
  8
0
  6
Continuous
 62
     2
100
AcDbCircle
 10
-246.3141770870384
 20
-249.321772478638
 30
0.0
 40
0.315716923076593
100
AcDbArc
 50
0.0
 51
90.0
  0
ARC
  5
442
102
{ACAD_REACTORS
330
4A6
330
4A7
102
}
330
71
100
AcDbEntity
  8
0
  6
Continuous
 62
     2
100
AcDbCircle
 10
-246.3141770870384
 20
-249.9257970976985
 30
0.0
 40
0.3157169230761203
100
AcDbArc
 50
295.1944106485397
 51
0.0
  0
ARC
  5
443
102
{ACAD_REACTORS
330
4A6
330
4A7
102
}
330
71
100
AcDbEntity
  8
0
  6
Continuous
 62
     2
100
AcDbCircle
 10
-246.3141770870384
 20
-253.6782275213551
 30
0.0
 40
0.3157169230767067
100
AcDbArc
 50
270.0
 51
0.0
  0
ARC
  5
444
102
{ACAD_REACTORS
330
4A6
330
4A7
102
}
330
71
100
AcDbEntity
  8
0
  6
Continuous
 62
     2
100
AcDbCircle
 10
-248.3839050247945
 20
-248.7177446154052
 30
0.0
 40
0.4242446153837989
100
AcDbArc
 50
90.0
 51
180.0
  0
ARC
  5
445
102
{ACAD_REACTORS
330
4A6
330
4A7
102
}
330
71
100
AcDbEntity
  8
0
  6
Continuous
 62
     2
100
AcDbCircle
 10
-242.9105929340777
 20
-248.7177446154052
 30
0.0
 40
0.4242446153838841
100
AcDbArc
 50
0.0
 51
90.0
  0
ARC
  5
446
102
{ACAD_REACTORS
330
4A6
330
4A7
102
}
330
71
100
AcDbEntity
  8
0
  6
Continuous
 62
     2
100
AcDbCircle
 10
-242.9105929340777
 20
-254.2822553846054
 30
0.0
 40
0.4242446153832873
100
AcDbArc
 50
270.0
 51
0.0
  0
ARC
  5
447
102
{ACAD_REACTORS
330
4A4
330
4A5
102
}
330
71
100
AcDbEntity
  8
0
  6
Continuous
 62
     2
100
AcDbCircle
 10
-233.6922090469862
 20
-249.8204047619091
 30
0.0
 40
0.7717997786796373
100
AcDbArc
 50
321.8795802028437
 51
38.12041979715956
  0
ARC
  5
448
102
{ACAD_REACTORS
330
4A4
330
4A5
102
}
330
71
100
AcDbEntity
  8
0
  6
Continuous
 62
     2
100
AcDbCircle
 10
-233.49246901064
 20
-249.9771359400295
 30
0.0
 40
0.5179085730134372
100
AcDbArc
 50
218.1204197971511
 51
321.8795802028566
  0
ARC
  5
449
102
{ACAD_REACTORS
330
4A2
330
4A3
102
}
330
71
100
AcDbEntity
  8
0
  6
Continuous
 62
     2
100
AcDbCircle
 10
-237.1724765996002
 20
-253.1795952380834
 30
0.0
 40
1.458034083652003
100
AcDbArc
 50
297.548148175701
 51
62.45185182429896
  0
ARC
  5
44A
102
{ACAD_REACTORS
330
4A2
330
4A3
102
}
330
71
100
AcDbEntity
  8
0
  6
Continuous
 62
     2
100
AcDbCircle
 10
-237.7343563832668
 20
-253.1795952380834
 30
0.0
 40
1.45803408365149
100
AcDbArc
 50
117.5481481756624
 51
242.4518518243375
  0
ARC
  5
44B
102
{ACAD_REACTORS
330
4A2
330
4A3
102
}
330
71
100
AcDbEntity
  8
0
  6
Continuous
 62
     2
100
AcDbCircle
 10
-237.4534164914335
 20
-253.7181702483862
 30
0.0
 40
2.065479772208568
100
AcDbArc
 50
62.45185182430637
 51
117.5481481756664
  0
ARC
  5
44C
102
{ACAD_REACTORS
330
4A2
330
4A3
102
}
330
71
100
AcDbEntity
  8
0
  6
Continuous
 62
     2
100
AcDbCircle
 10
-237.4534164914335
 20
-252.6410202277801
 30
0.0
 40
2.065479772208509
100
AcDbArc
 50
242.4518518243402
 51
297.5481481756871
  0
ARC
  5
44D
102
{ACAD_REACTORS
330
4A4
330
4A5
102
}
330
71
100
AcDbEntity
  8
0
  6
Continuous
 62
     2
100
AcDbCircle
 10
-233.2927289742937
 20
-249.8204047619091
 30
0.0
 40
0.7717997786796724
100
AcDbArc
 50
141.8795802028404
 51
218.1204197971562
  0
ARC
  5
44E
102
{ACAD_REACTORS
330
4A4
330
4A5
102
}
330
71
100
AcDbEntity
  8
0
  6
Continuous
 62
     2
100
AcDbCircle
 10
-233.49246901064
 20
-249.6636735837886
 30
0.0
 40
0.5179085730135266
100
AcDbArc
 50
38.12041979714334
 51
141.8795802028489
  0
ARC
  5
44F
102
{ACAD_REACTORS
330
4A6
330
4A7
102
}
330
71
100
AcDbEntity
  8
0
  6
Continuous
 62
     2
100
AcDbCircle
 10
-248.3839050247945
 20
-254.2822553846054
 30
0.0
 40
0.4242446153828041
100
AcDbArc
 50
180.0
 51
270.0
  0
ARC
  5
450
102
{ACAD_REACTORS
330
4A6
330
4A7
102
}
330
71
100
AcDbEntity
  8
0
  6
Continuous
 62
     2
100
AcDbCircle
 10
-246.3141770870384
 20
-252.1474565898235
 30
0.0
 40
0.315716923076593
100
AcDbArc
 50
0.0
 51
64.80558935146027
  0
ARC
  5
451
102
{ACAD_REACTORS
330
4A6
330
4A7
102
}
330
71
100
AcDbEntity
  8
0
  6
Continuous
 62
     2
100
AcDbCircle
 10
-245.7915926394634
 20
-251.0366268437607
 30
0.0
 40
0.9118975235576147
100
AcDbArc
 50
115.1944106485282
 51
244.8055893514878
  0
ARC
  5
452
102
{ACAD_REACTORS
330
4A6
330
4A7
102
}
330
71
100
AcDbEntity
  8
0
  6
Continuous
 62
     2
100
AcDbCircle
 10
-247.790010348048
 20
-249.321772478638
 30
0.0
 40
0.3157169230761951
100
AcDbArc
 50
90.0
 51
180.0
  0
ARC
  5
453
102
{ACAD_REACTORS
330
4A0
330
4A1
102
}
330
71
100
AcDbEntity
  8
0
  6
Continuous
 62
     2
100
AcDbCircle
 10
-240.451431766031
 20
-249.3094696701144
 30
0.0
 40
0.3528638246711182
100
AcDbArc
 50
270.0
 51
90.0
  0
ARC
  5
454
102
{ACAD_REACTORS
330
4A4
330
4A5
102
}
330
71
100
AcDbEntity
  8
0
  6
Continuous
 62
     2
100
AcDbCircle
 10
-233.7087410208052
 20
-249.8204047619091
 30
0.0
 40
1.526904761905882
100
AcDbArc
 50
90.0
 51
270.0
  0
ARC
  5
455
102
{ACAD_REACTORS
330
4A8
330
4A9
102
}
330
71
100
AcDbEntity
  8
0
  6
Continuous
 62
     2
100
AcDbCircle
 10
-224.2817459281015
 20
-253.2923856001183
 30
0.0
 40
1.639695123940214
100
AcDbArc
 50
90.0
 51
164.938108222895
  0
ARC
  5
456
102
{ACAD_REACTORS
330
4A8
330
4A9
102
}
330
71
100
AcDbEntity
  8
0
  6
Continuous
 62
     2
100
AcDbCircle
 10
-224.7008737715631
 20
-253.1795952380834
 30
0.0
 40
1.205656168393002
100
AcDbArc
 50
164.9381082229028
 51
195.0618917770959
  0
ARC
  5
457
102
{ACAD_REACTORS
330
4A8
330
4A9
102
}
330
71
100
AcDbEntity
  8
0
  6
Continuous
 62
     2
100
AcDbCircle
 10
-224.1510014467857
 20
-253.3846666674219
 30
0.0
 40
0.5115800601960215
100
AcDbArc
 50
208.5214732576866
 51
246.6277221118449
  0
ARC
  5
458
102
{ACAD_REACTORS
330
4A8
330
4A9
102
}
330
71
100
AcDbEntity
  8
0
  6
Continuous
 62
     2
100
AcDbCircle
 10
-224.1510014467857
 20
-252.9745238087444
 30
0.0
 40
0.5115800601944143
100
AcDbArc
 50
109.3371432194853
 51
151.4785267424225
  0
ARC
  5
459
102
{ACAD_REACTORS
330
4A6
330
4A7
102
}
330
71
100
AcDbEntity
  8
0
  6
Continuous
 62
     2
100
AcDbCircle
 10
-245.2144616615163
 20
-252.7276198504242
 30
0.0
 40
0.315716923076792
100
AcDbArc
 50
180.0
 51
269.8110329574542
  0
ARC
  5
45A
102
{ACAD_REACTORS
330
4A6
330
4A7
102
}
330
71
100
AcDbEntity
  8
0
  6
Continuous
 62
     2
100
AcDbCircle
 10
-245.2088455262063
 20
-251.0247849028552
 30
0.0
 40
2.018561131933266
100
AcDbArc
 50
269.8110329575858
 51
90.18896704241416
  0
ARC
  5
45B
102
{ACAD_REACTORS
330
4A6
330
4A7
102
}
330
71
100
AcDbEntity
  8
0
  6
Continuous
 62
     2
100
AcDbCircle
 10
-245.2144616615163
 20
-249.9274852437929
 30
0.0
 40
0.315716923076792
100
AcDbArc
 50
180.0
 51
244.6259913216482
  0
ARC
  5
45C
102
{ACAD_REACTORS
330
4A6
330
4A7
102
}
330
71
100
AcDbEntity
  8
0
  6
Continuous
 62
     2
100
AcDbCircle
 10
-245.2144616615163
 20
-252.1457684437291
 30
0.0
 40
0.3157169230765328
100
AcDbArc
 50
115.3740086783519
 51
180.0
  0
ARC
  5
45D
102
{ACAD_REACTORS
330
4AA
330
4AB
102
}
330
71
100
AcDbEntity
  8
0
  6
Continuous
 62
     2
100
AcDbCircle
 10
-240.3844474073544
 20
-253.2923856001183
 30
0.0
 40
1.639695123940507
100
AcDbArc
 50
84.84185523036236
 51
164.9381082228864
  0
ARC
  5
45E
102
{ACAD_REACTORS
330
4AA
330
4AB
102
}
330
71
100
AcDbEntity
  8
0
  6
Continuous
 62
     2
100
AcDbCircle
 10
-240.8035752508172
 20
-253.1795952380834
 30
0.0
 40
1.205656168390944
100
AcDbArc
 50
164.9381082228765
 51
195.0618917770948
  0
ARC
  5
45F
102
{ACAD_REACTORS
330
4AA
330
4AB
102
}
330
71
100
AcDbEntity
  8
0
  6
Continuous
 62
     2
100
AcDbCircle
 10
-240.3844474073544
 20
-253.0668048760486
 30
0.0
 40
1.639695123939387
100
AcDbArc
 50
195.0618917770896
 51
275.1581447696395
  0
ARC
  5
460
102
{ACAD_REACTORS
330
4AA
330
4AB
102
}
330
71
100
AcDbEntity
  8
0
  6
Continuous
 62
     2
100
AcDbCircle
 10
-240.6733035020903
 20
-249.866914292827
 30
0.0
 40
4.852596863498138
100
AcDbArc
 50
275.1581447696249
 51
285.9799912583529
  0
ARC
  5
461
102
{ACAD_REACTORS
330
4AA
330
4AB
102
}
330
71
100
AcDbEntity
  8
0
  6
Continuous
 62
     2
100
AcDbCircle
 10
-239.8763456679583
 20
-253.1795952380834
 30
0.0
 40
0.9410597353332545
100
AcDbArc
 50
151.4785267422669
 51
208.5214732577057
  0
ARC
  5
462
102
{ACAD_REACTORS
330
4AA
330
4AB
102
}
330
71
100
AcDbEntity
  8
0
  6
Continuous
 62
     2
100
AcDbCircle
 10
-240.2537029260386
 20
-252.9745238087444
 30
0.0
 40
0.5115800601948779
100
AcDbArc
 50
113.3722778881992
 51
151.4785267423044
  0
ARC
  5
463
102
{ACAD_REACTORS
330
4AA
330
4AB
102
}
330
71
100
AcDbEntity
  8
0
  6
Continuous
 62
     2
100
AcDbCircle
 10
-240.5154306269974
 20
-254.5900616034916
 30
0.0
 40
2.227384008973478
100
AcDbArc
 50
58.06909105004071
 51
71.55192388186722
  0
ARC
  5
464
102
{ACAD_REACTORS
330
4A2
330
4A3
102
}
330
71
100
AcDbEntity
  8
0
  6
Continuous
 62
     2
100
AcDbCircle
 10
-237.4534164914335
 20
-253.0228640599629
 30
0.0
 40
0.5179085730132998
100
AcDbArc
 50
38.12041979714704
 51
141.8795802028588
  0
ARC
  5
465
102
{ACAD_REACTORS
330
4A2
330
4A3
102
}
330
71
100
AcDbEntity
  8
0
  6
Continuous
 62
     2
100
AcDbCircle
 10
-237.2536764550874
 20
-253.1795952380834
 30
0.0
 40
0.7717997786794633
100
AcDbArc
 50
141.8795802028363
 51
218.1204197971687
  0
ARC
  5
466
102
{ACAD_REACTORS
330
4A2
330
4A3
102
}
330
71
100
AcDbEntity
  8
0
  6
Continuous
 62
     2
100
AcDbCircle
 10
-237.4534164914335
 20
-253.3363264162034
 30
0.0
 40
0.5179085730137354
100
AcDbArc
 50
218.1204197971931
 51
321.879580202801
  0
ARC
  5
467
102
{ACAD_REACTORS
330
4A2
330
4A3
102
}
330
71
100
AcDbEntity
  8
0
  6
Continuous
 62
     2
100
AcDbCircle
 10
-237.6531565277799
 20
-253.1795952380834
 30
0.0
 40
0.7717997786796947
100
AcDbArc
 50
321.8795802028417
 51
38.12041979715329
  0
CIRCLE
  5
468
330
71
100
AcDbEntity
  8
1
  6
Continuous
 62
     2
100
AcDbCircle
 10
-240.3081496401773
 20
-240.8750000000051
 30
0.0
 40
2.5
  0
CIRCLE
  5
469
330
71
100
AcDbEntity
  8
1
  6
Continuous
 62
     2
100
AcDbCircle
 10
-240.3081496401773
 20
-240.8750000000051
 30
0.0
 40
1.249999999999915
  0
CIRCLE
  5
46A
102
{ACAD_REACTORS
330
4A6
330
4A7
102
}
330
71
100
AcDbEntity
  8
0
  6
Continuous
 62
     2
100
AcDbCircle
 10
-245.764319374277
 20
-251.0366268437607
 30
0.0
 40
0.4709789327785074
  0
MTEXT
  5
46B
330
71
100
AcDbEntity
  8
1
 62
     3
100
AcDbMText
 10
-410.4949322139181
 20
-75.20869184470621
 30
0.0
 40
1.8
 41
0.0
 71
     7
 72
     1
  3
Weitergabe sowie Vervielf\U+00e4ltigung dieses Dokuments, Verwertung und \PMitteilung seines Inhalts sind verboten, soweit nicht ausdr\U+00fccklich gestattet. \PZuwiderhandlungen verpflichten zu Schadenersatz. Alle Rechte f\U+00fcr den Fall\Pder Pat
  1
ent-, Gebrauchsmuster- oder Designeintragung vorbehalten.
  7
CONVERTER_11
 73
     1
 44
0.99639855942377
  0
MTEXT
  5
46C
330
71
100
AcDbEntity
  8
1
 62
     3
100
AcDbMText
 10
-227.64182237513
 20
-75.20869184470621
 30
0.0
 40
1.8
 41
0.0
 71
     7
 72
     1
  3
Transfer or duplication of this document as well as the utilisation or\Pcommunication of its content are not permitted unless express consent\Pis granted. Violations give rise to claims for damages. All rights reserved\Pin case of patent, utility mo
  1
del or design patent registrations.
  7
CONVERTER_11
 73
     1
 44
0.99639855942377
  0
TEXT
  5
46D
330
71
100
AcDbEntity
  8
1
 62
     2
100
AcDbText
 10
-233.8448045267401
 20
-260.7590172149966
 30
0.0
 40
1.8
  1
of
 41
0.9
  7
CONVERTER_11
100
AcDbText
  0
TEXT
  5
46E
330
71
100
AcDbEntity
  8
1
 62
     2
100
AcDbText
 10
-252.0448045267399
 20
-260.7590172149967
 30
0.0
 40
1.8
  1
page
 41
0.9
  7
CONVERTER_11
100
AcDbText
  0
TEXT
  5
46F
330
71
100
AcDbEntity
  8
1
 62
     2
100
AcDbText
 10
-243.3985395563979
 20
-260.799248653807
 30
0.0
 40
1.8
  1
1
 41
0.9
  7
CONVERTER_11
100
AcDbText
  0
TEXT
  5
470
330
71
100
AcDbEntity
  8
1
 62
     2
100
AcDbText
 10
-228.6094957169264
 20
-260.7500000000051
 30
0.0
 40
1.8
  1
1
 41
0.9
  7
CONVERTER_11
100
AcDbText
  0
MTEXT
  5
472
330
71
100
AcDbEntity
  8
1
 62
     7
100
AcDbMText
 10
-170.0724022633644
 20
-258.7500000000048
 30
0.0
 40
3.0
 41
0.0
 71
     5
 72
     1
  1
RTO 3-TC BU
  7
CONVERTER_12
 73
     1
 44
1.20048019207683
  0
MTEXT
  5
473
330
71
100
AcDbEntity
  8
1
 62
     2
100
AcDbMText
 10
-215.64480452674
 20
-254.500000000005
 30
0.0
 40
1.8
 41
0.0
 71
     1
 72
     1
  1
description
  7
CONVERTER_11
 73
     1
 44
1.20048019207683
  0
MTEXT
  5
474
330
71
100
AcDbEntity
  8
1
 62
     3
100
AcDbMText
 10
-226.84480452674
 20
-240.875000000005
 30
0.0
 40
2.5
 41
0.0
 71
     5
 72
     1
  1
DIN A4
  7
CONVERTER_11
 73
     1
 44
1.20048019207683
  0
MTEXT
  5
475
330
71
100
AcDbEntity
  8
1
 62
     7
100
AcDbMText
 10
-412.999999999989
 20
-239.500000000005
 30
0.0
 40
3.5
 41
0.0
 71
     5
 72
     1
  1
D
  7
CONVERTER_11
 73
     1
 44
1.20048019207683
  0
MTEXT
  5
476
330
71
100
AcDbEntity
  8
1
 62
     7
100
AcDbMText
 10
-412.999999999989
 20
-187.000000000005
 30
0.0
 40
3.5
 41
0.0
 71
     5
 72
     1
  1
C
  7
CONVERTER_11
 73
     1
 44
1.20048019207683
  0
MTEXT
  5
477
330
71
100
AcDbEntity
  8
1
 62
     7
100
AcDbMText
 10
-412.999999999989
 20
-137.000000000005
 30
0.0
 40
3.5
 41
0.0
 71
     5
 72
     1
  1
B
  7
CONVERTER_11
 73
     1
 44
1.20048019207683
  0
MTEXT
  5
478
330
71
100
AcDbEntity
  8
1
 62
     7
100
AcDbMText
 10
-412.999999999989
 20
-84.500000000005
 30
0.0
 40
3.5
 41
0.0
 71
     5
 72
     1
  1
A
  7
CONVERTER_11
 73
     1
 44
1.20048019207683
  0
MTEXT
  5
479
330
71
100
AcDbEntity
  8
1
 62
     7
100
AcDbMText
 10
-142.7499999999907
 20
-264.5000000000051
 30
0.0
 40
3.5
 41
0.0
 71
     5
 72
     1
  1
6
  7
CONVERTER_11
 73
     1
 44
1.20048019207683
  0
MTEXT
  5
47A
330
71
100
AcDbEntity
  8
1
 62
     7
100
AcDbMText
 10
-191.9999999999899
 20
-264.5000000000051
 30
0.0
 40
3.5
 41
0.0
 71
     5
 72
     1
  1
5
  7
CONVERTER_11
 73
     1
 44
1.20048019207683
  0
MTEXT
  5
47B
330
71
100
AcDbEntity
  8
1
 62
     7
100
AcDbMText
 10
-241.99999999999
 20
-264.5000000000051
 30
0.0
 40
3.5
 41
0.0
 71
     5
 72
     1
  1
4
  7
CONVERTER_11
 73
     1
 44
1.20048019207683
  0
MTEXT
  5
47C
330
71
100
AcDbEntity
  8
1
 62
     7
100
AcDbMText
 10
-291.9999999999899
 20
-264.5000000000051
 30
0.0
 40
3.5
 41
0.0
 71
     5
 72
     1
  1
3
  7
CONVERTER_11
 73
     1
 44
1.20048019207683
  0
MTEXT
  5
47D
330
71
100
AcDbEntity
  8
1
 62
     7
100
AcDbMText
 10
-341.9999999999899
 20
-264.5000000000051
 30
0.0
 40
3.5
 41
0.0
 71
     5
 72
     1
  1
2
  7
CONVERTER_11
 73
     1
 44
1.20048019207683
  0
MTEXT
  5
47E
330
71
100
AcDbEntity
  8
1
 62
     7
100
AcDbMText
 10
-391.2499999999895
 20
-264.5000000000051
 30
0.0
 40
3.5
 41
0.0
 71
     5
 72
     1
  1
1
  7
CONVERTER_11
 73
     1
 44
1.20048019207683
  0
MTEXT
  5
47F
330
71
100
AcDbEntity
  8
1
 62
     7
100
AcDbMText
 10
-120.9999999999909
 20
-239.500000000005
 30
0.0
 40
3.5
 41
0.0
 71
     5
 72
     1
  1
D
  7
CONVERTER_11
 73
     1
 44
1.20048019207683
  0
MTEXT
  5
480
330
71
100
AcDbEntity
  8
1
 62
     7
100
AcDbMText
 10
-120.9999999999909
 20
-137.0000000000031
 30
0.0
 40
3.5
 41
0.0
 71
     5
 72
     1
  1
B
  7
CONVERTER_11
 73
     1
 44
1.20048019207683
  0
MTEXT
  5
481
330
71
100
AcDbEntity
  8
1
 62
     7
100
AcDbMText
 10
-120.9999999999909
 20
-84.500000000005
 30
0.0
 40
3.5
 41
0.0
 71
     5
 72
     1
  1
A
  7
CONVERTER_11
 73
     1
 44
1.20048019207683
  0
MTEXT
  5
482
330
71
100
AcDbEntity
  8
1
 62
     7
100
AcDbMText
 10
-120.9999999999909
 20
-187.0000000000031
 30
0.0
 40
3.5
 41
0.0
 71
     5
 72
     1
  1
C
  7
CONVERTER_11
 73
     1
 44
1.20048019207683
  0
MTEXT
  5
483
330
71
100
AcDbEntity
  8
1
 62
     2
100
AcDbMText
 10
-287.4828192517874
 20
-249.2500000000051
 30
0.0
 40
2.0
 41
0.0
 71
     5
 72
     1
  1
General Information\P- Simplified representation\P- Document excluded from change process\P- Linear dimensions [mm]
  7
CONVERTER_11
 73
     1
 44
1.20048019207683
  0
TEXT
  5
484
330
71
100
AcDbEntity
  8
1
 62
     7
100
AcDbText
 10
-215.1448045267402
 20
-252.2000000000051
 30
0.0
 40
2.5
  1
3049835
 41
0.81
  7
CONVERTER_12
100
AcDbText
  0
MTEXT
  5
485
330
71
100
AcDbEntity
  8
1
 62
     2
100
AcDbMText
 10
-215.5448045267399
 20
-246.000000000005
 30
0.0
 40
1.8
 41
0.0
 71
     1
 72
     1
  1
ident.-No.
  7
CONVERTER_11
 73
     1
 44
1.20048019207683
  0
MTEXT
  5
486
330
71
100
AcDbEntity
  8
1
 62
     2
100
AcDbMText
 10
-131.3184082816672
 20
-237.500000000005
 30
0.0
 40
1.8
 41
0.0
 71
     1
 72
     1
  1
scale
  7
CONVERTER_11
 73
     1
 44
1.20048019207683
  0
MTEXT
  5
488
330
71
100
AcDbEntity
  8
1
 62
     3
100
AcDbMText
 10
-127.9592041408276
 20
-243.7000000000049
 30
0.0
 40
2.5
 41
0.0
 71
     8
 72
     1
  1
1:1
  7
CONVERTER_13
 73
     1
 44
1.32052821128451
  0
TEXT
  5
489
330
71
100
AcDbEntity
  8
1
 62
     7
100
AcDbText
 10
-215.5448045267399
 20
-243.7000000000051
 30
0.0
 40
2.5
  1
01102115
 41
0.81
  7
CONVERTER_12
100
AcDbText
  0
MTEXT
  5
48B
330
71
100
AcDbEntity
  8
1
 62
     2
100
AcDbMText
 10
-215.5448045267399
 20
-237.500000000005
 30
0.0
 40
1.8
 41
0.0
 71
     1
 72
     1
  1
document-No. / RI
  7
CONVERTER_14
 73
     1
 44
1.32052821128451
  0
TEXT
  5
48C
330
71
100
AcDbEntity
  8
1
 62
     3
100
AcDbText
 10
-187.7448045267399
 20
-252.2000000000051
 30
0.0
 40
2.5
  1
 
 41
0.81
  7
CONVERTER_12
100
AcDbText
  0
MTEXT
  5
48D
330
71
100
AcDbEntity
  8
1
 62
     2
100
AcDbMText
 10
-187.7448045267399
 20
-246.0000000000051
 30
0.0
 40
1.8
 41
0.0
 71
     1
 72
     1
  1
document-type
  7
CONVERTER_11
 73
     1
 44
1.20048019207683
  0
MTEXT
  5
48E
330
71
100
AcDbEntity
  8
1
 62
     2
100
AcDbMText
 10
-157.918408281667
 20
-237.5000000000051
 30
0.0
 40
1.8
 41
0.0
 71
     1
 72
     1
  1
date
  7
CONVERTER_11
 73
     1
 44
1.32052821128451
  0
TEXT
  5
48F
330
71
100
AcDbEntity
  8
1
 62
     3
100
AcDbText
 10
-157.918408281667
 20
-243.7000000000051
 30
0.0
 40
2.5
  1
12.12.2017
 41
0.81
  7
CONVERTER_12
100
AcDbText
  0
TEXT
  5
490
330
71
100
AcDbEntity
  8
1
 62
     7
100
AcDbText
 10
-195.5148923076841
 20
-243.7000000000051
 30
0.0
 40
2.5
  1
00
 41
0.81
  7
CONVERTER_12
100
AcDbText
  0
TEXT
  5
491
330
71
100
AcDbEntity
  8
1
 62
     7
100
AcDbText
 10
-197.6712568047261
 20
-243.7000000000051
 30
0.0
 40
2.5
  1
/
 41
0.9
  7
CONVERTER_11
100
AcDbText
  0
HATCH
  5
492
330
71
100
AcDbEntity
  8
1
  6
Continuous
 62
     2
100
AcDbHatch
 10
0.0
 20
0.0
 30
0.0
210
0.0
220
0.0
230
1.0
  2
_USER
 70
     0
 71
     1
 91
        1
 92
        1
 93
       12
 72
     1
 10
-235.3773038137788
 20
-251.3473095238144
 11
-236.5700965159452
 21
-251.3473095238144
 72
     1
 10
-236.5700965159452
 20
-251.3473095238144
 11
-236.5700965159452
 21
-250.2130374149706
 72
     1
 10
-236.5700965159452
 20
-250.2130374149706
 11
-237.6197540938527
 21
-250.2130374149706
 72
     1
 10
-237.6197540938527
 20
-250.2130374149706
 11
-237.6197540938527
 21
-251.3473095238144
 72
     1
 10
-237.6197540938527
 20
-251.3473095238144
 11
-238.8125467960193
 21
-251.3473095238144
 72
     1
 10
-238.8125467960193
 20
-251.3473095238144
 11
-238.8125467960193
 21
-248.2935000000032
 72
     1
 10
-238.8125467960193
 20
-248.2935000000032
 11
-237.6197540938527
 21
-248.2935000000032
 72
     1
 10
-237.6197540938527
 20
-248.2935000000032
 11
-237.6197540938527
 21
-249.3623333333378
 72
     1
 10
-237.6197540938527
 20
-249.3623333333378
 11
-236.5700965159452
 21
-249.3623333333378
 72
     1
 10
-236.5700965159452
 20
-249.3623333333378
 11
-236.5700965159452
 21
-248.2935000000032
 72
     1
 10
-236.5700965159452
 20
-248.2935000000032
 11
-235.3773038137788
 21
-248.2935000000032
 72
     1
 10
-235.3773038137788
 20
-248.2935000000032
 11
-235.3773038137788
 21
-251.3473095238144
 97
       12
330
3FF
330
400
330
3EA
330
3E9
330
3E8
330
3FC
330
3E7
330
3FD
330
3FE
330
3E6
330
3E5
330
3E4
 75
     1
 76
     0
 52
45.0
 41
0.1
 77
     0
 78
     1
 53
45.0
 43
0.0
 44
0.0
 45
-0.0707106781186548
 46
0.0707106781186548
 79
     0
 98
        1
 10
0.0
 20
0.0
  0
HATCH
  5
493
330
71
100
AcDbEntity
  8
1
  6
Continuous
 62
     2
100
AcDbHatch
 10
0.0
 20
0.0
 30
0.0
210
0.0
220
0.0
230
1.0
  2
_USER
 70
     0
 71
     1
 91
        1
 92
        1
 93
       12
 72
     1
 10
-235.3773038137788
 20
-251.3473095238144
 11
-236.5700965159452
 21
-251.3473095238144
 72
     1
 10
-236.5700965159452
 20
-251.3473095238144
 11
-236.5700965159452
 21
-250.2130374149706
 72
     1
 10
-236.5700965159452
 20
-250.2130374149706
 11
-237.6197540938527
 21
-250.2130374149706
 72
     1
 10
-237.6197540938527
 20
-250.2130374149706
 11
-237.6197540938527
 21
-251.3473095238144
 72
     1
 10
-237.6197540938527
 20
-251.3473095238144
 11
-238.8125467960193
 21
-251.3473095238144
 72
     1
 10
-238.8125467960193
 20
-251.3473095238144
 11
-238.8125467960193
 21
-248.2935000000032
 72
     1
 10
-238.8125467960193
 20
-248.2935000000032
 11
-237.6197540938527
 21
-248.2935000000032
 72
     1
 10
-237.6197540938527
 20
-248.2935000000032
 11
-237.6197540938527
 21
-249.3623333333378
 72
     1
 10
-237.6197540938527
 20
-249.3623333333378
 11
-236.5700965159452
 21
-249.3623333333378
 72
     1
 10
-236.5700965159452
 20
-249.3623333333378
 11
-236.5700965159452
 21
-248.2935000000032
 72
     1
 10
-236.5700965159452
 20
-248.2935000000032
 11
-235.3773038137788
 21
-248.2935000000032
 72
     1
 10
-235.3773038137788
 20
-248.2935000000032
 11
-235.3773038137788
 21
-251.3473095238144
 97
       12
330
3FF
330
400
330
3EA
330
3E9
330
3E8
330
3FC
330
3E7
330
3FD
330
3FE
330
3E6
330
3E5
330
3E4
 75
     1
 76
     0
 52
45.0
 41
0.1
 77
     0
 78
     1
 53
45.0
 43
0.0
 44
0.0
 45
-0.0707106781186548
 46
0.0707106781186548
 79
     0
 98
        1
 10
0.0
 20
0.0
  0
HATCH
  5
494
330
71
100
AcDbEntity
  8
1
  6
Continuous
 62
     2
100
AcDbHatch
 10
0.0
 20
0.0
 30
0.0
210
0.0
220
0.0
230
1.0
  2
_USER
 70
     0
 71
     1
 91
        1
 92
        1
 93
       10
 72
     1
 10
-233.1350044645905
 20
-252.9614659863827
 11
-234.3755088748434
 21
-251.6526904761776
 72
     1
 10
-234.3755088748434
 20
-251.6526904761776
 11
-235.568301577011
 21
-251.6526904761776
 72
     1
 10
-235.568301577011
 20
-251.6526904761776
 11
-235.568301577011
 21
-254.7064999999887
 72
     1
 10
-235.568301577011
 20
-254.7064999999887
 11
-234.3755088748434
 21
-254.7064999999887
 72
     1
 10
-234.3755088748434
 20
-254.7064999999887
 11
-234.3755088748434
 21
-253.3977244897841
 72
     1
 10
-234.3755088748434
 20
-253.3977244897841
 11
-233.1350044645905
 21
-254.7064999999887
 72
     1
 10
-233.1350044645905
 20
-254.7064999999887
 11
-231.9422117624241
 21
-254.7064999999887
 72
     1
 10
-231.9422117624241
 20
-254.7064999999887
 11
-231.9422117624241
 21
-251.6526904761776
 72
     1
 10
-231.9422117624241
 20
-251.6526904761776
 11
-233.1350044645905
 21
-251.6526904761776
 72
     1
 10
-233.1350044645905
 20
-251.6526904761776
 11
-233.1350044645905
 21
-252.9614659863827
 97
       10
330
40D
330
3DD
330
3DC
330
3DF
330
408
330
409
330
3DE
330
40A
330
40B
330
40C
 75
     1
 76
     0
 52
45.0
 41
0.1
 77
     0
 78
     1
 53
45.0
 43
0.0
 44
0.0
 45
-0.0707106781186548
 46
0.0707106781186548
 79
     0
 98
        1
 10
0.0
 20
0.0
  0
HATCH
  5
495
330
71
100
AcDbEntity
  8
1
  6
Continuous
 62
     2
100
AcDbHatch
 10
0.0
 20
0.0
 30
0.0
210
0.0
220
0.0
230
1.0
  2
_USER
 70
     0
 71
     1
 91
        1
 92
        1
 93
       10
 72
     1
 10
-233.1350044645905
 20
-252.9614659863827
 11
-234.3755088748434
 21
-251.6526904761776
 72
     1
 10
-234.3755088748434
 20
-251.6526904761776
 11
-235.568301577011
 21
-251.6526904761776
 72
     1
 10
-235.568301577011
 20
-251.6526904761776
 11
-235.568301577011
 21
-254.7064999999887
 72
     1
 10
-235.568301577011
 20
-254.7064999999887
 11
-234.3755088748434
 21
-254.7064999999887
 72
     1
 10
-234.3755088748434
 20
-254.7064999999887
 11
-234.3755088748434
 21
-253.3977244897841
 72
     1
 10
-234.3755088748434
 20
-253.3977244897841
 11
-233.1350044645905
 21
-254.7064999999887
 72
     1
 10
-233.1350044645905
 20
-254.7064999999887
 11
-231.9422117624241
 21
-254.7064999999887
 72
     1
 10
-231.9422117624241
 20
-254.7064999999887
 11
-231.9422117624241
 21
-251.6526904761776
 72
     1
 10
-231.9422117624241
 20
-251.6526904761776
 11
-233.1350044645905
 21
-251.6526904761776
 72
     1
 10
-233.1350044645905
 20
-251.6526904761776
 11
-233.1350044645905
 21
-252.9614659863827
 97
       10
330
40D
330
3DD
330
3DC
330
3DF
330
408
330
409
330
3DE
330
40A
330
40B
330
40C
 75
     1
 76
     0
 52
45.0
 41
0.1
 77
     0
 78
     1
 53
45.0
 43
0.0
 44
0.0
 45
-0.0707106781186548
 46
0.0707106781186548
 79
     0
 98
        1
 10
0.0
 20
0.0
  0
HATCH
  5
496
330
71
100
AcDbEntity
  8
1
  6
Continuous
 62
     2
100
AcDbHatch
 10
0.0
 20
0.0
 30
0.0
210
0.0
220
0.0
230
1.0
  2
_USER
 70
     0
 71
     1
 91
        1
 92
        1
 93
       10
 72
     1
 10
-227.8865656441708
 20
-249.6022755102084
 11
-229.1270700544248
 21
-248.2935000000032
 72
     1
 10
-229.1270700544248
 20
-248.2935000000032
 11
-230.3198627565913
 21
-248.2935000000032
 72
     1
 10
-230.3198627565913
 20
-248.2935000000032
 11
-230.3198627565913
 21
-251.3473095238144
 72
     1
 10
-230.3198627565913
 20
-251.3473095238144
 11
-229.1270700544248
 21
-251.3473095238144
 72
     1
 10
-229.1270700544248
 20
-251.3473095238144
 11
-229.1270700544248
 21
-250.0385340136097
 72
     1
 10
-229.1270700544248
 20
-250.0385340136097
 11
-227.8865656441708
 21
-251.3473095238144
 72
     1
 10
-227.8865656441708
 20
-251.3473095238144
 11
-226.6937729420042
 21
-251.3473095238144
 72
     1
 10
-226.6937729420042
 20
-251.3473095238144
 11
-226.6937729420042
 21
-248.2935000000032
 72
     1
 10
-226.6937729420042
 20
-248.2935000000032
 11
-227.8865656441708
 21
-248.2935000000032
 72
     1
 10
-227.8865656441708
 20
-248.2935000000032
 11
-227.8865656441708
 21
-249.6022755102084
 97
       10
330
412
330
3DA
330
3D9
330
413
330
3D8
330
40E
330
40F
330
410
330
411
330
3DB
 75
     1
 76
     0
 52
45.0
 41
0.1
 77
     0
 78
     1
 53
45.0
 43
0.0
 44
0.0
 45
-0.0707106781186548
 46
0.0707106781186548
 79
     0
 98
        1
 10
0.0
 20
0.0
  0
HATCH
  5
497
330
71
100
AcDbEntity
  8
1
  6
Continuous
 62
     2
100
AcDbHatch
 10
0.0
 20
0.0
 30
0.0
210
0.0
220
0.0
230
1.0
  2
_USER
 70
     0
 71
     1
 91
        1
 92
        1
 93
       10
 72
     1
 10
-227.8865656441708
 20
-249.6022755102084
 11
-229.1270700544248
 21
-248.2935000000032
 72
     1
 10
-229.1270700544248
 20
-248.2935000000032
 11
-230.3198627565913
 21
-248.2935000000032
 72
     1
 10
-230.3198627565913
 20
-248.2935000000032
 11
-230.3198627565913
 21
-251.3473095238144
 72
     1
 10
-230.3198627565913
 20
-251.3473095238144
 11
-229.1270700544248
 21
-251.3473095238144
 72
     1
 10
-229.1270700544248
 20
-251.3473095238144
 11
-229.1270700544248
 21
-250.0385340136097
 72
     1
 10
-229.1270700544248
 20
-250.0385340136097
 11
-227.8865656441708
 21
-251.3473095238144
 72
     1
 10
-227.8865656441708
 20
-251.3473095238144
 11
-226.6937729420042
 21
-251.3473095238144
 72
     1
 10
-226.6937729420042
 20
-251.3473095238144
 11
-226.6937729420042
 21
-248.2935000000032
 72
     1
 10
-226.6937729420042
 20
-248.2935000000032
 11
-227.8865656441708
 21
-248.2935000000032
 72
     1
 10
-227.8865656441708
 20
-248.2935000000032
 11
-227.8865656441708
 21
-249.6022755102084
 97
       10
330
412
330
3DA
330
3D9
330
413
330
3D8
330
40E
330
40F
330
410
330
411
330
3DB
 75
     1
 76
     0
 52
45.0
 41
0.1
 77
     0
 78
     1
 53
45.0
 43
0.0
 44
0.0
 45
-0.0707106781186548
 46
0.0707106781186548
 79
     0
 98
        1
 10
0.0
 20
0.0
  0
HATCH
  5
498
330
71
100
AcDbEntity
  8
1
  6
Continuous
 62
     2
100
AcDbHatch
 10
0.0
 20
0.0
 30
0.0
210
0.0
220
0.0
230
1.0
  2
_USER
 70
     0
 71
     1
 91
        1
 92
        1
 93
        8
 72
     1
 10
-228.9840858610503
 20
-251.6526904761776
 11
-231.7990766381639
 21
-251.6526904761776
 72
     1
 10
-231.7990766381639
 20
-251.6526904761776
 11
-231.7990766381639
 21
-252.4379557823012
 72
     1
 10
-231.7990766381639
 20
-252.4379557823012
 11
-230.9879776006893
 21
-252.4379557823012
 72
     1
 10
-230.9879776006893
 20
-252.4379557823012
 11
-230.9879776006893
 21
-254.7064999999887
 72
     1
 10
-230.9879776006893
 20
-254.7064999999887
 11
-229.7951848985228
 21
-254.7064999999887
 72
     1
 10
-229.7951848985228
 20
-254.7064999999887
 11
-229.7951848985228
 21
-252.4379557823012
 72
     1
 10
-229.7951848985228
 20
-252.4379557823012
 11
-228.9840858610503
 21
-252.4379557823012
 72
     1
 10
-228.9840858610503
 20
-252.4379557823012
 11
-228.9840858610503
 21
-251.6526904761776
 97
        8
330
3D4
330
414
330
3D3
330
415
330
416
330
3D7
330
3D6
330
3D5
 75
     1
 76
     0
 52
45.0
 41
0.1
 77
     0
 78
     1
 53
45.0
 43
0.0
 44
0.0
 45
-0.0707106781186548
 46
0.0707106781186548
 79
     0
 98
        1
 10
0.0
 20
0.0
  0
HATCH
  5
499
330
71
100
AcDbEntity
  8
1
  6
Continuous
 62
     2
100
AcDbHatch
 10
0.0
 20
0.0
 30
0.0
210
0.0
220
0.0
230
1.0
  2
_USER
 70
     0
 71
     1
 91
        1
 92
        1
 93
        8
 72
     1
 10
-228.9840858610503
 20
-251.6526904761776
 11
-231.7990766381639
 21
-251.6526904761776
 72
     1
 10
-231.7990766381639
 20
-251.6526904761776
 11
-231.7990766381639
 21
-252.4379557823012
 72
     1
 10
-231.7990766381639
 20
-252.4379557823012
 11
-230.9879776006893
 21
-252.4379557823012
 72
     1
 10
-230.9879776006893
 20
-252.4379557823012
 11
-230.9879776006893
 21
-254.7064999999887
 72
     1
 10
-230.9879776006893
 20
-254.7064999999887
 11
-229.7951848985228
 21
-254.7064999999887
 72
     1
 10
-229.7951848985228
 20
-254.7064999999887
 11
-229.7951848985228
 21
-252.4379557823012
 72
     1
 10
-229.7951848985228
 20
-252.4379557823012
 11
-228.9840858610503
 21
-252.4379557823012
 72
     1
 10
-228.9840858610503
 20
-252.4379557823012
 11
-228.9840858610503
 21
-251.6526904761776
 97
        8
330
3D4
330
414
330
3D3
330
415
330
416
330
3D7
330
3D6
330
3D5
 75
     1
 76
     0
 52
45.0
 41
0.1
 77
     0
 78
     1
 53
45.0
 43
0.0
 44
0.0
 45
-0.0707106781186548
 46
0.0707106781186548
 79
     0
 98
        1
 10
0.0
 20
0.0
  0
HATCH
  5
49A
330
71
100
AcDbEntity
  8
1
  6
Continuous
 62
     2
100
AcDbHatch
 10
0.0
 20
0.0
 30
0.0
210
0.0
220
0.0
230
1.0
  2
_USER
 70
     0
 71
     1
 91
        2
 92
        1
 93
        8
 72
     1
 10
-226.8456584051033
 20
-254.7064999999887
 11
-227.0571384585791
 21
-254.1655394557708
 72
     1
 10
-227.0571384585791
 20
-254.1655394557708
 11
-228.1895800352529
 21
-254.1655394557708
 72
     1
 10
-228.1895800352529
 20
-254.1655394557708
 11
-228.4010600887287
 21
-254.7064999999887
 72
     1
 10
-228.4010600887287
 20
-254.7064999999887
 11
-229.6415644989817
 21
-254.7064999999887
 72
     1
 10
-229.6415644989817
 20
-254.7064999999887
 11
-228.2436114520424
 21
-251.6526904761776
 72
     1
 10
-228.2436114520424
 20
-251.6526904761776
 11
-227.0031070417897
 21
-251.6526904761776
 72
     1
 10
-227.0031070417897
 20
-251.6526904761776
 11
-225.6051539948494
 21
-254.7064999999887
 72
     1
 10
-225.6051539948494
 20
-254.7064999999887
 11
-226.8456584051033
 21
-254.7064999999887
 97
        8
330
418
330
419
330
3D0
330
41A
330
3CF
330
3D2
330
417
330
3D1
 92
       16
 93
        3
 72
     1
 10
-227.9235244841079
 20
-253.4849761904642
 11
-227.6233592469155
 21
-252.7171612244775
 72
     1
 10
-227.6233592469155
 20
-252.7171612244775
 11
-227.3231940097254
 21
-253.4849761904642
 72
     1
 10
-227.3231940097254
 20
-253.4849761904642
 11
-227.9235244841079
 21
-253.4849761904642
 97
        3
330
3CE
330
41C
330
41B
 75
     1
 76
     0
 52
45.0
 41
0.1
 77
     0
 78
     1
 53
45.0
 43
0.0
 44
0.0
 45
-0.0707106781186548
 46
0.0707106781186548
 79
     0
 98
        1
 10
0.0
 20
0.0
  0
HATCH
  5
49B
330
71
100
AcDbEntity
  8
1
  6
Continuous
 62
     2
100
AcDbHatch
 10
0.0
 20
0.0
 30
0.0
210
0.0
220
0.0
230
1.0
  2
_USER
 70
     0
 71
     1
 91
        2
 92
        1
 93
        8
 72
     1
 10
-226.8456584051033
 20
-254.7064999999887
 11
-227.0571384585791
 21
-254.1655394557708
 72
     1
 10
-227.0571384585791
 20
-254.1655394557708
 11
-228.1895800352529
 21
-254.1655394557708
 72
     1
 10
-228.1895800352529
 20
-254.1655394557708
 11
-228.4010600887287
 21
-254.7064999999887
 72
     1
 10
-228.4010600887287
 20
-254.7064999999887
 11
-229.6415644989817
 21
-254.7064999999887
 72
     1
 10
-229.6415644989817
 20
-254.7064999999887
 11
-228.2436114520424
 21
-251.6526904761776
 72
     1
 10
-228.2436114520424
 20
-251.6526904761776
 11
-227.0031070417897
 21
-251.6526904761776
 72
     1
 10
-227.0031070417897
 20
-251.6526904761776
 11
-225.6051539948494
 21
-254.7064999999887
 72
     1
 10
-225.6051539948494
 20
-254.7064999999887
 11
-226.8456584051033
 21
-254.7064999999887
 97
        8
330
418
330
419
330
3D0
330
41A
330
3CF
330
3D2
330
417
330
3D1
 92
       16
 93
        3
 72
     1
 10
-227.9235244841079
 20
-253.4849761904642
 11
-227.6233592469155
 21
-252.7171612244775
 72
     1
 10
-227.6233592469155
 20
-252.7171612244775
 11
-227.3231940097254
 21
-253.4849761904642
 72
     1
 10
-227.3231940097254
 20
-253.4849761904642
 11
-227.9235244841079
 21
-253.4849761904642
 97
        3
330
3CE
330
41C
330
41B
 75
     1
 76
     0
 52
45.0
 41
0.1
 77
     0
 78
     1
 53
45.0
 43
0.0
 44
0.0
 45
-0.0707106781186548
 46
0.0707106781186548
 79
     0
 98
        1
 10
0.0
 20
0.0
  0
HATCH
  5
49C
330
71
100
AcDbEntity
  8
1
  6
Continuous
 62
     2
100
AcDbHatch
 10
0.0
 20
0.0
 30
0.0
210
0.0
220
0.0
230
1.0
  2
_USER
 70
     0
 71
     1
 91
        1
 92
        1
 93
        4
 72
     1
 10
-225.2147099913174
 20
-251.3473095238144
 11
-226.4552144015703
 21
-251.3473095238144
 72
     1
 10
-226.4552144015703
 20
-251.3473095238144
 11
-226.4552144015703
 21
-248.2935000000032
 72
     1
 10
-226.4552144015703
 20
-248.2935000000032
 11
-225.2147099913174
 21
-248.2935000000032
 72
     1
 10
-225.2147099913174
 20
-248.2935000000032
 11
-225.2147099913174
 21
-251.3473095238144
 97
        4
330
3CB
330
3CD
330
41D
330
3CC
 75
     1
 76
     0
 52
45.0
 41
0.1
 77
     0
 78
     1
 53
45.0
 43
0.0
 44
0.0
 45
-0.0707106781186548
 46
0.0707106781186548
 79
     0
 98
        1
 10
0.0
 20
0.0
  0
HATCH
  5
49D
330
71
100
AcDbEntity
  8
1
  6
Continuous
 62
     2
100
AcDbHatch
 10
0.0
 20
0.0
 30
0.0
210
0.0
220
0.0
230
1.0
  2
_USER
 70
     0
 71
     1
 91
        1
 92
        1
 93
        4
 72
     1
 10
-225.2147099913174
 20
-251.3473095238144
 11
-226.4552144015703
 21
-251.3473095238144
 72
     1
 10
-226.4552144015703
 20
-251.3473095238144
 11
-226.4552144015703
 21
-248.2935000000032
 72
     1
 10
-226.4552144015703
 20
-248.2935000000032
 11
-225.2147099913174
 21
-248.2935000000032
 72
     1
 10
-225.2147099913174
 20
-248.2935000000032
 11
-225.2147099913174
 21
-251.3473095238144
 97
        4
330
3CB
330
3CD
330
41D
330
3CC
 75
     1
 76
     0
 52
45.0
 41
0.1
 77
     0
 78
     1
 53
45.0
 43
0.0
 44
0.0
 45
-0.0707106781186548
 46
0.0707106781186548
 79
     0
 98
        1
 10
0.0
 20
0.0
  0
HATCH
  5
49E
330
71
100
AcDbEntity
  8
1
  6
Continuous
 62
     2
100
AcDbHatch
 10
0.0
 20
0.0
 30
0.0
210
0.0
220
0.0
230
1.0
  2
_USER
 70
     0
 71
     1
 91
        1
 92
        1
 93
       12
 72
     1
 10
-220.9922238256466
 20
-248.2935000000032
 11
-222.2947534564131
 21
-249.7664505300394
 72
     1
 10
-222.2947534564131
 20
-249.7664505300394
 11
-220.8968004094728
 21
-251.3473095238144
 72
     1
 10
-220.8968004094728
 20
-251.3473095238144
 11
-222.2995246272211
 21
-251.3473095238144
 72
     1
 10
-222.2995246272211
 20
-251.3473095238144
 11
-222.9961155652866
 21
-250.5595777385207
 72
     1
 10
-222.9961155652866
 20
-250.5595777385207
 11
-223.6927065033523
 21
-251.3473095238144
 72
     1
 10
-223.6927065033523
 20
-251.3473095238144
 11
-225.0954307211005
 21
-251.3473095238144
 72
     1
 10
-225.0954307211005
 20
-251.3473095238144
 11
-223.6974776741602
 21
-249.7664505300394
 72
     1
 10
-223.6974776741602
 20
-249.7664505300394
 11
-225.0000073049277
 21
-248.2935000000032
 72
     1
 10
-225.0000073049277
 20
-248.2935000000032
 11
-223.5972830871784
 21
-248.2935000000032
 72
     1
 10
-223.5972830871784
 20
-248.2935000000032
 11
-222.9961155652866
 21
-248.9733233215587
 72
     1
 10
-222.9961155652866
 20
-248.9733233215587
 11
-222.3949480433938
 21
-248.2935000000032
 72
     1
 10
-222.3949480433938
 20
-248.2935000000032
 11
-220.9922238256466
 21
-248.2935000000032
 97
       12
330
3C6
330
3C5
330
3C4
330
421
330
422
330
41E
330
41F
330
3CA
330
3C9
330
3C8
330
3C7
330
420
 75
     1
 76
     0
 52
45.0
 41
0.1
 77
     0
 78
     1
 53
45.0
 43
0.0
 44
0.0
 45
-0.0707106781186548
 46
0.0707106781186548
 79
     0
 98
        1
 10
0.0
 20
0.0
  0
HATCH
  5
49F
330
71
100
AcDbEntity
  8
1
  6
Continuous
 62
     2
100
AcDbHatch
 10
0.0
 20
0.0
 30
0.0
210
0.0
220
0.0
230
1.0
  2
_USER
 70
     0
 71
     1
 91
        1
 92
        1
 93
       12
 72
     1
 10
-220.9922238256466
 20
-248.2935000000032
 11
-222.2947534564131
 21
-249.7664505300394
 72
     1
 10
-222.2947534564131
 20
-249.7664505300394
 11
-220.8968004094728
 21
-251.3473095238144
 72
     1
 10
-220.8968004094728
 20
-251.3473095238144
 11
-222.2995246272211
 21
-251.3473095238144
 72
     1
 10
-222.2995246272211
 20
-251.3473095238144
 11
-222.9961155652866
 21
-250.5595777385207
 72
     1
 10
-222.9961155652866
 20
-250.5595777385207
 11
-223.6927065033523
 21
-251.3473095238144
 72
     1
 10
-223.6927065033523
 20
-251.3473095238144
 11
-225.0954307211005
 21
-251.3473095238144
 72
     1
 10
-225.0954307211005
 20
-251.3473095238144
 11
-223.6974776741602
 21
-249.7664505300394
 72
     1
 10
-223.6974776741602
 20
-249.7664505300394
 11
-225.0000073049277
 21
-248.2935000000032
 72
     1
 10
-225.0000073049277
 20
-248.2935000000032
 11
-223.5972830871784
 21
-248.2935000000032
 72
     1
 10
-223.5972830871784
 20
-248.2935000000032
 11
-222.9961155652866
 21
-248.9733233215587
 72
     1
 10
-222.9961155652866
 20
-248.9733233215587
 11
-222.3949480433938
 21
-248.2935000000032
 72
     1
 10
-222.3949480433938
 20
-248.2935000000032
 11
-220.9922238256466
 21
-248.2935000000032
 97
       12
330
3C6
330
3C5
330
3C4
330
421
330
422
330
41E
330
41F
330
3CA
330
3C9
330
3C8
330
3C7
330
420
 75
     1
 76
     0
 52
45.0
 41
0.1
 77
     0
 78
     1
 53
45.0
 43
0.0
 44
0.0
 45
-0.0707106781186548
 46
0.0707106781186548
 79
     0
 98
        1
 10
0.0
 20
0.0
  0
HATCH
  5
4A0
330
71
100
AcDbEntity
  8
1
  6
Continuous
 62
     2
100
AcDbHatch
 10
0.0
 20
0.0
 30
0.0
210
0.0
220
0.0
230
1.0
  2
_USER
 70
     0
 71
     1
 91
        2
 92
        1
 93
        6
 72
     1
 10
-240.0099592397926
 20
-250.4042312826706
 11
-240.7687268275729
 21
-250.4042312826706
 72
     1
 10
-240.7687268275729
 20
-250.4042312826706
 11
-240.7687268275729
 21
-251.3473095238144
 72
     1
 10
-240.7687268275729
 20
-251.3473095238144
 11
-242.009231237827
 21
-251.3473095238144
 72
     1
 10
-242.009231237827
 20
-251.3473095238144
 11
-242.009231237827
 21
-248.2935000000032
 72
     1
 10
-242.009231237827
 20
-248.2935000000032
 11
-240.0099592397926
 21
-248.2935000000032
 72
     2
 10
-240.0099592397926
 20
-249.3488656413369
 40
1.055365641333708
 50
270.0
 51
450.0
 73
     0
 97
        6
330
3EE
330
3ED
330
3FA
330
3F9
330
3EF
330
43F
 92
       16
 93
        4
 72
     2
 10
-240.451431766031
 20
-249.3094696701144
 40
0.3528638246711182
 50
270.0
 51
450.0
 73
     1
 72
     1
 10
-240.451431766031
 20
-248.9566058454433
 11
-240.7687268275729
 21
-248.9566058454433
 72
     1
 10
-240.7687268275729
 20
-248.9566058454433
 11
-240.7687268275729
 21
-249.6623334947855
 72
     1
 10
-240.7687268275729
 20
-249.6623334947855
 11
-240.451431766031
 21
-249.6623334947855
 97
        4
330
453
330
3EB
330
3FB
330
3EC
 75
     1
 76
     0
 52
45.0
 41
0.1
 77
     0
 78
     1
 53
45.0
 43
0.0
 44
0.0
 45
-0.0707106781186548
 46
0.0707106781186548
 79
     0
 98
        1
 10
0.0
 20
0.0
  0
HATCH
  5
4A1
330
71
100
AcDbEntity
  8
1
  6
Continuous
 62
     2
100
AcDbHatch
 10
0.0
 20
0.0
 30
0.0
210
0.0
220
0.0
230
1.0
  2
_USER
 70
     0
 71
     1
 91
        2
 92
        1
 93
        6
 72
     1
 10
-240.0099592397926
 20
-250.4042312826706
 11
-240.7687268275729
 21
-250.4042312826706
 72
     1
 10
-240.7687268275729
 20
-250.4042312826706
 11
-240.7687268275729
 21
-251.3473095238144
 72
     1
 10
-240.7687268275729
 20
-251.3473095238144
 11
-242.009231237827
 21
-251.3473095238144
 72
     1
 10
-242.009231237827
 20
-251.3473095238144
 11
-242.009231237827
 21
-248.2935000000032
 72
     1
 10
-242.009231237827
 20
-248.2935000000032
 11
-240.0099592397926
 21
-248.2935000000032
 72
     2
 10
-240.0099592397926
 20
-249.3488656413369
 40
1.055365641333708
 50
270.0
 51
450.0
 73
     0
 97
        6
330
3EE
330
3ED
330
3FA
330
3F9
330
3EF
330
43F
 92
       16
 93
        4
 72
     2
 10
-240.451431766031
 20
-249.3094696701144
 40
0.3528638246711182
 50
270.0
 51
450.0
 73
     1
 72
     1
 10
-240.451431766031
 20
-248.9566058454433
 11
-240.7687268275729
 21
-248.9566058454433
 72
     1
 10
-240.7687268275729
 20
-248.9566058454433
 11
-240.7687268275729
 21
-249.6623334947855
 72
     1
 10
-240.7687268275729
 20
-249.6623334947855
 11
-240.451431766031
 21
-249.6623334947855
 97
        4
330
453
330
3EB
330
3FB
330
3EC
 75
     1
 76
     0
 52
45.0
 41
0.1
 77
     0
 78
     1
 53
45.0
 43
0.0
 44
0.0
 45
-0.0707106781186548
 46
0.0707106781186548
 79
     0
 98
        1
 10
0.0
 20
0.0
  0
HATCH
  5
4A2
330
71
100
AcDbEntity
  8
1
  6
Continuous
 62
     2
100
AcDbHatch
 10
0.0
 20
0.0
 30
0.0
210
0.0
220
0.0
230
1.0
  2
_USER
 70
     0
 71
     1
 91
        2
 92
        1
 93
        4
 72
     2
 10
-237.4534164914335
 20
-253.7181702483862
 40
2.065479772208568
 50
62.45185182430637
 51
117.5481481756664
 73
     1
 72
     2
 10
-237.7343563832668
 20
-253.1795952380834
 40
1.45803408365149
 50
117.5481481756624
 51
242.4518518243375
 73
     1
 72
     2
 10
-237.4534164914335
 20
-252.6410202277801
 40
2.065479772208509
 50
242.4518518243402
 51
297.5481481756871
 73
     1
 72
     2
 10
-237.1724765996002
 20
-253.1795952380834
 40
1.458034083652003
 50
297.548148175701
 51
422.451851824299
 73
     1
 97
        4
330
44B
330
44A
330
44C
330
449
 92
       16
 93
        4
 72
     2
 10
-237.6531565277799
 20
-253.1795952380834
 40
0.7717997786796947
 50
321.8795802028417
 51
398.1204197971533
 73
     1
 72
     2
 10
-237.4534164914335
 20
-253.0228640599629
 40
0.5179085730132998
 50
38.12041979714704
 51
141.8795802028588
 73
     1
 72
     2
 10
-237.2536764550874
 20
-253.1795952380834
 40
0.7717997786794633
 50
141.8795802028363
 51
218.1204197971687
 73
     1
 72
     2
 10
-237.4534164914335
 20
-253.3363264162034
 40
0.5179085730137354
 50
218.1204197971931
 51
321.879580202801
 73
     1
 97
        4
330
467
330
464
330
465
330
466
 75
     1
 76
     0
 52
45.0
 41
0.1
 77
     0
 78
     1
 53
45.0
 43
0.0
 44
0.0
 45
-0.0707106781186548
 46
0.0707106781186548
 79
     0
 98
        1
 10
0.0
 20
0.0
  0
HATCH
  5
4A3
330
71
100
AcDbEntity
  8
1
  6
Continuous
 62
     2
100
AcDbHatch
 10
0.0
 20
0.0
 30
0.0
210
0.0
220
0.0
230
1.0
  2
_USER
 70
     0
 71
     1
 91
        2
 92
        1
 93
        4
 72
     2
 10
-237.4534164914335
 20
-253.7181702483862
 40
2.065479772208568
 50
62.45185182430637
 51
117.5481481756664
 73
     1
 72
     2
 10
-237.7343563832668
 20
-253.1795952380834
 40
1.45803408365149
 50
117.5481481756624
 51
242.4518518243375
 73
     1
 72
     2
 10
-237.4534164914335
 20
-252.6410202277801
 40
2.065479772208509
 50
242.4518518243402
 51
297.5481481756871
 73
     1
 72
     2
 10
-237.1724765996002
 20
-253.1795952380834
 40
1.458034083652003
 50
297.548148175701
 51
422.451851824299
 73
     1
 97
        4
330
44B
330
44A
330
44C
330
449
 92
       16
 93
        4
 72
     2
 10
-237.6531565277799
 20
-253.1795952380834
 40
0.7717997786796947
 50
321.8795802028417
 51
398.1204197971533
 73
     1
 72
     2
 10
-237.4534164914335
 20
-253.0228640599629
 40
0.5179085730132998
 50
38.12041979714704
 51
141.8795802028588
 73
     1
 72
     2
 10
-237.2536764550874
 20
-253.1795952380834
 40
0.7717997786794633
 50
141.8795802028363
 51
218.1204197971687
 73
     1
 72
     2
 10
-237.4534164914335
 20
-253.3363264162034
 40
0.5179085730137354
 50
218.1204197971931
 51
321.879580202801
 73
     1
 97
        4
330
467
330
464
330
465
330
466
 75
     1
 76
     0
 52
45.0
 41
0.1
 77
     0
 78
     1
 53
45.0
 43
0.0
 44
0.0
 45
-0.0707106781186548
 46
0.0707106781186548
 79
     0
 98
        1
 10
0.0
 20
0.0
  0
HATCH
  5
4A4
330
71
100
AcDbEntity
  8
1
  6
Continuous
 62
     2
100
AcDbHatch
 10
0.0
 20
0.0
 30
0.0
210
0.0
220
0.0
230
1.0
  2
_USER
 70
     0
 71
     1
 91
        2
 92
        1
 93
       12
 72
     1
 10
-230.5584212970242
 20
-248.9915136054462
 11
-231.8943491234519
 21
-248.9915136054462
 72
     1
 10
-231.8943491234519
 20
-248.9915136054462
 11
-231.8943491234519
 21
-249.4713979591879
 72
     1
 10
-231.8943491234519
 20
-249.4713979591879
 11
-230.5584212970242
 21
-249.4713979591879
 72
     1
 10
-230.5584212970242
 20
-249.4713979591879
 11
-230.5584212970242
 21
-250.1694115646302
 72
     1
 10
-230.5584212970242
 20
-250.1694115646302
 11
-231.8943491234519
 21
-250.1694115646302
 72
     1
 10
-231.8943491234519
 20
-250.1694115646302
 11
-231.8943491234519
 21
-250.6492959183719
 72
     1
 10
-231.8943491234519
 20
-250.6492959183719
 11
-230.5584212970242
 21
-250.6492959183719
 72
     1
 10
-230.5584212970242
 20
-250.6492959183719
 11
-230.5584212970242
 21
-251.3473095238144
 72
     1
 10
-230.5584212970242
 20
-251.3473095238144
 11
-233.7087410208052
 21
-251.3473095238144
 72
     2
 10
-233.7087410208052
 20
-249.8204047619091
 40
1.526904761905882
 50
90.0
 51
270.0
 73
     0
 72
     1
 10
-233.7087410208052
 20
-248.2935000000032
 11
-230.5584212970242
 21
-248.2935000000032
 72
     1
 10
-230.5584212970242
 20
-248.2935000000032
 11
-230.5584212970242
 21
-248.9915136054462
 97
       12
330
402
330
454
330
403
330
404
330
405
330
406
330
3E3
330
3E2
330
3E1
330
3E0
330
407
330
401
 92
       16
 93
        4
 72
     2
 10
-233.49246901064
 20
-249.6636735837886
 40
0.5179085730135266
 50
38.12041979714334
 51
141.8795802028489
 73
     1
 72
     2
 10
-233.2927289742937
 20
-249.8204047619091
 40
0.7717997786796724
 50
141.8795802028404
 51
218.1204197971562
 73
     1
 72
     2
 10
-233.49246901064
 20
-249.9771359400295
 40
0.5179085730134372
 50
218.1204197971511
 51
321.8795802028566
 73
     1
 72
     2
 10
-233.6922090469862
 20
-249.8204047619091
 40
0.7717997786796373
 50
321.8795802028437
 51
398.1204197971596
 73
     1
 97
        4
330
44E
330
44D
330
448
330
447
 75
     1
 76
     0
 52
45.0
 41
0.1
 77
     0
 78
     1
 53
45.0
 43
0.0
 44
0.0
 45
-0.0707106781186548
 46
0.0707106781186548
 79
     0
 98
        1
 10
0.0
 20
0.0
  0
HATCH
  5
4A5
330
71
100
AcDbEntity
  8
1
  6
Continuous
 62
     2
100
AcDbHatch
 10
0.0
 20
0.0
 30
0.0
210
0.0
220
0.0
230
1.0
  2
_USER
 70
     0
 71
     1
 91
        2
 92
        1
 93
       12
 72
     1
 10
-230.5584212970242
 20
-248.9915136054462
 11
-231.8943491234519
 21
-248.9915136054462
 72
     1
 10
-231.8943491234519
 20
-248.9915136054462
 11
-231.8943491234519
 21
-249.4713979591879
 72
     1
 10
-231.8943491234519
 20
-249.4713979591879
 11
-230.5584212970242
 21
-249.4713979591879
 72
     1
 10
-230.5584212970242
 20
-249.4713979591879
 11
-230.5584212970242
 21
-250.1694115646302
 72
     1
 10
-230.5584212970242
 20
-250.1694115646302
 11
-231.8943491234519
 21
-250.1694115646302
 72
     1
 10
-231.8943491234519
 20
-250.1694115646302
 11
-231.8943491234519
 21
-250.6492959183719
 72
     1
 10
-231.8943491234519
 20
-250.6492959183719
 11
-230.5584212970242
 21
-250.6492959183719
 72
     1
 10
-230.5584212970242
 20
-250.6492959183719
 11
-230.5584212970242
 21
-251.3473095238144
 72
     1
 10
-230.5584212970242
 20
-251.3473095238144
 11
-233.7087410208052
 21
-251.3473095238144
 72
     2
 10
-233.7087410208052
 20
-249.8204047619091
 40
1.526904761905882
 50
90.0
 51
270.0
 73
     0
 72
     1
 10
-233.7087410208052
 20
-248.2935000000032
 11
-230.5584212970242
 21
-248.2935000000032
 72
     1
 10
-230.5584212970242
 20
-248.2935000000032
 11
-230.5584212970242
 21
-248.9915136054462
 97
       12
330
402
330
454
330
403
330
404
330
405
330
406
330
3E3
330
3E2
330
3E1
330
3E0
330
407
330
401
 92
       16
 93
        4
 72
     2
 10
-233.49246901064
 20
-249.6636735837886
 40
0.5179085730135266
 50
38.12041979714334
 51
141.8795802028489
 73
     1
 72
     2
 10
-233.2927289742937
 20
-249.8204047619091
 40
0.7717997786796724
 50
141.8795802028404
 51
218.1204197971562
 73
     1
 72
     2
 10
-233.49246901064
 20
-249.9771359400295
 40
0.5179085730134372
 50
218.1204197971511
 51
321.8795802028566
 73
     1
 72
     2
 10
-233.6922090469862
 20
-249.8204047619091
 40
0.7717997786796373
 50
321.8795802028437
 51
398.1204197971596
 73
     1
 97
        4
330
44E
330
44D
330
448
330
447
 75
     1
 76
     0
 52
45.0
 41
0.1
 77
     0
 78
     1
 53
45.0
 43
0.0
 44
0.0
 45
-0.0707106781186548
 46
0.0707106781186548
 79
     0
 98
        1
 10
0.0
 20
0.0
  0
HATCH
  5
4A6
330
71
100
AcDbEntity
  8
1
  6
Continuous
 62
     2
100
AcDbHatch
 10
0.0
 20
0.0
 30
0.0
210
0.0
220
0.0
230
1.0
  2
_USER
 70
     0
 71
     1
 91
        4
 92
        1
 93
        8
 72
     1
 10
-242.4863483186938
 20
-248.7177446154052
 11
-242.4863483186938
 21
-254.2822553846054
 72
     2
 10
-242.9105929340777
 20
-254.2822553846054
 40
0.4242446153832873
 50
0.0
 51
90.0
 73
     0
 72
     1
 10
-242.9105929340777
 20
-254.7064999999887
 11
-248.3839050247945
 21
-254.7064999999887
 72
     2
 10
-248.3839050247945
 20
-254.2822553846054
 40
0.4242446153828041
 50
90.0
 51
180.0
 73
     0
 72
     1
 10
-248.8081496401773
 20
-254.2822553846054
 11
-248.8081496401773
 21
-248.7177446154052
 72
     2
 10
-248.3839050247945
 20
-248.7177446154052
 40
0.4242446153837989
 50
180.0
 51
270.0
 73
     0
 72
     1
 10
-248.3839050247945
 20
-248.2935000000214
 11
-242.9105929340777
 21
-248.2935000000214
 72
     2
 10
-242.9105929340777
 20
-248.7177446154052
 40
0.4242446153838841
 50
270.0
 51
360.0
 73
     0
 97
        8
330
3F6
330
444
330
3F7
330
44F
330
3F4
330
446
330
3F5
330
445
 92
       16
 93
        1
 72
     2
 10
-245.764319374277
 20
-251.0366268437607
 40
0.4709789327785074
 50
0.0
 51
360.0
 73
     1
 97
        1
330
46A
 92
       16
 93
        8
 72
     2
 10
-245.2144616615163
 20
-252.1457684437291
 40
0.3157169230765328
 50
115.3740086783519
 51
180.0
 73
     1
 72
     1
 10
-245.5301785845931
 20
-252.1457684437291
 11
-245.5301785845931
 21
-252.7276198504242
 72
     2
 10
-245.2144616615163
 20
-252.7276198504242
 40
0.315716923076792
 50
180.0
 51
269.8110329574542
 73
     1
 72
     2
 10
-245.2088455262063
 20
-251.0247849028552
 40
2.018561131933266
 50
269.8110329575858
 51
450.1889670424142
 73
     1
 72
     2
 10
-245.2144616615163
 20
-249.3219499552861
 40
0.3157169230760711
 50
90.18896704254594
 51
180.0
 73
     1
 72
     1
 10
-245.5301785845931
 20
-249.3219499552861
 11
-245.5301785845931
 21
-249.9274852437929
 72
     2
 10
-245.2144616615163
 20
-249.9274852437929
 40
0.315716923076792
 50
180.0
 51
244.6259913216482
 73
     1
 72
     2
 10
-245.7405043596042
 20
-251.0366268437607
 40
0.911848150144459
 50
295.3740086781925
 51
424.6259913218236
 73
     0
 97
        8
330
45C
330
3BD
330
459
330
45A
330
438
330
3BC
330
45B
330
437
 92
       16
 93
       12
 72
     2
 10
-247.790010348048
 20
-253.6782275213551
 40
0.3157169230756836
 50
180.0
 51
270.0
 73
     1
 72
     1
 10
-247.790010348048
 20
-253.9939444444318
 11
-246.3141770870384
 21
-253.9939444444318
 72
     2
 10
-246.3141770870384
 20
-253.6782275213551
 40
0.3157169230767067
 50
270.0
 51
360.0
 73
     1
 72
     1
 10
-245.9984601639618
 20
-253.6782275213551
 11
-245.9984601639618
 21
-252.1474565898235
 72
     2
 10
-246.3141770870384
 20
-252.1474565898235
 40
0.315716923076593
 50
0.0
 51
64.80558935146027
 73
     1
 72
     2
 10
-245.7915926394634
 20
-251.0366268437607
 40
0.9118975235576147
 50
115.1944106485122
 51
244.8055893514718
 73
     0
 72
     2
 10
-246.3141770870384
 20
-249.9257970976985
 40
0.3157169230761203
 50
295.1944106485397
 51
360.0
 73
     1
 72
     1
 10
-245.9984601639618
 20
-249.9257970976985
 11
-245.9984601639618
 21
-249.321772478638
 72
     2
 10
-246.3141770870384
 20
-249.321772478638
 40
0.315716923076593
 50
0.0
 51
90.0
 73
     1
 72
     1
 10
-246.3141770870384
 20
-249.0060555555618
 11
-247.790010348048
 21
-249.0060555555618
 72
     2
 10
-247.790010348048
 20
-249.321772478638
 40
0.3157169230761951
 50
90.0
 51
180.0
 73
     1
 72
     1
 10
-248.1057272711237
 20
-249.321772478638
 11
-248.1057272711237
 21
-253.6782275213551
 97
       12
330
440
330
3F8
330
443
330
3F3
330
450
330
451
330
442
330
3F2
330
441
330
3F1
330
452
330
3F0
 75
     1
 76
     0
 52
45.0
 41
0.1
 77
     0
 78
     1
 53
45.0
 43
0.0
 44
0.0
 45
-0.0707106781186548
 46
0.0707106781186548
 79
     0
 98
        1
 10
0.0
 20
0.0
  0
HATCH
  5
4A7
330
71
100
AcDbEntity
  8
1
  6
Continuous
 62
     2
100
AcDbHatch
 10
0.0
 20
0.0
 30
0.0
210
0.0
220
0.0
230
1.0
  2
_USER
 70
     0
 71
     1
 91
        4
 92
        1
 93
        8
 72
     1
 10
-242.4863483186938
 20
-248.7177446154052
 11
-242.4863483186938
 21
-254.2822553846054
 72
     2
 10
-242.9105929340777
 20
-254.2822553846054
 40
0.4242446153832873
 50
0.0
 51
90.0
 73
     0
 72
     1
 10
-242.9105929340777
 20
-254.7064999999887
 11
-248.3839050247945
 21
-254.7064999999887
 72
     2
 10
-248.3839050247945
 20
-254.2822553846054
 40
0.4242446153828041
 50
90.0
 51
180.0
 73
     0
 72
     1
 10
-248.8081496401773
 20
-254.2822553846054
 11
-248.8081496401773
 21
-248.7177446154052
 72
     2
 10
-248.3839050247945
 20
-248.7177446154052
 40
0.4242446153837989
 50
180.0
 51
270.0
 73
     0
 72
     1
 10
-248.3839050247945
 20
-248.2935000000214
 11
-242.9105929340777
 21
-248.2935000000214
 72
     2
 10
-242.9105929340777
 20
-248.7177446154052
 40
0.4242446153838841
 50
270.0
 51
360.0
 73
     0
 97
        8
330
3F6
330
444
330
3F7
330
44F
330
3F4
330
446
330
3F5
330
445
 92
       16
 93
        1
 72
     2
 10
-245.764319374277
 20
-251.0366268437607
 40
0.4709789327785074
 50
0.0
 51
360.0
 73
     1
 97
        1
330
46A
 92
       16
 93
        8
 72
     2
 10
-245.2144616615163
 20
-252.1457684437291
 40
0.3157169230765328
 50
115.3740086783519
 51
180.0
 73
     1
 72
     1
 10
-245.5301785845931
 20
-252.1457684437291
 11
-245.5301785845931
 21
-252.7276198504242
 72
     2
 10
-245.2144616615163
 20
-252.7276198504242
 40
0.315716923076792
 50
180.0
 51
269.8110329574542
 73
     1
 72
     2
 10
-245.2088455262063
 20
-251.0247849028552
 40
2.018561131933266
 50
269.8110329575858
 51
450.1889670424142
 73
     1
 72
     2
 10
-245.2144616615163
 20
-249.3219499552861
 40
0.3157169230760711
 50
90.18896704254594
 51
180.0
 73
     1
 72
     1
 10
-245.5301785845931
 20
-249.3219499552861
 11
-245.5301785845931
 21
-249.9274852437929
 72
     2
 10
-245.2144616615163
 20
-249.9274852437929
 40
0.315716923076792
 50
180.0
 51
244.6259913216482
 73
     1
 72
     2
 10
-245.7405043596042
 20
-251.0366268437607
 40
0.911848150144459
 50
295.3740086781925
 51
424.6259913218236
 73
     0
 97
        8
330
45C
330
3BD
330
459
330
45A
330
438
330
3BC
330
45B
330
437
 92
       16
 93
       12
 72
     2
 10
-247.790010348048
 20
-253.6782275213551
 40
0.3157169230756836
 50
180.0
 51
270.0
 73
     1
 72
     1
 10
-247.790010348048
 20
-253.9939444444318
 11
-246.3141770870384
 21
-253.9939444444318
 72
     2
 10
-246.3141770870384
 20
-253.6782275213551
 40
0.3157169230767067
 50
270.0
 51
360.0
 73
     1
 72
     1
 10
-245.9984601639618
 20
-253.6782275213551
 11
-245.9984601639618
 21
-252.1474565898235
 72
     2
 10
-246.3141770870384
 20
-252.1474565898235
 40
0.315716923076593
 50
0.0
 51
64.80558935146027
 73
     1
 72
     2
 10
-245.7915926394634
 20
-251.0366268437607
 40
0.9118975235576147
 50
115.1944106485122
 51
244.8055893514718
 73
     0
 72
     2
 10
-246.3141770870384
 20
-249.9257970976985
 40
0.3157169230761203
 50
295.1944106485397
 51
360.0
 73
     1
 72
     1
 10
-245.9984601639618
 20
-249.9257970976985
 11
-245.9984601639618
 21
-249.321772478638
 72
     2
 10
-246.3141770870384
 20
-249.321772478638
 40
0.315716923076593
 50
0.0
 51
90.0
 73
     1
 72
     1
 10
-246.3141770870384
 20
-249.0060555555618
 11
-247.790010348048
 21
-249.0060555555618
 72
     2
 10
-247.790010348048
 20
-249.321772478638
 40
0.3157169230761951
 50
90.0
 51
180.0
 73
     1
 72
     1
 10
-248.1057272711237
 20
-249.321772478638
 11
-248.1057272711237
 21
-253.6782275213551
 97
       12
330
440
330
3F8
330
443
330
3F3
330
450
330
451
330
442
330
3F2
330
441
330
3F1
330
452
330
3F0
 75
     1
 76
     0
 52
45.0
 41
0.1
 77
     0
 78
     1
 53
45.0
 43
0.0
 44
0.0
 45
-0.0707106781186548
 46
0.0707106781186548
 79
     0
 98
        1
 10
0.0
 20
0.0
  0
HATCH
  5
4A8
330
71
100
AcDbEntity
  8
1
  6
Continuous
 62
     2
100
AcDbHatch
 10
0.0
 20
0.0
 30
0.0
210
0.0
220
0.0
230
1.0
  2
_USER
 70
     0
 71
     1
 91
        1
 92
        1
 93
       18
 72
     1
 10
-220.8968004094728
 20
-252.4379557823012
 11
-221.7078994469462
 21
-252.4379557823012
 72
     1
 10
-221.7078994469462
 20
-252.4379557823012
 11
-221.7078994469462
 21
-254.7064999999887
 72
     1
 10
-221.7078994469462
 20
-254.7064999999887
 11
-222.9006921491139
 21
-254.7064999999887
 72
     1
 10
-222.9006921491139
 20
-254.7064999999887
 11
-222.9006921491139
 21
-252.4379557823012
 72
     1
 10
-222.9006921491139
 20
-252.4379557823012
 11
-224.004331448682
 21
-252.4379557823012
 72
     2
 10
-224.004331448682
 20
-253.3924787891273
 40
0.9545230068260935
 50
90.0
 51
109.337143219432
 73
     1
 72
     2
 10
-224.1510014467857
 20
-252.9745238087444
 40
0.5115800601944143
 50
109.3371432194853
 51
151.4785267424225
 73
     1
 72
     2
 10
-223.7736441887043
 20
-253.1795952380834
 40
0.9410597353348924
 50
151.4785267423624
 51
208.5214732576695
 73
     1
 72
     2
 10
-224.1510014467857
 20
-253.3846666674219
 40
0.5115800601960215
 50
208.5214732576866
 51
246.6277221118449
 73
     1
 72
     2
 10
-223.9945614140826
 20
-253.0226746487119
 40
0.9059297849852801
 50
246.6277221118183
 51
288.4480761180817
 73
     1
 72
     2
 10
-224.4127291477445
 20
-251.7691288726753
 40
2.227384008972746
 50
288.4480761181335
 51
301.9309089499397
 73
     1
 72
     1
 10
-223.2346741057206
 20
-253.6594795918251
 11
-223.2346741057206
 21
-254.5319965986284
 72
     2
 10
-224.5706020228373
 20
-249.866914292827
 40
4.852596863498825
 50
74.02000874166129
 51
84.84185523036365
 73
     0
 72
     2
 10
-224.2817459281015
 20
-253.0668048760486
 40
1.639695123940448
 50
84.8418552303238
 51
164.9381082228988
 73
     0
 72
     2
 10
-224.7008737715631
 20
-253.1795952380834
 40
1.205656168393002
 50
164.9381082229041
 51
195.0618917770972
 73
     0
 72
     2
 10
-224.2817459281015
 20
-253.2923856001183
 40
1.639695123940214
 50
195.061891777105
 51
270.0
 73
     0
 72
     1
 10
-224.2817459281015
 20
-251.6526904761781
 11
-220.8968004094728
 21
-251.6526904761776
 72
     1
 10
-220.8968004094728
 20
-251.6526904761776
 11
-220.8968004094728
 21
-252.4379557823012
 97
       18
330
3BF
330
455
330
456
330
43E
330
43D
330
423
330
43C
330
43B
330
457
330
43A
330
458
330
439
330
424
330
3BE
330
3C3
330
3C2
330
3C1
330
3C0
 75
     1
 76
     0
 52
45.0
 41
0.1
 77
     0
 78
     1
 53
45.0
 43
0.0
 44
0.0
 45
-0.0707106781186548
 46
0.0707106781186548
 79
     0
 98
        1
 10
0.0
 20
0.0
  0
HATCH
  5
4A9
330
71
100
AcDbEntity
  8
1
  6
Continuous
 62
     2
100
AcDbHatch
 10
0.0
 20
0.0
 30
0.0
210
0.0
220
0.0
230
1.0
  2
_USER
 70
     0
 71
     1
 91
        1
 92
        1
 93
       18
 72
     1
 10
-220.8968004094728
 20
-252.4379557823012
 11
-221.7078994469462
 21
-252.4379557823012
 72
     1
 10
-221.7078994469462
 20
-252.4379557823012
 11
-221.7078994469462
 21
-254.7064999999887
 72
     1
 10
-221.7078994469462
 20
-254.7064999999887
 11
-222.9006921491139
 21
-254.7064999999887
 72
     1
 10
-222.9006921491139
 20
-254.7064999999887
 11
-222.9006921491139
 21
-252.4379557823012
 72
     1
 10
-222.9006921491139
 20
-252.4379557823012
 11
-224.004331448682
 21
-252.4379557823012
 72
     2
 10
-224.004331448682
 20
-253.3924787891273
 40
0.9545230068260935
 50
90.0
 51
109.337143219432
 73
     1
 72
     2
 10
-224.1510014467857
 20
-252.9745238087444
 40
0.5115800601944143
 50
109.3371432194853
 51
151.4785267424225
 73
     1
 72
     2
 10
-223.7736441887043
 20
-253.1795952380834
 40
0.9410597353348924
 50
151.4785267423624
 51
208.5214732576695
 73
     1
 72
     2
 10
-224.1510014467857
 20
-253.3846666674219
 40
0.5115800601960215
 50
208.5214732576866
 51
246.6277221118449
 73
     1
 72
     2
 10
-223.9945614140826
 20
-253.0226746487119
 40
0.9059297849852801
 50
246.6277221118183
 51
288.4480761180817
 73
     1
 72
     2
 10
-224.4127291477445
 20
-251.7691288726753
 40
2.227384008972746
 50
288.4480761181335
 51
301.9309089499397
 73
     1
 72
     1
 10
-223.2346741057206
 20
-253.6594795918251
 11
-223.2346741057206
 21
-254.5319965986284
 72
     2
 10
-224.5706020228373
 20
-249.866914292827
 40
4.852596863498825
 50
74.02000874166129
 51
84.84185523036365
 73
     0
 72
     2
 10
-224.2817459281015
 20
-253.0668048760486
 40
1.639695123940448
 50
84.8418552303238
 51
164.9381082228988
 73
     0
 72
     2
 10
-224.7008737715631
 20
-253.1795952380834
 40
1.205656168393002
 50
164.9381082229041
 51
195.0618917770972
 73
     0
 72
     2
 10
-224.2817459281015
 20
-253.2923856001183
 40
1.639695123940214
 50
195.061891777105
 51
270.0
 73
     0
 72
     1
 10
-224.2817459281015
 20
-251.6526904761781
 11
-220.8968004094728
 21
-251.6526904761776
 72
     1
 10
-220.8968004094728
 20
-251.6526904761776
 11
-220.8968004094728
 21
-252.4379557823012
 97
       18
330
3BF
330
455
330
456
330
43E
330
43D
330
423
330
43C
330
43B
330
457
330
43A
330
458
330
439
330
424
330
3BE
330
3C3
330
3C2
330
3C1
330
3C0
 75
     1
 76
     0
 52
45.0
 41
0.1
 77
     0
 78
     1
 53
45.0
 43
0.0
 44
0.0
 45
-0.0707106781186548
 46
0.0707106781186548
 79
     0
 98
        1
 10
0.0
 20
0.0
  0
HATCH
  5
4AA
330
71
100
AcDbEntity
  8
1
  6
Continuous
 62
     2
100
AcDbHatch
 10
0.0
 20
0.0
 30
0.0
210
0.0
220
0.0
230
1.0
  2
_USER
 70
     0
 71
     1
 91
        1
 92
        1
 93
       14
 72
     2
 10
-240.3844474073544
 20
-253.2923856001183
 40
1.639695123940507
 50
84.84185523036236
 51
164.9381082228864
 73
     1
 72
     2
 10
-240.8035752508172
 20
-253.1795952380834
 40
1.205656168390944
 50
164.9381082228765
 51
195.0618917770948
 73
     1
 72
     2
 10
-240.3844474073544
 20
-253.0668048760486
 40
1.639695123939387
 50
195.0618917770896
 51
275.1581447696395
 73
     1
 72
     2
 10
-240.6733035020903
 20
-249.866914292827
 40
4.852596863498138
 50
275.1581447696249
 51
285.9799912583529
 73
     1
 72
     1
 10
-239.3373755849725
 20
-254.5319965986278
 11
-239.3373755849725
 21
-253.6594795918246
 72
     2
 10
-240.5154306269974
 20
-251.7691288726747
 40
2.227384008972737
 50
58.0690910500407
 51
71.55192388186722
 73
     0
 72
     2
 10
-240.0972628933366
 20
-253.0226746487119
 40
0.9059297849849192
 50
71.55192388184153
 51
113.372277888129
 73
     0
 72
     2
 10
-240.2537029260386
 20
-253.3846666674219
 40
0.5115800601948034
 50
113.3722778881726
 51
151.4785267423044
 73
     0
 72
     2
 10
-239.8763456679583
 20
-253.1795952380834
 40
0.9410597353332545
 50
151.4785267422943
 51
208.5214732577331
 73
     0
 72
     2
 10
-240.2537029260386
 20
-252.9745238087444
 40
0.5115800601948779
 50
208.5214732576956
 51
246.6277221118009
 73
     0
 72
     2
 10
-240.0972628933366
 20
-253.336515827455
 40
0.9059297849853228
 50
246.627722111871
 51
288.4480761181465
 73
     0
 72
     2
 10
-240.5154306269974
 20
-254.5900616034916
 40
2.227384008973478
 50
288.4480761181328
 51
301.9309089499592
 73
     0
 72
     1
 10
-239.3373755849725
 20
-252.6997108843417
 11
-239.3373755849725
 21
-251.8271938775384
 72
     2
 10
-240.6733035020903
 20
-256.4922761833393
 40
4.852596863498068
 50
74.02000874164739
 51
84.84185523037506
 73
     1
 97
       14
330
45D
330
45E
330
45F
330
460
330
425
330
436
330
435
330
434
330
461
330
462
330
433
330
463
330
426
330
432
 75
     1
 76
     0
 52
45.0
 41
0.1
 77
     0
 78
     1
 53
45.0
 43
0.0
 44
0.0
 45
-0.0707106781186548
 46
0.0707106781186548
 79
     0
 98
        1
 10
0.0
 20
0.0
  0
HATCH
  5
4AB
330
71
100
AcDbEntity
  8
1
  6
Continuous
 62
     2
100
AcDbHatch
 10
0.0
 20
0.0
 30
0.0
210
0.0
220
0.0
230
1.0
  2
_USER
 70
     0
 71
     1
 91
        1
 92
        1
 93
       14
 72
     2
 10
-240.3844474073544
 20
-253.2923856001183
 40
1.639695123940507
 50
84.84185523036236
 51
164.9381082228864
 73
     1
 72
     2
 10
-240.8035752508172
 20
-253.1795952380834
 40
1.205656168390944
 50
164.9381082228765
 51
195.0618917770948
 73
     1
 72
     2
 10
-240.3844474073544
 20
-253.0668048760486
 40
1.639695123939387
 50
195.0618917770896
 51
275.1581447696395
 73
     1
 72
     2
 10
-240.6733035020903
 20
-249.866914292827
 40
4.852596863498138
 50
275.1581447696249
 51
285.9799912583529
 73
     1
 72
     1
 10
-239.3373755849725
 20
-254.5319965986278
 11
-239.3373755849725
 21
-253.6594795918246
 72
     2
 10
-240.5154306269974
 20
-251.7691288726747
 40
2.227384008972737
 50
58.0690910500407
 51
71.55192388186722
 73
     0
 72
     2
 10
-240.0972628933366
 20
-253.0226746487119
 40
0.9059297849849192
 50
71.55192388184153
 51
113.372277888129
 73
     0
 72
     2
 10
-240.2537029260386
 20
-253.3846666674219
 40
0.5115800601948034
 50
113.3722778881726
 51
151.4785267423044
 73
     0
 72
     2
 10
-239.8763456679583
 20
-253.1795952380834
 40
0.9410597353332545
 50
151.4785267422943
 51
208.5214732577331
 73
     0
 72
     2
 10
-240.2537029260386
 20
-252.9745238087444
 40
0.5115800601948779
 50
208.5214732576956
 51
246.6277221118009
 73
     0
 72
     2
 10
-240.0972628933366
 20
-253.336515827455
 40
0.9059297849853228
 50
246.627722111871
 51
288.4480761181465
 73
     0
 72
     2
 10
-240.5154306269974
 20
-254.5900616034916
 40
2.227384008973478
 50
288.4480761181328
 51
301.9309089499592
 73
     0
 72
     1
 10
-239.3373755849725
 20
-252.6997108843417
 11
-239.3373755849725
 21
-251.8271938775384
 72
     2
 10
-240.6733035020903
 20
-256.4922761833393
 40
4.852596863498068
 50
74.02000874164739
 51
84.84185523037506
 73
     1
 97
       14
330
45D
330
45E
330
45F
330
460
330
425
330
436
330
435
330
434
330
461
330
462
330
433
330
463
330
426
330
432
 75
     1
 76
     0
 52
45.0
 41
0.1
 77
     0
 78
     1
 53
45.0
 43
0.0
 44
0.0
 45
-0.0707106781186548
 46
0.0707106781186548
 79
     0
 98
        1
 10
0.0
 20
0.0
  0
ENDBLK
  5
73
330
71
100
AcDbEntity
  8
0
100
AcDbBlockEnd
  0
BLOCK
  5
75
330
74
100
AcDbEntity
  8
0
100
AcDbBlockBegin
  2
_punkt
 70
     0
 10
-123.4999999999899
 20
-262.000000000005
 30
0.0
  3
_punkt
  1

  0
LINE
  5
4AC
330
74
100
AcDbEntity
  8
1
  6
Continuous
 62
     2
100
AcDbLine
 10
-123.4999999999899
 20
-262.000000000005
 30
0.0
 11
-118.4999999999909
 21
-262.000000000005
 31
0.0
  0
LINE
  5
4AD
330
74
100
AcDbEntity
  8
1
  6
Continuous
 62
     2
100
AcDbLine
 10
-123.4999999999899
 20
-262.000000000005
 30
0.0
 11
-123.4999999999899
 21
-267.0000000000051
 31
0.0
  0
ENDBLK
  5
76
330
74
100
AcDbEntity
  8
0
100
AcDbBlockEnd
  0
BLOCK
  5
7A
330
77
100
AcDbEntity
  8
0
100
AcDbBlockBegin
  2
A4I_CS
 70
     0
 10
-123.4999999999899
 20
-267.0000000000051
 30
0.0
  3
A4I_CS
  1

  0
INSERT
  5
78
330
77
100
AcDbEntity
  8
1
100
AcDbBlockReference
  2
_rahmen
 10
-123.4999999999899
 20
-267.0000000000051
 30
0.0
  0
INSERT
  5
79
330
77
100
AcDbEntity
  8
1
100
AcDbBlockReference
  2
_punkt
 10
-123.4999999999899
 20
-262.000000000005
 30
0.0
  0
ENDBLK
  5
7B
330
77
100
AcDbEntity
  8
0
100
AcDbBlockEnd
  0
BLOCK
  5
84
330
7C
100
AcDbEntity
  8
0
100
AcDbBlockBegin
  2
1
 70
     0
 10
0.0
 20
0.0
 30
0.0
  3
1
  1

  0
INSERT
  5
7D
330
7C
100
AcDbEntity
  8
0
100
AcDbBlockReference
  2
Allg1
 10
-185.000000000001
 20
-192.0
 30
0.0
  0
INSERT
  5
7E
330
7C
100
AcDbEntity
  8
0
100
AcDbBlockReference
  2
Drfsicht1
 10
-314.055758
 20
-203.423447
 30
0.0
  0
INSERT
  5
7F
330
7C
100
AcDbEntity
  8
0
100
AcDbBlockReference
  2
Rckans1
 10
-185.9442420000003
 20
-119.0
 30
0.0
  0
INSERT
  5
80
330
7C
100
AcDbEntity
  8
0
100
AcDbBlockReference
  2
SA_Links1
 10
-250.0
 20
-119.0
 30
0.0
  0
INSERT
  5
81
330
7C
100
AcDbEntity
  8
0
100
AcDbBlockReference
  2
SA_Rechts1
 10
-391.183893
 20
-119.0
 30
0.0
  0
INSERT
  5
82
330
7C
100
AcDbEntity
  8
0
100
AcDbBlockReference
  2
Vordans1
 10
-314.055758
 20
-119.0
 30
0.0
  0
INSERT
  5
83
330
7C
100
AcDbEntity
  8
0
100
AcDbBlockReference
  2
A4I_CS
 10
-123.4999999999899
 20
-267.0000000000051
 30
0.0
  0
ENDBLK
  5
85
330
7C
100
AcDbEntity
  8
0
100
AcDbBlockEnd
  0
BLOCK
  5
1F4
330
1ED
100
AcDbEntity
  8
0
100
AcDbBlockBegin
  2
*D17
 70
     1
 10
0.0
 20
0.0
 30
0.0
  3
*D17
  1

  0
LINE
  5
1EE
330
1ED
100
AcDbEntity
  8
1
  6
Continuous
 62
     2
100
AcDbLine
 10
-357.0557597881659
 20
-197.2734467131249
 30
0.0
 11
-357.0557597881659
 21
-209.5734469546411
 31
0.0
  0
LINE
  5
1EF
330
1ED
100
AcDbEntity
  8
1
  6
Continuous
 62
     2
100
AcDbLine
 10
-347.0557597881659
 20
-197.2734467131249
 30
0.0
 11
-358.5557597881659
 21
-197.2734467131249
 31
0.0
  0
LINE
  5
1F0
330
1ED
100
AcDbEntity
  8
1
  6
Continuous
 62
     2
100
AcDbLine
 10
-347.0557597881659
 20
-209.5734469546411
 30
0.0
 11
-358.5557597881659
 21
-209.5734469546411
 31
0.0
  0
SOLID
  5
1F1
330
1ED
100
AcDbEntity
  8
1
 62
     2
100
AcDbTrace
 10
-356.59497604661
 20
-200.7734467131249
 30
0.0
 11
-357.5165435297218
 21
-200.7734467131249
 31
0.0
 12
-357.0557597881659
 22
-197.2734467131249
 32
0.0
 13
-357.0557597881659
 23
-197.2734467131249
 33
0.0
  0
SOLID
  5
1F2
330
1ED
100
AcDbEntity
  8
1
 62
     2
100
AcDbTrace
 10
-357.5165435297218
 20
-206.0734469546411
 30
0.0
 11
-356.59497604661
 21
-206.0734469546411
 31
0.0
 12
-357.0557597881659
 22
-209.5734469546411
 32
0.0
 13
-357.0557597881659
 23
-209.5734469546411
 33
0.0
  0
MTEXT
  5
1F3
330
1ED
100
AcDbEntity
  8
1
 62
     3
100
AcDbMText
 10
-358.9057597881659
 20
-207.997717393164
 30
0.0
 40
3.5
 41
0.0
 71
     7
 72
     1
  1
12,3
  7
CONVERTER_11
 11
0.0
 21
1.0
 31
0.0
 73
     1
 44
0.60024009603842
  0
ENDBLK
  5
1F5
330
1ED
100
AcDbEntity
  8
0
100
AcDbBlockEnd
  0
BLOCK
  5
345
330
33E
100
AcDbEntity
  8
0
100
AcDbBlockBegin
  2
*D18
 70
     1
 10
0.0
 20
0.0
 30
0.0
  3
*D18
  1

  0
LINE
  5
33F
330
33E
100
AcDbEntity
  8
1
  6
Continuous
 62
     2
100
AcDbLine
 10
-365.2307597881659
 20
-144.425000578392
 30
0.0
 11
-365.2307597881659
 21
-93.57500018800582
 31
0.0
  0
LINE
  5
340
330
33E
100
AcDbEntity
  8
1
  6
Continuous
 62
     2
100
AcDbLine
 10
-332.5001896727629
 20
-144.425000578392
 30
0.0
 11
-366.7307597881659
 21
-144.425000578392
 31
0.0
  0
LINE
  5
341
330
33E
100
AcDbEntity
  8
1
  6
Continuous
 62
     2
100
AcDbLine
 10
-328.8735462685225
 20
-93.57500018800582
 30
0.0
 11
-366.7307597881659
 21
-93.57500018800582
 31
0.0
  0
SOLID
  5
342
330
33E
100
AcDbEntity
  8
1
 62
     2
100
AcDbTrace
 10
-365.6915435297217
 20
-140.925000578392
 30
0.0
 11
-364.76997604661
 21
-140.925000578392
 31
0.0
 12
-365.2307597881659
 22
-144.425000578392
 32
0.0
 13
-365.2307597881659
 23
-144.425000578392
 33
0.0
  0
SOLID
  5
343
330
33E
100
AcDbEntity
  8
1
 62
     2
100
AcDbTrace
 10
-364.76997604661
 20
-97.07500018800582
 30
0.0
 11
-365.6915435297217
 21
-97.07500018800582
 31
0.0
 12
-365.2307597881659
 22
-93.57500018800582
 32
0.0
 13
-365.2307597881659
 23
-93.57500018800582
 33
0.0
  0
MTEXT
  5
344
330
33E
100
AcDbEntity
  8
1
 62
     3
100
AcDbMText
 10
-367.0807597881659
 20
-124.658098692014
 30
0.0
 40
3.5
 41
0.0
 71
     7
 72
     1
  1
50,85
  7
CONVERTER_11
 11
0.0
 21
1.0
 31
0.0
 73
     1
 44
0.60024009603842
  0
ENDBLK
  5
346
330
33E
100
AcDbEntity
  8
0
100
AcDbBlockEnd
  0
BLOCK
  5
350
330
349
100
AcDbEntity
  8
0
100
AcDbBlockBegin
  2
*D19
 70
     1
 10
0.0
 20
0.0
 30
0.0
  3
*D19
  1

  0
LINE
  5
34A
330
349
100
AcDbEntity
  8
1
  6
Continuous
 62
     2
100
AcDbLine
 10
-357.2307597881659
 20
-137.5750005783871
 30
0.0
 11
-357.2307597881659
 21
-93.57500018800582
 31
0.0
  0
LINE
  5
34B
330
349
100
AcDbEntity
  8
1
  6
Continuous
 62
     2
100
AcDbLine
 10
-330.2995927996905
 20
-137.5750005783871
 30
0.0
 11
-358.7307597881659
 21
-137.5750005783871
 31
0.0
  0
LINE
  5
34C
330
349
100
AcDbEntity
  8
1
  6
Continuous
 62
     2
100
AcDbLine
 10
-328.8735462685226
 20
-93.57500018800582
 30
0.0
 11
-358.7307597881659
 21
-93.57500018800582
 31
0.0
  0
SOLID
  5
34D
330
349
100
AcDbEntity
  8
1
 62
     2
100
AcDbTrace
 10
-357.6915435297218
 20
-134.0750005783871
 30
0.0
 11
-356.7699760466101
 21
-134.0750005783871
 31
0.0
 12
-357.2307597881659
 22
-137.5750005783871
 32
0.0
 13
-357.2307597881659
 23
-137.5750005783871
 33
0.0
  0
SOLID
  5
34E
330
349
100
AcDbEntity
  8
1
 62
     2
100
AcDbTrace
 10
-356.7699760466101
 20
-97.07500018800582
 30
0.0
 11
-357.6915435297218
 21
-97.07500018800582
 31
0.0
 12
-357.2307597881659
 22
-93.57500018800582
 32
0.0
 13
-357.2307597881659
 23
-93.57500018800582
 33
0.0
  0
MTEXT
  5
34F
330
349
100
AcDbEntity
  8
1
 62
     3
100
AcDbMText
 10
-358.7307597881659
 20
-116.659413664947
 30
0.0
 40
3.5
 41
0.0
 71
     7
 72
     1
  1
44
  7
CONVERTER_11
 11
0.0
 21
1.0
 31
0.0
 73
     1
 44
0.60024009603842
  0
ENDBLK
  5
351
330
349
100
AcDbEntity
  8
0
100
AcDbBlockEnd
  0
BLOCK
  5
35B
330
354
100
AcDbEntity
  8
0
100
AcDbBlockBegin
  2
*D20
 70
     1
 10
0.0
 20
0.0
 30
0.0
  3
*D20
  1

  0
LINE
  5
355
330
354
100
AcDbEntity
  8
1
  6
Continuous
 62
     2
100
AcDbLine
 10
-347.0557597881659
 20
-172.919504922141
 30
0.0
 11
-281.0557597881535
 21
-172.919504922141
 31
0.0
  0
LINE
  5
356
330
354
100
AcDbEntity
  8
1
  6
Continuous
 62
     2
100
AcDbLine
 10
-347.0557597881659
 20
-144.4250005783925
 30
0.0
 11
-347.0557597881659
 21
-174.419504922141
 31
0.0
  0
LINE
  5
357
330
354
100
AcDbEntity
  8
1
  6
Continuous
 62
     2
100
AcDbLine
 10
-281.0557597881535
 20
-135.3370639693877
 30
0.0
 11
-281.0557597881535
 21
-174.419504922141
 31
0.0
  0
SOLID
  5
358
330
354
100
AcDbEntity
  8
1
 62
     2
100
AcDbTrace
 10
-343.5557597881659
 20
-172.4587211805851
 30
0.0
 11
-343.5557597881659
 21
-173.3802886636969
 31
0.0
 12
-347.0557597881659
 22
-172.919504922141
 32
0.0
 13
-347.0557597881659
 23
-172.919504922141
 33
0.0
  0
SOLID
  5
359
330
354
100
AcDbEntity
  8
1
 62
     2
100
AcDbTrace
 10
-284.5557597881535
 20
-173.3802886636969
 30
0.0
 11
-284.5557597881535
 21
-172.4587211805851
 31
0.0
 12
-281.0557597881535
 22
-172.919504922141
 32
0.0
 13
-281.0557597881535
 23
-172.919504922141
 33
0.0
  0
MTEXT
  5
35A
330
354
100
AcDbEntity
  8
1
 62
     3
100
AcDbMText
 10
-312.905486866872
 20
-171.419504922141
 30
0.0
 40
3.5
 41
0.0
 71
     7
 72
     1
  1
66
  7
CONVERTER_11
 11
0.9999999999970619
 21
2.424068405545306E-6
 31
0.0
 73
     1
 44
0.60024009603842
  0
ENDBLK
  5
35C
330
354
100
AcDbEntity
  8
0
100
AcDbBlockEnd
  0
BLOCK
  5
366
330
35F
100
AcDbEntity
  8
0
100
AcDbBlockBegin
  2
*D21
 70
     1
 10
0.0
 20
0.0
 30
0.0
  3
*D21
  1

  0
LINE
  5
360
330
35F
100
AcDbEntity
  8
1
  6
Continuous
 62
     2
100
AcDbLine
 10
-314.1057597881755
 20
-163.601215073777
 30
0.0
 11
-281.0557597881535
 21
-163.601215073777
 31
0.0
  0
LINE
  5
361
330
35F
100
AcDbEntity
  8
1
  6
Continuous
 62
     2
100
AcDbLine
 10
-314.1057597881755
 20
-139.392039721136
 30
0.0
 11
-314.1057597881755
 21
-165.101215073777
 31
0.0
  0
LINE
  5
362
330
35F
100
AcDbEntity
  8
1
  6
Continuous
 62
     2
100
AcDbLine
 10
-281.0557597881535
 20
-135.3370639693877
 30
0.0
 11
-281.0557597881535
 21
-165.101215073777
 31
0.0
  0
SOLID
  5
363
330
35F
100
AcDbEntity
  8
1
 62
     2
100
AcDbTrace
 10
-310.6057597881755
 20
-163.1404313322211
 30
0.0
 11
-310.6057597881755
 21
-164.0619988153329
 31
0.0
 12
-314.1057597881755
 22
-163.601215073777
 32
0.0
 13
-314.1057597881755
 23
-163.601215073777
 33
0.0
  0
SOLID
  5
364
330
35F
100
AcDbEntity
  8
1
 62
     2
100
AcDbTrace
 10
-284.5557597881535
 20
-164.0619988153329
 30
0.0
 11
-284.5557597881535
 21
-163.1404313322211
 31
0.0
 12
-281.0557597881535
 22
-163.601215073777
 32
0.0
 13
-281.0557597881535
 23
-163.601215073777
 33
0.0
  0
MTEXT
  5
365
330
35F
100
AcDbEntity
  8
1
 62
     3
100
AcDbMText
 10
-302.816474930114
 20
-161.751215073777
 30
0.0
 40
3.5
 41
0.0
 71
     7
 72
     1
  1
33,05
  7
CONVERTER_11
 11
0.9999999999970619
 21
2.424068405545306E-6
 31
0.0
 73
     1
 44
0.60024009603842
  0
ENDBLK
  5
367
330
35F
100
AcDbEntity
  8
0
100
AcDbBlockEnd
  0
BLOCK
  5
371
330
36A
100
AcDbEntity
  8
0
100
AcDbBlockBegin
  2
*D22
 70
     1
 10
0.0
 20
0.0
 30
0.0
  3
*D22
  1

  0
LINE
  5
36B
330
36A
100
AcDbEntity
  8
1
  6
Continuous
 62
     2
100
AcDbLine
 10
-296.6057597881755
 20
-154.408848061201
 30
0.0
 11
-314.1057597881755
 21
-154.408848061201
 31
0.0
  0
LINE
  5
36C
330
36A
100
AcDbEntity
  8
1
  6
Continuous
 62
     2
100
AcDbLine
 10
-296.6057597881755
 20
-138.6750005783806
 30
0.0
 11
-296.6057597881755
 21
-155.908848061201
 31
0.0
  0
LINE
  5
36D
330
36A
100
AcDbEntity
  8
1
  6
Continuous
 62
     2
100
AcDbLine
 10
-314.1057597881755
 20
-139.392039721136
 30
0.0
 11
-314.1057597881755
 21
-155.908848061201
 31
0.0
  0
SOLID
  5
36E
330
36A
100
AcDbEntity
  8
1
 62
     2
100
AcDbTrace
 10
-300.1057597881755
 20
-154.8696318027569
 30
0.0
 11
-300.1057597881755
 21
-153.9480643196451
 31
0.0
 12
-296.6057597881755
 22
-154.408848061201
 32
0.0
 13
-296.6057597881755
 23
-154.408848061201
 33
0.0
  0
SOLID
  5
36F
330
36A
100
AcDbEntity
  8
1
 62
     2
100
AcDbTrace
 10
-310.6057597881755
 20
-153.9480643196451
 30
0.0
 11
-310.6057597881755
 21
-154.8696318027569
 31
0.0
 12
-314.1057597881755
 22
-154.408848061201
 32
0.0
 13
-314.1057597881755
 23
-154.408848061201
 33
0.0
  0
MTEXT
  5
370
330
36A
100
AcDbEntity
  8
1
 62
     3
100
AcDbMText
 10
-309.405150599535
 20
-152.558848061201
 30
0.0
 40
3.5
 41
0.0
 71
     7
 72
     1
  1
17,5
  7
CONVERTER_11
 11
0.9999999999970619
 21
2.424068405545306E-6
 31
0.0
 73
     1
 44
0.60024009603842
  0
ENDBLK
  5
372
330
36A
100
AcDbEntity
  8
0
100
AcDbBlockEnd
  0
ENDSEC
  0
SECTION
  2
ENTITIES
  0
INSERT
  5
86
330
1F
100
AcDbEntity
  8
1
100
AcDbBlockReference
  2
1
 10
0.0
 20
0.0
 30
0.0
  0
ENDSEC
  0
SECTION
  2
OBJECTS
  0
DICTIONARY
  5
C
330
0
100
AcDbDictionary
281
     1
  3
ACAD_GROUP
350
D
  3
ACAD_LAYOUT
350
1A
  3
ACAD_MATERIAL
350
3B
  3
ACAD_MLEADERSTYLE
350
4D5
  3
ACAD_MLINESTYLE
350
17
  3
ACAD_PLOTSETTINGS
350
19
  3
ACAD_PLOTSTYLENAME
350
E
  3
ACAD_TABLESTYLE
350
4D4
  3
ACAD_VISUALSTYLE
350
2A
  0
DICTIONARY
  5
D
102
{ACAD_REACTORS
330
C
102
}
330
C
100
AcDbDictionary
281
     1
  0
DICTIONARY
  5
1A
102
{ACAD_REACTORS
330
C
102
}
330
C
100
AcDbDictionary
281
     1
  3
Layout1
350
1E
  3
Layout2
350
26
  3
Model
350
22
  0
DICTIONARY
  5
3B
102
{ACAD_REACTORS
330
C
102
}
330
C
100
AcDbDictionary
281
     1
  3
ByBlock
350
3D
  3
ByLayer
350
3C
  3
Global
350
3E
  0
DICTIONARY
  5
4D5
102
{ACAD_REACTORS
330
C
102
}
330
C
100
AcDbDictionary
281
     1
  0
DICTIONARY
  5
17
102
{ACAD_REACTORS
330
C
102
}
330
C
100
AcDbDictionary
281
     1
  3
Standard
350
18
  0
DICTIONARY
  5
19
102
{ACAD_REACTORS
330
C
102
}
330
C
100
AcDbDictionary
281
     1
  0
ACDBDICTIONARYWDFLT
  5
E
102
{ACAD_REACTORS
330
C
102
}
330
C
100
AcDbDictionary
281
     1
  3
Normal
350
F
100
AcDbDictionaryWithDefault
340
F
  0
DICTIONARY
  5
4D4
102
{ACAD_REACTORS
330
C
102
}
330
C
100
AcDbDictionary
281
     1
  0
DICTIONARY
  5
2A
102
{ACAD_REACTORS
330
C
102
}
330
C
100
AcDbDictionary
281
     1
  3
2dWireframe
350
2F
  3
3D Hidden
350
31
  3
3dWireframe
350
30
  3
Basic
350
32
  3
Brighten
350
36
  3
ColorChange
350
3A
  3
Conceptual
350
34
  3
Dim
350
35
  3
Facepattern
350
39
  3
Flat
350
2B
  3
FlatWithEdges
350
2C
  3
Gouraud
350
2D
  3
GouraudWithEdges
350
2E
  3
Linepattern
350
38
  3
Realistic
350
33
  3
Thicken
350
37
  0
LAYOUT
  5
1E
102
{ACAD_REACTORS
330
1A
102
}
330
1A
100
AcDbPlotSettings
  1

  2
none_device
  4

  6

 40
0.0
 41
0.0
 42
0.0
 43
0.0
 44
0.0
 45
0.0
 46
0.0
 47
0.0
 48
0.0
 49
0.0
140
0.0
141
0.0
142
1.0
143
1.0
 70
   688
 72
     0
 73
     0
 74
     5
  7

 75
    16
 76
     0
 77
     2
 78
   300
147
1.0
148
0.0
149
0.0
100
AcDbLayout
  1
Layout1
 70
     1
 71
     1
 10
0.0
 20
0.0
 11
12.0
 21
9.0
 12
0.0
 22
0.0
 32
0.0
 14
1.00000000000000E+20
 24
1.00000000000000E+20
 34
1.00000000000000E+20
 15
-1.00000000000000E+20
 25
-1.00000000000000E+20
 35
-1.00000000000000E+20
146
0.0
 13
0.0
 23
0.0
 33
0.0
 16
1.0
 26
0.0
 36
0.0
 17
0.0
 27
1.0
 37
0.0
 76
     0
330
1B
  0
LAYOUT
  5
26
102
{ACAD_REACTORS
330
1A
102
}
330
1A
100
AcDbPlotSettings
  1

  2
none_device
  4

  6

 40
0.0
 41
0.0
 42
0.0
 43
0.0
 44
0.0
 45
0.0
 46
0.0
 47
0.0
 48
0.0
 49
0.0
140
0.0
141
0.0
142
1.0
143
1.0
 70
   688
 72
     0
 73
     0
 74
     5
  7

 75
    16
 76
     0
 77
     2
 78
   300
147
1.0
148
0.0
149
0.0
100
AcDbLayout
  1
Layout2
 70
     1
 71
     2
 10
0.0
 20
0.0
 11
0.0
 21
0.0
 12
0.0
 22
0.0
 32
0.0
 14
0.0
 24
0.0
 34
0.0
 15
0.0
 25
0.0
 35
0.0
146
0.0
 13
0.0
 23
0.0
 33
0.0
 16
1.0
 26
0.0
 36
0.0
 17
0.0
 27
1.0
 37
0.0
 76
     0
330
23
  0
LAYOUT
  5
22
102
{ACAD_REACTORS
330
1A
102
}
330
1A
100
AcDbPlotSettings
  1

  2
none_device
  4

  6

 40
0.0
 41
0.0
 42
0.0
 43
0.0
 44
0.0
 45
0.0
 46
0.0
 47
0.0
 48
0.0
 49
0.0
140
0.0
141
0.0
142
1.0
143
1.0
 70
  1712
 72
     0
 73
     0
 74
     0
  7

 75
     0
 76
     0
 77
     2
 78
   300
147
1.0
148
0.0
149
0.0
100
AcDbLayout
  1
Model
 70
     1
 71
     0
 10
0.0
 20
0.0
 11
12.0
 21
9.0
 12
0.0
 22
0.0
 32
0.0
 14
-415.499999999989
 24
-267.0000000000051
 34
0.0
 15
-118.4999999999909
 25
-57.000000000005
 35
0.0
146
0.0
 13
0.0
 23
0.0
 33
0.0
 16
1.0
 26
0.0
 36
0.0
 17
0.0
 27
1.0
 37
0.0
 76
     0
330
1F
331
29
  0
MATERIAL
  5
3D
102
{ACAD_REACTORS
330
3B
102
}
102
{ACAD_XDICTIONARY
360
4D0
102
}
330
3B
100
AcDbMaterial
  1
ByBlock
  0
MATERIAL
  5
3C
102
{ACAD_REACTORS
330
3B
102
}
102
{ACAD_XDICTIONARY
360
4CE
102
}
330
3B
100
AcDbMaterial
  1
ByLayer
  0
MATERIAL
  5
3E
102
{ACAD_REACTORS
330
3B
102
}
102
{ACAD_XDICTIONARY
360
4D2
102
}
330
3B
100
AcDbMaterial
  1
Global
  0
MLINESTYLE
  5
18
102
{ACAD_REACTORS
330
17
102
}
330
17
100
AcDbMlineStyle
  2
Standard
 70
     0
  3

 62
   256
 51
90.0
 52
90.0
 71
     2
 49
0.5
 62
   256
  6
BYLAYER
 49
-0.5
 62
   256
  6
BYLAYER
  0
ACDBPLACEHOLDER
  5
F
102
{ACAD_REACTORS
330
E
102
}
330
E
  0
VISUALSTYLE
  5
2F
102
{ACAD_REACTORS
330
2A
102
}
102
{ACAD_XDICTIONARY
360
4B6
102
}
330
2A
100
AcDbVisualStyle
  2
2dWireframe
 70
     4
 71
     0
 72
     2
 73
     0
 90
        0
 40
-0.6
 41
-30.0
 62
     5
 63
     7
421
 16777215
 74
     1
 91
        4
 64
     7
 65
   257
 75
     1
175
     1
 42
1.0
 92
        0
 66
   257
 43
1.0
 76
     1
 77
     6
 78
     2
 67
     7
 79
     5
170
     0
171
     0
290
     0
174
     0
 93
        1
 44
0.0
173
     0
291
     0
 45
0.0
1001
ACAD
1000
AcDbSavedByObjectVersion
1070
     0
  0
VISUALSTYLE
  5
31
102
{ACAD_REACTORS
330
2A
102
}
102
{ACAD_XDICTIONARY
360
4BA
102
}
330
2A
100
AcDbVisualStyle
  2
3D Hidden
 70
     6
 71
     1
 72
     2
 73
     2
 90
        0
 40
-0.6
 41
-30.0
 62
     5
 63
     7
421
 16777215
 74
     2
 91
        2
 64
     7
 65
   257
 75
     2
175
     1
 42
40.0
 92
        0
 66
   257
 43
1.0
 76
     1
 77
     6
 78
     2
 67
     7
 79
     3
170
     0
171
     0
290
     0
174
     0
 93
        1
 44
0.0
173
     0
291
     0
 45
0.0
1001
ACAD
1000
AcDbSavedByObjectVersion
1070
     0
  0
VISUALSTYLE
  5
30
102
{ACAD_REACTORS
330
2A
102
}
102
{ACAD_XDICTIONARY
360
4B8
102
}
330
2A
100
AcDbVisualStyle
  2
3dWireframe
 70
     5
 71
     0
 72
     2
 73
     0
 90
        0
 40
-0.6
 41
-30.0
 62
     5
 63
     7
421
 16777215
 74
     1
 91
        4
 64
     7
 65
   257
 75
     1
175
     1
 42
1.0
 92
        0
 66
   257
 43
1.0
 76
     1
 77
     6
 78
     2
 67
     7
 79
     5
170
     0
171
     0
290
     0
174
     0
 93
        1
 44
0.0
173
     0
291
     0
 45
0.0
1001
ACAD
1000
AcDbSavedByObjectVersion
1070
     0
  0
VISUALSTYLE
  5
32
102
{ACAD_REACTORS
330
2A
102
}
102
{ACAD_XDICTIONARY
360
4BC
102
}
330
2A
100
AcDbVisualStyle
  2
Basic
 70
     7
 71
     1
 72
     0
 73
     1
 90
        0
 40
-0.6
 41
-30.0
 62
     5
 63
     7
421
 16777215
 74
     0
 91
        4
 64
     7
 65
   257
 75
     1
175
     1
 42
1.0
 92
        8
 66
     7
 43
1.0
 76
     1
 77
     6
 78
     2
 67
     7
 79
     5
170
     0
171
     0
290
     0
174
     0
 93
        1
 44
0.0
173
     0
291
     1
 45
0.0
1001
ACAD
1000
AcDbSavedByObjectVersion
1070
     0
  0
VISUALSTYLE
  5
36
102
{ACAD_REACTORS
330
2A
102
}
102
{ACAD_XDICTIONARY
360
4C4
102
}
330
2A
100
AcDbVisualStyle
  2
Brighten
 70
    12
 71
     2
 72
     2
 73
     0
 90
        0
 40
-0.6
 41
-30.0
 62
     5
 63
     7
421
 16777215
 74
     1
 91
        4
 64
     7
 65
   257
 75
     1
175
     1
 42
1.0
 92
        8
 66
     7
 43
1.0
 76
     1
 77
     6
 78
     2
 67
     7
 79
     5
170
     0
171
     0
290
     0
174
     0
 93
        1
 44
50.0
173
     0
291
     1
 45
0.0
1001
ACAD
1000
AcDbSavedByObjectVersion
1070
     0
  0
VISUALSTYLE
  5
3A
102
{ACAD_REACTORS
330
2A
102
}
102
{ACAD_XDICTIONARY
360
4CC
102
}
330
2A
100
AcDbVisualStyle
  2
ColorChange
 70
    16
 71
     2
 72
     2
 73
     3
 90
        0
 40
-0.6
 41
-30.0
 62
     5
 63
     8
421
  8421504
 74
     1
 91
        4
 64
     7
 65
   257
 75
     1
175
     1
 42
1.0
 92
        8
 66
     8
424
  8421504
 43
1.0
 76
     1
 77
     6
 78
     2
 67
     7
 79
     5
170
     0
171
     0
290
     0
174
     0
 93
        1
 44
0.0
173
     0
291
     1
 45
0.0
1001
ACAD
1000
AcDbSavedByObjectVersion
1070
     0
  0
VISUALSTYLE
  5
34
102
{ACAD_REACTORS
330
2A
102
}
102
{ACAD_XDICTIONARY
360
4C0
102
}
330
2A
100
AcDbVisualStyle
  2
Conceptual
 70
     9
 71
     3
 72
     2
 73
     0
 90
        0
 40
-0.6
 41
-30.0
 62
     5
 63
     7
421
 16777215
 74
     2
 91
        2
 64
     7
 65
   257
 75
     1
175
     1
 42
40.0
 92
        8
 66
     7
 43
1.0
 76
     1
 77
     6
 78
     2
 67
     7
 79
     3
170
     0
171
     0
290
     0
174
     0
 93
        1
 44
0.0
173
     0
291
     0
 45
0.0
1001
ACAD
1000
AcDbSavedByObjectVersion
1070
     0
  0
VISUALSTYLE
  5
35
102
{ACAD_REACTORS
330
2A
102
}
102
{ACAD_XDICTIONARY
360
4C2
102
}
330
2A
100
AcDbVisualStyle
  2
Dim
 70
    11
 71
     2
 72
     2
 73
     0
 90
        0
 40
-0.6
 41
-30.0
 62
     5
 63
     7
421
 16777215
 74
     1
 91
        4
 64
     7
 65
   257
 75
     1
175
     1
 42
1.0
 92
        8
 66
     7
 43
1.0
 76
     1
 77
     6
 78
     2
 67
     7
 79
     5
170
     0
171
     0
290
     0
174
     0
 93
        1
 44
-50.0
173
     0
291
     1
 45
0.0
1001
ACAD
1000
AcDbSavedByObjectVersion
1070
     0
  0
VISUALSTYLE
  5
39
102
{ACAD_REACTORS
330
2A
102
}
102
{ACAD_XDICTIONARY
360
4CA
102
}
330
2A
100
AcDbVisualStyle
  2
Facepattern
 70
    15
 71
     2
 72
     2
 73
     0
 90
        0
 40
-0.6
 41
-30.0
 62
     5
 63
     7
421
 16777215
 74
     1
 91
        4
 64
     7
 65
   257
 75
     1
175
     1
 42
1.0
 92
        8
 66
     7
 43
1.0
 76
     1
 77
     6
 78
     2
 67
     7
 79
     5
170
     0
171
     0
290
     0
174
     0
 93
        1
 44
0.0
173
     0
291
     1
 45
0.0
1001
ACAD
1000
AcDbSavedByObjectVersion
1070
     0
  0
VISUALSTYLE
  5
2B
102
{ACAD_REACTORS
330
2A
102
}
102
{ACAD_XDICTIONARY
360
4AE
102
}
330
2A
100
AcDbVisualStyle
  2
Flat
 70
     0
 71
     2
 72
     1
 73
     1
 90
        2
 40
-0.6
 41
30.0
 62
     5
 63
     7
421
 16777215
 74
     0
 91
        4
 64
     7
 65
   257
 75
     1
175
     1
 42
1.0
 92
        8
 66
     7
 43
1.0
 76
     1
 77
     6
 78
     2
 67
     7
 79
     5
170
     0
171
     0
290
     0
174
     0
 93
       13
 44
0.0
173
     0
291
     1
 45
0.0
1001
ACAD
1000
AcDbSavedByObjectVersion
1070
     0
  0
VISUALSTYLE
  5
2C
102
{ACAD_REACTORS
330
2A
102
}
102
{ACAD_XDICTIONARY
360
4B0
102
}
330
2A
100
AcDbVisualStyle
  2
FlatWithEdges
 70
     1
 71
     2
 72
     1
 73
     1
 90
        2
 40
-0.6
 41
30.0
 62
     5
 63
     7
421
 16777215
 74
     1
 91
        4
 64
     7
 65
   257
 75
     1
175
     1
 42
1.0
 92
        0
 66
   257
 43
1.0
 76
     1
 77
     6
 78
     2
 67
     7
 79
     5
170
     0
171
     0
290
     0
174
     0
 93
       13
 44
0.0
173
     0
291
     1
 45
0.0
1001
ACAD
1000
AcDbSavedByObjectVersion
1070
     0
  0
VISUALSTYLE
  5
2D
102
{ACAD_REACTORS
330
2A
102
}
102
{ACAD_XDICTIONARY
360
4B2
102
}
330
2A
100
AcDbVisualStyle
  2
Gouraud
 70
     2
 71
     2
 72
     2
 73
     1
 90
        2
 40
-0.6
 41
30.0
 62
     5
 63
     7
421
 16777215
 74
     0
 91
        4
 64
     7
 65
   257
 75
     1
175
     1
 42
1.0
 92
        0
 66
     7
 43
1.0
 76
     1
 77
     6
 78
     2
 67
     7
 79
     5
170
     0
171
     0
290
     0
174
     0
 93
       13
 44
0.0
173
     0
291
     1
 45
0.0
1001
ACAD
1000
AcDbSavedByObjectVersion
1070
     0
  0
VISUALSTYLE
  5
2E
102
{ACAD_REACTORS
330
2A
102
}
102
{ACAD_XDICTIONARY
360
4B4
102
}
330
2A
100
AcDbVisualStyle
  2
GouraudWithEdges
 70
     3
 71
     2
 72
     2
 73
     1
 90
        2
 40
-0.6
 41
30.0
 62
     5
 63
     7
421
 16777215
 74
     1
 91
        4
 64
     7
 65
   257
 75
     1
175
     1
 42
1.0
 92
        0
 66
   257
 43
1.0
 76
     1
 77
     6
 78
     2
 67
     7
 79
     5
170
     0
171
     0
290
     0
174
     0
 93
       13
 44
0.0
173
     0
291
     1
 45
0.0
1001
ACAD
1000
AcDbSavedByObjectVersion
1070
     0
  0
VISUALSTYLE
  5
38
102
{ACAD_REACTORS
330
2A
102
}
102
{ACAD_XDICTIONARY
360
4C8
102
}
330
2A
100
AcDbVisualStyle
  2
Linepattern
 70
    14
 71
     2
 72
     2
 73
     0
 90
        0
 40
-0.6
 41
-30.0
 62
     5
 63
     7
421
 16777215
 74
     1
 91
        4
 64
     7
 65
   257
 75
     7
175
     7
 42
1.0
 92
        8
 66
     7
 43
1.0
 76
     1
 77
     6
 78
     2
 67
     7
 79
     5
170
     0
171
     0
290
     0
174
     0
 93
        1
 44
0.0
173
     0
291
     1
 45
0.0
1001
ACAD
1000
AcDbSavedByObjectVersion
1070
     0
  0
VISUALSTYLE
  5
33
102
{ACAD_REACTORS
330
2A
102
}
102
{ACAD_XDICTIONARY
360
4BE
102
}
330
2A
100
AcDbVisualStyle
  2
Realistic
 70
     8
 71
     2
 72
     2
 73
     0
 90
        0
 40
-0.6
 41
-30.0
 62
     5
 63
     7
421
 16777215
 74
     1
 91
        0
 64
     7
 65
   257
 75
     1
175
     1
 42
1.0
 92
        8
 66
     8
424
  7895160
 43
1.0
 76
     1
 77
     6
 78
     2
 67
     7
 79
     5
170
     0
171
     0
290
     0
174
     0
 93
       13
 44
0.0
173
     0
291
     0
 45
0.0
1001
ACAD
1000
AcDbSavedByObjectVersion
1070
     0
  0
VISUALSTYLE
  5
37
102
{ACAD_REACTORS
330
2A
102
}
102
{ACAD_XDICTIONARY
360
4C6
102
}
330
2A
100
AcDbVisualStyle
  2
Thicken
 70
    13
 71
     2
 72
     2
 73
     0
 90
        0
 40
-0.6
 41
-30.0
 62
     5
 63
     7
421
 16777215
 74
     1
 91
        4
 64
     7
 65
   257
 75
     1
175
     1
 42
1.0
 92
       12
 66
     7
 43
1.0
 76
     1
 77
     6
 78
     2
 67
     7
 79
     5
170
     0
171
     0
290
     0
174
     0
 93
        1
 44
0.0
173
     0
291
     1
 45
0.0
1001
ACAD
1000
AcDbSavedByObjectVersion
1070
     0
  0
DICTIONARY
  5
4D0
330
3D
100
AcDbDictionary
280
     1
281
     1
  3
ACAD_XREC_ROUNDTRIP
360
4D1
  0
DICTIONARY
  5
4CE
330
3C
100
AcDbDictionary
280
     1
281
     1
  3
ACAD_XREC_ROUNDTRIP
360
4CF
  0
DICTIONARY
  5
4D2
330
3E
100
AcDbDictionary
280
     1
281
     1
  3
ACAD_XREC_ROUNDTRIP
360
4D3
  0
DICTIONARY
  5
4B6
330
2F
100
AcDbDictionary
280
     1
281
     1
  3
ACAD_XREC_ROUNDTRIP
360
4B7
  0
DICTIONARY
  5
4BA
330
31
100
AcDbDictionary
280
     1
281
     1
  3
ACAD_XREC_ROUNDTRIP
360
4BB
  0
DICTIONARY
  5
4B8
330
30
100
AcDbDictionary
280
     1
281
     1
  3
ACAD_XREC_ROUNDTRIP
360
4B9
  0
DICTIONARY
  5
4BC
330
32
100
AcDbDictionary
280
     1
281
     1
  3
ACAD_XREC_ROUNDTRIP
360
4BD
  0
DICTIONARY
  5
4C4
330
36
100
AcDbDictionary
280
     1
281
     1
  3
ACAD_XREC_ROUNDTRIP
360
4C5
  0
DICTIONARY
  5
4CC
330
3A
100
AcDbDictionary
280
     1
281
     1
  3
ACAD_XREC_ROUNDTRIP
360
4CD
  0
DICTIONARY
  5
4C0
330
34
100
AcDbDictionary
280
     1
281
     1
  3
ACAD_XREC_ROUNDTRIP
360
4C1
  0
DICTIONARY
  5
4C2
330
35
100
AcDbDictionary
280
     1
281
     1
  3
ACAD_XREC_ROUNDTRIP
360
4C3
  0
DICTIONARY
  5
4CA
330
39
100
AcDbDictionary
280
     1
281
     1
  3
ACAD_XREC_ROUNDTRIP
360
4CB
  0
DICTIONARY
  5
4AE
330
2B
100
AcDbDictionary
280
     1
281
     1
  3
ACAD_XREC_ROUNDTRIP
360
4AF
  0
DICTIONARY
  5
4B0
330
2C
100
AcDbDictionary
280
     1
281
     1
  3
ACAD_XREC_ROUNDTRIP
360
4B1
  0
DICTIONARY
  5
4B2
330
2D
100
AcDbDictionary
280
     1
281
     1
  3
ACAD_XREC_ROUNDTRIP
360
4B3
  0
DICTIONARY
  5
4B4
330
2E
100
AcDbDictionary
280
     1
281
     1
  3
ACAD_XREC_ROUNDTRIP
360
4B5
  0
DICTIONARY
  5
4C8
330
38
100
AcDbDictionary
280
     1
281
     1
  3
ACAD_XREC_ROUNDTRIP
360
4C9
  0
DICTIONARY
  5
4BE
330
33
100
AcDbDictionary
280
     1
281
     1
  3
ACAD_XREC_ROUNDTRIP
360
4BF
  0
DICTIONARY
  5
4C6
330
37
100
AcDbDictionary
280
     1
281
     1
  3
ACAD_XREC_ROUNDTRIP
360
4C7
  0
XRECORD
  5
4D1
102
{ACAD_REACTORS
330
4D0
102
}
330
4D0
100
AcDbXrecord
280
     1
102
MATERIAL
148
0.0
149
0.0
149
0.0
 93
        0
 94
      127
282
     0
 72
     1
 77
     1
171
     1
175
     1
179
     1
273
     0
  0
XRECORD
  5
4CF
102
{ACAD_REACTORS
330
4CE
102
}
330
4CE
100
AcDbXrecord
280
     1
102
MATERIAL
148
0.0
149
0.0
149
0.0
 93
        0
 94
      127
282
     0
 72
     1
 77
     1
171
     1
175
     1
179
     1
273
     0
  0
XRECORD
  5
4D3
102
{ACAD_REACTORS
330
4D2
102
}
330
4D2
100
AcDbXrecord
280
     1
102
MATERIAL
148
0.0
149
0.0
149
0.0
 93
        0
 94
      127
282
     0
 72
     1
 77
     1
171
     1
175
     1
179
     1
273
     0
  0
XRECORD
  5
4B7
102
{ACAD_REACTORS
330
4B6
102
}
330
4B6
100
AcDbXrecord
280
     1
102
RTVSPropertyOp0
 70
     1
102
RTVSPropertyOp1
 70
     1
102
RTVSPropertyOp2
 70
     1
102
RTVSPropertyOp3
 70
     1
102
RTVSPropertyOp4
 70
     1
102
RTVSPropertyOp5
 70
     1
102
RTVSPropertyOp6
 70
     1
102
RTVSPropertyOp7
 70
     1
102
RTVSPropertyOp8
 70
     1
102
RTVSPropertyOp9
 70
     1
102
RTVSPropertyOp10
 70
     1
102
RTVSPropertyOp11
 70
     1
102
RTVSPropertyOp12
 70
     1
102
RTVSPropertyOp13
 70
     1
102
RTVSPropertyOp14
 70
     1
102
RTVSPropertyOp15
 70
     1
102
RTVSPropertyOp16
 70
     1
102
RTVSPropertyOp17
 70
     1
102
RTVSPropertyOp18
 70
     1
102
RTVSPropertyOp19
 70
     1
102
RTVSPropertyOp20
 70
     1
102
RTVSPropertyOp21
 70
     1
102
RTVSPropertyOp22
 70
     1
102
RTVSPropertyOp23
 70
     1
102
RTVSPropertyOp24
 70
     1
102
RTVSPropertyOp25
 70
     1
102
RTVSPropertyOp26
 70
     1
102
RTVSPropertyOp27
 70
     1
102
RTVSPropertyOp28
 70
     1
102
RTVSPropertyOp29
 70
     1
102
RTVSPropertyOp30
 70
     1
102
RTVSPropertyOp31
 70
     1
102
RTVSPropertyOp32
 70
     1
  0
XRECORD
  5
4BB
102
{ACAD_REACTORS
330
4BA
102
}
330
4BA
100
AcDbXrecord
280
     1
102
RTVSPropertyOp0
 70
     1
102
RTVSPropertyOp1
 70
     1
102
RTVSPropertyOp2
 70
     1
102
RTVSPropertyOp3
 70
     1
102
RTVSPropertyOp4
 70
     1
102
RTVSPropertyOp5
 70
     1
102
RTVSPropertyOp6
 70
     1
102
RTVSPropertyOp7
 70
     1
102
RTVSPropertyOp8
 70
     1
102
RTVSPropertyOp9
 70
     1
102
RTVSPropertyOp10
 70
     1
102
RTVSPropertyOp11
 70
     1
102
RTVSPropertyOp12
 70
     1
102
RTVSPropertyOp13
 70
     1
102
RTVSPropertyOp14
 70
     1
102
RTVSPropertyOp15
 70
     1
102
RTVSPropertyOp16
 70
     1
102
RTVSPropertyOp17
 70
     1
102
RTVSPropertyOp18
 70
     1
102
RTVSPropertyOp19
 70
     1
102
RTVSPropertyOp20
 70
     1
102
RTVSPropertyOp21
 70
     1
102
RTVSPropertyOp22
 70
     1
102
RTVSPropertyOp23
 70
     1
102
RTVSPropertyOp24
 70
     1
102
RTVSPropertyOp25
 70
     1
102
RTVSPropertyOp26
 70
     1
102
RTVSPropertyOp27
 70
     1
102
RTVSPropertyOp28
 70
     1
102
RTVSPropertyOp29
 70
     1
102
RTVSPropertyOp30
 70
     1
102
RTVSPropertyOp31
 70
     1
102
RTVSPropertyOp32
 70
     1
  0
XRECORD
  5
4B9
102
{ACAD_REACTORS
330
4B8
102
}
330
4B8
100
AcDbXrecord
280
     1
102
RTVSPropertyOp0
 70
     1
102
RTVSPropertyOp1
 70
     1
102
RTVSPropertyOp2
 70
     1
102
RTVSPropertyOp3
 70
     1
102
RTVSPropertyOp4
 70
     1
102
RTVSPropertyOp5
 70
     1
102
RTVSPropertyOp6
 70
     1
102
RTVSPropertyOp7
 70
     1
102
RTVSPropertyOp8
 70
     1
102
RTVSPropertyOp9
 70
     1
102
RTVSPropertyOp10
 70
     1
102
RTVSPropertyOp11
 70
     1
102
RTVSPropertyOp12
 70
     1
102
RTVSPropertyOp13
 70
     1
102
RTVSPropertyOp14
 70
     1
102
RTVSPropertyOp15
 70
     1
102
RTVSPropertyOp16
 70
     1
102
RTVSPropertyOp17
 70
     1
102
RTVSPropertyOp18
 70
     1
102
RTVSPropertyOp19
 70
     1
102
RTVSPropertyOp20
 70
     1
102
RTVSPropertyOp21
 70
     1
102
RTVSPropertyOp22
 70
     1
102
RTVSPropertyOp23
 70
     1
102
RTVSPropertyOp24
 70
     1
102
RTVSPropertyOp25
 70
     1
102
RTVSPropertyOp26
 70
     1
102
RTVSPropertyOp27
 70
     1
102
RTVSPropertyOp28
 70
     1
102
RTVSPropertyOp29
 70
     1
102
RTVSPropertyOp30
 70
     1
102
RTVSPropertyOp31
 70
     1
102
RTVSPropertyOp32
 70
     1
  0
XRECORD
  5
4BD
102
{ACAD_REACTORS
330
4BC
102
}
330
4BC
100
AcDbXrecord
280
     1
102
RTVSPropertyOp0
 70
     1
102
RTVSPropertyOp1
 70
     1
102
RTVSPropertyOp2
 70
     1
102
RTVSPropertyOp3
 70
     1
102
RTVSPropertyOp4
 70
     1
102
RTVSPropertyOp5
 70
     1
102
RTVSPropertyOp6
 70
     1
102
RTVSPropertyOp7
 70
     1
102
RTVSPropertyOp8
 70
     1
102
RTVSPropertyOp9
 70
     1
102
RTVSPropertyOp10
 70
     1
102
RTVSPropertyOp11
 70
     1
102
RTVSPropertyOp12
 70
     1
102
RTVSPropertyOp13
 70
     1
102
RTVSPropertyOp14
 70
     1
102
RTVSPropertyOp15
 70
     1
102
RTVSPropertyOp16
 70
     1
102
RTVSPropertyOp17
 70
     1
102
RTVSPropertyOp18
 70
     1
102
RTVSPropertyOp19
 70
     1
102
RTVSPropertyOp20
 70
     1
102
RTVSPropertyOp21
 70
     1
102
RTVSPropertyOp22
 70
     1
102
RTVSPropertyOp23
 70
     1
102
RTVSPropertyOp24
 70
     1
102
RTVSPropertyOp25
 70
     1
102
RTVSPropertyOp26
 70
     1
102
RTVSPropertyOp27
 70
     1
102
RTVSPropertyOp28
 70
     1
102
RTVSPropertyOp29
 70
     1
102
RTVSPropertyOp30
 70
     1
102
RTVSPropertyOp31
 70
     1
102
RTVSPropertyOp32
 70
     1
  0
XRECORD
  5
4C5
102
{ACAD_REACTORS
330
4C4
102
}
330
4C4
100
AcDbXrecord
280
     1
102
RTVSPropertyOp0
 70
     1
102
RTVSPropertyOp1
 70
     1
102
RTVSPropertyOp2
 70
     1
102
RTVSPropertyOp3
 70
     1
102
RTVSPropertyOp4
 70
     1
102
RTVSPropertyOp5
 70
     1
102
RTVSPropertyOp6
 70
     1
102
RTVSPropertyOp7
 70
     1
102
RTVSPropertyOp8
 70
     1
102
RTVSPropertyOp9
 70
     1
102
RTVSPropertyOp10
 70
     1
102
RTVSPropertyOp11
 70
     1
102
RTVSPropertyOp12
 70
     1
102
RTVSPropertyOp13
 70
     1
102
RTVSPropertyOp14
 70
     1
102
RTVSPropertyOp15
 70
     1
102
RTVSPropertyOp16
 70
     1
102
RTVSPropertyOp17
 70
     1
102
RTVSPropertyOp18
 70
     1
102
RTVSPropertyOp19
 70
     1
102
RTVSPropertyOp20
 70
     1
102
RTVSPropertyOp21
 70
     1
102
RTVSPropertyOp22
 70
     1
102
RTVSPropertyOp23
 70
     1
102
RTVSPropertyOp24
 70
     1
102
RTVSPropertyOp25
 70
     1
102
RTVSPropertyOp26
 70
     1
102
RTVSPropertyOp27
 70
     1
102
RTVSPropertyOp28
 70
     1
102
RTVSPropertyOp29
 70
     1
102
RTVSPropertyOp30
 70
     1
102
RTVSPropertyOp31
 70
     1
102
RTVSPropertyOp32
 70
     1
  0
XRECORD
  5
4CD
102
{ACAD_REACTORS
330
4CC
102
}
330
4CC
100
AcDbXrecord
280
     1
102
RTVSPropertyOp0
 70
     1
102
RTVSPropertyOp1
 70
     1
102
RTVSPropertyOp2
 70
     1
102
RTVSPropertyOp3
 70
     1
102
RTVSPropertyOp4
 70
     1
102
RTVSPropertyOp5
 70
     1
102
RTVSPropertyOp6
 70
     1
102
RTVSPropertyOp7
 70
     1
102
RTVSPropertyOp8
 70
     1
102
RTVSPropertyOp9
 70
     1
102
RTVSPropertyOp10
 70
     1
102
RTVSPropertyOp11
 70
     1
102
RTVSPropertyOp12
 70
     1
102
RTVSPropertyOp13
 70
     1
102
RTVSPropertyOp14
 70
     1
102
RTVSPropertyOp15
 70
     1
102
RTVSPropertyOp16
 70
     1
102
RTVSPropertyOp17
 70
     1
102
RTVSPropertyOp18
 70
     1
102
RTVSPropertyOp19
 70
     1
102
RTVSPropertyOp20
 70
     1
102
RTVSPropertyOp21
 70
     1
102
RTVSPropertyOp22
 70
     1
102
RTVSPropertyOp23
 70
     1
102
RTVSPropertyOp24
 70
     1
102
RTVSPropertyOp25
 70
     1
102
RTVSPropertyOp26
 70
     1
102
RTVSPropertyOp27
 70
     1
102
RTVSPropertyOp28
 70
     1
102
RTVSPropertyOp29
 70
     1
102
RTVSPropertyOp30
 70
     1
102
RTVSPropertyOp31
 70
     1
102
RTVSPropertyOp32
 70
     1
  0
XRECORD
  5
4C1
102
{ACAD_REACTORS
330
4C0
102
}
330
4C0
100
AcDbXrecord
280
     1
102
RTVSPropertyOp0
 70
     1
102
RTVSPropertyOp1
 70
     1
102
RTVSPropertyOp2
 70
     1
102
RTVSPropertyOp3
 70
     1
102
RTVSPropertyOp4
 70
     1
102
RTVSPropertyOp5
 70
     1
102
RTVSPropertyOp6
 70
     1
102
RTVSPropertyOp7
 70
     1
102
RTVSPropertyOp8
 70
     1
102
RTVSPropertyOp9
 70
     1
102
RTVSPropertyOp10
 70
     1
102
RTVSPropertyOp11
 70
     1
102
RTVSPropertyOp12
 70
     1
102
RTVSPropertyOp13
 70
     1
102
RTVSPropertyOp14
 70
     1
102
RTVSPropertyOp15
 70
     1
102
RTVSPropertyOp16
 70
     1
102
RTVSPropertyOp17
 70
     1
102
RTVSPropertyOp18
 70
     1
102
RTVSPropertyOp19
 70
     1
102
RTVSPropertyOp20
 70
     1
102
RTVSPropertyOp21
 70
     1
102
RTVSPropertyOp22
 70
     1
102
RTVSPropertyOp23
 70
     1
102
RTVSPropertyOp24
 70
     1
102
RTVSPropertyOp25
 70
     1
102
RTVSPropertyOp26
 70
     1
102
RTVSPropertyOp27
 70
     1
102
RTVSPropertyOp28
 70
     1
102
RTVSPropertyOp29
 70
     1
102
RTVSPropertyOp30
 70
     1
102
RTVSPropertyOp31
 70
     1
102
RTVSPropertyOp32
 70
     1
  0
XRECORD
  5
4C3
102
{ACAD_REACTORS
330
4C2
102
}
330
4C2
100
AcDbXrecord
280
     1
102
RTVSPropertyOp0
 70
     1
102
RTVSPropertyOp1
 70
     1
102
RTVSPropertyOp2
 70
     1
102
RTVSPropertyOp3
 70
     1
102
RTVSPropertyOp4
 70
     1
102
RTVSPropertyOp5
 70
     1
102
RTVSPropertyOp6
 70
     1
102
RTVSPropertyOp7
 70
     1
102
RTVSPropertyOp8
 70
     1
102
RTVSPropertyOp9
 70
     1
102
RTVSPropertyOp10
 70
     1
102
RTVSPropertyOp11
 70
     1
102
RTVSPropertyOp12
 70
     1
102
RTVSPropertyOp13
 70
     1
102
RTVSPropertyOp14
 70
     1
102
RTVSPropertyOp15
 70
     1
102
RTVSPropertyOp16
 70
     1
102
RTVSPropertyOp17
 70
     1
102
RTVSPropertyOp18
 70
     1
102
RTVSPropertyOp19
 70
     1
102
RTVSPropertyOp20
 70
     1
102
RTVSPropertyOp21
 70
     1
102
RTVSPropertyOp22
 70
     1
102
RTVSPropertyOp23
 70
     1
102
RTVSPropertyOp24
 70
     1
102
RTVSPropertyOp25
 70
     1
102
RTVSPropertyOp26
 70
     1
102
RTVSPropertyOp27
 70
     1
102
RTVSPropertyOp28
 70
     1
102
RTVSPropertyOp29
 70
     1
102
RTVSPropertyOp30
 70
     1
102
RTVSPropertyOp31
 70
     1
102
RTVSPropertyOp32
 70
     1
  0
XRECORD
  5
4CB
102
{ACAD_REACTORS
330
4CA
102
}
330
4CA
100
AcDbXrecord
280
     1
102
RTVSPropertyOp0
 70
     1
102
RTVSPropertyOp1
 70
     1
102
RTVSPropertyOp2
 70
     1
102
RTVSPropertyOp3
 70
     1
102
RTVSPropertyOp4
 70
     1
102
RTVSPropertyOp5
 70
     1
102
RTVSPropertyOp6
 70
     1
102
RTVSPropertyOp7
 70
     1
102
RTVSPropertyOp8
 70
     1
102
RTVSPropertyOp9
 70
     1
102
RTVSPropertyOp10
 70
     1
102
RTVSPropertyOp11
 70
     1
102
RTVSPropertyOp12
 70
     1
102
RTVSPropertyOp13
 70
     1
102
RTVSPropertyOp14
 70
     1
102
RTVSPropertyOp15
 70
     1
102
RTVSPropertyOp16
 70
     1
102
RTVSPropertyOp17
 70
     1
102
RTVSPropertyOp18
 70
     1
102
RTVSPropertyOp19
 70
     1
102
RTVSPropertyOp20
 70
     1
102
RTVSPropertyOp21
 70
     1
102
RTVSPropertyOp22
 70
     1
102
RTVSPropertyOp23
 70
     1
102
RTVSPropertyOp24
 70
     1
102
RTVSPropertyOp25
 70
     1
102
RTVSPropertyOp26
 70
     1
102
RTVSPropertyOp27
 70
     1
102
RTVSPropertyOp28
 70
     1
102
RTVSPropertyOp29
 70
     1
102
RTVSPropertyOp30
 70
     1
102
RTVSPropertyOp31
 70
     1
102
RTVSPropertyOp32
 70
     1
  0
XRECORD
  5
4AF
102
{ACAD_REACTORS
330
4AE
102
}
330
4AE
100
AcDbXrecord
280
     1
102
RTVSPropertyOp0
 70
     1
102
RTVSPropertyOp1
 70
     1
102
RTVSPropertyOp2
 70
     1
102
RTVSPropertyOp3
 70
     1
102
RTVSPropertyOp4
 70
     1
102
RTVSPropertyOp5
 70
     1
102
RTVSPropertyOp6
 70
     1
102
RTVSPropertyOp7
 70
     1
102
RTVSPropertyOp8
 70
     1
102
RTVSPropertyOp9
 70
     1
102
RTVSPropertyOp10
 70
     1
102
RTVSPropertyOp11
 70
     1
102
RTVSPropertyOp12
 70
     1
102
RTVSPropertyOp13
 70
     1
102
RTVSPropertyOp14
 70
     1
102
RTVSPropertyOp15
 70
     1
102
RTVSPropertyOp16
 70
     1
102
RTVSPropertyOp17
 70
     1
102
RTVSPropertyOp18
 70
     1
102
RTVSPropertyOp19
 70
     1
102
RTVSPropertyOp20
 70
     1
102
RTVSPropertyOp21
 70
     1
102
RTVSPropertyOp22
 70
     1
102
RTVSPropertyOp23
 70
     1
102
RTVSPropertyOp24
 70
     1
102
RTVSPropertyOp25
 70
     1
102
RTVSPropertyOp26
 70
     1
102
RTVSPropertyOp27
 70
     1
102
RTVSPropertyOp28
 70
     1
102
RTVSPropertyOp29
 70
     1
102
RTVSPropertyOp30
 70
     1
102
RTVSPropertyOp31
 70
     1
102
RTVSPropertyOp32
 70
     1
  0
XRECORD
  5
4B1
102
{ACAD_REACTORS
330
4B0
102
}
330
4B0
100
AcDbXrecord
280
     1
102
RTVSPropertyOp0
 70
     1
102
RTVSPropertyOp1
 70
     1
102
RTVSPropertyOp2
 70
     1
102
RTVSPropertyOp3
 70
     1
102
RTVSPropertyOp4
 70
     1
102
RTVSPropertyOp5
 70
     1
102
RTVSPropertyOp6
 70
     1
102
RTVSPropertyOp7
 70
     1
102
RTVSPropertyOp8
 70
     1
102
RTVSPropertyOp9
 70
     1
102
RTVSPropertyOp10
 70
     1
102
RTVSPropertyOp11
 70
     1
102
RTVSPropertyOp12
 70
     1
102
RTVSPropertyOp13
 70
     1
102
RTVSPropertyOp14
 70
     1
102
RTVSPropertyOp15
 70
     1
102
RTVSPropertyOp16
 70
     1
102
RTVSPropertyOp17
 70
     1
102
RTVSPropertyOp18
 70
     1
102
RTVSPropertyOp19
 70
     1
102
RTVSPropertyOp20
 70
     1
102
RTVSPropertyOp21
 70
     1
102
RTVSPropertyOp22
 70
     1
102
RTVSPropertyOp23
 70
     1
102
RTVSPropertyOp24
 70
     1
102
RTVSPropertyOp25
 70
     1
102
RTVSPropertyOp26
 70
     1
102
RTVSPropertyOp27
 70
     1
102
RTVSPropertyOp28
 70
     1
102
RTVSPropertyOp29
 70
     1
102
RTVSPropertyOp30
 70
     1
102
RTVSPropertyOp31
 70
     1
102
RTVSPropertyOp32
 70
     1
  0
XRECORD
  5
4B3
102
{ACAD_REACTORS
330
4B2
102
}
330
4B2
100
AcDbXrecord
280
     1
102
RTVSPropertyOp0
 70
     1
102
RTVSPropertyOp1
 70
     1
102
RTVSPropertyOp2
 70
     1
102
RTVSPropertyOp3
 70
     1
102
RTVSPropertyOp4
 70
     1
102
RTVSPropertyOp5
 70
     1
102
RTVSPropertyOp6
 70
     1
102
RTVSPropertyOp7
 70
     1
102
RTVSPropertyOp8
 70
     1
102
RTVSPropertyOp9
 70
     1
102
RTVSPropertyOp10
 70
     1
102
RTVSPropertyOp11
 70
     1
102
RTVSPropertyOp12
 70
     1
102
RTVSPropertyOp13
 70
     1
102
RTVSPropertyOp14
 70
     1
102
RTVSPropertyOp15
 70
     1
102
RTVSPropertyOp16
 70
     1
102
RTVSPropertyOp17
 70
     1
102
RTVSPropertyOp18
 70
     1
102
RTVSPropertyOp19
 70
     1
102
RTVSPropertyOp20
 70
     1
102
RTVSPropertyOp21
 70
     1
102
RTVSPropertyOp22
 70
     1
102
RTVSPropertyOp23
 70
     1
102
RTVSPropertyOp24
 70
     1
102
RTVSPropertyOp25
 70
     1
102
RTVSPropertyOp26
 70
     1
102
RTVSPropertyOp27
 70
     1
102
RTVSPropertyOp28
 70
     1
102
RTVSPropertyOp29
 70
     1
102
RTVSPropertyOp30
 70
     1
102
RTVSPropertyOp31
 70
     1
102
RTVSPropertyOp32
 70
     1
  0
XRECORD
  5
4B5
102
{ACAD_REACTORS
330
4B4
102
}
330
4B4
100
AcDbXrecord
280
     1
102
RTVSPropertyOp0
 70
     1
102
RTVSPropertyOp1
 70
     1
102
RTVSPropertyOp2
 70
     1
102
RTVSPropertyOp3
 70
     1
102
RTVSPropertyOp4
 70
     1
102
RTVSPropertyOp5
 70
     1
102
RTVSPropertyOp6
 70
     1
102
RTVSPropertyOp7
 70
     1
102
RTVSPropertyOp8
 70
     1
102
RTVSPropertyOp9
 70
     1
102
RTVSPropertyOp10
 70
     1
102
RTVSPropertyOp11
 70
     1
102
RTVSPropertyOp12
 70
     1
102
RTVSPropertyOp13
 70
     1
102
RTVSPropertyOp14
 70
     1
102
RTVSPropertyOp15
 70
     1
102
RTVSPropertyOp16
 70
     1
102
RTVSPropertyOp17
 70
     1
102
RTVSPropertyOp18
 70
     1
102
RTVSPropertyOp19
 70
     1
102
RTVSPropertyOp20
 70
     1
102
RTVSPropertyOp21
 70
     1
102
RTVSPropertyOp22
 70
     1
102
RTVSPropertyOp23
 70
     1
102
RTVSPropertyOp24
 70
     1
102
RTVSPropertyOp25
 70
     1
102
RTVSPropertyOp26
 70
     1
102
RTVSPropertyOp27
 70
     1
102
RTVSPropertyOp28
 70
     1
102
RTVSPropertyOp29
 70
     1
102
RTVSPropertyOp30
 70
     1
102
RTVSPropertyOp31
 70
     1
102
RTVSPropertyOp32
 70
     1
  0
XRECORD
  5
4C9
102
{ACAD_REACTORS
330
4C8
102
}
330
4C8
100
AcDbXrecord
280
     1
102
RTVSPropertyOp0
 70
     1
102
RTVSPropertyOp1
 70
     1
102
RTVSPropertyOp2
 70
     1
102
RTVSPropertyOp3
 70
     1
102
RTVSPropertyOp4
 70
     1
102
RTVSPropertyOp5
 70
     1
102
RTVSPropertyOp6
 70
     1
102
RTVSPropertyOp7
 70
     1
102
RTVSPropertyOp8
 70
     1
102
RTVSPropertyOp9
 70
     1
102
RTVSPropertyOp10
 70
     1
102
RTVSPropertyOp11
 70
     1
102
RTVSPropertyOp12
 70
     1
102
RTVSPropertyOp13
 70
     1
102
RTVSPropertyOp14
 70
     1
102
RTVSPropertyOp15
 70
     1
102
RTVSPropertyOp16
 70
     1
102
RTVSPropertyOp17
 70
     1
102
RTVSPropertyOp18
 70
     1
102
RTVSPropertyOp19
 70
     1
102
RTVSPropertyOp20
 70
     1
102
RTVSPropertyOp21
 70
     1
102
RTVSPropertyOp22
 70
     1
102
RTVSPropertyOp23
 70
     1
102
RTVSPropertyOp24
 70
     1
102
RTVSPropertyOp25
 70
     1
102
RTVSPropertyOp26
 70
     1
102
RTVSPropertyOp27
 70
     1
102
RTVSPropertyOp28
 70
     1
102
RTVSPropertyOp29
 70
     1
102
RTVSPropertyOp30
 70
     1
102
RTVSPropertyOp31
 70
     1
102
RTVSPropertyOp32
 70
     1
  0
XRECORD
  5
4BF
102
{ACAD_REACTORS
330
4BE
102
}
330
4BE
100
AcDbXrecord
280
     1
102
RTVSPropertyOp0
 70
     1
102
RTVSPropertyOp1
 70
     1
102
RTVSPropertyOp2
 70
     1
102
RTVSPropertyOp3
 70
     1
102
RTVSPropertyOp4
 70
     1
102
RTVSPropertyOp5
 70
     1
102
RTVSPropertyOp6
 70
     1
102
RTVSPropertyOp7
 70
     1
102
RTVSPropertyOp8
 70
     1
102
RTVSPropertyOp9
 70
     1
102
RTVSPropertyOp10
 70
     1
102
RTVSPropertyOp11
 70
     1
102
RTVSPropertyOp12
 70
     1
102
RTVSPropertyOp13
 70
     1
102
RTVSPropertyOp14
 70
     1
102
RTVSPropertyOp15
 70
     1
102
RTVSPropertyOp16
 70
     1
102
RTVSPropertyOp17
 70
     1
102
RTVSPropertyOp18
 70
     1
102
RTVSPropertyOp19
 70
     1
102
RTVSPropertyOp20
 70
     1
102
RTVSPropertyOp21
 70
     1
102
RTVSPropertyOp22
 70
     1
102
RTVSPropertyOp23
 70
     1
102
RTVSPropertyOp24
 70
     1
102
RTVSPropertyOp25
 70
     1
102
RTVSPropertyOp26
 70
     1
102
RTVSPropertyOp27
 70
     1
102
RTVSPropertyOp28
 70
     1
102
RTVSPropertyOp29
 70
     1
102
RTVSPropertyOp30
 70
     1
102
RTVSPropertyOp31
 70
     1
102
RTVSPropertyOp32
 70
     1
  0
XRECORD
  5
4C7
102
{ACAD_REACTORS
330
4C6
102
}
330
4C6
100
AcDbXrecord
280
     1
102
RTVSPropertyOp0
 70
     1
102
RTVSPropertyOp1
 70
     1
102
RTVSPropertyOp2
 70
     1
102
RTVSPropertyOp3
 70
     1
102
RTVSPropertyOp4
 70
     1
102
RTVSPropertyOp5
 70
     1
102
RTVSPropertyOp6
 70
     1
102
RTVSPropertyOp7
 70
     1
102
RTVSPropertyOp8
 70
     1
102
RTVSPropertyOp9
 70
     1
102
RTVSPropertyOp10
 70
     1
102
RTVSPropertyOp11
 70
     1
102
RTVSPropertyOp12
 70
     1
102
RTVSPropertyOp13
 70
     1
102
RTVSPropertyOp14
 70
     1
102
RTVSPropertyOp15
 70
     1
102
RTVSPropertyOp16
 70
     1
102
RTVSPropertyOp17
 70
     1
102
RTVSPropertyOp18
 70
     1
102
RTVSPropertyOp19
 70
     1
102
RTVSPropertyOp20
 70
     1
102
RTVSPropertyOp21
 70
     1
102
RTVSPropertyOp22
 70
     1
102
RTVSPropertyOp23
 70
     1
102
RTVSPropertyOp24
 70
     1
102
RTVSPropertyOp25
 70
     1
102
RTVSPropertyOp26
 70
     1
102
RTVSPropertyOp27
 70
     1
102
RTVSPropertyOp28
 70
     1
102
RTVSPropertyOp29
 70
     1
102
RTVSPropertyOp30
 70
     1
102
RTVSPropertyOp31
 70
     1
102
RTVSPropertyOp32
 70
     1
  0
ENDSEC
  0
EOF
