  0
SECTION
  2
HEADER
  9
$ACADVER
  1
AC1018
  9
$ACADMAINTVER
 70
     0
  9
$DWGCODEPAGE
  3
ANSI_1252
  9
$INSBASE
 10
0.0
 20
0.0
 30
0.0
  9
$EXTMIN
 10
-1164.193134393199
 20
-1115.22782908762
 30
0.0
  9
$EXTMAX
 10
-867.1931343932013
 20
-905.22782908762
 30
0.0
  9
$LIMMIN
 10
0.0
 20
0.0
  9
$LIMMAX
 10
12.0
 20
9.0
  9
$ORTHOMODE
 70
     0
  9
$REGENMODE
 70
     1
  9
$FILLMODE
 70
     1
  9
$QTEXTMODE
 70
     0
  9
$MIRRTEXT
 70
     1
  9
$LTSCALE
 40
1.0
  9
$ATTMODE
 70
     1
  9
$TEXTSIZE
 40
0.2
  9
$TRACEWID
 40
0.05
  9
$TEXTSTYLE
  7
Standard
  9
$CLAYER
  8
0
  9
$CELTYPE
  6
ByLayer
  9
$CECOLOR
 62
   256
  9
$CELTSCALE
 40
1.0
  9
$DISPSILH
 70
     0
  9
$DIMSCALE
 40
1.0
  9
$DIMASZ
 40
0.18
  9
$DIMEXO
 40
0.0625
  9
$DIMDLI
 40
0.38
  9
$DIMRND
 40
0.0
  9
$DIMDLE
 40
0.0
  9
$DIMEXE
 40
0.18
  9
$DIMTP
 40
0.0
  9
$DIMTM
 40
0.0
  9
$DIMTXT
 40
0.18
  9
$DIMCEN
 40
0.09
  9
$DIMTSZ
 40
0.0
  9
$DIMTOL
 70
     0
  9
$DIMLIM
 70
     0
  9
$DIMTIH
 70
     1
  9
$DIMTOH
 70
     1
  9
$DIMSE1
 70
     0
  9
$DIMSE2
 70
     0
  9
$DIMTAD
 70
     0
  9
$DIMZIN
 70
     0
  9
$DIMBLK
  1

  9
$DIMASO
 70
     1
  9
$DIMSHO
 70
     1
  9
$DIMPOST
  1

  9
$DIMAPOST
  1

  9
$DIMALT
 70
     0
  9
$DIMALTD
 70
     2
  9
$DIMALTF
 40
25.4
  9
$DIMLFAC
 40
1.0
  9
$DIMTOFL
 70
     0
  9
$DIMTVP
 40
0.0
  9
$DIMTIX
 70
     0
  9
$DIMSOXD
 70
     0
  9
$DIMSAH
 70
     0
  9
$DIMBLK1
  1

  9
$DIMBLK2
  1

  9
$DIMSTYLE
  2
Standard
  9
$DIMCLRD
 70
     0
  9
$DIMCLRE
 70
     0
  9
$DIMCLRT
 70
     0
  9
$DIMTFAC
 40
1.0
  9
$DIMGAP
 40
0.09
  9
$DIMJUST
 70
     0
  9
$DIMSD1
 70
     0
  9
$DIMSD2
 70
     0
  9
$DIMTOLJ
 70
     1
  9
$DIMTZIN
 70
     0
  9
$DIMALTZ
 70
     0
  9
$DIMALTTZ
 70
     0
  9
$DIMUPT
 70
     0
  9
$DIMDEC
 70
     4
  9
$DIMTDEC
 70
     4
  9
$DIMALTU
 70
     2
  9
$DIMALTTD
 70
     2
  9
$DIMTXSTY
  7
Standard
  9
$DIMAUNIT
 70
     0
  9
$DIMADEC
 70
     0
  9
$DIMALTRND
 40
0.0
  9
$DIMAZIN
 70
     0
  9
$DIMDSEP
 70
    46
  9
$DIMATFIT
 70
     3
  9
$DIMFRAC
 70
     0
  9
$DIMLDRBLK
  1

  9
$DIMLUNIT
 70
     2
  9
$DIMLWD
 70
    -2
  9
$DIMLWE
 70
    -2
  9
$DIMTMOVE
 70
     0
  9
$LUNITS
 70
     2
  9
$LUPREC
 70
     4
  9
$SKETCHINC
 40
0.1
  9
$FILLETRAD
 40
0.5
  9
$AUNITS
 70
     0
  9
$AUPREC
 70
     0
  9
$MENU
  1
.
  9
$ELEVATION
 40
0.0
  9
$PELEVATION
 40
0.0
  9
$THICKNESS
 40
0.0
  9
$LIMCHECK
 70
     0
  9
$CHAMFERA
 40
0.5
  9
$CHAMFERB
 40
0.5
  9
$CHAMFERC
 40
1.0
  9
$CHAMFERD
 40
0.0
  9
$SKPOLY
 70
     0
  9
$TDCREATE
 40
2458509.58828794
  9
$TDUCREATE
 40
2458509.546621273
  9
$TDUPDATE
 40
2458509.588288657
  9
$TDUUPDATE
 40
2458509.546621991
  9
$TDINDWG
 40
0.0000000116
  9
$TDUSRTIMER
 40
0.0000000116
  9
$USRTIMER
 70
     1
  9
$ANGBASE
 50
0.0
  9
$ANGDIR
 70
     0
  9
$PDMODE
 70
     0
  9
$PDSIZE
 40
0.0
  9
$PLINEWID
 40
0.0
  9
$SPLFRAME
 70
     0
  9
$SPLINETYPE
 70
     6
  9
$SPLINESEGS
 70
     8
  9
$HANDSEED
  5
44F
  9
$SURFTAB1
 70
     6
  9
$SURFTAB2
 70
     6
  9
$SURFTYPE
 70
     6
  9
$SURFU
 70
     6
  9
$SURFV
 70
     6
  9
$UCSBASE
  2

  9
$UCSNAME
  2

  9
$UCSORG
 10
0.0
 20
0.0
 30
0.0
  9
$UCSXDIR
 10
1.0
 20
0.0
 30
0.0
  9
$UCSYDIR
 10
0.0
 20
1.0
 30
0.0
  9
$UCSORTHOREF
  2

  9
$UCSORTHOVIEW
 70
     0
  9
$UCSORGTOP
 10
0.0
 20
0.0
 30
0.0
  9
$UCSORGBOTTOM
 10
0.0
 20
0.0
 30
0.0
  9
$UCSORGLEFT
 10
0.0
 20
0.0
 30
0.0
  9
$UCSORGRIGHT
 10
0.0
 20
0.0
 30
0.0
  9
$UCSORGFRONT
 10
0.0
 20
0.0
 30
0.0
  9
$UCSORGBACK
 10
0.0
 20
0.0
 30
0.0
  9
$PUCSBASE
  2

  9
$PUCSNAME
  2

  9
$PUCSORG
 10
0.0
 20
0.0
 30
0.0
  9
$PUCSXDIR
 10
1.0
 20
0.0
 30
0.0
  9
$PUCSYDIR
 10
0.0
 20
1.0
 30
0.0
  9
$PUCSORTHOREF
  2

  9
$PUCSORTHOVIEW
 70
     0
  9
$PUCSORGTOP
 10
0.0
 20
0.0
 30
0.0
  9
$PUCSORGBOTTOM
 10
0.0
 20
0.0
 30
0.0
  9
$PUCSORGLEFT
 10
0.0
 20
0.0
 30
0.0
  9
$PUCSORGRIGHT
 10
0.0
 20
0.0
 30
0.0
  9
$PUCSORGFRONT
 10
0.0
 20
0.0
 30
0.0
  9
$PUCSORGBACK
 10
0.0
 20
0.0
 30
0.0
  9
$USERI1
 70
     0
  9
$USERI2
 70
     0
  9
$USERI3
 70
     0
  9
$USERI4
 70
     0
  9
$USERI5
 70
     0
  9
$USERR1
 40
18.1
  9
$USERR2
 40
0.0
  9
$USERR3
 40
0.0
  9
$USERR4
 40
0.0
  9
$USERR5
 40
0.0
  9
$WORLDVIEW
 70
     1
  9
$SHADEDGE
 70
     3
  9
$SHADEDIF
 70
    70
  9
$TILEMODE
 70
     1
  9
$MAXACTVP
 70
    64
  9
$PINSBASE
 10
0.0
 20
0.0
 30
0.0
  9
$PLIMCHECK
 70
     0
  9
$PEXTMIN
 10
1.00000000000000E+20
 20
1.00000000000000E+20
 30
1.00000000000000E+20
  9
$PEXTMAX
 10
-1.00000000000000E+20
 20
-1.00000000000000E+20
 30
-1.00000000000000E+20
  9
$PLIMMIN
 10
0.0
 20
0.0
  9
$PLIMMAX
 10
12.0
 20
9.0
  9
$UNITMODE
 70
     0
  9
$VISRETAIN
 70
     1
  9
$PLINEGEN
 70
     0
  9
$PSLTSCALE
 70
     1
  9
$TREEDEPTH
 70
  3020
  9
$CMLSTYLE
  2
Standard
  9
$CMLJUST
 70
     0
  9
$CMLSCALE
 40
1.0
  9
$PROXYGRAPHICS
 70
     1
  9
$MEASUREMENT
 70
     1
  9
$CELWEIGHT
370
    -1
  9
$ENDCAPS
280
     0
  9
$JOINSTYLE
280
     0
  9
$LWDISPLAY
290
     0
  9
$INSUNITS
 70
     4
  9
$HYPERLINKBASE
  1

  9
$STYLESHEET
  1

  9
$XEDIT
290
     1
  9
$CEPSNTYPE
380
     0
  9
$PSTYLEMODE
290
     1
  9
$FINGERPRINTGUID
  2
{DEA4ED33-5349-4541-8744-BB40A6F5700F}
  9
$VERSIONGUID
  2
{FAEB1C32-E019-11D5-929B-00C0DF256EC4}
  9
$EXTNAMES
290
     1
  9
$PSVPSCALE
 40
0.0
  9
$OLESTARTUP
290
     0
  9
$SORTENTS
280
   127
  9
$INDEXCTL
280
     0
  9
$HIDETEXT
280
     1
  9
$XCLIPFRAME
290
     0
  9
$HALOGAP
280
     0
  9
$OBSCOLOR
 70
   257
  9
$OBSLTYPE
280
     0
  9
$INTERSECTIONDISPLAY
280
     0
  9
$INTERSECTIONCOLOR
 70
   257
  9
$DIMASSOC
280
     2
  9
$PROJECTNAME
  1

  0
ENDSEC
  0
SECTION
  2
CLASSES
  0
CLASS
  1
ACDBDICTIONARYWDFLT
  2
AcDbDictionaryWithDefault
  3
ObjectDBX Classes
 90
        0
 91
        4
280
     0
281
     0
  0
CLASS
  1
VISUALSTYLE
  2
AcDbVisualStyle
  3
ObjectDBX Classes
 90
     4095
 91
        4
280
     0
281
     0
  0
CLASS
  1
MATERIAL
  2
AcDbMaterial
  3
ObjectDBX Classes
 90
     1153
 91
        4
280
     0
281
     0
  0
ENDSEC
  0
SECTION
  2
TABLES
  0
TABLE
  2
VPORT
  5
8
330
0
100
AcDbSymbolTable
 70
     1
  0
VPORT
  5
29
330
8
100
AcDbSymbolTableRecord
100
AcDbViewportTableRecord
  2
*Active
 70
     0
 10
0.0
 20
0.0
 11
1.0
 21
1.0
 12
-1015.6931343932
 22
-1010.22782908762
 13
0.0
 23
0.0
 14
0.5
 24
0.5
 15
0.5
 25
0.5
 16
0.0
 26
0.0
 36
1.0
 17
0.0
 27
0.0
 37
0.0
 40
231.0
 41
1.60267857142857
 42
50.0
 43
0.0
 44
0.0
 50
0.0
 51
0.0
 71
     0
 72
   100
 73
     1
 74
     3
 75
     0
 76
     0
 77
     0
 78
     0
281
     0
 65
     1
110
0.0
120
0.0
130
0.0
111
1.0
121
0.0
131
0.0
112
0.0
122
1.0
132
0.0
 79
     0
146
0.0
  0
ENDTAB
  0
TABLE
  2
LTYPE
  5
5
330
0
100
AcDbSymbolTable
 70
     8
  0
LTYPE
  5
14
330
5
100
AcDbSymbolTableRecord
100
AcDbLinetypeTableRecord
  2
ByBlock
 70
     0
  3

 72
    65
 73
     0
 40
0.0
  0
LTYPE
  5
15
330
5
100
AcDbSymbolTableRecord
100
AcDbLinetypeTableRecord
  2
ByLayer
 70
     0
  3

 72
    65
 73
     0
 40
0.0
  0
LTYPE
  5
16
330
5
100
AcDbSymbolTableRecord
100
AcDbLinetypeTableRecord
  2
Continuous
 70
     0
  3
Solid line
 72
    65
 73
     0
 40
0.0
  0
LTYPE
  5
3F
330
5
100
AcDbSymbolTableRecord
100
AcDbLinetypeTableRecord
  2
DASHED
 70
     0
  3
Dashed
 72
    65
 73
     2
 40
15.0
 49
7.0
 74
     0
 49
-8.0
 74
     0
  0
LTYPE
  5
40
330
5
100
AcDbSymbolTableRecord
100
AcDbLinetypeTableRecord
  2
DOTTED
 70
     0
  3
Dotted
 72
    65
 73
     2
 40
1.0
 49
0.0
 74
     0
 49
-1.0
 74
     0
  0
LTYPE
  5
41
330
5
100
AcDbSymbolTableRecord
100
AcDbLinetypeTableRecord
  2
DOT_CENTER
 70
     0
  3
Dot_Center
 72
    65
 73
     4
 40
14.0
 49
12.0
 74
     0
 49
-1.0
 74
     0
 49
0.0
 74
     0
 49
-1.0
 74
     0
  0
LTYPE
  5
42
330
5
100
AcDbSymbolTableRecord
100
AcDbLinetypeTableRecord
  2
LONG_DASHED
 70
     0
  3
Long_Dashed
 72
    65
 73
     2
 40
15.0
 49
10.0
 74
     0
 49
-5.0
 74
     0
  0
LTYPE
  5
43
330
5
100
AcDbSymbolTableRecord
100
AcDbLinetypeTableRecord
  2
DASH_CENTER
 70
     0
  3
Dash_Center
 72
    65
 73
     4
 40
14.0
 49
11.0
 74
     0
 49
-1.0
 74
     0
 49
1.0
 74
     0
 49
-1.0
 74
     0
  0
LTYPE
  5
44
330
5
100
AcDbSymbolTableRecord
100
AcDbLinetypeTableRecord
  2
PHANTOM
 70
     0
  3
Phantom
 72
    65
 73
     6
 40
13.0
 49
10.0
 74
     0
 49
-1.0
 74
     0
 49
0.0
 74
     0
 49
-1.0
 74
     0
 49
0.0
 74
     0
 49
-1.0
 74
     0
  0
LTYPE
  5
45
330
5
100
AcDbSymbolTableRecord
100
AcDbLinetypeTableRecord
  2
CENTER_DASH_DASH
 70
     0
  3
Center_Dash_Dash
 72
    65
 73
     6
 40
14.0
 49
9.0
 74
     0
 49
-1.0
 74
     0
 49
1.0
 74
     0
 49
-1.0
 74
     0
 49
1.0
 74
     0
 49
-1.0
 74
     0
  0
ENDTAB
  0
TABLE
  2
LAYER
  5
2
330
0
100
AcDbSymbolTable
 70
     2
  0
LAYER
  5
10
330
2
100
AcDbSymbolTableRecord
100
AcDbLayerTableRecord
  2
0
 70
     0
 62
     7
  6
Continuous
370
    -3
390
F
  0
LAYER
  5
46
330
2
100
AcDbSymbolTableRecord
100
AcDbLayerTableRecord
  2
1
 70
     0
 62
     7
  6
Continuous
370
    -3
390
F
  0
ENDTAB
  0
TABLE
  2
STYLE
  5
3
330
0
100
AcDbSymbolTable
 70
     5
  0
STYLE
  5
11
330
3
100
AcDbSymbolTableRecord
100
AcDbTextStyleTableRecord
  2
Standard
 70
     0
 40
0.0
 41
1.0
 50
0.0
 71
     0
 42
0.2
  3
txt
  4

  0
STYLE
  5
1A8
330
3
100
AcDbSymbolTableRecord
100
AcDbTextStyleTableRecord
  2
CONVERTER_11
 70
     0
 40
0.0
 41
0.9
 50
0.0
 71
     0
 42
0.2
  3
txt.shx
  4

  0
STYLE
  5
3E5
330
3
100
AcDbSymbolTableRecord
100
AcDbTextStyleTableRecord
  2
CONVERTER_12
 70
     0
 40
0.0
 41
0.81
 50
0.0
 71
     0
 42
0.2
  3
txt.shx
  4

  0
STYLE
  5
3EB
330
3
100
AcDbSymbolTableRecord
100
AcDbTextStyleTableRecord
  2
CONVERTER_13
 70
     0
 40
0.0
 41
0.855
 50
0.0
 71
     0
 42
0.2
  3
txt.shx
  4

  0
STYLE
  5
3EE
330
3
100
AcDbSymbolTableRecord
100
AcDbTextStyleTableRecord
  2
CONVERTER_14
 70
     0
 40
0.0
 41
0.72
 50
0.0
 71
     0
 42
0.2
  3
txt.shx
  4

  0
ENDTAB
  0
TABLE
  2
VIEW
  5
6
330
0
100
AcDbSymbolTable
 70
     0
  0
ENDTAB
  0
TABLE
  2
UCS
  5
7
330
0
100
AcDbSymbolTable
 70
     0
  0
ENDTAB
  0
TABLE
  2
APPID
  5
9
330
0
100
AcDbSymbolTable
 70
     1
  0
APPID
  5
12
330
9
100
AcDbSymbolTableRecord
100
AcDbRegAppTableRecord
  2
ACAD
 70
     0
  0
ENDTAB
  0
TABLE
  2
DIMSTYLE
  5
A
330
0
100
AcDbSymbolTable
 70
     7
100
AcDbDimStyleTable
  0
DIMSTYLE
105
27
330
A
100
AcDbSymbolTableRecord
100
AcDbDimStyleTableRecord
  2
Standard
 70
     0
178
     0
340
11
  0
DIMSTYLE
105
1AC
102
{ACAD_REACTORS
330
1AD
102
}
330
A
100
AcDbSymbolTableRecord
100
AcDbDimStyleTableRecord
  2
ME10_DIM_10
 70
     0
 41
3.5
 42
0.0
 44
1.5
 73
     0
 74
     0
 77
     1
 78
     8
140
3.5
147
1.5
172
     1
173
     1
174
     1
175
     1
176
     2
177
     2
178
     3
340
1A8
  0
DIMSTYLE
105
2C0
102
{ACAD_REACTORS
330
2C1
102
}
330
A
100
AcDbSymbolTableRecord
100
AcDbDimStyleTableRecord
  2
ME10_DIM_11
 70
     0
 41
3.5
 42
0.0
 44
1.5
 73
     0
 74
     0
 77
     1
 78
     8
140
3.5
147
1.5
172
     1
173
     1
174
     1
175
     1
176
     2
177
     2
178
     3
340
1A8
  0
DIMSTYLE
105
2CB
102
{ACAD_REACTORS
330
2CC
102
}
330
A
100
AcDbSymbolTableRecord
100
AcDbDimStyleTableRecord
  2
ME10_DIM_12
 70
     0
 41
3.5
 42
0.0
 44
1.5
 73
     0
 74
     0
 77
     1
 78
     8
140
3.5
147
1.5
172
     1
173
     1
174
     1
175
     1
176
     2
177
     2
178
     3
340
1A8
  0
DIMSTYLE
105
2D6
102
{ACAD_REACTORS
330
2D7
102
}
330
A
100
AcDbSymbolTableRecord
100
AcDbDimStyleTableRecord
  2
ME10_DIM_13
 70
     0
 41
3.5
 42
0.0
 44
1.5
 73
     0
 74
     0
 77
     1
 78
     8
140
3.5
147
1.5
172
     1
173
     1
174
     1
175
     1
176
     2
177
     2
178
     3
340
1A8
  0
DIMSTYLE
105
2E1
102
{ACAD_REACTORS
330
2E2
102
}
330
A
100
AcDbSymbolTableRecord
100
AcDbDimStyleTableRecord
  2
ME10_DIM_14
 70
     0
 41
3.5
 42
0.0
 44
1.5
 73
     0
 74
     0
 77
     1
 78
     8
140
3.5
147
1.5
172
     1
173
     1
174
     1
175
     1
176
     2
177
     2
178
     3
340
1A8
  0
DIMSTYLE
105
2EC
102
{ACAD_REACTORS
330
2ED
102
}
330
A
100
AcDbSymbolTableRecord
100
AcDbDimStyleTableRecord
  2
ME10_DIM_15
 70
     0
 41
3.5
 42
0.0
 44
1.5
 73
     0
 74
     0
 77
     1
 78
     8
140
3.5
147
1.5
172
     1
173
     1
174
     1
175
     1
176
     2
177
     2
178
     3
340
1A8
  0
ENDTAB
  0
TABLE
  2
BLOCK_RECORD
  5
1
330
0
100
AcDbSymbolTable
 70
    23
  0
BLOCK_RECORD
  5
1F
330
1
100
AcDbSymbolTableRecord
100
AcDbBlockTableRecord
  2
*Model_Space
340
22
  0
BLOCK_RECORD
  5
1B
330
1
100
AcDbSymbolTableRecord
100
AcDbBlockTableRecord
  2
*Paper_Space
340
1E
  0
BLOCK_RECORD
  5
23
330
1
100
AcDbSymbolTableRecord
100
AcDbBlockTableRecord
  2
*Paper_Space0
340
26
  0
BLOCK_RECORD
  5
47
330
1
100
AcDbSymbolTableRecord
100
AcDbBlockTableRecord
  2
UT_4_1P-select__1
340
0
102
{BLKREFS
331
4B
102
}
  0
BLOCK_RECORD
  5
4A
330
1
100
AcDbSymbolTableRecord
100
AcDbBlockTableRecord
  2
AllgSicht1
340
0
102
{BLKREFS
331
7D
102
}
  0
BLOCK_RECORD
  5
4E
330
1
100
AcDbSymbolTableRecord
100
AcDbBlockTableRecord
  2
UT_4_1P-select__2
340
0
102
{BLKREFS
331
52
102
}
  0
BLOCK_RECORD
  5
51
330
1
100
AcDbSymbolTableRecord
100
AcDbBlockTableRecord
  2
Drfsicht1
340
0
102
{BLKREFS
331
7E
102
}
  0
BLOCK_RECORD
  5
55
330
1
100
AcDbSymbolTableRecord
100
AcDbBlockTableRecord
  2
UT_4_1P-select__3
340
0
102
{BLKREFS
331
59
102
}
  0
BLOCK_RECORD
  5
58
330
1
100
AcDbSymbolTableRecord
100
AcDbBlockTableRecord
  2
Rcksicht1
340
0
102
{BLKREFS
331
7F
102
}
  0
BLOCK_RECORD
  5
5C
330
1
100
AcDbSymbolTableRecord
100
AcDbBlockTableRecord
  2
UT_4_1P-select__4
340
0
102
{BLKREFS
331
60
102
}
  0
BLOCK_RECORD
  5
5F
330
1
100
AcDbSymbolTableRecord
100
AcDbBlockTableRecord
  2
SA_links1
340
0
102
{BLKREFS
331
80
102
}
  0
BLOCK_RECORD
  5
63
330
1
100
AcDbSymbolTableRecord
100
AcDbBlockTableRecord
  2
UT_4_1P-select__5
340
0
102
{BLKREFS
331
67
102
}
  0
BLOCK_RECORD
  5
66
330
1
100
AcDbSymbolTableRecord
100
AcDbBlockTableRecord
  2
SA_rechts1
340
0
102
{BLKREFS
331
81
102
}
  0
BLOCK_RECORD
  5
6A
330
1
100
AcDbSymbolTableRecord
100
AcDbBlockTableRecord
  2
UT_4_1P-select__6
340
0
102
{BLKREFS
331
6E
102
}
  0
BLOCK_RECORD
  5
6D
330
1
100
AcDbSymbolTableRecord
100
AcDbBlockTableRecord
  2
Vordans1
340
0
102
{BLKREFS
331
82
102
}
  0
BLOCK_RECORD
  5
71
330
1
100
AcDbSymbolTableRecord
100
AcDbBlockTableRecord
  2
_rahmen
340
0
102
{BLKREFS
331
78
102
}
  0
BLOCK_RECORD
  5
74
330
1
100
AcDbSymbolTableRecord
100
AcDbBlockTableRecord
  2
_punkt
340
0
102
{BLKREFS
331
79
102
}
  0
BLOCK_RECORD
  5
77
330
1
100
AcDbSymbolTableRecord
100
AcDbBlockTableRecord
  2
A4I_CS
340
0
102
{BLKREFS
331
83
102
}
  0
BLOCK_RECORD
  5
7C
330
1
100
AcDbSymbolTableRecord
100
AcDbBlockTableRecord
  2
1
340
0
102
{BLKREFS
331
86
102
}
  0
BLOCK_RECORD
  5
1A0
330
1
100
AcDbSymbolTableRecord
100
AcDbBlockTableRecord
  2
*D17
340
0
  0
BLOCK_RECORD
  5
2B7
330
1
100
AcDbSymbolTableRecord
100
AcDbBlockTableRecord
  2
*D18
340
0
  0
BLOCK_RECORD
  5
2C2
330
1
100
AcDbSymbolTableRecord
100
AcDbBlockTableRecord
  2
*D19
340
0
  0
BLOCK_RECORD
  5
2CD
330
1
100
AcDbSymbolTableRecord
100
AcDbBlockTableRecord
  2
*D20
340
0
  0
BLOCK_RECORD
  5
2D8
330
1
100
AcDbSymbolTableRecord
100
AcDbBlockTableRecord
  2
*D21
340
0
  0
BLOCK_RECORD
  5
2E3
330
1
100
AcDbSymbolTableRecord
100
AcDbBlockTableRecord
  2
*D22
340
0
  0
ENDTAB
  0
ENDSEC
  0
SECTION
  2
BLOCKS
  0
BLOCK
  5
20
330
1F
100
AcDbEntity
  8
0
100
AcDbBlockBegin
  2
*Model_Space
 70
     0
 10
0.0
 20
0.0
 30
0.0
  3
*Model_Space
  1

  0
ENDBLK
  5
21
330
1F
100
AcDbEntity
  8
0
100
AcDbBlockEnd
  0
BLOCK
  5
1C
330
1B
100
AcDbEntity
 67
     1
  8
0
100
AcDbBlockBegin
  2
*Paper_Space
 70
     0
 10
0.0
 20
0.0
 30
0.0
  3
*Paper_Space
  1

  0
ENDBLK
  5
1D
330
1B
100
AcDbEntity
 67
     1
  8
0
100
AcDbBlockEnd
  0
BLOCK
  5
24
330
23
100
AcDbEntity
  8
0
100
AcDbBlockBegin
  2
*Paper_Space0
 70
     0
 10
0.0
 20
0.0
 30
0.0
  3
*Paper_Space0
  1

  0
ENDBLK
  5
25
330
23
100
AcDbEntity
  8
0
100
AcDbBlockEnd
  0
BLOCK
  5
48
330
47
100
AcDbEntity
  8
0
100
AcDbBlockBegin
  2
UT_4_1P-select__1
 70
     0
 10
-949.7984219877628
 20
-1070.880658836604
 30
0.0
  3
UT_4_1P-select__1
  1

  0
LINE
  5
87
330
47
100
AcDbEntity
  8
0
  6
Continuous
 62
     7
100
AcDbLine
 10
-905.154202606107
 20
-1057.974941413314
 30
0.0
 11
-905.154202606107
 21
-1064.275068138174
 31
0.0
  0
LINE
  5
88
330
47
100
AcDbEntity
  8
0
  6
Continuous
 62
     7
100
AcDbLine
 10
-908.1346092272639
 20
-1052.789786001402
 30
0.0
 11
-908.9003722912461
 21
-1052.05396845338
 31
0.0
  0
LINE
  5
89
330
47
100
AcDbEntity
  8
0
  6
Continuous
 62
     7
100
AcDbLine
 10
-905.0596092268623
 20
-1050.126757884299
 30
0.0
 11
-908.1346092272639
 21
-1052.789786001402
 31
0.0
  0
LINE
  5
8A
330
47
100
AcDbEntity
  8
0
  6
Continuous
 62
     7
100
AcDbLine
 10
-904.2015746619523
 20
-1046.623342279824
 30
0.0
 11
-904.2015746619523
 21
-1044.025266068476
 31
0.0
  0
LINE
  5
8B
330
47
100
AcDbEntity
  8
0
  6
Continuous
 62
     7
100
AcDbLine
 10
-905.0596092268623
 20
-1050.126757884299
 30
0.0
 11
-905.8253722940518
 21
-1049.390940339173
 31
0.0
  0
LINE
  5
8C
330
47
100
AcDbEntity
  8
0
  6
Continuous
 62
     7
100
AcDbLine
 10
-905.8253722940501
 20
-1048.029592279826
 30
0.0
 11
-905.8253722940518
 21
-1049.390940339173
 31
0.0
  0
LINE
  5
8D
330
47
100
AcDbEntity
  8
0
  6
Continuous
 62
     7
100
AcDbLine
 10
-907.2765746591467
 20
-1049.286370394031
 30
0.0
 11
-907.2765746591467
 21
-1046.688294182683
 31
0.0
  0
LINE
  5
8E
330
47
100
AcDbEntity
  8
0
  6
Continuous
 62
     7
100
AcDbLine
 10
-914.9321009253058
 20
-1050.670415744456
 30
0.0
 11
-914.0196009253057
 21
-1049.880167563503
 31
0.0
  0
LINE
  5
8F
330
47
100
AcDbEntity
  8
0
  6
Continuous
 62
     7
100
AcDbLine
 10
-915.8847288694685
 20
-1050.395415744456
 30
0.0
 11
-914.9321009253058
 21
-1050.670415744456
 31
0.0
  0
LINE
  5
90
330
47
100
AcDbEntity
  8
0
  6
Continuous
 62
     7
100
AcDbLine
 10
-916.0419085464412
 20
-1050.531537337673
 30
0.0
 11
-915.8847288694685
 21
-1050.395415744456
 31
0.0
  0
LINE
  5
91
330
47
100
AcDbEntity
  8
0
  6
Continuous
 62
     7
100
AcDbLine
 10
-907.2765746591467
 20
-1046.688294182683
 30
0.0
 11
-904.2015746619523
 21
-1044.025266068476
 31
0.0
  0
LINE
  5
92
330
47
100
AcDbEntity
  8
0
  6
Continuous
 62
     7
100
AcDbLine
 10
-907.2765746591467
 20
-1049.286370394031
 30
0.0
 11
-904.2015746619523
 21
-1046.623342279824
 31
0.0
  0
LINE
  5
93
330
47
100
AcDbEntity
  8
0
  6
Continuous
 62
     7
100
AcDbLine
 10
-907.2765746591467
 20
-1049.286370394031
 30
0.0
 11
-908.900372291241
 21
-1048.226606389489
 31
0.0
  0
LINE
  5
94
330
47
100
AcDbEntity
  8
0
  6
Continuous
 62
     7
100
AcDbLine
 10
-908.9003722912461
 20
-1052.05396845338
 30
0.0
 11
-905.8253722940518
 21
-1049.390940339173
 31
0.0
  0
LINE
  5
95
330
47
100
AcDbEntity
  8
0
  6
Continuous
 62
     7
100
AcDbLine
 10
-905.154202606107
 20
-1057.974941413314
 30
0.0
 11
-908.2292026033011
 21
-1060.637969527522
 31
0.0
  0
LINE
  5
96
330
47
100
AcDbEntity
  8
0
  6
Continuous
 62
     7
100
AcDbLine
 10
-908.2292026033011
 20
-1066.938096252381
 30
0.0
 11
-905.154202606107
 21
-1064.275068138174
 31
0.0
  0
LINE
  5
97
330
47
100
AcDbEntity
  8
0
  6
Continuous
 62
     7
100
AcDbLine
 10
-947.8931660966318
 20
-1028.424802384111
 30
0.0
 11
-946.5146481386637
 21
-1027.444228283201
 31
0.0
  0
LINE
  5
98
330
47
100
AcDbEntity
  8
0
  6
Continuous
 62
     7
100
AcDbLine
 10
-947.8931660966318
 20
-1029.46403286865
 30
0.0
 11
-947.8931660966318
 21
-1028.424802384111
 31
0.0
  0
LINE
  5
99
330
47
100
AcDbEntity
  8
0
  6
Continuous
 62
     7
100
AcDbLine
 10
-947.8931660966318
 20
-1028.424802384111
 30
0.0
 11
-944.8181660994376
 21
-1025.761774269904
 31
0.0
  0
LINE
  5
9A
330
47
100
AcDbEntity
  8
0
  6
Continuous
 62
     7
100
AcDbLine
 10
-946.5146481386637
 20
-1027.444228283201
 30
0.0
 11
-943.4396481414694
 21
-1024.781200168994
 31
0.0
  0
LINE
  5
9B
330
47
100
AcDbEntity
  8
0
  6
Continuous
 62
     7
100
AcDbLine
 10
-946.5146481386637
 20
-1027.444228283201
 30
0.0
 11
-944.6591272994826
 21
-1028.702438126293
 31
0.0
  0
LINE
  5
9C
330
47
100
AcDbEntity
  8
0
  6
Continuous
 62
     7
100
AcDbLine
 10
-944.8181660994376
 20
-1025.761774269904
 30
0.0
 11
-943.4396481414694
 21
-1024.781200168994
 31
0.0
  0
LINE
  5
9D
330
47
100
AcDbEntity
  8
0
  6
Continuous
 62
     7
100
AcDbLine
 10
-944.3271592633787
 20
-1029.776778020081
 30
0.0
 11
-944.982397769573
 21
-1028.932388449919
 31
0.0
  0
LINE
  5
9E
330
47
100
AcDbEntity
  8
0
  6
Continuous
 62
     7
100
AcDbLine
 10
-944.982397769573
 20
-1028.932388449919
 30
0.0
 11
-944.6591272994826
 21
-1028.702438126293
 31
0.0
  0
LINE
  5
9F
330
47
100
AcDbEntity
  8
0
  6
Continuous
 62
     7
100
AcDbLine
 10
-943.4396481414694
 20
-1024.781200168994
 30
0.0
 11
-941.5841273022885
 21
-1026.039410012086
 31
0.0
  0
LINE
  5
A0
330
47
100
AcDbEntity
  8
0
  6
Continuous
 62
     7
100
AcDbLine
 10
-932.4779139092693
 20
-1030.536533793892
 30
0.0
 11
-932.1529139092693
 21
-1030.255075537662
 31
0.0
  0
LINE
  5
A1
330
47
100
AcDbEntity
  8
0
  6
Continuous
 62
     7
100
AcDbLine
 10
-941.884187996879
 20
-1026.299270196278
 30
0.0
 11
-941.2521592661844
 21
-1027.113749905874
 31
0.0
  0
LINE
  5
A2
330
47
100
AcDbEntity
  8
0
  6
Continuous
 62
     7
100
AcDbLine
 10
-920.9808168602771
 20
-1033.985363645766
 30
0.0
 11
-920.9808168602765
 21
-1024.675590555086
 31
0.0
  0
LINE
  5
A3
330
47
100
AcDbEntity
  8
0
  6
Continuous
 62
     7
100
AcDbLine
 10
-940.4539036076026
 20
-1027.021634962056
 30
0.0
 11
-944.3271592633787
 21
-1029.776778020081
 31
0.0
  0
LINE
  5
A4
330
47
100
AcDbEntity
  8
0
  6
Continuous
 62
     7
100
AcDbLine
 10
-944.6591272994826
 20
-1028.702438126293
 30
0.0
 11
-941.5841273022885
 21
-1026.039410012086
 31
0.0
  0
LINE
  5
A5
330
47
100
AcDbEntity
  8
0
  6
Continuous
 62
     7
100
AcDbLine
 10
-941.2521592661844
 20
-1027.113749905874
 30
0.0
 11
-944.3271592633787
 21
-1029.776778020081
 31
0.0
  0
LINE
  5
A6
330
47
100
AcDbEntity
  8
0
  6
Continuous
 62
     7
100
AcDbLine
 10
-917.8430936491189
 20
-1036.118015634856
 30
0.0
 11
-917.8430936491189
 21
-1037.668015634856
 31
0.0
  0
LINE
  5
A7
330
47
100
AcDbEntity
  8
0
  6
Continuous
 62
     7
100
AcDbLine
 10
-916.7507542732529
 20
-1036.722021985803
 30
0.0
 11
-916.500754273253
 21
-1036.505515634856
 31
0.0
  0
LINE
  5
A8
330
47
100
AcDbEntity
  8
0
  6
Continuous
 62
     7
100
AcDbLine
 10
-916.500754273253
 20
-1036.505515634856
 30
0.0
 11
-917.8430936491189
 21
-1036.118015634856
 31
0.0
  0
LINE
  5
A9
330
47
100
AcDbEntity
  8
0
  6
Continuous
 62
     7
100
AcDbLine
 10
-916.0419085464412
 20
-1037.908143579019
 30
0.0
 11
-916.9544085464411
 21
-1038.698391759972
 31
0.0
  0
LINE
  5
AA
330
47
100
AcDbEntity
  8
0
  6
Continuous
 62
     7
100
AcDbLine
 10
-917.6007542732531
 20
-1037.458143579019
 30
0.0
 11
-916.0419085464412
 21
-1037.908143579019
 31
0.0
  0
LINE
  5
AB
330
47
100
AcDbEntity
  8
0
  6
Continuous
 62
     7
100
AcDbLine
 10
-917.8507542732531
 20
-1037.674649929965
 30
0.0
 11
-917.6007542732531
 21
-1037.458143579019
 31
0.0
  0
LINE
  5
AC
330
47
100
AcDbEntity
  8
0
  6
Continuous
 62
     7
100
AcDbLine
 10
-919.193093649119
 20
-1037.287149929965
 30
0.0
 11
-917.8507542732531
 21
-1037.674649929965
 31
0.0
  0
LINE
  5
AD
330
47
100
AcDbEntity
  8
0
  6
Continuous
 62
     7
100
AcDbLine
 10
-917.8430936491189
 20
-1036.118015634856
 30
0.0
 11
-919.193093649119
 21
-1037.287149929965
 31
0.0
  0
LINE
  5
AE
330
47
100
AcDbEntity
  8
0
  6
Continuous
 62
     7
100
AcDbLine
 10
-914.9321009253058
 20
-1037.247021985802
 30
0.0
 11
-916.7507542732529
 21
-1036.722021985803
 31
0.0
  0
LINE
  5
AF
330
47
100
AcDbEntity
  8
0
  6
Continuous
 62
     7
100
AcDbLine
 10
-914.0196009253057
 20
-1036.456773804849
 30
0.0
 11
-914.9321009253058
 21
-1037.247021985802
 31
0.0
  0
LINE
  5
B0
330
47
100
AcDbEntity
  8
0
  6
Continuous
 62
     7
100
AcDbLine
 10
-907.4378078565443
 20
-1038.356773804849
 30
0.0
 11
-914.0196009253057
 21
-1036.456773804849
 31
0.0
  0
LINE
  5
B1
330
47
100
AcDbEntity
  8
0
  6
Continuous
 62
     7
100
AcDbLine
 10
-910.112807856544
 20
-1040.673391759972
 30
0.0
 11
-907.4378078565443
 21
-1038.356773804849
 31
0.0
  0
LINE
  5
B2
330
47
100
AcDbEntity
  8
0
  6
Continuous
 62
     7
100
AcDbLine
 10
-910.112807856544
 20
-1040.673391759972
 30
0.0
 11
-908.315805143689
 21
-1041.192141759973
 31
0.0
  0
LINE
  5
B3
330
47
100
AcDbEntity
  8
0
  6
Continuous
 62
     7
100
AcDbLine
 10
-905.2408051464945
 20
-1038.529113645766
 30
0.0
 11
-908.315805143689
 21
-1041.192141759973
 31
0.0
  0
LINE
  5
B4
330
47
100
AcDbEntity
  8
0
  6
Continuous
 62
     7
100
AcDbLine
 10
-920.9808168602771
 20
-1033.985363645766
 30
0.0
 11
-905.2408051464945
 21
-1038.529113645766
 31
0.0
  0
LINE
  5
B5
330
47
100
AcDbEntity
  8
0
  6
Continuous
 62
     7
100
AcDbLine
 10
-907.2765746591467
 20
-1046.688294182683
 30
0.0
 11
-908.315805143689
 21
-1041.192141759973
 31
0.0
  0
LINE
  5
B6
330
47
100
AcDbEntity
  8
0
  6
Continuous
 62
     7
100
AcDbLine
 10
-914.0196009253057
 20
-1036.456773804849
 30
0.0
 11
-914.0196009253057
 21
-1049.880167563503
 31
0.0
  0
LINE
  5
B7
330
47
100
AcDbEntity
  8
0
  6
Continuous
 62
     7
100
AcDbLine
 10
-904.2015746619523
 20
-1044.025266068476
 30
0.0
 11
-905.2408051464945
 21
-1038.529113645766
 31
0.0
  0
LINE
  5
B8
330
47
100
AcDbEntity
  8
0
  6
Continuous
 62
     7
100
AcDbLine
 10
-920.3767633370464
 20
-1062.8684810101
 30
0.0
 11
-920.5267633370513
 21
-1062.998384820672
 31
0.0
  0
LINE
  5
B9
330
47
100
AcDbEntity
  8
0
  6
Continuous
 62
     7
100
AcDbLine
 10
-920.5267633370513
 20
-1062.82517973991
 30
0.0
 11
-915.8381108600613
 21
-1064.178677124773
 31
0.0
  0
LINE
  5
BA
330
47
100
AcDbEntity
  8
0
  6
Continuous
 62
     7
100
AcDbLine
 10
-916.9544085464411
 20
-1038.698391759972
 30
0.0
 11
-916.9544085464411
 21
-1052.121785518626
 31
0.0
  0
LINE
  5
BB
330
47
100
AcDbEntity
  8
0
  6
Continuous
 62
     7
100
AcDbLine
 10
-916.7507542732529
 20
-1036.722021985803
 30
0.0
 11
-916.7507542732529
 21
-1037.703517443425
 31
0.0
  0
LINE
  5
BC
330
47
100
AcDbEntity
  8
0
  6
Continuous
 62
     7
100
AcDbLine
 10
-924.0558168574712
 20
-1036.648391759973
 30
0.0
 11
-920.9808168602771
 21
-1033.985363645766
 31
0.0
  0
LINE
  5
BD
330
47
100
AcDbEntity
  8
0
  6
Continuous
 62
     7
100
AcDbLine
 10
-924.0558168574712
 20
-1036.648391759973
 30
0.0
 11
-916.9544085464411
 21
-1038.698391759972
 31
0.0
  0
LINE
  5
BE
330
47
100
AcDbEntity
  8
0
  6
Continuous
 62
     7
100
AcDbLine
 10
-921.4354801972585
 20
-1024.544340555087
 30
0.0
 11
-920.9808168602765
 21
-1024.675590555086
 31
0.0
  0
LINE
  5
BF
330
47
100
AcDbEntity
  8
0
  6
Continuous
 62
     7
100
AcDbLine
 10
-910.9331916890267
 20
-1050.7711371652
 30
0.0
 11
-910.112807856544
 21
-1051.007961578462
 31
0.0
  0
LINE
  5
C0
330
47
100
AcDbEntity
  8
0
  6
Continuous
 62
     7
100
AcDbLine
 10
-908.900372291241
 20
-1048.226606389489
 30
0.0
 11
-908.9003722912461
 21
-1052.05396845338
 31
0.0
  0
LINE
  5
C1
330
47
100
AcDbEntity
  8
0
  6
Continuous
 62
     7
100
AcDbLine
 10
-908.2292026033011
 20
-1060.637969527522
 30
0.0
 11
-908.2292026033011
 21
-1066.938096252381
 31
0.0
  0
LINE
  5
C2
330
47
100
AcDbEntity
  8
0
  6
Continuous
 62
     7
100
AcDbLine
 10
-914.6979810095146
 20
-1070.613283359527
 30
0.0
 11
-913.7717651875247
 21
-1070.880658836604
 31
0.0
  0
LINE
  5
C3
330
47
100
AcDbEntity
  8
0
  6
Continuous
 62
     7
100
AcDbLine
 10
-916.1533350479399
 20
-1066.685755951269
 30
0.0
 11
-916.1533350479399
 21
-1068.11469786752
 31
0.0
  0
LINE
  5
C4
330
47
100
AcDbEntity
  8
0
  6
Continuous
 62
     7
100
AcDbLine
 10
-916.1533350479399
 20
-1066.685755951269
 30
0.0
 11
-914.9822297947084
 21
-1065.852719664639
 31
0.0
  0
LINE
  5
C5
330
47
100
AcDbEntity
  8
0
  6
Continuous
 62
     7
100
AcDbLine
 10
-914.9822297947084
 20
-1065.852719664639
 30
0.0
 11
-913.8583677279111
 21
-1065.876012764835
 31
0.0
  0
LINE
  5
C6
330
47
100
AcDbEntity
  8
0
  6
Continuous
 62
     7
100
AcDbLine
 10
-913.8583677279111
 20
-1065.876012764835
 30
0.0
 11
-913.8583677279111
 21
-1064.923384820672
 31
0.0
  0
LINE
  5
C7
330
47
100
AcDbEntity
  8
0
  6
Continuous
 62
     7
100
AcDbLine
 10
-916.0419085464412
 20
-1037.908143579019
 30
0.0
 11
-916.0419085464412
 21
-1051.331537337673
 31
0.0
  0
LINE
  5
C8
330
47
100
AcDbEntity
  8
0
  6
Continuous
 62
     7
100
AcDbLine
 10
-910.112807856544
 20
-1054.096785518626
 30
0.0
 11
-910.112807856544
 21
-1040.673391759972
 31
0.0
  0
LINE
  5
C9
330
47
100
AcDbEntity
  8
0
  6
Continuous
 62
     7
100
AcDbLine
 10
-914.9321009253058
 20
-1037.247021985802
 30
0.0
 11
-914.9321009253058
 21
-1050.670415744456
 31
0.0
  0
LINE
  5
CA
330
47
100
AcDbEntity
  8
0
  6
Continuous
 62
     7
100
AcDbLine
 10
-911.7894094716762
 20
-1044.620561888356
 30
0.0
 11
-911.4429993067979
 21
-1044.720561889328
 31
0.0
  0
LINE
  5
CB
330
47
100
AcDbEntity
  8
0
  6
Continuous
 62
     7
100
AcDbLine
 10
-912.342999306798
 20
-1045.499984752734
 30
0.0
 11
-912.6894094716763
 21
-1045.399984751762
 31
0.0
  0
LINE
  5
CC
330
47
100
AcDbEntity
  8
0
  6
Continuous
 62
     7
100
AcDbLine
 10
-912.6894094716763
 20
-1045.399984751762
 30
0.0
 11
-911.7894094716762
 21
-1044.620561888356
 31
0.0
  0
LINE
  5
CD
330
47
100
AcDbEntity
  8
0
  6
Continuous
 62
     7
100
AcDbLine
 10
-911.4429993067979
 20
-1044.720561889328
 30
0.0
 11
-912.342999306798
 21
-1045.499984752734
 31
0.0
  0
LINE
  5
CE
330
47
100
AcDbEntity
  8
0
  6
Continuous
 62
     7
100
AcDbLine
 10
-911.4429993067979
 20
-1044.720561889328
 30
0.0
 11
-910.9331916890267
 21
-1045.878093643087
 31
0.0
  0
LINE
  5
CF
330
47
100
AcDbEntity
  8
0
  6
Continuous
 62
     7
100
AcDbLine
 10
-913.199217092811
 20
-1052.469694323715
 30
0.0
 11
-913.1992170928114
 21
-1046.840529208388
 31
0.0
  0
LINE
  5
D0
330
47
100
AcDbEntity
  8
0
  6
Continuous
 62
     7
100
AcDbLine
 10
-915.8847288694685
 20
-1043.900225216072
 30
0.0
 11
-916.0419085464412
 21
-1044.036346809289
 31
0.0
  0
LINE
  5
D1
330
47
100
AcDbEntity
  8
0
  6
Continuous
 62
     7
100
AcDbLine
 10
-916.0419085464412
 20
-1043.854851351666
 30
0.0
 11
-915.8847288694685
 21
-1043.900225216072
 31
0.0
  0
LINE
  5
D2
330
47
100
AcDbEntity
  8
0
  6
Continuous
 62
     7
100
AcDbLine
 10
-912.3331916890268
 20
-1047.090529208385
 30
0.0
 11
-913.1992170928114
 21
-1046.840529208388
 31
0.0
  0
LINE
  5
D3
330
47
100
AcDbEntity
  8
0
  6
Continuous
 62
     7
100
AcDbLine
 10
-910.9331916890267
 20
-1051.507258758417
 30
0.0
 11
-910.9331916890267
 21
-1045.878093643087
 31
0.0
  0
LINE
  5
D4
330
47
100
AcDbEntity
  8
0
  6
Continuous
 62
     7
100
AcDbLine
 10
-914.0196009253057
 20
-1049.880167563503
 30
0.0
 11
-913.199217092811
 21
-1050.116991976768
 31
0.0
  0
LINE
  5
D5
330
47
100
AcDbEntity
  8
0
  6
Continuous
 62
     7
100
AcDbLine
 10
-912.3331916890263
 20
-1052.719694323715
 30
0.0
 11
-912.3331916890268
 21
-1047.090529208385
 31
0.0
  0
LINE
  5
D6
330
47
100
AcDbEntity
  8
0
  6
Continuous
 62
     7
100
AcDbLine
 10
-912.3331916890268
 20
-1047.090529208385
 30
0.0
 11
-912.342999306798
 21
-1045.499984752734
 31
0.0
  0
LINE
  5
D7
330
47
100
AcDbEntity
  8
0
  6
Continuous
 62
     7
100
AcDbLine
 10
-915.8847288694685
 20
-1043.900225216072
 30
0.0
 11
-915.8847288694685
 21
-1050.395415744456
 31
0.0
  0
LINE
  5
D8
330
47
100
AcDbEntity
  8
0
  6
Continuous
 62
     7
100
AcDbLine
 10
-912.3331916890263
 20
-1052.719694323715
 30
0.0
 11
-910.9331916890267
 21
-1051.507258758417
 31
0.0
  0
LINE
  5
D9
330
47
100
AcDbEntity
  8
0
  6
Continuous
 62
     7
100
AcDbLine
 10
-913.199217092811
 20
-1052.469694323715
 30
0.0
 11
-912.3331916890263
 21
-1052.719694323715
 31
0.0
  0
LINE
  5
DA
330
47
100
AcDbEntity
  8
0
  6
Continuous
 62
     7
100
AcDbLine
 10
-916.9544085464411
 20
-1052.121785518626
 30
0.0
 11
-916.0419085464412
 21
-1051.331537337673
 31
0.0
  0
LINE
  5
DB
330
47
100
AcDbEntity
  8
0
  6
Continuous
 62
     7
100
AcDbLine
 10
-910.112807856544
 20
-1054.096785518626
 30
0.0
 11
-916.9544085464411
 21
-1052.121785518626
 31
0.0
  0
LINE
  5
DC
330
47
100
AcDbEntity
  8
0
  6
Continuous
 62
     7
100
AcDbLine
 10
-912.6894094716763
 20
-1045.399984751762
 30
0.0
 11
-913.1992170928114
 21
-1046.840529208388
 31
0.0
  0
LINE
  5
DD
330
47
100
AcDbEntity
  8
0
  6
Continuous
 62
     7
100
AcDbLine
 10
-910.9331916890267
 20
-1045.878093643087
 30
0.0
 11
-912.3331916890268
 21
-1047.090529208385
 31
0.0
  0
LINE
  5
DE
330
47
100
AcDbEntity
  8
0
  6
Continuous
 62
     7
100
AcDbLine
 10
-915.8381108600613
 20
-1064.178677124773
 30
0.0
 11
-913.8583677279111
 21
-1064.923384820672
 31
0.0
  0
LINE
  5
DF
330
47
100
AcDbEntity
  8
0
  6
Continuous
 62
     7
100
AcDbLine
 10
-913.8937554580222
 20
-1064.910073237701
 30
0.0
 11
-914.9822297947084
 21
-1065.852719664639
 31
0.0
  0
LINE
  5
E0
330
47
100
AcDbEntity
  8
0
  6
Continuous
 62
     7
100
AcDbLine
 10
-914.6979810095146
 20
-1070.613283359527
 30
0.0
 11
-916.1533350479399
 21
-1068.11469786752
 31
0.0
  0
LINE
  5
E1
330
47
100
AcDbEntity
  8
0
  6
Continuous
 62
     7
100
AcDbLine
 10
-916.1533350479399
 20
-1066.685755951269
 30
0.0
 11
-914.0396032989918
 21
-1064.855210559894
 31
0.0
  0
LINE
  5
E2
330
47
100
AcDbEntity
  8
0
  6
Continuous
 62
     7
100
AcDbLine
 10
-908.2292026033011
 20
-1066.938096252381
 30
0.0
 11
-913.7717651875247
 21
-1070.880658836604
 31
0.0
  0
LINE
  5
E3
330
47
100
AcDbEntity
  8
0
  6
Continuous
 62
     7
100
AcDbLine
 10
-939.0799797017903
 20
-1021.680059602929
 30
0.0
 11
-936.8507323846198
 21
-1020.094340555088
 31
0.0
  0
LINE
  5
E4
330
47
100
AcDbEntity
  8
0
  6
Continuous
 62
     7
100
AcDbLine
 10
-939.0799797017903
 20
-1021.680059602929
 30
0.0
 11
-942.1549796989844
 21
-1024.343087717137
 31
0.0
  0
LINE
  5
E5
330
47
100
AcDbEntity
  8
0
  6
Continuous
 62
     7
100
AcDbLine
 10
-930.4421443966166
 20
-1021.944340555087
 30
0.0
 11
-929.4029139120752
 21
-1025.099602844974
 31
0.0
  0
LINE
  5
E6
330
47
100
AcDbEntity
  8
0
  6
Continuous
 62
     7
100
AcDbLine
 10
-941.2521592661844
 20
-1027.113749905874
 30
0.0
 11
-940.6917556851438
 21
-1026.715120904017
 31
0.0
  0
LINE
  5
E7
330
47
100
AcDbEntity
  8
0
  6
Continuous
 62
     7
100
AcDbLine
 10
-941.1091421137971
 20
-1026.177245391894
 30
0.0
 11
-940.4539036076026
 21
-1027.021634962056
 31
0.0
  0
LINE
  5
E8
330
47
100
AcDbEntity
  8
0
  6
Continuous
 62
     7
100
AcDbLine
 10
-942.1549796989844
 20
-1024.343087717137
 30
0.0
 11
-939.9257323818141
 21
-1022.757368669295
 31
0.0
  0
LINE
  5
E9
330
47
100
AcDbEntity
  8
0
  6
Continuous
 62
     7
100
AcDbLine
 10
-941.4324125838873
 20
-1026.407195715521
 30
0.0
 11
-941.1091421137971
 21
-1026.177245391894
 31
0.0
  0
LINE
  5
EA
330
47
100
AcDbEntity
  8
0
  6
Continuous
 62
     7
100
AcDbLine
 10
-941.4324125838873
 20
-1026.407195715521
 30
0.0
 11
-942.1549796989844
 21
-1024.343087717137
 31
0.0
  0
LINE
  5
EB
330
47
100
AcDbEntity
  8
0
  6
Continuous
 62
     7
100
AcDbLine
 10
-932.4779139092693
 20
-1027.762630959181
 30
0.0
 11
-933.5171443938109
 21
-1024.607368669294
 31
0.0
  0
LINE
  5
EC
330
47
100
AcDbEntity
  8
0
  6
Continuous
 62
     7
100
AcDbLine
 10
-929.7279139092693
 20
-1028.154963933485
 30
0.0
 11
-929.7279139092692
 21
-1030.955112739054
 31
0.0
  0
LINE
  5
ED
330
47
100
AcDbEntity
  8
0
  6
Continuous
 62
     7
100
AcDbLine
 10
-929.4249338873315
 20
-1031.042575537667
 30
0.0
 11
-932.1529139092693
 21
-1030.255075537662
 31
0.0
  0
LINE
  5
EE
330
47
100
AcDbEntity
  8
0
  6
Continuous
 62
     7
100
AcDbLine
 10
-926.9999338873314
 20
-1028.942463933489
 30
0.0
 11
-929.4249338873315
 21
-1031.042575537667
 31
0.0
  0
LINE
  5
EF
330
47
100
AcDbEntity
  8
0
  6
Continuous
 62
     7
100
AcDbLine
 10
-929.7279139092693
 20
-1028.154963933485
 30
0.0
 11
-929.4029139120751
 21
-1027.873505679685
 31
0.0
  0
LINE
  5
F0
330
47
100
AcDbEntity
  8
0
  6
Continuous
 62
     7
100
AcDbLine
 10
-929.7279139092693
 20
-1028.154963933485
 30
0.0
 11
-926.9999338873314
 21
-1028.942463933489
 31
0.0
  0
LINE
  5
F1
330
47
100
AcDbEntity
  8
0
  6
Continuous
 62
     7
100
AcDbLine
 10
-925.2669781214615
 20
-1029.067447500715
 30
0.0
 11
-929.4029139120751
 21
-1027.873505679685
 31
0.0
  0
LINE
  5
F2
330
47
100
AcDbEntity
  8
0
  6
Continuous
 62
     7
100
AcDbLine
 10
-925.5497106789941
 20
-1032.161256118918
 30
0.0
 11
-927.9526907009318
 21
-1031.467575537657
 31
0.0
  0
LINE
  5
F3
330
47
100
AcDbEntity
  8
0
  6
Continuous
 62
     7
100
AcDbLine
 10
-929.4029139120751
 20
-1027.873505679685
 30
0.0
 11
-929.4029139120752
 21
-1025.099602844974
 31
0.0
  0
LINE
  5
F4
330
47
100
AcDbEntity
  8
0
  6
Continuous
 62
     7
100
AcDbLine
 10
-932.4779139092693
 20
-1027.762630959181
 30
0.0
 11
-932.4779139092693
 21
-1030.536533793892
 31
0.0
  0
LINE
  5
F5
330
47
100
AcDbEntity
  8
0
  6
Continuous
 62
     7
100
AcDbLine
 10
-925.5276907009319
 20
-1029.36746393348
 30
0.0
 11
-925.4035680235571
 21
-1029.403295064077
 31
0.0
  0
LINE
  5
F6
330
47
100
AcDbEntity
  8
0
  6
Continuous
 62
     7
100
AcDbLine
 10
-924.5104801944526
 20
-1027.207368669294
 30
0.0
 11
-924.0558168574705
 21
-1027.338618669293
 31
0.0
  0
LINE
  5
F7
330
47
100
AcDbEntity
  8
0
  6
Continuous
 62
     7
100
AcDbLine
 10
-920.9808168602765
 20
-1024.675590555086
 30
0.0
 11
-924.0558168574705
 21
-1027.338618669293
 31
0.0
  0
LINE
  5
F8
330
47
100
AcDbEntity
  8
0
  6
Continuous
 62
     7
100
AcDbLine
 10
-932.4779139092693
 20
-1030.536533793892
 30
0.0
 11
-925.5497106789941
 21
-1032.536533793892
 31
0.0
  0
LINE
  5
F9
330
47
100
AcDbEntity
  8
0
  6
Continuous
 62
     7
100
AcDbLine
 10
-927.9526907009318
 20
-1031.467575537657
 30
0.0
 11
-925.5276907009319
 21
-1029.36746393348
 31
0.0
  0
LINE
  5
FA
330
47
100
AcDbEntity
  8
0
  6
Continuous
 62
     7
100
AcDbLine
 10
-939.9257323818141
 20
-1022.757368669295
 30
0.0
 11
-933.5171443938109
 21
-1024.607368669294
 31
0.0
  0
LINE
  5
FB
330
47
100
AcDbEntity
  8
0
  6
Continuous
 62
     7
100
AcDbLine
 10
-921.4354801972585
 20
-1024.544340555087
 30
0.0
 11
-924.5104801944526
 21
-1027.207368669294
 31
0.0
  0
LINE
  5
FC
330
47
100
AcDbEntity
  8
0
  6
Continuous
 62
     7
100
AcDbLine
 10
-929.4029139120752
 20
-1025.099602844974
 30
0.0
 11
-932.4779139092693
 21
-1027.762630959181
 31
0.0
  0
LINE
  5
FD
330
47
100
AcDbEntity
  8
0
  6
Continuous
 62
     7
100
AcDbLine
 10
-930.4421443966166
 20
-1021.944340555087
 30
0.0
 11
-933.5171443938109
 21
-1024.607368669294
 31
0.0
  0
LINE
  5
FE
330
47
100
AcDbEntity
  8
0
  6
Continuous
 62
     7
100
AcDbLine
 10
-936.8507323846198
 20
-1020.094340555088
 30
0.0
 11
-930.4421443966166
 21
-1021.944340555087
 31
0.0
  0
LINE
  5
FF
330
47
100
AcDbEntity
  8
0
  6
Continuous
 62
     7
100
AcDbLine
 10
-936.8507323846198
 20
-1020.094340555088
 30
0.0
 11
-939.9257323818141
 21
-1022.757368669295
 31
0.0
  0
LINE
  5
100
330
47
100
AcDbEntity
  8
0
  6
Continuous
 62
     7
100
AcDbLine
 10
-920.5267633370513
 20
-1062.998384820672
 30
0.0
 11
-920.5267633370513
 21
-1062.82517973991
 31
0.0
  0
LINE
  5
101
330
47
100
AcDbEntity
  8
0
  6
Continuous
 62
     7
100
AcDbLine
 10
-925.5497106789941
 20
-1032.536533793892
 30
0.0
 11
-925.5497106789941
 21
-1029.762630959181
 31
0.0
  0
LINE
  5
102
330
47
100
AcDbEntity
  8
0
  6
Continuous
 62
     7
100
AcDbLine
 10
-925.5276907009319
 20
-1029.36746393348
 30
0.0
 11
-925.5276907009319
 21
-1029.708488186809
 31
0.0
  0
LINE
  5
103
330
47
100
AcDbEntity
  8
0
  6
Continuous
 62
     7
100
AcDbLine
 10
-924.0558168574712
 20
-1036.648391759973
 30
0.0
 11
-924.0558168574705
 21
-1027.338618669293
 31
0.0
  0
LINE
  5
104
330
47
100
AcDbEntity
  8
0
  6
Continuous
 62
     7
100
AcDbLine
 10
-925.5497106789941
 20
-1029.762630959181
 30
0.0
 11
-924.5104801944526
 21
-1027.207368669294
 31
0.0
  0
LINE
  5
105
330
47
100
AcDbEntity
  8
0
  6
Continuous
 62
     7
100
AcDbLine
 10
-944.8915745040152
 20
-1061.897143693601
 30
0.0
 11
-949.798421984957
 21
-1060.480658836604
 31
0.0
  0
LINE
  5
106
330
47
100
AcDbEntity
  8
0
  6
Continuous
 62
     7
100
AcDbLine
 10
-949.798421984957
 20
-1060.480658836604
 30
0.0
 11
-949.7984219849571
 21
-1056.014473354067
 31
0.0
  0
LINE
  5
107
330
47
100
AcDbEntity
  8
0
  6
Continuous
 62
     7
100
AcDbLine
 10
-948.4678639294274
 20
-1056.892822325293
 30
0.0
 11
-949.2070628491647
 21
-1055.940235057908
 31
0.0
  0
LINE
  5
108
330
47
100
AcDbEntity
  8
0
  6
Continuous
 62
     7
100
AcDbLine
 10
-948.932396581173
 20
-1049.602232397974
 30
0.0
 11
-946.1236498008508
 21
-1050.413047752826
 31
0.0
  0
LINE
  5
109
330
47
100
AcDbEntity
  8
0
  6
Continuous
 62
     7
100
AcDbLine
 10
-948.932396581173
 20
-1049.602232397974
 30
0.0
 11
-948.932396581173
 21
-1046.334106300371
 31
0.0
  0
LINE
  5
10A
330
47
100
AcDbEntity
  8
0
  6
Continuous
 62
     7
100
AcDbLine
 10
-946.117814018874
 20
-1036.467558272427
 30
0.0
 11
-946.117814018874
 21
-1034.423395726427
 31
0.0
  0
LINE
  5
10B
330
47
100
AcDbEntity
  8
0
  6
Continuous
 62
     2
100
AcDbLine
 10
-942.9464236258964
 20
-1053.27539568067
 30
0.0
 11
-943.073883383227
 21
-1053.385779068479
 31
0.0
  0
LINE
  5
10C
330
47
100
AcDbEntity
  8
0
  6
Continuous
 62
     7
100
AcDbLine
 10
-944.1539818261501
 20
-1040.93332035338
 30
0.0
 11
-946.6014189475943
 21
-1040.882594913152
 31
0.0
  0
LINE
  5
10D
330
47
100
AcDbEntity
  8
0
  6
Continuous
 62
     7
100
AcDbLine
 10
-946.6014189475943
 20
-1040.882594913152
 30
0.0
 11
-946.3014189475942
 21
-1040.622787292017
 31
0.0
  0
LINE
  5
10E
330
47
100
AcDbEntity
  8
0
  6
Continuous
 62
     7
100
AcDbLine
 10
-943.8539818261501
 20
-1040.673512732245
 30
0.0
 11
-946.3014189475942
 21
-1040.622787292017
 31
0.0
  0
LINE
  5
10F
330
47
100
AcDbEntity
  8
0
  6
Continuous
 62
     2
100
AcDbLine
 10
-943.8539818261501
 20
-1040.673512732245
 30
0.0
 11
-944.1539818261501
 21
-1040.93332035338
 31
0.0
  0
LINE
  5
110
330
47
100
AcDbEntity
  8
0
  6
Continuous
 62
     7
100
AcDbLine
 10
-946.117814018874
 20
-1036.467558272427
 30
0.0
 11
-944.15398182615
 21
-1037.560675045094
 31
0.0
  0
LINE
  5
111
330
47
100
AcDbEntity
  8
0
  6
Continuous
 62
     7
100
AcDbLine
 10
-942.8702187546652
 20
-1039.604298130019
 30
0.0
 11
-942.8702187546652
 21
-1039.630878223354
 31
0.0
  0
LINE
  5
112
330
47
100
AcDbEntity
  8
0
  6
Continuous
 62
     7
100
AcDbLine
 10
-947.2141464859517
 20
-1030.629789449687
 30
0.0
 11
-947.8931660966318
 21
-1029.46403286865
 31
0.0
  0
LINE
  5
113
330
47
100
AcDbEntity
  8
0
  6
Continuous
 62
     7
100
AcDbLine
 10
-948.4993838792805
 20
-1058.820499137705
 30
0.0
 11
-948.4993838792805
 21
-1058.015805993581
 31
0.0
  0
LINE
  5
114
330
47
100
AcDbEntity
  8
0
  6
Continuous
 62
     7
100
AcDbLine
 10
-947.0205300584427
 20
-1059.247407466721
 30
0.0
 11
-948.4993838792805
 21
-1058.820499137705
 31
0.0
  0
LINE
  5
115
330
47
100
AcDbEntity
  8
0
  6
Continuous
 62
     7
100
AcDbLine
 10
-943.130026375817
 20
-1057.599217845595
 30
0.0
 11
-943.9094492392229
 21
-1057.442408510236
 31
0.0
  0
LINE
  5
116
330
47
100
AcDbEntity
  8
0
  6
Continuous
 62
     7
100
AcDbLine
 10
-943.9094492420288
 20
-1056.508192444245
 30
0.0
 11
-943.9094492392229
 21
-1057.442408510236
 31
0.0
  0
LINE
  5
117
330
47
100
AcDbEntity
  8
0
  6
Continuous
 62
     7
100
AcDbLine
 10
-943.1300263786228
 20
-1058.081131537449
 30
0.0
 11
-943.130026375817
 21
-1057.599217845595
 31
0.0
  0
LINE
  5
118
330
47
100
AcDbEntity
  8
0
  6
Continuous
 62
     7
100
AcDbLine
 10
-941.7166476813354
 20
-1059.149694395541
 30
0.0
 11
-944.7916476785296
 21
-1061.812722509748
 31
0.0
  0
LINE
  5
119
330
47
100
AcDbEntity
  8
0
  6
Continuous
 62
     2
100
AcDbLine
 10
-941.0249748308615
 20
-1058.427358655664
 30
0.0
 11
-944.0999748308615
 21
-1061.090386772302
 31
0.0
  0
LINE
  5
11A
330
47
100
AcDbEntity
  8
0
  6
Continuous
 62
     2
100
AcDbLine
 10
-942.9444495035775
 20
-1055.672478156101
 30
0.0
 11
-943.9094492420288
 21
-1056.508192444245
 31
0.0
  0
LINE
  5
11B
330
47
100
AcDbEntity
  8
0
  6
Continuous
 62
     7
100
AcDbLine
 10
-942.155026375817
 20
-1056.754843076905
 30
0.0
 11
-943.130026375817
 21
-1057.599217845595
 31
0.0
  0
LINE
  5
11C
330
47
100
AcDbEntity
  8
0
  6
Continuous
 62
     7
100
AcDbLine
 10
-943.9094492392229
 20
-1057.442408510236
 30
0.0
 11
-942.875394391343
 21
-1056.546890743065
 31
0.0
  0
LINE
  5
11D
330
47
100
AcDbEntity
  8
0
  6
Continuous
 62
     2
100
AcDbLine
 10
-941.7376768783437
 20
-1056.875321499261
 30
0.0
 11
-943.1300263786228
 21
-1058.081131537449
 31
0.0
  0
LINE
  5
11E
330
47
100
AcDbEntity
  8
0
  6
Continuous
 62
     7
100
AcDbLine
 10
-948.4993838792805
 20
-1058.820499137705
 30
0.0
 11
-946.9208205548013
 21
-1057.453423197224
 31
0.0
  0
LINE
  5
11F
330
47
100
AcDbEntity
  8
0
  6
Continuous
 62
     7
100
AcDbLine
 10
-946.8266383978605
 20
-1056.576806500654
 30
0.0
 11
-948.4298108179139
 21
-1057.965194543067
 31
0.0
  0
LINE
  5
120
330
47
100
AcDbEntity
  8
0
  6
Continuous
 62
     2
100
AcDbLine
 10
-946.6336097305657
 20
-1055.304311592081
 30
0.0
 11
-948.4678639294274
 21
-1056.892822325293
 31
0.0
  0
LINE
  5
121
330
47
100
AcDbEntity
  8
0
  6
Continuous
 62
     2
100
AcDbLine
 10
-946.1916846926592
 20
-1053.328840972357
 30
0.0
 11
-949.2070628491647
 21
-1055.940235057908
 31
0.0
  0
LINE
  5
122
330
47
100
AcDbEntity
  8
0
  6
Continuous
 62
     7
100
AcDbLine
 10
-946.6388732945322
 20
-1053.149073661453
 30
0.0
 11
-949.7138732945323
 21
-1055.81210177809
 31
0.0
  0
LINE
  5
123
330
47
100
AcDbEntity
  8
0
  6
Continuous
 62
     7
100
AcDbLine
 10
-920.5267633370513
 20
-1062.998384820672
 30
0.0
 11
-943.0380830667534
 21
-1056.499926567794
 31
0.0
  0
SPLINE
  5
124
330
47
100
AcDbEntity
  8
0
  6
Continuous
 62
     7
100
AcDbSpline
210
0.0
220
0.0
230
1.0
 70
     8
 71
     3
 72
     9
 73
     5
 74
     3
 42
0.000000001
 43
0.0000000001
 44
0.00000001
 40
0.0
 40
0.0
 40
0.0
 40
0.0
 40
2.925692990869455
 40
5.954524476264133
 40
5.954524476264133
 40
5.954524476264133
 40
5.954524476264133
 10
-948.932396581173
 20
-1046.334106300371
 30
0.0
 10
-948.4254473352249
 20
-1045.495023221271
 30
0.0
 10
-947.3936775458375
 20
-1043.787277134044
 30
0.0
 10
-946.8685371315911
 20
-1041.861938604361
 30
0.0
 10
-946.6014189475943
 20
-1040.882594913152
 30
0.0
 11
-948.932396581173
 21
-1046.334106300371
 31
0.0
 11
-947.5338565237627
 21
-1043.764327089999
 31
0.0
 11
-946.6014189475943
 21
-1040.882594913152
 31
0.0
  0
SPLINE
  5
125
330
47
100
AcDbEntity
  8
0
  6
Continuous
 62
     7
100
AcDbSpline
210
0.0
220
0.0
230
1.0
 70
     8
 71
     3
 72
    11
 73
     7
 74
     5
 42
0.000000001
 43
0.0000000001
 44
0.00000001
 40
0.0
 40
0.0
 40
0.0
 40
0.0
 40
1.864074417372424
 40
3.811515966947642
 40
5.847422322487189
 40
7.968451790518506
 40
7.968451790518506
 40
7.968451790518506
 40
7.968451790518506
 10
-908.1346092272639
 20
-1052.789786001402
 30
0.0
 10
-908.316937344968
 20
-1053.385569966599
 30
0.0
 10
-908.689747839144
 20
-1054.603783189213
 30
0.0
 10
-908.837750811136
 20
-1056.560095050787
 30
0.0
 10
-908.7206584893955
 20
-1058.599723264746
 30
0.0
 10
-908.3952424584164
 20
-1059.949341894266
 30
0.0
 10
-908.2292026033011
 20
-1060.637969527522
 30
0.0
 11
-908.1346092272639
 21
-1052.789786001402
 31
0.0
 11
-908.6154981293823
 21
-1054.590763319853
 31
0.0
 11
-908.793150582109
 21
-1056.5300849028
 31
0.0
 11
-908.6633612435588
 21
-1058.56185000294
 31
0.0
 11
-908.2292026033011
 21
-1060.637969527522
 31
0.0
  0
SPLINE
  5
126
330
47
100
AcDbEntity
  8
0
  6
Continuous
 62
     7
100
AcDbSpline
210
0.0
220
0.0
230
1.0
 70
     8
 71
     3
 72
    11
 73
     7
 74
     5
 42
0.000000001
 43
0.0000000001
 44
0.00000001
 40
0.0
 40
0.0
 40
0.0
 40
0.0
 40
1.86407441785715
 40
3.811515967495112
 40
5.84742232331522
 40
7.968451792923973
 40
7.968451792923973
 40
7.968451792923973
 40
7.968451792923973
 10
-905.0596092268623
 20
-1050.126757884299
 30
0.0
 10
-905.2419373447024
 20
-1050.722541849623
 30
0.0
 10
-905.6147478391131
 20
-1051.940755072355
 30
0.0
 10
-905.7627508111989
 20
-1053.897066934256
 30
0.0
 10
-905.6456584891284
 20
-1055.936695148703
 30
0.0
 10
-905.3202424602163
 20
-1057.286313779302
 30
0.0
 10
-905.154202606107
 20
-1057.974941413314
 30
0.0
 11
-905.0596092268623
 21
-1050.126757884299
 31
0.0
 11
-905.540498129332
 21
-1051.927735203157
 31
0.0
 11
-905.7181505821086
 21
-1053.867056786164
 31
0.0
 11
-905.5883612439093
 21
-1055.898821886607
 31
0.0
 11
-905.154202606107
 21
-1057.974941413314
 31
0.0
  0
SPLINE
  5
127
330
47
100
AcDbEntity
  8
0
  6
Continuous
 62
     7
100
AcDbSpline
210
0.0
220
0.0
230
1.0
 70
     8
 71
     3
 72
    17
 73
    13
 74
    11
 42
0.000000001
 43
0.0000000001
 44
0.00000001
 40
0.0
 40
0.0
 40
0.0
 40
0.0
 40
0.4142394051166486
 40
0.8970157618359363
 40
1.4314018657365
 40
1.992804830396543
 40
2.553202684609484
 40
3.084695508194284
 40
3.563077860102585
 40
3.972162536951583
 40
4.310210061158768
 40
4.599498888870083
 40
4.599498888870083
 40
4.599498888870083
 40
4.599498888870083
 10
-933.7495232762504
 20
-1021.942210452775
 30
0.0
 10
-933.8634314642183
 20
-1021.863178902325
 30
0.0
 10
-934.1100942426862
 20
-1021.692039843304
 30
0.0
 10
-934.5664224664458
 20
-1021.536354773685
 30
0.0
 10
-935.0829492382857
 20
-1021.433136704925
 30
0.0
 10
-935.6360238068232
 20
-1021.401030056172
 30
0.0
 10
-936.1873828027008
 20
-1021.438539852317
 30
0.0
 10
-936.7014217236172
 20
-1021.544194964546
 30
0.0
 10
-937.1480576915335
 20
-1021.710967218008
 30
0.0
 10
-937.4929994467175
 20
-1021.929750781675
 30
0.0
 10
-937.7394627451939
 20
-1022.19336030283
 30
0.0
 10
-937.7749360217264
 20
-1022.403419361759
 30
0.0
 10
-937.791294103666
 20
-1022.500285644374
 30
0.0
 11
-933.7495232762504
 21
-1021.942210452775
 31
0.0
 11
-934.0996297113336
 21
-1021.720806381391
 31
0.0
 11
-934.5518975043838
 21
-1021.5519074393
 31
0.0
 11
-935.0758633004345
 21
-1021.446891474136
 31
0.0
 11
-935.6362321036532
 21
-1021.412831337729
 31
0.0
 11
-936.1952578785459
 21
-1021.452022376866
 31
0.0
 11
-936.7152850946576
 21
-1021.561823631062
 31
0.0
 11
-937.1612840214805
 21
-1021.734839905196
 31
0.0
 11
-937.50321360452
 21
-1021.959416021151
 31
0.0
 11
-937.7180398502085
 21
-1022.220425240985
 31
0.0
 11
-937.791294103666
 21
-1022.500285644374
 31
0.0
  0
SPLINE
  5
128
330
47
100
AcDbEntity
  8
0
  6
Continuous
 62
     7
100
AcDbSpline
210
0.0
220
0.0
230
1.0
 70
     8
 71
     3
 72
    19
 73
    15
 74
    13
 42
0.000000001
 43
0.0000000001
 44
0.00000001
 40
0.0
 40
0.0
 40
0.0
 40
0.0
 40
0.2910592275645035
 40
0.6316541858370195
 40
1.044208023882094
 40
1.52668037828477
 40
2.06238114621377
 40
2.626530740972188
 40
3.190680335730486
 40
3.726381103659508
 40
4.208853458062184
 40
4.621407296107163
 40
4.962002254379824
 40
5.253061481944298
 40
5.253061481944298
 40
5.253061481944298
 40
5.253061481944298
 10
-937.791294103666
 20
-1022.500285644374
 30
0.0
 10
-937.7747210969178
 20
-1022.597741155214
 30
0.0
 10
-937.7387544846033
 20
-1022.809238243627
 30
0.0
 10
-937.4893788115749
 20
-1023.07399866646
 30
0.0
 10
-937.1408265852294
 20
-1023.293290900269
 30
0.0
 10
-936.689848005262
 20
-1023.459799136868
 30
0.0
 10
-936.1714846728057
 20
-1023.564246452958
 30
0.0
 10
-935.616294103666
 20
-1023.599859688616
 30
0.0
 10
-935.0611035345262
 20
-1023.564246452958
 30
0.0
 10
-934.5427402020698
 20
-1023.459799136868
 30
0.0
 10
-934.0917616221025
 20
-1023.29329090027
 30
0.0
 10
-933.7432093957575
 20
-1023.07399866646
 30
0.0
 10
-933.4938337227286
 20
-1022.809238243627
 30
0.0
 10
-933.4578671104139
 20
-1022.597741155214
 30
0.0
 10
-933.441294103666
 20
-1022.500285644374
 30
0.0
 11
-937.791294103666
 21
-1022.500285644374
 31
0.0
 11
-937.7171822157356
 21
-1022.781751280882
 31
0.0
 11
-937.4998993568972
 21
-1023.044035644374
 31
0.0
 11
-937.1542509427185
 21
-1023.2692640639
 31
0.0
 11
-936.703794103666
 21
-1023.442088270989
 31
0.0
 11
-936.1792253766832
 21
-1023.550729700409
 31
0.0
 11
-935.616294103666
 21
-1023.587785644374
 31
0.0
 11
-935.0533628306488
 21
-1023.550729700409
 31
0.0
 11
-934.528794103666
 21
-1023.442088270989
 31
0.0
 11
-934.0783372646135
 21
-1023.2692640639
 31
0.0
 11
-933.7326888504349
 21
-1023.044035644374
 31
0.0
 11
-933.5154059915963
 21
-1022.781751280882
 31
0.0
 11
-933.441294103666
 21
-1022.500285644374
 31
0.0
  0
SPLINE
  5
129
330
47
100
AcDbEntity
  8
0
  6
Continuous
 62
     7
100
AcDbSpline
210
0.0
220
0.0
230
1.0
 70
     8
 71
     3
 72
     9
 73
     5
 74
     3
 42
0.000000001
 43
0.0000000001
 44
0.00000001
 40
0.0
 40
0.0
 40
0.0
 40
0.0
 40
0.2999297520106582
 40
0.6533841318713136
 40
0.6533841318713136
 40
0.6533841318713136
 40
0.6533841318713136
 10
-933.441294103666
 20
-1022.500285644374
 30
0.0
 10
-933.4585397394095
 20
-1022.399081748199
 30
0.0
 10
-933.4961086371266
 20
-1022.178613397277
 30
0.0
 10
-933.6605611251582
 20
-1022.025200576267
 30
0.0
 10
-933.7495232762504
 20
-1021.942210452775
 30
0.0
 11
-933.441294103666
 21
-1022.500285644374
 31
0.0
 11
-933.5197676932632
 21
-1022.21080377414
 31
0.0
 11
-933.7495232762504
 21
-1021.942210452775
 31
0.0
  0
SPLINE
  5
12A
330
47
100
AcDbEntity
  8
0
  6
Continuous
 62
     7
100
AcDbSpline
210
0.0
220
0.0
230
1.0
 70
     8
 71
     3
 72
     9
 73
     5
 74
     3
 42
0.000000001
 43
0.0000000001
 44
0.00000001
 40
0.0
 40
0.0
 40
0.0
 40
0.0
 40
0.6586971449385921
 40
1.332639881437654
 40
1.332639881437654
 40
1.332639881437654
 40
1.332639881437654
 10
-941.0249748308615
 20
-1058.427358655664
 30
0.0
 10
-940.8953367480839
 20
-1058.249128356176
 30
0.0
 10
-940.6330601169598
 20
-1057.888542593994
 30
0.0
 10
-940.4615575186303
 20
-1057.476912493413
 30
0.0
 10
-940.3748252212444
 20
-1057.268742884807
 30
0.0
 11
-941.0249748308615
 21
-1058.427358655664
 31
0.0
 11
-940.6582378348274
 21
-1057.880196974331
 31
0.0
 11
-940.3748252212444
 21
-1057.268742884807
 31
0.0
  0
SPLINE
  5
12B
330
47
100
AcDbEntity
  8
0
  6
Continuous
 62
     7
100
AcDbSpline
210
0.0
220
0.0
230
1.0
 70
     8
 71
     3
 72
     9
 73
     5
 74
     3
 42
0.000000001
 43
0.0000000001
 44
0.00000001
 40
0.0
 40
0.0
 40
0.0
 40
0.0
 40
0.0654103756789797
 40
0.1308164650390193
 40
0.1308164650390193
 40
0.1308164650390193
 40
0.1308164650390193
 10
-944.8915745040152
 20
-1061.897143693601
 30
0.0
 10
-944.8747903311026
 20
-1061.88322591368
 30
0.0
 10
-944.8412230979987
 20
-1061.85539125055
 30
0.0
 10
-944.8081724530567
 20
-1061.82694511774
 30
0.0
 10
-944.7916476785296
 20
-1061.812722509748
 30
0.0
 11
-944.8915745040152
 21
-1061.897143693601
 31
0.0
 11
-944.8413511471884
 21
-1061.855237468723
 31
0.0
 11
-944.7916476785296
 21
-1061.812722509748
 31
0.0
  0
SPLINE
  5
12C
330
47
100
AcDbEntity
  8
0
  6
Continuous
 62
     7
100
AcDbSpline
210
0.0
220
0.0
230
1.0
 70
     8
 71
     3
 72
     9
 73
     5
 74
     3
 42
0.000000001
 43
0.0000000001
 44
0.00000001
 40
0.0
 40
0.0
 40
0.0
 40
0.0
 40
0.1077881269232335
 40
0.2245587708532539
 40
0.2245587708532539
 40
0.2245587708532539
 40
0.2245587708532539
 10
-949.7138732945323
 20
-1055.81210177809
 30
0.0
 10
-949.7381872814352
 20
-1055.83986295088
 30
0.0
 10
-949.7888414431811
 20
-1055.897698781716
 30
0.0
 10
-949.7951444359234
 20
-1055.974524137597
 30
0.0
 10
-949.7984219849571
 20
-1056.014473354067
 30
0.0
 11
-949.7138732945323
 21
-1055.81210177809
 31
0.0
 11
-949.7765967548353
 21
-1055.899760481573
 31
0.0
 11
-949.7984219849571
 21
-1056.014473354067
 31
0.0
  0
SPLINE
  5
12D
330
47
100
AcDbEntity
  8
0
  6
Continuous
 62
     7
100
AcDbSpline
210
0.0
220
0.0
230
1.0
 70
     8
 71
     3
 72
    13
 73
     9
 74
     7
 42
0.000000001
 43
0.0000000001
 44
0.00000001
 40
0.0
 40
0.0
 40
0.0
 40
0.0
 40
0.1090550107471856
 40
0.2155390162902326
 40
0.3164904797015103
 40
0.410221946948778
 40
0.4970140864850756
 40
0.5794720031516974
 40
0.5794720031516974
 40
0.5794720031516974
 40
0.5794720031516974
 10
-949.2070628491647
 20
-1055.940235057908
 30
0.0
 10
-949.2310851539535
 20
-1055.912778840117
 30
0.0
 10
-949.2785634404956
 20
-1055.858513703011
 30
0.0
 10
-949.3670523471022
 20
-1055.799030532255
 30
0.0
 10
-949.4610313388046
 20
-1055.761142490733
 30
0.0
 10
-949.5549904742546
 20
-1055.749759766244
 30
0.0
 10
-949.6440862187391
 20
-1055.763906113811
 30
0.0
 10
-949.6910114986161
 20
-1055.796313183772
 30
0.0
 10
-949.7138732945323
 20
-1055.81210177809
 30
0.0
 11
-949.2070628491647
 21
-1055.940235057908
 31
0.0
 11
-949.2824027661089
 21
-1055.861387789343
 31
0.0
 11
-949.3703732771562
 21
-1055.801387516899
 31
0.0
 11
-949.464423428481
 21
-1055.764702815185
 31
0.0
 11
-949.5575493017262
 21
-1055.754065132882
 31
0.0
 11
-949.6428157760619
 21
-1055.770267129915
 31
0.0
 11
-949.7138732945323
 21
-1055.81210177809
 31
0.0
  0
SPLINE
  5
12E
330
47
100
AcDbEntity
  8
0
  6
Continuous
 62
     7
100
AcDbSpline
210
0.0
220
0.0
230
1.0
 70
     8
 71
     3
 72
     9
 73
     5
 74
     3
 42
0.000000001
 43
0.0000000001
 44
0.00000001
 40
0.0
 40
0.0
 40
0.0
 40
0.0
 40
0.043123143350251
 40
0.0861115098978788
 40
0.0861115098978788
 40
0.0861115098978788
 40
0.0861115098978788
 10
-948.4993838792805
 20
-1058.015805993581
 30
0.0
 10
-948.4872340270766
 20
-1058.008094525582
 30
0.0
 10
-948.4629723071471
 20
-1057.992695674567
 30
0.0
 10
-948.4408531037316
 20
-1057.974352022045
 30
0.0
 10
-948.4298108179139
 20
-1057.965194543067
 30
0.0
 11
-948.4993838792805
 21
-1058.015805993581
 31
0.0
 11
-948.4634716353223
 21
-1057.991933074556
 31
0.0
 11
-948.4298108179139
 21
-1057.965194543067
 31
0.0
  0
SPLINE
  5
12F
330
47
100
AcDbEntity
  8
0
  6
Continuous
 62
     7
100
AcDbSpline
210
0.0
220
0.0
230
1.0
 70
     8
 71
     3
 72
     9
 73
     5
 74
     3
 42
0.000000001
 43
0.0000000001
 44
0.00000001
 40
0.0
 40
0.0
 40
0.0
 40
0.0
 40
1.407652232098781
 40
2.909795250420569
 40
2.909795250420569
 40
2.909795250420569
 40
2.909795250420569
 10
-946.1847341665298
 20
-1053.303200174276
 30
0.0
 10
-946.0937026216596
 20
-1052.839169101182
 30
0.0
 10
-945.9055289214411
 20
-1051.879958165311
 30
0.0
 10
-946.0493856643401
 20
-1050.91249019729
 30
0.0
 10
-946.1236498008508
 20
-1050.413047752826
 30
0.0
 11
-946.1847341665298
 21
-1053.303200174276
 31
0.0
 11
-945.9893436151879
 21
-1051.909174585489
 31
0.0
 11
-946.1236498008508
 21
-1050.413047752826
 31
0.0
  0
SPLINE
  5
130
330
47
100
AcDbEntity
  8
0
  6
Continuous
 62
     7
100
AcDbSpline
210
0.0
220
0.0
230
1.0
 70
     8
 71
     3
 72
    13
 73
     9
 74
     7
 42
0.000000001
 43
0.0000000001
 44
0.00000001
 40
0.0
 40
0.0
 40
0.0
 40
0.0
 40
0.0995052715906855
 40
0.1957258582109944
 40
0.2866569113006796
 40
0.3713707643753329
 40
0.4504436781738343
 40
0.5261097544826757
 40
0.5261097544826757
 40
0.5261097544826757
 40
0.5261097544826757
 10
-946.1670785756992
 20
-1053.236497335839
 30
0.0
 10
-946.1912779708193
 20
-1053.213662414198
 30
0.0
 10
-946.2388779443493
 20
-1053.168746366
 30
0.0
 10
-946.3229424303436
 20
-1053.121444465296
 30
0.0
 10
-946.4099131941623
 20
-1053.093335231138
 30
0.0
 10
-946.4953484291661
 20
-1053.088081420578
 30
0.0
 10
-946.5755181143352
 20
-1053.104423052721
 30
0.0
 10
-946.6180671663145
 20
-1053.13441019361
 30
0.0
 10
-946.6388732945322
 20
-1053.149073661453
 30
0.0
 11
-946.1670785756992
 21
-1053.236497335839
 31
0.0
 11
-946.2422092287732
 21
-1053.171254071018
 31
0.0
 11
-946.325811774129
 21
-1053.123619883805
 31
0.0
 11
-946.4126321128955
 21
-1053.096588688716
 31
0.0
 11
-946.4972138358107
 21
-1053.091859040728
 31
0.0
 11
-946.5742411673083
 21
-1053.109728473291
 31
0.0
 11
-946.6388732945322
 21
-1053.149073661453
 31
0.0
  0
SPLINE
  5
131
330
47
100
AcDbEntity
  8
0
  6
Continuous
 62
     7
100
AcDbSpline
210
0.0
220
0.0
230
1.0
 70
     8
 71
     3
 72
     9
 73
     5
 74
     3
 42
0.000000001
 43
0.0000000001
 44
0.00000001
 40
0.0
 40
0.0
 40
0.0
 40
0.0
 40
0.0425470215156181
 40
0.085511790453697
 40
0.085511790453697
 40
0.085511790453697
 40
0.085511790453697
 10
-943.0185328093876
 20
-1053.320911786781
 30
0.0
 10
-943.0289234953901
 20
-1053.330636377195
 30
0.0
 10
-943.0498068735856
 20
-1053.350181052286
 30
0.0
 10
-943.0658317899399
 20
-1053.373874476089
 30
0.0
 10
-943.073883383227
 20
-1053.385779068479
 30
0.0
 11
-943.0185328093876
 21
-1053.320911786781
 31
0.0
 11
-943.0485020834146
 21
-1053.351112643022
 31
0.0
 11
-943.073883383227
 21
-1053.385779068479
 31
0.0
  0
SPLINE
  5
132
330
47
100
AcDbEntity
  8
0
  6
Continuous
 62
     7
100
AcDbSpline
210
0.0
220
0.0
230
1.0
 70
     8
 71
     3
 72
    17
 73
    13
 74
    11
 42
0.000000001
 43
0.0000000001
 44
0.00000001
 40
0.0
 40
0.0
 40
0.0
 40
0.0
 40
0.1143928098904594
 40
0.2383595098481639
 40
0.3725842672074162
 40
0.514557280582265
 40
0.6597504127094787
 40
0.8028759313107687
 40
0.9391287914672718
 40
1.065442562335249
 40
1.181708888147686
 40
1.291518420207515
 40
1.291518420207515
 40
1.291518420207515
 40
1.291518420207515
 10
-942.3085285620346
 20
-1054.011973448671
 30
0.0
 10
-942.2919575822907
 20
-1053.977215572548
 30
0.0
 10
-942.2574287595056
 20
-1053.904790820224
 30
0.0
 10
-942.2552059552903
 20
-1053.777362568802
 30
0.0
 10
-942.2858955066093
 20
-1053.646718950291
 30
0.0
 10
-942.3504773323839
 20
-1053.52040477309
 30
0.0
 10
-942.4424284465554
 20
-1053.408935873075
 30
0.0
 10
-942.554727492183
 20
-1053.32099161706
 30
0.0
 10
-942.6788281800651
 20
-1053.263419965649
 30
0.0
 10
-942.8044238986829
 20
-1053.242299928475
 30
0.0
 10
-942.9247948030456
 20
-1053.257229376706
 30
0.0
 10
-942.9878874577424
 20
-1053.300092372818
 30
0.0
 10
-943.0185328093876
 20
-1053.320911786781
 30
0.0
 11
-942.3085285620346
 21
-1054.011973448671
 31
0.0
 11
-942.2664407967239
 21
-1053.905604582882
 31
0.0
 11
-942.2601870234641
 21
-1053.781795722695
 31
0.0
 11
-942.2902956630301
 21
-1053.65099145802
 31
0.0
 11
-942.3542258551158
 21
-1053.524226845839
 31
0.0
 11
-942.4465849835633
 21
-1053.412196328627
 31
0.0
 11
-942.5595808016882
 21
-1053.324350672922
 31
0.0
 11
-942.6836810246076
 21
-1053.268101433377
 31
0.0
 11
-942.8084160665009
 21
-1053.248193173387
 31
0.0
 11
-942.9232628150717
 21
-1053.266306268556
 31
0.0
 11
-943.0185328093876
 21
-1053.320911786781
 31
0.0
  0
SPLINE
  5
133
330
47
100
AcDbEntity
  8
0
  6
Continuous
 62
     7
100
AcDbSpline
210
0.0
220
0.0
230
1.0
 70
     8
 71
     3
 72
     9
 73
     5
 74
     3
 42
0.000000001
 43
0.0000000001
 44
0.00000001
 40
0.0
 40
0.0
 40
0.0
 40
0.0
 40
1.269097423717559
 40
2.614587378187632
 40
2.614587378187632
 40
2.614587378187632
 40
2.614587378187632
 10
-942.3085285620346
 20
-1054.011973448671
 30
0.0
 10
-942.505878846253
 20
-1054.390932172848
 30
0.0
 10
-942.9124587739246
 20
-1055.171660813015
 30
0.0
 10
-942.9954005168946
 20
-1056.048630270831
 30
0.0
 10
-943.0380830667534
 20
-1056.499926567794
 30
0.0
 11
-942.3085285620346
 21
-1054.011973448671
 31
0.0
 11
-942.8243287895681
 21
-1055.171524395995
 31
0.0
 11
-943.0380830667534
 21
-1056.499926567794
 31
0.0
  0
SPLINE
  5
134
330
47
100
AcDbEntity
  8
0
  6
Continuous
 62
     7
100
AcDbSpline
210
0.0
220
0.0
230
1.0
 70
     8
 71
     3
 72
    11
 73
     7
 74
     5
 42
0.000000001
 43
0.0000000001
 44
0.00000001
 40
0.0
 40
0.0
 40
0.0
 40
0.0
 40
0.2235000768705292
 40
0.4507321010097145
 40
0.6849343615652952
 40
0.9284879815668126
 40
0.9284879815668126
 40
0.9284879815668126
 40
0.9284879815668126
 10
-943.292962220818
 20
-1040.642736115391
 30
0.0
 10
-943.3522011460498
 20
-1040.688348242261
 30
0.0
 10
-943.4716681614143
 20
-1040.780334103411
 30
0.0
 10
-943.6833506442134
 20
-1040.870987132293
 30
0.0
 10
-943.9129486125875
 20
-1040.927598803743
 30
0.0
 10
-944.0725958026376
 20
-1040.931388449606
 30
0.0
 10
-944.1539818261501
 20
-1040.93332035338
 30
0.0
 11
-943.292962220818
 21
-1040.642736115391
 31
0.0
 11
-943.4755557435767
 21
-1040.771623237964
 31
0.0
 11
-943.6830563768177
 21
-1040.864240087931
 31
0.0
 11
-943.9108771488686
 21
-1040.91853921764
 31
0.0
 11
-944.1539818261501
 21
-1040.93332035338
 31
0.0
  0
SPLINE
  5
135
330
47
100
AcDbEntity
  8
0
  6
Continuous
 62
     7
100
AcDbSpline
210
0.0
220
0.0
230
1.0
 70
     8
 71
     3
 72
     9
 73
     5
 74
     3
 42
0.000000001
 43
0.0000000001
 44
0.00000001
 40
0.0
 40
0.0
 40
0.0
 40
0.0
 40
0.3542132383658677
 40
0.727955225030654
 40
0.727955225030654
 40
0.727955225030654
 40
0.727955225030654
 10
-943.1544692254004
 20
-1040.499545160437
 30
0.0
 10
-943.2618101346774
 20
-1040.551966066901
 30
0.0
 10
-943.4824099584775
 20
-1040.659697969649
 30
0.0
 10
-943.7279290342753
 20
-1040.668826190849
 30
0.0
 10
-943.8539818261501
 20
-1040.673512732245
 30
0.0
 11
-943.1544692254004
 21
-1040.499545160437
 31
0.0
 11
-943.4823920007433
 21
-1040.633461823458
 31
0.0
 11
-943.8539818261501
 21
-1040.673512732245
 31
0.0
  0
SPLINE
  5
136
330
47
100
AcDbEntity
  8
0
  6
Continuous
 62
     7
100
AcDbSpline
210
0.0
220
0.0
230
1.0
 70
     8
 71
     3
 72
    13
 73
     9
 74
     7
 42
0.000000001
 43
0.0000000001
 44
0.00000001
 40
0.0
 40
0.0
 40
0.0
 40
0.0
 40
0.4245661878486663
 40
0.8585581109111378
 40
1.293194609511742
 40
1.719611323276685
 40
2.130028335932869
 40
2.518937970040783
 40
2.518937970040783
 40
2.518937970040783
 40
2.518937970040783
 10
-944.15398182615
 20
-1037.560675045094
 30
0.0
 10
-944.0337991191341
 20
-1037.63605670744
 30
0.0
 10
-943.7907655537185
 20
-1037.788493582168
 30
0.0
 10
-943.4805272112186
 20
-1038.092042521638
 30
0.0
 10
-943.2190996269773
 20
-1038.437670976001
 30
0.0
 10
-943.0244481430341
 20
-1038.815862494863
 30
0.0
 10
-942.8960278837046
 20
-1039.207723505032
 30
0.0
 10
-942.8786660756041
 20
-1039.474499288325
 30
0.0
 10
-942.8702187546652
 20
-1039.604298130019
 30
0.0
 11
-944.15398182615
 21
-1037.560675045094
 31
0.0
 11
-943.8024975751741
 21
-1037.798824723234
 31
0.0
 11
-943.4889287637811
 21
-1038.098864038524
 31
0.0
 11
-943.22814139115
 21
-1038.446569134142
 31
0.0
 11
-943.0324984277913
 21
-1038.825455721996
 31
0.0
 11
-942.911275425614
 21
-1039.217561715357
 31
0.0
 11
-942.8702187546652
 21
-1039.604298130019
 31
0.0
  0
SPLINE
  5
137
330
47
100
AcDbEntity
  8
0
  6
Continuous
 62
     7
100
AcDbSpline
210
0.0
220
0.0
230
1.0
 70
     8
 71
     3
 72
     9
 73
     5
 74
     3
 42
0.000000001
 43
0.0000000001
 44
0.00000001
 40
0.0
 40
0.0
 40
0.0
 40
0.0
 40
1.456007631047523
 40
2.884340061964557
 40
2.884340061964557
 40
2.884340061964557
 40
2.884340061964557
 10
-943.700724658763
 20
-1037.885627527156
 30
0.0
 10
-943.8026742818071
 20
-1038.360672087622
 30
0.0
 10
-944.0046357303106
 20
-1039.301731749991
 30
0.0
 10
-944.3215283464252
 20
-1040.210530522386
 30
0.0
 10
-944.4784543739696
 20
-1040.660569950336
 30
0.0
 11
-943.700724658763
 21
-1037.885627527156
 31
0.0
 11
-944.0358603563624
 21
-1039.302540469813
 31
0.0
 11
-944.4784543739696
 21
-1040.660569950336
 31
0.0
  0
SPLINE
  5
138
330
47
100
AcDbEntity
  8
0
  6
Continuous
 62
     7
100
AcDbSpline
210
0.0
220
0.0
230
1.0
 70
     8
 71
     3
 72
    11
 73
     7
 74
     5
 42
0.000000001
 43
0.0000000001
 44
0.00000001
 40
0.0
 40
0.0
 40
0.0
 40
0.0
 40
0.3007359728972098
 40
0.586721829187716
 40
0.8611873651322681
 40
1.129302987315262
 40
1.129302987315262
 40
1.129302987315262
 40
1.129302987315262
 10
-942.8702187546652
 20
-1039.630878223354
 30
0.0
 10
-942.8751869874113
 20
-1039.731359640981
 30
0.0
 10
-942.8848797919045
 20
-1039.927394189511
 30
0.0
 10
-942.9694690670141
 20
-1040.20413701254
 30
0.0
 10
-943.1004863735513
 20
-1040.451123347231
 30
0.0
 10
-943.2293061341394
 20
-1040.579365475265
 30
0.0
 10
-943.292962220818
 20
-1040.642736115391
 30
0.0
 11
-942.8702187546652
 21
-1039.630878223354
 31
0.0
 11
-942.8977179434023
 21
-1039.930354299727
 31
0.0
 11
-942.9793421396339
 21
-1040.204444434045
 31
0.0
 11
-943.1124996826998
 21
-1040.444445268303
 31
0.0
 11
-943.292962220818
 21
-1040.642736115391
 31
0.0
  0
SPLINE
  5
139
330
47
100
AcDbEntity
  8
0
  6
Continuous
 62
     7
100
AcDbSpline
210
0.0
220
0.0
230
1.0
 70
     8
 71
     3
 72
    13
 73
     9
 74
     7
 42
0.000000001
 43
0.0000000001
 44
0.00000001
 40
0.0
 40
0.0
 40
0.0
 40
0.0
 40
0.1692255217556147
 40
0.3459873352038938
 40
0.5352544841838627
 40
0.7383547490191025
 40
0.9532977430306772
 40
1.175701723747051
 40
1.175701723747051
 40
1.175701723747051
 40
1.175701723747051
 10
-948.4298108179139
 20
-1057.965194543067
 30
0.0
 10
-948.3906830895412
 20
-1057.923853373671
 30
0.0
 10
-948.3106851289353
 20
-1057.839329937801
 30
0.0
 10
-948.248440049659
 20
-1057.667408030376
 30
0.0
 10
-948.2320201478619
 20
-1057.476869719854
 30
0.0
 10
-948.2654373070839
 20
-1057.275457748333
 30
0.0
 10
-948.342105642862
 20
-1057.074065414179
 30
0.0
 10
-948.4254704384306
 20
-1056.953919899222
 30
0.0
 10
-948.4678639294274
 20
-1056.892822325293
 30
0.0
 11
-948.4298108179139
 21
-1057.965194543067
 31
0.0
 11
-948.3219400122496
 21
-1057.834806016628
 31
0.0
 11
-948.2573582674829
 21
-1057.67026441539
 31
0.0
 11
-948.2400768611909
 21
-1057.48178787087
 31
0.0
 11
-948.2711684159772
 21
-1057.281081534391
 31
0.0
 11
-948.3487026547486
 21
-1057.080609759066
 31
0.0
 11
-948.4678639294274
 21
-1056.892822325293
 31
0.0
  0
SPLINE
  5
13A
330
47
100
AcDbEntity
  8
0
  6
Continuous
 62
     7
100
AcDbSpline
210
0.0
220
0.0
230
1.0
 70
     8
 71
     3
 72
     9
 73
     5
 74
     3
 42
0.000000001
 43
0.0000000001
 44
0.00000001
 40
0.0
 40
0.0
 40
0.0
 40
0.0
 40
0.4996388537420342
 40
1.001174409221208
 40
1.001174409221208
 40
1.001174409221208
 40
1.001174409221208
 10
-944.7916476785296
 20
-1061.812722509748
 30
0.0
 10
-944.6681872514939
 20
-1061.700606150764
 30
0.0
 10
-944.420797737781
 20
-1061.475947808655
 30
0.0
 10
-944.2070507744719
 20
-1061.219069339022
 30
0.0
 10
-944.0999748308615
 20
-1061.090386772302
 30
0.0
 11
-944.7916476785296
 21
-1061.812722509748
 31
0.0
 11
-944.4296452045354
 21
-1061.468348884951
 31
0.0
 11
-944.0999748308615
 21
-1061.090386772302
 31
0.0
  0
SPLINE
  5
13B
330
47
100
AcDbEntity
  8
0
  6
Continuous
 62
     7
100
AcDbSpline
210
0.0
220
0.0
230
1.0
 70
     8
 71
     3
 72
     9
 73
     5
 74
     3
 42
0.000000001
 43
0.0000000001
 44
0.00000001
 40
0.0
 40
0.0
 40
0.0
 40
0.0
 40
0.4996388542058298
 40
1.001174412901591
 40
1.001174412901591
 40
1.001174412901591
 40
1.001174412901591
 10
-941.7166476813354
 20
-1059.149694395541
 30
0.0
 10
-941.5931872542149
 20
-1059.037578036427
 30
0.0
 10
-941.3457977396523
 20
-1058.812919693441
 30
0.0
 10
-941.1320507752921
 20
-1058.556041223095
 30
0.0
 10
-941.0249748308615
 20
-1058.427358655664
 30
0.0
 11
-941.7166476813354
 21
-1059.149694395541
 31
0.0
 11
-941.3546452069905
 21
-1058.80532077044
 31
0.0
 11
-941.0249748308615
 21
-1058.427358655664
 31
0.0
  0
SPLINE
  5
13C
330
47
100
AcDbEntity
  8
0
  6
Continuous
 62
     7
100
AcDbSpline
210
0.0
220
0.0
230
1.0
 70
     8
 71
     3
 72
    11
 73
     7
 74
     5
 42
0.000000001
 43
0.0000000001
 44
0.00000001
 40
0.0
 40
0.0
 40
0.0
 40
0.0
 40
0.94520333564407
 40
1.929237853327516
 40
2.947121795405157
 40
3.99135732846317
 40
3.99135732846317
 40
3.99135732846317
 40
3.99135732846317
 10
-946.117814018874
 20
-1034.423395726427
 30
0.0
 10
-946.1319636657831
 20
-1034.108053104498
 30
0.0
 10
-946.1608442754804
 20
-1033.464412843325
 30
0.0
 10
-946.3838286232628
 20
-1032.503210994238
 30
0.0
 10
-946.7221377388041
 20
-1031.542567154595
 30
0.0
 10
-947.0487523088773
 20
-1030.936629750899
 30
0.0
 10
-947.2141464859517
 20
-1030.629789449687
 30
0.0
 11
-946.117814018874
 21
-1034.423395726427
 31
0.0
 11
-946.1883686749499
 21
-1033.480829342618
 31
0.0
 11
-946.3983900937906
 21
-1032.519468360184
 31
0.0
 11
-946.7429898555387
 21
-1031.561690345026
 31
0.0
 11
-947.2141464859517
 21
-1030.629789449687
 31
0.0
  0
SPLINE
  5
13D
330
47
100
AcDbEntity
  8
0
  6
Continuous
 62
     7
100
AcDbSpline
210
0.0
220
0.0
230
1.0
 70
     8
 71
     3
 72
     9
 73
     5
 74
     3
 42
0.000000001
 43
0.0000000001
 44
0.00000001
 40
0.0
 40
0.0
 40
0.0
 40
0.0
 40
2.958151292233183
 40
6.01379681453949
 40
6.01379681453949
 40
6.01379681453949
 40
6.01379681453949
 10
-946.1847341665298
 20
-1053.303200174276
 30
0.0
 10
-946.41127580927
 20
-1054.265165863652
 30
0.0
 10
-946.8718253947251
 20
-1056.220801541839
 30
0.0
 10
-946.9704289979359
 20
-1058.227693739523
 30
0.0
 10
-947.0205300584427
 20
-1059.247407466721
 30
0.0
 11
-946.1847341665298
 21
-1053.303200174276
 31
0.0
 11
-946.7767826986773
 21
-1056.201499262866
 31
0.0
 11
-947.0205300584427
 21
-1059.247407466721
 31
0.0
  0
SPLINE
  5
13E
330
47
100
AcDbEntity
  8
0
  6
Continuous
 62
     7
100
AcDbSpline
210
0.0
220
0.0
230
1.0
 70
     8
 71
     3
 72
    11
 73
     7
 74
     5
 42
0.000000001
 43
0.0000000001
 44
0.00000001
 40
0.0
 40
0.0
 40
0.0
 40
0.0
 40
0.7807188583420784
 40
1.583402860133813
 40
2.41290344408101
 40
3.272117413037726
 40
3.272117413037726
 40
3.272117413037726
 40
3.272117413037726
 10
-943.073883383227
 20
-1053.385779068479
 30
0.0
 10
-943.2018915737646
 20
-1053.612983426001
 30
0.0
 10
-943.4615093893594
 20
-1054.073784431409
 30
0.0
 10
-943.7157336719351
 20
-1054.841093968677
 30
0.0
 10
-943.8805449763258
 20
-1055.658016562811
 30
0.0
 10
-943.8997021333699
 20
-1056.221495628358
 30
0.0
 10
-943.9094492420288
 20
-1056.508192444245
 30
0.0
 11
-943.073883383227
 21
-1053.385779068479
 31
0.0
 11
-943.4353495881684
 21
-1054.077779155141
 31
0.0
 11
-943.6974309199956
 21
-1054.836472100093
 31
0.0
 11
-943.8562477591992
 21
-1055.650627142188
 31
0.0
 11
-943.9094492420288
 21
-1056.508192444245
 31
0.0
  0
SPLINE
  5
13F
330
47
100
AcDbEntity
  8
0
  6
Continuous
 62
     7
100
AcDbSpline
210
0.0
220
0.0
230
1.0
 70
     8
 71
     3
 72
    11
 73
     7
 74
     5
 42
0.000000001
 43
0.0000000001
 44
0.00000001
 40
0.0
 40
0.0
 40
0.0
 40
0.0
 40
0.7649194384109083
 40
1.551605442477021
 40
2.367856090229227
 40
3.218386592958668
 40
3.218386592958668
 40
3.218386592958668
 40
3.218386592958668
 10
-944.0999748308615
 20
-1061.090386772302
 30
0.0
 10
-943.9521932542931
 20
-1060.881653313462
 30
0.0
 10
-943.6524248377143
 20
-1060.4582466635
 30
0.0
 10
-943.35572382861
 20
-1059.720577481858
 30
0.0
 10
-943.1635637911835
 20
-1058.921461468007
 30
0.0
 10
-943.1413577446924
 20
-1058.365055952794
 30
0.0
 10
-943.1300263786228
 20
-1058.081131537449
 30
0.0
 11
-944.0999748308615
 21
-1061.090386772302
 31
0.0
 11
-943.68223301279
 21
-1060.449611052956
 31
0.0
 11
-943.3775675010712
 21
-1059.724315390557
 31
0.0
 11
-943.1922308442926
 21
-1058.929384295301
 31
0.0
 11
-943.1300263786228
 21
-1058.081131537449
 31
0.0
  0
ENDBLK
  5
49
330
47
100
AcDbEntity
  8
0
100
AcDbBlockEnd
  0
BLOCK
  5
4C
330
4A
100
AcDbEntity
  8
0
100
AcDbBlockBegin
  2
AllgSicht1
 70
     0
 10
-926.99999916243
 20
-1044.99999984853
 30
0.0
  3
AllgSicht1
  1

  0
INSERT
  5
4B
330
4A
100
AcDbEntity
  8
0
100
AcDbBlockReference
  2
UT_4_1P-select__1
 10
-949.7984219877628
 20
-1070.880658836604
 30
0.0
  0
ENDBLK
  5
4D
330
4A
100
AcDbEntity
  8
0
100
AcDbBlockEnd
  0
BLOCK
  5
4F
330
4E
100
AcDbEntity
  8
0
100
AcDbBlockBegin
  2
UT_4_1P-select__2
 70
     0
 10
-1069.174999279459
 20
-1054.548112919038
 30
0.0
  3
UT_4_1P-select__2
  1

  0
LINE
  5
140
330
4E
100
AcDbEntity
  8
0
  6
Continuous
 62
     7
100
AcDbLine
 10
-1020.074999279465
 20
-1054.548112919038
 30
0.0
 11
-1021.274999279466
 21
-1054.548112919038
 31
0.0
  0
LINE
  5
141
330
4E
100
AcDbEntity
  8
0
  6
Continuous
 62
     7
100
AcDbLine
 10
-1023.349999279469
 20
-1054.548112919038
 30
0.0
 11
-1021.274999279466
 21
-1054.548112919038
 31
0.0
  0
LINE
  5
142
330
4E
100
AcDbEntity
  8
0
  6
Continuous
 62
     7
100
AcDbLine
 10
-1023.349999279469
 20
-1054.548112919038
 30
0.0
 11
-1031.249999279469
 21
-1054.548112919038
 31
0.0
  0
LINE
  5
143
330
4E
100
AcDbEntity
  8
0
  6
Continuous
 62
     7
100
AcDbLine
 10
-1041.174999279461
 20
-1053.898112919038
 30
0.0
 11
-1044.32499927948
 21
-1053.898112919038
 31
0.0
  0
LINE
  5
144
330
4E
100
AcDbEntity
  8
0
  6
Continuous
 62
     7
100
AcDbLine
 10
-1046.024999279441
 20
-1053.898112919038
 30
0.0
 11
-1049.17499927946
 21
-1053.898112919038
 31
0.0
  0
LINE
  5
145
330
4E
100
AcDbEntity
  8
0
  6
Continuous
 62
     7
100
AcDbLine
 10
-1049.17499927946
 20
-1054.548112919038
 30
0.0
 11
-1041.174999279461
 21
-1054.548112919038
 31
0.0
  0
LINE
  5
146
330
4E
100
AcDbEntity
  8
0
  6
Continuous
 62
     7
100
AcDbLine
 10
-1041.174999279461
 20
-1053.898112919038
 30
0.0
 11
-1041.174999279461
 21
-1054.548112919038
 31
0.0
  0
LINE
  5
147
330
4E
100
AcDbEntity
  8
0
  6
Continuous
 62
     7
100
AcDbLine
 10
-1041.174999279461
 20
-1054.548112919038
 30
0.0
 11
-1039.974999279461
 21
-1054.548112919038
 31
0.0
  0
LINE
  5
148
330
4E
100
AcDbEntity
  8
0
  6
Continuous
 62
     7
100
AcDbLine
 10
-1039.974999279461
 20
-1054.548112919038
 30
0.0
 11
-1039.449999279467
 21
-1054.548112919038
 31
0.0
  0
LINE
  5
149
330
4E
100
AcDbEntity
  8
0
  6
Continuous
 62
     7
100
AcDbLine
 10
-1039.449999279467
 20
-1054.548112919038
 30
0.0
 11
-1031.249999279469
 21
-1054.548112919038
 31
0.0
  0
LINE
  5
14A
330
4E
100
AcDbEntity
  8
0
  6
Continuous
 62
     7
100
AcDbLine
 10
-1034.599999279469
 20
-1053.223112919039
 30
0.0
 11
-1033.049999279469
 21
-1053.223112919039
 31
0.0
  0
LINE
  5
14B
330
4E
100
AcDbEntity
  8
0
  6
Continuous
 62
     7
100
AcDbLine
 10
-1039.449999279467
 20
-1048.39811292465
 30
0.0
 11
-1039.449999279467
 21
-1054.548112919038
 31
0.0
  0
LINE
  5
14C
330
4E
100
AcDbEntity
  8
0
  6
Continuous
 62
     7
100
AcDbLine
 10
-1039.974999279461
 20
-1048.39811292465
 30
0.0
 11
-1039.974999279461
 21
-1054.548112919038
 31
0.0
  0
LINE
  5
14D
330
4E
100
AcDbEntity
  8
0
  6
Continuous
 62
     7
100
AcDbLine
 10
-1041.174999279461
 20
-1049.048112919038
 30
0.0
 11
-1041.174999279461
 21
-1053.898112919038
 31
0.0
  0
LINE
  5
14E
330
4E
100
AcDbEntity
  8
0
  6
Continuous
 62
     7
100
AcDbLine
 10
-1044.32499927948
 20
-1053.898112919038
 30
0.0
 11
-1044.32499927948
 21
-1049.048112919038
 31
0.0
  0
LINE
  5
14F
330
4E
100
AcDbEntity
  8
0
  6
Continuous
 62
     7
100
AcDbLine
 10
-1049.17499927946
 20
-1053.898112919038
 30
0.0
 11
-1049.17499927946
 21
-1054.548112919038
 31
0.0
  0
LINE
  5
150
330
4E
100
AcDbEntity
  8
0
  6
Continuous
 62
     7
100
AcDbLine
 10
-1049.17499927946
 20
-1054.548112919038
 30
0.0
 11
-1050.37499927946
 21
-1054.548112919038
 31
0.0
  0
LINE
  5
151
330
4E
100
AcDbEntity
  8
0
  6
Continuous
 62
     7
100
AcDbLine
 10
-1057.774999279459
 20
-1048.39811292465
 30
0.0
 11
-1057.774999279459
 21
-1054.548112919038
 31
0.0
  0
LINE
  5
152
330
4E
100
AcDbEntity
  8
0
  6
Continuous
 62
     7
100
AcDbLine
 10
-1060.349112356776
 20
-1048.39811292465
 30
0.0
 11
-1060.349112356776
 21
-1054.548112919038
 31
0.0
  0
LINE
  5
153
330
4E
100
AcDbEntity
  8
0
  6
Continuous
 62
     7
100
AcDbLine
 10
-1060.349112356776
 20
-1048.39811292465
 30
0.0
 11
-1057.774999279459
 21
-1048.39811292465
 31
0.0
  0
LINE
  5
154
330
4E
100
AcDbEntity
  8
0
  6
Continuous
 62
     7
100
AcDbLine
 10
-1060.349112356776
 20
-1054.548112919038
 30
0.0
 11
-1057.774999279459
 21
-1054.548112919038
 31
0.0
  0
LINE
  5
155
330
4E
100
AcDbEntity
  8
0
  6
Continuous
 62
     7
100
AcDbLine
 10
-1063.240652939252
 20
-1048.39811292465
 30
0.0
 11
-1062.857329269238
 21
-1048.39811292465
 31
0.0
  0
LINE
  5
156
330
4E
100
AcDbEntity
  8
0
  6
Continuous
 62
     7
100
AcDbLine
 10
-1050.37499927946
 20
-1048.39811292465
 30
0.0
 11
-1050.37499927946
 21
-1054.548112919038
 31
0.0
  0
LINE
  5
157
330
4E
100
AcDbEntity
  8
0
  6
Continuous
 62
     7
100
AcDbLine
 10
-1057.774999279459
 20
-1048.39811292465
 30
0.0
 11
-1050.37499927946
 21
-1048.39811292465
 31
0.0
  0
LINE
  5
158
330
4E
100
AcDbEntity
  8
0
  6
Continuous
 62
     7
100
AcDbLine
 10
-1062.857329269238
 20
-1048.39811292465
 30
0.0
 11
-1062.857329269238
 21
-1054.548112919038
 31
0.0
  0
LINE
  5
159
330
4E
100
AcDbEntity
  8
0
  6
Continuous
 62
     7
100
AcDbLine
 10
-1049.17499927946
 20
-1049.048112919038
 30
0.0
 11
-1049.17499927946
 21
-1053.898112919038
 31
0.0
  0
LINE
  5
15A
330
4E
100
AcDbEntity
  8
0
  6
Continuous
 62
     7
100
AcDbLine
 10
-1069.174999279459
 20
-1048.39811292465
 30
0.0
 11
-1069.174999279459
 21
-1054.548112919038
 31
0.0
  0
LINE
  5
15B
330
4E
100
AcDbEntity
  8
0
  6
Continuous
 62
     7
100
AcDbLine
 10
-1068.492156566984
 20
-1054.548112919038
 30
0.0
 11
-1069.174999279459
 21
-1054.548112919038
 31
0.0
  0
LINE
  5
15C
330
4E
100
AcDbEntity
  8
0
  6
Continuous
 62
     7
100
AcDbLine
 10
-1068.174999279459
 20
-1054.548112919038
 30
0.0
 11
-1068.492156566984
 21
-1054.548112919038
 31
0.0
  0
LINE
  5
15D
330
4E
100
AcDbEntity
  8
0
  6
Continuous
 62
     7
100
AcDbLine
 10
-1066.97499927946
 20
-1054.548112919038
 30
0.0
 11
-1068.174999279459
 21
-1054.548112919038
 31
0.0
  0
LINE
  5
15E
330
4E
100
AcDbEntity
  8
0
  6
Continuous
 62
     7
100
AcDbLine
 10
-1062.857329269238
 20
-1048.39811292465
 30
0.0
 11
-1060.349112356776
 21
-1048.39811292465
 31
0.0
  0
LINE
  5
15F
330
4E
100
AcDbEntity
  8
0
  6
Continuous
 62
     7
100
AcDbLine
 10
-1065.383223851228
 20
-1048.39811292465
 30
0.0
 11
-1063.240652939252
 21
-1048.39811292465
 31
0.0
  0
LINE
  5
160
330
4E
100
AcDbEntity
  8
0
  6
Continuous
 62
     7
100
AcDbLine
 10
-1056.065400517364
 20
-1053.218539410108
 30
0.0
 11
-1053.029572788391
 21
-1050.182711681136
 31
0.0
  0
LINE
  5
161
330
4E
100
AcDbEntity
  8
0
  6
Continuous
 62
     2
100
AcDbLine
 10
-1068.492156566987
 20
-1048.39811292465
 30
0.0
 11
-1068.492156566984
 21
-1054.548112919038
 31
0.0
  0
LINE
  5
162
330
4E
100
AcDbEntity
  8
0
  6
Continuous
 62
     7
100
AcDbLine
 10
-1068.174999279459
 20
-1048.39811292465
 30
0.0
 11
-1068.174999279459
 21
-1054.548112919038
 31
0.0
  0
LINE
  5
163
330
4E
100
AcDbEntity
  8
0
  6
Continuous
 62
     7
100
AcDbLine
 10
-1065.383223851228
 20
-1054.548112919038
 30
0.0
 11
-1065.383223851228
 21
-1048.39811292465
 31
0.0
  0
LINE
  5
164
330
4E
100
AcDbEntity
  8
0
  6
Continuous
 62
     7
100
AcDbLine
 10
-1063.240652939252
 20
-1054.548112919038
 30
0.0
 11
-1063.240652939252
 21
-1048.39811292465
 31
0.0
  0
LINE
  5
165
330
4E
100
AcDbEntity
  8
0
  6
Continuous
 62
     7
100
AcDbLine
 10
-1067.283444562524
 20
-1048.998112919037
 30
0.0
 11
-1067.283444562524
 21
-1053.948112919038
 31
0.0
  0
LINE
  5
166
330
4E
100
AcDbEntity
  8
0
  6
Continuous
 62
     7
100
AcDbLine
 10
-1067.283444562524
 20
-1053.948112919038
 30
0.0
 11
-1066.97499927946
 21
-1053.948112919038
 31
0.0
  0
LINE
  5
167
330
4E
100
AcDbEntity
  8
0
  6
Continuous
 62
     7
100
AcDbLine
 10
-1066.97499927946
 20
-1054.548112919038
 30
0.0
 11
-1066.97499927946
 21
-1048.39811292465
 31
0.0
  0
LINE
  5
168
330
4E
100
AcDbEntity
  8
0
  6
Continuous
 62
     7
100
AcDbLine
 10
-1062.857329269238
 20
-1054.548112919038
 30
0.0
 11
-1063.240652939252
 21
-1054.548112919038
 31
0.0
  0
LINE
  5
169
330
4E
100
AcDbEntity
  8
0
  6
Continuous
 62
     7
100
AcDbLine
 10
-1063.240652939252
 20
-1054.548112919038
 30
0.0
 11
-1065.383223851228
 21
-1054.548112919038
 31
0.0
  0
LINE
  5
16A
330
4E
100
AcDbEntity
  8
0
  6
Continuous
 62
     7
100
AcDbLine
 10
-1065.383223851228
 20
-1054.548112919038
 30
0.0
 11
-1066.97499927946
 21
-1054.548112919038
 31
0.0
  0
LINE
  5
16B
330
4E
100
AcDbEntity
  8
0
  6
Continuous
 62
     7
100
AcDbLine
 10
-1060.349112356776
 20
-1054.548112919038
 30
0.0
 11
-1062.857329269238
 21
-1054.548112919038
 31
0.0
  0
LINE
  5
16C
330
4E
100
AcDbEntity
  8
0
  6
Continuous
 62
     7
100
AcDbLine
 10
-1057.774999279459
 20
-1054.548112919038
 30
0.0
 11
-1050.37499927946
 21
-1054.548112919038
 31
0.0
  0
LINE
  5
16D
330
4E
100
AcDbEntity
  8
0
  6
Continuous
 62
     7
100
AcDbLine
 10
-1052.534598041561
 20
-1050.677686427966
 30
0.0
 11
-1055.570425770534
 21
-1053.713514156939
 31
0.0
  0
LINE
  5
16E
330
4E
100
AcDbEntity
  8
0
  6
Continuous
 62
     7
100
AcDbLine
 10
-1020.074999279465
 20
-1048.39811292465
 30
0.0
 11
-1021.274999279466
 21
-1048.39811292465
 31
0.0
  0
LINE
  5
16F
330
4E
100
AcDbEntity
  8
0
  6
Continuous
 62
     7
100
AcDbLine
 10
-1026.949999275578
 20
-1050.973112919039
 30
0.0
 11
-1026.649999279462
 21
-1050.473112919039
 31
0.0
  0
LINE
  5
170
330
4E
100
AcDbEntity
  8
0
  6
Continuous
 62
     7
100
AcDbLine
 10
-1023.349999279469
 20
-1054.548112919038
 30
0.0
 11
-1023.349999279469
 21
-1049.198112919039
 31
0.0
  0
LINE
  5
171
330
4E
100
AcDbEntity
  8
0
  6
Continuous
 62
     7
100
AcDbLine
 10
-1021.274999279466
 20
-1048.39811292465
 30
0.0
 11
-1021.274999279466
 21
-1054.548112919038
 31
0.0
  0
LINE
  5
172
330
4E
100
AcDbEntity
  8
0
  6
Continuous
 62
     7
100
AcDbLine
 10
-1020.074999279465
 20
-1054.548112919038
 30
0.0
 11
-1020.074999279465
 21
-1048.39811292465
 31
0.0
  0
LINE
  5
173
330
4E
100
AcDbEntity
  8
0
  6
Continuous
 62
     7
100
AcDbLine
 10
-1026.649999279462
 20
-1050.473112919039
 30
0.0
 11
-1026.649999279462
 21
-1053.273112919039
 31
0.0
  0
LINE
  5
174
330
4E
100
AcDbEntity
  8
0
  6
Continuous
 62
     7
100
AcDbLine
 10
-1032.049999279469
 20
-1052.723112919039
 30
0.0
 11
-1031.249999279469
 21
-1052.723112919039
 31
0.0
  0
LINE
  5
175
330
4E
100
AcDbEntity
  8
0
  6
Continuous
 62
     7
100
AcDbLine
 10
-1027.349999279463
 20
-1052.773112919039
 30
0.0
 11
-1027.349999279463
 21
-1050.973112919039
 31
0.0
  0
LINE
  5
176
330
4E
100
AcDbEntity
  8
0
  6
Continuous
 62
     7
100
AcDbLine
 10
-1032.049999279469
 20
-1051.023112919039
 30
0.0
 11
-1033.049999279469
 21
-1051.023112919039
 31
0.0
  0
LINE
  5
177
330
4E
100
AcDbEntity
  8
0
  6
Continuous
 62
     7
100
AcDbLine
 10
-1026.949999275578
 20
-1050.973112919039
 30
0.0
 11
-1026.949999275578
 21
-1052.773112919039
 31
0.0
  0
LINE
  5
178
330
4E
100
AcDbEntity
  8
0
  6
Continuous
 62
     7
100
AcDbLine
 10
-1068.492156566987
 20
-1048.39811292465
 30
0.0
 11
-1069.174999279459
 21
-1048.39811292465
 31
0.0
  0
LINE
  5
179
330
4E
100
AcDbEntity
  8
0
  6
Continuous
 62
     7
100
AcDbLine
 10
-1039.974999279461
 20
-1048.39811292465
 30
0.0
 11
-1039.449999279467
 21
-1048.39811292465
 31
0.0
  0
LINE
  5
17A
330
4E
100
AcDbEntity
  8
0
  6
Continuous
 62
     7
100
AcDbLine
 10
-1041.174999279461
 20
-1048.39811292465
 30
0.0
 11
-1039.974999279461
 21
-1048.39811292465
 31
0.0
  0
LINE
  5
17B
330
4E
100
AcDbEntity
  8
0
  6
Continuous
 62
     7
100
AcDbLine
 10
-1050.37499927946
 20
-1048.39811292465
 30
0.0
 11
-1049.17499927946
 21
-1048.39811292465
 31
0.0
  0
LINE
  5
17C
330
4E
100
AcDbEntity
  8
0
  6
Continuous
 62
     7
100
AcDbLine
 10
-1041.174999279461
 20
-1048.39811292465
 30
0.0
 11
-1049.17499927946
 21
-1048.39811292465
 31
0.0
  0
LINE
  5
17D
330
4E
100
AcDbEntity
  8
0
  6
Continuous
 62
     7
100
AcDbLine
 10
-1044.32499927948
 20
-1049.048112919038
 30
0.0
 11
-1041.174999279461
 21
-1049.048112919038
 31
0.0
  0
LINE
  5
17E
330
4E
100
AcDbEntity
  8
0
  6
Continuous
 62
     7
100
AcDbLine
 10
-1041.174999279461
 20
-1048.39811292465
 30
0.0
 11
-1041.174999279461
 21
-1049.048112919038
 31
0.0
  0
LINE
  5
17F
330
4E
100
AcDbEntity
  8
0
  6
Continuous
 62
     7
100
AcDbLine
 10
-1066.97499927946
 20
-1048.998112919037
 30
0.0
 11
-1067.283444562524
 21
-1048.998112919037
 31
0.0
  0
LINE
  5
180
330
4E
100
AcDbEntity
  8
0
  6
Continuous
 62
     7
100
AcDbLine
 10
-1066.97499927946
 20
-1048.39811292465
 30
0.0
 11
-1065.383223851228
 21
-1048.39811292465
 31
0.0
  0
LINE
  5
181
330
4E
100
AcDbEntity
  8
0
  6
Continuous
 62
     7
100
AcDbLine
 10
-1068.174999279459
 20
-1048.39811292465
 30
0.0
 11
-1066.97499927946
 21
-1048.39811292465
 31
0.0
  0
LINE
  5
182
330
4E
100
AcDbEntity
  8
0
  6
Continuous
 62
     7
100
AcDbLine
 10
-1068.174999279459
 20
-1048.39811292465
 30
0.0
 11
-1068.492156566987
 21
-1048.39811292465
 31
0.0
  0
LINE
  5
183
330
4E
100
AcDbEntity
  8
0
  6
Continuous
 62
     7
100
AcDbLine
 10
-1049.17499927946
 20
-1049.048112919038
 30
0.0
 11
-1046.024999279441
 21
-1049.048112919038
 31
0.0
  0
LINE
  5
184
330
4E
100
AcDbEntity
  8
0
  6
Continuous
 62
     7
100
AcDbLine
 10
-1049.17499927946
 20
-1048.39811292465
 30
0.0
 11
-1049.17499927946
 21
-1049.048112919038
 31
0.0
  0
LINE
  5
185
330
4E
100
AcDbEntity
  8
0
  6
Continuous
 62
     7
100
AcDbLine
 10
-1039.449999279467
 20
-1048.39811292465
 30
0.0
 11
-1021.274999279466
 21
-1048.39811292465
 31
0.0
  0
LINE
  5
186
330
4E
100
AcDbEntity
  8
0
  6
Continuous
 62
     7
100
AcDbLine
 10
-1027.649999279463
 20
-1050.473112919039
 30
0.0
 11
-1026.649999279462
 21
-1050.473112919039
 31
0.0
  0
LINE
  5
187
330
4E
100
AcDbEntity
  8
0
  6
Continuous
 62
     7
100
AcDbLine
 10
-1023.349999279469
 20
-1049.198112919039
 30
0.0
 11
-1030.949999279469
 21
-1049.198112919039
 31
0.0
  0
LINE
  5
188
330
4E
100
AcDbEntity
  8
0
  6
Continuous
 62
     7
100
AcDbLine
 10
-1030.949999279469
 20
-1049.198112919039
 30
0.0
 11
-1030.949999279469
 21
-1051.023112919039
 31
0.0
  0
LINE
  5
189
330
4E
100
AcDbEntity
  8
0
  6
Continuous
 62
     7
100
AcDbLine
 10
-1027.349999279463
 20
-1050.973112919039
 30
0.0
 11
-1026.949999275578
 21
-1050.973112919039
 31
0.0
  0
LINE
  5
18A
330
4E
100
AcDbEntity
  8
0
  6
Continuous
 62
     7
100
AcDbLine
 10
-1027.649999279463
 20
-1050.473112919039
 30
0.0
 11
-1027.349999279463
 21
-1050.973112919039
 31
0.0
  0
LINE
  5
18B
330
4E
100
AcDbEntity
  8
0
  6
Continuous
 62
     7
100
AcDbLine
 10
-1026.649999279462
 20
-1053.273112919039
 30
0.0
 11
-1027.649999279463
 21
-1053.273112919039
 31
0.0
  0
LINE
  5
18C
330
4E
100
AcDbEntity
  8
0
  6
Continuous
 62
     7
100
AcDbLine
 10
-1026.949999275578
 20
-1052.773112919039
 30
0.0
 11
-1027.349999279463
 21
-1052.773112919039
 31
0.0
  0
LINE
  5
18D
330
4E
100
AcDbEntity
  8
0
  6
Continuous
 62
     7
100
AcDbLine
 10
-1027.349999279463
 20
-1052.773112919039
 30
0.0
 11
-1027.649999279463
 21
-1053.273112919039
 31
0.0
  0
LINE
  5
18E
330
4E
100
AcDbEntity
  8
0
  6
Continuous
 62
     7
100
AcDbLine
 10
-1031.249999279469
 20
-1052.723112919039
 30
0.0
 11
-1031.249999279469
 21
-1054.548112919038
 31
0.0
  0
LINE
  5
18F
330
4E
100
AcDbEntity
  8
0
  6
Continuous
 62
     7
100
AcDbLine
 10
-1033.049999279469
 20
-1053.223112919039
 30
0.0
 11
-1033.049999279469
 21
-1052.723112919039
 31
0.0
  0
LINE
  5
190
330
4E
100
AcDbEntity
  8
0
  6
Continuous
 62
     7
100
AcDbLine
 10
-1026.649999279462
 20
-1053.273112919039
 30
0.0
 11
-1026.949999275578
 21
-1052.773112919039
 31
0.0
  0
LINE
  5
191
330
4E
100
AcDbEntity
  8
0
  6
Continuous
 62
     7
100
AcDbLine
 10
-1033.049999279469
 20
-1052.723112919039
 30
0.0
 11
-1032.049999279469
 21
-1052.723112919039
 31
0.0
  0
LINE
  5
192
330
4E
100
AcDbEntity
  8
0
  6
Continuous
 62
     7
100
AcDbLine
 10
-1030.949999279469
 20
-1051.023112919039
 30
0.0
 11
-1032.049999279469
 21
-1051.023112919039
 31
0.0
  0
LINE
  5
193
330
4E
100
AcDbEntity
  8
0
  6
Continuous
 62
     7
100
AcDbLine
 10
-1032.049999279469
 20
-1051.023112919039
 30
0.0
 11
-1032.049999279469
 21
-1052.723112919039
 31
0.0
  0
LINE
  5
194
330
4E
100
AcDbEntity
  8
0
  6
Continuous
 62
     7
100
AcDbLine
 10
-1033.049999279469
 20
-1051.023112919039
 30
0.0
 11
-1033.049999279469
 21
-1050.523112919039
 31
0.0
  0
LINE
  5
195
330
4E
100
AcDbEntity
  8
0
  6
Continuous
 62
     7
100
AcDbLine
 10
-1033.049999279469
 20
-1050.523112919039
 30
0.0
 11
-1034.599999279469
 21
-1050.523112919039
 31
0.0
  0
LINE
  5
196
330
4E
100
AcDbEntity
  8
0
  6
Continuous
 62
     7
100
AcDbLine
 10
-1027.649999279463
 20
-1053.273112919039
 30
0.0
 11
-1027.649999279463
 21
-1050.473112919039
 31
0.0
  0
LINE
  5
197
330
4E
100
AcDbEntity
  8
0
  6
Continuous
 62
     7
100
AcDbLine
 10
-1034.599999279469
 20
-1050.523112919039
 30
0.0
 11
-1034.599999279469
 21
-1053.223112919039
 31
0.0
  0
LINE
  5
198
330
4E
100
AcDbEntity
  8
0
  6
Continuous
 62
     7
100
AcDbLine
 10
-1046.024999279441
 20
-1049.048112919038
 30
0.0
 11
-1046.024999279441
 21
-1053.898112919038
 31
0.0
  0
LINE
  5
199
330
4E
100
AcDbEntity
  8
1
  6
DOT_CENTER
 62
     2
100
AcDbLine
 10
-1051.907499279463
 20
-1051.948112919037
 30
0.0
 11
-1056.692499279463
 21
-1051.948112919037
 31
0.0
  0
LINE
  5
19A
330
4E
100
AcDbEntity
  8
1
  6
DOT_CENTER
 62
     2
100
AcDbLine
 10
-1054.299999279463
 20
-1049.555612919037
 30
0.0
 11
-1054.299999279463
 21
-1054.340612919037
 31
0.0
  0
ARC
  5
19B
330
4E
100
AcDbEntity
  8
0
  6
Continuous
 62
     7
100
AcDbCircle
 10
-1054.299999279463
 20
-1051.948112919037
 30
0.0
 40
2.174999999999372
100
AcDbArc
 50
215.7397263580708
 51
234.2602736419467
  0
ARC
  5
19C
330
4E
100
AcDbEntity
  8
0
  6
Continuous
 62
     7
100
AcDbCircle
 10
-1054.299999279463
 20
-1051.948112919037
 30
0.0
 40
2.174999999999903
100
AcDbArc
 50
54.26027364190976
 51
60.87538639920196
  0
ARC
  5
19D
330
4E
100
AcDbEntity
  8
0
  6
Continuous
 62
     7
100
AcDbCircle
 10
-1054.299999279463
 20
-1051.948112919037
 30
0.0
 40
2.175000000000295
100
AcDbArc
 50
35.7397263580533
 51
54.26027364190976
  0
ARC
  5
19E
330
4E
100
AcDbEntity
  8
0
  6
Continuous
 62
     7
100
AcDbCircle
 10
-1054.299999279463
 20
-1051.948112919037
 30
0.0
 40
2.175000000000355
100
AcDbArc
 50
60.87538639920196
 51
215.7397263580708
  0
ARC
  5
19F
330
4E
100
AcDbEntity
  8
0
  6
Continuous
 62
     7
100
AcDbCircle
 10
-1054.299999279463
 20
-1051.948112919037
 30
0.0
 40
2.175000000000295
100
AcDbArc
 50
234.2602736419467
 51
35.7397263580533
  0
ENDBLK
  5
50
330
4E
100
AcDbEntity
  8
0
100
AcDbBlockEnd
  0
BLOCK
  5
53
330
51
100
AcDbEntity
  8
0
100
AcDbBlockBegin
  2
Drfsicht1
 70
     0
 10
-1044.625000139727
 20
-1051.473113109772
 30
0.0
  3
Drfsicht1
  1

  0
INSERT
  5
52
330
51
100
AcDbEntity
  8
0
100
AcDbBlockReference
  2
UT_4_1P-select__2
 10
-1069.174999279459
 20
-1054.548112919038
 30
0.0
  0
DIMENSION
  5
1AD
330
51
100
AcDbEntity
  8
1
100
AcDbDimension
  2
*D17
 10
-1079.174999279459
 20
-1054.548112919039
 30
0.0
 11
-1082.599999279459
 21
-1039.13865327029
 31
0.0
 70
    32
  1
<>
 71
     5
 42
-1.0
 53
90.0
  3
ME10_DIM_10
100
AcDbAlignedDimension
 13
-1069.174999279459
 23
-1048.39811292465
 33
0.0
 14
-1069.174999279459
 24
-1054.548112919038
 34
0.0
 50
90.0
100
AcDbRotatedDimension
  0
ENDBLK
  5
54
330
51
100
AcDbEntity
  8
0
100
AcDbBlockEnd
  0
BLOCK
  5
56
330
55
100
AcDbEntity
  8
0
100
AcDbBlockBegin
  2
UT_4_1P-select__3
 70
     0
 10
-960.9250007205297
 20
-996.4249993386459
 30
0.0
  3
UT_4_1P-select__3
  1

  0
LINE
  5
1AE
330
55
100
AcDbEntity
  8
0
  6
Continuous
 62
     7
100
AcDbLine
 10
-960.9250007205297
 20
-969.3249993386314
 30
0.0
 11
-959.0500007205313
 21
-968.6425551493963
 31
0.0
  0
LINE
  5
1AF
330
55
100
AcDbEntity
  8
0
  6
Continuous
 62
     7
100
AcDbLine
 10
-959.0500007205313
 20
-968.6425551493963
 30
0.0
 11
-959.0500007205254
 21
-973.0620121851449
 31
0.0
  0
LINE
  5
1B0
330
55
100
AcDbEntity
  8
0
  6
Continuous
 62
     7
100
AcDbLine
 10
-959.93422774648
 20
-973.6564067449208
 30
0.0
 11
-959.0500007205254
 21
-973.0620121851449
 31
0.0
  0
LINE
  5
1B1
330
55
100
AcDbEntity
  8
0
  6
Continuous
 62
     7
100
AcDbLine
 10
-959.8250007205393
 20
-982.7502396175894
 30
0.0
 11
-959.8250007205393
 21
-990.0249993386421
 31
0.0
  0
LINE
  5
1B2
330
55
100
AcDbEntity
  8
0
  6
Continuous
 62
     7
100
AcDbLine
 10
-960.9250007205297
 20
-969.3249993386314
 30
0.0
 11
-960.9250007205297
 21
-966.324999338637
 31
0.0
  0
LINE
  5
1B3
330
55
100
AcDbEntity
  8
0
  6
Continuous
 62
     7
100
AcDbLine
 10
-960.9250007205297
 20
-966.324999338637
 30
0.0
 11
-959.7250007205287
 21
-960.3249993386335
 31
0.0
  0
LINE
  5
1B4
330
55
100
AcDbEntity
  8
0
  6
Continuous
 62
     7
100
AcDbLine
 10
-923.2250007205364
 20
-949.5749993386365
 30
0.0
 11
-930.6250007205346
 21
-949.5749993386364
 31
0.0
  0
LINE
  5
1B5
330
55
100
AcDbEntity
  8
0
  6
Continuous
 62
     7
100
AcDbLine
 10
-939.8250007205345
 20
-952.8719722419821
 30
0.0
 11
-939.8250007205345
 21
-956.0749993386346
 31
0.0
  0
LINE
  5
1B6
330
55
100
AcDbEntity
  8
0
  6
Continuous
 62
     7
100
AcDbLine
 10
-931.8250007205347
 20
-956.0749993386347
 30
0.0
 11
-931.8250007205347
 21
-952.8719722419823
 31
0.0
  0
LINE
  5
1B7
330
55
100
AcDbEntity
  8
0
  6
Continuous
 62
     7
100
AcDbLine
 10
-939.8250007205345
 20
-956.0749993386346
 30
0.0
 11
-931.8250007205347
 21
-956.0749993386347
 31
0.0
  0
LINE
  5
1B8
330
55
100
AcDbEntity
  8
0
  6
Continuous
 62
     7
100
AcDbLine
 10
-918.1426707307569
 20
-959.1474573889483
 30
0.0
 11
-922.615121121762
 21
-954.6750069979435
 31
0.0
  0
LINE
  5
1B9
330
55
100
AcDbEntity
  8
0
  6
Continuous
 62
     7
100
AcDbLine
 10
-922.615121121762
 20
-954.6750069979435
 30
0.0
 11
-921.8585168658924
 21
-953.9184027420738
 31
0.0
  0
LINE
  5
1BA
330
55
100
AcDbEntity
  8
0
  6
Continuous
 62
     7
100
AcDbLine
 10
-921.8585168658924
 20
-953.9184027420738
 30
0.0
 11
-921.4852362800372
 21
-954.291683327929
 31
0.0
  0
LINE
  5
1BB
330
55
100
AcDbEntity
  8
0
  6
Continuous
 62
     7
100
AcDbLine
 10
-921.4852362800372
 20
-954.291683327929
 30
0.0
 11
-920.6508876432192
 21
-952.1491124159544
 31
0.0
  0
LINE
  5
1BC
330
55
100
AcDbEntity
  8
0
  6
Continuous
 62
     7
100
AcDbLine
 10
-920.6508876432192
 20
-952.1491124159544
 30
0.0
 11
-923.2250007205364
 21
-949.5749993386365
 31
0.0
  0
LINE
  5
1BD
330
55
100
AcDbEntity
  8
0
  6
Continuous
 62
     7
100
AcDbLine
 10
-930.6250007205346
 20
-949.5749993386364
 30
0.0
 11
-931.8250007205347
 21
-952.8719722419823
 31
0.0
  0
LINE
  5
1BE
330
55
100
AcDbEntity
  8
0
  6
Continuous
 62
     7
100
AcDbLine
 10
-945.6250007205265
 20
-989.5749993386391
 30
0.0
 11
-919.631167709012
 21
-989.5749993386397
 31
0.0
  0
LINE
  5
1BF
330
55
100
AcDbEntity
  8
0
  6
Continuous
 62
     7
100
AcDbLine
 10
-945.6250007205265
 20
-989.3749993386327
 30
0.0
 11
-951.03899025998
 21
-989.3749993386327
 31
0.0
  0
LINE
  5
1C0
330
55
100
AcDbEntity
  8
0
  6
Continuous
 62
     7
100
AcDbLine
 10
-945.6250007205265
 20
-989.5749993386391
 30
0.0
 11
-945.6250007205265
 21
-989.3749993386327
 31
0.0
  0
LINE
  5
1C1
330
55
100
AcDbEntity
  8
0
  6
Continuous
 62
     7
100
AcDbLine
 10
-941.5500007205283
 20
-960.3249993386335
 30
0.0
 11
-941.550000720529
 21
-949.5749993386362
 31
0.0
  0
LINE
  5
1C2
330
55
100
AcDbEntity
  8
0
  6
Continuous
 62
     7
100
AcDbLine
 10
-941.0250007205345
 20
-949.5749993386362
 30
0.0
 11
-941.550000720529
 21
-949.5749993386362
 31
0.0
  0
LINE
  5
1C3
330
55
100
AcDbEntity
  8
0
  6
Continuous
 62
     7
100
AcDbLine
 10
-941.5500007205283
 20
-960.3249993386335
 30
0.0
 11
-959.7250007205287
 21
-960.3249993386335
 31
0.0
  0
LINE
  5
1C4
330
55
100
AcDbEntity
  8
0
  6
Continuous
 62
     7
100
AcDbLine
 10
-939.8250007205345
 20
-952.8719722419821
 30
0.0
 11
-941.0250007205345
 21
-949.5749993386362
 31
0.0
  0
LINE
  5
1C5
330
55
100
AcDbEntity
  8
0
  6
Continuous
 62
     7
100
AcDbLine
 10
-950.6750007205264
 20
-992.3749993386392
 30
0.0
 11
-950.6750007205264
 21
-994.0249993386476
 31
0.0
  0
LINE
  5
1C6
330
55
100
AcDbEntity
  8
0
  6
Continuous
 62
     7
100
AcDbLine
 10
-951.03899025998
 20
-989.3749993386327
 30
0.0
 11
-953.3250007205265
 21
-989.574999338639
 31
0.0
  0
LINE
  5
1C7
330
55
100
AcDbEntity
  8
0
  6
Continuous
 62
     7
100
AcDbLine
 10
-952.0272765869316
 20
-991.0227234722341
 30
0.0
 11
-953.3250007205265
 21
-990.674999338639
 31
0.0
  0
LINE
  5
1C8
330
55
100
AcDbEntity
  8
0
  6
Continuous
 62
     7
100
AcDbLine
 10
-953.3250007205265
 20
-990.674999338639
 30
0.0
 11
-953.3250007205265
 21
-989.574999338639
 31
0.0
  0
LINE
  5
1C9
330
55
100
AcDbEntity
  8
0
  6
Continuous
 62
     7
100
AcDbLine
 10
-952.3554988122286
 20
-996.4249993386458
 30
0.0
 11
-953.4250007205356
 21
-996.4249993386458
 31
0.0
  0
LINE
  5
1CA
330
55
100
AcDbEntity
  8
0
  6
Continuous
 62
     7
100
AcDbLine
 10
-952.3554988122286
 20
-996.4249993386458
 30
0.0
 11
-950.6750007205264
 21
-994.0249993386476
 31
0.0
  0
LINE
  5
1CB
330
55
100
AcDbEntity
  8
0
  6
Continuous
 62
     7
100
AcDbLine
 10
-950.6750007205264
 20
-992.3749993386392
 30
0.0
 11
-952.0272765869316
 21
-991.0227234722341
 31
0.0
  0
LINE
  5
1CC
330
55
100
AcDbEntity
  8
0
  6
Continuous
 62
     7
100
AcDbLine
 10
-911.8250007205361
 20
-996.4249993386459
 30
0.0
 11
-911.825000720536
 21
-991.2678925574593
 31
0.0
  0
LINE
  5
1CD
330
55
100
AcDbEntity
  8
0
  6
Continuous
 62
     7
100
AcDbLine
 10
-916.0750007205351
 20
-967.4749993386325
 30
0.0
 11
-916.075000720535
 21
-965.1097942746068
 31
0.0
  0
LINE
  5
1CE
330
55
100
AcDbEntity
  8
0
  6
Continuous
 62
     7
100
AcDbLine
 10
-917.7593470607428
 20
-958.0175725472235
 30
0.0
 11
-917.3860664748875
 21
-958.390853133079
 31
0.0
  0
LINE
  5
1CF
330
55
100
AcDbEntity
  8
0
  6
Continuous
 62
     7
100
AcDbLine
 10
-914.8090650305578
 20
-961.0947592201495
 30
0.0
 11
-914.0250007205353
 21
-959.9749993386333
 31
0.0
  0
LINE
  5
1D0
330
55
100
AcDbEntity
  8
0
  6
Continuous
 62
     7
100
AcDbLine
 10
-914.0250007205353
 20
-958.7749993386362
 30
0.0
 11
-914.0250007205353
 21
-959.9749993386333
 31
0.0
  0
LINE
  5
1D1
330
55
100
AcDbEntity
  8
0
  6
Continuous
 62
     7
100
AcDbLine
 10
-914.0250007205353
 20
-958.7749993386362
 30
0.0
 11
-915.6167761487667
 21
-957.1832239104048
 31
0.0
  0
LINE
  5
1D2
330
55
100
AcDbEntity
  8
0
  6
Continuous
 62
     7
100
AcDbLine
 10
-915.6167761487667
 20
-957.1832239104048
 30
0.0
 11
-917.7593470607428
 21
-958.0175725472235
 31
0.0
  0
LINE
  5
1D3
330
55
100
AcDbEntity
  8
0
  6
Continuous
 62
     7
100
AcDbLine
 10
-917.3860664748875
 20
-958.390853133079
 30
0.0
 11
-918.1426707307569
 21
-959.1474573889483
 31
0.0
  0
LINE
  5
1D4
330
55
100
AcDbEntity
  8
0
  6
Continuous
 62
     7
100
AcDbLine
 10
-913.8774569710188
 20
-992.3546633829928
 30
0.0
 11
-912.5078434330085
 21
-990.9850498449827
 31
0.0
  0
LINE
  5
1D5
330
55
100
AcDbEntity
  8
0
  6
Continuous
 62
     7
100
AcDbLine
 10
-912.8250007205356
 20
-983.5749993386455
 30
0.0
 11
-912.8250007205356
 21
-979.8012923742531
 31
0.0
  0
LINE
  5
1D6
330
55
100
AcDbEntity
  8
0
  6
Continuous
 62
     7
100
AcDbLine
 10
-912.8250007205356
 20
-983.5749993386455
 30
0.0
 11
-916.0682621399445
 21
-983.5749993386454
 31
0.0
  0
LINE
  5
1D7
330
55
100
AcDbEntity
  8
0
  6
Continuous
 62
     7
100
AcDbLine
 10
-917.4909401485244
 20
-996.4249993386456
 30
0.0
 11
-911.8250007205361
 21
-996.4249993386459
 31
0.0
  0
LINE
  5
1D8
330
55
100
AcDbEntity
  8
0
  6
Continuous
 62
     7
100
AcDbLine
 10
-919.5250007205359
 20
-991.4314653352708
 30
0.0
 11
-919.5250007205359
 21
-990.8749993386398
 31
0.0
  0
LINE
  5
1D9
330
55
100
AcDbEntity
  8
0
  6
Continuous
 62
     7
100
AcDbLine
 10
-919.5250007205359
 20
-990.8749993386398
 30
0.0
 11
-918.6250007205359
 21
-990.9537391358131
 31
0.0
  0
LINE
  5
1DA
330
55
100
AcDbEntity
  8
0
  6
Continuous
 62
     7
100
AcDbLine
 10
-918.6250007205358
 20
-989.8749993386457
 30
0.0
 11
-918.6250007205359
 21
-990.9537391358131
 31
0.0
  0
LINE
  5
1DB
330
55
100
AcDbEntity
  8
0
  6
Continuous
 62
     7
100
AcDbLine
 10
-959.8250007205393
 20
-990.0249993386421
 30
0.0
 11
-953.4250007205356
 21
-996.4249993386458
 31
0.0
  0
ARC
  5
1DC
330
55
100
AcDbEntity
  8
0
  6
Continuous
 62
     7
100
AcDbCircle
 10
-974.1727278053893
 20
-978.374999339015
 30
0.0
 40
14.99999999988663
100
AcDbArc
 50
343.0412771811199
 51
18.3350284441261
  0
ARC
  5
1DD
330
55
100
AcDbEntity
  8
0
  6
Continuous
 62
     7
100
AcDbCircle
 10
-926.9250007205359
 20
-989.8749993386455
 30
0.0
 40
7.299999999999979
100
AcDbArc
 50
2.35528435581962
 51
27.90122555985808
  0
ARC
  5
1DE
330
55
100
AcDbEntity
  8
0
  6
Continuous
 62
     7
100
AcDbCircle
 10
-912.225000720536
 20
-991.2678925574593
 30
0.0
 40
0.3999999999999773
100
AcDbArc
 50
0.0
 51
134.9999999995854
  0
ARC
  5
1DF
330
55
100
AcDbEntity
  8
0
  6
Continuous
 62
     7
100
AcDbCircle
 10
-891.0750007205351
 20
-967.4749993386331
 30
0.0
 40
25.0
100
AcDbArc
 50
179.9999999999987
 51
209.54136050014
  0
ARC
  5
1E0
330
55
100
AcDbEntity
  8
0
  6
Continuous
 62
     7
100
AcDbCircle
 10
-947.1250007205359
 20
-994.7749993386451
 30
0.0
 40
32.09999999999998
100
AcDbArc
 50
5.15339033184613
 51
14.14111023382319
  0
ARC
  5
1E1
330
55
100
AcDbEntity
  8
0
  6
Continuous
 62
     7
100
AcDbCircle
 10
-908.7250007205176
 20
-985.1002900407595
 30
0.0
 40
7.499999999999944
100
AcDbArc
 50
168.2657804679987
 51
194.1411102338232
  0
ARC
  5
1E2
330
55
100
AcDbEntity
  8
0
  6
Continuous
 62
     7
100
AcDbCircle
 10
-914.4077870569107
 20
-991.824333297105
 30
0.0
 40
0.7500000000000537
100
AcDbArc
 50
185.1533903318495
 51
315.0000000002211
  0
ARC
  5
1E3
330
55
100
AcDbEntity
  8
0
  6
Continuous
 62
     7
100
AcDbCircle
 10
-910.4250007205359
 20
-990.0749993386459
 30
0.0
 40
9.499999999999947
100
AcDbArc
 50
212.8598803788909
 51
221.9453175501072
  0
ARC
  5
1E4
330
55
100
AcDbEntity
  8
0
  6
Continuous
 62
     7
100
AcDbCircle
 10
-920.0317068779667
 20
-986.2249993386456
 30
0.0
 40
0.4999999999999515
100
AcDbArc
 50
27.90122555986308
 51
207.901225559857
  0
ARC
  5
1E5
330
55
100
AcDbEntity
  8
0
  6
Continuous
 62
     7
100
AcDbCircle
 10
-926.9250007205359
 20
-989.8749993386455
 30
0.0
 40
8.300000000000068
100
AcDbArc
 50
359.9999999999985
 51
27.90122555985832
  0
ARC
  5
1E6
330
55
100
AcDbEntity
  8
0
  6
Continuous
 62
     7
100
AcDbCircle
 10
-912.5250007205359
 20
-991.431465335271
 30
0.0
 40
7.0
100
AcDbArc
 50
179.9999999999982
 51
212.8598803788909
  0
ARC
  5
1E7
330
55
100
AcDbEntity
  8
0
  6
Continuous
 62
     7
100
AcDbCircle
 10
-909.075000720535
 20
-965.1097942746069
 30
0.0
 40
6.999999999999959
100
AcDbArc
 50
144.9999999999993
 51
179.9999999999991
  0
ENDBLK
  5
57
330
55
100
AcDbEntity
  8
0
100
AcDbBlockEnd
  0
BLOCK
  5
5A
330
58
100
AcDbEntity
  8
0
100
AcDbBlockBegin
  2
Rcksicht1
 70
     0
 10
-936.3749998602678
 20
-972.99999966932
 30
0.0
  3
Rcksicht1
  1

  0
INSERT
  5
59
330
58
100
AcDbEntity
  8
0
100
AcDbBlockReference
  2
UT_4_1P-select__3
 10
-960.9250007205297
 20
-996.4249993386459
 30
0.0
  0
ENDBLK
  5
5B
330
58
100
AcDbEntity
  8
0
100
AcDbBlockEnd
  0
BLOCK
  5
5D
330
5C
100
AcDbEntity
  8
0
100
AcDbBlockBegin
  2
UT_4_1P-select__4
 70
     0
 10
-993.075000370244
 20
-996.4249993386458
 30
0.0
  3
UT_4_1P-select__4
  1

  0
LINE
  5
1E8
330
5C
100
AcDbEntity
  8
0
  6
Continuous
 62
     7
100
AcDbLine
 10
-986.9250003758555
 20
-954.291683327929
 30
0.0
 11
-986.9250003758555
 21
-952.1491124159544
 31
0.0
  0
LINE
  5
1E9
330
5C
100
AcDbEntity
  8
0
  6
Continuous
 62
     7
100
AcDbLine
 10
-986.9250003758555
 20
-961.0947592201493
 30
0.0
 11
-986.9250003758555
 21
-959.9749993386332
 31
0.0
  0
LINE
  5
1EA
330
5C
100
AcDbEntity
  8
0
  6
Continuous
 62
     7
100
AcDbLine
 10
-987.5250003758555
 20
-960.3001966915982
 30
0.0
 11
-987.5250003758555
 21
-961.0947592201495
 31
0.0
  0
LINE
  5
1EB
330
5C
100
AcDbEntity
  8
0
  6
Continuous
 62
     2
100
AcDbLine
 10
-993.075000370244
 20
-961.0947592201495
 30
0.0
 11
-992.4750003758567
 21
-961.0947592201495
 31
0.0
  0
LINE
  5
1EC
330
5C
100
AcDbEntity
  8
0
  6
Continuous
 62
     7
100
AcDbLine
 10
-993.075000370244
 20
-979.8012923742531
 30
0.0
 11
-993.075000370244
 21
-967.4749993386325
 31
0.0
  0
LINE
  5
1ED
330
5C
100
AcDbEntity
  8
0
  6
Continuous
 62
     7
100
AcDbLine
 10
-992.4750003758567
 20
-960.3001966915982
 30
0.0
 11
-987.5250003758555
 21
-960.3001966915982
 31
0.0
  0
LINE
  5
1EE
330
5C
100
AcDbEntity
  8
0
  6
Continuous
 62
     2
100
AcDbLine
 10
-993.075000370244
 20
-965.1097942746068
 30
0.0
 11
-992.4750003758567
 21
-965.1097942746068
 31
0.0
  0
LINE
  5
1EF
330
5C
100
AcDbEntity
  8
0
  6
Continuous
 62
     7
100
AcDbLine
 10
-993.075000370244
 20
-996.4249993386458
 30
0.0
 11
-993.075000370244
 21
-991.2678925574593
 31
0.0
  0
LINE
  5
1F0
330
5C
100
AcDbEntity
  8
0
  6
Continuous
 62
     2
100
AcDbLine
 10
-993.075000370244
 20
-967.4749993386325
 30
0.0
 11
-992.4750003758567
 21
-967.4749993386325
 31
0.0
  0
LINE
  5
1F1
330
5C
100
AcDbEntity
  8
0
  6
Continuous
 62
     7
100
AcDbLine
 10
-993.075000370244
 20
-983.5749993386455
 30
0.0
 11
-993.075000370244
 21
-979.8012923742531
 31
0.0
  0
LINE
  5
1F2
330
5C
100
AcDbEntity
  8
0
  6
Continuous
 62
     7
100
AcDbLine
 10
-993.075000370244
 20
-986.9326213471772
 30
0.0
 11
-993.075000370244
 21
-983.5749993386455
 31
0.0
  0
LINE
  5
1F3
330
5C
100
AcDbEntity
  8
0
  6
Continuous
 62
     7
100
AcDbLine
 10
-992.4750003758567
 20
-974.2310839988317
 30
0.0
 11
-992.4750003758567
 21
-978.0749993386333
 31
0.0
  0
LINE
  5
1F4
330
5C
100
AcDbEntity
  8
0
  6
Continuous
 62
     7
100
AcDbLine
 10
-986.9250003758555
 20
-986.9326213471772
 30
0.0
 11
-986.9250003702439
 21
-990.8678925574593
 31
0.0
  0
LINE
  5
1F5
330
5C
100
AcDbEntity
  8
0
  6
Continuous
 62
     7
100
AcDbLine
 10
-986.9250003758555
 20
-991.2678925574593
 30
0.0
 11
-986.9250003758555
 21
-996.4249993386458
 31
0.0
  0
LINE
  5
1F6
330
5C
100
AcDbEntity
  8
0
  6
Continuous
 62
     7
100
AcDbLine
 10
-986.9250003702439
 20
-990.8678925574593
 30
0.0
 11
-986.9250003758555
 21
-991.2678925574593
 31
0.0
  0
LINE
  5
1F7
330
5C
100
AcDbEntity
  8
0
  6
Continuous
 62
     7
100
AcDbLine
 10
-987.5250003758555
 20
-968.0778016620103
 30
0.0
 11
-987.5250003758555
 21
-970.0096533145884
 31
0.0
  0
LINE
  5
1F8
330
5C
100
AcDbEntity
  8
0
  6
Continuous
 62
     7
100
AcDbLine
 10
-986.9250003758555
 20
-970.0096533145884
 30
0.0
 11
-986.9250003758555
 21
-968.0778016620103
 31
0.0
  0
LINE
  5
1F9
330
5C
100
AcDbEntity
  8
0
  6
Continuous
 62
     7
100
AcDbLine
 10
-987.9250003758556
 20
-971.9249993386288
 30
0.0
 11
-987.9250003758556
 21
-972.4906847635785
 31
0.0
  0
LINE
  5
1FA
330
5C
100
AcDbEntity
  8
0
  6
Continuous
 62
     7
100
AcDbLine
 10
-987.9250003758556
 20
-968.6752051905278
 30
0.0
 11
-987.9016982705411
 21
-968.6752051905278
 31
0.0
  0
LINE
  5
1FB
330
5C
100
AcDbEntity
  8
0
  6
Continuous
 62
     7
100
AcDbLine
 10
-987.9250003758556
 20
-968.6752051905278
 30
0.0
 11
-987.9250003758556
 21
-971.9249993386288
 31
0.0
  0
LINE
  5
1FC
330
5C
100
AcDbEntity
  8
0
  6
Continuous
 62
     7
100
AcDbLine
 10
-993.075000370244
 20
-990.8678925574593
 30
0.0
 11
-993.075000370244
 21
-991.2678925574593
 31
0.0
  0
LINE
  5
1FD
330
5C
100
AcDbEntity
  8
0
  6
Continuous
 62
     7
100
AcDbLine
 10
-993.075000370244
 20
-990.8678925574593
 30
0.0
 11
-993.075000370244
 21
-986.9326213471772
 31
0.0
  0
LINE
  5
1FE
330
5C
100
AcDbEntity
  8
0
  6
Continuous
 62
     7
100
AcDbLine
 10
-986.9250003758555
 20
-983.5749993386455
 30
0.0
 11
-986.9250003758555
 21
-979.8012923742531
 31
0.0
  0
LINE
  5
1FF
330
5C
100
AcDbEntity
  8
0
  6
Continuous
 62
     7
100
AcDbLine
 10
-993.075000370244
 20
-983.5749993386455
 30
0.0
 11
-986.9250003758555
 21
-983.5749993386455
 31
0.0
  0
LINE
  5
200
330
5C
100
AcDbEntity
  8
0
  6
Continuous
 62
     7
100
AcDbLine
 10
-993.075000370244
 20
-996.4249993386458
 30
0.0
 11
-986.9250003758555
 21
-996.4249993386458
 31
0.0
  0
LINE
  5
201
330
5C
100
AcDbEntity
  8
0
  6
Continuous
 62
     2
100
AcDbLine
 10
-987.5250003758555
 20
-971.9721970152508
 30
0.0
 11
-986.9250003758555
 21
-971.9721970152508
 31
0.0
  0
LINE
  5
202
330
5C
100
AcDbEntity
  8
0
  6
Continuous
 62
     7
100
AcDbLine
 10
-986.9250003758555
 20
-972.7294366959245
 30
0.0
 11
-986.9250003758555
 21
-971.9721970152508
 31
0.0
  0
LINE
  5
203
330
5C
100
AcDbEntity
  8
0
  6
Continuous
 62
     7
100
AcDbLine
 10
-986.9250003758555
 20
-986.9326213471772
 30
0.0
 11
-986.9250003758555
 21
-983.5749993386455
 31
0.0
  0
LINE
  5
204
330
5C
100
AcDbEntity
  8
0
  6
Continuous
 62
     7
100
AcDbLine
 10
-987.5250003758555
 20
-971.9721970152508
 30
0.0
 11
-987.5250003758555
 21
-972.7294366959245
 31
0.0
  0
LINE
  5
205
330
5C
100
AcDbEntity
  8
0
  6
Continuous
 62
     7
100
AcDbLine
 10
-986.9250003758555
 20
-972.7294366959245
 30
0.0
 11
-987.5250003758555
 21
-972.7294366959245
 31
0.0
  0
LINE
  5
206
330
5C
100
AcDbEntity
  8
0
  6
Continuous
 62
     7
100
AcDbLine
 10
-993.075000370244
 20
-979.8012923742531
 30
0.0
 11
-986.9250003758555
 21
-979.8012923742531
 31
0.0
  0
LINE
  5
207
330
5C
100
AcDbEntity
  8
0
  6
Continuous
 62
     2
100
AcDbLine
 10
-993.075000370244
 20
-986.9326213471772
 30
0.0
 11
-986.9250003758555
 21
-986.9326213471772
 31
0.0
  0
LINE
  5
208
330
5C
100
AcDbEntity
  8
0
  6
Continuous
 62
     2
100
AcDbLine
 10
-993.075000370244
 20
-991.2678925574593
 30
0.0
 11
-986.9250003758555
 21
-991.2678925574593
 31
0.0
  0
LINE
  5
209
330
5C
100
AcDbEntity
  8
0
  6
Continuous
 62
     7
100
AcDbLine
 10
-993.075000370244
 20
-990.8678925574593
 30
0.0
 11
-986.9250003702439
 21
-990.8678925574593
 31
0.0
  0
LINE
  5
20A
330
5C
100
AcDbEntity
  8
0
  6
Continuous
 62
     7
100
AcDbLine
 10
-987.5250003758555
 20
-973.5865188627437
 30
0.0
 11
-987.5250003758555
 21
-972.7294366959245
 31
0.0
  0
LINE
  5
20B
330
5C
100
AcDbEntity
  8
0
  6
Continuous
 62
     7
100
AcDbLine
 10
-987.5250003758555
 20
-978.0749993386333
 30
0.0
 11
-987.5250003758555
 21
-973.5865188627437
 31
0.0
  0
LINE
  5
20C
330
5C
100
AcDbEntity
  8
0
  6
Continuous
 62
     7
100
AcDbLine
 10
-987.5250003758555
 20
-970.0403453626725
 30
0.0
 11
-987.5250003758555
 21
-971.9721970152508
 31
0.0
  0
LINE
  5
20D
330
5C
100
AcDbEntity
  8
0
  6
Continuous
 62
     7
100
AcDbLine
 10
-987.5250003758555
 20
-973.5865188627437
 30
0.0
 11
-987.5490196121372
 21
-973.548779147433
 31
0.0
  0
LINE
  5
20E
330
5C
100
AcDbEntity
  8
0
  6
Continuous
 62
     7
100
AcDbLine
 10
-987.5490196121372
 20
-973.548779147433
 30
0.0
 11
-987.9250003758556
 21
-972.4906847635785
 31
0.0
  0
LINE
  5
20F
330
5C
100
AcDbEntity
  8
0
  6
Continuous
 62
     7
100
AcDbLine
 10
-986.9250003758555
 20
-979.8012923742531
 30
0.0
 11
-986.9250003758555
 21
-972.7294366959245
 31
0.0
  0
LINE
  5
210
330
5C
100
AcDbEntity
  8
0
  6
Continuous
 62
     7
100
AcDbLine
 10
-992.4750003758567
 20
-978.0749993386333
 30
0.0
 11
-987.5250003758555
 21
-978.0749993386333
 31
0.0
  0
LINE
  5
211
330
5C
100
AcDbEntity
  8
0
  6
Continuous
 62
     7
100
AcDbLine
 10
-986.9250003758555
 20
-971.9721970152508
 30
0.0
 11
-986.9250003758555
 21
-970.0403453626725
 31
0.0
  0
LINE
  5
212
330
5C
100
AcDbEntity
  8
0
  6
Continuous
 62
     2
100
AcDbLine
 10
-987.5250003758555
 20
-970.0403453626725
 30
0.0
 11
-986.9250003758555
 21
-970.0403453626725
 31
0.0
  0
LINE
  5
213
330
5C
100
AcDbEntity
  8
0
  6
Continuous
 62
     7
100
AcDbLine
 10
-987.5250003758555
 20
-970.0096533145884
 30
0.0
 11
-987.5250003758555
 21
-970.0403453626725
 31
0.0
  0
LINE
  5
214
330
5C
100
AcDbEntity
  8
0
  6
Continuous
 62
     2
100
AcDbLine
 10
-987.5250003758555
 20
-970.0096533145884
 30
0.0
 11
-986.9250003758555
 21
-970.0096533145884
 31
0.0
  0
LINE
  5
215
330
5C
100
AcDbEntity
  8
0
  6
Continuous
 62
     7
100
AcDbLine
 10
-986.9250003758555
 20
-970.0403453626725
 30
0.0
 11
-986.9250003758555
 21
-970.0096533145884
 31
0.0
  0
LINE
  5
216
330
5C
100
AcDbEntity
  8
0
  6
Continuous
 62
     7
100
AcDbLine
 10
-987.9250003758556
 20
-971.9249993386288
 30
0.0
 11
-988.7250003758555
 21
-972.7249993386289
 31
0.0
  0
LINE
  5
217
330
5C
100
AcDbEntity
  8
0
  6
Continuous
 62
     7
100
AcDbLine
 10
-990.3250003758556
 20
-972.7249993386288
 30
0.0
 11
-988.7250003758555
 21
-972.7249993386289
 31
0.0
  0
LINE
  5
218
330
5C
100
AcDbEntity
  8
0
  6
Continuous
 62
     7
100
AcDbLine
 10
-990.3250003758556
 20
-972.7249993386288
 30
0.0
 11
-991.1250003758555
 21
-971.9249993386289
 31
0.0
  0
LINE
  5
219
330
5C
100
AcDbEntity
  8
0
  6
Continuous
 62
     7
100
AcDbLine
 10
-987.5490196121372
 20
-973.548779147433
 30
0.0
 11
-988.7250003758555
 21
-972.7249993386289
 31
0.0
  0
LINE
  5
21A
330
5C
100
AcDbEntity
  8
0
  6
Continuous
 62
     7
100
AcDbLine
 10
-991.1250003758566
 20
-968.6752051905278
 30
0.0
 11
-987.9250003758556
 21
-968.6752051905278
 31
0.0
  0
LINE
  5
21B
330
5C
100
AcDbEntity
  8
0
  6
Continuous
 62
     7
100
AcDbLine
 10
-987.5250003758555
 20
-967.6355713917033
 30
0.0
 11
-987.5250003758555
 21
-967.4701898670086
 31
0.0
  0
LINE
  5
21C
330
5C
100
AcDbEntity
  8
0
  6
Continuous
 62
     7
100
AcDbLine
 10
-987.5250003758555
 20
-968.0778016620103
 30
0.0
 11
-987.5250003758555
 21
-967.6355713917033
 31
0.0
  0
LINE
  5
21D
330
5C
100
AcDbEntity
  8
0
  6
Continuous
 62
     7
100
AcDbLine
 10
-987.5250003758555
 20
-965.1097942746068
 30
0.0
 11
-987.5250003758555
 21
-967.4701898670086
 31
0.0
  0
LINE
  5
21E
330
5C
100
AcDbEntity
  8
0
  6
Continuous
 62
     2
100
AcDbLine
 10
-987.5250003758555
 20
-968.0778016620103
 30
0.0
 11
-986.9250003758555
 21
-968.0778016620103
 31
0.0
  0
LINE
  5
21F
330
5C
100
AcDbEntity
  8
0
  6
Continuous
 62
     7
100
AcDbLine
 10
-987.5250003758555
 20
-967.4701898670086
 30
0.0
 11
-986.9250003758555
 21
-967.4701898670086
 31
0.0
  0
LINE
  5
220
330
5C
100
AcDbEntity
  8
0
  6
Continuous
 62
     7
100
AcDbLine
 10
-986.9250003758555
 20
-968.0778016620103
 30
0.0
 11
-986.9250003758555
 21
-967.4701898670086
 31
0.0
  0
LINE
  5
221
330
5C
100
AcDbEntity
  8
0
  6
Continuous
 62
     2
100
AcDbLine
 10
-987.5250003758555
 20
-965.1097942746068
 30
0.0
 11
-986.9250003758555
 21
-965.1097942746068
 31
0.0
  0
LINE
  5
222
330
5C
100
AcDbEntity
  8
0
  6
Continuous
 62
     2
100
AcDbLine
 10
-987.5250003758555
 20
-961.0947592201495
 30
0.0
 11
-986.9250003758555
 21
-961.0947592201493
 31
0.0
  0
LINE
  5
223
330
5C
100
AcDbEntity
  8
0
  6
Continuous
 62
     7
100
AcDbLine
 10
-986.9250003758555
 20
-965.1097942746068
 30
0.0
 11
-986.9250003758555
 21
-961.0947592201493
 31
0.0
  0
LINE
  5
224
330
5C
100
AcDbEntity
  8
0
  6
Continuous
 62
     7
100
AcDbLine
 10
-986.9250003758555
 20
-967.4701898670086
 30
0.0
 11
-986.9250003758555
 21
-965.1097942746068
 31
0.0
  0
LINE
  5
225
330
5C
100
AcDbEntity
  8
0
  6
Continuous
 62
     7
100
AcDbLine
 10
-987.9016982705411
 20
-968.6752051905278
 30
0.0
 11
-987.5250003758555
 21
-967.6355713917033
 31
0.0
  0
LINE
  5
226
330
5C
100
AcDbEntity
  8
0
  6
Continuous
 62
     7
100
AcDbLine
 10
-987.5250003758555
 20
-961.0947592201495
 30
0.0
 11
-987.5250003758555
 21
-965.1097942746068
 31
0.0
  0
LINE
  5
227
330
5C
100
AcDbEntity
  8
0
  6
Continuous
 62
     7
100
AcDbLine
 10
-986.9250003758555
 20
-952.1491124159544
 30
0.0
 11
-986.9250003758555
 21
-949.5749993386365
 31
0.0
  0
LINE
  5
228
330
5C
100
AcDbEntity
  8
0
  6
Continuous
 62
     7
100
AcDbLine
 10
-993.075000370244
 20
-954.291683327929
 30
0.0
 11
-993.075000370244
 21
-952.1491124159544
 31
0.0
  0
LINE
  5
229
330
5C
100
AcDbEntity
  8
0
  6
Continuous
 62
     7
100
AcDbLine
 10
-993.075000370244
 20
-952.1491124159544
 30
0.0
 11
-993.075000370244
 21
-949.5749993386365
 31
0.0
  0
LINE
  5
22A
330
5C
100
AcDbEntity
  8
0
  6
Continuous
 62
     7
100
AcDbLine
 10
-986.9250003758555
 20
-954.6750069979435
 30
0.0
 11
-986.9250003758555
 21
-954.291683327929
 31
0.0
  0
LINE
  5
22B
330
5C
100
AcDbEntity
  8
0
  6
Continuous
 62
     7
100
AcDbLine
 10
-993.075000370244
 20
-954.291683327929
 30
0.0
 11
-993.075000370244
 21
-954.6750069979435
 31
0.0
  0
LINE
  5
22C
330
5C
100
AcDbEntity
  8
0
  6
Continuous
 62
     7
100
AcDbLine
 10
-986.9250003758555
 20
-957.1832239104048
 30
0.0
 11
-993.075000370244
 21
-957.1832239104048
 31
0.0
  0
LINE
  5
22D
330
5C
100
AcDbEntity
  8
0
  6
Continuous
 62
     7
100
AcDbLine
 10
-993.075000370244
 20
-954.6750069979435
 30
0.0
 11
-993.075000370244
 21
-957.1832239104048
 31
0.0
  0
LINE
  5
22E
330
5C
100
AcDbEntity
  8
0
  6
Continuous
 62
     7
100
AcDbLine
 10
-993.075000370244
 20
-958.7749993386362
 30
0.0
 11
-993.075000370244
 21
-957.1832239104048
 31
0.0
  0
LINE
  5
22F
330
5C
100
AcDbEntity
  8
0
  6
Continuous
 62
     7
100
AcDbLine
 10
-986.9250003758555
 20
-954.6750069979435
 30
0.0
 11
-993.075000370244
 21
-954.6750069979435
 31
0.0
  0
LINE
  5
230
330
5C
100
AcDbEntity
  8
0
  6
Continuous
 62
     7
100
AcDbLine
 10
-986.9250003758555
 20
-957.1832239104048
 30
0.0
 11
-986.9250003758555
 21
-954.6750069979435
 31
0.0
  0
LINE
  5
231
330
5C
100
AcDbEntity
  8
0
  6
Continuous
 62
     7
100
AcDbLine
 10
-986.9250003758555
 20
-957.1832239104048
 30
0.0
 11
-986.9250003758555
 21
-958.7749993386362
 31
0.0
  0
LINE
  5
232
330
5C
100
AcDbEntity
  8
0
  6
Continuous
 62
     7
100
AcDbLine
 10
-986.9250003758555
 20
-959.9749993386332
 30
0.0
 11
-986.9250003758555
 21
-958.7749993386362
 31
0.0
  0
LINE
  5
233
330
5C
100
AcDbEntity
  8
0
  6
Continuous
 62
     7
100
AcDbLine
 10
-993.075000370244
 20
-958.7749993386362
 30
0.0
 11
-993.075000370244
 21
-959.9749993386333
 31
0.0
  0
LINE
  5
234
330
5C
100
AcDbEntity
  8
0
  6
Continuous
 62
     7
100
AcDbLine
 10
-986.9250003758555
 20
-959.9749993386332
 30
0.0
 11
-993.075000370244
 21
-959.9749993386333
 31
0.0
  0
LINE
  5
235
330
5C
100
AcDbEntity
  8
0
  6
Continuous
 62
     7
100
AcDbLine
 10
-986.9250003758555
 20
-958.7749993386362
 30
0.0
 11
-993.075000370244
 21
-958.7749993386362
 31
0.0
  0
LINE
  5
236
330
5C
100
AcDbEntity
  8
0
  6
Continuous
 62
     7
100
AcDbLine
 10
-986.9250003758555
 20
-954.291683327929
 30
0.0
 11
-993.075000370244
 21
-954.291683327929
 31
0.0
  0
LINE
  5
237
330
5C
100
AcDbEntity
  8
0
  6
Continuous
 62
     7
100
AcDbLine
 10
-993.075000370244
 20
-952.1491124159544
 30
0.0
 11
-986.9250003758555
 21
-952.1491124159544
 31
0.0
  0
LINE
  5
238
330
5C
100
AcDbEntity
  8
0
  6
Continuous
 62
     7
100
AcDbLine
 10
-993.075000370244
 20
-949.5749993386365
 30
0.0
 11
-986.9250003758555
 21
-949.5749993386365
 31
0.0
  0
LINE
  5
239
330
5C
100
AcDbEntity
  8
0
  6
Continuous
 62
     7
100
AcDbLine
 10
-991.3922253742493
 20
-968.6752051905278
 30
0.0
 11
-991.1250003758566
 21
-968.6752051905278
 31
0.0
  0
LINE
  5
23A
330
5C
100
AcDbEntity
  8
0
  6
Continuous
 62
     7
100
AcDbLine
 10
-993.075000370244
 20
-965.1097942746068
 30
0.0
 11
-993.075000370244
 21
-961.0947592201495
 31
0.0
  0
LINE
  5
23B
330
5C
100
AcDbEntity
  8
0
  6
Continuous
 62
     7
100
AcDbLine
 10
-993.075000370244
 20
-961.0947592201495
 30
0.0
 11
-993.075000370244
 21
-959.9749993386333
 31
0.0
  0
LINE
  5
23C
330
5C
100
AcDbEntity
  8
0
  6
Continuous
 62
     7
100
AcDbLine
 10
-992.4750003758567
 20
-973.881810491388
 30
0.0
 11
-992.4750003758567
 21
-974.2310839988317
 31
0.0
  0
LINE
  5
23D
330
5C
100
AcDbEntity
  8
0
  6
Continuous
 62
     7
100
AcDbLine
 10
-992.4750003758567
 20
-966.7561177687799
 30
0.0
 11
-992.4750003758567
 21
-967.4749993386325
 31
0.0
  0
LINE
  5
23E
330
5C
100
AcDbEntity
  8
0
  6
Continuous
 62
     7
100
AcDbLine
 10
-992.4750003758567
 20
-965.1097942746068
 30
0.0
 11
-992.4750003758567
 21
-966.7561177687799
 31
0.0
  0
LINE
  5
23F
330
5C
100
AcDbEntity
  8
0
  6
Continuous
 62
     7
100
AcDbLine
 10
-992.4750003758567
 20
-967.4749993386325
 30
0.0
 11
-992.4750003758567
 21
-973.881810491388
 31
0.0
  0
LINE
  5
240
330
5C
100
AcDbEntity
  8
0
  6
Continuous
 62
     7
100
AcDbLine
 10
-993.075000370244
 20
-967.4749993386325
 30
0.0
 11
-993.075000370244
 21
-965.1097942746068
 31
0.0
  0
LINE
  5
241
330
5C
100
AcDbEntity
  8
0
  6
Continuous
 62
     7
100
AcDbLine
 10
-992.4750003758567
 20
-961.0947592201495
 30
0.0
 11
-992.4750003758567
 21
-965.1097942746068
 31
0.0
  0
LINE
  5
242
330
5C
100
AcDbEntity
  8
0
  6
Continuous
 62
     7
100
AcDbLine
 10
-992.4750003758567
 20
-960.3001966915982
 30
0.0
 11
-992.4750003758567
 21
-961.0947592201495
 31
0.0
  0
LINE
  5
243
330
5C
100
AcDbEntity
  8
0
  6
Continuous
 62
     7
100
AcDbLine
 10
-991.3922253742493
 20
-968.6752051905278
 30
0.0
 11
-992.4750003758567
 21
-966.7561177687799
 31
0.0
  0
LINE
  5
244
330
5C
100
AcDbEntity
  8
0
  6
Continuous
 62
     7
100
AcDbLine
 10
-991.1250003758566
 20
-968.6752051905278
 30
0.0
 11
-991.1250003758555
 21
-971.9249993386289
 31
0.0
  0
LINE
  5
245
330
5C
100
AcDbEntity
  8
0
  6
Continuous
 62
     7
100
AcDbLine
 10
-991.1250003758555
 20
-971.9249993386289
 30
0.0
 11
-992.4750003758567
 21
-973.881810491388
 31
0.0
  0
LINE
  5
246
330
5C
100
AcDbEntity
  8
0
  6
Continuous
 62
     7
100
AcDbLine
 10
-990.3250003758556
 20
-972.7249993386288
 30
0.0
 11
-992.4750003758567
 21
-974.2310839988317
 31
0.0
  0
ENDBLK
  5
5E
330
5C
100
AcDbEntity
  8
0
100
AcDbBlockEnd
  0
BLOCK
  5
61
330
5F
100
AcDbEntity
  8
0
100
AcDbBlockBegin
  2
SA_links1
 70
     0
 10
-990.000000185122
 20
-972.99999966932
 30
0.0
  3
SA_links1
  1

  0
INSERT
  5
60
330
5F
100
AcDbEntity
  8
0
100
AcDbBlockReference
  2
UT_4_1P-select__4
 10
-993.075000370244
 20
-996.4249993386458
 30
0.0
  0
ENDBLK
  5
62
330
5F
100
AcDbEntity
  8
0
100
AcDbBlockEnd
  0
BLOCK
  5
64
330
63
100
AcDbEntity
  8
0
100
AcDbBlockBegin
  2
UT_4_1P-select__5
 70
     0
 10
-1132.184694124448
 20
-998.4249993386456
 30
0.0
  3
UT_4_1P-select__5
  1

  0
LINE
  5
247
330
63
100
AcDbEntity
  8
0
  6
Continuous
 62
     7
100
AcDbLine
 10
-1126.03469413006
 20
-984.7502396175893
 30
0.0
 11
-1132.184694124448
 21
-984.7502396175893
 31
0.0
  0
LINE
  5
248
330
63
100
AcDbEntity
  8
0
  6
Continuous
 62
     7
100
AcDbLine
 10
-1132.184694124448
 20
-984.7502396175893
 30
0.0
 11
-1132.184694124448
 21
-992.024999338642
 31
0.0
  0
LINE
  5
249
330
63
100
AcDbEntity
  8
0
  6
Continuous
 62
     7
100
AcDbLine
 10
-1132.184694124448
 20
-992.024999338642
 30
0.0
 11
-1126.03469413006
 21
-992.024999338642
 31
0.0
  0
LINE
  5
24A
330
63
100
AcDbEntity
  8
0
  6
Continuous
 62
     7
100
AcDbLine
 10
-1126.03469413006
 20
-962.3249993386335
 30
0.0
 11
-1126.03469413006
 21
-951.5749993386361
 31
0.0
  0
LINE
  5
24B
330
63
100
AcDbEntity
  8
0
  6
Continuous
 62
     7
100
AcDbLine
 10
-1126.03469413006
 20
-951.5749993386361
 30
0.0
 11
-1132.184694124448
 21
-951.5749993386361
 31
0.0
  0
LINE
  5
24C
330
63
100
AcDbEntity
  8
0
  6
Continuous
 62
     7
100
AcDbLine
 10
-1132.184694124448
 20
-975.6564067449207
 30
0.0
 11
-1132.184694124448
 21
-984.7502396175893
 31
0.0
  0
LINE
  5
24D
330
63
100
AcDbEntity
  8
0
  6
Continuous
 62
     7
100
AcDbLine
 10
-1132.184694124448
 20
-998.4249993386456
 30
0.0
 11
-1132.184694124448
 21
-992.024999338642
 31
0.0
  0
LINE
  5
24E
330
63
100
AcDbEntity
  8
0
  6
Continuous
 62
     7
100
AcDbLine
 10
-1132.184694124448
 20
-998.4249993386456
 30
0.0
 11
-1126.03469413006
 21
-998.4249993386456
 31
0.0
  0
LINE
  5
24F
330
63
100
AcDbEntity
  8
0
  6
Continuous
 62
     7
100
AcDbLine
 10
-1132.184694124448
 20
-968.324999338637
 30
0.0
 11
-1132.184694124448
 21
-962.3249993386335
 31
0.0
  0
LINE
  5
250
330
63
100
AcDbEntity
  8
0
  6
Continuous
 62
     7
100
AcDbLine
 10
-1126.03469413006
 20
-962.3249993386335
 30
0.0
 11
-1132.184694124448
 21
-962.3249993386335
 31
0.0
  0
LINE
  5
251
330
63
100
AcDbEntity
  8
0
  6
Continuous
 62
     7
100
AcDbLine
 10
-1132.184694124448
 20
-971.3249993386313
 30
0.0
 11
-1126.03469413006
 21
-971.3249993386314
 31
0.0
  0
LINE
  5
252
330
63
100
AcDbEntity
  8
0
  6
Continuous
 62
     7
100
AcDbLine
 10
-1132.184694124448
 20
-971.3249993386313
 30
0.0
 11
-1132.184694124448
 21
-968.324999338637
 31
0.0
  0
LINE
  5
253
330
63
100
AcDbEntity
  8
0
  6
Continuous
 62
     7
100
AcDbLine
 10
-1132.184694124448
 20
-968.324999338637
 30
0.0
 11
-1126.03469413006
 21
-968.324999338637
 31
0.0
  0
LINE
  5
254
330
63
100
AcDbEntity
  8
0
  6
Continuous
 62
     7
100
AcDbLine
 10
-1132.184694124448
 20
-962.3249993386335
 30
0.0
 11
-1132.184694124448
 21
-951.5749993386361
 31
0.0
  0
LINE
  5
255
330
63
100
AcDbEntity
  8
0
  6
Continuous
 62
     7
100
AcDbLine
 10
-1132.184694124448
 20
-971.3249993386313
 30
0.0
 11
-1132.184694124448
 21
-975.0620121851449
 31
0.0
  0
LINE
  5
256
330
63
100
AcDbEntity
  8
0
  6
Continuous
 62
     7
100
AcDbLine
 10
-1126.03469413006
 20
-975.6564067449207
 30
0.0
 11
-1132.184694124448
 21
-975.6564067449207
 31
0.0
  0
LINE
  5
257
330
63
100
AcDbEntity
  8
0
  6
Continuous
 62
     7
100
AcDbLine
 10
-1126.03469413006
 20
-975.6564067449207
 30
0.0
 11
-1126.03469413006
 21
-975.0620121851449
 31
0.0
  0
LINE
  5
258
330
63
100
AcDbEntity
  8
0
  6
Continuous
 62
     7
100
AcDbLine
 10
-1132.184694124448
 20
-975.6564067449207
 30
0.0
 11
-1132.184694124448
 21
-975.0620121851449
 31
0.0
  0
LINE
  5
259
330
63
100
AcDbEntity
  8
0
  6
Continuous
 62
     7
100
AcDbLine
 10
-1132.184694124448
 20
-975.0620121851449
 30
0.0
 11
-1126.03469413006
 21
-975.0620121851449
 31
0.0
  0
LINE
  5
25A
330
63
100
AcDbEntity
  8
0
  6
Continuous
 62
     7
100
AcDbLine
 10
-1126.03469413006
 20
-984.7502396175893
 30
0.0
 11
-1126.03469413006
 21
-992.024999338642
 31
0.0
  0
LINE
  5
25B
330
63
100
AcDbEntity
  8
0
  6
Continuous
 62
     7
100
AcDbLine
 10
-1126.03469413006
 20
-992.024999338642
 30
0.0
 11
-1126.03469413006
 21
-998.4249993386456
 31
0.0
  0
LINE
  5
25C
330
63
100
AcDbEntity
  8
0
  6
Continuous
 62
     7
100
AcDbLine
 10
-1126.03469413006
 20
-971.3249993386314
 30
0.0
 11
-1126.03469413006
 21
-968.324999338637
 31
0.0
  0
LINE
  5
25D
330
63
100
AcDbEntity
  8
0
  6
Continuous
 62
     7
100
AcDbLine
 10
-1126.03469413006
 20
-971.3249993386314
 30
0.0
 11
-1126.03469413006
 21
-975.0620121851449
 31
0.0
  0
LINE
  5
25E
330
63
100
AcDbEntity
  8
0
  6
Continuous
 62
     7
100
AcDbLine
 10
-1126.03469413006
 20
-968.324999338637
 30
0.0
 11
-1126.03469413006
 21
-962.3249993386335
 31
0.0
  0
LINE
  5
25F
330
63
100
AcDbEntity
  8
0
  6
Continuous
 62
     7
100
AcDbLine
 10
-1126.03469413006
 20
-975.6564067449207
 30
0.0
 11
-1126.03469413006
 21
-984.7502396175893
 31
0.0
  0
ENDBLK
  5
65
330
63
100
AcDbEntity
  8
0
100
AcDbBlockEnd
  0
BLOCK
  5
68
330
66
100
AcDbEntity
  8
0
100
AcDbBlockBegin
  2
SA_rechts1
 70
     0
 10
-1129.109694315182
 20
-974.99999966932
 30
0.0
  3
SA_rechts1
  1

  0
INSERT
  5
67
330
66
100
AcDbEntity
  8
0
100
AcDbBlockReference
  2
UT_4_1P-select__5
 10
-1132.184694124448
 20
-998.4249993386456
 30
0.0
  0
ENDBLK
  5
69
330
66
100
AcDbEntity
  8
0
100
AcDbBlockEnd
  0
BLOCK
  5
6B
330
6A
100
AcDbEntity
  8
0
100
AcDbBlockBegin
  2
UT_4_1P-select__6
 70
     0
 10
-1069.174999279459
 20
-996.4249993386458
 30
0.0
  3
UT_4_1P-select__6
  1

  0
LINE
  5
260
330
6A
100
AcDbEntity
  8
0
  6
Continuous
 62
     7
100
AcDbLine
 10
-1026.649999279462
 20
-969.3249993493303
 30
0.0
 11
-1027.649999279463
 21
-969.3249993493333
 31
0.0
  0
LINE
  5
261
330
6A
100
AcDbEntity
  8
0
  6
Continuous
 62
     7
100
AcDbLine
 10
-1061.17499927944
 20
-970.0096533145884
 30
0.0
 11
-1061.17499927944
 21
-970.0403453626725
 31
0.0
  0
LINE
  5
262
330
6A
100
AcDbEntity
  8
0
  6
Continuous
 62
     7
100
AcDbLine
 10
-1061.474999279459
 20
-991.4314653352708
 30
0.0
 11
-1061.474999279459
 21
-990.8749993386397
 31
0.0
  0
LINE
  5
263
330
6A
100
AcDbEntity
  8
0
  6
Continuous
 62
     7
100
AcDbLine
 10
-1061.474999279459
 20
-990.8749993386397
 30
0.0
 11
-1062.374999279459
 21
-990.9537391358131
 31
0.0
  0
LINE
  5
264
330
6A
100
AcDbEntity
  8
0
  6
Continuous
 62
     7
100
AcDbLine
 10
-1062.374999279459
 20
-989.8749993386456
 30
0.0
 11
-1062.374999279459
 21
-990.9537391358131
 31
0.0
  0
LINE
  5
265
330
6A
100
AcDbEntity
  8
0
  6
Continuous
 62
     7
100
AcDbLine
 10
-1063.509059851471
 20
-996.4249993386456
 30
0.0
 11
-1069.174999279459
 21
-996.4249993386458
 31
0.0
  0
LINE
  5
266
330
6A
100
AcDbEntity
  8
0
  6
Continuous
 62
     7
100
AcDbLine
 10
-1069.174999279459
 20
-996.4249993386458
 30
0.0
 11
-1069.174999279459
 21
-991.2678925574593
 31
0.0
  0
LINE
  5
267
330
6A
100
AcDbEntity
  8
0
  6
Continuous
 62
     7
100
AcDbLine
 10
-1065.967365973114
 20
-994.0749993386398
 30
0.0
 11
-1067.674999279459
 21
-994.0749993386398
 31
0.0
  0
LINE
  5
268
330
6A
100
AcDbEntity
  8
0
  6
Continuous
 62
     7
100
AcDbLine
 10
-1067.674999279459
 20
-994.0749993386398
 30
0.0
 11
-1067.674999279459
 21
-993.1458197318898
 31
0.0
  0
LINE
  5
269
330
6A
100
AcDbEntity
  8
0
  6
Continuous
 62
     7
100
AcDbLine
 10
-1068.174999279459
 20
-983.5749993386454
 30
0.0
 11
-1064.93173786005
 21
-983.5749993386454
 31
0.0
  0
LINE
  5
26A
330
6A
100
AcDbEntity
  8
0
  6
Continuous
 62
     7
100
AcDbLine
 10
-1068.174999279459
 20
-983.5749993386454
 30
0.0
 11
-1068.174999279459
 21
-979.801292374253
 31
0.0
  0
LINE
  5
26B
330
6A
100
AcDbEntity
  8
0
  6
Continuous
 62
     7
100
AcDbLine
 10
-1066.190934969437
 20
-961.0947592201492
 30
0.0
 11
-1066.97499927946
 21
-959.9749993386332
 31
0.0
  0
LINE
  5
26C
330
6A
100
AcDbEntity
  8
0
  6
Continuous
 62
     7
100
AcDbLine
 10
-1066.97499927946
 20
-959.9749993386332
 30
0.0
 11
-1066.97499927946
 21
-958.7749993386361
 31
0.0
  0
LINE
  5
26D
330
6A
100
AcDbEntity
  8
0
  6
Continuous
 62
     7
100
AcDbLine
 10
-1067.638603176394
 20
-991.838603235575
 30
0.0
 11
-1067.122543028974
 21
-992.3546633829949
 31
0.0
  0
LINE
  5
26E
330
6A
100
AcDbEntity
  8
0
  6
Continuous
 62
     7
100
AcDbLine
 10
-1066.97499927946
 20
-958.7749993386361
 30
0.0
 11
-1065.383223851228
 21
-957.1832239104048
 31
0.0
  0
LINE
  5
26F
330
6A
100
AcDbEntity
  8
0
  6
Continuous
 62
     7
100
AcDbLine
 10
-1064.92499927946
 20
-967.4701898670085
 30
0.0
 11
-1064.92499927946
 21
-965.1097942746068
 31
0.0
  0
LINE
  5
270
330
6A
100
AcDbEntity
  8
0
  6
Continuous
 62
     7
100
AcDbLine
 10
-1062.657361189235
 20
-971.9721970152507
 30
0.0
 11
-1065.483418151016
 21
-972.7294366959244
 31
0.0
  0
LINE
  5
271
330
6A
100
AcDbEntity
  8
0
  6
Continuous
 62
     7
100
AcDbLine
 10
-1067.638603176394
 20
-991.838603235575
 30
0.0
 11
-1068.492156566984
 21
-990.9850498449849
 31
0.0
  0
LINE
  5
272
330
6A
100
AcDbEntity
  8
0
  6
Continuous
 62
     7
100
AcDbLine
 10
-1031.249999279469
 20
-960.3249993386335
 30
0.0
 11
-1031.249999279469
 21
-975.8249993386275
 31
0.0
  0
LINE
  5
273
330
6A
100
AcDbEntity
  8
0
  6
Continuous
 62
     7
100
AcDbLine
 10
-1027.649999279462
 20
-975.8249993386275
 30
0.0
 11
-1030.949999279469
 21
-975.8249993386275
 31
0.0
  0
LINE
  5
274
330
6A
100
AcDbEntity
  8
0
  6
Continuous
 62
     7
100
AcDbLine
 10
-1023.349999279469
 20
-960.3249993386335
 30
0.0
 11
-1030.949999279469
 21
-960.3249993386335
 31
0.0
  0
LINE
  5
275
330
6A
100
AcDbEntity
  8
0
  6
Continuous
 62
     7
100
AcDbLine
 10
-1023.349999279469
 20
-960.3249993386335
 30
0.0
 11
-1021.274999279466
 21
-960.3249993386335
 31
0.0
  0
LINE
  5
276
330
6A
100
AcDbEntity
  8
0
  6
Continuous
 62
     7
100
AcDbLine
 10
-1021.065772253515
 20
-973.6564067449207
 30
0.0
 11
-1021.94999927947
 21
-973.0620121851449
 31
0.0
  0
LINE
  5
277
330
6A
100
AcDbEntity
  8
0
  6
Continuous
 62
     7
100
AcDbLine
 10
-1020.074999279465
 20
-966.324999338637
 30
0.0
 11
-1021.274999279466
 21
-960.3249993386335
 31
0.0
  0
LINE
  5
278
330
6A
100
AcDbEntity
  8
0
  6
Continuous
 62
     7
100
AcDbLine
 10
-1023.349999279469
 20
-975.8249993386275
 30
0.0
 11
-1023.349999279469
 21
-960.3249993386335
 31
0.0
  0
LINE
  5
279
330
6A
100
AcDbEntity
  8
0
  6
Continuous
 62
     7
100
AcDbLine
 10
-1029.961009740015
 20
-989.3749993386327
 30
0.0
 11
-1027.674999279469
 21
-989.5749993386389
 31
0.0
  0
LINE
  5
27A
330
6A
100
AcDbEntity
  8
0
  6
Continuous
 62
     7
100
AcDbLine
 10
-1030.949999279469
 20
-975.8249993386275
 30
0.0
 11
-1031.249999279469
 21
-975.8249993386275
 31
0.0
  0
LINE
  5
27B
330
6A
100
AcDbEntity
  8
0
  6
Continuous
 62
     7
100
AcDbLine
 10
-1035.374999279469
 20
-989.5749993386391
 30
0.0
 11
-1061.368832290983
 21
-989.5749993386397
 31
0.0
  0
LINE
  5
27C
330
6A
100
AcDbEntity
  8
0
  6
Continuous
 62
     7
100
AcDbLine
 10
-1035.374999279469
 20
-989.3749993386327
 30
0.0
 11
-1029.961009740015
 21
-989.3749993386327
 31
0.0
  0
LINE
  5
27D
330
6A
100
AcDbEntity
  8
0
  6
Continuous
 62
     7
100
AcDbLine
 10
-1035.374999279469
 20
-989.5749993386391
 30
0.0
 11
-1035.374999279469
 21
-989.3749993386327
 31
0.0
  0
LINE
  5
27E
330
6A
100
AcDbEntity
  8
0
  6
Continuous
 62
     7
100
AcDbLine
 10
-1027.349999279463
 20
-967.8249993493303
 30
0.0
 11
-1027.649999279463
 21
-969.3249993493333
 31
0.0
  0
LINE
  5
27F
330
6A
100
AcDbEntity
  8
0
  6
Continuous
 62
     7
100
AcDbLine
 10
-1026.649999279462
 20
-975.8249993386275
 30
0.0
 11
-1027.649999279462
 21
-975.8249993386275
 31
0.0
  0
LINE
  5
280
330
6A
100
AcDbEntity
  8
0
  6
Continuous
 62
     7
100
AcDbLine
 10
-1023.349999279469
 20
-975.8249993386275
 30
0.0
 11
-1026.649999279462
 21
-975.8249993386275
 31
0.0
  0
LINE
  5
281
330
6A
100
AcDbEntity
  8
0
  6
Continuous
 62
     7
100
AcDbLine
 10
-1026.649999279462
 20
-975.8249993386275
 30
0.0
 11
-1026.649999279462
 21
-969.3249993493303
 31
0.0
  0
LINE
  5
282
330
6A
100
AcDbEntity
  8
0
  6
Continuous
 62
     7
100
AcDbLine
 10
-1021.949999279464
 20
-968.6425551493963
 30
0.0
 11
-1021.94999927947
 21
-973.0620121851449
 31
0.0
  0
LINE
  5
283
330
6A
100
AcDbEntity
  8
0
  6
Continuous
 62
     7
100
AcDbLine
 10
-1028.644501187766
 20
-996.4249993386458
 30
0.0
 11
-1027.574999279459
 21
-996.4249993386458
 31
0.0
  0
LINE
  5
284
330
6A
100
AcDbEntity
  8
0
  6
Continuous
 62
     7
100
AcDbLine
 10
-1026.649999279462
 20
-969.3249993493303
 30
0.0
 11
-1026.949999275578
 21
-967.8249993493303
 31
0.0
  0
LINE
  5
285
330
6A
100
AcDbEntity
  8
0
  6
Continuous
 62
     7
100
AcDbLine
 10
-1027.674999279469
 20
-990.6749993386389
 30
0.0
 11
-1027.674999279469
 21
-989.5749993386389
 31
0.0
  0
LINE
  5
286
330
6A
100
AcDbEntity
  8
0
  6
Continuous
 62
     7
100
AcDbLine
 10
-1028.972723413063
 20
-991.022723472234
 30
0.0
 11
-1027.674999279469
 21
-990.6749993386389
 31
0.0
  0
LINE
  5
287
330
6A
100
AcDbEntity
  8
0
  6
Continuous
 62
     7
100
AcDbLine
 10
-1027.649999279462
 20
-975.8249993386275
 30
0.0
 11
-1027.649999279463
 21
-969.3249993493333
 31
0.0
  0
LINE
  5
288
330
6A
100
AcDbEntity
  8
0
  6
Continuous
 62
     7
100
AcDbLine
 10
-1021.174999279456
 20
-982.7502396175893
 30
0.0
 11
-1021.174999279456
 21
-990.024999338642
 31
0.0
  0
LINE
  5
289
330
6A
100
AcDbEntity
  8
0
  6
Continuous
 62
     7
100
AcDbLine
 10
-1057.774999279459
 20
-949.5749993386365
 30
0.0
 11
-1050.37499927946
 21
-949.5749993386363
 31
0.0
  0
LINE
  5
28A
330
6A
100
AcDbEntity
  8
0
  6
Continuous
 62
     7
100
AcDbLine
 10
-1041.174999279461
 20
-956.0749993386345
 30
0.0
 11
-1041.174999279461
 21
-952.8719722419821
 31
0.0
  0
LINE
  5
28B
330
6A
100
AcDbEntity
  8
0
  6
Continuous
 62
     7
100
AcDbLine
 10
-1039.974999279461
 20
-949.5749993386361
 30
0.0
 11
-1039.449999279466
 21
-949.5749993386361
 31
0.0
  0
LINE
  5
28C
330
6A
100
AcDbEntity
  8
0
  6
Continuous
 62
     7
100
AcDbLine
 10
-1049.17499927946
 20
-956.0749993386347
 30
0.0
 11
-1041.174999279461
 21
-956.0749993386345
 31
0.0
  0
LINE
  5
28D
330
6A
100
AcDbEntity
  8
0
  6
Continuous
 62
     7
100
AcDbLine
 10
-1039.449999279467
 20
-960.3249993386335
 30
0.0
 11
-1039.449999279466
 21
-949.5749993386361
 31
0.0
  0
LINE
  5
28E
330
6A
100
AcDbEntity
  8
0
  6
Continuous
 62
     7
100
AcDbLine
 10
-1049.17499927946
 20
-952.8719722419822
 30
0.0
 11
-1049.17499927946
 21
-956.0749993386347
 31
0.0
  0
LINE
  5
28F
330
6A
100
AcDbEntity
  8
0
  6
Continuous
 62
     7
100
AcDbLine
 10
-1041.174999279461
 20
-952.8719722419821
 30
0.0
 11
-1039.974999279461
 21
-949.5749993386361
 31
0.0
  0
LINE
  5
290
330
6A
100
AcDbEntity
  8
0
  6
Continuous
 62
     7
100
AcDbLine
 10
-1049.17499927946
 20
-952.8719722419822
 30
0.0
 11
-1050.37499927946
 21
-949.5749993386363
 31
0.0
  0
LINE
  5
291
330
6A
100
AcDbEntity
  8
0
  6
Continuous
 62
     7
100
AcDbLine
 10
-1060.349112356776
 20
-952.1491124159544
 30
0.0
 11
-1057.774999279459
 21
-949.5749993386365
 31
0.0
  0
LINE
  5
292
330
6A
100
AcDbEntity
  8
0
  6
Continuous
 62
     7
100
AcDbLine
 10
-1030.949999279469
 20
-960.3249993386335
 30
0.0
 11
-1030.949999279469
 21
-975.8249993386275
 31
0.0
  0
LINE
  5
293
330
6A
100
AcDbEntity
  8
0
  6
Continuous
 62
     7
100
AcDbLine
 10
-1030.324999279468
 20
-992.3749993386391
 30
0.0
 11
-1028.972723413063
 21
-991.022723472234
 31
0.0
  0
LINE
  5
294
330
6A
100
AcDbEntity
  8
0
  6
Continuous
 62
     7
100
AcDbLine
 10
-1030.324999279468
 20
-992.3749993386391
 30
0.0
 11
-1030.324999279468
 21
-994.0249993386475
 31
0.0
  0
LINE
  5
295
330
6A
100
AcDbEntity
  8
0
  6
Continuous
 62
     7
100
AcDbLine
 10
-1028.644501187766
 20
-996.4249993386458
 30
0.0
 11
-1030.324999279468
 21
-994.0249993386475
 31
0.0
  0
LINE
  5
296
330
6A
100
AcDbEntity
  8
0
  6
Continuous
 62
     7
100
AcDbLine
 10
-1064.92499927946
 20
-967.4701898670085
 30
0.0
 11
-1064.92499927946
 21
-967.4749993386325
 31
0.0
  0
LINE
  5
297
330
6A
100
AcDbEntity
  8
0
  6
Continuous
 62
     7
100
AcDbLine
 10
-1026.949999275578
 20
-967.8249993493303
 30
0.0
 11
-1027.349999279463
 21
-967.8249993493303
 31
0.0
  0
LINE
  5
298
330
6A
100
AcDbEntity
  8
0
  6
Continuous
 62
     7
100
AcDbLine
 10
-1064.92499927946
 20
-967.4701898670085
 30
0.0
 11
-1062.657361189235
 21
-968.0778016620102
 31
0.0
  0
LINE
  5
299
330
6A
100
AcDbEntity
  8
0
  6
Continuous
 62
     7
100
AcDbLine
 10
-1020.074999279465
 20
-969.3249993386313
 30
0.0
 11
-1021.949999279464
 21
-968.6425551493963
 31
0.0
  0
LINE
  5
29A
330
6A
100
AcDbEntity
  8
0
  6
Continuous
 62
     7
100
AcDbLine
 10
-1020.074999279465
 20
-969.3249993386313
 30
0.0
 11
-1020.074999279465
 21
-966.324999338637
 31
0.0
  0
LINE
  5
29B
330
6A
100
AcDbEntity
  8
0
  6
Continuous
 62
     7
100
AcDbLine
 10
-1030.949999279469
 20
-960.3249993386335
 30
0.0
 11
-1031.249999279469
 21
-960.3249993386335
 31
0.0
  0
LINE
  5
29C
330
6A
100
AcDbEntity
  8
0
  6
Continuous
 62
     7
100
AcDbLine
 10
-1031.249999279469
 20
-960.3249993386335
 30
0.0
 11
-1039.449999279467
 21
-960.3249993386335
 31
0.0
  0
LINE
  5
29D
330
6A
100
AcDbEntity
  8
0
  6
Continuous
 62
     7
100
AcDbLine
 10
-1062.857329269238
 20
-959.1474573889482
 30
0.0
 11
-1063.613933525108
 21
-958.3908531330788
 31
0.0
  0
LINE
  5
29E
330
6A
100
AcDbEntity
  8
0
  6
Continuous
 62
     7
100
AcDbLine
 10
-1063.613933525108
 20
-958.3908531330788
 30
0.0
 11
-1063.240652939252
 21
-958.0175725472235
 31
0.0
  0
LINE
  5
29F
330
6A
100
AcDbEntity
  8
0
  6
Continuous
 62
     7
100
AcDbLine
 10
-1065.383223851228
 20
-957.1832239104048
 30
0.0
 11
-1063.240652939252
 21
-958.0175725472235
 31
0.0
  0
LINE
  5
2A0
330
6A
100
AcDbEntity
  8
0
  6
Continuous
 62
     7
100
AcDbLine
 10
-1058.384878878233
 20
-954.6750069979433
 30
0.0
 11
-1062.857329269238
 21
-959.1474573889482
 31
0.0
  0
LINE
  5
2A1
330
6A
100
AcDbEntity
  8
0
  6
Continuous
 62
     7
100
AcDbLine
 10
-1059.141483134103
 20
-953.9184027420738
 30
0.0
 11
-1058.384878878233
 21
-954.6750069979433
 31
0.0
  0
LINE
  5
2A2
330
6A
100
AcDbEntity
  8
0
  6
Continuous
 62
     7
100
AcDbLine
 10
-1059.514763719958
 20
-954.2916833279289
 30
0.0
 11
-1059.141483134103
 21
-953.9184027420738
 31
0.0
  0
LINE
  5
2A3
330
6A
100
AcDbEntity
  8
0
  6
Continuous
 62
     7
100
AcDbLine
 10
-1059.514763719958
 20
-954.2916833279289
 30
0.0
 11
-1060.349112356776
 21
-952.1491124159544
 31
0.0
  0
LINE
  5
2A4
330
6A
100
AcDbEntity
  8
0
  6
Continuous
 62
     7
100
AcDbLine
 10
-1021.174999279456
 20
-990.024999338642
 30
0.0
 11
-1027.574999279459
 21
-996.4249993386458
 31
0.0
  0
ARC
  5
2A5
330
6A
100
AcDbEntity
  8
0
  6
Continuous
 62
     7
100
AcDbCircle
 10
-1063.17499927944
 20
-970.0096533145884
 30
0.0
 40
2.0
100
AcDbArc
 50
0.0
 51
74.99999999999926
  0
ARC
  5
2A6
330
6A
100
AcDbEntity
  8
0
  6
Continuous
 62
     7
100
AcDbCircle
 10
-1063.17499927944
 20
-970.0403453626725
 30
0.0
 40
2.000000000000061
100
AcDbArc
 50
285.0000000000007
 51
0.0
  0
ARC
  5
2A7
330
6A
100
AcDbEntity
  8
0
  6
Continuous
 62
     7
100
AcDbCircle
 10
-1054.074999279459
 20
-989.8749993386455
 30
0.0
 40
7.30000000000001
100
AcDbArc
 50
152.0987744401419
 51
177.6447156441804
  0
ARC
  5
2A8
330
6A
100
AcDbEntity
  8
0
  6
Continuous
 62
     7
100
AcDbCircle
 10
-1060.968293122028
 20
-986.2249993386456
 30
0.0
 40
0.4999999999998511
100
AcDbArc
 50
332.0987744401309
 51
152.098774440143
  0
ARC
  5
2A9
330
6A
100
AcDbEntity
  8
0
  6
Continuous
 62
     7
100
AcDbCircle
 10
-1054.074999279459
 20
-989.8749993386455
 30
0.0
 40
8.299999999999912
100
AcDbArc
 50
152.0987744401413
 51
180.0000000000008
  0
ARC
  5
2AA
330
6A
100
AcDbEntity
  8
0
  6
Continuous
 62
     7
100
AcDbCircle
 10
-1070.574999279459
 20
-990.0749993386459
 30
0.0
 40
9.499999999999652
100
AcDbArc
 50
318.0546824498909
 51
327.1401196211098
  0
ARC
  5
2AB
330
6A
100
AcDbEntity
  8
0
  6
Continuous
 62
     7
100
AcDbCircle
 10
-1033.874999279459
 20
-994.774999338645
 30
0.0
 40
32.10000000000043
100
AcDbArc
 50
174.8466096681539
 51
178.7504602777875
  0
ARC
  5
2AC
330
6A
100
AcDbEntity
  8
0
  6
Continuous
 62
     7
100
AcDbCircle
 10
-1072.274999279477
 20
-985.1002900407595
 30
0.0
 40
7.499999999999229
100
AcDbArc
 50
345.8588897661764
 51
11.73421953200094
  0
ARC
  5
2AD
330
6A
100
AcDbEntity
  8
0
  6
Continuous
 62
     7
100
AcDbCircle
 10
-1066.592212943084
 20
-991.8243332971049
 30
0.0
 40
0.7500000000001267
100
AcDbArc
 50
225.0
 51
354.8466096681458
  0
ARC
  5
2AE
330
6A
100
AcDbEntity
  8
0
  6
Continuous
 62
     7
100
AcDbCircle
 10
-1033.874999279459
 20
-994.774999338645
 30
0.0
 40
32.10000000000048
100
AcDbArc
 50
165.858889766177
 51
174.8466096681539
  0
ARC
  5
2AF
330
6A
100
AcDbEntity
  8
0
  6
Continuous
 62
     7
100
AcDbCircle
 10
-1068.274999279459
 20
-992.4749993386426
 30
0.0
 40
0.8999999999980067
100
AcDbArc
 50
311.8103148959037
 51
45.00000000012282
  0
ARC
  5
2B0
330
6A
100
AcDbEntity
  8
0
  6
Continuous
 62
     7
100
AcDbCircle
 10
-1068.774999279459
 20
-991.2678925574592
 30
0.0
 40
0.4000000000000193
100
AcDbArc
 50
44.9999999999194
 51
180.0000000000163
  0
ARC
  5
2B1
330
6A
100
AcDbEntity
  8
0
  6
Continuous
 62
     7
100
AcDbCircle
 10
-1089.92499927946
 20
-967.4749993386331
 30
0.0
 40
25.00000000000041
100
AcDbArc
 50
330.4586394998609
 51
347.8672459369415
  0
ARC
  5
2B2
330
6A
100
AcDbEntity
  8
0
  6
Continuous
 62
     7
100
AcDbCircle
 10
-1068.474999279459
 20
-991.4314653352709
 30
0.0
 40
7.000000000000218
100
AcDbArc
 50
327.1401196211098
 51
0.00000000000093
  0
ARC
  5
2B3
330
6A
100
AcDbEntity
  8
0
  6
Continuous
 62
     7
100
AcDbCircle
 10
-1089.92499927946
 20
-967.4749993386331
 30
0.0
 40
25.00000000000027
100
AcDbArc
 50
347.8672459369415
 51
0.0000000000013
  0
ARC
  5
2B4
330
6A
100
AcDbEntity
  8
0
  6
Continuous
 62
     7
100
AcDbCircle
 10
-1071.92499927946
 20
-965.1097942746069
 30
0.0
 40
7.0
100
AcDbArc
 50
0.00000000000093
 51
35.00000000000194
  0
ARC
  5
2B5
330
6A
100
AcDbEntity
  8
0
  6
Continuous
 62
     7
100
AcDbCircle
 10
-1006.827272194606
 20
-978.3749993390148
 30
0.0
 40
14.99999999988632
100
AcDbArc
 50
161.6649715558735
 51
196.9587228188803
  0
ENDBLK
  5
6C
330
6A
100
AcDbEntity
  8
0
100
AcDbBlockEnd
  0
BLOCK
  5
6F
330
6D
100
AcDbEntity
  8
0
100
AcDbBlockBegin
  2
Vordans1
 70
     0
 10
-1044.625000139727
 20
-972.99999966932
 30
0.0
  3
Vordans1
  1

  0
INSERT
  5
6E
330
6D
100
AcDbEntity
  8
0
100
AcDbBlockReference
  2
UT_4_1P-select__6
 10
-1069.174999279459
 20
-996.4249993386458
 30
0.0
  0
LINE
  5
2B6
330
6D
100
AcDbEntity
  8
1
  6
DOT_CENTER
 62
     2
100
AcDbLine
 10
-1045.174999279469
 20
-988.086634583679
 30
0.0
 11
-1045.174999279469
 21
-991.086634583679
 31
0.0
  0
DIMENSION
  5
2C1
330
6D
100
AcDbEntity
  8
1
100
AcDbDimension
  2
*D18
 10
-1079.174999279459
 20
-989.5749993386397
 30
0.0
 11
-1082.424999279459
 21
-969.18306862459
 31
0.0
 70
    32
  1
<>
 71
     5
 42
-1.0
 53
90.0
  3
ME10_DIM_11
100
AcDbAlignedDimension
 13
-1050.37499927946
 23
-949.5749993386363
 33
0.0
 14
-1061.368832290983
 24
-989.5749993386397
 34
0.0
 50
90.0
100
AcDbRotatedDimension
  0
DIMENSION
  5
2CC
330
6D
100
AcDbEntity
  8
1
100
AcDbDimension
  2
*D19
 10
-1045.174999279469
 20
-1012.058209747582
 30
0.0
 11
-1032.562166659013
 21
-1008.633209747582
 31
0.0
 70
    32
  1
<>
 71
     5
 42
-1.0
 53
0.00013888888889
  3
ME10_DIM_12
100
AcDbAlignedDimension
 13
-1020.074999279465
 23
-969.3249993386313
 33
0.0
 14
-1045.174999279469
 24
-991.086634583679
 34
0.0
100
AcDbRotatedDimension
  0
DIMENSION
  5
2D7
330
6D
100
AcDbEntity
  8
1
100
AcDbDimension
  2
*D20
 10
-1086.174999279459
 20
-996.4249993386458
 30
0.0
 11
-1089.599999279459
 21
-973.705606865398
 31
0.0
 70
    32
  1
<>
 71
     5
 42
-1.0
 53
90.0
  3
ME10_DIM_13
100
AcDbAlignedDimension
 13
-1057.774999279459
 23
-949.5749993386365
 33
0.0
 14
-1069.174999279459
 24
-996.4249993386458
 34
0.0
 50
90.0
100
AcDbRotatedDimension
  0
DIMENSION
  5
2E2
330
6D
100
AcDbEntity
  8
1
100
AcDbDimension
  2
*D21
 10
-1069.174999279459
 20
-1020.424999338646
 30
0.0
 11
-1045.77091217098
 21
-1016.999999338646
 31
0.0
 70
    32
  1
<>
 71
     5
 42
-1.0
 53
0.00013888888889
  3
ME10_DIM_14
100
AcDbAlignedDimension
 13
-1020.074999279465
 23
-969.3249993386313
 33
0.0
 14
-1069.174999279459
 24
-996.4249993386458
 34
0.0
100
AcDbRotatedDimension
  0
DIMENSION
  5
2ED
330
6D
100
AcDbEntity
  8
1
100
AcDbDimension
  2
*D22
 10
-1027.674999279469
 20
-1004.058209747582
 30
0.0
 11
-1037.01634634958
 21
-1000.633209747582
 31
0.0
 70
    32
  1
<>
 71
     5
 42
-1.0
 53
0.00013888888889
  3
ME10_DIM_15
100
AcDbAlignedDimension
 13
-1045.174999279469
 23
-991.086634583679
 33
0.0
 14
-1027.674999279469
 24
-989.5749993386389
 34
0.0
100
AcDbRotatedDimension
  0
ENDBLK
  5
70
330
6D
100
AcDbEntity
  8
0
100
AcDbBlockEnd
  0
BLOCK
  5
72
330
71
100
AcDbEntity
  8
0
100
AcDbBlockBegin
  2
_rahmen
 70
     0
 10
-872.1931343932002
 20
-1115.22782908762
 30
0.0
  3
_rahmen
  1

  0
LINE
  5
2EE
330
71
100
AcDbEntity
  8
1
  6
DOT_CENTER
 62
     2
100
AcDbLine
 10
-997.7512840333877
 20
-1089.10282908762
 30
0.0
 11
-992.2512840333877
 21
-1089.10282908762
 31
0.0
  0
LINE
  5
2EF
330
71
100
AcDbEntity
  8
1
  6
PHANTOM
 62
     2
100
AcDbLine
 10
-989.0012840333877
 20
-1086.35282908762
 30
0.0
 11
-989.0012840333877
 21
-1091.85282908762
 31
0.0
  0
LINE
  5
2F0
330
71
100
AcDbEntity
  8
1
  6
PHANTOM
 62
     2
100
AcDbLine
 10
-986.2512840333877
 20
-1089.10282908762
 30
0.0
 11
-991.7512840333877
 21
-1089.10282908762
 31
0.0
  0
LINE
  5
2F1
330
71
100
AcDbEntity
  8
1
  6
Continuous
 62
     7
100
AcDbLine
 10
-937.4379389199503
 20
-1101.72782908762
 30
0.0
 11
-937.4379389199503
 21
-1093.22782908762
 31
0.0
  0
LINE
  5
2F2
330
71
100
AcDbEntity
  8
1
  6
Continuous
 62
     6
100
AcDbLine
 10
-965.3379389199504
 20
-1093.22782908762
 30
0.0
 11
-872.1931343931985
 21
-1093.22782908762
 31
0.0
  0
LINE
  5
2F3
330
71
100
AcDbEntity
  8
1
  6
Continuous
 62
     7
100
AcDbLine
 10
-1001.73793891995
 20
-1093.22782908762
 30
0.0
 11
-1001.73793891995
 21
-1084.72782908762
 31
0.0
  0
LINE
  5
2F4
330
71
100
AcDbEntity
  8
1
  6
Continuous
 62
     7
100
AcDbLine
 10
-965.3379389199504
 20
-1093.22782908762
 30
0.0
 11
-965.3379389199504
 21
-1084.72782908762
 31
0.0
  0
LINE
  5
2F5
330
71
100
AcDbEntity
  8
1
  6
Continuous
 62
     7
100
AcDbLine
 10
-907.6115426748773
 20
-1084.72782908762
 30
0.0
 11
-907.6115426748773
 21
-1093.22782908762
 31
0.0
  0
LINE
  5
2F6
330
71
100
AcDbEntity
  8
1
  6
Continuous
 62
     7
100
AcDbLine
 10
-881.1115426748778
 20
-1084.72782908762
 30
0.0
 11
-881.1115426748778
 21
-1093.22782908762
 31
0.0
  0
LINE
  5
2F7
330
71
100
AcDbEntity
  8
1
  6
Continuous
 62
     6
100
AcDbLine
 10
-1070.73793891995
 20
-1110.22782908762
 30
0.0
 11
-1115.6931343932
 21
-1110.22782908762
 31
0.0
  0
LINE
  5
2F8
330
71
100
AcDbEntity
  8
1
  6
Continuous
 62
     7
100
AcDbLine
 10
-872.193134393199
 20
-1101.72782908762
 30
0.0
 11
-965.3379389199504
 21
-1101.72782908762
 31
0.0
  0
LINE
  5
2F9
102
{ACAD_REACTORS
330
40B
330
40C
102
}
330
71
100
AcDbEntity
  8
0
  6
Continuous
 62
     2
100
AcDbLine
 10
-988.0305099781829
 20
-1100.927539971957
 30
0.0
 11
-988.0305099781829
 21
-1100.055022965153
 31
0.0
  0
LINE
  5
2FA
102
{ACAD_REACTORS
330
40B
330
40C
102
}
330
71
100
AcDbEntity
  8
0
  6
Continuous
 62
     2
100
AcDbLine
 10
-988.0305099781829
 20
-1101.88730867944
 30
0.0
 11
-988.0305099781829
 21
-1102.759825686243
 31
0.0
  0
LINE
  5
2FB
102
{ACAD_REACTORS
330
40D
330
40E
102
}
330
71
100
AcDbEntity
  8
0
  6
Continuous
 62
     2
100
AcDbLine
 10
-972.6974658418924
 20
-1100.665784869916
 30
0.0
 11
-971.5938265423242
 21
-1100.665784869916
 31
0.0
  0
LINE
  5
2FC
102
{ACAD_REACTORS
330
40D
330
40E
102
}
330
71
100
AcDbEntity
  8
0
  6
Continuous
 62
     2
100
AcDbLine
 10
-971.927808498931
 20
-1101.88730867944
 30
0.0
 11
-971.927808498931
 21
-1102.759825686243
 31
0.0
  0
LINE
  5
2FD
102
{ACAD_REACTORS
330
417
330
418
102
}
330
71
100
AcDbEntity
  8
0
  6
Continuous
 62
     2
100
AcDbLine
 10
-973.7885651143108
 20
-1099.575138611429
 30
0.0
 11
-972.3906120673705
 21
-1097.994279617655
 31
0.0
  0
LINE
  5
2FE
102
{ACAD_REACTORS
330
417
330
418
102
}
330
71
100
AcDbEntity
  8
0
  6
Continuous
 62
     2
100
AcDbLine
 10
-973.6931416981381
 20
-1096.521329087618
 30
0.0
 11
-972.3906120673705
 21
-1097.994279617655
 31
0.0
  0
LINE
  5
2FF
102
{ACAD_REACTORS
330
417
330
418
102
}
330
71
100
AcDbEntity
  8
0
  6
Continuous
 62
     2
100
AcDbLine
 10
-971.0880824366042
 20
-1096.521329087618
 30
0.0
 11
-969.6853582188569
 21
-1096.521329087618
 31
0.0
  0
LINE
  5
300
102
{ACAD_REACTORS
330
417
330
418
102
}
330
71
100
AcDbEntity
  8
0
  6
Continuous
 62
     2
100
AcDbLine
 10
-972.3858408965626
 20
-1099.575138611429
 30
0.0
 11
-971.6892499584969
 21
-1098.787406826136
 31
0.0
  0
LINE
  5
301
102
{ACAD_REACTORS
330
417
330
418
102
}
330
71
100
AcDbEntity
  8
0
  6
Continuous
 62
     2
100
AcDbLine
 10
-972.3858408965626
 20
-1099.575138611429
 30
0.0
 11
-973.7885651143108
 21
-1099.575138611429
 31
0.0
  0
LINE
  5
302
102
{ACAD_REACTORS
330
419
330
41A
102
}
330
71
100
AcDbEntity
  8
0
  6
Continuous
 62
     2
100
AcDbLine
 10
-973.9078443845277
 20
-1099.575138611429
 30
0.0
 11
-975.1483487947806
 21
-1099.575138611429
 31
0.0
  0
LINE
  5
303
102
{ACAD_REACTORS
330
41B
330
41C
102
}
330
71
100
AcDbEntity
  8
0
  6
Continuous
 62
     2
100
AcDbLine
 10
-976.0163284029358
 20
-1101.712805278079
 30
0.0
 11
-976.3164936401258
 21
-1100.944990312092
 31
0.0
  0
LINE
  5
304
102
{ACAD_REACTORS
330
41B
330
41C
102
}
330
71
100
AcDbEntity
  8
0
  6
Continuous
 62
     2
100
AcDbLine
 10
-976.6166588773183
 20
-1101.712805278079
 30
0.0
 11
-976.0163284029358
 21
-1101.712805278079
 31
0.0
  0
LINE
  5
305
102
{ACAD_REACTORS
330
41B
330
41C
102
}
330
71
100
AcDbEntity
  8
0
  6
Continuous
 62
     2
100
AcDbLine
 10
-978.334698892192
 20
-1102.934329087604
 30
0.0
 11
-977.0941944819391
 21
-1102.934329087604
 31
0.0
  0
LINE
  5
306
102
{ACAD_REACTORS
330
41B
330
41C
102
}
330
71
100
AcDbEntity
  8
0
  6
Continuous
 62
     2
100
AcDbLine
 10
-976.9367458452527
 20
-1099.880519563793
 30
0.0
 11
-975.696241435
 21
-1099.880519563793
 31
0.0
  0
LINE
  5
307
102
{ACAD_REACTORS
330
41B
330
41C
102
}
330
71
100
AcDbEntity
  8
0
  6
Continuous
 62
     2
100
AcDbLine
 10
-975.696241435
 20
-1099.880519563793
 30
0.0
 11
-974.2982883880597
 21
-1102.934329087604
 31
0.0
  0
LINE
  5
308
102
{ACAD_REACTORS
330
41B
330
41C
102
}
330
71
100
AcDbEntity
  8
0
  6
Continuous
 62
     2
100
AcDbLine
 10
-975.5387927983137
 20
-1102.934329087604
 30
0.0
 11
-975.7502728517894
 21
-1102.393368543386
 31
0.0
  0
LINE
  5
309
102
{ACAD_REACTORS
330
41D
330
41E
102
}
330
71
100
AcDbEntity
  8
0
  6
Continuous
 62
     2
100
AcDbLine
 10
-979.6811119938997
 20
-1102.934329087604
 30
0.0
 11
-978.4883192917332
 21
-1102.934329087604
 31
0.0
  0
LINE
  5
30A
102
{ACAD_REACTORS
330
41D
330
41E
102
}
330
71
100
AcDbEntity
  8
0
  6
Continuous
 62
     2
100
AcDbLine
 10
-979.6811119938997
 20
-1100.665784869916
 30
0.0
 11
-979.6811119938997
 21
-1102.934329087604
 31
0.0
  0
LINE
  5
30B
102
{ACAD_REACTORS
330
41D
330
41E
102
}
330
71
100
AcDbEntity
  8
0
  6
Continuous
 62
     2
100
AcDbLine
 10
-980.4922110313743
 20
-1099.880519563793
 30
0.0
 11
-980.4922110313743
 21
-1100.665784869916
 31
0.0
  0
LINE
  5
30C
102
{ACAD_REACTORS
330
41F
330
420
102
}
330
71
100
AcDbEntity
  8
0
  6
Continuous
 62
     2
100
AcDbLine
 10
-979.0129971498017
 20
-1099.575138611429
 30
0.0
 11
-977.8202044476352
 21
-1099.575138611429
 31
0.0
  0
LINE
  5
30D
102
{ACAD_REACTORS
330
41F
330
420
102
}
330
71
100
AcDbEntity
  8
0
  6
Continuous
 62
     2
100
AcDbLine
 10
-976.5797000373811
 20
-1097.830104597823
 30
0.0
 11
-977.8202044476352
 21
-1096.521329087618
 31
0.0
  0
LINE
  5
30E
102
{ACAD_REACTORS
330
41F
330
420
102
}
330
71
100
AcDbEntity
  8
0
  6
Continuous
 62
     2
100
AcDbLine
 10
-975.3869073352146
 20
-1096.521329087618
 30
0.0
 11
-976.5797000373811
 21
-1096.521329087618
 31
0.0
  0
LINE
  5
30F
102
{ACAD_REACTORS
330
41F
330
420
102
}
330
71
100
AcDbEntity
  8
0
  6
Continuous
 62
     2
100
AcDbLine
 10
-975.3869073352146
 20
-1099.575138611429
 30
0.0
 11
-975.3869073352146
 21
-1096.521329087618
 31
0.0
  0
LINE
  5
310
102
{ACAD_REACTORS
330
41F
330
420
102
}
330
71
100
AcDbEntity
  8
0
  6
Continuous
 62
     2
100
AcDbLine
 10
-976.5797000373811
 20
-1099.575138611429
 30
0.0
 11
-975.3869073352146
 21
-1099.575138611429
 31
0.0
  0
LINE
  5
311
102
{ACAD_REACTORS
330
41F
330
420
102
}
330
71
100
AcDbEntity
  8
0
  6
Continuous
 62
     2
100
AcDbLine
 10
-977.8202044476352
 20
-1098.266363101225
 30
0.0
 11
-976.5797000373811
 21
-1099.575138611429
 31
0.0
  0
LINE
  5
312
102
{ACAD_REACTORS
330
421
330
422
102
}
330
71
100
AcDbEntity
  8
0
  6
Continuous
 62
     2
100
AcDbLine
 10
-981.8281388578009
 20
-1101.189295073998
 30
0.0
 11
-983.0686432680537
 21
-1099.880519563793
 31
0.0
  0
LINE
  5
313
102
{ACAD_REACTORS
330
421
330
422
102
}
330
71
100
AcDbEntity
  8
0
  6
Continuous
 62
     2
100
AcDbLine
 10
-981.8281388578009
 20
-1099.880519563793
 30
0.0
 11
-981.8281388578009
 21
-1101.189295073998
 31
0.0
  0
LINE
  5
314
102
{ACAD_REACTORS
330
421
330
422
102
}
330
71
100
AcDbEntity
  8
0
  6
Continuous
 62
     2
100
AcDbLine
 10
-980.6353461556345
 20
-1099.880519563793
 30
0.0
 11
-981.8281388578009
 21
-1099.880519563793
 31
0.0
  0
LINE
  5
315
102
{ACAD_REACTORS
330
421
330
422
102
}
330
71
100
AcDbEntity
  8
0
  6
Continuous
 62
     2
100
AcDbLine
 10
-980.6353461556345
 20
-1102.934329087604
 30
0.0
 11
-980.6353461556345
 21
-1099.880519563793
 31
0.0
  0
LINE
  5
316
102
{ACAD_REACTORS
330
421
330
422
102
}
330
71
100
AcDbEntity
  8
0
  6
Continuous
 62
     2
100
AcDbLine
 10
-983.0686432680537
 20
-1101.625553577399
 30
0.0
 11
-981.8281388578009
 21
-1102.934329087604
 31
0.0
  0
LINE
  5
317
102
{ACAD_REACTORS
330
421
330
422
102
}
330
71
100
AcDbEntity
  8
0
  6
Continuous
 62
     2
100
AcDbLine
 10
-983.0686432680537
 20
-1102.934329087604
 30
0.0
 11
-983.0686432680537
 21
-1101.625553577399
 31
0.0
  0
LINE
  5
318
102
{ACAD_REACTORS
330
411
330
412
102
}
330
71
100
AcDbEntity
  8
0
  6
Continuous
 62
     2
100
AcDbLine
 10
-980.5874835166622
 20
-1097.219342693061
 30
0.0
 11
-979.2515556902346
 21
-1097.219342693061
 31
0.0
  0
LINE
  5
319
102
{ACAD_REACTORS
330
411
330
412
102
}
330
71
100
AcDbEntity
  8
0
  6
Continuous
 62
     2
100
AcDbLine
 10
-980.5874835166622
 20
-1098.877125005987
 30
0.0
 11
-980.5874835166622
 21
-1098.397240652245
 31
0.0
  0
LINE
  5
31A
102
{ACAD_REACTORS
330
411
330
412
102
}
330
71
100
AcDbEntity
  8
0
  6
Continuous
 62
     2
100
AcDbLine
 10
-979.2515556902346
 20
-1098.877125005987
 30
0.0
 11
-980.5874835166622
 21
-1098.877125005987
 31
0.0
  0
LINE
  5
31B
102
{ACAD_REACTORS
330
411
330
412
102
}
330
71
100
AcDbEntity
  8
0
  6
Continuous
 62
     2
100
AcDbLine
 10
-979.2515556902346
 20
-1099.575138611429
 30
0.0
 11
-979.2515556902346
 21
-1098.877125005987
 31
0.0
  0
LINE
  5
31C
102
{ACAD_REACTORS
330
411
330
412
102
}
330
71
100
AcDbEntity
  8
0
  6
Continuous
 62
     2
100
AcDbLine
 10
-982.4018754140155
 20
-1099.575138611429
 30
0.0
 11
-979.2515556902346
 21
-1099.575138611429
 31
0.0
  0
LINE
  5
31D
102
{ACAD_REACTORS
330
411
330
412
102
}
330
71
100
AcDbEntity
  8
0
  6
Continuous
 62
     2
100
AcDbLine
 10
-982.4018754140155
 20
-1096.521329087618
 30
0.0
 11
-979.2515556902346
 21
-1096.521329087618
 31
0.0
  0
LINE
  5
31E
102
{ACAD_REACTORS
330
411
330
412
102
}
330
71
100
AcDbEntity
  8
0
  6
Continuous
 62
     2
100
AcDbLine
 10
-979.2515556902346
 20
-1097.219342693061
 30
0.0
 11
-979.2515556902346
 21
-1096.521329087618
 31
0.0
  0
LINE
  5
31F
102
{ACAD_REACTORS
330
423
330
424
102
}
330
71
100
AcDbEntity
  8
0
  6
Continuous
 62
     2
100
AcDbLine
 10
-985.2632309091556
 20
-1097.590162420953
 30
0.0
 11
-985.2632309091556
 21
-1096.521329087618
 31
0.0
  0
LINE
  5
320
102
{ACAD_REACTORS
330
423
330
424
102
}
330
71
100
AcDbEntity
  8
0
  6
Continuous
 62
     2
100
AcDbLine
 10
-985.2632309091556
 20
-1096.521329087618
 30
0.0
 11
-984.0704382069891
 21
-1096.521329087618
 31
0.0
  0
LINE
  5
321
102
{ACAD_REACTORS
330
423
330
424
102
}
330
71
100
AcDbEntity
  8
0
  6
Continuous
 62
     2
100
AcDbLine
 10
-985.2632309091556
 20
-1098.440866502586
 30
0.0
 11
-986.312888487063
 21
-1098.440866502586
 31
0.0
  0
LINE
  5
322
102
{ACAD_REACTORS
330
423
330
424
102
}
330
71
100
AcDbEntity
  8
0
  6
Continuous
 62
     2
100
AcDbLine
 10
-986.312888487063
 20
-1098.440866502586
 30
0.0
 11
-986.312888487063
 21
-1099.575138611429
 31
0.0
  0
LINE
  5
323
102
{ACAD_REACTORS
330
423
330
424
102
}
330
71
100
AcDbEntity
  8
0
  6
Continuous
 62
     2
100
AcDbLine
 10
-987.5056811892297
 20
-1096.521329087618
 30
0.0
 11
-987.5056811892297
 21
-1099.575138611429
 31
0.0
  0
LINE
  5
324
102
{ACAD_REACTORS
330
415
330
416
102
}
330
71
100
AcDbEntity
  8
0
  6
Continuous
 62
     2
100
AcDbLine
 10
-989.4618612207832
 20
-1097.890162582401
 30
0.0
 11
-989.4618612207832
 21
-1097.184434933058
 31
0.0
  0
LINE
  5
325
102
{ACAD_REACTORS
330
415
330
416
102
}
330
71
100
AcDbEntity
  8
0
  6
Continuous
 62
     2
100
AcDbLine
 10
-990.7023656310373
 20
-1099.575138611429
 30
0.0
 11
-989.4618612207832
 21
-1099.575138611429
 31
0.0
  0
LINE
  5
326
102
{ACAD_REACTORS
330
415
330
416
102
}
330
71
100
AcDbEntity
  8
0
  6
Continuous
 62
     2
100
AcDbLine
 10
-989.4618612207832
 20
-1099.575138611429
 30
0.0
 11
-989.4618612207832
 21
-1098.632060370286
 31
0.0
  0
LINE
  5
327
102
{ACAD_REACTORS
330
40F
330
410
102
}
330
71
100
AcDbEntity
  8
0
  6
Continuous
 62
     2
100
AcDbLine
 10
-995.0073114802487
 20
-1102.221773532047
 30
0.0
 11
-996.4831447412583
 21
-1102.221773532047
 31
0.0
  0
LINE
  5
328
102
{ACAD_REACTORS
330
40F
330
410
102
}
330
71
100
AcDbEntity
  8
0
  6
Continuous
 62
     2
100
AcDbLine
 10
-997.5012840333877
 20
-1096.94557370302
 30
0.0
 11
-997.5012840333877
 21
-1102.51008447222
 31
0.0
  0
LINE
  5
329
102
{ACAD_REACTORS
330
40F
330
410
102
}
330
71
100
AcDbEntity
  8
0
  6
Continuous
 62
     2
100
AcDbLine
 10
-997.0770394180049
 20
-1096.521329087636
 30
0.0
 11
-991.6037273272881
 21
-1096.521329087636
 31
0.0
  0
LINE
  5
32A
102
{ACAD_REACTORS
330
40F
330
410
102
}
330
71
100
AcDbEntity
  8
0
  6
Continuous
 62
     2
100
AcDbLine
 10
-991.1794827119041
 20
-1096.94557370302
 30
0.0
 11
-991.1794827119041
 21
-1102.51008447222
 31
0.0
  0
LINE
  5
32B
102
{ACAD_REACTORS
330
40F
330
410
102
}
330
71
100
AcDbEntity
  8
0
  6
Continuous
 62
     2
100
AcDbLine
 10
-991.6037273272881
 20
-1102.934329087604
 30
0.0
 11
-997.0770394180049
 21
-1102.934329087604
 31
0.0
  0
LINE
  5
32C
102
{ACAD_REACTORS
330
40F
330
410
102
}
330
71
100
AcDbEntity
  8
0
  6
Continuous
 62
     2
100
AcDbLine
 10
-994.6915945571722
 20
-1101.90605660897
 30
0.0
 11
-994.6915945571722
 21
-1100.375285677439
 31
0.0
  0
LINE
  5
32D
102
{ACAD_REACTORS
330
40F
330
410
102
}
330
71
100
AcDbEntity
  8
0
  6
Continuous
 62
     2
100
AcDbLine
 10
-994.6915945571722
 20
-1098.153626185313
 30
0.0
 11
-994.6915945571722
 21
-1097.549601566253
 31
0.0
  0
LINE
  5
32E
102
{ACAD_REACTORS
330
40F
330
410
102
}
330
71
100
AcDbEntity
  8
0
  6
Continuous
 62
     2
100
AcDbLine
 10
-996.4831447412583
 20
-1097.233884643177
 30
0.0
 11
-995.0073114802487
 21
-1097.233884643177
 31
0.0
  0
LINE
  5
32F
102
{ACAD_REACTORS
330
40F
330
410
102
}
330
71
100
AcDbEntity
  8
0
  6
Continuous
 62
     2
100
AcDbLine
 10
-996.798861664334
 20
-1097.549601566253
 30
0.0
 11
-996.798861664334
 21
-1101.90605660897
 31
0.0
  0
LINE
  5
330
102
{ACAD_REACTORS
330
415
330
416
102
}
330
71
100
AcDbEntity
  8
0
  6
Continuous
 62
     2
100
AcDbLine
 10
-989.4618612207832
 20
-1098.632060370286
 30
0.0
 11
-988.7030936330029
 21
-1098.632060370286
 31
0.0
  0
LINE
  5
331
102
{ACAD_REACTORS
330
415
330
416
102
}
330
71
100
AcDbEntity
  8
0
  6
Continuous
 62
     2
100
AcDbLine
 10
-990.7023656310373
 20
-1096.521329087618
 30
0.0
 11
-988.7030936330029
 21
-1096.521329087618
 31
0.0
  0
LINE
  5
332
102
{ACAD_REACTORS
330
415
330
416
102
}
330
71
100
AcDbEntity
  8
0
  6
Continuous
 62
     2
100
AcDbLine
 10
-990.7023656310373
 20
-1096.521329087618
 30
0.0
 11
-990.7023656310373
 21
-1099.575138611429
 31
0.0
  0
LINE
  5
333
102
{ACAD_REACTORS
330
415
330
416
102
}
330
71
100
AcDbEntity
  8
0
  6
Continuous
 62
     2
100
AcDbLine
 10
-989.4618612207832
 20
-1097.890162582401
 30
0.0
 11
-989.1445661592413
 21
-1097.890162582401
 31
0.0
  0
LINE
  5
334
102
{ACAD_REACTORS
330
415
330
416
102
}
330
71
100
AcDbEntity
  8
0
  6
Continuous
 62
     2
100
AcDbLine
 10
-989.4618612207832
 20
-1097.184434933058
 30
0.0
 11
-989.1445661592413
 21
-1097.184434933058
 31
0.0
  0
LINE
  5
335
102
{ACAD_REACTORS
330
423
330
424
102
}
330
71
100
AcDbEntity
  8
0
  6
Continuous
 62
     2
100
AcDbLine
 10
-986.312888487063
 20
-1097.590162420953
 30
0.0
 11
-985.2632309091556
 21
-1097.590162420953
 31
0.0
  0
LINE
  5
336
102
{ACAD_REACTORS
330
423
330
424
102
}
330
71
100
AcDbEntity
  8
0
  6
Continuous
 62
     2
100
AcDbLine
 10
-986.312888487063
 20
-1096.521329087618
 30
0.0
 11
-986.312888487063
 21
-1097.590162420953
 31
0.0
  0
LINE
  5
337
102
{ACAD_REACTORS
330
423
330
424
102
}
330
71
100
AcDbEntity
  8
0
  6
Continuous
 62
     2
100
AcDbLine
 10
-987.5056811892297
 20
-1096.521329087618
 30
0.0
 11
-986.312888487063
 21
-1096.521329087618
 31
0.0
  0
LINE
  5
338
102
{ACAD_REACTORS
330
423
330
424
102
}
330
71
100
AcDbEntity
  8
0
  6
Continuous
 62
     2
100
AcDbLine
 10
-986.312888487063
 20
-1099.575138611429
 30
0.0
 11
-987.5056811892297
 21
-1099.575138611429
 31
0.0
  0
LINE
  5
339
102
{ACAD_REACTORS
330
423
330
424
102
}
330
71
100
AcDbEntity
  8
0
  6
Continuous
 62
     2
100
AcDbLine
 10
-985.2632309091556
 20
-1099.575138611429
 30
0.0
 11
-985.2632309091556
 21
-1098.440866502586
 31
0.0
  0
LINE
  5
33A
102
{ACAD_REACTORS
330
423
330
424
102
}
330
71
100
AcDbEntity
  8
0
  6
Continuous
 62
     2
100
AcDbLine
 10
-984.0704382069891
 20
-1099.575138611429
 30
0.0
 11
-985.2632309091556
 21
-1099.575138611429
 31
0.0
  0
LINE
  5
33B
102
{ACAD_REACTORS
330
423
330
424
102
}
330
71
100
AcDbEntity
  8
0
  6
Continuous
 62
     2
100
AcDbLine
 10
-984.0704382069891
 20
-1096.521329087618
 30
0.0
 11
-984.0704382069891
 21
-1099.575138611429
 31
0.0
  0
LINE
  5
33C
102
{ACAD_REACTORS
330
411
330
412
102
}
330
71
100
AcDbEntity
  8
0
  6
Continuous
 62
     2
100
AcDbLine
 10
-980.5874835166622
 20
-1098.397240652245
 30
0.0
 11
-979.2515556902346
 21
-1098.397240652245
 31
0.0
  0
LINE
  5
33D
102
{ACAD_REACTORS
330
411
330
412
102
}
330
71
100
AcDbEntity
  8
0
  6
Continuous
 62
     2
100
AcDbLine
 10
-979.2515556902346
 20
-1098.397240652245
 30
0.0
 11
-979.2515556902346
 21
-1097.699227046803
 31
0.0
  0
LINE
  5
33E
102
{ACAD_REACTORS
330
411
330
412
102
}
330
71
100
AcDbEntity
  8
0
  6
Continuous
 62
     2
100
AcDbLine
 10
-979.2515556902346
 20
-1097.699227046803
 30
0.0
 11
-980.5874835166622
 21
-1097.699227046803
 31
0.0
  0
LINE
  5
33F
102
{ACAD_REACTORS
330
411
330
412
102
}
330
71
100
AcDbEntity
  8
0
  6
Continuous
 62
     2
100
AcDbLine
 10
-980.5874835166622
 20
-1097.699227046803
 30
0.0
 11
-980.5874835166622
 21
-1097.219342693061
 31
0.0
  0
LINE
  5
340
102
{ACAD_REACTORS
330
421
330
422
102
}
330
71
100
AcDbEntity
  8
0
  6
Continuous
 62
     2
100
AcDbLine
 10
-984.2614359702213
 20
-1102.934329087604
 30
0.0
 11
-983.0686432680537
 21
-1102.934329087604
 31
0.0
  0
LINE
  5
341
102
{ACAD_REACTORS
330
421
330
422
102
}
330
71
100
AcDbEntity
  8
0
  6
Continuous
 62
     2
100
AcDbLine
 10
-981.8281388578009
 20
-1102.934329087604
 30
0.0
 11
-980.6353461556345
 21
-1102.934329087604
 31
0.0
  0
LINE
  5
342
102
{ACAD_REACTORS
330
421
330
422
102
}
330
71
100
AcDbEntity
  8
0
  6
Continuous
 62
     2
100
AcDbLine
 10
-983.0686432680537
 20
-1099.880519563793
 30
0.0
 11
-984.2614359702213
 21
-1099.880519563793
 31
0.0
  0
LINE
  5
343
102
{ACAD_REACTORS
330
421
330
422
102
}
330
71
100
AcDbEntity
  8
0
  6
Continuous
 62
     2
100
AcDbLine
 10
-984.2614359702213
 20
-1099.880519563793
 30
0.0
 11
-984.2614359702213
 21
-1102.934329087604
 31
0.0
  0
LINE
  5
344
102
{ACAD_REACTORS
330
41F
330
420
102
}
330
71
100
AcDbEntity
  8
0
  6
Continuous
 62
     2
100
AcDbLine
 10
-976.5797000373811
 20
-1096.521329087618
 30
0.0
 11
-976.5797000373811
 21
-1097.830104597823
 31
0.0
  0
LINE
  5
345
102
{ACAD_REACTORS
330
41F
330
420
102
}
330
71
100
AcDbEntity
  8
0
  6
Continuous
 62
     2
100
AcDbLine
 10
-977.8202044476352
 20
-1096.521329087618
 30
0.0
 11
-979.0129971498017
 21
-1096.521329087618
 31
0.0
  0
LINE
  5
346
102
{ACAD_REACTORS
330
41F
330
420
102
}
330
71
100
AcDbEntity
  8
0
  6
Continuous
 62
     2
100
AcDbLine
 10
-979.0129971498017
 20
-1096.521329087618
 30
0.0
 11
-979.0129971498017
 21
-1099.575138611429
 31
0.0
  0
LINE
  5
347
102
{ACAD_REACTORS
330
41F
330
420
102
}
330
71
100
AcDbEntity
  8
0
  6
Continuous
 62
     2
100
AcDbLine
 10
-977.8202044476352
 20
-1099.575138611429
 30
0.0
 11
-977.8202044476352
 21
-1098.266363101225
 31
0.0
  0
LINE
  5
348
102
{ACAD_REACTORS
330
41D
330
41E
102
}
330
71
100
AcDbEntity
  8
0
  6
Continuous
 62
     2
100
AcDbLine
 10
-978.4883192917332
 20
-1102.934329087604
 30
0.0
 11
-978.4883192917332
 21
-1100.665784869916
 31
0.0
  0
LINE
  5
349
102
{ACAD_REACTORS
330
41D
330
41E
102
}
330
71
100
AcDbEntity
  8
0
  6
Continuous
 62
     2
100
AcDbLine
 10
-978.4883192917332
 20
-1100.665784869916
 30
0.0
 11
-977.6772202542606
 21
-1100.665784869916
 31
0.0
  0
LINE
  5
34A
102
{ACAD_REACTORS
330
41D
330
41E
102
}
330
71
100
AcDbEntity
  8
0
  6
Continuous
 62
     2
100
AcDbLine
 10
-977.6772202542606
 20
-1100.665784869916
 30
0.0
 11
-977.6772202542606
 21
-1099.880519563793
 31
0.0
  0
LINE
  5
34B
102
{ACAD_REACTORS
330
41D
330
41E
102
}
330
71
100
AcDbEntity
  8
0
  6
Continuous
 62
     2
100
AcDbLine
 10
-977.6772202542606
 20
-1099.880519563793
 30
0.0
 11
-980.4922110313743
 21
-1099.880519563793
 31
0.0
  0
LINE
  5
34C
102
{ACAD_REACTORS
330
41D
330
41E
102
}
330
71
100
AcDbEntity
  8
0
  6
Continuous
 62
     2
100
AcDbLine
 10
-980.4922110313743
 20
-1100.665784869916
 30
0.0
 11
-979.6811119938997
 21
-1100.665784869916
 31
0.0
  0
LINE
  5
34D
102
{ACAD_REACTORS
330
41B
330
41C
102
}
330
71
100
AcDbEntity
  8
0
  6
Continuous
 62
     2
100
AcDbLine
 10
-976.8827144284633
 20
-1102.393368543386
 30
0.0
 11
-975.7502728517894
 21
-1102.393368543386
 31
0.0
  0
LINE
  5
34E
102
{ACAD_REACTORS
330
41B
330
41C
102
}
330
71
100
AcDbEntity
  8
0
  6
Continuous
 62
     2
100
AcDbLine
 10
-974.2982883880597
 20
-1102.934329087604
 30
0.0
 11
-975.5387927983137
 21
-1102.934329087604
 31
0.0
  0
LINE
  5
34F
102
{ACAD_REACTORS
330
41B
330
41C
102
}
330
71
100
AcDbEntity
  8
0
  6
Continuous
 62
     2
100
AcDbLine
 10
-976.9367458452527
 20
-1099.880519563793
 30
0.0
 11
-978.334698892192
 21
-1102.934329087604
 31
0.0
  0
LINE
  5
350
102
{ACAD_REACTORS
330
41B
330
41C
102
}
330
71
100
AcDbEntity
  8
0
  6
Continuous
 62
     2
100
AcDbLine
 10
-977.0941944819391
 20
-1102.934329087604
 30
0.0
 11
-976.8827144284633
 21
-1102.393368543386
 31
0.0
  0
LINE
  5
351
102
{ACAD_REACTORS
330
41B
330
41C
102
}
330
71
100
AcDbEntity
  8
0
  6
Continuous
 62
     2
100
AcDbLine
 10
-976.6166588773183
 20
-1101.712805278079
 30
0.0
 11
-976.3164936401258
 21
-1100.944990312092
 31
0.0
  0
LINE
  5
352
102
{ACAD_REACTORS
330
419
330
41A
102
}
330
71
100
AcDbEntity
  8
0
  6
Continuous
 62
     2
100
AcDbLine
 10
-975.1483487947806
 20
-1099.575138611429
 30
0.0
 11
-975.1483487947806
 21
-1096.521329087618
 31
0.0
  0
LINE
  5
353
102
{ACAD_REACTORS
330
419
330
41A
102
}
330
71
100
AcDbEntity
  8
0
  6
Continuous
 62
     2
100
AcDbLine
 10
-973.9078443845277
 20
-1096.521329087618
 30
0.0
 11
-973.9078443845277
 21
-1099.575138611429
 31
0.0
  0
LINE
  5
354
102
{ACAD_REACTORS
330
419
330
41A
102
}
330
71
100
AcDbEntity
  8
0
  6
Continuous
 62
     2
100
AcDbLine
 10
-975.1483487947806
 20
-1096.521329087618
 30
0.0
 11
-973.9078443845277
 21
-1096.521329087618
 31
0.0
  0
LINE
  5
355
102
{ACAD_REACTORS
330
417
330
418
102
}
330
71
100
AcDbEntity
  8
0
  6
Continuous
 62
     2
100
AcDbLine
 10
-971.6892499584969
 20
-1098.787406826136
 30
0.0
 11
-970.9926590204315
 21
-1099.575138611429
 31
0.0
  0
LINE
  5
356
102
{ACAD_REACTORS
330
417
330
418
102
}
330
71
100
AcDbEntity
  8
0
  6
Continuous
 62
     2
100
AcDbLine
 10
-970.9926590204315
 20
-1099.575138611429
 30
0.0
 11
-969.5899348026832
 21
-1099.575138611429
 31
0.0
  0
LINE
  5
357
102
{ACAD_REACTORS
330
417
330
418
102
}
330
71
100
AcDbEntity
  8
0
  6
Continuous
 62
     2
100
AcDbLine
 10
-970.9878878496235
 20
-1097.994279617655
 30
0.0
 11
-969.5899348026832
 21
-1099.575138611429
 31
0.0
  0
LINE
  5
358
102
{ACAD_REACTORS
330
417
330
418
102
}
330
71
100
AcDbEntity
  8
0
  6
Continuous
 62
     2
100
AcDbLine
 10
-970.9878878496235
 20
-1097.994279617655
 30
0.0
 11
-969.6853582188569
 21
-1096.521329087618
 31
0.0
  0
LINE
  5
359
102
{ACAD_REACTORS
330
417
330
418
102
}
330
71
100
AcDbEntity
  8
0
  6
Continuous
 62
     2
100
AcDbLine
 10
-971.6892499584969
 20
-1097.201152409174
 30
0.0
 11
-971.0880824366042
 21
-1096.521329087618
 31
0.0
  0
LINE
  5
35A
102
{ACAD_REACTORS
330
417
330
418
102
}
330
71
100
AcDbEntity
  8
0
  6
Continuous
 62
     2
100
AcDbLine
 10
-972.2904174803888
 20
-1096.521329087618
 30
0.0
 11
-971.6892499584969
 21
-1097.201152409174
 31
0.0
  0
LINE
  5
35B
102
{ACAD_REACTORS
330
417
330
418
102
}
330
71
100
AcDbEntity
  8
0
  6
Continuous
 62
     2
100
AcDbLine
 10
-972.2904174803888
 20
-1096.521329087618
 30
0.0
 11
-973.6931416981381
 21
-1096.521329087618
 31
0.0
  0
LINE
  5
35C
102
{ACAD_REACTORS
330
40D
330
40E
102
}
330
71
100
AcDbEntity
  8
0
  6
Continuous
 62
     2
100
AcDbLine
 10
-971.5938265423242
 20
-1102.934329087604
 30
0.0
 11
-970.4010338401565
 21
-1102.934329087604
 31
0.0
  0
LINE
  5
35D
102
{ACAD_REACTORS
330
40D
330
40E
102
}
330
71
100
AcDbEntity
  8
0
  6
Continuous
 62
     2
100
AcDbLine
 10
-970.4010338401565
 20
-1102.934329087604
 30
0.0
 11
-970.4010338401565
 21
-1100.665784869916
 31
0.0
  0
LINE
  5
35E
102
{ACAD_REACTORS
330
40D
330
40E
102
}
330
71
100
AcDbEntity
  8
0
  6
Continuous
 62
     2
100
AcDbLine
 10
-970.4010338401565
 20
-1100.665784869916
 30
0.0
 11
-969.5899348026832
 21
-1100.665784869916
 31
0.0
  0
LINE
  5
35F
102
{ACAD_REACTORS
330
40D
330
40E
102
}
330
71
100
AcDbEntity
  8
0
  6
Continuous
 62
     2
100
AcDbLine
 10
-969.5899348026832
 20
-1100.665784869916
 30
0.0
 11
-969.5899348026832
 21
-1099.880519563793
 31
0.0
  0
LINE
  5
360
102
{ACAD_REACTORS
330
40D
330
40E
102
}
330
71
100
AcDbEntity
  8
0
  6
Continuous
 62
     2
100
AcDbLine
 10
-972.9748803213118
 20
-1099.880519563793
 30
0.0
 11
-969.5899348026832
 21
-1099.880519563793
 31
0.0
  0
LINE
  5
361
102
{ACAD_REACTORS
330
40D
330
40E
102
}
330
71
100
AcDbEntity
  8
0
  6
Continuous
 62
     2
100
AcDbLine
 10
-971.5938265423242
 20
-1100.665784869916
 30
0.0
 11
-971.5938265423242
 21
-1102.934329087604
 31
0.0
  0
LINE
  5
362
102
{ACAD_REACTORS
330
40F
330
410
102
}
330
71
100
AcDbEntity
  8
0
  6
Continuous
 62
     2
100
AcDbLine
 10
-994.2233129778035
 20
-1100.955448938039
 30
0.0
 11
-994.2233129778035
 21
-1100.373597531344
 31
0.0
  0
LINE
  5
363
102
{ACAD_REACTORS
330
40F
330
410
102
}
330
71
100
AcDbEntity
  8
0
  6
Continuous
 62
     2
100
AcDbLine
 10
-994.2233129778035
 20
-1098.155314331408
 30
0.0
 11
-994.2233129778035
 21
-1097.549779042901
 31
0.0
  0
LINE
  5
364
330
71
100
AcDbEntity
  8
1
  6
Continuous
 62
     6
100
AcDbLine
 10
-1015.6931343932
 20
-1110.22782908762
 30
0.0
 11
-1001.73793891995
 21
-1110.22782908762
 31
0.0
  0
LINE
  5
365
330
71
100
AcDbEntity
  8
1
  6
Continuous
 62
     6
100
AcDbLine
 10
-1065.693134393201
 20
-1110.22782908762
 30
0.0
 11
-1070.73793891995
 21
-1110.22782908762
 31
0.0
  0
LINE
  5
366
330
71
100
AcDbEntity
  8
1
  6
Continuous
 62
     6
100
AcDbLine
 10
-915.6931343932002
 20
-1110.22782908762
 30
0.0
 11
-872.1931343932002
 21
-1110.22782908762
 31
0.0
  0
LINE
  5
367
330
71
100
AcDbEntity
  8
1
  6
Continuous
 62
     6
100
AcDbLine
 10
-965.6931343932002
 20
-1110.22782908762
 30
0.0
 11
-983.5379389199502
 21
-1110.22782908762
 31
0.0
  0
LINE
  5
368
330
71
100
AcDbEntity
  8
1
  6
Continuous
 62
     2
100
AcDbLine
 10
-872.1931343932002
 20
-1110.22782908762
 30
0.0
 11
-867.1931343932013
 21
-1110.22782908762
 31
0.0
  0
LINE
  5
369
330
71
100
AcDbEntity
  8
1
  6
Continuous
 62
     2
100
AcDbLine
 10
-872.1931343932002
 20
-1110.22782908762
 30
0.0
 11
-872.1931343932002
 21
-1115.22782908762
 31
0.0
  0
LINE
  5
36A
330
71
100
AcDbEntity
  8
1
  6
Continuous
 62
     6
100
AcDbLine
 10
-1001.73793891995
 20
-1093.22782908762
 30
0.0
 11
-965.3379389199504
 21
-1093.22782908762
 31
0.0
  0
LINE
  5
36B
330
71
100
AcDbEntity
  8
1
  6
Continuous
 62
     2
100
AcDbLine
 10
-867.1931343932013
 20
-1115.22782908762
 30
0.0
 11
-867.1931343932013
 21
-1110.22782908762
 31
0.0
  0
LINE
  5
36C
330
71
100
AcDbEntity
  8
1
  6
Continuous
 62
     2
100
AcDbLine
 10
-867.1931343932013
 20
-1115.22782908762
 30
0.0
 11
-872.1931343932002
 21
-1115.22782908762
 31
0.0
  0
LINE
  5
36D
330
71
100
AcDbEntity
  8
1
  6
Continuous
 62
     2
100
AcDbLine
 10
-872.1931343932002
 20
-1115.22782908762
 30
0.0
 11
-915.6931343932002
 21
-1115.22782908762
 31
0.0
  0
LINE
  5
36E
330
71
100
AcDbEntity
  8
1
  6
Continuous
 62
     6
100
AcDbLine
 10
-872.1931343931985
 20
-1093.22782908762
 30
0.0
 11
-872.1931343931993
 21
-1060.22782908762
 31
0.0
  0
LINE
  5
36F
330
71
100
AcDbEntity
  8
1
  6
Continuous
 62
     2
100
AcDbLine
 10
-867.1931343932013
 20
-905.22782908762
 30
0.0
 11
-1015.6931343932
 21
-905.22782908762
 31
0.0
  0
LINE
  5
370
330
71
100
AcDbEntity
  8
1
  6
Continuous
 62
     6
100
AcDbLine
 10
-872.1931343932013
 20
-925.22782908762
 30
0.0
 11
-1159.193134393199
 21
-925.22782908762
 31
0.0
  0
LINE
  5
371
330
71
100
AcDbEntity
  8
1
  6
Continuous
 62
     2
100
AcDbLine
 10
-872.1931343931993
 20
-1060.22782908762
 30
0.0
 11
-867.1931343932013
 21
-1060.22782908762
 31
0.0
  0
LINE
  5
372
330
71
100
AcDbEntity
  8
1
  6
Continuous
 62
     6
100
AcDbLine
 10
-872.1931343931993
 20
-1060.22782908762
 30
0.0
 11
-872.1931343931999
 21
-1010.22782908762
 31
0.0
  0
LINE
  5
373
330
71
100
AcDbEntity
  8
1
  6
Continuous
 62
     2
100
AcDbLine
 10
-867.1931343932013
 20
-1060.22782908762
 30
0.0
 11
-867.1931343932013
 21
-1010.22782908762
 31
0.0
  0
LINE
  5
374
330
71
100
AcDbEntity
  8
1
  6
Continuous
 62
     2
100
AcDbLine
 10
-872.1931343931999
 20
-1010.22782908762
 30
0.0
 11
-867.1931343932013
 21
-1010.22782908762
 31
0.0
  0
LINE
  5
375
330
71
100
AcDbEntity
  8
1
  6
Continuous
 62
     6
100
AcDbLine
 10
-872.1931343931999
 20
-1010.22782908762
 30
0.0
 11
-872.193134393201
 21
-960.22782908762
 31
0.0
  0
LINE
  5
376
330
71
100
AcDbEntity
  8
1
  6
Continuous
 62
     2
100
AcDbLine
 10
-867.1931343932013
 20
-1010.22782908762
 30
0.0
 11
-867.1931343932013
 21
-960.22782908762
 31
0.0
  0
LINE
  5
377
330
71
100
AcDbEntity
  8
1
  6
Continuous
 62
     2
100
AcDbLine
 10
-872.193134393201
 20
-960.22782908762
 30
0.0
 11
-867.1931343932013
 21
-960.22782908762
 31
0.0
  0
LINE
  5
378
330
71
100
AcDbEntity
  8
1
  6
Continuous
 62
     6
100
AcDbLine
 10
-872.193134393201
 20
-960.22782908762
 30
0.0
 11
-872.1931343932013
 21
-925.22782908762
 31
0.0
  0
LINE
  5
379
330
71
100
AcDbEntity
  8
1
  6
Continuous
 62
     2
100
AcDbLine
 10
-867.1931343932013
 20
-960.22782908762
 30
0.0
 11
-867.1931343932013
 21
-905.22782908762
 31
0.0
  0
LINE
  5
37A
330
71
100
AcDbEntity
  8
1
  6
Continuous
 62
     2
100
AcDbLine
 10
-867.1931343932013
 20
-1110.22782908762
 30
0.0
 11
-867.1931343932013
 21
-1060.22782908762
 31
0.0
  0
LINE
  5
37B
330
71
100
AcDbEntity
  8
1
  6
Continuous
 62
     2
100
AcDbLine
 10
-1015.6931343932
 20
-905.22782908762
 30
0.0
 11
-1164.193134393199
 21
-905.22782908762
 31
0.0
  0
LINE
  5
37C
330
71
100
AcDbEntity
  8
1
  6
Continuous
 62
     2
100
AcDbLine
 10
-1015.6931343932
 20
-905.22782908762
 30
0.0
 11
-1015.6931343932
 21
-914.4365209323213
 31
0.0
  0
LINE
  5
37D
330
71
100
AcDbEntity
  8
1
  6
Continuous
 62
     2
100
AcDbLine
 10
-1164.193134393199
 20
-1115.22782908762
 30
0.0
 11
-1159.193134393198
 21
-1115.22782908762
 31
0.0
  0
LINE
  5
37E
330
71
100
AcDbEntity
  8
1
  6
Continuous
 62
     2
100
AcDbLine
 10
-1164.193134393199
 20
-905.22782908762
 30
0.0
 11
-1164.193134393199
 21
-960.22782908762
 31
0.0
  0
LINE
  5
37F
330
71
100
AcDbEntity
  8
1
  6
Continuous
 62
     6
100
AcDbLine
 10
-1159.193134393199
 20
-925.22782908762
 30
0.0
 11
-1159.193134393199
 21
-960.22782908762
 31
0.0
  0
LINE
  5
380
330
71
100
AcDbEntity
  8
1
  6
Continuous
 62
     2
100
AcDbLine
 10
-1164.193134393199
 20
-960.22782908762
 30
0.0
 11
-1159.193134393199
 21
-960.22782908762
 31
0.0
  0
LINE
  5
381
330
71
100
AcDbEntity
  8
1
  6
Continuous
 62
     2
100
AcDbLine
 10
-1164.193134393199
 20
-960.22782908762
 30
0.0
 11
-1164.193134393199
 21
-1010.22782908762
 31
0.0
  0
LINE
  5
382
330
71
100
AcDbEntity
  8
1
  6
Continuous
 62
     6
100
AcDbLine
 10
-1159.193134393199
 20
-960.22782908762
 30
0.0
 11
-1159.193134393199
 21
-1010.22782908762
 31
0.0
  0
LINE
  5
383
330
71
100
AcDbEntity
  8
1
  6
Continuous
 62
     2
100
AcDbLine
 10
-1164.193134393199
 20
-1010.22782908762
 30
0.0
 11
-1159.193134393199
 21
-1010.22782908762
 31
0.0
  0
LINE
  5
384
330
71
100
AcDbEntity
  8
1
  6
Continuous
 62
     2
100
AcDbLine
 10
-1164.193134393199
 20
-1010.22782908762
 30
0.0
 11
-1164.193134393199
 21
-1060.22782908762
 31
0.0
  0
LINE
  5
385
330
71
100
AcDbEntity
  8
1
  6
Continuous
 62
     6
100
AcDbLine
 10
-1159.193134393199
 20
-1010.22782908762
 30
0.0
 11
-1159.193134393199
 21
-1060.22782908762
 31
0.0
  0
LINE
  5
386
330
71
100
AcDbEntity
  8
1
  6
Continuous
 62
     2
100
AcDbLine
 10
-1164.193134393199
 20
-1060.22782908762
 30
0.0
 11
-1159.193134393199
 21
-1060.22782908762
 31
0.0
  0
LINE
  5
387
330
71
100
AcDbEntity
  8
1
  6
Continuous
 62
     2
100
AcDbLine
 10
-1164.193134393199
 20
-1060.22782908762
 30
0.0
 11
-1164.193134393199
 21
-1110.22782908762
 31
0.0
  0
LINE
  5
388
330
71
100
AcDbEntity
  8
1
  6
Continuous
 62
     6
100
AcDbLine
 10
-1159.193134393199
 20
-1060.22782908762
 30
0.0
 11
-1159.193134393198
 21
-1110.22782908762
 31
0.0
  0
LINE
  5
389
330
71
100
AcDbEntity
  8
1
  6
Continuous
 62
     2
100
AcDbLine
 10
-1115.6931343932
 20
-1115.22782908762
 30
0.0
 11
-1115.6931343932
 21
-1110.22782908762
 31
0.0
  0
LINE
  5
38A
330
71
100
AcDbEntity
  8
1
  6
Continuous
 62
     2
100
AcDbLine
 10
-1115.6931343932
 20
-1115.22782908762
 30
0.0
 11
-1065.693134393201
 21
-1115.22782908762
 31
0.0
  0
LINE
  5
38B
330
71
100
AcDbEntity
  8
1
  6
Continuous
 62
     2
100
AcDbLine
 10
-1065.693134393201
 20
-1115.22782908762
 30
0.0
 11
-1065.693134393201
 21
-1110.22782908762
 31
0.0
  0
LINE
  5
38C
330
71
100
AcDbEntity
  8
1
  6
Continuous
 62
     2
100
AcDbLine
 10
-1065.693134393201
 20
-1115.22782908762
 30
0.0
 11
-1015.6931343932
 21
-1115.22782908762
 31
0.0
  0
LINE
  5
38D
330
71
100
AcDbEntity
  8
1
  6
Continuous
 62
     2
100
AcDbLine
 10
-1015.6931343932
 20
-1115.22782908762
 30
0.0
 11
-1015.6931343932
 21
-1110.22782908762
 31
0.0
  0
LINE
  5
38E
330
71
100
AcDbEntity
  8
1
  6
Continuous
 62
     2
100
AcDbLine
 10
-1015.6931343932
 20
-1115.22782908762
 30
0.0
 11
-965.6931343932002
 21
-1115.22782908762
 31
0.0
  0
LINE
  5
38F
330
71
100
AcDbEntity
  8
1
  6
Continuous
 62
     2
100
AcDbLine
 10
-965.6931343932002
 20
-1115.22782908762
 30
0.0
 11
-965.6931343932002
 21
-1110.22782908762
 31
0.0
  0
LINE
  5
390
330
71
100
AcDbEntity
  8
1
  6
Continuous
 62
     2
100
AcDbLine
 10
-915.6931343932002
 20
-1115.22782908762
 30
0.0
 11
-915.6931343932002
 21
-1110.22782908762
 31
0.0
  0
LINE
  5
391
330
71
100
AcDbEntity
  8
1
  6
Continuous
 62
     2
100
AcDbLine
 10
-915.6931343932002
 20
-1115.22782908762
 30
0.0
 11
-965.6931343932002
 21
-1115.22782908762
 31
0.0
  0
LINE
  5
392
330
71
100
AcDbEntity
  8
1
  6
Continuous
 62
     2
100
AcDbLine
 10
-1159.193134393198
 20
-1110.22782908762
 30
0.0
 11
-1159.193134393198
 21
-1115.22782908762
 31
0.0
  0
LINE
  5
393
330
71
100
AcDbEntity
  8
1
  6
Continuous
 62
     2
100
AcDbLine
 10
-1159.193134393198
 20
-1115.22782908762
 30
0.0
 11
-1115.6931343932
 21
-1115.22782908762
 31
0.0
  0
LINE
  5
394
330
71
100
AcDbEntity
  8
1
  6
Continuous
 62
     2
100
AcDbLine
 10
-1159.193134393198
 20
-1110.22782908762
 30
0.0
 11
-1164.193134393199
 21
-1110.22782908762
 31
0.0
  0
LINE
  5
395
330
71
100
AcDbEntity
  8
1
  6
Continuous
 62
     2
100
AcDbLine
 10
-1164.193134393199
 20
-1110.22782908762
 30
0.0
 11
-1164.193134393199
 21
-1115.22782908762
 31
0.0
  0
LINE
  5
396
330
71
100
AcDbEntity
  8
1
  6
Continuous
 62
     6
100
AcDbLine
 10
-872.1931343932002
 20
-1110.22782908762
 30
0.0
 11
-872.193134393199
 21
-1101.72782908762
 31
0.0
  0
LINE
  5
397
330
71
100
AcDbEntity
  8
1
  6
Continuous
 62
     6
100
AcDbLine
 10
-965.3379389199504
 20
-1110.22782908762
 30
0.0
 11
-915.6931343932002
 21
-1110.22782908762
 31
0.0
  0
LINE
  5
398
330
71
100
AcDbEntity
  8
1
  6
Continuous
 62
     6
100
AcDbLine
 10
-1117.993134393201
 20
-1110.22782908762
 30
0.0
 11
-1115.6931343932
 21
-1110.22782908762
 31
0.0
  0
LINE
  5
399
330
71
100
AcDbEntity
  8
1
  6
Continuous
 62
     6
100
AcDbLine
 10
-1015.6931343932
 20
-1110.22782908762
 30
0.0
 11
-1065.693134393201
 21
-1110.22782908762
 31
0.0
  0
LINE
  5
39A
330
71
100
AcDbEntity
  8
1
  6
Continuous
 62
     7
100
AcDbLine
 10
-1001.73793891995
 20
-1093.22782908762
 30
0.0
 11
-1001.73793891995
 21
-1105.97782908762
 31
0.0
  0
LINE
  5
39B
330
71
100
AcDbEntity
  8
1
  6
Continuous
 62
     7
100
AcDbLine
 10
-965.3379389199504
 20
-1093.22782908762
 30
0.0
 11
-965.3379389199504
 21
-1105.97782908762
 31
0.0
  0
LINE
  5
39C
330
71
100
AcDbEntity
  8
1
  6
Continuous
 62
     6
100
AcDbLine
 10
-1117.993134393201
 20
-1110.22782908762
 30
0.0
 11
-1124.193134393199
 21
-1110.22782908762
 31
0.0
  0
LINE
  5
39D
330
71
100
AcDbEntity
  8
1
  6
Continuous
 62
     6
100
AcDbLine
 10
-965.3379389199504
 20
-1110.22782908762
 30
0.0
 11
-965.6931343932002
 21
-1110.22782908762
 31
0.0
  0
LINE
  5
39E
330
71
100
AcDbEntity
  8
1
  6
Continuous
 62
     6
100
AcDbLine
 10
-872.1931343931985
 20
-1093.22782908762
 30
0.0
 11
-872.193134393199
 21
-1101.72782908762
 31
0.0
  0
LINE
  5
39F
330
71
100
AcDbEntity
  8
1
  6
Continuous
 62
     6
100
AcDbLine
 10
-1124.193134393199
 20
-1110.22782908762
 30
0.0
 11
-1159.193134393198
 21
-1110.22782908762
 31
0.0
  0
LINE
  5
3A0
330
71
100
AcDbEntity
  8
1
  6
Continuous
 62
     2
100
AcDbLine
 10
-997.5012840333877
 20
-1087.85282908762
 30
0.0
 11
-992.5012840333877
 21
-1086.60282908762
 31
0.0
  0
LINE
  5
3A1
330
71
100
AcDbEntity
  8
1
  6
Continuous
 62
     2
100
AcDbLine
 10
-997.5012840333877
 20
-1090.35282908762
 30
0.0
 11
-997.5012840333877
 21
-1087.85282908762
 31
0.0
  0
LINE
  5
3A2
330
71
100
AcDbEntity
  8
1
  6
Continuous
 62
     2
100
AcDbLine
 10
-992.5012840333877
 20
-1091.60282908762
 30
0.0
 11
-997.5012840333877
 21
-1090.35282908762
 31
0.0
  0
LINE
  5
3A3
330
71
100
AcDbEntity
  8
1
  6
Continuous
 62
     2
100
AcDbLine
 10
-992.5012840333877
 20
-1086.60282908762
 30
0.0
 11
-992.5012840333877
 21
-1091.60282908762
 31
0.0
  0
LINE
  5
3A4
330
71
100
AcDbEntity
  8
1
  6
Continuous
 62
     7
100
AcDbLine
 10
-1001.73793891995
 20
-1105.97782908762
 30
0.0
 11
-983.5379389199502
 21
-1105.97782908762
 31
0.0
  0
LINE
  5
3A5
330
71
100
AcDbEntity
  8
1
  6
Continuous
 62
     7
100
AcDbLine
 10
-1001.73793891995
 20
-1105.97782908762
 30
0.0
 11
-1001.73793891995
 21
-1110.22782908762
 31
0.0
  0
LINE
  5
3A6
330
71
100
AcDbEntity
  8
1
  6
Continuous
 62
     7
100
AcDbLine
 10
-965.3379389199504
 20
-1105.97782908762
 30
0.0
 11
-965.3379389199504
 21
-1110.22782908762
 31
0.0
  0
LINE
  5
3A7
330
71
100
AcDbEntity
  8
1
  6
Continuous
 62
     7
100
AcDbLine
 10
-983.5379389199502
 20
-1105.97782908762
 30
0.0
 11
-983.5379389199502
 21
-1110.22782908762
 31
0.0
  0
LINE
  5
3A8
330
71
100
AcDbEntity
  8
1
  6
Continuous
 62
     6
100
AcDbLine
 10
-983.5379389199502
 20
-1110.22782908762
 30
0.0
 11
-1001.73793891995
 21
-1110.22782908762
 31
0.0
  0
LINE
  5
3A9
330
71
100
AcDbEntity
  8
1
  6
Continuous
 62
     7
100
AcDbLine
 10
-983.5379389199502
 20
-1105.97782908762
 30
0.0
 11
-965.3379389199504
 21
-1105.97782908762
 31
0.0
  0
LINE
  5
3AA
330
71
100
AcDbEntity
  8
1
  6
Continuous
 62
     6
100
AcDbLine
 10
-1001.73793891995
 20
-1084.72782908762
 30
0.0
 11
-872.1931343931985
 21
-1084.72782908762
 31
0.0
  0
ARC
  5
3AB
102
{ACAD_REACTORS
330
413
330
414
102
}
330
71
100
AcDbEntity
  8
0
  6
Continuous
 62
     2
100
AcDbCircle
 10
-986.3462909209902
 20
-1101.407424325699
 30
0.0
 40
0.7717997786791236
100
AcDbArc
 50
321.879580202889
 51
38.12041979721731
  0
ARC
  5
3AC
102
{ACAD_REACTORS
330
413
330
414
102
}
330
71
100
AcDbEntity
  8
0
  6
Continuous
 62
     2
100
AcDbCircle
 10
-986.1465508846438
 20
-1101.564155503818
 30
0.0
 40
0.5179085730137529
100
AcDbArc
 50
218.1204197971956
 51
321.8795802027966
  0
ARC
  5
3AD
102
{ACAD_REACTORS
330
413
330
414
102
}
330
71
100
AcDbEntity
  8
0
  6
Continuous
 62
     2
100
AcDbCircle
 10
-985.9468108482978
 20
-1101.407424325699
 30
0.0
 40
0.7717997786800677
100
AcDbArc
 50
141.8795802027723
 51
218.1204197971215
  0
ARC
  5
3AE
102
{ACAD_REACTORS
330
413
330
414
102
}
330
71
100
AcDbEntity
  8
0
  6
Continuous
 62
     2
100
AcDbCircle
 10
-986.1465508846438
 20
-1101.250693147578
 30
0.0
 40
0.5179085730136636
100
AcDbArc
 50
38.1204197972034
 51
141.8795802028044
  0
ARC
  5
3AF
102
{ACAD_REACTORS
330
40B
330
40C
102
}
330
71
100
AcDbEntity
  8
0
  6
Continuous
 62
     2
100
AcDbCircle
 10
-989.2085650202077
 20
-1102.817890691107
 30
0.0
 40
2.227384008973646
100
AcDbArc
 50
58.06909105004343
 51
71.55192388187463
  0
ARC
  5
3B0
102
{ACAD_REACTORS
330
40B
330
40C
102
}
330
71
100
AcDbEntity
  8
0
  6
Continuous
 62
     2
100
AcDbCircle
 10
-988.946837319249
 20
-1101.202352896359
 30
0.0
 40
0.51158006019411
100
AcDbArc
 50
113.3722778882328
 51
151.4785267423843
  0
ARC
  5
3B1
102
{ACAD_REACTORS
330
40B
330
40C
102
}
330
71
100
AcDbEntity
  8
0
  6
Continuous
 62
     2
100
AcDbCircle
 10
-988.5694800611686
 20
-1101.407424325699
 30
0.0
 40
0.941059735333413
100
AcDbArc
 50
151.4785267422564
 51
208.521473257695
  0
ARC
  5
3B2
102
{ACAD_REACTORS
330
40B
330
40C
102
}
330
71
100
AcDbEntity
  8
0
  6
Continuous
 62
     2
100
AcDbCircle
 10
-989.3664378953007
 20
-1098.094743380442
 30
0.0
 40
4.852596863497943
100
AcDbArc
 50
275.1581447696255
 51
285.9799912583526
  0
ARC
  5
3B3
102
{ACAD_REACTORS
330
40B
330
40C
102
}
330
71
100
AcDbEntity
  8
0
  6
Continuous
 62
     2
100
AcDbCircle
 10
-989.0775818005648
 20
-1101.294633963664
 30
0.0
 40
1.639695123939306
100
AcDbArc
 50
195.061891777079
 51
275.1581447696414
  0
ARC
  5
3B4
102
{ACAD_REACTORS
330
40B
330
40C
102
}
330
71
100
AcDbEntity
  8
0
  6
Continuous
 62
     2
100
AcDbCircle
 10
-989.4967096440275
 20
-1101.407424325699
 30
0.0
 40
1.205656168391164
100
AcDbArc
 50
164.9381082228429
 51
195.0618917770736
  0
ARC
  5
3B5
102
{ACAD_REACTORS
330
40B
330
40C
102
}
330
71
100
AcDbEntity
  8
0
  6
Continuous
 62
     2
100
AcDbCircle
 10
-989.0775818005648
 20
-1101.520214687733
 30
0.0
 40
1.639695123940224
100
AcDbArc
 50
84.84185523036146
 51
164.9381082228903
  0
ARC
  5
3B6
102
{ACAD_REACTORS
330
40F
330
410
102
}
330
71
100
AcDbEntity
  8
0
  6
Continuous
 62
     2
100
AcDbCircle
 10
-993.9075960547267
 20
-1100.373597531344
 30
0.0
 40
0.3157169230761855
100
AcDbArc
 50
115.3740086783875
 51
180.0
  0
ARC
  5
3B7
102
{ACAD_REACTORS
330
40F
330
410
102
}
330
71
100
AcDbEntity
  8
0
  6
Continuous
 62
     2
100
AcDbCircle
 10
-993.9075960547267
 20
-1098.155314331408
 30
0.0
 40
0.3157169230768204
100
AcDbArc
 50
180.0
 51
244.6259913216126
  0
ARC
  5
3B8
102
{ACAD_REACTORS
330
40F
330
410
102
}
330
71
100
AcDbEntity
  8
0
  6
Continuous
 62
     2
100
AcDbCircle
 10
-993.9019799194166
 20
-1099.25261399047
 30
0.0
 40
2.018561131933152
100
AcDbArc
 50
269.8110329575842
 51
90.18896704241578
  0
ARC
  5
3B9
102
{ACAD_REACTORS
330
40F
330
410
102
}
330
71
100
AcDbEntity
  8
0
  6
Continuous
 62
     2
100
AcDbCircle
 10
-993.9075960547267
 20
-1100.955448938039
 30
0.0
 40
0.3157169230768204
100
AcDbArc
 50
180.0
 51
269.8110329574594
  0
ARC
  5
3BA
102
{ACAD_REACTORS
330
40D
330
40E
102
}
330
71
100
AcDbEntity
  8
0
  6
Continuous
 62
     2
100
AcDbCircle
 10
-972.844135839996
 20
-1101.202352896359
 30
0.0
 40
0.5115800601935467
100
AcDbArc
 50
109.337143219516
 51
151.4785267424451
  0
ARC
  5
3BB
102
{ACAD_REACTORS
330
40D
330
40E
102
}
330
71
100
AcDbEntity
  8
0
  6
Continuous
 62
     2
100
AcDbCircle
 10
-972.844135839996
 20
-1101.612495755037
 30
0.0
 40
0.5115800601959901
100
AcDbArc
 50
208.5214732576668
 51
246.6277221118395
  0
ARC
  5
3BC
102
{ACAD_REACTORS
330
40D
330
40E
102
}
330
71
100
AcDbEntity
  8
0
  6
Continuous
 62
     2
100
AcDbCircle
 10
-973.3940081647735
 20
-1101.407424325699
 30
0.0
 40
1.205656168393139
100
AcDbArc
 50
164.9381082228682
 51
195.0618917770901
  0
ARC
  5
3BD
102
{ACAD_REACTORS
330
40D
330
40E
102
}
330
71
100
AcDbEntity
  8
0
  6
Continuous
 62
     2
100
AcDbCircle
 10
-972.9748803213118
 20
-1101.520214687733
 30
0.0
 40
1.639695123939873
100
AcDbArc
 50
90.0
 51
164.9381082228985
  0
ARC
  5
3BE
102
{ACAD_REACTORS
330
411
330
412
102
}
330
71
100
AcDbEntity
  8
0
  6
Continuous
 62
     2
100
AcDbCircle
 10
-982.4018754140155
 20
-1098.048233849524
 30
0.0
 40
1.526904761906053
100
AcDbArc
 50
90.0
 51
270.0
  0
ARC
  5
3BF
102
{ACAD_REACTORS
330
415
330
416
102
}
330
71
100
AcDbEntity
  8
0
  6
Continuous
 62
     2
100
AcDbCircle
 10
-989.1445661592413
 20
-1097.537298757729
 30
0.0
 40
0.3528638246718856
100
AcDbArc
 50
270.0
 51
90.0
  0
ARC
  5
3C0
102
{ACAD_REACTORS
330
40F
330
410
102
}
330
71
100
AcDbEntity
  8
0
  6
Continuous
 62
     2
100
AcDbCircle
 10
-996.4831447412583
 20
-1097.549601566253
 30
0.0
 40
0.3157169230760246
100
AcDbArc
 50
90.0
 51
180.0
  0
ARC
  5
3C1
102
{ACAD_REACTORS
330
40F
330
410
102
}
330
71
100
AcDbEntity
  8
0
  6
Continuous
 62
     2
100
AcDbCircle
 10
-994.4847270326737
 20
-1099.264455931376
 30
0.0
 40
0.9118975235580125
100
AcDbArc
 50
115.1944106485185
 51
244.8055893514816
  0
ARC
  5
3C2
102
{ACAD_REACTORS
330
40F
330
410
102
}
330
71
100
AcDbEntity
  8
0
  6
Continuous
 62
     2
100
AcDbCircle
 10
-995.0073114802487
 20
-1100.375285677439
 30
0.0
 40
0.315716923076593
100
AcDbArc
 50
0.0
 51
64.80558935149101
  0
ARC
  5
3C3
102
{ACAD_REACTORS
330
40F
330
410
102
}
330
71
100
AcDbEntity
  8
0
  6
Continuous
 62
     2
100
AcDbCircle
 10
-997.0770394180049
 20
-1102.51008447222
 30
0.0
 40
0.4242446153828041
100
AcDbArc
 50
180.0
 51
270.0
  0
ARC
  5
3C4
102
{ACAD_REACTORS
330
411
330
412
102
}
330
71
100
AcDbEntity
  8
0
  6
Continuous
 62
     2
100
AcDbCircle
 10
-982.1856034038503
 20
-1097.891502671404
 30
0.0
 40
0.5179085730138424
100
AcDbArc
 50
38.12041979718787
 51
141.8795802028044
  0
ARC
  5
3C5
102
{ACAD_REACTORS
330
411
330
412
102
}
330
71
100
AcDbEntity
  8
0
  6
Continuous
 62
     2
100
AcDbCircle
 10
-981.9858633675041
 20
-1098.048233849524
 30
0.0
 40
0.7717997786796852
100
AcDbArc
 50
141.8795802028358
 51
218.1204197971642
  0
ARC
  5
3C6
102
{ACAD_REACTORS
330
413
330
414
102
}
330
71
100
AcDbEntity
  8
0
  6
Continuous
 62
     2
100
AcDbCircle
 10
-986.1465508846438
 20
-1100.868849315395
 30
0.0
 40
2.065479772208722
100
AcDbArc
 50
242.4518518243441
 51
297.5481481756838
  0
ARC
  5
3C7
102
{ACAD_REACTORS
330
413
330
414
102
}
330
71
100
AcDbEntity
  8
0
  6
Continuous
 62
     2
100
AcDbCircle
 10
-986.1465508846438
 20
-1101.945999336001
 30
0.0
 40
2.06547977220824
100
AcDbArc
 50
62.45185182430162
 51
117.5481481756704
  0
ARC
  5
3C8
102
{ACAD_REACTORS
330
413
330
414
102
}
330
71
100
AcDbEntity
  8
0
  6
Continuous
 62
     2
100
AcDbCircle
 10
-986.4274907764772
 20
-1101.407424325699
 30
0.0
 40
1.458034083651741
100
AcDbArc
 50
117.5481481756548
 51
242.4518518243328
  0
ARC
  5
3C9
102
{ACAD_REACTORS
330
413
330
414
102
}
330
71
100
AcDbEntity
  8
0
  6
Continuous
 62
     2
100
AcDbCircle
 10
-985.8656109928106
 20
-1101.407424325699
 30
0.0
 40
1.458034083651714
100
AcDbArc
 50
297.5481481757107
 51
62.45185182430166
  0
ARC
  5
3CA
102
{ACAD_REACTORS
330
411
330
412
102
}
330
71
100
AcDbEntity
  8
0
  6
Continuous
 62
     2
100
AcDbCircle
 10
-982.1856034038503
 20
-1098.204965027644
 30
0.0
 40
0.5179085730137529
100
AcDbArc
 50
218.1204197971956
 51
321.8795802028121
  0
ARC
  5
3CB
102
{ACAD_REACTORS
330
411
330
412
102
}
330
71
100
AcDbEntity
  8
0
  6
Continuous
 62
     2
100
AcDbCircle
 10
-982.3853434401965
 20
-1098.048233849524
 30
0.0
 40
0.7717997786796852
100
AcDbArc
 50
321.8795802028358
 51
38.12041979716419
  0
ARC
  5
3CC
102
{ACAD_REACTORS
330
40F
330
410
102
}
330
71
100
AcDbEntity
  8
0
  6
Continuous
 62
     2
100
AcDbCircle
 10
-991.6037273272881
 20
-1102.51008447222
 30
0.0
 40
0.4242446153841684
100
AcDbArc
 50
270.0
 51
0.0
  0
ARC
  5
3CD
102
{ACAD_REACTORS
330
40F
330
410
102
}
330
71
100
AcDbEntity
  8
0
  6
Continuous
 62
     2
100
AcDbCircle
 10
-991.6037273272881
 20
-1096.94557370302
 30
0.0
 40
0.424244615383941
100
AcDbArc
 50
0.0
 51
90.0
  0
ARC
  5
3CE
102
{ACAD_REACTORS
330
40F
330
410
102
}
330
71
100
AcDbEntity
  8
0
  6
Continuous
 62
     2
100
AcDbCircle
 10
-997.0770394180049
 20
-1096.94557370302
 30
0.0
 40
0.424244615383941
100
AcDbArc
 50
90.0
 51
180.0
  0
ARC
  5
3CF
102
{ACAD_REACTORS
330
40F
330
410
102
}
330
71
100
AcDbEntity
  8
0
  6
Continuous
 62
     2
100
AcDbCircle
 10
-995.0073114802487
 20
-1101.90605660897
 30
0.0
 40
0.3157169230771615
100
AcDbArc
 50
270.0
 51
0.0
  0
ARC
  5
3D0
102
{ACAD_REACTORS
330
40F
330
410
102
}
330
71
100
AcDbEntity
  8
0
  6
Continuous
 62
     2
100
AcDbCircle
 10
-995.0073114802487
 20
-1098.153626185313
 30
0.0
 40
0.3157169230764803
100
AcDbArc
 50
295.194410648509
 51
0.0
  0
ARC
  5
3D1
102
{ACAD_REACTORS
330
40F
330
410
102
}
330
71
100
AcDbEntity
  8
0
  6
Continuous
 62
     2
100
AcDbCircle
 10
-995.0073114802487
 20
-1097.549601566253
 30
0.0
 40
0.315716923076593
100
AcDbArc
 50
0.0
 51
90.0
  0
ARC
  5
3D2
102
{ACAD_REACTORS
330
40F
330
410
102
}
330
71
100
AcDbEntity
  8
0
  6
Continuous
 62
     2
100
AcDbCircle
 10
-996.4831447412583
 20
-1101.90605660897
 30
0.0
 40
0.3157169230756836
100
AcDbArc
 50
180.0
 51
270.0
  0
ARC
  5
3D3
102
{ACAD_REACTORS
330
415
330
416
102
}
330
71
100
AcDbEntity
  8
0
  6
Continuous
 62
     2
100
AcDbCircle
 10
-988.7030936330029
 20
-1097.576694728952
 30
0.0
 40
1.055365641333992
100
AcDbArc
 50
270.0
 51
90.0
  0
ARC
  5
3D4
102
{ACAD_REACTORS
330
40D
330
40E
102
}
330
71
100
AcDbEntity
  8
0
  6
Continuous
 62
     2
100
AcDbCircle
 10
-972.9748803213118
 20
-1101.294633963664
 30
0.0
 40
1.639695123940421
100
AcDbArc
 50
195.0618917771015
 51
275.1581447696774
  0
ARC
  5
3D5
102
{ACAD_REACTORS
330
40D
330
40E
102
}
330
71
100
AcDbEntity
  8
0
  6
Continuous
 62
     2
100
AcDbCircle
 10
-973.2637364160477
 20
-1098.094743380442
 30
0.0
 40
4.852596863499167
100
AcDbArc
 50
275.1581447696363
 51
285.9799912583397
  0
ARC
  5
3D6
102
{ACAD_REACTORS
330
40D
330
40E
102
}
330
71
100
AcDbEntity
  8
0
  6
Continuous
 62
     2
100
AcDbCircle
 10
-973.1058635409548
 20
-1099.99695796029
 30
0.0
 40
2.227384008973474
100
AcDbArc
 50
288.4480761181272
 51
301.9309089499373
  0
ARC
  5
3D7
102
{ACAD_REACTORS
330
40D
330
40E
102
}
330
71
100
AcDbEntity
  8
0
  6
Continuous
 62
     2
100
AcDbCircle
 10
-972.6876958072929
 20
-1101.250503736327
 30
0.0
 40
0.9059297849852503
100
AcDbArc
 50
246.6277221118135
 51
288.4480761180715
  0
ARC
  5
3D8
102
{ACAD_REACTORS
330
40D
330
40E
102
}
330
71
100
AcDbEntity
  8
0
  6
Continuous
 62
     2
100
AcDbCircle
 10
-972.4667785819147
 20
-1101.407424325699
 30
0.0
 40
0.9410597353353108
100
AcDbArc
 50
151.4785267423192
 51
208.5214732576322
  0
ARC
  5
3D9
102
{ACAD_REACTORS
330
40D
330
40E
102
}
330
71
100
AcDbEntity
  8
0
  6
Continuous
 62
     2
100
AcDbCircle
 10
-972.6974658418924
 20
-1101.620307876742
 30
0.0
 40
0.9545230068258661
100
AcDbArc
 50
90.0
 51
109.3371432194446
  0
ARC
  5
3DA
102
{ACAD_REACTORS
330
40F
330
410
102
}
330
71
100
AcDbEntity
  8
0
  6
Continuous
 62
     2
100
AcDbCircle
 10
-993.9075960547267
 20
-1097.549779042901
 30
0.0
 40
0.3157169230760141
100
AcDbArc
 50
90.18896704254082
 51
180.0
  0
ARC
  5
3DB
102
{ACAD_REACTORS
330
40F
330
410
102
}
330
71
100
AcDbEntity
  8
0
  6
Continuous
 62
     2
100
AcDbCircle
 10
-994.4336387528145
 20
-1099.264455931376
 30
0.0
 40
0.9118481501445116
100
AcDbArc
 50
295.374008678171
 51
64.62599132182905
  0
ARC
  5
3DC
102
{ACAD_REACTORS
330
40B
330
40C
102
}
330
71
100
AcDbEntity
  8
0
  6
Continuous
 62
     2
100
AcDbCircle
 10
-989.2085650202077
 20
-1099.99695796029
 30
0.0
 40
2.227384008972611
100
AcDbArc
 50
288.4480761181346
 51
301.9309089499596
  0
ARC
  5
3DD
102
{ACAD_REACTORS
330
40B
330
40C
102
}
330
71
100
AcDbEntity
  8
0
  6
Continuous
 62
     2
100
AcDbCircle
 10
-988.790397286547
 20
-1101.250503736327
 30
0.0
 40
0.9059297849848444
100
AcDbArc
 50
246.6277221118729
 51
288.4480761181579
  0
ARC
  5
3DE
102
{ACAD_REACTORS
330
40B
330
40C
102
}
330
71
100
AcDbEntity
  8
0
  6
Continuous
 62
     2
100
AcDbCircle
 10
-988.946837319249
 20
-1101.612495755037
 30
0.0
 40
0.5115800601949912
100
AcDbArc
 50
208.5214732577276
 51
246.6277221118278
  0
ARC
  5
3DF
102
{ACAD_REACTORS
330
40B
330
40C
102
}
330
71
100
AcDbEntity
  8
0
  6
Continuous
 62
     2
100
AcDbCircle
 10
-988.790397286547
 20
-1101.56434491507
 30
0.0
 40
0.9059297849858261
100
AcDbArc
 50
71.5519238818603
 51
113.3722778881328
  0
ARC
  5
3E0
102
{ACAD_REACTORS
330
40B
330
40C
102
}
330
71
100
AcDbEntity
  8
0
  6
Continuous
 62
     2
100
AcDbCircle
 10
-989.3664378953007
 20
-1104.720105270954
 30
0.0
 40
4.852596863498158
100
AcDbArc
 50
74.02000874164733
 51
84.8418552303745
  0
CIRCLE
  5
3E1
102
{ACAD_REACTORS
330
40F
330
410
102
}
330
71
100
AcDbEntity
  8
0
  6
Continuous
 62
     2
100
AcDbCircle
 10
-994.4574537674873
 20
-1099.264455931376
 30
0.0
 40
0.4709789327785074
  0
CIRCLE
  5
3E2
330
71
100
AcDbEntity
  8
1
  6
Continuous
 62
     2
100
AcDbCircle
 10
-989.0012840333877
 20
-1089.10282908762
 30
0.0
 40
1.25
  0
CIRCLE
  5
3E3
330
71
100
AcDbEntity
  8
1
  6
Continuous
 62
     2
100
AcDbCircle
 10
-989.0012840333877
 20
-1089.10282908762
 30
0.0
 40
2.5
  0
TEXT
  5
3E4
330
71
100
AcDbEntity
  8
1
 62
     7
100
AcDbText
 10
-946.3643911979365
 20
-1091.92782908762
 30
0.0
 40
2.5
  1
/
 41
0.9
  7
CONVERTER_11
100
AcDbText
  0
TEXT
  5
3E6
330
71
100
AcDbEntity
  8
1
 62
     7
100
AcDbText
 10
-944.2080267008945
 20
-1091.92782908762
 30
0.0
 40
2.5
  1
02
 41
0.81
  7
CONVERTER_12
100
AcDbText
  0
TEXT
  5
3E7
330
71
100
AcDbEntity
  8
1
 62
     3
100
AcDbText
 10
-906.6115426748773
 20
-1091.92782908762
 30
0.0
 40
2.5
  1
28.09.2017
 41
0.81
  7
CONVERTER_12
100
AcDbText
  0
MTEXT
  5
3E8
330
71
100
AcDbEntity
  8
1
 62
     2
100
AcDbMText
 10
-906.6115426748773
 20
-1085.72782908762
 30
0.0
 40
1.8
 41
0.0
 71
     1
 72
     1
  1
date
  7
CONVERTER_11
 73
     1
 44
1.32052821128451
  0
MTEXT
  5
3E9
330
71
100
AcDbEntity
  8
1
 62
     2
100
AcDbMText
 10
-936.4379389199503
 20
-1094.22782908762
 30
0.0
 40
1.8
 41
0.0
 71
     1
 72
     1
  1
document-type
  7
CONVERTER_11
 73
     1
 44
1.20048019207683
  0
TEXT
  5
3EA
330
71
100
AcDbEntity
  8
1
 62
     3
100
AcDbText
 10
-936.4379389199503
 20
-1100.42782908762
 30
0.0
 40
2.5
  1
TECDOC 2D_Productdrawing
 41
0.81
  7
CONVERTER_12
100
AcDbText
  0
MTEXT
  5
3EC
330
71
100
AcDbEntity
  8
1
 62
     2
100
AcDbMText
 10
-964.2379389199502
 20
-1085.72782908762
 30
0.0
 40
1.8
 41
0.0
 71
     1
 72
     1
  1
document-No. / RI
  7
CONVERTER_13
 73
     1
 44
1.32052821128451
  0
TEXT
  5
3ED
330
71
100
AcDbEntity
  8
1
 62
     7
100
AcDbText
 10
-964.2379389199502
 20
-1091.92782908762
 30
0.0
 40
2.5
  1
00376729
 41
0.81
  7
CONVERTER_12
100
AcDbText
  0
MTEXT
  5
3EF
330
71
100
AcDbEntity
  8
1
 62
     3
100
AcDbMText
 10
-876.652338534038
 20
-1091.92782908762
 30
0.0
 40
2.5
 41
0.0
 71
     8
 72
     1
  1
1:1
  7
CONVERTER_14
 73
     1
 44
1.32052821128451
  0
MTEXT
  5
3F0
330
71
100
AcDbEntity
  8
1
 62
     2
100
AcDbMText
 10
-880.0115426748775
 20
-1085.72782908762
 30
0.0
 40
1.8
 41
0.0
 71
     1
 72
     1
  1
scale
  7
CONVERTER_11
 73
     1
 44
1.20048019207683
  0
MTEXT
  5
3F1
330
71
100
AcDbEntity
  8
1
 62
     2
100
AcDbMText
 10
-964.2379389199502
 20
-1094.22782908762
 30
0.0
 40
1.8
 41
0.0
 71
     1
 72
     1
  1
ident.-No.
  7
CONVERTER_11
 73
     1
 44
1.20048019207683
  0
TEXT
  5
3F2
330
71
100
AcDbEntity
  8
1
 62
     7
100
AcDbText
 10
-963.8379389199506
 20
-1100.42782908762
 30
0.0
 40
2.5
  1
3045583
 41
0.81
  7
CONVERTER_12
100
AcDbText
  0
MTEXT
  5
3F3
330
71
100
AcDbEntity
  8
1
 62
     2
100
AcDbMText
 10
-1036.175953644998
 20
-1097.47782908762
 30
0.0
 40
2.0
 41
0.0
 71
     5
 72
     1
  1
General Information\P- Simplified representation\P- Document excluded from change process\P- Linear dimensions [mm]
  7
CONVERTER_11
 73
     1
 44
1.20048019207683
  0
MTEXT
  5
3F4
330
71
100
AcDbEntity
  8
1
 62
     7
100
AcDbMText
 10
-869.6931343932013
 20
-1035.227829087618
 30
0.0
 40
3.5
 41
0.0
 71
     5
 72
     1
  1
C
  7
CONVERTER_11
 73
     1
 44
1.20048019207683
  0
MTEXT
  5
3F5
330
71
100
AcDbEntity
  8
1
 62
     7
100
AcDbMText
 10
-869.6931343932013
 20
-932.72782908762
 30
0.0
 40
3.5
 41
0.0
 71
     5
 72
     1
  1
A
  7
CONVERTER_11
 73
     1
 44
1.20048019207683
  0
MTEXT
  5
3F6
330
71
100
AcDbEntity
  8
1
 62
     7
100
AcDbMText
 10
-869.6931343932013
 20
-985.227829087618
 30
0.0
 40
3.5
 41
0.0
 71
     5
 72
     1
  1
B
  7
CONVERTER_11
 73
     1
 44
1.20048019207683
  0
MTEXT
  5
3F7
330
71
100
AcDbEntity
  8
1
 62
     7
100
AcDbMText
 10
-869.6931343932013
 20
-1087.72782908762
 30
0.0
 40
3.5
 41
0.0
 71
     5
 72
     1
  1
D
  7
CONVERTER_11
 73
     1
 44
1.20048019207683
  0
MTEXT
  5
3F8
330
71
100
AcDbEntity
  8
1
 62
     7
100
AcDbMText
 10
-1139.9431343932
 20
-1112.72782908762
 30
0.0
 40
3.5
 41
0.0
 71
     5
 72
     1
  1
1
  7
CONVERTER_11
 73
     1
 44
1.20048019207683
  0
MTEXT
  5
3F9
330
71
100
AcDbEntity
  8
1
 62
     7
100
AcDbMText
 10
-1090.6931343932
 20
-1112.72782908762
 30
0.0
 40
3.5
 41
0.0
 71
     5
 72
     1
  1
2
  7
CONVERTER_11
 73
     1
 44
1.20048019207683
  0
MTEXT
  5
3FA
330
71
100
AcDbEntity
  8
1
 62
     7
100
AcDbMText
 10
-1040.6931343932
 20
-1112.72782908762
 30
0.0
 40
3.5
 41
0.0
 71
     5
 72
     1
  1
3
  7
CONVERTER_11
 73
     1
 44
1.20048019207683
  0
MTEXT
  5
3FB
330
71
100
AcDbEntity
  8
1
 62
     7
100
AcDbMText
 10
-990.6931343932004
 20
-1112.72782908762
 30
0.0
 40
3.5
 41
0.0
 71
     5
 72
     1
  1
4
  7
CONVERTER_11
 73
     1
 44
1.20048019207683
  0
MTEXT
  5
3FC
330
71
100
AcDbEntity
  8
1
 62
     7
100
AcDbMText
 10
-940.6931343932002
 20
-1112.72782908762
 30
0.0
 40
3.5
 41
0.0
 71
     5
 72
     1
  1
5
  7
CONVERTER_11
 73
     1
 44
1.20048019207683
  0
MTEXT
  5
3FD
330
71
100
AcDbEntity
  8
1
 62
     7
100
AcDbMText
 10
-891.443134393201
 20
-1112.72782908762
 30
0.0
 40
3.5
 41
0.0
 71
     5
 72
     1
  1
6
  7
CONVERTER_11
 73
     1
 44
1.20048019207683
  0
MTEXT
  5
3FE
330
71
100
AcDbEntity
  8
1
 62
     7
100
AcDbMText
 10
-1161.693134393199
 20
-932.72782908762
 30
0.0
 40
3.5
 41
0.0
 71
     5
 72
     1
  1
A
  7
CONVERTER_11
 73
     1
 44
1.20048019207683
  0
MTEXT
  5
3FF
330
71
100
AcDbEntity
  8
1
 62
     7
100
AcDbMText
 10
-1161.693134393199
 20
-985.22782908762
 30
0.0
 40
3.5
 41
0.0
 71
     5
 72
     1
  1
B
  7
CONVERTER_11
 73
     1
 44
1.20048019207683
  0
MTEXT
  5
400
330
71
100
AcDbEntity
  8
1
 62
     7
100
AcDbMText
 10
-1161.693134393199
 20
-1035.22782908762
 30
0.0
 40
3.5
 41
0.0
 71
     5
 72
     1
  1
C
  7
CONVERTER_11
 73
     1
 44
1.20048019207683
  0
MTEXT
  5
401
330
71
100
AcDbEntity
  8
1
 62
     7
100
AcDbMText
 10
-1161.693134393199
 20
-1087.72782908762
 30
0.0
 40
3.5
 41
0.0
 71
     5
 72
     1
  1
D
  7
CONVERTER_11
 73
     1
 44
1.20048019207683
  0
MTEXT
  5
402
330
71
100
AcDbEntity
  8
1
 62
     3
100
AcDbMText
 10
-975.5379389199504
 20
-1089.10282908762
 30
0.0
 40
2.5
 41
0.0
 71
     5
 72
     1
  1
DIN A4
  7
CONVERTER_11
 73
     1
 44
1.20048019207683
  0
MTEXT
  5
403
330
71
100
AcDbEntity
  8
1
 62
     2
100
AcDbMText
 10
-964.3379389199504
 20
-1102.72782908762
 30
0.0
 40
1.8
 41
0.0
 71
     1
 72
     1
  1
description
  7
CONVERTER_11
 73
     1
 44
1.20048019207683
  0
MTEXT
  5
404
330
71
100
AcDbEntity
  8
1
 62
     7
100
AcDbMText
 10
-918.7655366565748
 20
-1106.97782908762
 30
0.0
 40
3.0
 41
0.0
 71
     5
 72
     1
  1
UT 4/ 1P
  7
CONVERTER_12
 73
     1
 44
1.20048019207683
  0
TEXT
  5
405
330
71
100
AcDbEntity
  8
1
 62
     2
100
AcDbText
 10
-977.3026301101368
 20
-1108.97782908762
 30
0.0
 40
1.8
  1
1
 41
0.9
  7
CONVERTER_11
100
AcDbText
  0
TEXT
  5
406
330
71
100
AcDbEntity
  8
1
 62
     2
100
AcDbText
 10
-992.0916739496083
 20
-1109.027077741422
 30
0.0
 40
1.8
  1
1
 41
0.9
  7
CONVERTER_11
100
AcDbText
  0
TEXT
  5
407
330
71
100
AcDbEntity
  8
1
 62
     2
100
AcDbText
 10
-1000.73793891995
 20
-1108.986846302612
 30
0.0
 40
1.8
  1
page
 41
0.9
  7
CONVERTER_11
100
AcDbText
  0
TEXT
  5
408
330
71
100
AcDbEntity
  8
1
 62
     2
100
AcDbText
 10
-982.5379389199504
 20
-1108.986846302612
 30
0.0
 40
1.8
  1
of
 41
0.9
  7
CONVERTER_11
100
AcDbText
  0
MTEXT
  5
409
330
71
100
AcDbEntity
  8
1
 62
     3
100
AcDbMText
 10
-976.3349567683404
 20
-923.4365209323212
 30
0.0
 40
1.8
 41
0.0
 71
     7
 72
     1
  3
Transfer or duplication of this document as well as the utilisation or\Pcommunication of its content are not permitted unless express consent\Pis granted. Violations give rise to claims for damages. All rights reserved\Pin case of patent, utility mo
  1
del or design patent registrations.
  7
CONVERTER_11
 73
     1
 44
0.99639855942377
  0
MTEXT
  5
40A
330
71
100
AcDbEntity
  8
1
 62
     3
100
AcDbMText
 10
-1159.188066607128
 20
-923.4365209323212
 30
0.0
 40
1.8
 41
0.0
 71
     7
 72
     1
  3
Weitergabe sowie Vervielf\U+00e4ltigung dieses Dokuments, Verwertung und \PMitteilung seines Inhalts sind verboten, soweit nicht ausdr\U+00fccklich gestattet. \PZuwiderhandlungen verpflichten zu Schadenersatz. Alle Rechte f\U+00fcr den Fall\Pder Pat
  1
ent-, Gebrauchsmuster- oder Designeintragung vorbehalten.
  7
CONVERTER_11
 73
     1
 44
0.99639855942377
  0
HATCH
  5
40B
330
71
100
AcDbEntity
  8
1
  6
Continuous
 62
     2
100
AcDbHatch
 10
0.0
 20
0.0
 30
0.0
210
0.0
220
0.0
230
1.0
  2
_USER
 70
     0
 71
     1
 91
        1
 92
        1
 93
       14
 72
     2
 10
-989.4967096440275
 20
-1101.407424325699
 40
1.205656168391164
 50
164.9381082228429
 51
195.0618917770736
 73
     1
 72
     2
 10
-989.0775818005648
 20
-1101.294633963664
 40
1.639695123939306
 50
195.061891777079
 51
275.1581447696414
 73
     1
 72
     2
 10
-989.3664378953007
 20
-1098.094743380442
 40
4.852596863497943
 50
275.1581447696255
 51
285.9799912583526
 73
     1
 72
     1
 10
-988.0305099781829
 20
-1102.759825686243
 11
-988.0305099781829
 21
-1101.88730867944
 72
     2
 10
-989.2085650202077
 20
-1099.99695796029
 40
2.227384008972611
 50
58.06909105004036
 51
71.5519238818654
 73
     0
 72
     2
 10
-988.790397286547
 20
-1101.250503736327
 40
0.9059297849848444
 50
71.55192388184209
 51
113.3722778881271
 73
     0
 72
     2
 10
-988.946837319249
 20
-1101.612495755037
 40
0.5115800601949912
 50
113.3722778881722
 51
151.4785267422724
 73
     0
 72
     2
 10
-988.5694800611686
 20
-1101.407424325699
 40
0.941059735333413
 50
151.478526742305
 51
208.5214732577436
 73
     0
 72
     2
 10
-988.946837319249
 20
-1101.202352896359
 40
0.51158006019411
 50
208.5214732576157
 51
246.6277221117672
 73
     0
 72
     2
 10
-988.790397286547
 20
-1101.56434491507
 40
0.9059297849858261
 50
246.6277221118672
 51
288.4480761181397
 73
     0
 72
     2
 10
-989.2085650202077
 20
-1102.817890691107
 40
2.227384008973646
 50
288.4480761181254
 51
301.9309089499566
 73
     0
 72
     1
 10
-988.0305099781829
 20
-1100.927539971957
 11
-988.0305099781829
 21
-1100.055022965153
 72
     2
 10
-989.3664378953007
 20
-1104.720105270954
 40
4.852596863498158
 50
74.02000874164733
 51
84.8418552303745
 73
     1
 72
     2
 10
-989.0775818005648
 20
-1101.520214687733
 40
1.639695123940224
 50
84.84185523036146
 51
164.9381082228903
 73
     1
 97
       14
330
3E0
330
2F9
330
3AF
330
3DF
330
3B0
330
3B1
330
3DE
330
3DD
330
3DC
330
2FA
330
3B2
330
3B3
330
3B4
330
3B5
 75
     1
 76
     0
 52
45.0
 41
0.1
 77
     0
 78
     1
 53
45.0
 43
0.0
 44
0.0
 45
-0.0707106781186548
 46
0.0707106781186548
 79
     0
 98
        1
 10
0.0
 20
0.0
  0
HATCH
  5
40C
330
71
100
AcDbEntity
  8
1
  6
Continuous
 62
     2
100
AcDbHatch
 10
0.0
 20
0.0
 30
0.0
210
0.0
220
0.0
230
1.0
  2
_USER
 70
     0
 71
     1
 91
        1
 92
        1
 93
       14
 72
     2
 10
-989.4967096440275
 20
-1101.407424325699
 40
1.205656168391164
 50
164.9381082228429
 51
195.0618917770736
 73
     1
 72
     2
 10
-989.0775818005648
 20
-1101.294633963664
 40
1.639695123939306
 50
195.061891777079
 51
275.1581447696414
 73
     1
 72
     2
 10
-989.3664378953007
 20
-1098.094743380442
 40
4.852596863497943
 50
275.1581447696255
 51
285.9799912583526
 73
     1
 72
     1
 10
-988.0305099781829
 20
-1102.759825686243
 11
-988.0305099781829
 21
-1101.88730867944
 72
     2
 10
-989.2085650202077
 20
-1099.99695796029
 40
2.227384008972611
 50
58.06909105004036
 51
71.5519238818654
 73
     0
 72
     2
 10
-988.790397286547
 20
-1101.250503736327
 40
0.9059297849848444
 50
71.55192388184209
 51
113.3722778881271
 73
     0
 72
     2
 10
-988.946837319249
 20
-1101.612495755037
 40
0.5115800601949912
 50
113.3722778881722
 51
151.4785267422724
 73
     0
 72
     2
 10
-988.5694800611686
 20
-1101.407424325699
 40
0.941059735333413
 50
151.478526742305
 51
208.5214732577436
 73
     0
 72
     2
 10
-988.946837319249
 20
-1101.202352896359
 40
0.51158006019411
 50
208.5214732576157
 51
246.6277221117672
 73
     0
 72
     2
 10
-988.790397286547
 20
-1101.56434491507
 40
0.9059297849858261
 50
246.6277221118672
 51
288.4480761181397
 73
     0
 72
     2
 10
-989.2085650202077
 20
-1102.817890691107
 40
2.227384008973646
 50
288.4480761181254
 51
301.9309089499566
 73
     0
 72
     1
 10
-988.0305099781829
 20
-1100.927539971957
 11
-988.0305099781829
 21
-1100.055022965153
 72
     2
 10
-989.3664378953007
 20
-1104.720105270954
 40
4.852596863498158
 50
74.02000874164733
 51
84.8418552303745
 73
     1
 72
     2
 10
-989.0775818005648
 20
-1101.520214687733
 40
1.639695123940224
 50
84.84185523036146
 51
164.9381082228903
 73
     1
 97
       14
330
3E0
330
2F9
330
3AF
330
3DF
330
3B0
330
3B1
330
3DE
330
3DD
330
3DC
330
2FA
330
3B2
330
3B3
330
3B4
330
3B5
 75
     1
 76
     0
 52
45.0
 41
0.1
 77
     0
 78
     1
 53
45.0
 43
0.0
 44
0.0
 45
-0.0707106781186548
 46
0.0707106781186548
 79
     0
 98
        1
 10
0.0
 20
0.0
  0
HATCH
  5
40D
330
71
100
AcDbEntity
  8
1
  6
Continuous
 62
     2
100
AcDbHatch
 10
0.0
 20
0.0
 30
0.0
210
0.0
220
0.0
230
1.0
  2
_USER
 70
     0
 71
     1
 91
        1
 92
        1
 93
       18
 72
     2
 10
-972.9748803213118
 20
-1101.520214687733
 40
1.639695123939873
 50
90.0
 51
164.9381082228985
 73
     1
 72
     2
 10
-973.3940081647735
 20
-1101.407424325699
 40
1.205656168393139
 50
164.9381082228682
 51
195.0618917770901
 73
     1
 72
     2
 10
-972.9748803213118
 20
-1101.294633963664
 40
1.639695123940421
 50
195.0618917771015
 51
275.1581447696774
 73
     1
 72
     2
 10
-973.2637364160477
 20
-1098.094743380442
 40
4.852596863499167
 50
275.1581447696363
 51
285.9799912583397
 73
     1
 72
     1
 10
-971.927808498931
 20
-1102.759825686243
 11
-971.927808498931
 21
-1101.88730867944
 72
     2
 10
-973.1058635409548
 20
-1099.99695796029
 40
2.227384008973474
 50
58.06909105006269
 51
71.55192388187278
 73
     0
 72
     2
 10
-972.6876958072929
 20
-1101.250503736327
 40
0.9059297849852503
 50
71.5519238819285
 51
113.3722778881865
 73
     0
 72
     2
 10
-972.844135839996
 20
-1101.612495755037
 40
0.5115800601959901
 50
113.3722778881605
 51
151.4785267423332
 73
     0
 72
     2
 10
-972.4667785819147
 20
-1101.407424325699
 40
0.9410597353353108
 50
151.4785267423678
 51
208.5214732576808
 73
     0
 72
     2
 10
-972.844135839996
 20
-1101.202352896359
 40
0.5115800601935467
 50
208.5214732575549
 51
250.662856780484
 73
     0
 72
     2
 10
-972.6974658418924
 20
-1101.620307876742
 40
0.9545230068258661
 50
250.6628567805554
 51
270.0
 73
     0
 72
     1
 10
-972.6974658418924
 20
-1100.665784869916
 11
-971.5938265423242
 21
-1100.665784869916
 72
     1
 10
-971.5938265423242
 20
-1100.665784869916
 11
-971.5938265423242
 21
-1102.934329087604
 72
     1
 10
-971.5938265423242
 20
-1102.934329087604
 11
-970.4010338401565
 21
-1102.934329087604
 72
     1
 10
-970.4010338401565
 20
-1102.934329087604
 11
-970.4010338401565
 21
-1100.665784869916
 72
     1
 10
-970.4010338401565
 20
-1100.665784869916
 11
-969.5899348026832
 21
-1100.665784869916
 72
     1
 10
-969.5899348026832
 20
-1100.665784869916
 11
-969.5899348026832
 21
-1099.880519563793
 72
     1
 10
-969.5899348026832
 20
-1099.880519563793
 11
-972.9748803213118
 21
-1099.880519563793
 97
       18
330
35F
330
35E
330
35D
330
35C
330
361
330
2FB
330
3D9
330
3BA
330
3D8
330
3BB
330
3D7
330
3D6
330
2FC
330
3D5
330
3D4
330
3BC
330
3BD
330
360
 75
     1
 76
     0
 52
45.0
 41
0.1
 77
     0
 78
     1
 53
45.0
 43
0.0
 44
0.0
 45
-0.0707106781186548
 46
0.0707106781186548
 79
     0
 98
        1
 10
0.0
 20
0.0
  0
HATCH
  5
40E
330
71
100
AcDbEntity
  8
1
  6
Continuous
 62
     2
100
AcDbHatch
 10
0.0
 20
0.0
 30
0.0
210
0.0
220
0.0
230
1.0
  2
_USER
 70
     0
 71
     1
 91
        1
 92
        1
 93
       18
 72
     2
 10
-972.9748803213118
 20
-1101.520214687733
 40
1.639695123939873
 50
90.0
 51
164.9381082228985
 73
     1
 72
     2
 10
-973.3940081647735
 20
-1101.407424325699
 40
1.205656168393139
 50
164.9381082228682
 51
195.0618917770901
 73
     1
 72
     2
 10
-972.9748803213118
 20
-1101.294633963664
 40
1.639695123940421
 50
195.0618917771015
 51
275.1581447696774
 73
     1
 72
     2
 10
-973.2637364160477
 20
-1098.094743380442
 40
4.852596863499167
 50
275.1581447696363
 51
285.9799912583397
 73
     1
 72
     1
 10
-971.927808498931
 20
-1102.759825686243
 11
-971.927808498931
 21
-1101.88730867944
 72
     2
 10
-973.1058635409548
 20
-1099.99695796029
 40
2.227384008973474
 50
58.06909105006269
 51
71.55192388187278
 73
     0
 72
     2
 10
-972.6876958072929
 20
-1101.250503736327
 40
0.9059297849852503
 50
71.5519238819285
 51
113.3722778881865
 73
     0
 72
     2
 10
-972.844135839996
 20
-1101.612495755037
 40
0.5115800601959901
 50
113.3722778881605
 51
151.4785267423332
 73
     0
 72
     2
 10
-972.4667785819147
 20
-1101.407424325699
 40
0.9410597353353108
 50
151.4785267423678
 51
208.5214732576808
 73
     0
 72
     2
 10
-972.844135839996
 20
-1101.202352896359
 40
0.5115800601935467
 50
208.5214732575549
 51
250.662856780484
 73
     0
 72
     2
 10
-972.6974658418924
 20
-1101.620307876742
 40
0.9545230068258661
 50
250.6628567805554
 51
270.0
 73
     0
 72
     1
 10
-972.6974658418924
 20
-1100.665784869916
 11
-971.5938265423242
 21
-1100.665784869916
 72
     1
 10
-971.5938265423242
 20
-1100.665784869916
 11
-971.5938265423242
 21
-1102.934329087604
 72
     1
 10
-971.5938265423242
 20
-1102.934329087604
 11
-970.4010338401565
 21
-1102.934329087604
 72
     1
 10
-970.4010338401565
 20
-1102.934329087604
 11
-970.4010338401565
 21
-1100.665784869916
 72
     1
 10
-970.4010338401565
 20
-1100.665784869916
 11
-969.5899348026832
 21
-1100.665784869916
 72
     1
 10
-969.5899348026832
 20
-1100.665784869916
 11
-969.5899348026832
 21
-1099.880519563793
 72
     1
 10
-969.5899348026832
 20
-1099.880519563793
 11
-972.9748803213118
 21
-1099.880519563793
 97
       18
330
35F
330
35E
330
35D
330
35C
330
361
330
2FB
330
3D9
330
3BA
330
3D8
330
3BB
330
3D7
330
3D6
330
2FC
330
3D5
330
3D4
330
3BC
330
3BD
330
360
 75
     1
 76
     0
 52
45.0
 41
0.1
 77
     0
 78
     1
 53
45.0
 43
0.0
 44
0.0
 45
-0.0707106781186548
 46
0.0707106781186548
 79
     0
 98
        1
 10
0.0
 20
0.0
  0
HATCH
  5
40F
330
71
100
AcDbEntity
  8
1
  6
Continuous
 62
     2
100
AcDbHatch
 10
0.0
 20
0.0
 30
0.0
210
0.0
220
0.0
230
1.0
  2
_USER
 70
     0
 71
     1
 91
        4
 92
        1
 93
        8
 72
     2
 10
-997.0770394180049
 20
-1096.94557370302
 40
0.424244615383941
 50
90.0
 51
180.0
 73
     1
 72
     1
 10
-997.5012840333877
 20
-1096.94557370302
 11
-997.5012840333877
 21
-1102.51008447222
 72
     2
 10
-997.0770394180049
 20
-1102.51008447222
 40
0.4242446153828041
 50
180.0
 51
270.0
 73
     1
 72
     1
 10
-997.0770394180049
 20
-1102.934329087604
 11
-991.6037273272881
 21
-1102.934329087604
 72
     2
 10
-991.6037273272881
 20
-1102.51008447222
 40
0.4242446153841684
 50
270.0
 51
360.0
 73
     1
 72
     1
 10
-991.1794827119041
 20
-1102.51008447222
 11
-991.1794827119041
 21
-1096.94557370302
 72
     2
 10
-991.6037273272881
 20
-1096.94557370302
 40
0.424244615383941
 50
0.0
 51
90.0
 73
     1
 72
     1
 10
-991.6037273272881
 20
-1096.521329087636
 11
-997.0770394180049
 21
-1096.521329087636
 97
        8
330
3CD
330
32A
330
3CC
330
32B
330
3C3
330
328
330
3CE
330
329
 92
       16
 93
        1
 72
     2
 10
-994.4574537674873
 20
-1099.264455931376
 40
0.4709789327785074
 50
0.0
 51
360.0
 73
     1
 97
        1
330
3E1
 92
       16
 93
        8
 72
     2
 10
-994.4336387528145
 20
-1099.264455931376
 40
0.9118481501445116
 50
295.374008678171
 51
424.6259913218291
 73
     1
 72
     2
 10
-993.9075960547267
 20
-1098.155314331408
 40
0.3157169230768204
 50
115.3740086783875
 51
180.0
 73
     0
 72
     1
 10
-994.2233129778035
 20
-1098.155314331408
 11
-994.2233129778035
 21
-1097.549779042901
 72
     2
 10
-993.9075960547267
 20
-1097.549779042901
 40
0.3157169230760141
 50
180.0
 51
269.8110329574592
 73
     0
 72
     2
 10
-993.9019799194166
 20
-1099.25261399047
 40
2.018561131933152
 50
269.8110329575842
 51
450.1889670424158
 73
     0
 72
     2
 10
-993.9075960547267
 20
-1100.955448938039
 40
0.3157169230768204
 50
90.18896704254065
 51
180.0
 73
     0
 72
     1
 10
-994.2233129778035
 20
-1100.955448938039
 11
-994.2233129778035
 21
-1100.373597531344
 72
     2
 10
-993.9075960547267
 20
-1100.373597531344
 40
0.3157169230761855
 50
180.0
 51
244.6259913216126
 73
     0
 97
        8
330
3DB
330
3B7
330
363
330
3DA
330
3B8
330
3B9
330
362
330
3B6
 92
       16
 93
       12
 72
     1
 10
-996.4831447412583
 20
-1102.221773532047
 11
-995.0073114802487
 21
-1102.221773532047
 72
     2
 10
-995.0073114802487
 20
-1101.90605660897
 40
0.3157169230771615
 50
270.0
 51
360.0
 73
     1
 72
     1
 10
-994.6915945571722
 20
-1101.90605660897
 11
-994.6915945571722
 21
-1100.375285677439
 72
     2
 10
-995.0073114802487
 20
-1100.375285677439
 40
0.315716923076593
 50
0.0
 51
64.80558935149101
 73
     1
 72
     2
 10
-994.4847270326737
 20
-1099.264455931376
 40
0.9118975235580125
 50
115.1944106485185
 51
244.8055893514816
 73
     0
 72
     2
 10
-995.0073114802487
 20
-1098.153626185313
 40
0.3157169230764803
 50
295.194410648509
 51
360.0
 73
     1
 72
     1
 10
-994.6915945571722
 20
-1098.153626185313
 11
-994.6915945571722
 21
-1097.549601566253
 72
     2
 10
-995.0073114802487
 20
-1097.549601566253
 40
0.315716923076593
 50
0.0
 51
90.0
 73
     1
 72
     1
 10
-995.0073114802487
 20
-1097.233884643177
 11
-996.4831447412583
 21
-1097.233884643177
 72
     2
 10
-996.4831447412583
 20
-1097.549601566253
 40
0.3157169230760246
 50
90.0
 51
180.0
 73
     1
 72
     1
 10
-996.798861664334
 20
-1097.549601566253
 11
-996.798861664334
 21
-1101.90605660897
 72
     2
 10
-996.4831447412583
 20
-1101.90605660897
 40
0.3157169230756836
 50
180.0
 51
270.0
 73
     1
 97
       12
330
32F
330
3C0
330
32E
330
3D1
330
32D
330
3D0
330
3C1
330
3C2
330
32C
330
3CF
330
327
330
3D2
 75
     1
 76
     0
 52
45.0
 41
0.1
 77
     0
 78
     1
 53
45.0
 43
0.0
 44
0.0
 45
-0.0707106781186548
 46
0.0707106781186548
 79
     0
 98
        1
 10
0.0
 20
0.0
  0
HATCH
  5
410
330
71
100
AcDbEntity
  8
1
  6
Continuous
 62
     2
100
AcDbHatch
 10
0.0
 20
0.0
 30
0.0
210
0.0
220
0.0
230
1.0
  2
_USER
 70
     0
 71
     1
 91
        4
 92
        1
 93
        8
 72
     2
 10
-997.0770394180049
 20
-1096.94557370302
 40
0.424244615383941
 50
90.0
 51
180.0
 73
     1
 72
     1
 10
-997.5012840333877
 20
-1096.94557370302
 11
-997.5012840333877
 21
-1102.51008447222
 72
     2
 10
-997.0770394180049
 20
-1102.51008447222
 40
0.4242446153828041
 50
180.0
 51
270.0
 73
     1
 72
     1
 10
-997.0770394180049
 20
-1102.934329087604
 11
-991.6037273272881
 21
-1102.934329087604
 72
     2
 10
-991.6037273272881
 20
-1102.51008447222
 40
0.4242446153841684
 50
270.0
 51
360.0
 73
     1
 72
     1
 10
-991.1794827119041
 20
-1102.51008447222
 11
-991.1794827119041
 21
-1096.94557370302
 72
     2
 10
-991.6037273272881
 20
-1096.94557370302
 40
0.424244615383941
 50
0.0
 51
90.0
 73
     1
 72
     1
 10
-991.6037273272881
 20
-1096.521329087636
 11
-997.0770394180049
 21
-1096.521329087636
 97
        8
330
3CD
330
32A
330
3CC
330
32B
330
3C3
330
328
330
3CE
330
329
 92
       16
 93
        1
 72
     2
 10
-994.4574537674873
 20
-1099.264455931376
 40
0.4709789327785074
 50
0.0
 51
360.0
 73
     1
 97
        1
330
3E1
 92
       16
 93
        8
 72
     2
 10
-994.4336387528145
 20
-1099.264455931376
 40
0.9118481501445116
 50
295.374008678171
 51
424.6259913218291
 73
     1
 72
     2
 10
-993.9075960547267
 20
-1098.155314331408
 40
0.3157169230768204
 50
115.3740086783875
 51
180.0
 73
     0
 72
     1
 10
-994.2233129778035
 20
-1098.155314331408
 11
-994.2233129778035
 21
-1097.549779042901
 72
     2
 10
-993.9075960547267
 20
-1097.549779042901
 40
0.3157169230760141
 50
180.0
 51
269.8110329574592
 73
     0
 72
     2
 10
-993.9019799194166
 20
-1099.25261399047
 40
2.018561131933152
 50
269.8110329575842
 51
450.1889670424158
 73
     0
 72
     2
 10
-993.9075960547267
 20
-1100.955448938039
 40
0.3157169230768204
 50
90.18896704254065
 51
180.0
 73
     0
 72
     1
 10
-994.2233129778035
 20
-1100.955448938039
 11
-994.2233129778035
 21
-1100.373597531344
 72
     2
 10
-993.9075960547267
 20
-1100.373597531344
 40
0.3157169230761855
 50
180.0
 51
244.6259913216126
 73
     0
 97
        8
330
3DB
330
3B7
330
363
330
3DA
330
3B8
330
3B9
330
362
330
3B6
 92
       16
 93
       12
 72
     1
 10
-996.4831447412583
 20
-1102.221773532047
 11
-995.0073114802487
 21
-1102.221773532047
 72
     2
 10
-995.0073114802487
 20
-1101.90605660897
 40
0.3157169230771615
 50
270.0
 51
360.0
 73
     1
 72
     1
 10
-994.6915945571722
 20
-1101.90605660897
 11
-994.6915945571722
 21
-1100.375285677439
 72
     2
 10
-995.0073114802487
 20
-1100.375285677439
 40
0.315716923076593
 50
0.0
 51
64.80558935149101
 73
     1
 72
     2
 10
-994.4847270326737
 20
-1099.264455931376
 40
0.9118975235580125
 50
115.1944106485185
 51
244.8055893514816
 73
     0
 72
     2
 10
-995.0073114802487
 20
-1098.153626185313
 40
0.3157169230764803
 50
295.194410648509
 51
360.0
 73
     1
 72
     1
 10
-994.6915945571722
 20
-1098.153626185313
 11
-994.6915945571722
 21
-1097.549601566253
 72
     2
 10
-995.0073114802487
 20
-1097.549601566253
 40
0.315716923076593
 50
0.0
 51
90.0
 73
     1
 72
     1
 10
-995.0073114802487
 20
-1097.233884643177
 11
-996.4831447412583
 21
-1097.233884643177
 72
     2
 10
-996.4831447412583
 20
-1097.549601566253
 40
0.3157169230760246
 50
90.0
 51
180.0
 73
     1
 72
     1
 10
-996.798861664334
 20
-1097.549601566253
 11
-996.798861664334
 21
-1101.90605660897
 72
     2
 10
-996.4831447412583
 20
-1101.90605660897
 40
0.3157169230756836
 50
180.0
 51
270.0
 73
     1
 97
       12
330
32F
330
3C0
330
32E
330
3D1
330
32D
330
3D0
330
3C1
330
3C2
330
32C
330
3CF
330
327
330
3D2
 75
     1
 76
     0
 52
45.0
 41
0.1
 77
     0
 78
     1
 53
45.0
 43
0.0
 44
0.0
 45
-0.0707106781186548
 46
0.0707106781186548
 79
     0
 98
        1
 10
0.0
 20
0.0
  0
HATCH
  5
411
330
71
100
AcDbEntity
  8
1
  6
Continuous
 62
     2
100
AcDbHatch
 10
0.0
 20
0.0
 30
0.0
210
0.0
220
0.0
230
1.0
  2
_USER
 70
     0
 71
     1
 91
        2
 92
        1
 93
       12
 72
     2
 10
-982.4018754140155
 20
-1098.048233849524
 40
1.526904761906053
 50
90.0
 51
270.0
 73
     1
 72
     1
 10
-982.4018754140155
 20
-1099.575138611429
 11
-979.2515556902346
 21
-1099.575138611429
 72
     1
 10
-979.2515556902346
 20
-1099.575138611429
 11
-979.2515556902346
 21
-1098.877125005987
 72
     1
 10
-979.2515556902346
 20
-1098.877125005987
 11
-980.5874835166622
 21
-1098.877125005987
 72
     1
 10
-980.5874835166622
 20
-1098.877125005987
 11
-980.5874835166622
 21
-1098.397240652245
 72
     1
 10
-980.5874835166622
 20
-1098.397240652245
 11
-979.2515556902346
 21
-1098.397240652245
 72
     1
 10
-979.2515556902346
 20
-1098.397240652245
 11
-979.2515556902346
 21
-1097.699227046803
 72
     1
 10
-979.2515556902346
 20
-1097.699227046803
 11
-980.5874835166622
 21
-1097.699227046803
 72
     1
 10
-980.5874835166622
 20
-1097.699227046803
 11
-980.5874835166622
 21
-1097.219342693061
 72
     1
 10
-980.5874835166622
 20
-1097.219342693061
 11
-979.2515556902346
 21
-1097.219342693061
 72
     1
 10
-979.2515556902346
 20
-1097.219342693061
 11
-979.2515556902346
 21
-1096.521329087618
 72
     1
 10
-979.2515556902346
 20
-1096.521329087618
 11
-982.4018754140155
 21
-1096.521329087618
 97
       12
330
31E
330
318
330
33F
330
33E
330
33D
330
33C
330
319
330
31A
330
31B
330
31C
330
3BE
330
31D
 92
       16
 93
        4
 72
     2
 10
-981.9858633675041
 20
-1098.048233849524
 40
0.7717997786796852
 50
141.8795802028358
 51
218.1204197971642
 73
     1
 72
     2
 10
-982.1856034038503
 20
-1098.204965027644
 40
0.5179085730137529
 50
218.1204197971956
 51
321.8795802028121
 73
     1
 72
     2
 10
-982.3853434401965
 20
-1098.048233849524
 40
0.7717997786796852
 50
321.8795802028358
 51
398.1204197971642
 73
     1
 72
     2
 10
-982.1856034038503
 20
-1097.891502671404
 40
0.5179085730138424
 50
38.12041979718787
 51
141.8795802028044
 73
     1
 97
        4
330
3CB
330
3CA
330
3C5
330
3C4
 75
     1
 76
     0
 52
45.0
 41
0.1
 77
     0
 78
     1
 53
45.0
 43
0.0
 44
0.0
 45
-0.0707106781186548
 46
0.0707106781186548
 79
     0
 98
        1
 10
0.0
 20
0.0
  0
HATCH
  5
412
330
71
100
AcDbEntity
  8
1
  6
Continuous
 62
     2
100
AcDbHatch
 10
0.0
 20
0.0
 30
0.0
210
0.0
220
0.0
230
1.0
  2
_USER
 70
     0
 71
     1
 91
        2
 92
        1
 93
       12
 72
     2
 10
-982.4018754140155
 20
-1098.048233849524
 40
1.526904761906053
 50
90.0
 51
270.0
 73
     1
 72
     1
 10
-982.4018754140155
 20
-1099.575138611429
 11
-979.2515556902346
 21
-1099.575138611429
 72
     1
 10
-979.2515556902346
 20
-1099.575138611429
 11
-979.2515556902346
 21
-1098.877125005987
 72
     1
 10
-979.2515556902346
 20
-1098.877125005987
 11
-980.5874835166622
 21
-1098.877125005987
 72
     1
 10
-980.5874835166622
 20
-1098.877125005987
 11
-980.5874835166622
 21
-1098.397240652245
 72
     1
 10
-980.5874835166622
 20
-1098.397240652245
 11
-979.2515556902346
 21
-1098.397240652245
 72
     1
 10
-979.2515556902346
 20
-1098.397240652245
 11
-979.2515556902346
 21
-1097.699227046803
 72
     1
 10
-979.2515556902346
 20
-1097.699227046803
 11
-980.5874835166622
 21
-1097.699227046803
 72
     1
 10
-980.5874835166622
 20
-1097.699227046803
 11
-980.5874835166622
 21
-1097.219342693061
 72
     1
 10
-980.5874835166622
 20
-1097.219342693061
 11
-979.2515556902346
 21
-1097.219342693061
 72
     1
 10
-979.2515556902346
 20
-1097.219342693061
 11
-979.2515556902346
 21
-1096.521329087618
 72
     1
 10
-979.2515556902346
 20
-1096.521329087618
 11
-982.4018754140155
 21
-1096.521329087618
 97
       12
330
31E
330
318
330
33F
330
33E
330
33D
330
33C
330
319
330
31A
330
31B
330
31C
330
3BE
330
31D
 92
       16
 93
        4
 72
     2
 10
-981.9858633675041
 20
-1098.048233849524
 40
0.7717997786796852
 50
141.8795802028358
 51
218.1204197971642
 73
     1
 72
     2
 10
-982.1856034038503
 20
-1098.204965027644
 40
0.5179085730137529
 50
218.1204197971956
 51
321.8795802028121
 73
     1
 72
     2
 10
-982.3853434401965
 20
-1098.048233849524
 40
0.7717997786796852
 50
321.8795802028358
 51
398.1204197971642
 73
     1
 72
     2
 10
-982.1856034038503
 20
-1097.891502671404
 40
0.5179085730138424
 50
38.12041979718787
 51
141.8795802028044
 73
     1
 97
        4
330
3CB
330
3CA
330
3C5
330
3C4
 75
     1
 76
     0
 52
45.0
 41
0.1
 77
     0
 78
     1
 53
45.0
 43
0.0
 44
0.0
 45
-0.0707106781186548
 46
0.0707106781186548
 79
     0
 98
        1
 10
0.0
 20
0.0
  0
HATCH
  5
413
330
71
100
AcDbEntity
  8
1
  6
Continuous
 62
     2
100
AcDbHatch
 10
0.0
 20
0.0
 30
0.0
210
0.0
220
0.0
230
1.0
  2
_USER
 70
     0
 71
     1
 91
        2
 92
        1
 93
        4
 72
     2
 10
-986.4274907764772
 20
-1101.407424325699
 40
1.458034083651741
 50
117.5481481756548
 51
242.4518518243328
 73
     1
 72
     2
 10
-986.1465508846438
 20
-1100.868849315395
 40
2.065479772208722
 50
242.4518518243441
 51
297.5481481756838
 73
     1
 72
     2
 10
-985.8656109928106
 20
-1101.407424325699
 40
1.458034083651714
 50
297.5481481757107
 51
422.4518518243017
 73
     1
 72
     2
 10
-986.1465508846438
 20
-1101.945999336001
 40
2.06547977220824
 50
62.45185182430162
 51
117.5481481756704
 73
     1
 97
        4
330
3C9
330
3C6
330
3C8
330
3C7
 92
       16
 93
        4
 72
     2
 10
-986.1465508846438
 20
-1101.250693147578
 40
0.5179085730136636
 50
38.1204197972034
 51
141.8795802028044
 73
     1
 72
     2
 10
-985.9468108482978
 20
-1101.407424325699
 40
0.7717997786800677
 50
141.8795802027723
 51
218.1204197971215
 73
     1
 72
     2
 10
-986.1465508846438
 20
-1101.564155503818
 40
0.5179085730137529
 50
218.1204197971956
 51
321.8795802027966
 73
     1
 72
     2
 10
-986.3462909209902
 20
-1101.407424325699
 40
0.7717997786791236
 50
321.879580202889
 51
398.1204197972173
 73
     1
 97
        4
330
3AC
330
3AD
330
3AE
330
3AB
 75
     1
 76
     0
 52
45.0
 41
0.1
 77
     0
 78
     1
 53
45.0
 43
0.0
 44
0.0
 45
-0.0707106781186548
 46
0.0707106781186548
 79
     0
 98
        1
 10
0.0
 20
0.0
  0
HATCH
  5
414
330
71
100
AcDbEntity
  8
1
  6
Continuous
 62
     2
100
AcDbHatch
 10
0.0
 20
0.0
 30
0.0
210
0.0
220
0.0
230
1.0
  2
_USER
 70
     0
 71
     1
 91
        2
 92
        1
 93
        4
 72
     2
 10
-986.4274907764772
 20
-1101.407424325699
 40
1.458034083651741
 50
117.5481481756548
 51
242.4518518243328
 73
     1
 72
     2
 10
-986.1465508846438
 20
-1100.868849315395
 40
2.065479772208722
 50
242.4518518243441
 51
297.5481481756838
 73
     1
 72
     2
 10
-985.8656109928106
 20
-1101.407424325699
 40
1.458034083651714
 50
297.5481481757107
 51
422.4518518243017
 73
     1
 72
     2
 10
-986.1465508846438
 20
-1101.945999336001
 40
2.06547977220824
 50
62.45185182430162
 51
117.5481481756704
 73
     1
 97
        4
330
3C9
330
3C6
330
3C8
330
3C7
 92
       16
 93
        4
 72
     2
 10
-986.1465508846438
 20
-1101.250693147578
 40
0.5179085730136636
 50
38.1204197972034
 51
141.8795802028044
 73
     1
 72
     2
 10
-985.9468108482978
 20
-1101.407424325699
 40
0.7717997786800677
 50
141.8795802027723
 51
218.1204197971215
 73
     1
 72
     2
 10
-986.1465508846438
 20
-1101.564155503818
 40
0.5179085730137529
 50
218.1204197971956
 51
321.8795802027966
 73
     1
 72
     2
 10
-986.3462909209902
 20
-1101.407424325699
 40
0.7717997786791236
 50
321.879580202889
 51
398.1204197972173
 73
     1
 97
        4
330
3AC
330
3AD
330
3AE
330
3AB
 75
     1
 76
     0
 52
45.0
 41
0.1
 77
     0
 78
     1
 53
45.0
 43
0.0
 44
0.0
 45
-0.0707106781186548
 46
0.0707106781186548
 79
     0
 98
        1
 10
0.0
 20
0.0
  0
HATCH
  5
415
330
71
100
AcDbEntity
  8
1
  6
Continuous
 62
     2
100
AcDbHatch
 10
0.0
 20
0.0
 30
0.0
210
0.0
220
0.0
230
1.0
  2
_USER
 70
     0
 71
     1
 91
        2
 92
        1
 93
        6
 72
     1
 10
-990.7023656310373
 20
-1096.521329087618
 11
-990.7023656310373
 21
-1099.575138611429
 72
     1
 10
-990.7023656310373
 20
-1099.575138611429
 11
-989.4618612207832
 21
-1099.575138611429
 72
     1
 10
-989.4618612207832
 20
-1099.575138611429
 11
-989.4618612207832
 21
-1098.632060370286
 72
     1
 10
-989.4618612207832
 20
-1098.632060370286
 11
-988.7030936330029
 21
-1098.632060370286
 72
     2
 10
-988.7030936330029
 20
-1097.576694728952
 40
1.055365641333992
 50
270.0
 51
450.0
 73
     1
 72
     1
 10
-988.7030936330029
 20
-1096.521329087618
 11
-990.7023656310373
 21
-1096.521329087618
 97
        6
330
3D3
330
330
330
326
330
325
330
332
330
331
 92
       16
 93
        4
 72
     1
 10
-989.1445661592413
 20
-1097.184434933058
 11
-989.4618612207832
 21
-1097.184434933058
 72
     1
 10
-989.4618612207832
 20
-1097.184434933058
 11
-989.4618612207832
 21
-1097.890162582401
 72
     1
 10
-989.4618612207832
 20
-1097.890162582401
 11
-989.1445661592413
 21
-1097.890162582401
 72
     2
 10
-989.1445661592413
 20
-1097.537298757729
 40
0.3528638246718856
 50
270.0
 51
450.0
 73
     1
 97
        4
330
333
330
324
330
334
330
3BF
 75
     1
 76
     0
 52
45.0
 41
0.1
 77
     0
 78
     1
 53
45.0
 43
0.0
 44
0.0
 45
-0.0707106781186548
 46
0.0707106781186548
 79
     0
 98
        1
 10
0.0
 20
0.0
  0
HATCH
  5
416
330
71
100
AcDbEntity
  8
1
  6
Continuous
 62
     2
100
AcDbHatch
 10
0.0
 20
0.0
 30
0.0
210
0.0
220
0.0
230
1.0
  2
_USER
 70
     0
 71
     1
 91
        2
 92
        1
 93
        6
 72
     1
 10
-990.7023656310373
 20
-1096.521329087618
 11
-990.7023656310373
 21
-1099.575138611429
 72
     1
 10
-990.7023656310373
 20
-1099.575138611429
 11
-989.4618612207832
 21
-1099.575138611429
 72
     1
 10
-989.4618612207832
 20
-1099.575138611429
 11
-989.4618612207832
 21
-1098.632060370286
 72
     1
 10
-989.4618612207832
 20
-1098.632060370286
 11
-988.7030936330029
 21
-1098.632060370286
 72
     2
 10
-988.7030936330029
 20
-1097.576694728952
 40
1.055365641333992
 50
270.0
 51
450.0
 73
     1
 72
     1
 10
-988.7030936330029
 20
-1096.521329087618
 11
-990.7023656310373
 21
-1096.521329087618
 97
        6
330
3D3
330
330
330
326
330
325
330
332
330
331
 92
       16
 93
        4
 72
     1
 10
-989.1445661592413
 20
-1097.184434933058
 11
-989.4618612207832
 21
-1097.184434933058
 72
     1
 10
-989.4618612207832
 20
-1097.184434933058
 11
-989.4618612207832
 21
-1097.890162582401
 72
     1
 10
-989.4618612207832
 20
-1097.890162582401
 11
-989.1445661592413
 21
-1097.890162582401
 72
     2
 10
-989.1445661592413
 20
-1097.537298757729
 40
0.3528638246718856
 50
270.0
 51
450.0
 73
     1
 97
        4
330
333
330
324
330
334
330
3BF
 75
     1
 76
     0
 52
45.0
 41
0.1
 77
     0
 78
     1
 53
45.0
 43
0.0
 44
0.0
 45
-0.0707106781186548
 46
0.0707106781186548
 79
     0
 98
        1
 10
0.0
 20
0.0
  0
HATCH
  5
417
330
71
100
AcDbEntity
  8
1
  6
Continuous
 62
     2
100
AcDbHatch
 10
0.0
 20
0.0
 30
0.0
210
0.0
220
0.0
230
1.0
  2
_USER
 70
     0
 71
     1
 91
        1
 92
        1
 93
       12
 72
     1
 10
-971.0880824366042
 20
-1096.521329087618
 11
-969.6853582188569
 21
-1096.521329087618
 72
     1
 10
-969.6853582188569
 20
-1096.521329087618
 11
-970.9878878496235
 21
-1097.994279617655
 72
     1
 10
-970.9878878496235
 20
-1097.994279617655
 11
-969.5899348026832
 21
-1099.575138611429
 72
     1
 10
-969.5899348026832
 20
-1099.575138611429
 11
-970.9926590204315
 21
-1099.575138611429
 72
     1
 10
-970.9926590204315
 20
-1099.575138611429
 11
-971.6892499584969
 21
-1098.787406826136
 72
     1
 10
-971.6892499584969
 20
-1098.787406826136
 11
-972.3858408965626
 21
-1099.575138611429
 72
     1
 10
-972.3858408965626
 20
-1099.575138611429
 11
-973.7885651143108
 21
-1099.575138611429
 72
     1
 10
-973.7885651143108
 20
-1099.575138611429
 11
-972.3906120673705
 21
-1097.994279617655
 72
     1
 10
-972.3906120673705
 20
-1097.994279617655
 11
-973.6931416981381
 21
-1096.521329087618
 72
     1
 10
-973.6931416981381
 20
-1096.521329087618
 11
-972.2904174803888
 21
-1096.521329087618
 72
     1
 10
-972.2904174803888
 20
-1096.521329087618
 11
-971.6892499584969
 21
-1097.201152409174
 72
     1
 10
-971.6892499584969
 20
-1097.201152409174
 11
-971.0880824366042
 21
-1096.521329087618
 97
       12
330
2FF
330
358
330
357
330
356
330
355
330
300
330
301
330
2FD
330
2FE
330
35B
330
35A
330
359
 75
     1
 76
     0
 52
45.0
 41
0.1
 77
     0
 78
     1
 53
45.0
 43
0.0
 44
0.0
 45
-0.0707106781186548
 46
0.0707106781186548
 79
     0
 98
        1
 10
0.0
 20
0.0
  0
HATCH
  5
418
330
71
100
AcDbEntity
  8
1
  6
Continuous
 62
     2
100
AcDbHatch
 10
0.0
 20
0.0
 30
0.0
210
0.0
220
0.0
230
1.0
  2
_USER
 70
     0
 71
     1
 91
        1
 92
        1
 93
       12
 72
     1
 10
-971.0880824366042
 20
-1096.521329087618
 11
-969.6853582188569
 21
-1096.521329087618
 72
     1
 10
-969.6853582188569
 20
-1096.521329087618
 11
-970.9878878496235
 21
-1097.994279617655
 72
     1
 10
-970.9878878496235
 20
-1097.994279617655
 11
-969.5899348026832
 21
-1099.575138611429
 72
     1
 10
-969.5899348026832
 20
-1099.575138611429
 11
-970.9926590204315
 21
-1099.575138611429
 72
     1
 10
-970.9926590204315
 20
-1099.575138611429
 11
-971.6892499584969
 21
-1098.787406826136
 72
     1
 10
-971.6892499584969
 20
-1098.787406826136
 11
-972.3858408965626
 21
-1099.575138611429
 72
     1
 10
-972.3858408965626
 20
-1099.575138611429
 11
-973.7885651143108
 21
-1099.575138611429
 72
     1
 10
-973.7885651143108
 20
-1099.575138611429
 11
-972.3906120673705
 21
-1097.994279617655
 72
     1
 10
-972.3906120673705
 20
-1097.994279617655
 11
-973.6931416981381
 21
-1096.521329087618
 72
     1
 10
-973.6931416981381
 20
-1096.521329087618
 11
-972.2904174803888
 21
-1096.521329087618
 72
     1
 10
-972.2904174803888
 20
-1096.521329087618
 11
-971.6892499584969
 21
-1097.201152409174
 72
     1
 10
-971.6892499584969
 20
-1097.201152409174
 11
-971.0880824366042
 21
-1096.521329087618
 97
       12
330
2FF
330
358
330
357
330
356
330
355
330
300
330
301
330
2FD
330
2FE
330
35B
330
35A
330
359
 75
     1
 76
     0
 52
45.0
 41
0.1
 77
     0
 78
     1
 53
45.0
 43
0.0
 44
0.0
 45
-0.0707106781186548
 46
0.0707106781186548
 79
     0
 98
        1
 10
0.0
 20
0.0
  0
HATCH
  5
419
330
71
100
AcDbEntity
  8
1
  6
Continuous
 62
     2
100
AcDbHatch
 10
0.0
 20
0.0
 30
0.0
210
0.0
220
0.0
230
1.0
  2
_USER
 70
     0
 71
     1
 91
        1
 92
        1
 93
        4
 72
     1
 10
-973.9078443845277
 20
-1096.521329087618
 11
-973.9078443845277
 21
-1099.575138611429
 72
     1
 10
-973.9078443845277
 20
-1099.575138611429
 11
-975.1483487947806
 21
-1099.575138611429
 72
     1
 10
-975.1483487947806
 20
-1099.575138611429
 11
-975.1483487947806
 21
-1096.521329087618
 72
     1
 10
-975.1483487947806
 20
-1096.521329087618
 11
-973.9078443845277
 21
-1096.521329087618
 97
        4
330
353
330
302
330
352
330
354
 75
     1
 76
     0
 52
45.0
 41
0.1
 77
     0
 78
     1
 53
45.0
 43
0.0
 44
0.0
 45
-0.0707106781186548
 46
0.0707106781186548
 79
     0
 98
        1
 10
0.0
 20
0.0
  0
HATCH
  5
41A
330
71
100
AcDbEntity
  8
1
  6
Continuous
 62
     2
100
AcDbHatch
 10
0.0
 20
0.0
 30
0.0
210
0.0
220
0.0
230
1.0
  2
_USER
 70
     0
 71
     1
 91
        1
 92
        1
 93
        4
 72
     1
 10
-973.9078443845277
 20
-1096.521329087618
 11
-973.9078443845277
 21
-1099.575138611429
 72
     1
 10
-973.9078443845277
 20
-1099.575138611429
 11
-975.1483487947806
 21
-1099.575138611429
 72
     1
 10
-975.1483487947806
 20
-1099.575138611429
 11
-975.1483487947806
 21
-1096.521329087618
 72
     1
 10
-975.1483487947806
 20
-1096.521329087618
 11
-973.9078443845277
 21
-1096.521329087618
 97
        4
330
353
330
302
330
352
330
354
 75
     1
 76
     0
 52
45.0
 41
0.1
 77
     0
 78
     1
 53
45.0
 43
0.0
 44
0.0
 45
-0.0707106781186548
 46
0.0707106781186548
 79
     0
 98
        1
 10
0.0
 20
0.0
  0
HATCH
  5
41B
330
71
100
AcDbEntity
  8
1
  6
Continuous
 62
     2
100
AcDbHatch
 10
0.0
 20
0.0
 30
0.0
210
0.0
220
0.0
230
1.0
  2
_USER
 70
     0
 71
     1
 91
        2
 92
        1
 93
        8
 72
     1
 10
-974.2982883880597
 20
-1102.934329087604
 11
-975.5387927983137
 21
-1102.934329087604
 72
     1
 10
-975.5387927983137
 20
-1102.934329087604
 11
-975.7502728517894
 21
-1102.393368543386
 72
     1
 10
-975.7502728517894
 20
-1102.393368543386
 11
-976.8827144284633
 21
-1102.393368543386
 72
     1
 10
-976.8827144284633
 20
-1102.393368543386
 11
-977.0941944819391
 21
-1102.934329087604
 72
     1
 10
-977.0941944819391
 20
-1102.934329087604
 11
-978.334698892192
 21
-1102.934329087604
 72
     1
 10
-978.334698892192
 20
-1102.934329087604
 11
-976.9367458452527
 21
-1099.880519563793
 72
     1
 10
-976.9367458452527
 20
-1099.880519563793
 11
-975.696241435
 21
-1099.880519563793
 72
     1
 10
-975.696241435
 20
-1099.880519563793
 11
-974.2982883880597
 21
-1102.934329087604
 97
        8
330
34E
330
308
330
34D
330
350
330
305
330
34F
330
306
330
307
 92
       16
 93
        3
 72
     1
 10
-976.6166588773183
 20
-1101.712805278079
 11
-976.0163284029358
 21
-1101.712805278079
 72
     1
 10
-976.0163284029358
 20
-1101.712805278079
 11
-976.3164936401258
 21
-1100.944990312092
 72
     1
 10
-976.3164936401258
 20
-1100.944990312092
 11
-976.6166588773183
 21
-1101.712805278079
 97
        3
330
304
330
303
330
351
 75
     1
 76
     0
 52
45.0
 41
0.1
 77
     0
 78
     1
 53
45.0
 43
0.0
 44
0.0
 45
-0.0707106781186548
 46
0.0707106781186548
 79
     0
 98
        1
 10
0.0
 20
0.0
  0
HATCH
  5
41C
330
71
100
AcDbEntity
  8
1
  6
Continuous
 62
     2
100
AcDbHatch
 10
0.0
 20
0.0
 30
0.0
210
0.0
220
0.0
230
1.0
  2
_USER
 70
     0
 71
     1
 91
        2
 92
        1
 93
        8
 72
     1
 10
-974.2982883880597
 20
-1102.934329087604
 11
-975.5387927983137
 21
-1102.934329087604
 72
     1
 10
-975.5387927983137
 20
-1102.934329087604
 11
-975.7502728517894
 21
-1102.393368543386
 72
     1
 10
-975.7502728517894
 20
-1102.393368543386
 11
-976.8827144284633
 21
-1102.393368543386
 72
     1
 10
-976.8827144284633
 20
-1102.393368543386
 11
-977.0941944819391
 21
-1102.934329087604
 72
     1
 10
-977.0941944819391
 20
-1102.934329087604
 11
-978.334698892192
 21
-1102.934329087604
 72
     1
 10
-978.334698892192
 20
-1102.934329087604
 11
-976.9367458452527
 21
-1099.880519563793
 72
     1
 10
-976.9367458452527
 20
-1099.880519563793
 11
-975.696241435
 21
-1099.880519563793
 72
     1
 10
-975.696241435
 20
-1099.880519563793
 11
-974.2982883880597
 21
-1102.934329087604
 97
        8
330
34E
330
308
330
34D
330
350
330
305
330
34F
330
306
330
307
 92
       16
 93
        3
 72
     1
 10
-976.6166588773183
 20
-1101.712805278079
 11
-976.0163284029358
 21
-1101.712805278079
 72
     1
 10
-976.0163284029358
 20
-1101.712805278079
 11
-976.3164936401258
 21
-1100.944990312092
 72
     1
 10
-976.3164936401258
 20
-1100.944990312092
 11
-976.6166588773183
 21
-1101.712805278079
 97
        3
330
304
330
303
330
351
 75
     1
 76
     0
 52
45.0
 41
0.1
 77
     0
 78
     1
 53
45.0
 43
0.0
 44
0.0
 45
-0.0707106781186548
 46
0.0707106781186548
 79
     0
 98
        1
 10
0.0
 20
0.0
  0
HATCH
  5
41D
330
71
100
AcDbEntity
  8
1
  6
Continuous
 62
     2
100
AcDbHatch
 10
0.0
 20
0.0
 30
0.0
210
0.0
220
0.0
230
1.0
  2
_USER
 70
     0
 71
     1
 91
        1
 92
        1
 93
        8
 72
     1
 10
-980.4922110313743
 20
-1099.880519563793
 11
-980.4922110313743
 21
-1100.665784869916
 72
     1
 10
-980.4922110313743
 20
-1100.665784869916
 11
-979.6811119938997
 21
-1100.665784869916
 72
     1
 10
-979.6811119938997
 20
-1100.665784869916
 11
-979.6811119938997
 21
-1102.934329087604
 72
     1
 10
-979.6811119938997
 20
-1102.934329087604
 11
-978.4883192917332
 21
-1102.934329087604
 72
     1
 10
-978.4883192917332
 20
-1102.934329087604
 11
-978.4883192917332
 21
-1100.665784869916
 72
     1
 10
-978.4883192917332
 20
-1100.665784869916
 11
-977.6772202542606
 21
-1100.665784869916
 72
     1
 10
-977.6772202542606
 20
-1100.665784869916
 11
-977.6772202542606
 21
-1099.880519563793
 72
     1
 10
-977.6772202542606
 20
-1099.880519563793
 11
-980.4922110313743
 21
-1099.880519563793
 97
        8
330
34A
330
349
330
348
330
309
330
30A
330
34C
330
30B
330
34B
 75
     1
 76
     0
 52
45.0
 41
0.1
 77
     0
 78
     1
 53
45.0
 43
0.0
 44
0.0
 45
-0.0707106781186548
 46
0.0707106781186548
 79
     0
 98
        1
 10
0.0
 20
0.0
  0
HATCH
  5
41E
330
71
100
AcDbEntity
  8
1
  6
Continuous
 62
     2
100
AcDbHatch
 10
0.0
 20
0.0
 30
0.0
210
0.0
220
0.0
230
1.0
  2
_USER
 70
     0
 71
     1
 91
        1
 92
        1
 93
        8
 72
     1
 10
-980.4922110313743
 20
-1099.880519563793
 11
-980.4922110313743
 21
-1100.665784869916
 72
     1
 10
-980.4922110313743
 20
-1100.665784869916
 11
-979.6811119938997
 21
-1100.665784869916
 72
     1
 10
-979.6811119938997
 20
-1100.665784869916
 11
-979.6811119938997
 21
-1102.934329087604
 72
     1
 10
-979.6811119938997
 20
-1102.934329087604
 11
-978.4883192917332
 21
-1102.934329087604
 72
     1
 10
-978.4883192917332
 20
-1102.934329087604
 11
-978.4883192917332
 21
-1100.665784869916
 72
     1
 10
-978.4883192917332
 20
-1100.665784869916
 11
-977.6772202542606
 21
-1100.665784869916
 72
     1
 10
-977.6772202542606
 20
-1100.665784869916
 11
-977.6772202542606
 21
-1099.880519563793
 72
     1
 10
-977.6772202542606
 20
-1099.880519563793
 11
-980.4922110313743
 21
-1099.880519563793
 97
        8
330
34A
330
349
330
348
330
309
330
30A
330
34C
330
30B
330
34B
 75
     1
 76
     0
 52
45.0
 41
0.1
 77
     0
 78
     1
 53
45.0
 43
0.0
 44
0.0
 45
-0.0707106781186548
 46
0.0707106781186548
 79
     0
 98
        1
 10
0.0
 20
0.0
  0
HATCH
  5
41F
330
71
100
AcDbEntity
  8
1
  6
Continuous
 62
     2
100
AcDbHatch
 10
0.0
 20
0.0
 30
0.0
210
0.0
220
0.0
230
1.0
  2
_USER
 70
     0
 71
     1
 91
        1
 92
        1
 93
       10
 72
     1
 10
-977.8202044476352
 20
-1096.521329087618
 11
-979.0129971498017
 21
-1096.521329087618
 72
     1
 10
-979.0129971498017
 20
-1096.521329087618
 11
-979.0129971498017
 21
-1099.575138611429
 72
     1
 10
-979.0129971498017
 20
-1099.575138611429
 11
-977.8202044476352
 21
-1099.575138611429
 72
     1
 10
-977.8202044476352
 20
-1099.575138611429
 11
-977.8202044476352
 21
-1098.266363101225
 72
     1
 10
-977.8202044476352
 20
-1098.266363101225
 11
-976.5797000373811
 21
-1099.575138611429
 72
     1
 10
-976.5797000373811
 20
-1099.575138611429
 11
-975.3869073352146
 21
-1099.575138611429
 72
     1
 10
-975.3869073352146
 20
-1099.575138611429
 11
-975.3869073352146
 21
-1096.521329087618
 72
     1
 10
-975.3869073352146
 20
-1096.521329087618
 11
-976.5797000373811
 21
-1096.521329087618
 72
     1
 10
-976.5797000373811
 20
-1096.521329087618
 11
-976.5797000373811
 21
-1097.830104597823
 72
     1
 10
-976.5797000373811
 20
-1097.830104597823
 11
-977.8202044476352
 21
-1096.521329087618
 97
       10
330
344
330
30E
330
30F
330
310
330
311
330
347
330
30C
330
346
330
345
330
30D
 75
     1
 76
     0
 52
45.0
 41
0.1
 77
     0
 78
     1
 53
45.0
 43
0.0
 44
0.0
 45
-0.0707106781186548
 46
0.0707106781186548
 79
     0
 98
        1
 10
0.0
 20
0.0
  0
HATCH
  5
420
330
71
100
AcDbEntity
  8
1
  6
Continuous
 62
     2
100
AcDbHatch
 10
0.0
 20
0.0
 30
0.0
210
0.0
220
0.0
230
1.0
  2
_USER
 70
     0
 71
     1
 91
        1
 92
        1
 93
       10
 72
     1
 10
-977.8202044476352
 20
-1096.521329087618
 11
-979.0129971498017
 21
-1096.521329087618
 72
     1
 10
-979.0129971498017
 20
-1096.521329087618
 11
-979.0129971498017
 21
-1099.575138611429
 72
     1
 10
-979.0129971498017
 20
-1099.575138611429
 11
-977.8202044476352
 21
-1099.575138611429
 72
     1
 10
-977.8202044476352
 20
-1099.575138611429
 11
-977.8202044476352
 21
-1098.266363101225
 72
     1
 10
-977.8202044476352
 20
-1098.266363101225
 11
-976.5797000373811
 21
-1099.575138611429
 72
     1
 10
-976.5797000373811
 20
-1099.575138611429
 11
-975.3869073352146
 21
-1099.575138611429
 72
     1
 10
-975.3869073352146
 20
-1099.575138611429
 11
-975.3869073352146
 21
-1096.521329087618
 72
     1
 10
-975.3869073352146
 20
-1096.521329087618
 11
-976.5797000373811
 21
-1096.521329087618
 72
     1
 10
-976.5797000373811
 20
-1096.521329087618
 11
-976.5797000373811
 21
-1097.830104597823
 72
     1
 10
-976.5797000373811
 20
-1097.830104597823
 11
-977.8202044476352
 21
-1096.521329087618
 97
       10
330
344
330
30E
330
30F
330
310
330
311
330
347
330
30C
330
346
330
345
330
30D
 75
     1
 76
     0
 52
45.0
 41
0.1
 77
     0
 78
     1
 53
45.0
 43
0.0
 44
0.0
 45
-0.0707106781186548
 46
0.0707106781186548
 79
     0
 98
        1
 10
0.0
 20
0.0
  0
HATCH
  5
421
330
71
100
AcDbEntity
  8
1
  6
Continuous
 62
     2
100
AcDbHatch
 10
0.0
 20
0.0
 30
0.0
210
0.0
220
0.0
230
1.0
  2
_USER
 70
     0
 71
     1
 91
        1
 92
        1
 93
       10
 72
     1
 10
-983.0686432680537
 20
-1099.880519563793
 11
-984.2614359702213
 21
-1099.880519563793
 72
     1
 10
-984.2614359702213
 20
-1099.880519563793
 11
-984.2614359702213
 21
-1102.934329087604
 72
     1
 10
-984.2614359702213
 20
-1102.934329087604
 11
-983.0686432680537
 21
-1102.934329087604
 72
     1
 10
-983.0686432680537
 20
-1102.934329087604
 11
-983.0686432680537
 21
-1101.625553577399
 72
     1
 10
-983.0686432680537
 20
-1101.625553577399
 11
-981.8281388578009
 21
-1102.934329087604
 72
     1
 10
-981.8281388578009
 20
-1102.934329087604
 11
-980.6353461556345
 21
-1102.934329087604
 72
     1
 10
-980.6353461556345
 20
-1102.934329087604
 11
-980.6353461556345
 21
-1099.880519563793
 72
     1
 10
-980.6353461556345
 20
-1099.880519563793
 11
-981.8281388578009
 21
-1099.880519563793
 72
     1
 10
-981.8281388578009
 20
-1099.880519563793
 11
-981.8281388578009
 21
-1101.189295073998
 72
     1
 10
-981.8281388578009
 20
-1101.189295073998
 11
-983.0686432680537
 21
-1099.880519563793
 97
       10
330
313
330
314
330
315
330
341
330
316
330
317
330
340
330
343
330
342
330
312
 75
     1
 76
     0
 52
45.0
 41
0.1
 77
     0
 78
     1
 53
45.0
 43
0.0
 44
0.0
 45
-0.0707106781186548
 46
0.0707106781186548
 79
     0
 98
        1
 10
0.0
 20
0.0
  0
HATCH
  5
422
330
71
100
AcDbEntity
  8
1
  6
Continuous
 62
     2
100
AcDbHatch
 10
0.0
 20
0.0
 30
0.0
210
0.0
220
0.0
230
1.0
  2
_USER
 70
     0
 71
     1
 91
        1
 92
        1
 93
       10
 72
     1
 10
-983.0686432680537
 20
-1099.880519563793
 11
-984.2614359702213
 21
-1099.880519563793
 72
     1
 10
-984.2614359702213
 20
-1099.880519563793
 11
-984.2614359702213
 21
-1102.934329087604
 72
     1
 10
-984.2614359702213
 20
-1102.934329087604
 11
-983.0686432680537
 21
-1102.934329087604
 72
     1
 10
-983.0686432680537
 20
-1102.934329087604
 11
-983.0686432680537
 21
-1101.625553577399
 72
     1
 10
-983.0686432680537
 20
-1101.625553577399
 11
-981.8281388578009
 21
-1102.934329087604
 72
     1
 10
-981.8281388578009
 20
-1102.934329087604
 11
-980.6353461556345
 21
-1102.934329087604
 72
     1
 10
-980.6353461556345
 20
-1102.934329087604
 11
-980.6353461556345
 21
-1099.880519563793
 72
     1
 10
-980.6353461556345
 20
-1099.880519563793
 11
-981.8281388578009
 21
-1099.880519563793
 72
     1
 10
-981.8281388578009
 20
-1099.880519563793
 11
-981.8281388578009
 21
-1101.189295073998
 72
     1
 10
-981.8281388578009
 20
-1101.189295073998
 11
-983.0686432680537
 21
-1099.880519563793
 97
       10
330
313
330
314
330
315
330
341
330
316
330
317
330
340
330
343
330
342
330
312
 75
     1
 76
     0
 52
45.0
 41
0.1
 77
     0
 78
     1
 53
45.0
 43
0.0
 44
0.0
 45
-0.0707106781186548
 46
0.0707106781186548
 79
     0
 98
        1
 10
0.0
 20
0.0
  0
HATCH
  5
423
330
71
100
AcDbEntity
  8
1
  6
Continuous
 62
     2
100
AcDbHatch
 10
0.0
 20
0.0
 30
0.0
210
0.0
220
0.0
230
1.0
  2
_USER
 70
     0
 71
     1
 91
        1
 92
        1
 93
       12
 72
     1
 10
-984.0704382069891
 20
-1096.521329087618
 11
-984.0704382069891
 21
-1099.575138611429
 72
     1
 10
-984.0704382069891
 20
-1099.575138611429
 11
-985.2632309091556
 21
-1099.575138611429
 72
     1
 10
-985.2632309091556
 20
-1099.575138611429
 11
-985.2632309091556
 21
-1098.440866502586
 72
     1
 10
-985.2632309091556
 20
-1098.440866502586
 11
-986.312888487063
 21
-1098.440866502586
 72
     1
 10
-986.312888487063
 20
-1098.440866502586
 11
-986.312888487063
 21
-1099.575138611429
 72
     1
 10
-986.312888487063
 20
-1099.575138611429
 11
-987.5056811892297
 21
-1099.575138611429
 72
     1
 10
-987.5056811892297
 20
-1099.575138611429
 11
-987.5056811892297
 21
-1096.521329087618
 72
     1
 10
-987.5056811892297
 20
-1096.521329087618
 11
-986.312888487063
 21
-1096.521329087618
 72
     1
 10
-986.312888487063
 20
-1096.521329087618
 11
-986.312888487063
 21
-1097.590162420953
 72
     1
 10
-986.312888487063
 20
-1097.590162420953
 11
-985.2632309091556
 21
-1097.590162420953
 72
     1
 10
-985.2632309091556
 20
-1097.590162420953
 11
-985.2632309091556
 21
-1096.521329087618
 72
     1
 10
-985.2632309091556
 20
-1096.521329087618
 11
-984.0704382069891
 21
-1096.521329087618
 97
       12
330
33B
330
33A
330
339
330
321
330
322
330
338
330
323
330
337
330
336
330
335
330
31F
330
320
 75
     1
 76
     0
 52
45.0
 41
0.1
 77
     0
 78
     1
 53
45.0
 43
0.0
 44
0.0
 45
-0.0707106781186548
 46
0.0707106781186548
 79
     0
 98
        1
 10
0.0
 20
0.0
  0
HATCH
  5
424
330
71
100
AcDbEntity
  8
1
  6
Continuous
 62
     2
100
AcDbHatch
 10
0.0
 20
0.0
 30
0.0
210
0.0
220
0.0
230
1.0
  2
_USER
 70
     0
 71
     1
 91
        1
 92
        1
 93
       12
 72
     1
 10
-984.0704382069891
 20
-1096.521329087618
 11
-984.0704382069891
 21
-1099.575138611429
 72
     1
 10
-984.0704382069891
 20
-1099.575138611429
 11
-985.2632309091556
 21
-1099.575138611429
 72
     1
 10
-985.2632309091556
 20
-1099.575138611429
 11
-985.2632309091556
 21
-1098.440866502586
 72
     1
 10
-985.2632309091556
 20
-1098.440866502586
 11
-986.312888487063
 21
-1098.440866502586
 72
     1
 10
-986.312888487063
 20
-1098.440866502586
 11
-986.312888487063
 21
-1099.575138611429
 72
     1
 10
-986.312888487063
 20
-1099.575138611429
 11
-987.5056811892297
 21
-1099.575138611429
 72
     1
 10
-987.5056811892297
 20
-1099.575138611429
 11
-987.5056811892297
 21
-1096.521329087618
 72
     1
 10
-987.5056811892297
 20
-1096.521329087618
 11
-986.312888487063
 21
-1096.521329087618
 72
     1
 10
-986.312888487063
 20
-1096.521329087618
 11
-986.312888487063
 21
-1097.590162420953
 72
     1
 10
-986.312888487063
 20
-1097.590162420953
 11
-985.2632309091556
 21
-1097.590162420953
 72
     1
 10
-985.2632309091556
 20
-1097.590162420953
 11
-985.2632309091556
 21
-1096.521329087618
 72
     1
 10
-985.2632309091556
 20
-1096.521329087618
 11
-984.0704382069891
 21
-1096.521329087618
 97
       12
330
33B
330
33A
330
339
330
321
330
322
330
338
330
323
330
337
330
336
330
335
330
31F
330
320
 75
     1
 76
     0
 52
45.0
 41
0.1
 77
     0
 78
     1
 53
45.0
 43
0.0
 44
0.0
 45
-0.0707106781186548
 46
0.0707106781186548
 79
     0
 98
        1
 10
0.0
 20
0.0
  0
ENDBLK
  5
73
330
71
100
AcDbEntity
  8
0
100
AcDbBlockEnd
  0
BLOCK
  5
75
330
74
100
AcDbEntity
  8
0
100
AcDbBlockBegin
  2
_punkt
 70
     0
 10
-872.1931343932002
 20
-1110.22782908762
 30
0.0
  3
_punkt
  1

  0
LINE
  5
425
330
74
100
AcDbEntity
  8
1
  6
Continuous
 62
     2
100
AcDbLine
 10
-872.1931343932002
 20
-1110.22782908762
 30
0.0
 11
-872.1931343932002
 21
-1115.22782908762
 31
0.0
  0
LINE
  5
426
330
74
100
AcDbEntity
  8
1
  6
Continuous
 62
     2
100
AcDbLine
 10
-872.1931343932002
 20
-1110.22782908762
 30
0.0
 11
-867.1931343932013
 21
-1110.22782908762
 31
0.0
  0
ENDBLK
  5
76
330
74
100
AcDbEntity
  8
0
100
AcDbBlockEnd
  0
BLOCK
  5
7A
330
77
100
AcDbEntity
  8
0
100
AcDbBlockBegin
  2
A4I_CS
 70
     0
 10
-872.1931343932002
 20
-1115.22782908762
 30
0.0
  3
A4I_CS
  1

  0
INSERT
  5
78
330
77
100
AcDbEntity
  8
1
100
AcDbBlockReference
  2
_rahmen
 10
-872.1931343932002
 20
-1115.22782908762
 30
0.0
  0
INSERT
  5
79
330
77
100
AcDbEntity
  8
1
100
AcDbBlockReference
  2
_punkt
 10
-872.1931343932002
 20
-1110.22782908762
 30
0.0
  0
ENDBLK
  5
7B
330
77
100
AcDbEntity
  8
0
100
AcDbBlockEnd
  0
BLOCK
  5
84
330
7C
100
AcDbEntity
  8
0
100
AcDbBlockBegin
  2
1
 70
     0
 10
0.0
 20
0.0
 30
0.0
  3
1
  1

  0
INSERT
  5
7D
330
7C
100
AcDbEntity
  8
0
100
AcDbBlockReference
  2
AllgSicht1
 10
-926.99999916243
 20
-1044.99999984853
 30
0.0
  0
INSERT
  5
7E
330
7C
100
AcDbEntity
  8
0
100
AcDbBlockReference
  2
Drfsicht1
 10
-1044.625000139727
 20
-1051.473113109772
 30
0.0
  0
INSERT
  5
7F
330
7C
100
AcDbEntity
  8
0
100
AcDbBlockReference
  2
Rcksicht1
 10
-936.3749998602678
 20
-972.99999966932
 30
0.0
  0
INSERT
  5
80
330
7C
100
AcDbEntity
  8
0
100
AcDbBlockReference
  2
SA_links1
 10
-990.000000185122
 20
-972.99999966932
 30
0.0
  0
INSERT
  5
81
330
7C
100
AcDbEntity
  8
0
100
AcDbBlockReference
  2
SA_rechts1
 10
-1129.109694315182
 20
-974.99999966932
 30
0.0
  0
INSERT
  5
82
330
7C
100
AcDbEntity
  8
0
100
AcDbBlockReference
  2
Vordans1
 10
-1044.625000139727
 20
-972.99999966932
 30
0.0
  0
INSERT
  5
83
330
7C
100
AcDbEntity
  8
0
100
AcDbBlockReference
  2
A4I_CS
 10
-872.1931343932002
 20
-1115.22782908762
 30
0.0
  0
ENDBLK
  5
85
330
7C
100
AcDbEntity
  8
0
100
AcDbBlockEnd
  0
BLOCK
  5
1AA
330
1A0
100
AcDbEntity
  8
0
100
AcDbBlockBegin
  2
*D17
 70
     1
 10
0.0
 20
0.0
 30
0.0
  3
*D17
  1

  0
LINE
  5
1A1
330
1A0
100
AcDbEntity
  8
1
  6
Continuous
 62
     2
100
AcDbLine
 10
-1079.174999279459
 20
-1061.548112919039
 30
0.0
 11
-1079.174999279459
 21
-1054.548112919039
 31
0.0
  0
LINE
  5
1A2
330
1A0
100
AcDbEntity
  8
1
  6
Continuous
 62
     2
100
AcDbLine
 10
-1079.174999279459
 20
-1054.548112919039
 30
0.0
 11
-1079.174999279459
 21
-1048.39811292465
 31
0.0
  0
LINE
  5
1A3
330
1A0
100
AcDbEntity
  8
1
  6
Continuous
 62
     2
100
AcDbLine
 10
-1079.174999279459
 20
-1048.39811292465
 30
0.0
 11
-1079.174999279459
 21
-1034.85115327029
 31
0.0
  0
LINE
  5
1A4
330
1A0
100
AcDbEntity
  8
1
  6
Continuous
 62
     2
100
AcDbLine
 10
-1069.174999279459
 20
-1054.548112919039
 30
0.0
 11
-1080.674999279459
 21
-1054.548112919039
 31
0.0
  0
LINE
  5
1A5
330
1A0
100
AcDbEntity
  8
1
  6
Continuous
 62
     2
100
AcDbLine
 10
-1069.174999279459
 20
-1048.39811292465
 30
0.0
 11
-1080.674999279459
 21
-1048.39811292465
 31
0.0
  0
SOLID
  5
1A6
330
1A0
100
AcDbEntity
  8
1
 62
     2
100
AcDbTrace
 10
-1078.714215537903
 20
-1058.048112919039
 30
0.0
 11
-1079.635783021015
 21
-1058.048112919039
 31
0.0
 12
-1079.174999279459
 22
-1054.548112919039
 32
0.0
 13
-1079.174999279459
 23
-1054.548112919039
 33
0.0
  0
SOLID
  5
1A7
330
1A0
100
AcDbEntity
  8
1
 62
     2
100
AcDbTrace
 10
-1079.635783021015
 20
-1044.89811292465
 30
0.0
 11
-1078.714215537903
 21
-1044.89811292465
 31
0.0
 12
-1079.174999279459
 22
-1048.39811292465
 32
0.0
 13
-1079.174999279459
 23
-1048.39811292465
 33
0.0
  0
MTEXT
  5
1A9
330
1A0
100
AcDbEntity
  8
1
 62
     3
100
AcDbMText
 10
-1081.024999279459
 20
-1043.42615327029
 30
0.0
 40
3.5
 41
0.0
 71
     7
 72
     1
  1
6,15
  7
CONVERTER_11
 11
0.0
 21
1.0
 31
0.0
 73
     1
 44
0.60024009603842
  0
ENDBLK
  5
1AB
330
1A0
100
AcDbEntity
  8
0
100
AcDbBlockEnd
  0
BLOCK
  5
2BE
330
2B7
100
AcDbEntity
  8
0
100
AcDbBlockBegin
  2
*D18
 70
     1
 10
0.0
 20
0.0
 30
0.0
  3
*D18
  1

  0
LINE
  5
2B8
330
2B7
100
AcDbEntity
  8
1
  6
Continuous
 62
     2
100
AcDbLine
 10
-1079.174999279459
 20
-989.5749993386397
 30
0.0
 11
-1079.174999279459
 21
-949.5749993386363
 31
0.0
  0
LINE
  5
2B9
330
2B7
100
AcDbEntity
  8
1
  6
Continuous
 62
     2
100
AcDbLine
 10
-1050.37499927946
 20
-949.5749993386363
 30
0.0
 11
-1080.674999279459
 21
-949.5749993386363
 31
0.0
  0
LINE
  5
2BA
330
2B7
100
AcDbEntity
  8
1
  6
Continuous
 62
     2
100
AcDbLine
 10
-1061.368832290983
 20
-989.5749993386397
 30
0.0
 11
-1080.674999279459
 21
-989.5749993386397
 31
0.0
  0
SOLID
  5
2BB
330
2B7
100
AcDbEntity
  8
1
 62
     2
100
AcDbTrace
 10
-1079.635783021015
 20
-986.0749993386397
 30
0.0
 11
-1078.714215537903
 21
-986.0749993386397
 31
0.0
 12
-1079.174999279459
 22
-989.5749993386397
 32
0.0
 13
-1079.174999279459
 23
-989.5749993386397
 33
0.0
  0
SOLID
  5
2BC
330
2B7
100
AcDbEntity
  8
1
 62
     2
100
AcDbTrace
 10
-1078.714215537903
 20
-953.0749993386363
 30
0.0
 11
-1079.635783021015
 21
-953.0749993386363
 31
0.0
 12
-1079.174999279459
 22
-949.5749993386363
 32
0.0
 13
-1079.174999279459
 23
-949.5749993386363
 33
0.0
  0
MTEXT
  5
2BD
330
2B7
100
AcDbEntity
  8
1
 62
     3
100
AcDbMText
 10
-1080.674999279459
 20
-971.80806862459
 30
0.0
 40
3.5
 41
0.0
 71
     7
 72
     1
  1
40
  7
CONVERTER_11
 11
0.0
 21
1.0
 31
0.0
 73
     1
 44
0.60024009603842
  0
ENDBLK
  5
2BF
330
2B7
100
AcDbEntity
  8
0
100
AcDbBlockEnd
  0
BLOCK
  5
2C9
330
2C2
100
AcDbEntity
  8
0
100
AcDbBlockBegin
  2
*D19
 70
     1
 10
0.0
 20
0.0
 30
0.0
  3
*D19
  1

  0
LINE
  5
2C3
330
2C2
100
AcDbEntity
  8
1
  6
Continuous
 62
     2
100
AcDbLine
 10
-1045.174999279469
 20
-1012.058209747582
 30
0.0
 11
-1020.074999279465
 21
-1012.058209747582
 31
0.0
  0
LINE
  5
2C4
330
2C2
100
AcDbEntity
  8
1
  6
Continuous
 62
     2
100
AcDbLine
 10
-1045.174999279469
 20
-991.086634583679
 30
0.0
 11
-1045.174999279469
 21
-1013.558209747582
 31
0.0
  0
LINE
  5
2C5
330
2C2
100
AcDbEntity
  8
1
  6
Continuous
 62
     2
100
AcDbLine
 10
-1020.074999279465
 20
-969.3249993386313
 30
0.0
 11
-1020.074999279465
 21
-1013.558209747582
 31
0.0
  0
SOLID
  5
2C6
330
2C2
100
AcDbEntity
  8
1
 62
     2
100
AcDbTrace
 10
-1041.674999279469
 20
-1011.597426006026
 30
0.0
 11
-1041.674999279469
 21
-1012.518993489138
 31
0.0
 12
-1045.174999279469
 22
-1012.058209747582
 32
0.0
 13
-1045.174999279469
 23
-1012.058209747582
 33
0.0
  0
SOLID
  5
2C7
330
2C2
100
AcDbEntity
  8
1
 62
     2
100
AcDbTrace
 10
-1023.574999279465
 20
-1012.518993489138
 30
0.0
 11
-1023.574999279465
 21
-1011.597426006026
 31
0.0
 12
-1020.074999279465
 22
-1012.058209747582
 32
0.0
 13
-1020.074999279465
 23
-1012.058209747582
 33
0.0
  0
MTEXT
  5
2C8
330
2C2
100
AcDbEntity
  8
1
 62
     3
100
AcDbMText
 10
-1036.849666659013
 20
-1010.208209747582
 30
0.0
 40
3.5
 41
0.0
 71
     7
 72
     1
  1
25,1
  7
CONVERTER_11
 11
0.9999999999970619
 21
2.424068405545306E-6
 31
0.0
 73
     1
 44
0.60024009603842
  0
ENDBLK
  5
2CA
330
2C2
100
AcDbEntity
  8
0
100
AcDbBlockEnd
  0
BLOCK
  5
2D4
330
2CD
100
AcDbEntity
  8
0
100
AcDbBlockBegin
  2
*D20
 70
     1
 10
0.0
 20
0.0
 30
0.0
  3
*D20
  1

  0
LINE
  5
2CE
330
2CD
100
AcDbEntity
  8
1
  6
Continuous
 62
     2
100
AcDbLine
 10
-1086.174999279459
 20
-996.4249993386458
 30
0.0
 11
-1086.174999279459
 21
-949.5749993386365
 31
0.0
  0
LINE
  5
2CF
330
2CD
100
AcDbEntity
  8
1
  6
Continuous
 62
     2
100
AcDbLine
 10
-1069.174999279459
 20
-996.4249993386458
 30
0.0
 11
-1087.674999279459
 21
-996.4249993386458
 31
0.0
  0
LINE
  5
2D0
330
2CD
100
AcDbEntity
  8
1
  6
Continuous
 62
     2
100
AcDbLine
 10
-1057.774999279459
 20
-949.5749993386365
 30
0.0
 11
-1087.674999279459
 21
-949.5749993386365
 31
0.0
  0
SOLID
  5
2D1
330
2CD
100
AcDbEntity
  8
1
 62
     2
100
AcDbTrace
 10
-1086.635783021015
 20
-992.9249993386458
 30
0.0
 11
-1085.714215537903
 21
-992.9249993386458
 31
0.0
 12
-1086.174999279459
 22
-996.4249993386458
 32
0.0
 13
-1086.174999279459
 23
-996.4249993386458
 33
0.0
  0
SOLID
  5
2D2
330
2CD
100
AcDbEntity
  8
1
 62
     2
100
AcDbTrace
 10
-1085.714215537903
 20
-953.0749993386365
 30
0.0
 11
-1086.635783021015
 21
-953.0749993386365
 31
0.0
 12
-1086.174999279459
 22
-949.5749993386365
 32
0.0
 13
-1086.174999279459
 23
-949.5749993386365
 33
0.0
  0
MTEXT
  5
2D3
330
2CD
100
AcDbEntity
  8
1
 62
     3
100
AcDbMText
 10
-1088.024999279459
 20
-980.093106865398
 30
0.0
 40
3.5
 41
0.0
 71
     7
 72
     1
  1
46,85
  7
CONVERTER_11
 11
0.0
 21
1.0
 31
0.0
 73
     1
 44
0.60024009603842
  0
ENDBLK
  5
2D5
330
2CD
100
AcDbEntity
  8
0
100
AcDbBlockEnd
  0
BLOCK
  5
2DF
330
2D8
100
AcDbEntity
  8
0
100
AcDbBlockBegin
  2
*D21
 70
     1
 10
0.0
 20
0.0
 30
0.0
  3
*D21
  1

  0
LINE
  5
2D9
330
2D8
100
AcDbEntity
  8
1
  6
Continuous
 62
     2
100
AcDbLine
 10
-1069.174999279459
 20
-1020.424999338646
 30
0.0
 11
-1020.074999279465
 21
-1020.424999338646
 31
0.0
  0
LINE
  5
2DA
330
2D8
100
AcDbEntity
  8
1
  6
Continuous
 62
     2
100
AcDbLine
 10
-1069.174999279459
 20
-996.4249993386458
 30
0.0
 11
-1069.174999279459
 21
-1021.924999338646
 31
0.0
  0
LINE
  5
2DB
330
2D8
100
AcDbEntity
  8
1
  6
Continuous
 62
     2
100
AcDbLine
 10
-1020.074999279465
 20
-969.3249993386313
 30
0.0
 11
-1020.074999279465
 21
-1021.924999338646
 31
0.0
  0
SOLID
  5
2DC
330
2D8
100
AcDbEntity
  8
1
 62
     2
100
AcDbTrace
 10
-1065.674999279459
 20
-1019.96421559709
 30
0.0
 11
-1065.674999279459
 21
-1020.885783080202
 31
0.0
 12
-1069.174999279459
 22
-1020.424999338646
 32
0.0
 13
-1069.174999279459
 23
-1020.424999338646
 33
0.0
  0
SOLID
  5
2DD
330
2D8
100
AcDbEntity
  8
1
 62
     2
100
AcDbTrace
 10
-1023.574999279465
 20
-1020.885783080202
 30
0.0
 11
-1023.574999279465
 21
-1019.96421559709
 31
0.0
 12
-1020.074999279465
 22
-1020.424999338646
 32
0.0
 13
-1020.074999279465
 23
-1020.424999338646
 33
0.0
  0
MTEXT
  5
2DE
330
2D8
100
AcDbEntity
  8
1
 62
     3
100
AcDbMText
 10
-1050.05841217098
 20
-1018.574999338646
 30
0.0
 40
3.5
 41
0.0
 71
     7
 72
     1
  1
49,1
  7
CONVERTER_11
 11
0.9999999999970619
 21
2.424068405545306E-6
 31
0.0
 73
     1
 44
0.60024009603842
  0
ENDBLK
  5
2E0
330
2D8
100
AcDbEntity
  8
0
100
AcDbBlockEnd
  0
BLOCK
  5
2EA
330
2E3
100
AcDbEntity
  8
0
100
AcDbBlockBegin
  2
*D22
 70
     1
 10
0.0
 20
0.0
 30
0.0
  3
*D22
  1

  0
LINE
  5
2E4
330
2E3
100
AcDbEntity
  8
1
  6
Continuous
 62
     2
100
AcDbLine
 10
-1027.674999279469
 20
-1004.058209747582
 30
0.0
 11
-1045.174999279469
 21
-1004.058209747582
 31
0.0
  0
LINE
  5
2E5
330
2E3
100
AcDbEntity
  8
1
  6
Continuous
 62
     2
100
AcDbLine
 10
-1027.674999279469
 20
-989.5749993386389
 30
0.0
 11
-1027.674999279469
 21
-1005.558209747582
 31
0.0
  0
LINE
  5
2E6
330
2E3
100
AcDbEntity
  8
1
  6
Continuous
 62
     2
100
AcDbLine
 10
-1045.174999279469
 20
-991.086634583679
 30
0.0
 11
-1045.174999279469
 21
-1005.558209747582
 31
0.0
  0
SOLID
  5
2E7
330
2E3
100
AcDbEntity
  8
1
 62
     2
100
AcDbTrace
 10
-1031.174999279469
 20
-1004.518993489138
 30
0.0
 11
-1031.174999279469
 21
-1003.597426006026
 31
0.0
 12
-1027.674999279469
 22
-1004.058209747582
 32
0.0
 13
-1027.674999279469
 23
-1004.058209747582
 33
0.0
  0
SOLID
  5
2E8
330
2E3
100
AcDbEntity
  8
1
 62
     2
100
AcDbTrace
 10
-1041.674999279469
 20
-1003.597426006026
 30
0.0
 11
-1041.674999279469
 21
-1004.518993489138
 31
0.0
 12
-1045.174999279469
 22
-1004.058209747582
 32
0.0
 13
-1045.174999279469
 23
-1004.058209747582
 33
0.0
  0
MTEXT
  5
2E9
330
2E3
100
AcDbEntity
  8
1
 62
     3
100
AcDbMText
 10
-1041.30384634958
 20
-1002.208209747582
 30
0.0
 40
3.5
 41
0.0
 71
     7
 72
     1
  1
17,5
  7
CONVERTER_11
 11
0.9999999999970619
 21
2.424068405545306E-6
 31
0.0
 73
     1
 44
0.60024009603842
  0
ENDBLK
  5
2EB
330
2E3
100
AcDbEntity
  8
0
100
AcDbBlockEnd
  0
ENDSEC
  0
SECTION
  2
ENTITIES
  0
INSERT
  5
86
330
1F
100
AcDbEntity
  8
1
100
AcDbBlockReference
  2
1
 10
0.0
 20
0.0
 30
0.0
  0
ENDSEC
  0
SECTION
  2
OBJECTS
  0
DICTIONARY
  5
C
330
0
100
AcDbDictionary
281
     1
  3
ACAD_GROUP
350
D
  3
ACAD_LAYOUT
350
1A
  3
ACAD_MATERIAL
350
3B
  3
ACAD_MLEADERSTYLE
350
44E
  3
ACAD_MLINESTYLE
350
17
  3
ACAD_PLOTSETTINGS
350
19
  3
ACAD_PLOTSTYLENAME
350
E
  3
ACAD_TABLESTYLE
350
44D
  3
ACAD_VISUALSTYLE
350
2A
  0
DICTIONARY
  5
D
102
{ACAD_REACTORS
330
C
102
}
330
C
100
AcDbDictionary
281
     1
  0
DICTIONARY
  5
1A
102
{ACAD_REACTORS
330
C
102
}
330
C
100
AcDbDictionary
281
     1
  3
Layout1
350
1E
  3
Layout2
350
26
  3
Model
350
22
  0
DICTIONARY
  5
3B
102
{ACAD_REACTORS
330
C
102
}
330
C
100
AcDbDictionary
281
     1
  3
ByBlock
350
3D
  3
ByLayer
350
3C
  3
Global
350
3E
  0
DICTIONARY
  5
44E
102
{ACAD_REACTORS
330
C
102
}
330
C
100
AcDbDictionary
281
     1
  0
DICTIONARY
  5
17
102
{ACAD_REACTORS
330
C
102
}
330
C
100
AcDbDictionary
281
     1
  3
Standard
350
18
  0
DICTIONARY
  5
19
102
{ACAD_REACTORS
330
C
102
}
330
C
100
AcDbDictionary
281
     1
  0
ACDBDICTIONARYWDFLT
  5
E
102
{ACAD_REACTORS
330
C
102
}
330
C
100
AcDbDictionary
281
     1
  3
Normal
350
F
100
AcDbDictionaryWithDefault
340
F
  0
DICTIONARY
  5
44D
102
{ACAD_REACTORS
330
C
102
}
330
C
100
AcDbDictionary
281
     1
  0
DICTIONARY
  5
2A
102
{ACAD_REACTORS
330
C
102
}
330
C
100
AcDbDictionary
281
     1
  3
2dWireframe
350
2F
  3
3D Hidden
350
31
  3
3dWireframe
350
30
  3
Basic
350
32
  3
Brighten
350
36
  3
ColorChange
350
3A
  3
Conceptual
350
34
  3
Dim
350
35
  3
Facepattern
350
39
  3
Flat
350
2B
  3
FlatWithEdges
350
2C
  3
Gouraud
350
2D
  3
GouraudWithEdges
350
2E
  3
Linepattern
350
38
  3
Realistic
350
33
  3
Thicken
350
37
  0
LAYOUT
  5
1E
102
{ACAD_REACTORS
330
1A
102
}
330
1A
100
AcDbPlotSettings
  1

  2
none_device
  4

  6

 40
0.0
 41
0.0
 42
0.0
 43
0.0
 44
0.0
 45
0.0
 46
0.0
 47
0.0
 48
0.0
 49
0.0
140
0.0
141
0.0
142
1.0
143
1.0
 70
   688
 72
     0
 73
     0
 74
     5
  7

 75
    16
 76
     0
 77
     2
 78
   300
147
1.0
148
0.0
149
0.0
100
AcDbLayout
  1
Layout1
 70
     1
 71
     1
 10
0.0
 20
0.0
 11
12.0
 21
9.0
 12
0.0
 22
0.0
 32
0.0
 14
1.00000000000000E+20
 24
1.00000000000000E+20
 34
1.00000000000000E+20
 15
-1.00000000000000E+20
 25
-1.00000000000000E+20
 35
-1.00000000000000E+20
146
0.0
 13
0.0
 23
0.0
 33
0.0
 16
1.0
 26
0.0
 36
0.0
 17
0.0
 27
1.0
 37
0.0
 76
     0
330
1B
  0
LAYOUT
  5
26
102
{ACAD_REACTORS
330
1A
102
}
330
1A
100
AcDbPlotSettings
  1

  2
none_device
  4

  6

 40
0.0
 41
0.0
 42
0.0
 43
0.0
 44
0.0
 45
0.0
 46
0.0
 47
0.0
 48
0.0
 49
0.0
140
0.0
141
0.0
142
1.0
143
1.0
 70
   688
 72
     0
 73
     0
 74
     5
  7

 75
    16
 76
     0
 77
     2
 78
   300
147
1.0
148
0.0
149
0.0
100
AcDbLayout
  1
Layout2
 70
     1
 71
     2
 10
0.0
 20
0.0
 11
0.0
 21
0.0
 12
0.0
 22
0.0
 32
0.0
 14
0.0
 24
0.0
 34
0.0
 15
0.0
 25
0.0
 35
0.0
146
0.0
 13
0.0
 23
0.0
 33
0.0
 16
1.0
 26
0.0
 36
0.0
 17
0.0
 27
1.0
 37
0.0
 76
     0
330
23
  0
LAYOUT
  5
22
102
{ACAD_REACTORS
330
1A
102
}
330
1A
100
AcDbPlotSettings
  1

  2
none_device
  4

  6

 40
0.0
 41
0.0
 42
0.0
 43
0.0
 44
0.0
 45
0.0
 46
0.0
 47
0.0
 48
0.0
 49
0.0
140
0.0
141
0.0
142
1.0
143
1.0
 70
  1712
 72
     0
 73
     0
 74
     0
  7

 75
     0
 76
     0
 77
     2
 78
   300
147
1.0
148
0.0
149
0.0
100
AcDbLayout
  1
Model
 70
     1
 71
     0
 10
0.0
 20
0.0
 11
12.0
 21
9.0
 12
0.0
 22
0.0
 32
0.0
 14
-1164.193134393199
 24
-1115.22782908762
 34
0.0
 15
-867.1931343932013
 25
-905.22782908762
 35
0.0
146
0.0
 13
0.0
 23
0.0
 33
0.0
 16
1.0
 26
0.0
 36
0.0
 17
0.0
 27
1.0
 37
0.0
 76
     0
330
1F
331
29
  0
MATERIAL
  5
3D
102
{ACAD_REACTORS
330
3B
102
}
102
{ACAD_XDICTIONARY
360
449
102
}
330
3B
100
AcDbMaterial
  1
ByBlock
  0
MATERIAL
  5
3C
102
{ACAD_REACTORS
330
3B
102
}
102
{ACAD_XDICTIONARY
360
447
102
}
330
3B
100
AcDbMaterial
  1
ByLayer
  0
MATERIAL
  5
3E
102
{ACAD_REACTORS
330
3B
102
}
102
{ACAD_XDICTIONARY
360
44B
102
}
330
3B
100
AcDbMaterial
  1
Global
  0
MLINESTYLE
  5
18
102
{ACAD_REACTORS
330
17
102
}
330
17
100
AcDbMlineStyle
  2
Standard
 70
     0
  3

 62
   256
 51
90.0
 52
90.0
 71
     2
 49
0.5
 62
   256
  6
BYLAYER
 49
-0.5
 62
   256
  6
BYLAYER
  0
ACDBPLACEHOLDER
  5
F
102
{ACAD_REACTORS
330
E
102
}
330
E
  0
VISUALSTYLE
  5
2F
102
{ACAD_REACTORS
330
2A
102
}
102
{ACAD_XDICTIONARY
360
42F
102
}
330
2A
100
AcDbVisualStyle
  2
2dWireframe
 70
     4
 71
     0
 72
     2
 73
     0
 90
        0
 40
-0.6
 41
-30.0
 62
     5
 63
     7
421
 16777215
 74
     1
 91
        4
 64
     7
 65
   257
 75
     1
175
     1
 42
1.0
 92
        0
 66
   257
 43
1.0
 76
     1
 77
     6
 78
     2
 67
     7
 79
     5
170
     0
171
     0
290
     0
174
     0
 93
        1
 44
0.0
173
     0
291
     0
 45
0.0
1001
ACAD
1000
AcDbSavedByObjectVersion
1070
     0
  0
VISUALSTYLE
  5
31
102
{ACAD_REACTORS
330
2A
102
}
102
{ACAD_XDICTIONARY
360
433
102
}
330
2A
100
AcDbVisualStyle
  2
3D Hidden
 70
     6
 71
     1
 72
     2
 73
     2
 90
        0
 40
-0.6
 41
-30.0
 62
     5
 63
     7
421
 16777215
 74
     2
 91
        2
 64
     7
 65
   257
 75
     2
175
     1
 42
40.0
 92
        0
 66
   257
 43
1.0
 76
     1
 77
     6
 78
     2
 67
     7
 79
     3
170
     0
171
     0
290
     0
174
     0
 93
        1
 44
0.0
173
     0
291
     0
 45
0.0
1001
ACAD
1000
AcDbSavedByObjectVersion
1070
     0
  0
VISUALSTYLE
  5
30
102
{ACAD_REACTORS
330
2A
102
}
102
{ACAD_XDICTIONARY
360
431
102
}
330
2A
100
AcDbVisualStyle
  2
3dWireframe
 70
     5
 71
     0
 72
     2
 73
     0
 90
        0
 40
-0.6
 41
-30.0
 62
     5
 63
     7
421
 16777215
 74
     1
 91
        4
 64
     7
 65
   257
 75
     1
175
     1
 42
1.0
 92
        0
 66
   257
 43
1.0
 76
     1
 77
     6
 78
     2
 67
     7
 79
     5
170
     0
171
     0
290
     0
174
     0
 93
        1
 44
0.0
173
     0
291
     0
 45
0.0
1001
ACAD
1000
AcDbSavedByObjectVersion
1070
     0
  0
VISUALSTYLE
  5
32
102
{ACAD_REACTORS
330
2A
102
}
102
{ACAD_XDICTIONARY
360
435
102
}
330
2A
100
AcDbVisualStyle
  2
Basic
 70
     7
 71
     1
 72
     0
 73
     1
 90
        0
 40
-0.6
 41
-30.0
 62
     5
 63
     7
421
 16777215
 74
     0
 91
        4
 64
     7
 65
   257
 75
     1
175
     1
 42
1.0
 92
        8
 66
     7
 43
1.0
 76
     1
 77
     6
 78
     2
 67
     7
 79
     5
170
     0
171
     0
290
     0
174
     0
 93
        1
 44
0.0
173
     0
291
     1
 45
0.0
1001
ACAD
1000
AcDbSavedByObjectVersion
1070
     0
  0
VISUALSTYLE
  5
36
102
{ACAD_REACTORS
330
2A
102
}
102
{ACAD_XDICTIONARY
360
43D
102
}
330
2A
100
AcDbVisualStyle
  2
Brighten
 70
    12
 71
     2
 72
     2
 73
     0
 90
        0
 40
-0.6
 41
-30.0
 62
     5
 63
     7
421
 16777215
 74
     1
 91
        4
 64
     7
 65
   257
 75
     1
175
     1
 42
1.0
 92
        8
 66
     7
 43
1.0
 76
     1
 77
     6
 78
     2
 67
     7
 79
     5
170
     0
171
     0
290
     0
174
     0
 93
        1
 44
50.0
173
     0
291
     1
 45
0.0
1001
ACAD
1000
AcDbSavedByObjectVersion
1070
     0
  0
VISUALSTYLE
  5
3A
102
{ACAD_REACTORS
330
2A
102
}
102
{ACAD_XDICTIONARY
360
445
102
}
330
2A
100
AcDbVisualStyle
  2
ColorChange
 70
    16
 71
     2
 72
     2
 73
     3
 90
        0
 40
-0.6
 41
-30.0
 62
     5
 63
     8
421
  8421504
 74
     1
 91
        4
 64
     7
 65
   257
 75
     1
175
     1
 42
1.0
 92
        8
 66
     8
424
  8421504
 43
1.0
 76
     1
 77
     6
 78
     2
 67
     7
 79
     5
170
     0
171
     0
290
     0
174
     0
 93
        1
 44
0.0
173
     0
291
     1
 45
0.0
1001
ACAD
1000
AcDbSavedByObjectVersion
1070
     0
  0
VISUALSTYLE
  5
34
102
{ACAD_REACTORS
330
2A
102
}
102
{ACAD_XDICTIONARY
360
439
102
}
330
2A
100
AcDbVisualStyle
  2
Conceptual
 70
     9
 71
     3
 72
     2
 73
     0
 90
        0
 40
-0.6
 41
-30.0
 62
     5
 63
     7
421
 16777215
 74
     2
 91
        2
 64
     7
 65
   257
 75
     1
175
     1
 42
40.0
 92
        8
 66
     7
 43
1.0
 76
     1
 77
     6
 78
     2
 67
     7
 79
     3
170
     0
171
     0
290
     0
174
     0
 93
        1
 44
0.0
173
     0
291
     0
 45
0.0
1001
ACAD
1000
AcDbSavedByObjectVersion
1070
     0
  0
VISUALSTYLE
  5
35
102
{ACAD_REACTORS
330
2A
102
}
102
{ACAD_XDICTIONARY
360
43B
102
}
330
2A
100
AcDbVisualStyle
  2
Dim
 70
    11
 71
     2
 72
     2
 73
     0
 90
        0
 40
-0.6
 41
-30.0
 62
     5
 63
     7
421
 16777215
 74
     1
 91
        4
 64
     7
 65
   257
 75
     1
175
     1
 42
1.0
 92
        8
 66
     7
 43
1.0
 76
     1
 77
     6
 78
     2
 67
     7
 79
     5
170
     0
171
     0
290
     0
174
     0
 93
        1
 44
-50.0
173
     0
291
     1
 45
0.0
1001
ACAD
1000
AcDbSavedByObjectVersion
1070
     0
  0
VISUALSTYLE
  5
39
102
{ACAD_REACTORS
330
2A
102
}
102
{ACAD_XDICTIONARY
360
443
102
}
330
2A
100
AcDbVisualStyle
  2
Facepattern
 70
    15
 71
     2
 72
     2
 73
     0
 90
        0
 40
-0.6
 41
-30.0
 62
     5
 63
     7
421
 16777215
 74
     1
 91
        4
 64
     7
 65
   257
 75
     1
175
     1
 42
1.0
 92
        8
 66
     7
 43
1.0
 76
     1
 77
     6
 78
     2
 67
     7
 79
     5
170
     0
171
     0
290
     0
174
     0
 93
        1
 44
0.0
173
     0
291
     1
 45
0.0
1001
ACAD
1000
AcDbSavedByObjectVersion
1070
     0
  0
VISUALSTYLE
  5
2B
102
{ACAD_REACTORS
330
2A
102
}
102
{ACAD_XDICTIONARY
360
427
102
}
330
2A
100
AcDbVisualStyle
  2
Flat
 70
     0
 71
     2
 72
     1
 73
     1
 90
        2
 40
-0.6
 41
30.0
 62
     5
 63
     7
421
 16777215
 74
     0
 91
        4
 64
     7
 65
   257
 75
     1
175
     1
 42
1.0
 92
        8
 66
     7
 43
1.0
 76
     1
 77
     6
 78
     2
 67
     7
 79
     5
170
     0
171
     0
290
     0
174
     0
 93
       13
 44
0.0
173
     0
291
     1
 45
0.0
1001
ACAD
1000
AcDbSavedByObjectVersion
1070
     0
  0
VISUALSTYLE
  5
2C
102
{ACAD_REACTORS
330
2A
102
}
102
{ACAD_XDICTIONARY
360
429
102
}
330
2A
100
AcDbVisualStyle
  2
FlatWithEdges
 70
     1
 71
     2
 72
     1
 73
     1
 90
        2
 40
-0.6
 41
30.0
 62
     5
 63
     7
421
 16777215
 74
     1
 91
        4
 64
     7
 65
   257
 75
     1
175
     1
 42
1.0
 92
        0
 66
   257
 43
1.0
 76
     1
 77
     6
 78
     2
 67
     7
 79
     5
170
     0
171
     0
290
     0
174
     0
 93
       13
 44
0.0
173
     0
291
     1
 45
0.0
1001
ACAD
1000
AcDbSavedByObjectVersion
1070
     0
  0
VISUALSTYLE
  5
2D
102
{ACAD_REACTORS
330
2A
102
}
102
{ACAD_XDICTIONARY
360
42B
102
}
330
2A
100
AcDbVisualStyle
  2
Gouraud
 70
     2
 71
     2
 72
     2
 73
     1
 90
        2
 40
-0.6
 41
30.0
 62
     5
 63
     7
421
 16777215
 74
     0
 91
        4
 64
     7
 65
   257
 75
     1
175
     1
 42
1.0
 92
        0
 66
     7
 43
1.0
 76
     1
 77
     6
 78
     2
 67
     7
 79
     5
170
     0
171
     0
290
     0
174
     0
 93
       13
 44
0.0
173
     0
291
     1
 45
0.0
1001
ACAD
1000
AcDbSavedByObjectVersion
1070
     0
  0
VISUALSTYLE
  5
2E
102
{ACAD_REACTORS
330
2A
102
}
102
{ACAD_XDICTIONARY
360
42D
102
}
330
2A
100
AcDbVisualStyle
  2
GouraudWithEdges
 70
     3
 71
     2
 72
     2
 73
     1
 90
        2
 40
-0.6
 41
30.0
 62
     5
 63
     7
421
 16777215
 74
     1
 91
        4
 64
     7
 65
   257
 75
     1
175
     1
 42
1.0
 92
        0
 66
   257
 43
1.0
 76
     1
 77
     6
 78
     2
 67
     7
 79
     5
170
     0
171
     0
290
     0
174
     0
 93
       13
 44
0.0
173
     0
291
     1
 45
0.0
1001
ACAD
1000
AcDbSavedByObjectVersion
1070
     0
  0
VISUALSTYLE
  5
38
102
{ACAD_REACTORS
330
2A
102
}
102
{ACAD_XDICTIONARY
360
441
102
}
330
2A
100
AcDbVisualStyle
  2
Linepattern
 70
    14
 71
     2
 72
     2
 73
     0
 90
        0
 40
-0.6
 41
-30.0
 62
     5
 63
     7
421
 16777215
 74
     1
 91
        4
 64
     7
 65
   257
 75
     7
175
     7
 42
1.0
 92
        8
 66
     7
 43
1.0
 76
     1
 77
     6
 78
     2
 67
     7
 79
     5
170
     0
171
     0
290
     0
174
     0
 93
        1
 44
0.0
173
     0
291
     1
 45
0.0
1001
ACAD
1000
AcDbSavedByObjectVersion
1070
     0
  0
VISUALSTYLE
  5
33
102
{ACAD_REACTORS
330
2A
102
}
102
{ACAD_XDICTIONARY
360
437
102
}
330
2A
100
AcDbVisualStyle
  2
Realistic
 70
     8
 71
     2
 72
     2
 73
     0
 90
        0
 40
-0.6
 41
-30.0
 62
     5
 63
     7
421
 16777215
 74
     1
 91
        0
 64
     7
 65
   257
 75
     1
175
     1
 42
1.0
 92
        8
 66
     8
424
  7895160
 43
1.0
 76
     1
 77
     6
 78
     2
 67
     7
 79
     5
170
     0
171
     0
290
     0
174
     0
 93
       13
 44
0.0
173
     0
291
     0
 45
0.0
1001
ACAD
1000
AcDbSavedByObjectVersion
1070
     0
  0
VISUALSTYLE
  5
37
102
{ACAD_REACTORS
330
2A
102
}
102
{ACAD_XDICTIONARY
360
43F
102
}
330
2A
100
AcDbVisualStyle
  2
Thicken
 70
    13
 71
     2
 72
     2
 73
     0
 90
        0
 40
-0.6
 41
-30.0
 62
     5
 63
     7
421
 16777215
 74
     1
 91
        4
 64
     7
 65
   257
 75
     1
175
     1
 42
1.0
 92
       12
 66
     7
 43
1.0
 76
     1
 77
     6
 78
     2
 67
     7
 79
     5
170
     0
171
     0
290
     0
174
     0
 93
        1
 44
0.0
173
     0
291
     1
 45
0.0
1001
ACAD
1000
AcDbSavedByObjectVersion
1070
     0
  0
DICTIONARY
  5
449
330
3D
100
AcDbDictionary
280
     1
281
     1
  3
ACAD_XREC_ROUNDTRIP
360
44A
  0
DICTIONARY
  5
447
330
3C
100
AcDbDictionary
280
     1
281
     1
  3
ACAD_XREC_ROUNDTRIP
360
448
  0
DICTIONARY
  5
44B
330
3E
100
AcDbDictionary
280
     1
281
     1
  3
ACAD_XREC_ROUNDTRIP
360
44C
  0
DICTIONARY
  5
42F
330
2F
100
AcDbDictionary
280
     1
281
     1
  3
ACAD_XREC_ROUNDTRIP
360
430
  0
DICTIONARY
  5
433
330
31
100
AcDbDictionary
280
     1
281
     1
  3
ACAD_XREC_ROUNDTRIP
360
434
  0
DICTIONARY
  5
431
330
30
100
AcDbDictionary
280
     1
281
     1
  3
ACAD_XREC_ROUNDTRIP
360
432
  0
DICTIONARY
  5
435
330
32
100
AcDbDictionary
280
     1
281
     1
  3
ACAD_XREC_ROUNDTRIP
360
436
  0
DICTIONARY
  5
43D
330
36
100
AcDbDictionary
280
     1
281
     1
  3
ACAD_XREC_ROUNDTRIP
360
43E
  0
DICTIONARY
  5
445
330
3A
100
AcDbDictionary
280
     1
281
     1
  3
ACAD_XREC_ROUNDTRIP
360
446
  0
DICTIONARY
  5
439
330
34
100
AcDbDictionary
280
     1
281
     1
  3
ACAD_XREC_ROUNDTRIP
360
43A
  0
DICTIONARY
  5
43B
330
35
100
AcDbDictionary
280
     1
281
     1
  3
ACAD_XREC_ROUNDTRIP
360
43C
  0
DICTIONARY
  5
443
330
39
100
AcDbDictionary
280
     1
281
     1
  3
ACAD_XREC_ROUNDTRIP
360
444
  0
DICTIONARY
  5
427
330
2B
100
AcDbDictionary
280
     1
281
     1
  3
ACAD_XREC_ROUNDTRIP
360
428
  0
DICTIONARY
  5
429
330
2C
100
AcDbDictionary
280
     1
281
     1
  3
ACAD_XREC_ROUNDTRIP
360
42A
  0
DICTIONARY
  5
42B
330
2D
100
AcDbDictionary
280
     1
281
     1
  3
ACAD_XREC_ROUNDTRIP
360
42C
  0
DICTIONARY
  5
42D
330
2E
100
AcDbDictionary
280
     1
281
     1
  3
ACAD_XREC_ROUNDTRIP
360
42E
  0
DICTIONARY
  5
441
330
38
100
AcDbDictionary
280
     1
281
     1
  3
ACAD_XREC_ROUNDTRIP
360
442
  0
DICTIONARY
  5
437
330
33
100
AcDbDictionary
280
     1
281
     1
  3
ACAD_XREC_ROUNDTRIP
360
438
  0
DICTIONARY
  5
43F
330
37
100
AcDbDictionary
280
     1
281
     1
  3
ACAD_XREC_ROUNDTRIP
360
440
  0
XRECORD
  5
44A
102
{ACAD_REACTORS
330
449
102
}
330
449
100
AcDbXrecord
280
     1
102
MATERIAL
148
0.0
149
0.0
149
0.0
 93
        0
 94
      127
282
     0
 72
     1
 77
     1
171
     1
175
     1
179
     1
273
     0
  0
XRECORD
  5
448
102
{ACAD_REACTORS
330
447
102
}
330
447
100
AcDbXrecord
280
     1
102
MATERIAL
148
0.0
149
0.0
149
0.0
 93
        0
 94
      127
282
     0
 72
     1
 77
     1
171
     1
175
     1
179
     1
273
     0
  0
XRECORD
  5
44C
102
{ACAD_REACTORS
330
44B
102
}
330
44B
100
AcDbXrecord
280
     1
102
MATERIAL
148
0.0
149
0.0
149
0.0
 93
        0
 94
      127
282
     0
 72
     1
 77
     1
171
     1
175
     1
179
     1
273
     0
  0
XRECORD
  5
430
102
{ACAD_REACTORS
330
42F
102
}
330
42F
100
AcDbXrecord
280
     1
102
RTVSPropertyOp0
 70
     1
102
RTVSPropertyOp1
 70
     1
102
RTVSPropertyOp2
 70
     1
102
RTVSPropertyOp3
 70
     1
102
RTVSPropertyOp4
 70
     1
102
RTVSPropertyOp5
 70
     1
102
RTVSPropertyOp6
 70
     1
102
RTVSPropertyOp7
 70
     1
102
RTVSPropertyOp8
 70
     1
102
RTVSPropertyOp9
 70
     1
102
RTVSPropertyOp10
 70
     1
102
RTVSPropertyOp11
 70
     1
102
RTVSPropertyOp12
 70
     1
102
RTVSPropertyOp13
 70
     1
102
RTVSPropertyOp14
 70
     1
102
RTVSPropertyOp15
 70
     1
102
RTVSPropertyOp16
 70
     1
102
RTVSPropertyOp17
 70
     1
102
RTVSPropertyOp18
 70
     1
102
RTVSPropertyOp19
 70
     1
102
RTVSPropertyOp20
 70
     1
102
RTVSPropertyOp21
 70
     1
102
RTVSPropertyOp22
 70
     1
102
RTVSPropertyOp23
 70
     1
102
RTVSPropertyOp24
 70
     1
102
RTVSPropertyOp25
 70
     1
102
RTVSPropertyOp26
 70
     1
102
RTVSPropertyOp27
 70
     1
102
RTVSPropertyOp28
 70
     1
102
RTVSPropertyOp29
 70
     1
102
RTVSPropertyOp30
 70
     1
102
RTVSPropertyOp31
 70
     1
102
RTVSPropertyOp32
 70
     1
  0
XRECORD
  5
434
102
{ACAD_REACTORS
330
433
102
}
330
433
100
AcDbXrecord
280
     1
102
RTVSPropertyOp0
 70
     1
102
RTVSPropertyOp1
 70
     1
102
RTVSPropertyOp2
 70
     1
102
RTVSPropertyOp3
 70
     1
102
RTVSPropertyOp4
 70
     1
102
RTVSPropertyOp5
 70
     1
102
RTVSPropertyOp6
 70
     1
102
RTVSPropertyOp7
 70
     1
102
RTVSPropertyOp8
 70
     1
102
RTVSPropertyOp9
 70
     1
102
RTVSPropertyOp10
 70
     1
102
RTVSPropertyOp11
 70
     1
102
RTVSPropertyOp12
 70
     1
102
RTVSPropertyOp13
 70
     1
102
RTVSPropertyOp14
 70
     1
102
RTVSPropertyOp15
 70
     1
102
RTVSPropertyOp16
 70
     1
102
RTVSPropertyOp17
 70
     1
102
RTVSPropertyOp18
 70
     1
102
RTVSPropertyOp19
 70
     1
102
RTVSPropertyOp20
 70
     1
102
RTVSPropertyOp21
 70
     1
102
RTVSPropertyOp22
 70
     1
102
RTVSPropertyOp23
 70
     1
102
RTVSPropertyOp24
 70
     1
102
RTVSPropertyOp25
 70
     1
102
RTVSPropertyOp26
 70
     1
102
RTVSPropertyOp27
 70
     1
102
RTVSPropertyOp28
 70
     1
102
RTVSPropertyOp29
 70
     1
102
RTVSPropertyOp30
 70
     1
102
RTVSPropertyOp31
 70
     1
102
RTVSPropertyOp32
 70
     1
  0
XRECORD
  5
432
102
{ACAD_REACTORS
330
431
102
}
330
431
100
AcDbXrecord
280
     1
102
RTVSPropertyOp0
 70
     1
102
RTVSPropertyOp1
 70
     1
102
RTVSPropertyOp2
 70
     1
102
RTVSPropertyOp3
 70
     1
102
RTVSPropertyOp4
 70
     1
102
RTVSPropertyOp5
 70
     1
102
RTVSPropertyOp6
 70
     1
102
RTVSPropertyOp7
 70
     1
102
RTVSPropertyOp8
 70
     1
102
RTVSPropertyOp9
 70
     1
102
RTVSPropertyOp10
 70
     1
102
RTVSPropertyOp11
 70
     1
102
RTVSPropertyOp12
 70
     1
102
RTVSPropertyOp13
 70
     1
102
RTVSPropertyOp14
 70
     1
102
RTVSPropertyOp15
 70
     1
102
RTVSPropertyOp16
 70
     1
102
RTVSPropertyOp17
 70
     1
102
RTVSPropertyOp18
 70
     1
102
RTVSPropertyOp19
 70
     1
102
RTVSPropertyOp20
 70
     1
102
RTVSPropertyOp21
 70
     1
102
RTVSPropertyOp22
 70
     1
102
RTVSPropertyOp23
 70
     1
102
RTVSPropertyOp24
 70
     1
102
RTVSPropertyOp25
 70
     1
102
RTVSPropertyOp26
 70
     1
102
RTVSPropertyOp27
 70
     1
102
RTVSPropertyOp28
 70
     1
102
RTVSPropertyOp29
 70
     1
102
RTVSPropertyOp30
 70
     1
102
RTVSPropertyOp31
 70
     1
102
RTVSPropertyOp32
 70
     1
  0
XRECORD
  5
436
102
{ACAD_REACTORS
330
435
102
}
330
435
100
AcDbXrecord
280
     1
102
RTVSPropertyOp0
 70
     1
102
RTVSPropertyOp1
 70
     1
102
RTVSPropertyOp2
 70
     1
102
RTVSPropertyOp3
 70
     1
102
RTVSPropertyOp4
 70
     1
102
RTVSPropertyOp5
 70
     1
102
RTVSPropertyOp6
 70
     1
102
RTVSPropertyOp7
 70
     1
102
RTVSPropertyOp8
 70
     1
102
RTVSPropertyOp9
 70
     1
102
RTVSPropertyOp10
 70
     1
102
RTVSPropertyOp11
 70
     1
102
RTVSPropertyOp12
 70
     1
102
RTVSPropertyOp13
 70
     1
102
RTVSPropertyOp14
 70
     1
102
RTVSPropertyOp15
 70
     1
102
RTVSPropertyOp16
 70
     1
102
RTVSPropertyOp17
 70
     1
102
RTVSPropertyOp18
 70
     1
102
RTVSPropertyOp19
 70
     1
102
RTVSPropertyOp20
 70
     1
102
RTVSPropertyOp21
 70
     1
102
RTVSPropertyOp22
 70
     1
102
RTVSPropertyOp23
 70
     1
102
RTVSPropertyOp24
 70
     1
102
RTVSPropertyOp25
 70
     1
102
RTVSPropertyOp26
 70
     1
102
RTVSPropertyOp27
 70
     1
102
RTVSPropertyOp28
 70
     1
102
RTVSPropertyOp29
 70
     1
102
RTVSPropertyOp30
 70
     1
102
RTVSPropertyOp31
 70
     1
102
RTVSPropertyOp32
 70
     1
  0
XRECORD
  5
43E
102
{ACAD_REACTORS
330
43D
102
}
330
43D
100
AcDbXrecord
280
     1
102
RTVSPropertyOp0
 70
     1
102
RTVSPropertyOp1
 70
     1
102
RTVSPropertyOp2
 70
     1
102
RTVSPropertyOp3
 70
     1
102
RTVSPropertyOp4
 70
     1
102
RTVSPropertyOp5
 70
     1
102
RTVSPropertyOp6
 70
     1
102
RTVSPropertyOp7
 70
     1
102
RTVSPropertyOp8
 70
     1
102
RTVSPropertyOp9
 70
     1
102
RTVSPropertyOp10
 70
     1
102
RTVSPropertyOp11
 70
     1
102
RTVSPropertyOp12
 70
     1
102
RTVSPropertyOp13
 70
     1
102
RTVSPropertyOp14
 70
     1
102
RTVSPropertyOp15
 70
     1
102
RTVSPropertyOp16
 70
     1
102
RTVSPropertyOp17
 70
     1
102
RTVSPropertyOp18
 70
     1
102
RTVSPropertyOp19
 70
     1
102
RTVSPropertyOp20
 70
     1
102
RTVSPropertyOp21
 70
     1
102
RTVSPropertyOp22
 70
     1
102
RTVSPropertyOp23
 70
     1
102
RTVSPropertyOp24
 70
     1
102
RTVSPropertyOp25
 70
     1
102
RTVSPropertyOp26
 70
     1
102
RTVSPropertyOp27
 70
     1
102
RTVSPropertyOp28
 70
     1
102
RTVSPropertyOp29
 70
     1
102
RTVSPropertyOp30
 70
     1
102
RTVSPropertyOp31
 70
     1
102
RTVSPropertyOp32
 70
     1
  0
XRECORD
  5
446
102
{ACAD_REACTORS
330
445
102
}
330
445
100
AcDbXrecord
280
     1
102
RTVSPropertyOp0
 70
     1
102
RTVSPropertyOp1
 70
     1
102
RTVSPropertyOp2
 70
     1
102
RTVSPropertyOp3
 70
     1
102
RTVSPropertyOp4
 70
     1
102
RTVSPropertyOp5
 70
     1
102
RTVSPropertyOp6
 70
     1
102
RTVSPropertyOp7
 70
     1
102
RTVSPropertyOp8
 70
     1
102
RTVSPropertyOp9
 70
     1
102
RTVSPropertyOp10
 70
     1
102
RTVSPropertyOp11
 70
     1
102
RTVSPropertyOp12
 70
     1
102
RTVSPropertyOp13
 70
     1
102
RTVSPropertyOp14
 70
     1
102
RTVSPropertyOp15
 70
     1
102
RTVSPropertyOp16
 70
     1
102
RTVSPropertyOp17
 70
     1
102
RTVSPropertyOp18
 70
     1
102
RTVSPropertyOp19
 70
     1
102
RTVSPropertyOp20
 70
     1
102
RTVSPropertyOp21
 70
     1
102
RTVSPropertyOp22
 70
     1
102
RTVSPropertyOp23
 70
     1
102
RTVSPropertyOp24
 70
     1
102
RTVSPropertyOp25
 70
     1
102
RTVSPropertyOp26
 70
     1
102
RTVSPropertyOp27
 70
     1
102
RTVSPropertyOp28
 70
     1
102
RTVSPropertyOp29
 70
     1
102
RTVSPropertyOp30
 70
     1
102
RTVSPropertyOp31
 70
     1
102
RTVSPropertyOp32
 70
     1
  0
XRECORD
  5
43A
102
{ACAD_REACTORS
330
439
102
}
330
439
100
AcDbXrecord
280
     1
102
RTVSPropertyOp0
 70
     1
102
RTVSPropertyOp1
 70
     1
102
RTVSPropertyOp2
 70
     1
102
RTVSPropertyOp3
 70
     1
102
RTVSPropertyOp4
 70
     1
102
RTVSPropertyOp5
 70
     1
102
RTVSPropertyOp6
 70
     1
102
RTVSPropertyOp7
 70
     1
102
RTVSPropertyOp8
 70
     1
102
RTVSPropertyOp9
 70
     1
102
RTVSPropertyOp10
 70
     1
102
RTVSPropertyOp11
 70
     1
102
RTVSPropertyOp12
 70
     1
102
RTVSPropertyOp13
 70
     1
102
RTVSPropertyOp14
 70
     1
102
RTVSPropertyOp15
 70
     1
102
RTVSPropertyOp16
 70
     1
102
RTVSPropertyOp17
 70
     1
102
RTVSPropertyOp18
 70
     1
102
RTVSPropertyOp19
 70
     1
102
RTVSPropertyOp20
 70
     1
102
RTVSPropertyOp21
 70
     1
102
RTVSPropertyOp22
 70
     1
102
RTVSPropertyOp23
 70
     1
102
RTVSPropertyOp24
 70
     1
102
RTVSPropertyOp25
 70
     1
102
RTVSPropertyOp26
 70
     1
102
RTVSPropertyOp27
 70
     1
102
RTVSPropertyOp28
 70
     1
102
RTVSPropertyOp29
 70
     1
102
RTVSPropertyOp30
 70
     1
102
RTVSPropertyOp31
 70
     1
102
RTVSPropertyOp32
 70
     1
  0
XRECORD
  5
43C
102
{ACAD_REACTORS
330
43B
102
}
330
43B
100
AcDbXrecord
280
     1
102
RTVSPropertyOp0
 70
     1
102
RTVSPropertyOp1
 70
     1
102
RTVSPropertyOp2
 70
     1
102
RTVSPropertyOp3
 70
     1
102
RTVSPropertyOp4
 70
     1
102
RTVSPropertyOp5
 70
     1
102
RTVSPropertyOp6
 70
     1
102
RTVSPropertyOp7
 70
     1
102
RTVSPropertyOp8
 70
     1
102
RTVSPropertyOp9
 70
     1
102
RTVSPropertyOp10
 70
     1
102
RTVSPropertyOp11
 70
     1
102
RTVSPropertyOp12
 70
     1
102
RTVSPropertyOp13
 70
     1
102
RTVSPropertyOp14
 70
     1
102
RTVSPropertyOp15
 70
     1
102
RTVSPropertyOp16
 70
     1
102
RTVSPropertyOp17
 70
     1
102
RTVSPropertyOp18
 70
     1
102
RTVSPropertyOp19
 70
     1
102
RTVSPropertyOp20
 70
     1
102
RTVSPropertyOp21
 70
     1
102
RTVSPropertyOp22
 70
     1
102
RTVSPropertyOp23
 70
     1
102
RTVSPropertyOp24
 70
     1
102
RTVSPropertyOp25
 70
     1
102
RTVSPropertyOp26
 70
     1
102
RTVSPropertyOp27
 70
     1
102
RTVSPropertyOp28
 70
     1
102
RTVSPropertyOp29
 70
     1
102
RTVSPropertyOp30
 70
     1
102
RTVSPropertyOp31
 70
     1
102
RTVSPropertyOp32
 70
     1
  0
XRECORD
  5
444
102
{ACAD_REACTORS
330
443
102
}
330
443
100
AcDbXrecord
280
     1
102
RTVSPropertyOp0
 70
     1
102
RTVSPropertyOp1
 70
     1
102
RTVSPropertyOp2
 70
     1
102
RTVSPropertyOp3
 70
     1
102
RTVSPropertyOp4
 70
     1
102
RTVSPropertyOp5
 70
     1
102
RTVSPropertyOp6
 70
     1
102
RTVSPropertyOp7
 70
     1
102
RTVSPropertyOp8
 70
     1
102
RTVSPropertyOp9
 70
     1
102
RTVSPropertyOp10
 70
     1
102
RTVSPropertyOp11
 70
     1
102
RTVSPropertyOp12
 70
     1
102
RTVSPropertyOp13
 70
     1
102
RTVSPropertyOp14
 70
     1
102
RTVSPropertyOp15
 70
     1
102
RTVSPropertyOp16
 70
     1
102
RTVSPropertyOp17
 70
     1
102
RTVSPropertyOp18
 70
     1
102
RTVSPropertyOp19
 70
     1
102
RTVSPropertyOp20
 70
     1
102
RTVSPropertyOp21
 70
     1
102
RTVSPropertyOp22
 70
     1
102
RTVSPropertyOp23
 70
     1
102
RTVSPropertyOp24
 70
     1
102
RTVSPropertyOp25
 70
     1
102
RTVSPropertyOp26
 70
     1
102
RTVSPropertyOp27
 70
     1
102
RTVSPropertyOp28
 70
     1
102
RTVSPropertyOp29
 70
     1
102
RTVSPropertyOp30
 70
     1
102
RTVSPropertyOp31
 70
     1
102
RTVSPropertyOp32
 70
     1
  0
XRECORD
  5
428
102
{ACAD_REACTORS
330
427
102
}
330
427
100
AcDbXrecord
280
     1
102
RTVSPropertyOp0
 70
     1
102
RTVSPropertyOp1
 70
     1
102
RTVSPropertyOp2
 70
     1
102
RTVSPropertyOp3
 70
     1
102
RTVSPropertyOp4
 70
     1
102
RTVSPropertyOp5
 70
     1
102
RTVSPropertyOp6
 70
     1
102
RTVSPropertyOp7
 70
     1
102
RTVSPropertyOp8
 70
     1
102
RTVSPropertyOp9
 70
     1
102
RTVSPropertyOp10
 70
     1
102
RTVSPropertyOp11
 70
     1
102
RTVSPropertyOp12
 70
     1
102
RTVSPropertyOp13
 70
     1
102
RTVSPropertyOp14
 70
     1
102
RTVSPropertyOp15
 70
     1
102
RTVSPropertyOp16
 70
     1
102
RTVSPropertyOp17
 70
     1
102
RTVSPropertyOp18
 70
     1
102
RTVSPropertyOp19
 70
     1
102
RTVSPropertyOp20
 70
     1
102
RTVSPropertyOp21
 70
     1
102
RTVSPropertyOp22
 70
     1
102
RTVSPropertyOp23
 70
     1
102
RTVSPropertyOp24
 70
     1
102
RTVSPropertyOp25
 70
     1
102
RTVSPropertyOp26
 70
     1
102
RTVSPropertyOp27
 70
     1
102
RTVSPropertyOp28
 70
     1
102
RTVSPropertyOp29
 70
     1
102
RTVSPropertyOp30
 70
     1
102
RTVSPropertyOp31
 70
     1
102
RTVSPropertyOp32
 70
     1
  0
XRECORD
  5
42A
102
{ACAD_REACTORS
330
429
102
}
330
429
100
AcDbXrecord
280
     1
102
RTVSPropertyOp0
 70
     1
102
RTVSPropertyOp1
 70
     1
102
RTVSPropertyOp2
 70
     1
102
RTVSPropertyOp3
 70
     1
102
RTVSPropertyOp4
 70
     1
102
RTVSPropertyOp5
 70
     1
102
RTVSPropertyOp6
 70
     1
102
RTVSPropertyOp7
 70
     1
102
RTVSPropertyOp8
 70
     1
102
RTVSPropertyOp9
 70
     1
102
RTVSPropertyOp10
 70
     1
102
RTVSPropertyOp11
 70
     1
102
RTVSPropertyOp12
 70
     1
102
RTVSPropertyOp13
 70
     1
102
RTVSPropertyOp14
 70
     1
102
RTVSPropertyOp15
 70
     1
102
RTVSPropertyOp16
 70
     1
102
RTVSPropertyOp17
 70
     1
102
RTVSPropertyOp18
 70
     1
102
RTVSPropertyOp19
 70
     1
102
RTVSPropertyOp20
 70
     1
102
RTVSPropertyOp21
 70
     1
102
RTVSPropertyOp22
 70
     1
102
RTVSPropertyOp23
 70
     1
102
RTVSPropertyOp24
 70
     1
102
RTVSPropertyOp25
 70
     1
102
RTVSPropertyOp26
 70
     1
102
RTVSPropertyOp27
 70
     1
102
RTVSPropertyOp28
 70
     1
102
RTVSPropertyOp29
 70
     1
102
RTVSPropertyOp30
 70
     1
102
RTVSPropertyOp31
 70
     1
102
RTVSPropertyOp32
 70
     1
  0
XRECORD
  5
42C
102
{ACAD_REACTORS
330
42B
102
}
330
42B
100
AcDbXrecord
280
     1
102
RTVSPropertyOp0
 70
     1
102
RTVSPropertyOp1
 70
     1
102
RTVSPropertyOp2
 70
     1
102
RTVSPropertyOp3
 70
     1
102
RTVSPropertyOp4
 70
     1
102
RTVSPropertyOp5
 70
     1
102
RTVSPropertyOp6
 70
     1
102
RTVSPropertyOp7
 70
     1
102
RTVSPropertyOp8
 70
     1
102
RTVSPropertyOp9
 70
     1
102
RTVSPropertyOp10
 70
     1
102
RTVSPropertyOp11
 70
     1
102
RTVSPropertyOp12
 70
     1
102
RTVSPropertyOp13
 70
     1
102
RTVSPropertyOp14
 70
     1
102
RTVSPropertyOp15
 70
     1
102
RTVSPropertyOp16
 70
     1
102
RTVSPropertyOp17
 70
     1
102
RTVSPropertyOp18
 70
     1
102
RTVSPropertyOp19
 70
     1
102
RTVSPropertyOp20
 70
     1
102
RTVSPropertyOp21
 70
     1
102
RTVSPropertyOp22
 70
     1
102
RTVSPropertyOp23
 70
     1
102
RTVSPropertyOp24
 70
     1
102
RTVSPropertyOp25
 70
     1
102
RTVSPropertyOp26
 70
     1
102
RTVSPropertyOp27
 70
     1
102
RTVSPropertyOp28
 70
     1
102
RTVSPropertyOp29
 70
     1
102
RTVSPropertyOp30
 70
     1
102
RTVSPropertyOp31
 70
     1
102
RTVSPropertyOp32
 70
     1
  0
XRECORD
  5
42E
102
{ACAD_REACTORS
330
42D
102
}
330
42D
100
AcDbXrecord
280
     1
102
RTVSPropertyOp0
 70
     1
102
RTVSPropertyOp1
 70
     1
102
RTVSPropertyOp2
 70
     1
102
RTVSPropertyOp3
 70
     1
102
RTVSPropertyOp4
 70
     1
102
RTVSPropertyOp5
 70
     1
102
RTVSPropertyOp6
 70
     1
102
RTVSPropertyOp7
 70
     1
102
RTVSPropertyOp8
 70
     1
102
RTVSPropertyOp9
 70
     1
102
RTVSPropertyOp10
 70
     1
102
RTVSPropertyOp11
 70
     1
102
RTVSPropertyOp12
 70
     1
102
RTVSPropertyOp13
 70
     1
102
RTVSPropertyOp14
 70
     1
102
RTVSPropertyOp15
 70
     1
102
RTVSPropertyOp16
 70
     1
102
RTVSPropertyOp17
 70
     1
102
RTVSPropertyOp18
 70
     1
102
RTVSPropertyOp19
 70
     1
102
RTVSPropertyOp20
 70
     1
102
RTVSPropertyOp21
 70
     1
102
RTVSPropertyOp22
 70
     1
102
RTVSPropertyOp23
 70
     1
102
RTVSPropertyOp24
 70
     1
102
RTVSPropertyOp25
 70
     1
102
RTVSPropertyOp26
 70
     1
102
RTVSPropertyOp27
 70
     1
102
RTVSPropertyOp28
 70
     1
102
RTVSPropertyOp29
 70
     1
102
RTVSPropertyOp30
 70
     1
102
RTVSPropertyOp31
 70
     1
102
RTVSPropertyOp32
 70
     1
  0
XRECORD
  5
442
102
{ACAD_REACTORS
330
441
102
}
330
441
100
AcDbXrecord
280
     1
102
RTVSPropertyOp0
 70
     1
102
RTVSPropertyOp1
 70
     1
102
RTVSPropertyOp2
 70
     1
102
RTVSPropertyOp3
 70
     1
102
RTVSPropertyOp4
 70
     1
102
RTVSPropertyOp5
 70
     1
102
RTVSPropertyOp6
 70
     1
102
RTVSPropertyOp7
 70
     1
102
RTVSPropertyOp8
 70
     1
102
RTVSPropertyOp9
 70
     1
102
RTVSPropertyOp10
 70
     1
102
RTVSPropertyOp11
 70
     1
102
RTVSPropertyOp12
 70
     1
102
RTVSPropertyOp13
 70
     1
102
RTVSPropertyOp14
 70
     1
102
RTVSPropertyOp15
 70
     1
102
RTVSPropertyOp16
 70
     1
102
RTVSPropertyOp17
 70
     1
102
RTVSPropertyOp18
 70
     1
102
RTVSPropertyOp19
 70
     1
102
RTVSPropertyOp20
 70
     1
102
RTVSPropertyOp21
 70
     1
102
RTVSPropertyOp22
 70
     1
102
RTVSPropertyOp23
 70
     1
102
RTVSPropertyOp24
 70
     1
102
RTVSPropertyOp25
 70
     1
102
RTVSPropertyOp26
 70
     1
102
RTVSPropertyOp27
 70
     1
102
RTVSPropertyOp28
 70
     1
102
RTVSPropertyOp29
 70
     1
102
RTVSPropertyOp30
 70
     1
102
RTVSPropertyOp31
 70
     1
102
RTVSPropertyOp32
 70
     1
  0
XRECORD
  5
438
102
{ACAD_REACTORS
330
437
102
}
330
437
100
AcDbXrecord
280
     1
102
RTVSPropertyOp0
 70
     1
102
RTVSPropertyOp1
 70
     1
102
RTVSPropertyOp2
 70
     1
102
RTVSPropertyOp3
 70
     1
102
RTVSPropertyOp4
 70
     1
102
RTVSPropertyOp5
 70
     1
102
RTVSPropertyOp6
 70
     1
102
RTVSPropertyOp7
 70
     1
102
RTVSPropertyOp8
 70
     1
102
RTVSPropertyOp9
 70
     1
102
RTVSPropertyOp10
 70
     1
102
RTVSPropertyOp11
 70
     1
102
RTVSPropertyOp12
 70
     1
102
RTVSPropertyOp13
 70
     1
102
RTVSPropertyOp14
 70
     1
102
RTVSPropertyOp15
 70
     1
102
RTVSPropertyOp16
 70
     1
102
RTVSPropertyOp17
 70
     1
102
RTVSPropertyOp18
 70
     1
102
RTVSPropertyOp19
 70
     1
102
RTVSPropertyOp20
 70
     1
102
RTVSPropertyOp21
 70
     1
102
RTVSPropertyOp22
 70
     1
102
RTVSPropertyOp23
 70
     1
102
RTVSPropertyOp24
 70
     1
102
RTVSPropertyOp25
 70
     1
102
RTVSPropertyOp26
 70
     1
102
RTVSPropertyOp27
 70
     1
102
RTVSPropertyOp28
 70
     1
102
RTVSPropertyOp29
 70
     1
102
RTVSPropertyOp30
 70
     1
102
RTVSPropertyOp31
 70
     1
102
RTVSPropertyOp32
 70
     1
  0
XRECORD
  5
440
102
{ACAD_REACTORS
330
43F
102
}
330
43F
100
AcDbXrecord
280
     1
102
RTVSPropertyOp0
 70
     1
102
RTVSPropertyOp1
 70
     1
102
RTVSPropertyOp2
 70
     1
102
RTVSPropertyOp3
 70
     1
102
RTVSPropertyOp4
 70
     1
102
RTVSPropertyOp5
 70
     1
102
RTVSPropertyOp6
 70
     1
102
RTVSPropertyOp7
 70
     1
102
RTVSPropertyOp8
 70
     1
102
RTVSPropertyOp9
 70
     1
102
RTVSPropertyOp10
 70
     1
102
RTVSPropertyOp11
 70
     1
102
RTVSPropertyOp12
 70
     1
102
RTVSPropertyOp13
 70
     1
102
RTVSPropertyOp14
 70
     1
102
RTVSPropertyOp15
 70
     1
102
RTVSPropertyOp16
 70
     1
102
RTVSPropertyOp17
 70
     1
102
RTVSPropertyOp18
 70
     1
102
RTVSPropertyOp19
 70
     1
102
RTVSPropertyOp20
 70
     1
102
RTVSPropertyOp21
 70
     1
102
RTVSPropertyOp22
 70
     1
102
RTVSPropertyOp23
 70
     1
102
RTVSPropertyOp24
 70
     1
102
RTVSPropertyOp25
 70
     1
102
RTVSPropertyOp26
 70
     1
102
RTVSPropertyOp27
 70
     1
102
RTVSPropertyOp28
 70
     1
102
RTVSPropertyOp29
 70
     1
102
RTVSPropertyOp30
 70
     1
102
RTVSPropertyOp31
 70
     1
102
RTVSPropertyOp32
 70
     1
  0
ENDSEC
  0
EOF
