  0
SECTION
  2
HEADER
  9
$ACADVER
  1
AC1018
  9
$ACADMAINTVER
 70
     0
  9
$DWGCODEPAGE
  3
ANSI_1252
  9
$INSBASE
 10
0.0
 20
0.0
 30
0.0
  9
$EXTMIN
 10
-101.837900334914
 20
303.7126847631477
 30
0.0
  9
$EXTMAX
 10
195.162099665084
 20
513.7126847631478
 30
0.0
  9
$LIMMIN
 10
0.0
 20
0.0
  9
$LIMMAX
 10
12.0
 20
9.0
  9
$ORTHOMODE
 70
     0
  9
$REGENMODE
 70
     1
  9
$FILLMODE
 70
     1
  9
$QTEXTMODE
 70
     0
  9
$MIRRTEXT
 70
     1
  9
$LTSCALE
 40
1.0
  9
$ATTMODE
 70
     1
  9
$TEXTSIZE
 40
0.2
  9
$TRACEWID
 40
0.05
  9
$TEXTSTYLE
  7
Standard
  9
$CLAYER
  8
0
  9
$CELTYPE
  6
ByLayer
  9
$CECOLOR
 62
   256
  9
$CELTSCALE
 40
1.0
  9
$DISPSILH
 70
     0
  9
$DIMSCALE
 40
1.0
  9
$DIMASZ
 40
0.18
  9
$DIMEXO
 40
0.0625
  9
$DIMDLI
 40
0.38
  9
$DIMRND
 40
0.0
  9
$DIMDLE
 40
0.0
  9
$DIMEXE
 40
0.18
  9
$DIMTP
 40
0.0
  9
$DIMTM
 40
0.0
  9
$DIMTXT
 40
0.18
  9
$DIMCEN
 40
0.09
  9
$DIMTSZ
 40
0.0
  9
$DIMTOL
 70
     0
  9
$DIMLIM
 70
     0
  9
$DIMTIH
 70
     1
  9
$DIMTOH
 70
     1
  9
$DIMSE1
 70
     0
  9
$DIMSE2
 70
     0
  9
$DIMTAD
 70
     0
  9
$DIMZIN
 70
     0
  9
$DIMBLK
  1

  9
$DIMASO
 70
     1
  9
$DIMSHO
 70
     1
  9
$DIMPOST
  1

  9
$DIMAPOST
  1

  9
$DIMALT
 70
     0
  9
$DIMALTD
 70
     2
  9
$DIMALTF
 40
25.4
  9
$DIMLFAC
 40
1.0
  9
$DIMTOFL
 70
     0
  9
$DIMTVP
 40
0.0
  9
$DIMTIX
 70
     0
  9
$DIMSOXD
 70
     0
  9
$DIMSAH
 70
     0
  9
$DIMBLK1
  1

  9
$DIMBLK2
  1

  9
$DIMSTYLE
  2
Standard
  9
$DIMCLRD
 70
     0
  9
$DIMCLRE
 70
     0
  9
$DIMCLRT
 70
     0
  9
$DIMTFAC
 40
1.0
  9
$DIMGAP
 40
0.09
  9
$DIMJUST
 70
     0
  9
$DIMSD1
 70
     0
  9
$DIMSD2
 70
     0
  9
$DIMTOLJ
 70
     1
  9
$DIMTZIN
 70
     0
  9
$DIMALTZ
 70
     0
  9
$DIMALTTZ
 70
     0
  9
$DIMUPT
 70
     0
  9
$DIMDEC
 70
     4
  9
$DIMTDEC
 70
     4
  9
$DIMALTU
 70
     2
  9
$DIMALTTD
 70
     2
  9
$DIMTXSTY
  7
Standard
  9
$DIMAUNIT
 70
     0
  9
$DIMADEC
 70
     0
  9
$DIMALTRND
 40
0.0
  9
$DIMAZIN
 70
     0
  9
$DIMDSEP
 70
    46
  9
$DIMATFIT
 70
     3
  9
$DIMFRAC
 70
     0
  9
$DIMLDRBLK
  1

  9
$DIMLUNIT
 70
     2
  9
$DIMLWD
 70
    -2
  9
$DIMLWE
 70
    -2
  9
$DIMTMOVE
 70
     0
  9
$LUNITS
 70
     2
  9
$LUPREC
 70
     4
  9
$SKETCHINC
 40
0.1
  9
$FILLETRAD
 40
0.5
  9
$AUNITS
 70
     0
  9
$AUPREC
 70
     0
  9
$MENU
  1
.
  9
$ELEVATION
 40
0.0
  9
$PELEVATION
 40
0.0
  9
$THICKNESS
 40
0.0
  9
$LIMCHECK
 70
     0
  9
$CHAMFERA
 40
0.5
  9
$CHAMFERB
 40
0.5
  9
$CHAMFERC
 40
1.0
  9
$CHAMFERD
 40
0.0
  9
$SKPOLY
 70
     0
  9
$TDCREATE
 40
2458302.697597951
  9
$TDUCREATE
 40
2458302.614264618
  9
$TDUPDATE
 40
2458302.697598669
  9
$TDUUPDATE
 40
2458302.614265336
  9
$TDINDWG
 40
0.0000000116
  9
$TDUSRTIMER
 40
0.0000000116
  9
$USRTIMER
 70
     1
  9
$ANGBASE
 50
0.0
  9
$ANGDIR
 70
     0
  9
$PDMODE
 70
     0
  9
$PDSIZE
 40
0.0
  9
$PLINEWID
 40
0.0
  9
$SPLFRAME
 70
     0
  9
$SPLINETYPE
 70
     6
  9
$SPLINESEGS
 70
     8
  9
$HANDSEED
  5
4BA
  9
$SURFTAB1
 70
     6
  9
$SURFTAB2
 70
     6
  9
$SURFTYPE
 70
     6
  9
$SURFU
 70
     6
  9
$SURFV
 70
     6
  9
$UCSBASE
  2

  9
$UCSNAME
  2

  9
$UCSORG
 10
0.0
 20
0.0
 30
0.0
  9
$UCSXDIR
 10
1.0
 20
0.0
 30
0.0
  9
$UCSYDIR
 10
0.0
 20
1.0
 30
0.0
  9
$UCSORTHOREF
  2

  9
$UCSORTHOVIEW
 70
     0
  9
$UCSORGTOP
 10
0.0
 20
0.0
 30
0.0
  9
$UCSORGBOTTOM
 10
0.0
 20
0.0
 30
0.0
  9
$UCSORGLEFT
 10
0.0
 20
0.0
 30
0.0
  9
$UCSORGRIGHT
 10
0.0
 20
0.0
 30
0.0
  9
$UCSORGFRONT
 10
0.0
 20
0.0
 30
0.0
  9
$UCSORGBACK
 10
0.0
 20
0.0
 30
0.0
  9
$PUCSBASE
  2

  9
$PUCSNAME
  2

  9
$PUCSORG
 10
0.0
 20
0.0
 30
0.0
  9
$PUCSXDIR
 10
1.0
 20
0.0
 30
0.0
  9
$PUCSYDIR
 10
0.0
 20
1.0
 30
0.0
  9
$PUCSORTHOREF
  2

  9
$PUCSORTHOVIEW
 70
     0
  9
$PUCSORGTOP
 10
0.0
 20
0.0
 30
0.0
  9
$PUCSORGBOTTOM
 10
0.0
 20
0.0
 30
0.0
  9
$PUCSORGLEFT
 10
0.0
 20
0.0
 30
0.0
  9
$PUCSORGRIGHT
 10
0.0
 20
0.0
 30
0.0
  9
$PUCSORGFRONT
 10
0.0
 20
0.0
 30
0.0
  9
$PUCSORGBACK
 10
0.0
 20
0.0
 30
0.0
  9
$USERI1
 70
     0
  9
$USERI2
 70
     0
  9
$USERI3
 70
     0
  9
$USERI4
 70
     0
  9
$USERI5
 70
     0
  9
$USERR1
 40
18.1
  9
$USERR2
 40
0.0
  9
$USERR3
 40
0.0
  9
$USERR4
 40
0.0
  9
$USERR5
 40
0.0
  9
$WORLDVIEW
 70
     1
  9
$SHADEDGE
 70
     3
  9
$SHADEDIF
 70
    70
  9
$TILEMODE
 70
     1
  9
$MAXACTVP
 70
    64
  9
$PINSBASE
 10
0.0
 20
0.0
 30
0.0
  9
$PLIMCHECK
 70
     0
  9
$PEXTMIN
 10
1.00000000000000E+20
 20
1.00000000000000E+20
 30
1.00000000000000E+20
  9
$PEXTMAX
 10
-1.00000000000000E+20
 20
-1.00000000000000E+20
 30
-1.00000000000000E+20
  9
$PLIMMIN
 10
0.0
 20
0.0
  9
$PLIMMAX
 10
12.0
 20
9.0
  9
$UNITMODE
 70
     0
  9
$VISRETAIN
 70
     1
  9
$PLINEGEN
 70
     0
  9
$PSLTSCALE
 70
     1
  9
$TREEDEPTH
 70
  3020
  9
$CMLSTYLE
  2
Standard
  9
$CMLJUST
 70
     0
  9
$CMLSCALE
 40
1.0
  9
$PROXYGRAPHICS
 70
     1
  9
$MEASUREMENT
 70
     1
  9
$CELWEIGHT
370
    -1
  9
$ENDCAPS
280
     0
  9
$JOINSTYLE
280
     0
  9
$LWDISPLAY
290
     0
  9
$INSUNITS
 70
     4
  9
$HYPERLINKBASE
  1

  9
$STYLESHEET
  1

  9
$XEDIT
290
     1
  9
$CEPSNTYPE
380
     0
  9
$PSTYLEMODE
290
     1
  9
$FINGERPRINTGUID
  2
{7DF0FB58-238C-4AA2-AC55-7D0FCE1356A4}
  9
$VERSIONGUID
  2
{FAEB1C32-E019-11D5-929B-00C0DF256EC4}
  9
$EXTNAMES
290
     1
  9
$PSVPSCALE
 40
0.0
  9
$OLESTARTUP
290
     0
  9
$SORTENTS
280
   127
  9
$INDEXCTL
280
     0
  9
$HIDETEXT
280
     1
  9
$XCLIPFRAME
290
     0
  9
$HALOGAP
280
     0
  9
$OBSCOLOR
 70
   257
  9
$OBSLTYPE
280
     0
  9
$INTERSECTIONDISPLAY
280
     0
  9
$INTERSECTIONCOLOR
 70
   257
  9
$DIMASSOC
280
     2
  9
$PROJECTNAME
  1

  0
ENDSEC
  0
SECTION
  2
CLASSES
  0
CLASS
  1
ACDBDICTIONARYWDFLT
  2
AcDbDictionaryWithDefault
  3
ObjectDBX Classes
 90
        0
 91
        4
280
     0
281
     0
  0
CLASS
  1
VISUALSTYLE
  2
AcDbVisualStyle
  3
ObjectDBX Classes
 90
     4095
 91
        4
280
     0
281
     0
  0
CLASS
  1
MATERIAL
  2
AcDbMaterial
  3
ObjectDBX Classes
 90
     1153
 91
        4
280
     0
281
     0
  0
ENDSEC
  0
SECTION
  2
TABLES
  0
TABLE
  2
VPORT
  5
8
330
0
100
AcDbSymbolTable
 70
     1
  0
VPORT
  5
29
330
8
100
AcDbSymbolTableRecord
100
AcDbViewportTableRecord
  2
*Active
 70
     0
 10
0.0
 20
0.0
 11
1.0
 21
1.0
 12
46.66209966508501
 22
408.7126847631478
 13
0.0
 23
0.0
 14
0.5
 24
0.5
 15
0.5
 25
0.5
 16
0.0
 26
0.0
 36
1.0
 17
0.0
 27
0.0
 37
0.0
 40
231.0000000000001
 41
1.60267857142857
 42
50.0
 43
0.0
 44
0.0
 50
0.0
 51
0.0
 71
     0
 72
   100
 73
     1
 74
     3
 75
     0
 76
     0
 77
     0
 78
     0
281
     0
 65
     1
110
0.0
120
0.0
130
0.0
111
1.0
121
0.0
131
0.0
112
0.0
122
1.0
132
0.0
 79
     0
146
0.0
  0
ENDTAB
  0
TABLE
  2
LTYPE
  5
5
330
0
100
AcDbSymbolTable
 70
     8
  0
LTYPE
  5
14
330
5
100
AcDbSymbolTableRecord
100
AcDbLinetypeTableRecord
  2
ByBlock
 70
     0
  3

 72
    65
 73
     0
 40
0.0
  0
LTYPE
  5
15
330
5
100
AcDbSymbolTableRecord
100
AcDbLinetypeTableRecord
  2
ByLayer
 70
     0
  3

 72
    65
 73
     0
 40
0.0
  0
LTYPE
  5
16
330
5
100
AcDbSymbolTableRecord
100
AcDbLinetypeTableRecord
  2
Continuous
 70
     0
  3
Solid line
 72
    65
 73
     0
 40
0.0
  0
LTYPE
  5
3F
330
5
100
AcDbSymbolTableRecord
100
AcDbLinetypeTableRecord
  2
DASHED
 70
     0
  3
Dashed
 72
    65
 73
     2
 40
15.0
 49
7.0
 74
     0
 49
-8.0
 74
     0
  0
LTYPE
  5
40
330
5
100
AcDbSymbolTableRecord
100
AcDbLinetypeTableRecord
  2
DOTTED
 70
     0
  3
Dotted
 72
    65
 73
     2
 40
1.0
 49
0.0
 74
     0
 49
-1.0
 74
     0
  0
LTYPE
  5
41
330
5
100
AcDbSymbolTableRecord
100
AcDbLinetypeTableRecord
  2
DOT_CENTER
 70
     0
  3
Dot_Center
 72
    65
 73
     4
 40
14.0
 49
12.0
 74
     0
 49
-1.0
 74
     0
 49
0.0
 74
     0
 49
-1.0
 74
     0
  0
LTYPE
  5
42
330
5
100
AcDbSymbolTableRecord
100
AcDbLinetypeTableRecord
  2
LONG_DASHED
 70
     0
  3
Long_Dashed
 72
    65
 73
     2
 40
15.0
 49
10.0
 74
     0
 49
-5.0
 74
     0
  0
LTYPE
  5
43
330
5
100
AcDbSymbolTableRecord
100
AcDbLinetypeTableRecord
  2
DASH_CENTER
 70
     0
  3
Dash_Center
 72
    65
 73
     4
 40
14.0
 49
11.0
 74
     0
 49
-1.0
 74
     0
 49
1.0
 74
     0
 49
-1.0
 74
     0
  0
LTYPE
  5
44
330
5
100
AcDbSymbolTableRecord
100
AcDbLinetypeTableRecord
  2
PHANTOM
 70
     0
  3
Phantom
 72
    65
 73
     6
 40
13.0
 49
10.0
 74
     0
 49
-1.0
 74
     0
 49
0.0
 74
     0
 49
-1.0
 74
     0
 49
0.0
 74
     0
 49
-1.0
 74
     0
  0
LTYPE
  5
45
330
5
100
AcDbSymbolTableRecord
100
AcDbLinetypeTableRecord
  2
CENTER_DASH_DASH
 70
     0
  3
Center_Dash_Dash
 72
    65
 73
     6
 40
14.0
 49
9.0
 74
     0
 49
-1.0
 74
     0
 49
1.0
 74
     0
 49
-1.0
 74
     0
 49
1.0
 74
     0
 49
-1.0
 74
     0
  0
ENDTAB
  0
TABLE
  2
LAYER
  5
2
330
0
100
AcDbSymbolTable
 70
     2
  0
LAYER
  5
10
330
2
100
AcDbSymbolTableRecord
100
AcDbLayerTableRecord
  2
0
 70
     0
 62
     7
  6
Continuous
370
    -3
390
F
  0
LAYER
  5
46
330
2
100
AcDbSymbolTableRecord
100
AcDbLayerTableRecord
  2
1
 70
     0
 62
     7
  6
Continuous
370
    -3
390
F
  0
ENDTAB
  0
TABLE
  2
STYLE
  5
3
330
0
100
AcDbSymbolTable
 70
     5
  0
STYLE
  5
11
330
3
100
AcDbSymbolTableRecord
100
AcDbTextStyleTableRecord
  2
Standard
 70
     0
 40
0.0
 41
1.0
 50
0.0
 71
     0
 42
0.2
  3
txt
  4

  0
STYLE
  5
14A
330
3
100
AcDbSymbolTableRecord
100
AcDbTextStyleTableRecord
  2
CONVERTER_11
 70
     0
 40
0.0
 41
0.9
 50
0.0
 71
     0
 42
0.2
  3
txt.shx
  4

  0
STYLE
  5
450
330
3
100
AcDbSymbolTableRecord
100
AcDbTextStyleTableRecord
  2
CONVERTER_12
 70
     0
 40
0.0
 41
0.81
 50
0.0
 71
     0
 42
0.2
  3
txt.shx
  4

  0
STYLE
  5
456
330
3
100
AcDbSymbolTableRecord
100
AcDbTextStyleTableRecord
  2
CONVERTER_13
 70
     0
 40
0.0
 41
0.855
 50
0.0
 71
     0
 42
0.2
  3
txt.shx
  4

  0
STYLE
  5
459
330
3
100
AcDbSymbolTableRecord
100
AcDbTextStyleTableRecord
  2
CONVERTER_14
 70
     0
 40
0.0
 41
0.72
 50
0.0
 71
     0
 42
0.2
  3
txt.shx
  4

  0
ENDTAB
  0
TABLE
  2
VIEW
  5
6
330
0
100
AcDbSymbolTable
 70
     0
  0
ENDTAB
  0
TABLE
  2
UCS
  5
7
330
0
100
AcDbSymbolTable
 70
     0
  0
ENDTAB
  0
TABLE
  2
APPID
  5
9
330
0
100
AcDbSymbolTable
 70
     1
  0
APPID
  5
12
330
9
100
AcDbSymbolTableRecord
100
AcDbRegAppTableRecord
  2
ACAD
 70
     0
  0
ENDTAB
  0
TABLE
  2
DIMSTYLE
  5
A
330
0
100
AcDbSymbolTable
 70
     7
100
AcDbDimStyleTable
  0
DIMSTYLE
105
27
330
A
100
AcDbSymbolTableRecord
100
AcDbDimStyleTableRecord
  2
Standard
 70
     0
178
     0
340
11
  0
DIMSTYLE
105
240
102
{ACAD_REACTORS
330
241
102
}
330
A
100
AcDbSymbolTableRecord
100
AcDbDimStyleTableRecord
  2
ME10_DIM_10
 70
     0
 41
3.5
 42
0.0
 44
1.5
 73
     0
 74
     0
 77
     1
 78
     8
140
3.5
147
1.5
172
     1
173
     1
174
     1
175
     1
176
     2
177
     2
178
     3
340
14A
  0
DIMSTYLE
105
32B
102
{ACAD_REACTORS
330
32C
102
}
330
A
100
AcDbSymbolTableRecord
100
AcDbDimStyleTableRecord
  2
ME10_DIM_11
 70
     0
 41
3.5
 42
0.0
 44
2.0
 73
     0
 74
     0
 77
     1
 78
     8
140
3.5
147
2.0
172
     1
173
     1
174
     1
175
     1
176
     2
177
     2
178
     3
340
14A
  0
DIMSTYLE
105
336
102
{ACAD_REACTORS
330
337
102
}
330
A
100
AcDbSymbolTableRecord
100
AcDbDimStyleTableRecord
  2
ME10_DIM_12
 70
     0
 41
3.5
 42
0.0
 44
2.0
 73
     0
 74
     0
 77
     1
 78
     8
140
3.5
147
2.0
172
     1
173
     1
174
     1
175
     1
176
     2
177
     2
178
     3
340
14A
  0
DIMSTYLE
105
341
102
{ACAD_REACTORS
330
342
102
}
330
A
100
AcDbSymbolTableRecord
100
AcDbDimStyleTableRecord
  2
ME10_DIM_13
 70
     0
 41
3.5
 42
0.0
 44
1.5
 73
     0
 74
     0
 77
     1
 78
     8
140
3.5
147
1.5
172
     1
173
     1
174
     1
175
     1
176
     2
177
     2
178
     3
340
14A
  0
DIMSTYLE
105
34C
102
{ACAD_REACTORS
330
34D
102
}
330
A
100
AcDbSymbolTableRecord
100
AcDbDimStyleTableRecord
  2
ME10_DIM_14
 70
     0
 41
3.5
 42
0.0
 44
2.0
 73
     0
 74
     0
 77
     1
 78
     8
140
3.5
147
2.0
172
     1
173
     1
174
     1
175
     1
176
     2
177
     2
178
     3
340
14A
  0
DIMSTYLE
105
357
102
{ACAD_REACTORS
330
358
102
}
330
A
100
AcDbSymbolTableRecord
100
AcDbDimStyleTableRecord
  2
ME10_DIM_15
 70
     0
 41
3.5
 42
0.0
 44
1.5
 73
     0
 74
     0
 77
     1
 78
     8
140
3.5
147
1.5
172
     1
173
     1
174
     1
175
     1
176
     2
177
     2
271
     1
178
     3
271
     1
340
14A
  0
ENDTAB
  0
TABLE
  2
BLOCK_RECORD
  5
1
330
0
100
AcDbSymbolTable
 70
    23
  0
BLOCK_RECORD
  5
1F
330
1
100
AcDbSymbolTableRecord
100
AcDbBlockTableRecord
  2
*Model_Space
340
22
  0
BLOCK_RECORD
  5
1B
330
1
100
AcDbSymbolTableRecord
100
AcDbBlockTableRecord
  2
*Paper_Space
340
1E
  0
BLOCK_RECORD
  5
23
330
1
100
AcDbSymbolTableRecord
100
AcDbBlockTableRecord
  2
*Paper_Space0
340
26
  0
BLOCK_RECORD
  5
47
330
1
100
AcDbSymbolTableRecord
100
AcDbBlockTableRecord
  2
ST-4-FSI_C-RD-Select__1
340
0
102
{BLKREFS
331
4B
102
}
  0
BLOCK_RECORD
  5
4A
330
1
100
AcDbSymbolTableRecord
100
AcDbBlockTableRecord
  2
AllgSicht1
340
0
102
{BLKREFS
331
7D
102
}
  0
BLOCK_RECORD
  5
4E
330
1
100
AcDbSymbolTableRecord
100
AcDbBlockTableRecord
  2
ST-4-FSI_C-RD-Select__2
340
0
102
{BLKREFS
331
52
102
}
  0
BLOCK_RECORD
  5
51
330
1
100
AcDbSymbolTableRecord
100
AcDbBlockTableRecord
  2
Drfsicht1
340
0
102
{BLKREFS
331
7E
102
}
  0
BLOCK_RECORD
  5
55
330
1
100
AcDbSymbolTableRecord
100
AcDbBlockTableRecord
  2
ST-4-FSI_C-RD-Select__3
340
0
102
{BLKREFS
331
59
102
}
  0
BLOCK_RECORD
  5
58
330
1
100
AcDbSymbolTableRecord
100
AcDbBlockTableRecord
  2
Rckans1
340
0
102
{BLKREFS
331
7F
102
}
  0
BLOCK_RECORD
  5
5C
330
1
100
AcDbSymbolTableRecord
100
AcDbBlockTableRecord
  2
ST-4-FSI_C-RD-Select__4
340
0
102
{BLKREFS
331
60
102
}
  0
BLOCK_RECORD
  5
5F
330
1
100
AcDbSymbolTableRecord
100
AcDbBlockTableRecord
  2
SA_Links1
340
0
102
{BLKREFS
331
80
102
}
  0
BLOCK_RECORD
  5
63
330
1
100
AcDbSymbolTableRecord
100
AcDbBlockTableRecord
  2
ST-4-FSI_C-RD-Select__5
340
0
102
{BLKREFS
331
67
102
}
  0
BLOCK_RECORD
  5
66
330
1
100
AcDbSymbolTableRecord
100
AcDbBlockTableRecord
  2
SA_Rechts1
340
0
102
{BLKREFS
331
81
102
}
  0
BLOCK_RECORD
  5
6A
330
1
100
AcDbSymbolTableRecord
100
AcDbBlockTableRecord
  2
ST-4-FSI_C-RD-Select__6
340
0
102
{BLKREFS
331
6E
102
}
  0
BLOCK_RECORD
  5
6D
330
1
100
AcDbSymbolTableRecord
100
AcDbBlockTableRecord
  2
Vordans1
340
0
102
{BLKREFS
331
82
102
}
  0
BLOCK_RECORD
  5
71
330
1
100
AcDbSymbolTableRecord
100
AcDbBlockTableRecord
  2
_rahmen
340
0
102
{BLKREFS
331
78
102
}
  0
BLOCK_RECORD
  5
74
330
1
100
AcDbSymbolTableRecord
100
AcDbBlockTableRecord
  2
_punkt
340
0
102
{BLKREFS
331
79
102
}
  0
BLOCK_RECORD
  5
77
330
1
100
AcDbSymbolTableRecord
100
AcDbBlockTableRecord
  2
A4I_CS
340
0
102
{BLKREFS
331
83
102
}
  0
BLOCK_RECORD
  5
7C
330
1
100
AcDbSymbolTableRecord
100
AcDbBlockTableRecord
  2
1
340
0
102
{BLKREFS
331
86
102
}
  0
BLOCK_RECORD
  5
235
330
1
100
AcDbSymbolTableRecord
100
AcDbBlockTableRecord
  2
*D17
340
0
  0
BLOCK_RECORD
  5
322
330
1
100
AcDbSymbolTableRecord
100
AcDbBlockTableRecord
  2
*D18
340
0
  0
BLOCK_RECORD
  5
32D
330
1
100
AcDbSymbolTableRecord
100
AcDbBlockTableRecord
  2
*D19
340
0
  0
BLOCK_RECORD
  5
338
330
1
100
AcDbSymbolTableRecord
100
AcDbBlockTableRecord
  2
*D20
340
0
  0
BLOCK_RECORD
  5
343
330
1
100
AcDbSymbolTableRecord
100
AcDbBlockTableRecord
  2
*D21
340
0
  0
BLOCK_RECORD
  5
34E
330
1
100
AcDbSymbolTableRecord
100
AcDbBlockTableRecord
  2
*D22
340
0
  0
ENDTAB
  0
ENDSEC
  0
SECTION
  2
BLOCKS
  0
BLOCK
  5
20
330
1F
100
AcDbEntity
  8
0
100
AcDbBlockBegin
  2
*Model_Space
 70
     0
 10
0.0
 20
0.0
 30
0.0
  3
*Model_Space
  1

  0
ENDBLK
  5
21
330
1F
100
AcDbEntity
  8
0
100
AcDbBlockEnd
  0
BLOCK
  5
1C
330
1B
100
AcDbEntity
 67
     1
  8
0
100
AcDbBlockBegin
  2
*Paper_Space
 70
     0
 10
0.0
 20
0.0
 30
0.0
  3
*Paper_Space
  1

  0
ENDBLK
  5
1D
330
1B
100
AcDbEntity
 67
     1
  8
0
100
AcDbBlockEnd
  0
BLOCK
  5
24
330
23
100
AcDbEntity
  8
0
100
AcDbBlockBegin
  2
*Paper_Space0
 70
     0
 10
0.0
 20
0.0
 30
0.0
  3
*Paper_Space0
  1

  0
ENDBLK
  5
25
330
23
100
AcDbEntity
  8
0
100
AcDbBlockEnd
  0
BLOCK
  5
48
330
47
100
AcDbEntity
  8
0
100
AcDbBlockBegin
  2
ST-4-FSI_C-RD-Select__1
 70
     0
 10
93.1687941269586
 20
357.5841460471585
 30
0.0
  3
ST-4-FSI_C-RD-Select__1
  1

  0
LINE
  5
87
330
47
100
AcDbEntity
  8
0
  6
Continuous
 62
     7
100
AcDbLine
 10
168.0799915543132
 20
357.5841460471585
 30
0.0
 11
168.0799915543134
 21
361.0482476622975
 31
0.0
  0
LINE
  5
88
330
47
100
AcDbEntity
  8
0
  6
Continuous
 62
     7
100
AcDbLine
 10
109.190264096971
 20
371.8994672954245
 30
0.0
 11
109.190264096971
 21
372.290621568615
 31
0.0
  0
LINE
  5
89
330
47
100
AcDbEntity
  8
0
  6
Continuous
 62
     7
100
AcDbLine
 10
138.1155125833716
 20
365.1949155626172
 30
0.0
 11
138.1155125833716
 21
364.2422876184544
 31
0.0
  0
LINE
  5
8A
330
47
100
AcDbEntity
  8
0
  6
Continuous
 62
     7
100
AcDbLine
 10
138.1155125833716
 20
364.2422876184544
 30
0.0
 11
136.9896795584517
 21
364.265621568615
 31
0.0
  0
LINE
  5
8B
330
47
100
AcDbEntity
  8
0
  6
Continuous
 62
     7
100
AcDbLine
 10
136.9896795584517
 20
364.265621568615
 30
0.0
 11
136.9896795584514
 21
363.8744672954264
 31
0.0
  0
LINE
  5
8C
330
47
100
AcDbEntity
  8
0
  6
Continuous
 62
     7
100
AcDbLine
 10
138.4263669055114
 20
359.9090272266274
 30
0.0
 11
140.5031026844183
 21
359.3095252461336
 31
0.0
  0
LINE
  5
8D
330
47
100
AcDbEntity
  8
0
  6
Continuous
 62
     7
100
AcDbLine
 10
140.5031026844183
 20
359.3095252461336
 30
0.0
 11
168.0799915543132
 21
357.5841460471585
 31
0.0
  0
LINE
  5
8E
330
47
100
AcDbEntity
  8
0
  6
Continuous
 62
     7
100
AcDbLine
 10
172.1549915543134
 20
364.5773011827191
 30
0.0
 11
168.0799915543134
 21
361.0482476622975
 31
0.0
  0
LINE
  5
8F
330
47
100
AcDbEntity
  8
0
  6
Continuous
 62
     7
100
AcDbLine
 10
172.1549915543132
 20
361.1131995675801
 30
0.0
 11
168.0799915543132
 21
357.5841460471585
 31
0.0
  0
LINE
  5
90
330
47
100
AcDbEntity
  8
0
  6
Continuous
 62
     7
100
AcDbLine
 10
132.3294373269158
 20
399.8174782300494
 30
0.0
 11
134.0169373269158
 21
401.2788960989356
 31
0.0
  0
LINE
  5
91
330
47
100
AcDbEntity
  8
0
  6
Continuous
 62
     7
100
AcDbLine
 10
135.2943247906188
 20
400.2585845353383
 30
0.0
 11
135.2943247906188
 21
400.9101461009214
 31
0.0
  0
LINE
  5
92
330
47
100
AcDbEntity
  8
0
  6
Continuous
 62
     7
100
AcDbLine
 10
134.7300559226943
 20
400.4214749267341
 30
0.0
 11
135.2943247906188
 21
400.9101461009214
 31
0.0
  0
LINE
  5
93
330
47
100
AcDbEntity
  8
0
  6
Continuous
 62
     7
100
AcDbLine
 10
96.63289574209631
 20
382.8856832275943
 30
0.0
 11
96.63289574209631
 21
373.272801245587
 31
0.0
  0
LINE
  5
94
330
47
100
AcDbEntity
  8
0
  6
Continuous
 62
     7
100
AcDbLine
 10
132.3294373269158
 20
399.8174782300494
 30
0.0
 11
132.3294373269158
 21
398.2153312330482
 31
0.0
  0
LINE
  5
95
330
47
100
AcDbEntity
  8
0
  6
Continuous
 62
     7
100
AcDbLine
 10
134.0169373269158
 20
401.2788960989356
 30
0.0
 11
135.2943247906188
 21
400.9101461009214
 31
0.0
  0
LINE
  5
96
330
47
100
AcDbEntity
  8
0
  6
Continuous
 62
     7
100
AcDbLine
 10
134.7169373269158
 20
401.8851138815847
 30
0.0
 11
136.4044373269158
 21
403.3465317504709
 31
0.0
  0
LINE
  5
97
330
47
100
AcDbEntity
  8
0
  6
Continuous
 62
     7
100
AcDbLine
 10
172.1549915543134
 20
364.5773011827191
 30
0.0
 11
172.1549915543132
 21
361.1131995675801
 31
0.0
  0
LINE
  5
98
330
47
100
AcDbEntity
  8
0
  6
Continuous
 62
     7
100
AcDbLine
 10
138.0759300210719
 20
365.2063420641167
 30
0.0
 11
136.9896795584517
 21
364.265621568615
 31
0.0
  0
LINE
  5
99
330
47
100
AcDbEntity
  8
0
  6
Continuous
 62
     7
100
AcDbLine
 10
110.615264096973
 20
373.1335534958191
 30
0.0
 11
109.190264096971
 21
371.8994672954245
 31
0.0
  0
LINE
  5
9A
330
47
100
AcDbEntity
  8
0
  6
Continuous
 62
     7
100
AcDbLine
 10
109.190264096971
 20
372.290621568615
 30
0.0
 11
110.2765145595912
 21
373.2313420641168
 31
0.0
  0
LINE
  5
9B
330
47
100
AcDbEntity
  8
0
  6
Continuous
 62
     7
100
AcDbLine
 10
109.190264096971
 20
372.290621568615
 30
0.0
 11
108.0644310720518
 21
372.9172876184543
 31
0.0
  0
LINE
  5
9C
330
47
100
AcDbEntity
  8
0
  6
Continuous
 62
     7
100
AcDbLine
 10
156.7209571495994
 20
392.1267339094258
 30
0.0
 11
156.7209571495994
 21
395.1578228226713
 31
0.0
  0
LINE
  5
9D
330
47
100
AcDbEntity
  8
0
  6
Continuous
 62
     7
100
AcDbLine
 10
154.0959571495994
 20
392.8845061377372
 30
0.0
 11
156.7209571495994
 21
395.1578228226713
 31
0.0
  0
LINE
  5
9E
330
47
100
AcDbEntity
  8
0
  6
Continuous
 62
     7
100
AcDbLine
 10
156.7209571495994
 20
395.1578228226713
 30
0.0
 11
160.6180714666293
 21
394.0328228226713
 31
0.0
  0
LINE
  5
9F
330
47
100
AcDbEntity
  8
0
  6
Continuous
 62
     7
100
AcDbLine
 10
172.1549915543132
 20
385.2319383629834
 30
0.0
 11
172.1549915543132
 21
378.4337076432682
 31
0.0
  0
LINE
  5
A0
330
47
100
AcDbEntity
  8
0
  6
Continuous
 62
     7
100
AcDbLine
 10
171.601684584206
 20
385.5399224828537
 30
0.0
 11
172.1549915543132
 21
385.2319383629834
 31
0.0
  0
LINE
  5
A1
330
47
100
AcDbEntity
  8
0
  6
Continuous
 62
     7
100
AcDbLine
 10
171.3263601258811
 20
385.3014845076614
 30
0.0
 11
170.7676482227054
 21
385.3130643382527
 31
0.0
  0
LINE
  5
A2
330
47
100
AcDbEntity
  8
0
  6
Continuous
 62
     7
100
AcDbLine
 10
171.601684584206
 20
385.5399224828537
 30
0.0
 11
167.526684584206
 21
382.0108689624321
 31
0.0
  0
LINE
  5
A3
330
47
100
AcDbEntity
  8
0
  6
Continuous
 62
     7
100
AcDbLine
 10
170.7676482227054
 20
385.3130643382527
 30
0.0
 11
169.5852584876855
 21
390.0671294195918
 31
0.0
  0
LINE
  5
A4
330
47
100
AcDbEntity
  8
0
  6
Continuous
 62
     7
100
AcDbLine
 10
170.4574135553477
 20
391.9141372573732
 30
0.0
 11
170.6808133798658
 21
391.0159077874603
 31
0.0
  0
LINE
  5
A5
330
47
100
AcDbEntity
  8
0
  6
Continuous
 62
     7
100
AcDbLine
 10
158.5452828983343
 20
391.7877352658516
 30
0.0
 11
158.6702828983343
 21
391.8959884413247
 31
0.0
  0
LINE
  5
A6
330
47
100
AcDbEntity
  8
0
  6
Continuous
 62
     7
100
AcDbLine
 10
162.5187111874446
 20
390.1788251043383
 30
0.0
 11
163.0383264297152
 21
390.0288251043384
 31
0.0
  0
LINE
  5
A7
330
47
100
AcDbEntity
  8
0
  6
Continuous
 62
     7
100
AcDbLine
 10
154.0959571495994
 20
392.8845061377372
 30
0.0
 11
157.9930714666293
 21
391.7595061377372
 31
0.0
  0
LINE
  5
A8
330
47
100
AcDbEntity
  8
0
  6
Continuous
 62
     7
100
AcDbLine
 10
160.4889362462816
 20
391.3709884413246
 30
0.0
 11
160.3639362462816
 21
391.2627352658516
 31
0.0
  0
LINE
  5
A9
330
47
100
AcDbEntity
  8
0
  6
Continuous
 62
     2
100
AcDbLine
 10
158.6702828983343
 20
391.8959884413247
 30
0.0
 11
158.6702828983343
 21
391.176189542309
 31
0.0
  0
LINE
  5
AA
330
47
100
AcDbEntity
  8
0
  6
Continuous
 62
     2
100
AcDbLine
 10
158.5452828983343
 20
391.7877352658516
 30
0.0
 11
158.5452828983343
 21
391.2627352658516
 31
0.0
  0
LINE
  5
AB
330
47
100
AcDbEntity
  8
0
  6
Continuous
 62
     7
100
AcDbLine
 10
165.9383264297147
 20
392.5402987753132
 30
0.0
 11
165.4187111874446
 21
392.6902987753132
 31
0.0
  0
LINE
  5
AC
330
47
100
AcDbEntity
  8
0
  6
Continuous
 62
     2
100
AcDbLine
 10
165.4187111874446
 20
389.9112098179554
 30
0.0
 11
165.4187111874446
 21
392.6902987753132
 31
0.0
  0
LINE
  5
AD
330
47
100
AcDbEntity
  8
0
  6
Continuous
 62
     2
100
AcDbLine
 10
165.9383264297151
 20
390.0288251043384
 30
0.0
 11
165.9383264297147
 21
392.5402987753132
 31
0.0
  0
LINE
  5
AE
330
47
100
AcDbEntity
  8
0
  6
Continuous
 62
     7
100
AcDbLine
 10
166.6058133798658
 20
387.4868542670387
 30
0.0
 11
166.3824135553478
 21
388.3850837369516
 31
0.0
  0
LINE
  5
AF
330
47
100
AcDbEntity
  8
0
  6
Continuous
 62
     7
100
AcDbLine
 10
166.6058133798658
 20
387.4868542670387
 30
0.0
 11
166.2310467858365
 21
387.2202734699835
 31
0.0
  0
LINE
  5
B0
330
47
100
AcDbEntity
  8
0
  6
Continuous
 62
     7
100
AcDbLine
 10
166.2310467858365
 20
387.2202734699835
 30
0.0
 11
166.1700107023382
 21
387.4656828343139
 31
0.0
  0
LINE
  5
B1
330
47
100
AcDbEntity
  8
0
  6
Continuous
 62
     7
100
AcDbLine
 10
166.1700107023382
 20
387.4656828343139
 30
0.0
 11
165.2749382573385
 21
387.4842340540414
 31
0.0
  0
LINE
  5
B2
330
47
100
AcDbEntity
  8
0
  6
Continuous
 62
     7
100
AcDbLine
 10
167.5877206677041
 20
381.7654595981041
 30
0.0
 11
167.526684584206
 21
382.0108689624321
 31
0.0
  0
LINE
  5
B3
330
47
100
AcDbEntity
  8
0
  6
Continuous
 62
     7
100
AcDbLine
 10
110.773607800527
 20
378.0273475111266
 30
0.0
 11
109.4500717181062
 21
373.4699155626174
 31
0.0
  0
LINE
  5
B4
330
47
100
AcDbEntity
  8
0
  6
Continuous
 62
     7
100
AcDbLine
 10
168.0799915543132
 20
374.9046541228467
 30
0.0
 11
168.0799915543132
 21
381.7028848425618
 31
0.0
  0
LINE
  5
B5
330
47
100
AcDbEntity
  8
0
  6
Continuous
 62
     7
100
AcDbLine
 10
168.0799915543132
 20
381.7028848425618
 30
0.0
 11
167.526684584206
 21
382.0108689624321
 31
0.0
  0
LINE
  5
B6
330
47
100
AcDbEntity
  8
0
  6
Continuous
 62
     7
100
AcDbLine
 10
166.6926482227054
 20
381.7840108178311
 30
0.0
 11
167.5877206677041
 21
381.7654595981041
 31
0.0
  0
LINE
  5
B7
330
47
100
AcDbEntity
  8
0
  6
Continuous
 62
     7
100
AcDbLine
 10
165.2749382573385
 20
387.4842340540414
 30
0.0
 11
166.6926482227054
 21
381.7840108178311
 31
0.0
  0
LINE
  5
B8
330
47
100
AcDbEntity
  8
0
  6
Continuous
 62
     7
100
AcDbLine
 10
149.6932466663137
 20
393.2028312349189
 30
0.0
 11
166.3824135553478
 21
388.3850837369516
 31
0.0
  0
LINE
  5
B9
330
47
100
AcDbEntity
  8
0
  6
Continuous
 62
     7
100
AcDbLine
 10
170.4574135553477
 20
391.9141372573732
 30
0.0
 11
166.3824135553478
 21
388.3850837369516
 31
0.0
  0
LINE
  5
BA
330
47
100
AcDbEntity
  8
0
  6
Continuous
 62
     7
100
AcDbLine
 10
170.6808133798658
 20
391.0159077874603
 30
0.0
 11
166.6058133798658
 21
387.4868542670387
 31
0.0
  0
LINE
  5
BB
330
47
100
AcDbEntity
  8
0
  6
Continuous
 62
     7
100
AcDbLine
 10
170.7676482227054
 20
385.3130643382527
 30
0.0
 11
166.6926482227054
 21
381.7840108178311
 31
0.0
  0
LINE
  5
BC
330
47
100
AcDbEntity
  8
0
  6
Continuous
 62
     7
100
AcDbLine
 10
172.1549915543132
 20
385.2319383629834
 30
0.0
 11
168.0799915543132
 21
381.7028848425618
 31
0.0
  0
LINE
  5
BD
330
47
100
AcDbEntity
  8
0
  6
Continuous
 62
     7
100
AcDbLine
 10
172.1549915543132
 20
378.4337076432682
 30
0.0
 11
168.0799915543132
 21
374.9046541228467
 31
0.0
  0
LINE
  5
BE
330
47
100
AcDbEntity
  8
0
  6
Continuous
 62
     7
100
AcDbLine
 10
160.6180714666293
 20
394.0328228226713
 30
0.0
 11
157.9930714666293
 21
391.7595061377372
 31
0.0
  0
LINE
  5
BF
330
47
100
AcDbEntity
  8
0
  6
Continuous
 62
     7
100
AcDbLine
 10
170.4574135553477
 20
391.9141372573732
 30
0.0
 11
153.7682466663137
 21
396.7318847553404
 31
0.0
  0
LINE
  5
C0
330
47
100
AcDbEntity
  8
0
  6
Continuous
 62
     7
100
AcDbLine
 10
108.1408615105539
 20
406.3111711303406
 30
0.0
 11
107.5307142146427
 21
409.3578228226715
 31
0.0
  0
LINE
  5
C1
330
47
100
AcDbEntity
  8
0
  6
Continuous
 62
     2
100
AcDbLine
 10
102.2854592515568
 20
408.1362098179556
 30
0.0
 11
102.2854592515568
 21
410.9152987753134
 31
0.0
  0
LINE
  5
C2
330
47
100
AcDbEntity
  8
0
  6
Continuous
 62
     2
100
AcDbLine
 10
102.8050744938274
 20
408.2538251043386
 30
0.0
 11
102.8050744938274
 21
410.7652987753137
 31
0.0
  0
LINE
  5
C3
330
47
100
AcDbEntity
  8
0
  6
Continuous
 62
     7
100
AcDbLine
 10
118.8784079947097
 20
406.803713629857
 30
0.0
 11
119.5006470042193
 21
405.1518455136004
 31
0.0
  0
LINE
  5
C4
330
47
100
AcDbEntity
  8
0
  6
Continuous
 62
     2
100
AcDbLine
 10
102.9848494349903
 20
407.970988441326
 30
0.0
 11
102.9848494349903
 21
407.2511895423104
 31
0.0
  0
LINE
  5
C5
330
47
100
AcDbEntity
  8
0
  6
Continuous
 62
     2
100
AcDbLine
 10
102.8598494349903
 20
407.8627352658529
 30
0.0
 11
102.8598494349903
 21
407.3377352658529
 31
0.0
  0
LINE
  5
C6
330
47
100
AcDbEntity
  8
0
  6
Continuous
 62
     7
100
AcDbLine
 10
108.0018024486175
 20
406.1907424500773
 30
0.0
 11
108.1408615105539
 21
406.3111711303406
 31
0.0
  0
LINE
  5
C7
330
47
100
AcDbEntity
  8
0
  6
Continuous
 62
     7
100
AcDbLine
 10
108.1408615105539
 20
406.3111711303406
 30
0.0
 11
108.3014330842384
 21
406.1042465360107
 31
0.0
  0
LINE
  5
C8
330
47
100
AcDbEntity
  8
0
  6
Continuous
 62
     7
100
AcDbLine
 10
104.6785027829376
 20
407.3377352658529
 30
0.0
 11
104.8035027829376
 21
407.445988441326
 31
0.0
  0
LINE
  5
C9
330
47
100
AcDbEntity
  8
0
  6
Continuous
 62
     7
100
AcDbLine
 10
108.8028285316726
 20
405.9595061377374
 30
0.0
 11
104.9057142146427
 21
407.0845061377374
 31
0.0
  0
LINE
  5
CA
330
47
100
AcDbEntity
  8
0
  6
Continuous
 62
     7
100
AcDbLine
 10
108.8028285316726
 20
405.9595061377374
 30
0.0
 11
111.4278285316726
 21
408.2328228226716
 31
0.0
  0
LINE
  5
CB
330
47
100
AcDbEntity
  8
0
  6
Continuous
 62
     7
100
AcDbLine
 10
102.9848494349903
 20
407.970988441326
 30
0.0
 11
102.8598494349903
 21
407.8627352658529
 31
0.0
  0
LINE
  5
CC
330
47
100
AcDbEntity
  8
0
  6
Continuous
 62
     7
100
AcDbLine
 10
95.11123699481172
 20
404.5194440110533
 30
0.0
 11
93.722101097066
 21
403.3164170342966
 31
0.0
  0
LINE
  5
CD
330
47
100
AcDbEntity
  8
0
  6
Continuous
 62
     7
100
AcDbLine
 10
93.16879412695872
 20
403.3278848425621
 30
0.0
 11
93.722101097066
 21
403.3164170342966
 31
0.0
  0
LINE
  5
CE
330
47
100
AcDbEntity
  8
0
  6
Continuous
 62
     7
100
AcDbLine
 10
93.722101097066
 20
403.3164170342966
 30
0.0
 11
93.6610650135679
 21
403.1062468692061
 31
0.0
  0
LINE
  5
CF
330
47
100
AcDbEntity
  8
0
  6
Continuous
 62
     7
100
AcDbLine
 10
95.05020091131382
 20
404.3092738459631
 30
0.0
 11
93.6610650135679
 21
403.1062468692061
 31
0.0
  0
LINE
  5
D0
330
47
100
AcDbEntity
  8
0
  6
Continuous
 62
     7
100
AcDbLine
 10
95.30160526036542
 20
405.1749534655666
 30
0.0
 11
93.16879412695872
 21
403.3278848425621
 31
0.0
  0
LINE
  5
D1
330
47
100
AcDbEntity
  8
0
  6
Continuous
 62
     7
100
AcDbLine
 10
93.16879412695872
 20
403.3278848425621
 30
0.0
 11
93.16879412695872
 21
396.5296541228487
 31
0.0
  0
LINE
  5
D2
330
47
100
AcDbEntity
  8
0
  6
Continuous
 62
     7
100
AcDbLine
 10
95.18935129496472
 20
407.9264054077835
 30
0.0
 11
95.01773889543551
 21
407.7777847101868
 31
0.0
  0
LINE
  5
D3
330
47
100
AcDbEntity
  8
0
  6
Continuous
 62
     7
100
AcDbLine
 10
95.07877497893381
 20
407.9879548752792
 30
0.0
 11
95.01773889543551
 21
407.7777847101868
 31
0.0
  0
LINE
  5
D4
330
47
100
AcDbEntity
  8
0
  6
Continuous
 62
     7
100
AcDbLine
 10
95.97384742393342
 20
407.489735777942
 30
0.0
 11
95.07877497893381
 21
407.9879548752792
 31
0.0
  0
LINE
  5
D5
330
47
100
AcDbEntity
  8
0
  6
Continuous
 62
     7
100
AcDbLine
 10
95.97384742393342
 20
407.489735777942
 30
0.0
 11
94.55613745856652
 21
402.6080277718691
 31
0.0
  0
LINE
  5
D6
330
47
100
AcDbEntity
  8
0
  6
Continuous
 62
     7
100
AcDbLine
 10
94.64297230140622
 20
408.2607371011882
 30
0.0
 11
95.01773889543551
 21
407.7777847101868
 31
0.0
  0
LINE
  5
D7
330
47
100
AcDbEntity
  8
0
  6
Continuous
 62
     7
100
AcDbLine
 10
99.9050744938273
 20
408.2538251043386
 30
0.0
 11
99.38545925155682
 21
408.4038251043386
 31
0.0
  0
LINE
  5
D8
330
47
100
AcDbEntity
  8
0
  6
Continuous
 62
     7
100
AcDbLine
 10
94.64297230140622
 20
408.2607371011882
 30
0.0
 11
94.86637212592422
 21
409.0299866222787
 31
0.0
  0
LINE
  5
D9
330
47
100
AcDbEntity
  8
0
  6
Continuous
 62
     7
100
AcDbLine
 10
115.4256470042193
 20
401.6227919931788
 30
0.0
 11
114.8034079947097
 21
403.2746601094354
 31
0.0
  0
LINE
  5
DA
330
47
100
AcDbEntity
  8
0
  6
Continuous
 62
     7
100
AcDbLine
 10
93.6610650135679
 20
403.1062468692061
 30
0.0
 11
94.55613745856652
 21
402.6080277718691
 31
0.0
  0
LINE
  5
DB
330
47
100
AcDbEntity
  8
0
  6
Continuous
 62
     7
100
AcDbLine
 10
115.4256470042193
 20
395.3008065455538
 30
0.0
 11
115.4256470042193
 21
401.6227919931788
 31
0.0
  0
LINE
  5
DC
330
47
100
AcDbEntity
  8
0
  6
Continuous
 62
     7
100
AcDbLine
 10
93.16879412695872
 20
385.2713238736486
 30
0.0
 11
93.1687941269588
 21
383.8856832275943
 31
0.0
  0
LINE
  5
DD
330
47
100
AcDbEntity
  8
0
  6
Continuous
 62
     7
100
AcDbLine
 10
93.1687941269592
 20
375.6584418916422
 30
0.0
 11
93.1687941269586
 21
372.9737631399106
 31
0.0
  0
LINE
  5
DE
330
47
100
AcDbEntity
  8
0
  6
Continuous
 62
     7
100
AcDbLine
 10
96.63289574209631
 20
382.8856832275943
 30
0.0
 11
93.1687941269588
 21
383.8856832275943
 31
0.0
  0
LINE
  5
DF
330
47
100
AcDbEntity
  8
0
  6
Continuous
 62
     7
100
AcDbLine
 10
114.8034079947097
 20
403.2746601094354
 30
0.0
 11
94.86637212592422
 21
409.0299866222787
 31
0.0
  0
LINE
  5
E0
330
47
100
AcDbEntity
  8
0
  6
Continuous
 62
     7
100
AcDbLine
 10
118.8784079947097
 20
406.803713629857
 30
0.0
 11
114.8034079947097
 21
403.2746601094354
 31
0.0
  0
LINE
  5
E1
330
47
100
AcDbEntity
  8
0
  6
Continuous
 62
     7
100
AcDbLine
 10
98.9413721259242
 20
412.5590401427003
 30
0.0
 11
118.8784079947097
 21
406.803713629857
 31
0.0
  0
LINE
  5
E2
330
47
100
AcDbEntity
  8
0
  6
Continuous
 62
     7
100
AcDbLine
 10
119.5006470042193
 20
405.1518455136004
 30
0.0
 11
119.5006470042192
 21
398.8298600659754
 31
0.0
  0
LINE
  5
E3
330
47
100
AcDbEntity
  8
0
  6
Continuous
 62
     7
100
AcDbLine
 10
94.4678322326352
 20
373.897801245587
 30
0.0
 11
96.63289574209631
 21
373.272801245587
 31
0.0
  0
LINE
  5
E4
330
47
100
AcDbEntity
  8
0
  6
Continuous
 62
     7
100
AcDbLine
 10
122.9760892440255
 20
400.9154102497858
 30
0.0
 11
122.3538502344946
 21
399.6227919931789
 31
0.0
  0
LINE
  5
E5
330
47
100
AcDbEntity
  8
0
  6
Continuous
 62
     7
100
AcDbLine
 10
115.4256470042193
 20
401.6227919931788
 30
0.0
 11
119.5006470042193
 21
405.1518455136004
 31
0.0
  0
LINE
  5
E6
330
47
100
AcDbEntity
  8
0
  6
Continuous
 62
     7
100
AcDbLine
 10
128.4989502695923
 20
404.0265022937774
 30
0.0
 11
127.0510892440255
 21
404.4444637702073
 31
0.0
  0
LINE
  5
E7
330
47
100
AcDbEntity
  8
0
  6
Continuous
 62
     7
100
AcDbLine
 10
94.46783223263512
 20
374.7024943897109
 30
0.0
 11
94.4678322326352
 21
373.897801245587
 31
0.0
  0
LINE
  5
E8
330
47
100
AcDbEntity
  8
0
  6
Continuous
 62
     7
100
AcDbLine
 10
125.2250695306598
 20
398.4432020878758
 30
0.0
 11
124.4239502695923
 21
400.4974487733558
 31
0.0
  0
LINE
  5
E9
330
47
100
AcDbEntity
  8
0
  6
Continuous
 62
     7
100
AcDbLine
 10
127.0510892440255
 20
404.4444637702073
 30
0.0
 11
122.9760892440255
 21
400.9154102497858
 31
0.0
  0
LINE
  5
EA
330
47
100
AcDbEntity
  8
0
  6
Continuous
 62
     7
100
AcDbLine
 10
128.8428960475448
 20
401.5763317579832
 30
0.0
 11
128.8428960475449
 21
401.1775830430195
 31
0.0
  0
LINE
  5
EB
330
47
100
AcDbEntity
  8
0
  6
Continuous
 62
     7
100
AcDbLine
 10
122.9760892440255
 20
400.9154102497858
 30
0.0
 11
124.4239502695923
 21
400.4974487733558
 31
0.0
  0
LINE
  5
EC
330
47
100
AcDbEntity
  8
0
  6
Continuous
 62
     7
100
AcDbLine
 10
124.4239502695923
 20
400.4974487733558
 30
0.0
 11
128.4989502695923
 21
404.0265022937774
 31
0.0
  0
LINE
  5
ED
330
47
100
AcDbEntity
  8
0
  6
Continuous
 62
     7
100
AcDbLine
 10
124.7678960475449
 20
397.6485295225979
 30
0.0
 11
128.8428960475449
 21
401.1775830430195
 31
0.0
  0
LINE
  5
EE
330
47
100
AcDbEntity
  8
0
  6
Continuous
 62
     7
100
AcDbLine
 10
128.4989502695923
 20
404.0265022937774
 30
0.0
 11
129.3000695306598
 21
401.9722556082974
 31
0.0
  0
LINE
  5
EF
330
47
100
AcDbEntity
  8
0
  6
Continuous
 62
     7
100
AcDbLine
 10
111.4278285316726
 20
408.2328228226716
 30
0.0
 11
107.5307142146427
 21
409.3578228226715
 31
0.0
  0
LINE
  5
F0
330
47
100
AcDbEntity
  8
0
  6
Continuous
 62
     7
100
AcDbLine
 10
108.0644310720518
 20
372.9172876184543
 30
0.0
 11
109.7012490856441
 21
374.3348135995973
 31
0.0
  0
LINE
  5
F1
330
47
100
AcDbEntity
  8
0
  6
Continuous
 62
     7
100
AcDbLine
 10
96.63289574209631
 20
378.9490299816206
 30
0.0
 11
93.35902868672801
 21
376.1137779430587
 31
0.0
  0
LINE
  5
F2
330
47
100
AcDbEntity
  8
0
  6
Continuous
 62
     7
100
AcDbLine
 10
102.2854592515568
 20
410.9152987753134
 30
0.0
 11
102.8050744938274
 21
410.7652987753137
 31
0.0
  0
LINE
  5
F3
330
47
100
AcDbEntity
  8
0
  6
Continuous
 62
     7
100
AcDbLine
 10
107.5307142146427
 20
409.3578228226715
 30
0.0
 11
104.9057142146427
 21
407.0845061377374
 31
0.0
  0
LINE
  5
F4
330
47
100
AcDbEntity
  8
0
  6
Continuous
 62
     7
100
AcDbLine
 10
94.4678322326352
 20
373.897801245587
 30
0.0
 11
96.63289574209631
 21
375.772801245587
 31
0.0
  0
LINE
  5
F5
330
47
100
AcDbEntity
  8
0
  6
Continuous
 62
     7
100
AcDbLine
 10
96.63289574209631
 20
376.5678538016629
 30
0.0
 11
94.5374052940021
 21
374.7531058402257
 31
0.0
  0
LINE
  5
F6
330
47
100
AcDbEntity
  8
0
  6
Continuous
 62
     7
100
AcDbLine
 10
93.1687941269586
 20
372.9737631399106
 30
0.0
 11
107.7535767499116
 21
368.7634990531941
 31
0.0
  0
LINE
  5
F7
330
47
100
AcDbEntity
  8
0
  6
Continuous
 62
     7
100
AcDbLine
 10
111.8285767499115
 20
372.2925525736157
 30
0.0
 11
107.7535767499116
 21
368.7634990531941
 31
0.0
  0
LINE
  5
F8
330
47
100
AcDbEntity
  8
0
  6
Continuous
 62
     7
100
AcDbLine
 10
94.86637212592422
 20
409.0299866222787
 30
0.0
 11
98.9413721259242
 21
412.5590401427003
 31
0.0
  0
LINE
  5
F9
330
47
100
AcDbEntity
  8
0
  6
Continuous
 62
     7
100
AcDbLine
 10
135.9943247906188
 20
401.5163638835705
 30
0.0
 11
134.7169373269158
 21
401.8851138815847
 31
0.0
  0
LINE
  5
FA
330
47
100
AcDbEntity
  8
0
  6
Continuous
 62
     7
100
AcDbLine
 10
152.0807466663136
 20
396.8726138834554
 30
0.0
 11
153.7682466663137
 21
398.3340317523416
 31
0.0
  0
LINE
  5
FB
330
47
100
AcDbEntity
  8
0
  6
Continuous
 62
     7
100
AcDbLine
 10
152.0807466663136
 20
395.2704668864541
 30
0.0
 11
153.7682466663137
 21
396.7318847553404
 31
0.0
  0
LINE
  5
FC
330
47
100
AcDbEntity
  8
0
  6
Continuous
 62
     7
100
AcDbLine
 10
153.7682466663137
 20
396.7318847553404
 30
0.0
 11
153.7682466663137
 21
398.3340317523416
 31
0.0
  0
LINE
  5
FD
330
47
100
AcDbEntity
  8
0
  6
Continuous
 62
     7
100
AcDbLine
 10
134.7169373269158
 20
401.8851138815847
 30
0.0
 11
134.7169373269158
 21
401.0768235047192
 31
0.0
  0
LINE
  5
FE
330
47
100
AcDbEntity
  8
0
  6
Continuous
 62
     7
100
AcDbLine
 10
134.6644525044359
 20
402.2466751062921
 30
0.0
 11
135.0169373269158
 21
402.14492150272
 31
0.0
  0
LINE
  5
FF
330
47
100
AcDbEntity
  8
0
  6
Continuous
 62
     7
100
AcDbLine
 10
134.6644525044359
 20
402.2466751062921
 30
0.0
 11
130.589452504436
 21
398.7176215858705
 31
0.0
  0
LINE
  5
100
330
47
100
AcDbEntity
  8
0
  6
Continuous
 62
     7
100
AcDbLine
 10
135.9943247906188
 20
400.0565119411219
 30
0.0
 11
135.9943247906188
 21
401.5163638835705
 31
0.0
  0
LINE
  5
101
330
47
100
AcDbEntity
  8
0
  6
Continuous
 62
     7
100
AcDbLine
 10
136.7587238707295
 20
399.8358489337868
 30
0.0
 11
136.8059523012553
 21
402.219253926192
 31
0.0
  0
LINE
  5
102
330
47
100
AcDbEntity
  8
0
  6
Continuous
 62
     7
100
AcDbLine
 10
150.8033591953327
 20
397.2413638835705
 30
0.0
 11
151.6149867059692
 21
397.9442539261921
 31
0.0
  0
LINE
  5
103
330
47
100
AcDbEntity
  8
0
  6
Continuous
 62
     7
100
AcDbLine
 10
152.0807466663136
 20
395.2704668864541
 30
0.0
 11
151.3807466663137
 21
394.6642491038051
 31
0.0
  0
LINE
  5
104
330
47
100
AcDbEntity
  8
0
  6
Continuous
 62
     7
100
AcDbLine
 10
152.0807466663136
 20
396.8726138834554
 30
0.0
 11
152.0807466663136
 21
395.2704668864541
 31
0.0
  0
LINE
  5
105
330
47
100
AcDbEntity
  8
0
  6
Continuous
 62
     7
100
AcDbLine
 10
152.0807466663136
 20
396.8726138834554
 30
0.0
 11
150.8033591953327
 21
397.2413638835705
 31
0.0
  0
LINE
  5
106
330
47
100
AcDbEntity
  8
0
  6
Continuous
 62
     7
100
AcDbLine
 10
135.9943247906188
 20
401.5163638835705
 30
0.0
 11
136.8059523012553
 21
402.219253926192
 31
0.0
  0
LINE
  5
107
330
47
100
AcDbEntity
  8
0
  6
Continuous
 62
     7
100
AcDbLine
 10
136.8059523012553
 20
402.219253926192
 30
0.0
 11
151.6149867059692
 21
397.9442539261921
 31
0.0
  0
LINE
  5
108
330
47
100
AcDbEntity
  8
0
  6
Continuous
 62
     7
100
AcDbLine
 10
128.8428960475449
 20
401.1775830430195
 30
0.0
 11
132.2832025044348
 21
400.1844521135294
 31
0.0
  0
LINE
  5
109
330
47
100
AcDbEntity
  8
0
  6
Continuous
 62
     7
100
AcDbLine
 10
129.3000695306598
 20
401.9722556082974
 30
0.0
 11
125.2250695306598
 21
398.4432020878758
 31
0.0
  0
LINE
  5
10A
330
47
100
AcDbEntity
  8
0
  6
Continuous
 62
     7
100
AcDbLine
 10
150.1033591953327
 20
396.6351461009214
 30
0.0
 11
151.3807466663137
 21
396.2663961008063
 31
0.0
  0
LINE
  5
10B
330
47
100
AcDbEntity
  8
0
  6
Continuous
 62
     7
100
AcDbLine
 10
151.3807466663137
 20
394.6642491038051
 30
0.0
 11
151.3807466663137
 21
396.2663961008063
 31
0.0
  0
LINE
  5
10C
330
47
100
AcDbEntity
  8
0
  6
Continuous
 62
     7
100
AcDbLine
 10
149.6932466663137
 20
393.2028312349189
 30
0.0
 11
151.3807466663137
 21
394.6642491038051
 31
0.0
  0
LINE
  5
10D
330
47
100
AcDbEntity
  8
0
  6
Continuous
 62
     7
100
AcDbLine
 10
150.8033591953327
 20
397.2413638835705
 30
0.0
 11
150.8033591953327
 21
396.4330735067051
 31
0.0
  0
LINE
  5
10E
330
47
100
AcDbEntity
  8
0
  6
Continuous
 62
     7
100
AcDbLine
 10
149.5390903274082
 20
396.1464749267341
 30
0.0
 11
150.1033591953327
 21
396.6351461009214
 31
0.0
  0
LINE
  5
10F
330
47
100
AcDbEntity
  8
0
  6
Continuous
 62
     7
100
AcDbLine
 10
149.6932466663138
 20
394.80497823192
 30
0.0
 11
151.3807466663137
 21
396.2663961008063
 31
0.0
  0
LINE
  5
110
330
47
100
AcDbEntity
  8
0
  6
Continuous
 62
     7
100
AcDbLine
 10
124.7678960475449
 20
397.6485295225979
 30
0.0
 11
124.767896047545
 21
398.5751767046472
 31
0.0
  0
LINE
  5
111
330
47
100
AcDbEntity
  8
0
  6
Continuous
 62
     7
100
AcDbLine
 10
125.2250695306598
 20
398.4432020878758
 30
0.0
 11
124.767896047545
 21
398.5751767046472
 31
0.0
  0
LINE
  5
112
330
47
100
AcDbEntity
  8
0
  6
Continuous
 62
     7
100
AcDbLine
 10
122.3538502344946
 20
399.6227919931789
 30
0.0
 11
122.3538502344946
 21
393.3008065455538
 31
0.0
  0
LINE
  5
113
330
47
100
AcDbEntity
  8
0
  6
Continuous
 62
     7
100
AcDbLine
 10
119.9133702125574
 20
394.3372888491466
 30
0.0
 11
122.3538502344946
 21
396.4508065455725
 31
0.0
  0
LINE
  5
114
330
47
100
AcDbEntity
  8
0
  6
Continuous
 62
     7
100
AcDbLine
 10
118.4411270261571
 20
394.762288849137
 30
0.0
 11
121.9411270261571
 21
397.7933777623825
 31
0.0
  0
LINE
  5
115
330
47
100
AcDbEntity
  8
0
  6
Continuous
 62
     7
100
AcDbLine
 10
119.2131470042192
 20
398.5808777623873
 30
0.0
 11
119.5006470042192
 21
398.8298600659754
 31
0.0
  0
LINE
  5
116
330
47
100
AcDbEntity
  8
0
  6
Continuous
 62
     7
100
AcDbLine
 10
115.4256470042193
 20
395.3008065455538
 30
0.0
 11
115.7131470042192
 21
395.5497888491418
 31
0.0
  0
LINE
  5
117
330
47
100
AcDbEntity
  8
0
  6
Continuous
 62
     7
100
AcDbLine
 10
119.2131470042192
 20
398.5808777623873
 30
0.0
 11
119.2131470042192
 21
395.4308777623679
 31
0.0
  0
LINE
  5
118
330
47
100
AcDbEntity
  8
0
  6
Continuous
 62
     7
100
AcDbLine
 10
122.3538502344946
 20
398.0062112394493
 30
0.0
 11
119.5006470042192
 21
398.8298600659754
 31
0.0
  0
LINE
  5
119
330
47
100
AcDbEntity
  8
0
  6
Continuous
 62
     7
100
AcDbLine
 10
121.9411270261571
 20
397.7933777623825
 30
0.0
 11
119.2131470042192
 21
398.5808777623873
 31
0.0
  0
LINE
  5
11A
330
47
100
AcDbEntity
  8
0
  6
Continuous
 62
     7
100
AcDbLine
 10
115.4256470042193
 20
395.3008065455538
 30
0.0
 11
122.3538502344946
 21
393.3008065455538
 31
0.0
  0
LINE
  5
11B
330
47
100
AcDbEntity
  8
0
  6
Continuous
 62
     7
100
AcDbLine
 10
115.7131470042192
 20
395.5497888491418
 30
0.0
 11
118.4411270261571
 21
394.762288849137
 31
0.0
  0
LINE
  5
11C
330
47
100
AcDbEntity
  8
0
  6
Continuous
 62
     7
100
AcDbLine
 10
130.2455067264815
 20
396.0672795225979
 30
0.0
 11
130.2455067264815
 21
396.9939267046472
 31
0.0
  0
LINE
  5
11D
330
47
100
AcDbEntity
  8
0
  6
Continuous
 62
     7
100
AcDbLine
 10
130.2455067264815
 20
396.9939267046472
 30
0.0
 11
129.7883332433653
 21
397.125901321419
 31
0.0
  0
LINE
  5
11E
330
47
100
AcDbEntity
  8
0
  6
Continuous
 62
     7
100
AcDbLine
 10
130.2455067264815
 20
396.0672795225979
 30
0.0
 11
124.7678960475449
 21
397.6485295225979
 31
0.0
  0
LINE
  5
11F
330
47
100
AcDbEntity
  8
0
  6
Continuous
 62
     7
100
AcDbLine
 10
130.589452504436
 20
398.7176215858705
 30
0.0
 11
129.7883332433653
 21
397.125901321419
 31
0.0
  0
LINE
  5
120
330
47
100
AcDbEntity
  8
0
  6
Continuous
 62
     7
100
AcDbLine
 10
132.3294373269158
 20
398.2153312330482
 30
0.0
 11
130.589452504436
 21
398.7176215858705
 31
0.0
  0
LINE
  5
121
330
47
100
AcDbEntity
  8
0
  6
Continuous
 62
     2
100
AcDbLine
 10
109.8545083537591
 20
379.0128448002996
 30
0.0
 11
109.4583730906955
 21
378.6697815991516
 31
0.0
  0
LINE
  5
122
330
47
100
AcDbEntity
  8
0
  6
Continuous
 62
     7
100
AcDbLine
 10
108.0644310720518
 20
372.9172876184543
 30
0.0
 11
108.0644310720518
 21
373.869915562634
 31
0.0
  0
LINE
  5
123
330
47
100
AcDbEntity
  8
0
  6
Continuous
 62
     7
100
AcDbLine
 10
109.4583730906955
 20
378.6697815991516
 30
0.0
 11
108.0644310720518
 21
373.869915562634
 31
0.0
  0
LINE
  5
124
330
47
100
AcDbEntity
  8
0
  6
Continuous
 62
     7
100
AcDbLine
 10
110.0708643279223
 20
375.6075377332159
 30
0.0
 11
108.0644310720518
 21
373.869915562634
 31
0.0
  0
LINE
  5
125
330
47
100
AcDbEntity
  8
0
  6
Continuous
 62
     7
100
AcDbLine
 10
149.6932466663138
 20
394.80497823192
 30
0.0
 11
149.6932466663137
 21
393.2028312349189
 31
0.0
  0
LINE
  5
126
330
47
100
AcDbEntity
  8
0
  6
Continuous
 62
     7
100
AcDbLine
 10
119.9133702125574
 20
394.3372888491466
 30
0.0
 11
122.3538502344946
 21
393.6327829503379
 31
0.0
  0
LINE
  5
127
330
47
100
AcDbEntity
  8
0
  6
Continuous
 62
     7
100
AcDbLine
 10
132.3294373269158
 20
399.8174782300494
 30
0.0
 11
149.6932466663138
 21
394.80497823192
 31
0.0
  0
LINE
  5
128
330
47
100
AcDbEntity
  8
0
  6
Continuous
 62
     7
100
AcDbLine
 10
149.5390903274082
 20
396.1464749267341
 30
0.0
 11
134.7300559226943
 21
400.4214749267341
 31
0.0
  0
LINE
  5
129
330
47
100
AcDbEntity
  8
0
  6
Continuous
 62
     7
100
AcDbLine
 10
136.4044373269158
 20
403.3465317504709
 30
0.0
 11
153.7682466663137
 21
398.3340317523416
 31
0.0
  0
LINE
  5
12A
330
47
100
AcDbEntity
  8
0
  6
Continuous
 62
     7
100
AcDbLine
 10
109.4500717181062
 20
373.4699155626174
 30
0.0
 11
138.1155125833716
 21
365.1949155626172
 31
0.0
  0
ARC
  5
12B
330
47
100
AcDbEntity
  8
0
  6
Continuous
 62
     7
100
AcDbCircle
 10
114.0423466592701
 20
405.8470619398261
 30
0.0
 40
1.450000000000003
100
AcDbArc
 50
0.0
 51
180.0
  0
SPLINE
  5
12C
330
47
100
AcDbEntity
  8
0
  6
Continuous
 62
     7
100
AcDbSpline
210
0.0
220
0.0
230
1.0
 70
     8
 71
     3
 72
    11
 73
     7
 74
     5
 42
0.000000001
 43
0.0000000001
 44
0.00000001
 40
0.0
 40
0.0
 40
0.0
 40
0.0
 40
1.094313437822086
 40
2.169457302757577
 40
3.220281523627623
 40
4.242658325227701
 40
4.242658325227701
 40
4.242658325227701
 40
4.242658325227701
 10
138.4263669055114
 20
359.9090272266274
 30
0.0
 10
138.2486220923014
 20
360.2279056761457
 30
0.0
 10
137.8962461136795
 20
360.8600766471343
 30
0.0
 10
137.4875334786544
 20
361.8547330220079
 30
0.0
 10
137.1693708436647
 20
362.8573396252615
 30
0.0
 10
137.049026212554
 20
363.5385404357435
 30
0.0
 10
136.9896795584514
 20
363.8744672954264
 30
0.0
 11
138.4263669055114
 21
359.9090272266274
 31
0.0
 11
137.9127323464302
 21
360.875309504525
 31
0.0
 11
137.4985081403328
 21
361.8674549774482
 31
0.0
 11
137.1894037379741
 21
362.8717885942519
 31
0.0
 11
136.9896795584514
 21
363.8744672954264
 31
0.0
  0
SPLINE
  5
12D
330
47
100
AcDbEntity
  8
0
  6
Continuous
 62
     7
100
AcDbSpline
210
0.0
220
0.0
230
1.0
 70
     8
 71
     3
 72
     9
 73
     5
 74
     3
 42
0.000000001
 43
0.0000000001
 44
0.00000001
 40
0.0
 40
0.0
 40
0.0
 40
0.0
 40
0.2559395012083185
 40
0.512783476424852
 40
0.512783476424852
 40
0.512783476424852
 40
0.512783476424852
 10
111.8285767499115
 20
372.2925525736157
 30
0.0
 10
111.8848324214964
 20
372.3567293504449
 30
0.0
 10
111.997542553314
 20
372.4853097135942
 30
0.0
 10
112.1009080962333
 20
372.6215159310396
 30
0.0
 10
112.1526820206063
 20
372.6897391697858
 30
0.0
 11
111.8285767499115
 21
372.2925525736157
 31
0.0
 11
111.9950158438454
 21
372.4869826546465
 31
0.0
 11
112.1526820206063
 21
372.6897391697858
 31
0.0
  0
SPLINE
  5
12E
330
47
100
AcDbEntity
  8
0
  6
Continuous
 62
     7
100
AcDbSpline
210
0.0
220
0.0
230
1.0
 70
     8
 71
     3
 72
    13
 73
     9
 74
     7
 42
0.000000001
 43
0.0000000001
 44
0.00000001
 40
0.0
 40
0.0
 40
0.0
 40
0.0
 40
2.15405603292909
 40
4.399756438330331
 40
6.76660605303544
 40
9.26434463833296
 40
11.88442710656335
 40
14.60349689716769
 40
14.60349689716769
 40
14.60349689716769
 40
14.60349689716769
 10
168.0799915543132
 20
374.9046541228467
 30
0.0
 10
167.6823161886653
 20
374.3027525324116
 30
0.0
 10
166.870046360613
 20
373.0733414246681
 30
0.0
 10
166.224741073442
 20
370.8812523007468
 30
0.0
 10
165.9996313512016
 20
368.5106965950156
 30
0.0
 10
166.2466591021729
 20
366.0151385133617
 30
0.0
 10
166.9124355056782
 20
363.4731055979222
 30
0.0
 10
167.6860254415938
 20
361.8664626361694
 30
0.0
 10
168.0799915543134
 20
361.0482476622975
 30
0.0
 11
168.0799915543132
 21
374.9046541228467
 31
0.0
 11
166.9810888639465
 21
373.0519883996963
 31
0.0
 11
166.3059485826553
 21
370.9101770339742
 31
0.0
 11
166.0782414528308
 21
368.5543063725427
 31
0.0
 11
166.3059485826553
 21
366.0669689384106
 31
0.0
 11
166.9810888639466
 21
363.5353651495442
 31
0.0
 11
168.0799915543134
 21
361.0482476622975
 31
0.0
  0
SPLINE
  5
12F
330
47
100
AcDbEntity
  8
0
  6
Continuous
 62
     7
100
AcDbSpline
210
0.0
220
0.0
230
1.0
 70
     8
 71
     3
 72
    13
 73
     9
 74
     7
 42
0.000000001
 43
0.0000000001
 44
0.00000001
 40
0.0
 40
0.0
 40
0.0
 40
0.0
 40
2.15405603292893
 40
4.399756438330225
 40
6.766606053035337
 40
9.264344638332975
 40
11.88442710656325
 40
14.60349689716758
 40
14.60349689716758
 40
14.60349689716758
 40
14.60349689716758
 10
172.1549915543132
 20
378.4337076432682
 30
0.0
 10
171.7573161886652
 20
377.831806052833
 30
0.0
 10
170.945046360613
 20
376.6023949450898
 30
0.0
 10
170.299741073442
 20
374.4103058211684
 30
0.0
 10
170.0746313512015
 20
372.0397501154371
 30
0.0
 10
170.321659102173
 20
369.5441920337832
 30
0.0
 10
170.9874355056783
 20
367.0021591183439
 30
0.0
 10
171.7610254415938
 20
365.395516156591
 30
0.0
 10
172.1549915543134
 20
364.5773011827191
 30
0.0
 11
172.1549915543132
 21
378.4337076432682
 31
0.0
 11
171.0560888639465
 21
376.5810419201179
 31
0.0
 11
170.3809485826553
 21
374.4392305543957
 31
0.0
 11
170.1532414528308
 21
372.0833598929643
 31
0.0
 11
170.3809485826554
 21
369.5960224588321
 31
0.0
 11
171.0560888639467
 21
367.0644186699658
 31
0.0
 11
172.1549915543134
 21
364.5773011827191
 31
0.0
  0
SPLINE
  5
130
330
47
100
AcDbEntity
  8
0
  6
Continuous
 62
     7
100
AcDbSpline
210
0.0
220
0.0
230
1.0
 70
     8
 71
     3
 72
    17
 73
    13
 74
    11
 42
0.000000001
 43
0.0000000001
 44
0.00000001
 40
0.0
 40
0.0
 40
0.0
 40
0.0
 40
0.1405113443803401
 40
0.3049364983068552
 40
0.5041004203927894
 40
0.7370181083715934
 40
0.9956322713252618
 40
1.267980350221111
 40
1.540328428893853
 40
1.798942590938405
 40
2.031860279524439
 40
2.23102420728397
 40
2.23102420728397
 40
2.23102420728397
 40
2.23102420728397
 10
158.404609572308
 20
391.5252352658516
 30
0.0
 10
158.4126103399147
 20
391.4781877693976
 30
0.0
 10
158.4299735471895
 20
391.3760857065984
 30
0.0
 10
158.5503616729657
 20
391.2482705373087
 30
0.0
 10
158.7186288721208
 20
391.1424042583407
 30
0.0
 10
158.9363398398671
 20
391.0620259436596
 30
0.0
 10
159.1865964423394
 20
391.0115815883007
 30
0.0
 10
159.4545705405915
 20
390.9944750280305
 30
0.0
 10
159.7227748416322
 20
391.0113489113847
 30
0.0
 10
159.972396811175
 20
391.0628660683786
 30
0.0
 10
160.1920914354383
 20
391.1397666161301
 30
0.0
 10
160.3097175884163
 20
391.2239374926872
 30
0.0
 10
160.3639362462816
 20
391.2627352658516
 30
0.0
 11
158.404609572308
 21
391.5252352658516
 31
0.0
 11
158.4403877251019
 21
391.3893553033993
 31
0.0
 11
158.5452828983342
 21
391.2627352658517
 31
0.0
 11
158.7121476500068
 21
391.154004304701
 31
0.0
 11
158.9296095723079
 21
391.0705719288648
 31
0.0
 11
159.1828496474031
 21
391.0181243422485
 31
0.0
 11
159.454609572308
 21
391.0002352658516
 31
0.0
 11
159.7263694972128
 21
391.0181243422486
 31
0.0
 11
159.9796095723079
 21
391.0705719288648
 31
0.0
 11
160.1970714946091
 21
391.154004304701
 31
0.0
 11
160.3639362462816
 21
391.2627352658516
 31
0.0
  0
SPLINE
  5
131
330
47
100
AcDbEntity
  8
0
  6
Continuous
 62
     7
100
AcDbSpline
210
0.0
220
0.0
230
1.0
 70
     8
 71
     3
 72
    17
 73
    13
 74
    11
 42
0.000000001
 43
0.0000000001
 44
0.00000001
 40
0.0
 40
0.0
 40
0.0
 40
0.0
 40
0.1405113443803878
 40
0.3049364983069755
 40
0.5041004203927999
 40
0.7370181083716305
 40
0.995632271325271
 40
1.267980350221096
 40
1.540328428893927
 40
1.798942590938506
 40
2.031860279524467
 40
2.231024207283981
 40
2.231024207283981
 40
2.231024207283981
 40
2.231024207283981
 10
160.6296095723079
 20
391.6334884413247
 30
0.0
 10
160.6216088047013
 20
391.6805359377787
 30
0.0
 10
160.6042455974264
 20
391.7826380005778
 30
0.0
 10
160.4838574716502
 20
391.9104531698678
 30
0.0
 10
160.315590272495
 20
392.0163194488355
 30
0.0
 10
160.0978793047488
 20
392.0966977635167
 30
0.0
 10
159.8476227022765
 20
392.1471421188756
 30
0.0
 10
159.5796486040244
 20
392.1642486791458
 30
0.0
 10
159.3114443029837
 20
392.1473747957917
 30
0.0
 10
159.0618223334409
 20
392.0958576387977
 30
0.0
 10
158.8421277091775
 20
392.0189570910463
 30
0.0
 10
158.7245015561996
 20
391.934786214489
 30
0.0
 10
158.6702828983343
 20
391.8959884413247
 30
0.0
 11
160.6296095723079
 21
391.6334884413247
 31
0.0
 11
160.593831419514
 21
391.7693684037771
 31
0.0
 11
160.4889362462816
 21
391.8959884413247
 31
0.0
 11
160.3220714946091
 21
392.0047194024752
 31
0.0
 11
160.1046095723079
 21
392.0881517783115
 31
0.0
 11
159.8513694972128
 21
392.1405993649277
 31
0.0
 11
159.579609572308
 21
392.1584884413247
 31
0.0
 11
159.3078496474031
 21
392.1405993649277
 31
0.0
 11
159.0546095723079
 21
392.0881517783115
 31
0.0
 11
158.8371476500068
 21
392.0047194024753
 31
0.0
 11
158.6702828983343
 21
391.8959884413247
 31
0.0
  0
SPLINE
  5
132
330
47
100
AcDbEntity
  8
0
  6
Continuous
 62
     7
100
AcDbSpline
210
0.0
220
0.0
230
1.0
 70
     8
 71
     3
 72
     9
 73
     5
 74
     3
 42
0.000000001
 43
0.0000000001
 44
0.00000001
 40
0.0
 40
0.0
 40
0.0
 40
0.0
 40
0.1644251518697052
 40
0.3049365030406073
 40
0.3049365030406073
 40
0.3049365030406073
 40
0.3049365030406073
 10
158.5452828983343
 20
391.7877352658516
 30
0.0
 10
158.5046536177663
 20
391.7484390244217
 30
0.0
 10
158.4293041476519
 20
391.6755617303592
 30
0.0
 10
158.4123991835013
 20
391.5726540049342
 30
0.0
 10
158.404609572308
 20
391.5252352658516
 30
0.0
 11
158.5452828983343
 21
391.7877352658516
 31
0.0
 11
158.4403877251019
 21
391.6611152283041
 31
0.0
 11
158.404609572308
 21
391.5252352658516
 31
0.0
  0
SPLINE
  5
133
330
47
100
AcDbEntity
  8
0
  6
Continuous
 62
     7
100
AcDbSpline
210
0.0
220
0.0
230
1.0
 70
     8
 71
     3
 72
     9
 73
     5
 74
     3
 42
0.000000001
 43
0.0000000001
 44
0.00000001
 40
0.0
 40
0.0
 40
0.0
 40
0.0
 40
0.1644251518697489
 40
0.304936503040706
 40
0.304936503040706
 40
0.304936503040706
 40
0.304936503040706
 10
160.4889362462816
 20
391.3709884413246
 30
0.0
 10
160.5295655268496
 20
391.4102846827544
 30
0.0
 10
160.604914996964
 20
391.4831619768171
 30
0.0
 10
160.6218199611147
 20
391.5860697022422
 30
0.0
 10
160.6296095723079
 20
391.6334884413247
 30
0.0
 11
160.4889362462816
 21
391.3709884413246
 31
0.0
 11
160.593831419514
 21
391.4976084788722
 31
0.0
 11
160.6296095723079
 21
391.6334884413247
 31
0.0
  0
SPLINE
  5
134
330
47
100
AcDbEntity
  8
0
  6
Continuous
 62
     7
100
AcDbSpline
210
0.0
220
0.0
230
1.0
 70
     8
 71
     3
 72
    11
 73
     7
 74
     5
 42
0.000000001
 43
0.0000000001
 44
0.00000001
 40
0.0
 40
0.0
 40
0.0
 40
0.0
 40
0.3880789720289154
 40
0.8422055809532945
 40
1.392277358349138
 40
2.035573833288193
 40
2.035573833288193
 40
2.035573833288193
 40
2.035573833288193
 10
167.3883264297151
 20
391.2845619398258
 30
0.0
 10
167.3662394953427
 20
391.4145449454103
 30
0.0
 10
167.318306609867
 20
391.6966329198681
 30
0.0
 10
166.9855999150777
 20
392.0488100553021
 30
0.0
 10
166.5218923724549
 20
392.3453830446854
 30
0.0
 10
166.1427218814967
 20
392.4720290502843
 30
0.0
 10
165.9383264297147
 20
392.5402987753132
 30
0.0
 11
167.3883264297151
 21
391.2845619398258
 31
0.0
 11
167.2895105791413
 21
391.6598494551707
 31
0.0
 11
166.9998001006899
 21
392.009561939826
 31
0.0
 11
166.5389355484515
 21
392.3098664991942
 31
0.0
 11
165.9383264297147
 21
392.5402987753132
 31
0.0
  0
SPLINE
  5
135
330
47
100
AcDbEntity
  8
0
  6
Continuous
 62
     7
100
AcDbSpline
210
0.0
220
0.0
230
1.0
 70
     8
 71
     3
 72
    11
 73
     7
 74
     5
 42
0.000000001
 43
0.0000000001
 44
0.00000001
 40
0.0
 40
0.0
 40
0.0
 40
0.0
 40
0.3880789720289154
 40
0.842205580953145
 40
1.392277358348876
 40
2.035573833287907
 40
2.035573833287907
 40
2.035573833287907
 40
2.035573833287907
 10
161.0687111874445
 20
391.4345619398258
 30
0.0
 10
161.0907981218169
 20
391.3045789342412
 30
0.0
 10
161.1387310072925
 20
391.0224909597835
 30
0.0
 10
161.4714377020819
 20
390.6703138243498
 30
0.0
 10
161.9351452447045
 20
390.3737408349664
 30
0.0
 10
162.3143157356626
 20
390.2470948293672
 30
0.0
 10
162.5187111874446
 20
390.1788251043383
 30
0.0
 11
161.0687111874445
 21
391.4345619398258
 31
0.0
 11
161.1675270380183
 21
391.0592744244809
 31
0.0
 11
161.4572375164697
 21
390.7095619398258
 31
0.0
 11
161.918102068708
 21
390.4092573804575
 31
0.0
 11
162.5187111874446
 21
390.1788251043383
 31
0.0
  0
SPLINE
  5
136
330
47
100
AcDbEntity
  8
0
  6
Continuous
 62
     7
100
AcDbSpline
210
0.0
220
0.0
230
1.0
 70
     8
 71
     3
 72
     9
 73
     5
 74
     3
 42
0.000000001
 43
0.0000000001
 44
0.00000001
 40
0.0
 40
0.0
 40
0.0
 40
0.0
 40
0.1359563309101876
 40
0.2769419554983606
 40
0.2769419554983606
 40
0.2769419554983606
 40
0.2769419554983606
 10
109.6038631971192
 20
378.9020244962745
 30
0.0
 10
109.5717158718176
 20
378.8692752647824
 30
0.0
 10
109.5062320438343
 20
378.8025653312323
 30
0.0
 10
109.4745180456638
 20
378.7145754811613
 30
0.0
 10
109.4583730906955
 20
378.6697815991516
 30
0.0
 11
109.6038631971192
 21
378.9020244962745
 31
0.0
 11
109.5155598381928
 21
378.7986482847519
 31
0.0
 11
109.4583730906955
 21
378.6697815991516
 31
0.0
  0
SPLINE
  5
137
330
47
100
AcDbEntity
  8
0
  6
Continuous
 62
     7
100
AcDbSpline
210
0.0
220
0.0
230
1.0
 70
     8
 71
     3
 72
    11
 73
     7
 74
     5
 42
0.000000001
 43
0.0000000001
 44
0.00000001
 40
0.0
 40
0.0
 40
0.0
 40
0.0
 40
0.2139776288177114
 40
0.4124032389311117
 40
0.5953107056532663
 40
0.7683178011220729
 40
0.7683178011220729
 40
0.7683178011220729
 40
0.7683178011220729
 10
110.3264817328057
 20
378.9035220706164
 30
0.0
 10
110.2624250505657
 20
378.9359111967293
 30
0.0
 10
110.1389673576211
 20
378.99833537508
 30
0.0
 10
109.9399810365295
 20
379.0272268420683
 30
0.0
 10
109.7512856369418
 20
379.0026438000917
 30
0.0
 10
109.6520841888829
 20
378.9349364700113
 30
0.0
 10
109.6038631971192
 20
378.9020244962745
 30
0.0
 11
110.3264817328057
 21
378.9035220706164
 31
0.0
 11
110.1304375609674
 21
378.9892723374373
 31
0.0
 11
109.9341600292085
 21
379.0183902765224
 31
0.0
 11
109.753712773491
 21
378.9884916027235
 31
0.0
 11
109.6038631971192
 21
378.9020244962745
 31
0.0
  0
SPLINE
  5
138
330
47
100
AcDbEntity
  8
0
  6
Continuous
 62
     7
100
AcDbSpline
210
0.0
220
0.0
230
1.0
 70
     8
 71
     3
 72
    13
 73
     9
 74
     7
 42
0.000000001
 43
0.0000000001
 44
0.00000001
 40
0.0
 40
0.0
 40
0.0
 40
0.0
 40
0.1554904882689168
 40
0.3232750653327496
 40
0.5017213082145788
 40
0.6867166514958012
 40
0.8728065658523363
 40
1.054323677606481
 40
1.054323677606481
 40
1.054323677606481
 40
1.054323677606481
 10
110.773607800527
 20
378.0273475111266
 30
0.0
 10
110.7834061400096
 20
378.0785869056327
 30
0.0
 10
110.8037775248098
 20
378.1851170161659
 30
0.0
 10
110.7767134539469
 20
378.3531029055826
 30
0.0
 10
110.7130683319774
 20
378.5193433654701
 30
0.0
 10
110.6119105475129
 20
378.6734065421099
 30
0.0
 10
110.4833815627039
 20
378.8079660208368
 30
0.0
 10
110.3783461537652
 20
378.8719353040582
 30
0.0
 10
110.3264817328057
 20
378.9035220706164
 30
0.0
 11
110.773607800527
 21
378.0273475111266
 31
0.0
 11
110.7942556831352
 21
378.1814609682267
 31
0.0
 11
110.7719331226266
 21
378.3477539895201
 31
0.0
 11
110.708221751445
 21
378.5144390933824
 31
0.0
 11
110.6076383526558
 21
378.669700993056
 31
0.0
 11
110.4773121778174
 21
378.8025337622382
 31
0.0
 11
110.3264817328057
 21
378.9035220706164
 31
0.0
  0
SPLINE
  5
139
330
47
100
AcDbEntity
  8
0
  6
Continuous
 62
     7
100
AcDbSpline
210
0.0
220
0.0
230
1.0
 70
     8
 71
     3
 72
    15
 73
    11
 74
     9
 42
0.000000001
 43
0.0000000001
 44
0.00000001
 40
0.0
 40
0.0
 40
0.0
 40
0.0
 40
0.7142676959365915
 40
1.466467150908211
 40
2.218666605603361
 40
2.932934292283307
 40
3.576230762042822
 40
4.126302543945053
 40
4.580429156803191
 40
4.968508124450426
 40
4.968508124450426
 40
4.968508124450426
 40
4.968508124450426
 10
163.0383264297152
 20
390.0288251043384
 30
0.0
 10
163.2703604621762
 20
389.9737168810437
 30
0.0
 10
163.7467508816119
 20
389.8605738738748
 30
0.0
 10
164.4886889644482
 20
389.8199374124277
 30
0.0
 10
165.2284884573122
 20
389.8655731415731
 30
0.0
 10
165.9197532328893
 20
390.0052984609851
 30
0.0
 10
166.5210317313575
 20
390.2272025943606
 30
0.0
 10
166.985773643237
 20
390.5196150917886
 30
0.0
 10
167.3182734362461
 20
390.8726244043602
 30
0.0
 10
167.3662290306799
 20
391.1546210283713
 30
0.0
 10
167.3883264297151
 20
391.2845619398258
 30
0.0
 11
163.0383264297152
 21
390.0288251043384
 31
0.0
 11
163.7377513990256
 21
389.8839698651127
 31
0.0
 11
164.4883264297151
 21
389.8345619398259
 31
0.0
 11
165.2389014604047
 21
389.8839698651128
 31
0.0
 11
165.9383264297151
 21
390.0288251043385
 31
0.0
 11
166.5389355484517
 21
390.2592573804575
 31
0.0
 11
166.99980010069
 21
390.5595619398259
 31
0.0
 11
167.2895105791413
 21
390.9092744244811
 31
0.0
 11
167.3883264297151
 21
391.2845619398258
 31
0.0
  0
SPLINE
  5
13A
330
47
100
AcDbEntity
  8
0
  6
Continuous
 62
     7
100
AcDbSpline
210
0.0
220
0.0
230
1.0
 70
     8
 71
     3
 72
    15
 73
    11
 74
     9
 42
0.000000001
 43
0.0000000001
 44
0.00000001
 40
0.0
 40
0.0
 40
0.0
 40
0.0
 40
0.7142676959366309
 40
1.466467150908283
 40
2.218666605603433
 40
2.932934292283406
 40
3.576230762042921
 40
4.126302543945177
 40
4.580429156803334
 40
4.968508124450685
 40
4.968508124450685
 40
4.968508124450685
 40
4.968508124450685
 10
165.4187111874446
 20
392.6902987753132
 30
0.0
 10
165.1866771549835
 20
392.7454069986079
 30
0.0
 10
164.7102867355478
 20
392.8585500057768
 30
0.0
 10
163.9683486527115
 20
392.899186467224
 30
0.0
 10
163.2285491598475
 20
392.8535507380786
 30
0.0
 10
162.5372843842705
 20
392.7138254186667
 30
0.0
 10
161.9360058858022
 20
392.4919212852911
 30
0.0
 10
161.4712639739227
 20
392.1995087878631
 30
0.0
 10
161.1387641809135
 20
391.8464994752915
 30
0.0
 10
161.0908085864797
 20
391.5645028512803
 30
0.0
 10
161.0687111874445
 20
391.4345619398258
 30
0.0
 11
165.4187111874446
 21
392.6902987753132
 31
0.0
 11
164.7192862181342
 21
392.8351540145389
 31
0.0
 11
163.9687111874446
 21
392.8845619398258
 31
0.0
 11
163.218136156755
 21
392.8351540145389
 31
0.0
 11
162.5187111874446
 21
392.6902987753132
 31
0.0
 11
161.918102068708
 21
392.4598664991942
 31
0.0
 11
161.4572375164697
 21
392.1595619398258
 31
0.0
 11
161.1675270380183
 21
391.8098494551706
 31
0.0
 11
161.0687111874445
 21
391.4345619398258
 31
0.0
  0
SPLINE
  5
13B
330
47
100
AcDbEntity
  8
0
  6
Continuous
 62
     7
100
AcDbSpline
210
0.0
220
0.0
230
1.0
 70
     8
 71
     3
 72
     9
 73
     5
 74
     3
 42
0.000000001
 43
0.0000000001
 44
0.00000001
 40
0.0
 40
0.0
 40
0.0
 40
0.0
 40
0.2270633057838113
 40
0.4211027915549915
 40
0.4211027915549915
 40
0.4211027915549915
 40
0.4211027915549915
 10
115.2980834947576
 20
405.4845619398261
 30
0.0
 10
115.3541905966971
 20
405.5388281781874
 30
0.0
 10
115.4582446334482
 20
405.6394682473945
 30
0.0
 10
115.4815895771005
 20
405.7815789189114
 30
0.0
 10
115.4923466592701
 20
405.8470619398261
 30
0.0
 11
115.2980834947576
 21
405.4845619398261
 31
0.0
 11
115.4429387339832
 21
405.6594181821537
 31
0.0
 11
115.4923466592701
 21
405.8470619398261
 31
0.0
  0
SPLINE
  5
13C
330
47
100
AcDbEntity
  8
0
  6
Continuous
 62
     7
100
AcDbSpline
210
0.0
220
0.0
230
1.0
 70
     8
 71
     3
 72
    17
 73
    13
 74
    11
 42
0.000000001
 43
0.0000000001
 44
0.00000001
 40
0.0
 40
0.0
 40
0.0
 40
0.0
 40
0.1940394789807941
 40
0.4211027868214077
 40
0.6961386786545705
 40
1.017786914120185
 40
1.374920757975021
 40
1.751020485806428
 40
2.127120213414821
 40
2.484254056360604
 40
2.805902292433403
 40
3.08093818994026
 40
3.08093818994026
 40
3.08093818994026
 40
3.08093818994026
 10
112.5923466592701
 20
405.8470619398261
 30
0.0
 10
112.60339533854
 20
405.782091586439
 30
0.0
 10
112.6273730969903
 20
405.6410934966246
 30
0.0
 10
112.7936233756406
 20
405.4645868403394
 30
0.0
 10
113.0259923621028
 20
405.3183905489087
 30
0.0
 10
113.3266408421078
 20
405.2073919250483
 30
0.0
 10
113.6722332926745
 20
405.1377306725055
 30
0.0
 10
114.0422927615785
 20
405.114107327803
 30
0.0
 10
114.4126701298051
 20
405.1374093569827
 30
0.0
 10
114.7573861821093
 20
405.2085520987716
 30
0.0
 10
115.0607739982071
 20
405.3147480872474
 30
0.0
 10
115.2232101108303
 20
405.4309840631316
 30
0.0
 10
115.2980834947576
 20
405.4845619398261
 30
0.0
 11
112.5923466592701
 21
405.8470619398261
 31
0.0
 11
112.641754584557
 21
405.6594181821536
 31
0.0
 11
112.7866098237826
 21
405.4845619398261
 31
0.0
 11
113.0170420999018
 21
405.3344096601419
 31
0.0
 11
113.3173466592701
 21
405.2191935220823
 31
0.0
 11
113.6670591439253
 21
405.1467659024695
 31
0.0
 11
114.0423466592701
 21
405.122061939826
 31
0.0
 11
114.4176341746149
 21
405.1467659024694
 31
0.0
 11
114.7673466592701
 21
405.2191935220823
 31
0.0
 11
115.0676512186384
 21
405.3344096601419
 31
0.0
 11
115.2980834947576
 21
405.4845619398261
 31
0.0
  0
SPLINE
  5
13D
330
47
100
AcDbEntity
  8
0
  6
Continuous
 62
     7
100
AcDbSpline
210
0.0
220
0.0
230
1.0
 70
     8
 71
     3
 72
     9
 73
     5
 74
     3
 42
0.000000001
 43
0.0000000001
 44
0.00000001
 40
0.0
 40
0.0
 40
0.0
 40
0.0
 40
0.1405113511709129
 40
0.3049365030406543
 40
0.3049365030406543
 40
0.3049365030406543
 40
0.3049365030406543
 10
104.944176108964
 20
407.708488441326
 30
0.0
 10
104.9363864977707
 20
407.6610697022435
 30
0.0
 10
104.91948153362
 20
407.5581619768184
 30
0.0
 10
104.8441320635056
 20
407.4852846827558
 30
0.0
 10
104.8035027829376
 20
407.445988441326
 30
0.0
 11
104.944176108964
 21
407.708488441326
 31
0.0
 11
104.90839795617
 21
407.5726084788735
 31
0.0
 11
104.8035027829376
 21
407.445988441326
 31
0.0
  0
SPLINE
  5
13E
330
47
100
AcDbEntity
  8
0
  6
Continuous
 62
     7
100
AcDbSpline
210
0.0
220
0.0
230
1.0
 70
     8
 71
     3
 72
    17
 73
    13
 74
    11
 42
0.000000001
 43
0.0000000001
 44
0.00000001
 40
0.0
 40
0.0
 40
0.0
 40
0.0
 40
0.1991639277594832
 40
0.4320816163454775
 40
0.690695778390068
 40
0.9630438570628672
 40
1.235391935958663
 40
1.494006098912318
 40
1.726923786891162
 40
1.926087708977041
 40
2.09051286290354
 40
2.231024207283938
 40
2.231024207283938
 40
2.231024207283938
 40
2.231024207283938
 10
104.6785027829376
 20
407.3377352658529
 30
0.0
 10
104.6242841250723
 20
407.2989374926885
 30
0.0
 10
104.5066579720944
 20
407.2147666161314
 30
0.0
 10
104.286963347831
 20
407.13786606838
 30
0.0
 10
104.0373413782882
 20
407.0863489113858
 30
0.0
 10
103.7691370772476
 20
407.0694750280319
 30
0.0
 10
103.5011629789954
 20
407.086581588302
 30
0.0
 10
103.2509063765232
 20
407.1370259436611
 30
0.0
 10
103.0331954087768
 20
407.217404258342
 30
0.0
 10
102.8649282096218
 20
407.3232705373101
 30
0.0
 10
102.7445400838455
 20
407.4510857065996
 30
0.0
 10
102.7271768765706
 20
407.5531877693988
 30
0.0
 10
102.719176108964
 20
407.6002352658529
 30
0.0
 11
104.6785027829376
 21
407.3377352658529
 31
0.0
 11
104.5116380312652
 21
407.2290043047024
 31
0.0
 11
104.294176108964
 21
407.1455719288661
 31
0.0
 11
104.0409360338688
 21
407.0931243422499
 31
0.0
 11
103.769176108964
 21
407.0752352658529
 31
0.0
 11
103.4974161840591
 21
407.0931243422499
 31
0.0
 11
103.244176108964
 21
407.1455719288661
 31
0.0
 11
103.0267141866628
 21
407.2290043047024
 31
0.0
 11
102.8598494349903
 21
407.337735265853
 31
0.0
 11
102.7549542617579
 21
407.4643553034005
 31
0.0
 11
102.719176108964
 21
407.6002352658529
 31
0.0
  0
SPLINE
  5
13F
330
47
100
AcDbEntity
  8
0
  6
Continuous
 62
     7
100
AcDbSpline
210
0.0
220
0.0
230
1.0
 70
     8
 71
     3
 72
    17
 73
    13
 74
    11
 42
0.000000001
 43
0.0000000001
 44
0.00000001
 40
0.0
 40
0.0
 40
0.0
 40
0.0
 40
0.199163927759519
 40
0.4320816163455264
 40
0.6906957783901587
 40
0.9630438570629258
 40
1.235391935958718
 40
1.494006098912401
 40
1.726923786891251
 40
1.926087708977088
 40
2.09051286290363
 40
2.23102420728404
 40
2.23102420728404
 40
2.23102420728404
 40
2.23102420728404
 10
102.9848494349903
 20
407.970988441326
 30
0.0
 10
103.0390680928556
 20
408.0097862144904
 30
0.0
 10
103.1566942458335
 20
408.0939570910475
 30
0.0
 10
103.3763888700969
 20
408.170857638799
 30
0.0
 10
103.6260108396398
 20
408.2223747957931
 30
0.0
 10
103.8942151406804
 20
408.239248679147
 30
0.0
 10
104.1621892389325
 20
408.2221421188771
 30
0.0
 10
104.4124458414048
 20
408.171697763518
 30
0.0
 10
104.6301568091511
 20
408.0913194488368
 30
0.0
 10
104.7984240083063
 20
407.9854531698692
 30
0.0
 10
104.9188121340824
 20
407.8576380005791
 30
0.0
 10
104.9361753413573
 20
407.7555359377801
 30
0.0
 10
104.944176108964
 20
407.708488441326
 30
0.0
 11
102.9848494349903
 21
407.970988441326
 31
0.0
 11
103.1517141866628
 21
408.0797194024766
 31
0.0
 11
103.369176108964
 21
408.1631517783129
 31
0.0
 11
103.6224161840592
 21
408.2155993649291
 31
0.0
 11
103.894176108964
 21
408.233488441326
 31
0.0
 11
104.1659360338688
 21
408.2155993649291
 31
0.0
 11
104.419176108964
 21
408.1631517783129
 31
0.0
 11
104.6366380312652
 21
408.0797194024765
 31
0.0
 11
104.8035027829377
 21
407.970988441326
 31
0.0
 11
104.90839795617
 21
407.8443684037784
 31
0.0
 11
104.944176108964
 21
407.708488441326
 31
0.0
  0
SPLINE
  5
140
330
47
100
AcDbEntity
  8
0
  6
Continuous
 62
     7
100
AcDbSpline
210
0.0
220
0.0
230
1.0
 70
     8
 71
     3
 72
     9
 73
     5
 74
     3
 42
0.000000001
 43
0.0000000001
 44
0.00000001
 40
0.0
 40
0.0
 40
0.0
 40
0.0
 40
0.1405113511708435
 40
0.3049365030405924
 40
0.3049365030405924
 40
0.3049365030405924
 40
0.3049365030405924
 10
102.719176108964
 20
407.6002352658529
 30
0.0
 10
102.7269657201573
 20
407.6476540049354
 30
0.0
 10
102.7438706843079
 20
407.7505617303606
 30
0.0
 10
102.8192201544223
 20
407.823439024423
 30
0.0
 10
102.8598494349903
 20
407.8627352658529
 30
0.0
 11
102.719176108964
 21
407.6002352658529
 31
0.0
 11
102.7549542617579
 21
407.7361152283053
 31
0.0
 11
102.8598494349903
 21
407.8627352658529
 31
0.0
  0
SPLINE
  5
141
330
47
100
AcDbEntity
  8
0
  6
Continuous
 62
     7
100
AcDbSpline
210
0.0
220
0.0
230
1.0
 70
     8
 71
     3
 72
    13
 73
     9
 74
     7
 42
0.000000001
 43
0.0000000001
 44
0.00000001
 40
0.0
 40
0.0
 40
0.0
 40
0.0
 40
1.750351784435694
 40
3.568197722466948
 40
5.465453371734917
 40
7.44601724610509
 40
9.50638137875911
 40
11.63673440881141
 40
11.63673440881141
 40
11.63673440881141
 40
11.63673440881141
 10
93.16879412695872
 20
385.2713238736486
 30
0.0
 10
93.42505883205679
 20
385.797278901563
 30
0.0
 10
93.94746988208081
 20
386.8694699660841
 30
0.0
 10
94.35713314690071
 20
388.6591286695786
 30
0.0
 10
94.50184003723433
 20
390.5578493250088
 30
0.0
 10
94.34616845537809
 20
392.5376594753258
 30
0.0
 10
93.92276287363622
 20
394.5591562160128
 30
0.0
 10
93.4228997742706
 20
395.8655488292239
 30
0.0
 10
93.16879412695872
 20
396.5296541228487
 30
0.0
 11
93.16879412695872
 21
385.2713238736486
 31
0.0
 11
93.8762375827706
 21
386.8723407795313
 31
0.0
 11
94.30710782264256
 21
388.6383857109722
 31
0.0
 11
94.45180559023765
 21
390.5301154913999
 31
0.0
 11
94.30710782264256
 21
392.5053865668999
 31
0.0
 11
93.87623758277061
 21
394.5201945473167
 31
0.0
 11
93.16879412695872
 21
396.5296541228487
 31
0.0
  0
SPLINE
  5
142
330
47
100
AcDbEntity
  8
0
  6
Continuous
 62
     7
100
AcDbSpline
210
0.0
220
0.0
230
1.0
 70
     8
 71
     3
 72
    11
 73
     7
 74
     5
 42
0.000000001
 43
0.0000000001
 44
0.00000001
 40
0.0
 40
0.0
 40
0.0
 40
0.0
 40
0.1206520291162803
 40
0.244161518990074
 40
0.3728551532218159
 40
0.5081863407456022
 40
0.5081863407456022
 40
0.5081863407456022
 40
0.5081863407456022
 10
93.35902868672801
 20
376.1137779430587
 30
0.0
 10
93.3303834479283
 20
376.0852611552067
 30
0.0
 10
93.27241456227534
 20
376.0275521926941
 30
0.0
 10
93.2134567715471
 20
375.9164083454075
 30
0.0
 10
93.1753916017085
 20
375.791874074988
 30
0.0
 10
93.17102983169033
 20
375.7036585294808
 30
0.0
 10
93.1687941269592
 20
375.6584418916422
 30
0.0
 11
93.35902868672801
 21
376.1137779430587
 31
0.0
 11
93.27782054457485
 21
376.0245470618693
 31
0.0
 11
93.21789965019516
 21
375.9165466864532
 31
0.0
 11
93.18116876189092
 21
375.7932061260101
 31
0.0
 11
93.1687941269592
 21
375.6584418916422
 31
0.0
  0
SPLINE
  5
143
330
47
100
AcDbEntity
  8
0
  6
Continuous
 62
     7
100
AcDbSpline
210
0.0
220
0.0
230
1.0
 70
     8
 71
     3
 72
     9
 73
     5
 74
     3
 42
0.000000001
 43
0.0000000001
 44
0.00000001
 40
0.0
 40
0.0
 40
0.0
 40
0.0
 40
0.0431231433507077
 40
0.0861115098986772
 40
0.0861115098986772
 40
0.0861115098986772
 40
0.0861115098986772
 10
94.46783223263512
 20
374.7024943897109
 30
0.0
 10
94.47998208483865
 20
374.71020585771
 30
0.0
 10
94.50424380476886
 20
374.7256047087259
 30
0.0
 10
94.52636300818416
 20
374.7439483612474
 30
0.0
 10
94.5374052940021
 20
374.7531058402257
 30
0.0
 11
94.46783223263512
 21
374.7024943897109
 31
0.0
 11
94.50374447659348
 21
374.7263673087364
 31
0.0
 11
94.5374052940021
 21
374.7531058402257
 31
0.0
  0
SPLINE
  5
144
330
47
100
AcDbEntity
  8
0
  6
Continuous
 62
     7
100
AcDbSpline
210
0.0
220
0.0
230
1.0
 70
     8
 71
     3
 72
    17
 73
    13
 74
    11
 42
0.000000001
 43
0.0000000001
 44
0.00000001
 40
0.0
 40
0.0
 40
0.0
 40
0.0
 40
0.2131868451802167
 40
0.4406714182615973
 40
0.6895572016061178
 40
0.9581437233565602
 40
1.238214278488568
 40
1.51828483362063
 40
1.786871355371112
 40
2.035757138715649
 40
2.263241711797041
 40
2.476428556977162
 40
2.476428556977162
 40
2.476428556977162
 40
2.476428556977162
 10
94.5374052940021
 20
374.7531058402257
 30
0.0
 10
94.58546640286332
 20
374.8067927233602
 30
0.0
 10
94.68481190718046
 20
374.9177670972209
 30
0.0
 10
94.73767517989815
 20
375.15018586694
 30
0.0
 10
94.71773665238575
 20
375.3999273020113
 30
0.0
 10
94.62357697820127
 20
375.6521415751364
 30
0.0
 10
94.46668882418346
 20
375.8824516708757
 30
0.0
 10
94.26115353914813
 20
376.0706321153324
 30
0.0
 10
94.02497752949077
 20
376.1998566341856
 30
0.0
 10
93.7806459738216
 20
376.255268006441
 30
0.0
 10
93.54305915326987
 20
376.2361496168575
 30
0.0
 10
93.41903079330184
 20
376.1536765497056
 30
0.0
 10
93.35902868672801
 20
376.1137779430587
 30
0.0
 11
94.5374052940021
 21
374.7531058402257
 31
0.0
 11
94.66624434534596
 21
374.922956162264
 31
0.0
 11
94.72479896411356
 21
375.1427756109362
 31
0.0
 11
94.70733515210395
 21
375.3910479406769
 31
0.0
 11
94.61556471530346
 21
375.6434700214927
 31
0.0
 11
94.45846862255502
 21
375.8753327674411
 31
0.0
 11
94.25142631788191
 21
376.06394082504
 31
0.0
 11
94.01470331232466
 21
376.1908302989687
 31
0.0
 11
93.77147226305486
 21
376.2435824658999
 31
0.0
 11
93.54554248689267
 21
376.2170312015826
 31
0.0
 11
93.35902868672801
 21
376.1137779430587
 31
0.0
  0
SPLINE
  5
145
330
47
100
AcDbEntity
  8
0
  6
Continuous
 62
     7
100
AcDbSpline
210
0.0
220
0.0
230
1.0
 70
     8
 71
     3
 72
    11
 73
     7
 74
     5
 42
0.000000001
 43
0.0000000001
 44
0.00000001
 40
0.0
 40
0.0
 40
0.0
 40
0.0
 40
0.6432964749389574
 40
1.193368252334725
 40
1.647494861258936
 40
2.035573833287786
 40
2.035573833287786
 40
2.035573833287786
 40
2.035573833287786
 10
99.38545925155682
 20
408.4038251043386
 30
0.0
 10
99.18106379977485
 20
408.4720948293676
 30
0.0
 10
98.80189330881676
 20
408.5987408349665
 30
0.0
 10
98.33818576619417
 20
408.8953138243501
 30
0.0
 10
98.00547907140479
 20
409.2474909597837
 30
0.0
 10
97.95754618592917
 20
409.5295789342416
 30
0.0
 10
97.93545925155681
 20
409.659561939826
 30
0.0
 11
99.38545925155682
 21
408.4038251043386
 31
0.0
 11
98.78485013282021
 21
408.6342573804577
 31
0.0
 11
98.32398558058196
 21
408.934561939826
 31
0.0
 11
98.03427510213055
 21
409.2842744244812
 31
0.0
 11
97.93545925155681
 21
409.659561939826
 31
0.0
  0
SPLINE
  5
146
330
47
100
AcDbEntity
  8
0
  6
Continuous
 62
     7
100
AcDbSpline
210
0.0
220
0.0
230
1.0
 70
     8
 71
     3
 72
    11
 73
     7
 74
     5
 42
0.000000001
 43
0.0000000001
 44
0.00000001
 40
0.0
 40
0.0
 40
0.0
 40
0.0
 40
0.643296474939045
 40
1.193368252334776
 40
1.647494861258908
 40
2.035573833287878
 40
2.035573833287878
 40
2.035573833287878
 40
2.035573833287878
 10
102.8050744938274
 20
410.7652987753137
 30
0.0
 10
103.0094699456094
 20
410.6970290502846
 30
0.0
 10
103.3886404365674
 20
410.5703830446853
 30
0.0
 10
103.8523479791901
 20
410.2738100553023
 30
0.0
 10
104.1850546739793
 20
409.9216329198682
 30
0.0
 10
104.2329875594551
 20
409.6395449454106
 30
0.0
 10
104.2550744938274
 20
409.509561939826
 30
0.0
 11
102.8050744938274
 21
410.7652987753137
 31
0.0
 11
103.405683612564
 21
410.5348664991944
 31
0.0
 11
103.8665481648023
 21
410.2345619398261
 31
0.0
 11
104.1562586432536
 21
409.884849455171
 31
0.0
 11
104.2550744938274
 21
409.509561939826
 31
0.0
  0
SPLINE
  5
147
330
47
100
AcDbEntity
  8
0
  6
Continuous
 62
     7
100
AcDbSpline
210
0.0
220
0.0
230
1.0
 70
     8
 71
     3
 72
    15
 73
    11
 74
     9
 42
0.000000001
 43
0.0000000001
 44
0.00000001
 40
0.0
 40
0.0
 40
0.0
 40
0.0
 40
0.3880789676473482
 40
0.8422055805054609
 40
1.392277362407681
 40
2.035573832167176
 40
2.749841518847138
 40
3.502040973542306
 40
4.25424042851399
 40
4.968508124450581
 40
4.968508124450581
 40
4.968508124450581
 40
4.968508124450581
 10
97.93545925155681
 20
409.659561939826
 30
0.0
 10
97.95755665059197
 20
409.7895028512805
 30
0.0
 10
98.00551224502578
 20
410.0714994752917
 30
0.0
 10
98.338012038035
 20
410.4245087878633
 30
0.0
 10
98.80275394991439
 20
410.7169212852911
 30
0.0
 10
99.40403244838272
 20
410.9388254186671
 30
0.0
 10
100.0952972239597
 20
411.0785507380785
 30
0.0
 10
100.8350967168237
 20
411.1241864672242
 30
0.0
 10
101.5770347996601
 20
411.0835500057771
 30
0.0
 10
102.0534252190958
 20
410.9704069986081
 30
0.0
 10
102.2854592515568
 20
410.9152987753134
 30
0.0
 11
97.93545925155681
 21
409.659561939826
 31
0.0
 11
98.0342751021306
 21
410.0348494551708
 31
0.0
 11
98.323985580582
 21
410.384561939826
 31
0.0
 11
98.78485013282021
 21
410.6848664991943
 31
0.0
 11
99.38545925155681
 21
410.9152987753134
 31
0.0
 11
100.0848842208672
 21
411.0601540145391
 31
0.0
 11
100.8354592515568
 21
411.109561939826
 31
0.0
 11
101.5860342822464
 21
411.0601540145391
 31
0.0
 11
102.2854592515568
 21
410.9152987753134
 31
0.0
  0
SPLINE
  5
148
330
47
100
AcDbEntity
  8
0
  6
Continuous
 62
     7
100
AcDbSpline
210
0.0
220
0.0
230
1.0
 70
     8
 71
     3
 72
    11
 73
     7
 74
     5
 42
0.000000001
 43
0.0000000001
 44
0.00000001
 40
0.0
 40
0.0
 40
0.0
 40
0.0
 40
0.8440176141067656
 40
1.703424486572893
 40
2.585246614930961
 40
3.494813282880698
 40
3.494813282880698
 40
3.494813282880698
 40
3.494813282880698
 10
107.7535767499116
 20
368.7634990531941
 30
0.0
 10
107.9322878148466
 20
368.9815698495585
 30
0.0
 10
108.2929684320041
 20
369.4216876097971
 30
0.0
 10
108.701280527782
 20
370.1856043914374
 30
0.0
 10
109.0180512542129
 20
371.014175650204
 30
0.0
 10
109.1322701572257
 20
371.6013388050929
 30
0.0
 10
109.190264096971
 20
371.8994672954245
 30
0.0
 11
107.7535767499116
 21
368.7634990531941
 31
0.0
 11
108.2672113089923
 21
369.4332342801406
 31
0.0
 11
108.6814355150895
 21
370.1862272961682
 31
0.0
 11
108.9905399174482
 21
371.0120994030619
 31
0.0
 11
109.190264096971
 21
371.8994672954245
 31
0.0
  0
SPLINE
  5
149
330
47
100
AcDbEntity
  8
0
  6
Continuous
 62
     7
100
AcDbSpline
210
0.0
220
0.0
230
1.0
 70
     8
 71
     3
 72
    15
 73
    11
 74
     9
 42
0.000000001
 43
0.0000000001
 44
0.00000001
 40
0.0
 40
0.0
 40
0.0
 40
0.0
 40
0.3880789676472346
 40
0.8422055805054078
 40
1.392277362407652
 40
2.035573832167174
 40
2.749841518847135
 40
3.502040973542293
 40
4.254240428513995
 40
4.968508124450673
 40
4.968508124450673
 40
4.968508124450673
 40
4.968508124450673
 10
104.2550744938274
 20
409.509561939826
 30
0.0
 10
104.2329770947922
 20
409.3796210283716
 30
0.0
 10
104.1850215003584
 20
409.0976244043604
 30
0.0
 10
103.8525217073494
 20
408.7446150917889
 30
0.0
 10
103.3877797954698
 20
408.4522025943608
 30
0.0
 10
102.7865012970015
 20
408.2302984609851
 30
0.0
 10
102.0952365214245
 20
408.0905731415734
 30
0.0
 10
101.3554370285604
 20
408.0449374124275
 30
0.0
 10
100.6134989457241
 20
408.0855738738751
 30
0.0
 10
100.1371085262884
 20
408.198716881044
 30
0.0
 10
99.9050744938273
 20
408.2538251043386
 30
0.0
 11
104.2550744938274
 21
409.509561939826
 31
0.0
 11
104.1562586432536
 21
409.1342744244813
 31
0.0
 11
103.8665481648023
 21
408.7845619398261
 31
0.0
 11
103.405683612564
 21
408.4842573804577
 31
0.0
 11
102.8050744938274
 21
408.2538251043386
 31
0.0
 11
102.105649524517
 21
408.108969865113
 31
0.0
 11
101.3550744938274
 21
408.059561939826
 31
0.0
 11
100.6044994631378
 21
408.108969865113
 31
0.0
 11
99.9050744938273
 21
408.2538251043386
 31
0.0
  0
ENDBLK
  5
49
330
47
100
AcDbEntity
  8
0
100
AcDbBlockEnd
  0
BLOCK
  5
4C
330
4A
100
AcDbEntity
  8
0
100
AcDbBlockBegin
  2
AllgSicht1
 70
     0
 10
132.6618919999961
 20
383.0
 30
0.0
  3
AllgSicht1
  1

  0
INSERT
  5
4B
330
4A
100
AcDbEntity
  8
0
100
AcDbBlockReference
  2
ST-4-FSI_C-RD-Select__1
 10
93.1687941269586
 20
357.5841460471585
 30
0.0
  0
MTEXT
  5
14B
330
4A
100
AcDbEntity
  8
1
 62
     6
100
AcDbMText
 10
132.5831937165011
 20
338.0888820447256
 30
0.0
 40
5.0
 41
0.0
 71
     2
 72
     1
  1
 
  7
CONVERTER_11
 73
     1
 44
1.32052821128451
  0
ENDBLK
  5
4D
330
4A
100
AcDbEntity
  8
0
100
AcDbBlockEnd
  0
BLOCK
  5
4F
330
4E
100
AcDbEntity
  8
0
100
AcDbBlockBegin
  2
ST-4-FSI_C-RD-Select__2
 70
     0
 10
-32.2499989734606
 20
378.7303170247608
 30
0.0
  3
ST-4-FSI_C-RD-Select__2
  1

  0
LINE
  5
14C
330
4E
100
AcDbEntity
  8
0
  6
Continuous
 62
     7
100
AcDbLine
 10
-18.94546156238121
 20
380.3803170247608
 30
0.0
 11
-18.94546156238121
 21
385.6303170247608
 31
0.0
  0
LINE
  5
14D
330
4E
100
AcDbEntity
  8
0
  6
Continuous
 62
     7
100
AcDbLine
 10
-27.19999897346148
 20
383.2053170247608
 30
0.0
 11
-27.19999897346143
 21
382.4053170247607
 31
0.0
  0
LINE
  5
14E
330
4E
100
AcDbEntity
  8
0
  6
Continuous
 62
     7
100
AcDbLine
 10
-22.64846993078099
 20
381.3382272358842
 30
0.0
 11
-22.64846993078099
 21
384.2724068136373
 31
0.0
  0
LINE
  5
14F
330
4E
100
AcDbEntity
  8
0
  6
Continuous
 62
     7
100
AcDbLine
 10
-23.59999897346066
 20
384.6553170247607
 30
0.0
 11
-23.59999897346066
 21
380.9553170247608
 31
0.0
  0
LINE
  5
150
330
4E
100
AcDbEntity
  8
0
  6
Continuous
 62
     7
100
AcDbLine
 10
-15.14999897346065
 20
380.3803170247608
 30
0.0
 11
-15.14999897346065
 21
385.6303170247608
 31
0.0
  0
LINE
  5
151
330
4E
100
AcDbEntity
  8
0
  6
Continuous
 62
     7
100
AcDbLine
 10
-19.64999897346058
 20
385.6303170247608
 30
0.0
 11
-19.64999897346058
 21
380.3803170247608
 31
0.0
  0
LINE
  5
152
330
4E
100
AcDbEntity
  8
0
  6
Continuous
 62
     7
100
AcDbLine
 10
-30.28980474411446
 20
378.7303170247608
 30
0.0
 11
-30.28980474411446
 21
386.8803170247608
 31
0.0
  0
LINE
  5
153
330
4E
100
AcDbEntity
  8
0
  6
Continuous
 62
     7
100
AcDbLine
 10
54.25000102653998
 20
386.8803170247608
 30
0.0
 11
54.25000102653998
 21
378.7303170247608
 31
0.0
  0
LINE
  5
154
330
4E
100
AcDbEntity
  8
0
  6
Continuous
 62
     7
100
AcDbLine
 10
52.6480349346156
 20
378.7303170247608
 30
0.0
 11
53.61109717026823
 21
378.7303170247608
 31
0.0
  0
LINE
  5
155
330
4E
100
AcDbEntity
  8
0
  6
Continuous
 62
     7
100
AcDbLine
 10
53.61109717026823
 20
386.8803170247608
 30
0.0
 11
53.61109717026823
 21
378.7303170247608
 31
0.0
  0
LINE
  5
156
330
4E
100
AcDbEntity
  8
0
  6
Continuous
 62
     7
100
AcDbLine
 10
52.6480349346156
 20
386.8803170247608
 30
0.0
 11
52.6480349346156
 21
378.7303170247608
 31
0.0
  0
LINE
  5
157
330
4E
100
AcDbEntity
  8
0
  6
Continuous
 62
     7
100
AcDbLine
 10
52.5477666948386
 20
386.8803170247608
 30
0.0
 11
52.5477666948386
 21
378.7303170247608
 31
0.0
  0
LINE
  5
158
330
4E
100
AcDbEntity
  8
0
  6
Continuous
 62
     7
100
AcDbLine
 10
33.01881680532499
 20
383.5053170247607
 30
0.0
 11
33.01881680532502
 21
382.1053170247608
 31
0.0
  0
LINE
  5
159
330
4E
100
AcDbEntity
  8
0
  6
Continuous
 62
     7
100
AcDbLine
 10
28.75000102654006
 20
382.8553170247608
 30
0.0
 11
30.8500010265401
 21
382.8553170247608
 31
0.0
  0
LINE
  5
15A
330
4E
100
AcDbEntity
  8
0
  6
Continuous
 62
     7
100
AcDbLine
 10
52.28980679719382
 20
386.8803170247608
 30
0.0
 11
52.28980679719384
 21
378.7303170247608
 31
0.0
  0
LINE
  5
15B
330
4E
100
AcDbEntity
  8
0
  6
Continuous
 62
     7
100
AcDbLine
 10
41.65000102654009
 20
385.6303170247608
 30
0.0
 11
41.65000102654009
 21
380.3803170247608
 31
0.0
  0
LINE
  5
15C
330
4E
100
AcDbEntity
  8
0
  6
Continuous
 62
     7
100
AcDbLine
 10
40.94546361546065
 20
380.3803170247608
 30
0.0
 11
40.94546361546065
 21
385.6303170247608
 31
0.0
  0
LINE
  5
15D
330
4E
100
AcDbEntity
  8
0
  6
Continuous
 62
     7
100
AcDbLine
 10
42.10000102654232
 20
380.7053170247608
 30
0.0
 11
42.10000102654232
 21
380.9553170247608
 31
0.0
  0
LINE
  5
15E
330
4E
100
AcDbEntity
  8
0
  6
Continuous
 62
     7
100
AcDbLine
 10
47.75000102654096
 20
380.9553170247608
 30
0.0
 11
47.15000102654089
 21
380.9553170247608
 31
0.0
  0
LINE
  5
15F
330
4E
100
AcDbEntity
  8
0
  6
Continuous
 62
     7
100
AcDbLine
 10
45.60000102654016
 20
380.9553170247608
 30
0.0
 11
47.15000102654089
 21
380.9553170247608
 31
0.0
  0
LINE
  5
160
330
4E
100
AcDbEntity
  8
0
  6
Continuous
 62
     7
100
AcDbLine
 10
44.91672988312827
 20
380.9553170247608
 30
0.0
 11
45.60000102654016
 21
380.9553170247608
 31
0.0
  0
LINE
  5
161
330
4E
100
AcDbEntity
  8
0
  6
Continuous
 62
     7
100
AcDbLine
 10
44.20000102654237
 20
380.9553170247608
 30
0.0
 11
44.20000102654234
 21
380.7053170247608
 31
0.0
  0
LINE
  5
162
330
4E
100
AcDbEntity
  8
0
  6
Continuous
 62
     7
100
AcDbLine
 10
37.15000102654012
 20
380.3803170247608
 30
0.0
 11
37.15000102654012
 21
385.6303170247608
 31
0.0
  0
LINE
  5
163
330
4E
100
AcDbEntity
  8
0
  6
Continuous
 62
     7
100
AcDbLine
 10
40.94546361546065
 20
380.3803170247608
 30
0.0
 11
41.65000102654009
 21
380.3803170247608
 31
0.0
  0
LINE
  5
164
330
4E
100
AcDbEntity
  8
0
  6
Continuous
 62
     7
100
AcDbLine
 10
37.15000102654012
 20
380.3803170247608
 30
0.0
 11
40.94546361546065
 21
380.3803170247608
 31
0.0
  0
LINE
  5
165
330
4E
100
AcDbEntity
  8
0
  6
Continuous
 62
     7
100
AcDbLine
 10
44.64847198386048
 20
381.3382272358842
 30
0.0
 11
44.64847198386048
 21
384.2724068136373
 31
0.0
  0
LINE
  5
166
330
4E
100
AcDbEntity
  8
0
  6
Continuous
 62
     7
100
AcDbLine
 10
42.75000102653998
 20
381.7553170247608
 30
0.0
 11
43.83007455197914
 21
381.7553170247608
 31
0.0
  0
LINE
  5
167
330
4E
100
AcDbEntity
  8
0
  6
Continuous
 62
     7
100
AcDbLine
 10
42.75000102653998
 20
381.9261414167072
 30
0.0
 11
42.75000102653998
 21
381.7553170247608
 31
0.0
  0
LINE
  5
168
330
4E
100
AcDbEntity
  8
0
  6
Continuous
 62
     7
100
AcDbLine
 10
45.60000102654016
 20
384.6553170247607
 30
0.0
 11
45.60000102654016
 21
380.9553170247608
 31
0.0
  0
LINE
  5
169
330
4E
100
AcDbEntity
  8
0
  6
Continuous
 62
     2
100
AcDbLine
 10
47.15000102654089
 20
380.9553170247608
 30
0.0
 11
47.15000102654101
 21
379.9053170247607
 31
0.0
  0
LINE
  5
16A
330
4E
100
AcDbEntity
  8
0
  6
Continuous
 62
     7
100
AcDbLine
 10
47.15000102654101
 20
379.9053170247607
 30
0.0
 11
47.75000102654095
 21
379.9053170247607
 31
0.0
  0
LINE
  5
16B
330
4E
100
AcDbEntity
  8
0
  6
Continuous
 62
     2
100
AcDbLine
 10
47.75000102654096
 20
380.9553170247608
 30
0.0
 11
47.75000102654095
 21
379.9053170247607
 31
0.0
  0
LINE
  5
16C
330
4E
100
AcDbEntity
  8
0
  6
Continuous
 62
     7
100
AcDbLine
 10
49.20000102654096
 20
383.2053170247608
 30
0.0
 11
49.20000102654089
 21
382.4053170247607
 31
0.0
  0
LINE
  5
16D
330
4E
100
AcDbEntity
  8
0
  6
Continuous
 62
     7
100
AcDbLine
 10
28.75000102654006
 20
383.2062503600823
 30
0.0
 11
28.75000102654006
 21
382.8553170247608
 31
0.0
  0
LINE
  5
16E
330
4E
100
AcDbEntity
  8
0
  6
Continuous
 62
     7
100
AcDbLine
 10
28.75000102654006
 20
382.4043836894392
 30
0.0
 11
28.75000102654006
 21
382.7553170247608
 31
0.0
  0
LINE
  5
16F
330
4E
100
AcDbEntity
  8
0
  6
Continuous
 62
     7
100
AcDbLine
 10
30.8500010265401
 20
382.8553170247608
 30
0.0
 11
30.85000102654006
 21
382.7553170247608
 31
0.0
  0
LINE
  5
170
330
4E
100
AcDbEntity
  8
0
  6
Continuous
 62
     7
100
AcDbLine
 10
30.85000102654006
 20
382.7553170247608
 30
0.0
 11
30.85000102654009
 21
382.4043836894392
 31
0.0
  0
LINE
  5
171
330
4E
100
AcDbEntity
  8
0
  6
Continuous
 62
     7
100
AcDbLine
 10
30.85000102654008
 20
383.3053170247648
 30
0.0
 11
30.85000102654009
 21
383.2062503600823
 31
0.0
  0
LINE
  5
172
330
4E
100
AcDbEntity
  8
0
  6
Continuous
 62
     7
100
AcDbLine
 10
30.85000102654009
 20
382.4043836894392
 30
0.0
 11
30.85000102654008
 21
382.3053170247649
 31
0.0
  0
LINE
  5
173
330
4E
100
AcDbEntity
  8
0
  6
Continuous
 62
     7
100
AcDbLine
 10
30.85000102654009
 20
383.2062503600823
 30
0.0
 11
30.8500010265401
 21
382.8553170247608
 31
0.0
  0
LINE
  5
174
330
4E
100
AcDbEntity
  8
0
  6
Continuous
 62
     7
100
AcDbLine
 10
30.85000102654006
 20
382.7553170247608
 30
0.0
 11
28.75000102654006
 21
382.7553170247608
 31
0.0
  0
LINE
  5
175
330
4E
100
AcDbEntity
  8
0
  6
Continuous
 62
     7
100
AcDbLine
 10
20.80000102653942
 20
382.4043836894392
 30
0.0
 11
20.80000102653942
 21
382.305317024737
 31
0.0
  0
LINE
  5
176
330
4E
100
AcDbEntity
  8
0
  6
Continuous
 62
     2
100
AcDbLine
 10
28.75000102654006
 20
382.4043836894392
 30
0.0
 11
30.85000102654009
 21
382.4043836894392
 31
0.0
  0
LINE
  5
177
330
4E
100
AcDbEntity
  8
0
  6
Continuous
 62
     7
100
AcDbLine
 10
27.65000102654005
 20
382.305317024737
 30
0.0
 11
28.75000102654007
 21
382.3053170247608
 31
0.0
  0
LINE
  5
178
330
4E
100
AcDbEntity
  8
0
  6
Continuous
 62
     7
100
AcDbLine
 10
24.65000102654071
 20
382.3053170247648
 30
0.0
 11
25.20000102654007
 21
382.305317024737
 31
0.0
  0
LINE
  5
179
330
4E
100
AcDbEntity
  8
0
  6
Continuous
 62
     7
100
AcDbLine
 10
25.20000102654007
 20
382.305317024737
 30
0.0
 11
27.65000102654005
 21
382.305317024737
 31
0.0
  0
LINE
  5
17A
330
4E
100
AcDbEntity
  8
0
  6
Continuous
 62
     7
100
AcDbLine
 10
28.75000102654007
 20
382.3053170247608
 30
0.0
 11
30.85000102654008
 21
382.3053170247649
 31
0.0
  0
LINE
  5
17B
330
4E
100
AcDbEntity
  8
0
  6
Continuous
 62
     7
100
AcDbLine
 10
17.25000102653942
 20
382.4043836894392
 30
0.0
 11
17.25000102653942
 21
382.305317024737
 31
0.0
  0
LINE
  5
17C
330
4E
100
AcDbEntity
  8
0
  6
Continuous
 62
     7
100
AcDbLine
 10
18.35000102653942
 20
382.3053170247608
 30
0.0
 11
18.35000102653942
 21
382.4043836894392
 31
0.0
  0
LINE
  5
17D
330
4E
100
AcDbEntity
  8
0
  6
Continuous
 62
     7
100
AcDbLine
 10
27.65000102654005
 20
383.3053170247608
 30
0.0
 11
27.65000102654005
 21
383.2062503600823
 31
0.0
  0
LINE
  5
17E
330
4E
100
AcDbEntity
  8
0
  6
Continuous
 62
     7
100
AcDbLine
 10
28.75000102654006
 20
383.2062503600823
 30
0.0
 11
28.75000102654006
 21
383.305317024737
 31
0.0
  0
LINE
  5
17F
330
4E
100
AcDbEntity
  8
0
  6
Continuous
 62
     7
100
AcDbLine
 10
27.65000102654007
 20
382.4043836894392
 30
0.0
 11
27.65000102654005
 21
382.305317024737
 31
0.0
  0
LINE
  5
180
330
4E
100
AcDbEntity
  8
0
  6
Continuous
 62
     7
100
AcDbLine
 10
28.75000102654007
 20
382.3053170247608
 30
0.0
 11
28.75000102654006
 21
382.4043836894392
 31
0.0
  0
LINE
  5
181
330
4E
100
AcDbEntity
  8
0
  6
Continuous
 62
     7
100
AcDbLine
 10
27.65000102654005
 20
383.2062503600823
 30
0.0
 11
27.65000102654007
 21
382.8553170247608
 31
0.0
  0
LINE
  5
182
330
4E
100
AcDbEntity
  8
0
  6
Continuous
 62
     7
100
AcDbLine
 10
27.65000102654007
 20
382.4043836894392
 30
0.0
 11
27.65000102654007
 21
382.7553170247608
 31
0.0
  0
LINE
  5
183
330
4E
100
AcDbEntity
  8
0
  6
Continuous
 62
     7
100
AcDbLine
 10
28.75000102654006
 20
383.305317024737
 30
0.0
 11
27.65000102654005
 21
383.3053170247608
 31
0.0
  0
LINE
  5
184
330
4E
100
AcDbEntity
  8
0
  6
Continuous
 62
     7
100
AcDbLine
 10
25.20000102654007
 20
382.7553170247608
 30
0.0
 11
25.20000102654007
 21
382.8553170247608
 31
0.0
  0
LINE
  5
185
330
4E
100
AcDbEntity
  8
0
  6
Continuous
 62
     7
100
AcDbLine
 10
25.20000102654007
 20
382.8553170247608
 30
0.0
 11
25.20000102654007
 21
383.2062503600823
 31
0.0
  0
LINE
  5
186
330
4E
100
AcDbEntity
  8
0
  6
Continuous
 62
     7
100
AcDbLine
 10
25.20000102654007
 20
383.2062503600823
 30
0.0
 11
25.20000102654004
 21
383.305317024613
 31
0.0
  0
LINE
  5
187
330
4E
100
AcDbEntity
  8
0
  6
Continuous
 62
     7
100
AcDbLine
 10
25.20000102654007
 20
382.4043836894392
 30
0.0
 11
25.20000102654007
 21
382.305317024737
 31
0.0
  0
LINE
  5
188
330
4E
100
AcDbEntity
  8
0
  6
Continuous
 62
     7
100
AcDbLine
 10
25.20000102654007
 20
382.4043836894392
 30
0.0
 11
25.20000102654007
 21
382.7553170247608
 31
0.0
  0
LINE
  5
189
330
4E
100
AcDbEntity
  8
0
  6
Continuous
 62
     2
100
AcDbLine
 10
18.35000102653942
 20
383.2062503600823
 30
0.0
 11
20.80000102653942
 21
383.2062503600823
 31
0.0
  0
LINE
  5
18A
330
4E
100
AcDbEntity
  8
0
  6
Continuous
 62
     7
100
AcDbLine
 10
18.35000102653942
 20
382.8553170247608
 30
0.0
 11
20.80000102653942
 21
382.8553170247608
 31
0.0
  0
LINE
  5
18B
330
4E
100
AcDbEntity
  8
0
  6
Continuous
 62
     7
100
AcDbLine
 10
18.35000102653942
 20
383.2062503600823
 30
0.0
 11
18.35000102653942
 21
382.8553170247608
 31
0.0
  0
LINE
  5
18C
330
4E
100
AcDbEntity
  8
0
  6
Continuous
 62
     7
100
AcDbLine
 10
17.25000102653942
 20
382.305317024737
 30
0.0
 11
18.35000102653942
 21
382.3053170247608
 31
0.0
  0
LINE
  5
18D
330
4E
100
AcDbEntity
  8
0
  6
Continuous
 62
     7
100
AcDbLine
 10
20.80000102653942
 20
382.305317024737
 30
0.0
 11
21.35000102653942
 21
382.3053170247649
 31
0.0
  0
LINE
  5
18E
330
4E
100
AcDbEntity
  8
0
  6
Continuous
 62
     7
100
AcDbLine
 10
18.35000102653942
 20
382.3053170247608
 30
0.0
 11
20.80000102653942
 21
382.305317024737
 31
0.0
  0
LINE
  5
18F
330
4E
100
AcDbEntity
  8
0
  6
Continuous
 62
     7
100
AcDbLine
 10
18.35000102653942
 20
383.305317024737
 30
0.0
 11
17.25000102653943
 21
383.305317024737
 31
0.0
  0
LINE
  5
190
330
4E
100
AcDbEntity
  8
0
  6
Continuous
 62
     7
100
AcDbLine
 10
20.80000102653942
 20
382.8553170247608
 30
0.0
 11
20.80000102653942
 21
382.7553170247608
 31
0.0
  0
LINE
  5
191
330
4E
100
AcDbEntity
  8
0
  6
Continuous
 62
     7
100
AcDbLine
 10
20.80000102653942
 20
382.7553170247608
 30
0.0
 11
20.80000102653942
 21
382.4043836894392
 31
0.0
  0
LINE
  5
192
330
4E
100
AcDbEntity
  8
0
  6
Continuous
 62
     7
100
AcDbLine
 10
20.80000102653942
 20
383.305317024737
 30
0.0
 11
20.80000102653942
 21
383.2062503600823
 31
0.0
  0
LINE
  5
193
330
4E
100
AcDbEntity
  8
0
  6
Continuous
 62
     7
100
AcDbLine
 10
20.80000102653942
 20
383.2062503600823
 30
0.0
 11
20.80000102653942
 21
382.8553170247608
 31
0.0
  0
LINE
  5
194
330
4E
100
AcDbEntity
  8
0
  6
Continuous
 62
     7
100
AcDbLine
 10
21.35000102653942
 20
383.3053170247649
 30
0.0
 11
20.80000102653942
 21
383.305317024737
 31
0.0
  0
LINE
  5
195
330
4E
100
AcDbEntity
  8
0
  6
Continuous
 62
     7
100
AcDbLine
 10
17.25000102653942
 20
382.4043836894392
 30
0.0
 11
17.25000102653942
 21
382.7553170247608
 31
0.0
  0
LINE
  5
196
330
4E
100
AcDbEntity
  8
0
  6
Continuous
 62
     7
100
AcDbLine
 10
17.25000102653942
 20
383.2062503600823
 30
0.0
 11
17.25000102653942
 21
382.8553170247608
 31
0.0
  0
LINE
  5
197
330
4E
100
AcDbEntity
  8
0
  6
Continuous
 62
     2
100
AcDbLine
 10
20.80000102653942
 20
382.4043836894392
 30
0.0
 11
18.35000102653942
 21
382.4043836894392
 31
0.0
  0
LINE
  5
198
330
4E
100
AcDbEntity
  8
0
  6
Continuous
 62
     7
100
AcDbLine
 10
20.80000102653942
 20
382.7553170247608
 30
0.0
 11
18.35000102653942
 21
382.7553170247608
 31
0.0
  0
LINE
  5
199
330
4E
100
AcDbEntity
  8
0
  6
Continuous
 62
     7
100
AcDbLine
 10
21.35000102653942
 20
383.3053170247649
 30
0.0
 11
21.35000102653942
 21
382.3053170247649
 31
0.0
  0
LINE
  5
19A
330
4E
100
AcDbEntity
  8
0
  6
Continuous
 62
     7
100
AcDbLine
 10
20.80000102653942
 20
383.305317024737
 30
0.0
 11
18.35000102653942
 21
383.305317024737
 31
0.0
  0
LINE
  5
19B
330
4E
100
AcDbEntity
  8
0
  6
Continuous
 62
     2
100
AcDbLine
 10
17.25000102653942
 20
382.4043836894392
 30
0.0
 11
15.15000102652969
 21
382.4043836894392
 31
0.0
  0
LINE
  5
19C
330
4E
100
AcDbEntity
  8
0
  6
Continuous
 62
     2
100
AcDbLine
 10
15.15000102657448
 20
383.2062503600823
 30
0.0
 11
17.25000102653942
 21
383.2062503600823
 31
0.0
  0
LINE
  5
19D
330
4E
100
AcDbEntity
  8
0
  6
Continuous
 62
     7
100
AcDbLine
 10
17.25000102653943
 20
383.305317024737
 30
0.0
 11
17.25000102653942
 21
383.2062503600823
 31
0.0
  0
LINE
  5
19E
330
4E
100
AcDbEntity
  8
0
  6
Continuous
 62
     7
100
AcDbLine
 10
15.15000102657448
 20
382.8553170247608
 30
0.0
 11
15.15000102650331
 21
382.7553170247608
 31
0.0
  0
LINE
  5
19F
330
4E
100
AcDbEntity
  8
0
  6
Continuous
 62
     7
100
AcDbLine
 10
15.15000102650331
 20
382.7553170247608
 30
0.0
 11
15.15000102652969
 21
382.4043836894392
 31
0.0
  0
LINE
  5
1A0
330
4E
100
AcDbEntity
  8
0
  6
Continuous
 62
     7
100
AcDbLine
 10
15.15000102652969
 20
382.4043836894392
 30
0.0
 11
15.15000102652743
 21
382.3053170247649
 31
0.0
  0
LINE
  5
1A1
330
4E
100
AcDbEntity
  8
0
  6
Continuous
 62
     7
100
AcDbLine
 10
15.15000102655038
 20
383.3053170247649
 30
0.0
 11
15.15000102657448
 21
383.2062503600823
 31
0.0
  0
LINE
  5
1A2
330
4E
100
AcDbEntity
  8
0
  6
Continuous
 62
     7
100
AcDbLine
 10
15.15000102657448
 20
383.2062503600823
 30
0.0
 11
15.15000102657448
 21
382.8553170247608
 31
0.0
  0
LINE
  5
1A3
330
4E
100
AcDbEntity
  8
0
  6
Continuous
 62
     7
100
AcDbLine
 10
15.15000102657448
 20
382.8553170247608
 30
0.0
 11
17.25000102653942
 21
382.8553170247608
 31
0.0
  0
LINE
  5
1A4
330
4E
100
AcDbEntity
  8
0
  6
Continuous
 62
     7
100
AcDbLine
 10
27.65000102654007
 20
382.7553170247608
 30
0.0
 11
25.20000102654007
 21
382.7553170247608
 31
0.0
  0
LINE
  5
1A5
330
4E
100
AcDbEntity
  8
0
  6
Continuous
 62
     2
100
AcDbLine
 10
25.20000102654007
 20
383.2062503600823
 30
0.0
 11
27.65000102654005
 21
383.2062503600823
 31
0.0
  0
LINE
  5
1A6
330
4E
100
AcDbEntity
  8
0
  6
Continuous
 62
     2
100
AcDbLine
 10
25.20000102654007
 20
382.4043836894392
 30
0.0
 11
27.65000102654007
 21
382.4043836894392
 31
0.0
  0
LINE
  5
1A7
330
4E
100
AcDbEntity
  8
0
  6
Continuous
 62
     7
100
AcDbLine
 10
25.20000102654007
 20
382.8553170247608
 30
0.0
 11
27.65000102654007
 21
382.8553170247608
 31
0.0
  0
LINE
  5
1A8
330
4E
100
AcDbEntity
  8
0
  6
Continuous
 62
     7
100
AcDbLine
 10
24.65000102654071
 20
382.3053170247648
 30
0.0
 11
24.65000102654071
 21
383.3053170247648
 31
0.0
  0
LINE
  5
1A9
330
4E
100
AcDbEntity
  8
0
  6
Continuous
 62
     7
100
AcDbLine
 10
18.35000102653942
 20
382.7553170247608
 30
0.0
 11
18.35000102653942
 21
382.4043836894392
 31
0.0
  0
LINE
  5
1AA
330
4E
100
AcDbEntity
  8
0
  6
Continuous
 62
     7
100
AcDbLine
 10
15.15000102652743
 20
382.3053170247649
 30
0.0
 11
17.25000102653942
 21
382.305317024737
 31
0.0
  0
LINE
  5
1AB
330
4E
100
AcDbEntity
  8
0
  6
Continuous
 62
     7
100
AcDbLine
 10
17.25000102653942
 20
382.7553170247608
 30
0.0
 11
15.15000102650331
 21
382.7553170247608
 31
0.0
  0
LINE
  5
1AC
330
4E
100
AcDbEntity
  8
0
  6
Continuous
 62
     7
100
AcDbLine
 10
14.44381680486438
 20
383.5053170247607
 30
0.0
 11
12.9688168128076
 21
383.5053170247607
 31
0.0
  0
LINE
  5
1AD
330
4E
100
AcDbEntity
  8
0
  6
Continuous
 62
     7
100
AcDbLine
 10
14.44381680486438
 20
384.820396255269
 30
0.0
 11
14.44381680486437
 21
385.1285720460338
 31
0.0
  0
LINE
  5
1AE
330
4E
100
AcDbEntity
  8
0
  6
Continuous
 62
     7
100
AcDbLine
 10
12.96881681280761
 20
382.1053170247608
 30
0.0
 11
14.44381680486439
 21
382.1053170247608
 31
0.0
  0
LINE
  5
1AF
330
4E
100
AcDbEntity
  8
0
  6
Continuous
 62
     7
100
AcDbLine
 10
12.9688168128076
 20
383.5053170247607
 30
0.0
 11
12.96881681280761
 21
382.1053170247608
 31
0.0
  0
LINE
  5
1B0
330
4E
100
AcDbEntity
  8
0
  6
Continuous
 62
     7
100
AcDbLine
 10
12.9688168128076
 20
383.5053170247607
 30
0.0
 11
12.9688168128076
 21
386.8803170247608
 31
0.0
  0
LINE
  5
1B1
330
4E
100
AcDbEntity
  8
0
  6
Continuous
 62
     7
100
AcDbLine
 10
10.95965540151838
 20
386.8803170247608
 30
0.0
 11
12.9688168128076
 21
386.8803170247608
 31
0.0
  0
LINE
  5
1B2
330
4E
100
AcDbEntity
  8
0
  6
Continuous
 62
     7
100
AcDbLine
 10
14.44381680486438
 20
380.9767792889117
 30
0.0
 11
14.44381680486439
 21
382.1053170247608
 31
0.0
  0
LINE
  5
1B3
330
4E
100
AcDbEntity
  8
0
  6
Continuous
 62
     7
100
AcDbLine
 10
3.84034665156597
 20
386.8803170247608
 30
0.0
 11
2.16850074584559
 21
386.8803170247608
 31
0.0
  0
LINE
  5
1B4
330
4E
100
AcDbEntity
  8
0
  6
Continuous
 62
     7
100
AcDbLine
 10
1.45000102653977
 20
386.8803170247608
 30
0.0
 11
2.16850074584559
 21
386.8803170247608
 31
0.0
  0
LINE
  5
1B5
330
4E
100
AcDbEntity
  8
0
  6
Continuous
 62
     7
100
AcDbLine
 10
2.16850074584559
 20
386.8803170247608
 30
0.0
 11
2.16850074584559
 21
378.7303170247608
 31
0.0
  0
LINE
  5
1B6
330
4E
100
AcDbEntity
  8
0
  6
Continuous
 62
     7
100
AcDbLine
 10
3.84034665156597
 20
378.7303170247608
 30
0.0
 11
3.84034665156597
 21
386.8803170247608
 31
0.0
  0
LINE
  5
1B7
330
4E
100
AcDbEntity
  8
0
  6
Continuous
 62
     7
100
AcDbLine
 10
12.9688168128076
 20
378.7303170247608
 30
0.0
 11
12.96881681280761
 21
382.1053170247608
 31
0.0
  0
LINE
  5
1B8
330
4E
100
AcDbEntity
  8
0
  6
Continuous
 62
     7
100
AcDbLine
 10
10.95965540151838
 20
386.8803170247608
 30
0.0
 11
10.95965540151838
 21
378.7303170247608
 31
0.0
  0
LINE
  5
1B9
330
4E
100
AcDbEntity
  8
0
  6
Continuous
 62
     7
100
AcDbLine
 10
10.03460255945412
 20
386.8803170247608
 30
0.0
 11
10.03460255945412
 21
378.7303170247608
 31
0.0
  0
LINE
  5
1BA
330
4E
100
AcDbEntity
  8
0
  6
Continuous
 62
     7
100
AcDbLine
 10
4.76539949362662
 20
386.8803170247608
 30
0.0
 11
4.76539949362662
 21
378.7303170247608
 31
0.0
  0
LINE
  5
1BB
330
4E
100
AcDbEntity
  8
0
  6
Continuous
 62
     7
100
AcDbLine
 10
-32.2499989734606
 20
378.7303170247608
 30
0.0
 11
-31.61109511718878
 21
378.7303170247608
 31
0.0
  0
LINE
  5
1BC
330
4E
100
AcDbEntity
  8
0
  6
Continuous
 62
     7
100
AcDbLine
 10
-32.2499989734606
 20
386.8803170247608
 30
0.0
 11
-32.2499989734606
 21
378.7303170247608
 31
0.0
  0
LINE
  5
1BD
330
4E
100
AcDbEntity
  8
0
  6
Continuous
 62
     7
100
AcDbLine
 10
-31.61109511718878
 20
386.8803170247608
 30
0.0
 11
-32.2499989734606
 21
386.8803170247608
 31
0.0
  0
LINE
  5
1BE
330
4E
100
AcDbEntity
  8
0
  6
Continuous
 62
     7
100
AcDbLine
 10
-31.61109511718878
 20
386.8803170247608
 30
0.0
 11
-31.61109511718878
 21
378.7303170247608
 31
0.0
  0
LINE
  5
1BF
330
4E
100
AcDbEntity
  8
0
  6
Continuous
 62
     7
100
AcDbLine
 10
31.54381680486438
 20
382.1053170247608
 30
0.0
 11
33.01881680532502
 21
382.1053170247608
 31
0.0
  0
LINE
  5
1C0
330
4E
100
AcDbEntity
  8
0
  6
Continuous
 62
     7
100
AcDbLine
 10
31.54381680486435
 20
380.9767792889117
 30
0.0
 11
31.54381680486438
 21
382.1053170247608
 31
0.0
  0
LINE
  5
1C1
330
4E
100
AcDbEntity
  8
0
  6
Continuous
 62
     7
100
AcDbLine
 10
-20.74999897346064
 20
381.9261414167072
 30
0.0
 11
-20.74999897346063
 21
381.7553170247608
 31
0.0
  0
LINE
  5
1C2
330
4E
100
AcDbEntity
  8
0
  6
Continuous
 62
     7
100
AcDbLine
 10
-21.83007249889968
 20
381.7553170247608
 30
0.0
 11
-20.74999897346063
 21
381.7553170247608
 31
0.0
  0
LINE
  5
1C3
330
4E
100
AcDbEntity
  8
0
  6
Continuous
 62
     7
100
AcDbLine
 10
33.01881680532512
 20
378.7303170247608
 30
0.0
 11
33.01881680532502
 21
382.1053170247608
 31
0.0
  0
LINE
  5
1C4
330
4E
100
AcDbEntity
  8
0
  6
Continuous
 62
     7
100
AcDbLine
 10
-22.9167278300488
 20
380.9553170247608
 30
0.0
 11
-23.59999897346066
 21
380.9553170247608
 31
0.0
  0
LINE
  5
1C5
330
4E
100
AcDbEntity
  8
0
  6
Continuous
 62
     7
100
AcDbLine
 10
-25.74999897346147
 20
380.9553170247608
 30
0.0
 11
-25.14999897346142
 21
380.9553170247608
 31
0.0
  0
LINE
  5
1C6
330
4E
100
AcDbEntity
  8
0
  6
Continuous
 62
     7
100
AcDbLine
 10
-23.59999897346066
 20
380.9553170247608
 30
0.0
 11
-25.14999897346142
 21
380.9553170247608
 31
0.0
  0
LINE
  5
1C7
330
4E
100
AcDbEntity
  8
0
  6
Continuous
 62
     2
100
AcDbLine
 10
-25.14999897346142
 20
380.9553170247608
 30
0.0
 11
-25.14999897346159
 21
379.9053170247607
 31
0.0
  0
LINE
  5
1C8
330
4E
100
AcDbEntity
  8
0
  6
Continuous
 62
     2
100
AcDbLine
 10
-25.74999897346147
 20
380.9553170247608
 30
0.0
 11
-25.74999897346146
 21
379.9053170247607
 31
0.0
  0
LINE
  5
1C9
330
4E
100
AcDbEntity
  8
0
  6
Continuous
 62
     7
100
AcDbLine
 10
-25.14999897346159
 20
379.9053170247607
 30
0.0
 11
-25.74999897346146
 21
379.9053170247607
 31
0.0
  0
LINE
  5
1CA
330
4E
100
AcDbEntity
  8
0
  6
Continuous
 62
     7
100
AcDbLine
 10
-18.94546156238121
 20
380.3803170247608
 30
0.0
 11
-19.64999897346058
 21
380.3803170247608
 31
0.0
  0
LINE
  5
1CB
330
4E
100
AcDbEntity
  8
0
  6
Continuous
 62
     7
100
AcDbLine
 10
-15.14999897346065
 20
380.3803170247608
 30
0.0
 11
-18.94546156238121
 21
380.3803170247608
 31
0.0
  0
LINE
  5
1CC
330
4E
100
AcDbEntity
  8
0
  6
Continuous
 62
     7
100
AcDbLine
 10
-20.09999897346295
 20
380.7053170247608
 30
0.0
 11
-20.09999897346295
 21
380.9553170247608
 31
0.0
  0
LINE
  5
1CD
330
4E
100
AcDbEntity
  8
0
  6
Continuous
 62
     7
100
AcDbLine
 10
-22.19999897346294
 20
380.9553170247608
 30
0.0
 11
-22.19999897346295
 21
380.7053170247608
 31
0.0
  0
LINE
  5
1CE
330
4E
100
AcDbEntity
  8
0
  6
Continuous
 62
     7
100
AcDbLine
 10
2.16850074584559
 20
378.7303170247608
 30
0.0
 11
1.45000102653977
 21
378.7303170247608
 31
0.0
  0
LINE
  5
1CF
330
4E
100
AcDbEntity
  8
0
  6
Continuous
 62
     7
100
AcDbLine
 10
-6.54999897346008
 20
378.7303170247608
 30
0.0
 11
-7.26849869274132
 21
378.7303170247608
 31
0.0
  0
LINE
  5
1D0
330
4E
100
AcDbEntity
  8
0
  6
Continuous
 62
     7
100
AcDbLine
 10
-6.54999897346008
 20
378.7303170247608
 30
0.0
 11
1.45000102653977
 21
378.7303170247608
 31
0.0
  0
LINE
  5
1D1
330
4E
100
AcDbEntity
  8
0
  6
Continuous
 62
     7
100
AcDbLine
 10
-1.69999897347896
 20
379.3053170247608
 30
0.0
 11
1.45000102653969
 21
379.3053170247608
 31
0.0
  0
LINE
  5
1D2
330
4E
100
AcDbEntity
  8
0
  6
Continuous
 62
     7
100
AcDbLine
 10
31.54381680486435
 20
380.9767792889117
 30
0.0
 11
14.44381680486438
 21
380.9767792889117
 31
0.0
  0
LINE
  5
1D3
330
4E
100
AcDbEntity
  8
0
  6
Continuous
 62
     7
100
AcDbLine
 10
-30.64803288153622
 20
386.8803170247608
 30
0.0
 11
-30.64803288153622
 21
378.7303170247608
 31
0.0
  0
LINE
  5
1D4
330
4E
100
AcDbEntity
  8
0
  6
Continuous
 62
     7
100
AcDbLine
 10
-30.54776464175922
 20
378.7303170247608
 30
0.0
 11
-30.54776464175922
 21
386.8803170247608
 31
0.0
  0
LINE
  5
1D5
330
4E
100
AcDbEntity
  8
0
  6
Continuous
 62
     7
100
AcDbLine
 10
18.35000102653942
 20
383.2062503600823
 30
0.0
 11
18.35000102653942
 21
383.305317024737
 31
0.0
  0
LINE
  5
1D6
330
4E
100
AcDbEntity
  8
0
  6
Continuous
 62
     2
100
AcDbLine
 10
28.75000102654006
 20
383.2062503600823
 30
0.0
 11
30.85000102654009
 21
383.2062503600823
 31
0.0
  0
LINE
  5
1D7
330
4E
100
AcDbEntity
  8
0
  6
Continuous
 62
     7
100
AcDbLine
 10
14.44381680486438
 20
383.5053170247607
 30
0.0
 11
14.44381680486438
 21
384.820396255269
 31
0.0
  0
LINE
  5
1D8
330
4E
100
AcDbEntity
  8
0
  6
Continuous
 62
     7
100
AcDbLine
 10
30.85000102654008
 20
383.3053170247648
 30
0.0
 11
28.75000102654006
 21
383.305317024737
 31
0.0
  0
LINE
  5
1D9
330
4E
100
AcDbEntity
  8
0
  6
Continuous
 62
     7
100
AcDbLine
 10
25.20000102654004
 20
383.305317024613
 30
0.0
 11
24.65000102654071
 21
383.3053170247648
 31
0.0
  0
LINE
  5
1DA
330
4E
100
AcDbEntity
  8
0
  6
Continuous
 62
     7
100
AcDbLine
 10
27.65000102654005
 20
383.3053170247608
 30
0.0
 11
25.20000102654004
 21
383.305317024613
 31
0.0
  0
LINE
  5
1DB
330
4E
100
AcDbEntity
  8
0
  6
Continuous
 62
     7
100
AcDbLine
 10
-30.54776464175922
 20
386.8803170247608
 30
0.0
 11
-30.64803288153622
 21
386.8803170247608
 31
0.0
  0
LINE
  5
1DC
330
4E
100
AcDbEntity
  8
0
  6
Continuous
 62
     7
100
AcDbLine
 10
-30.64803288153622
 20
386.8803170247608
 30
0.0
 11
-31.61109511718878
 21
386.8803170247608
 31
0.0
  0
LINE
  5
1DD
330
4E
100
AcDbEntity
  8
0
  6
Continuous
 62
     7
100
AcDbLine
 10
1.45000102653977
 20
386.8803170247608
 30
0.0
 11
-6.54999897346008
 21
386.8803170247608
 31
0.0
  0
LINE
  5
1DE
330
4E
100
AcDbEntity
  8
0
  6
Continuous
 62
     7
100
AcDbLine
 10
17.25000102653943
 20
383.305317024737
 30
0.0
 11
15.15000102655038
 21
383.3053170247649
 31
0.0
  0
LINE
  5
1DF
330
4E
100
AcDbEntity
  8
0
  6
Continuous
 62
     7
100
AcDbLine
 10
52.6480349346156
 20
386.8803170247608
 30
0.0
 11
53.61109717026823
 21
386.8803170247608
 31
0.0
  0
LINE
  5
1E0
330
4E
100
AcDbEntity
  8
0
  6
Continuous
 62
     7
100
AcDbLine
 10
53.61109717026823
 20
386.8803170247608
 30
0.0
 11
54.25000102653998
 21
386.8803170247608
 31
0.0
  0
LINE
  5
1E1
330
4E
100
AcDbEntity
  8
0
  6
Continuous
 62
     7
100
AcDbLine
 10
52.6480349346156
 20
386.8803170247608
 30
0.0
 11
52.5477666948386
 21
386.8803170247608
 31
0.0
  0
LINE
  5
1E2
330
4E
100
AcDbEntity
  8
0
  6
Continuous
 62
     7
100
AcDbLine
 10
52.28980679719382
 20
386.8803170247608
 30
0.0
 11
33.018816805325
 21
386.8803170247608
 31
0.0
  0
LINE
  5
1E3
330
4E
100
AcDbEntity
  8
0
  6
Continuous
 62
     2
100
AcDbLine
 10
47.75000102654096
 20
384.6553170247607
 30
0.0
 11
47.75000102654041
 21
385.7053170247608
 31
0.0
  0
LINE
  5
1E4
330
4E
100
AcDbEntity
  8
0
  6
Continuous
 62
     2
100
AcDbLine
 10
47.15000102654088
 20
384.6553170247607
 30
0.0
 11
47.15000102654109
 21
385.7053170247608
 31
0.0
  0
LINE
  5
1E5
330
4E
100
AcDbEntity
  8
0
  6
Continuous
 62
     7
100
AcDbLine
 10
40.94546361546065
 20
385.6303170247608
 30
0.0
 11
41.65000102654009
 21
385.6303170247608
 31
0.0
  0
LINE
  5
1E6
330
4E
100
AcDbEntity
  8
0
  6
Continuous
 62
     7
100
AcDbLine
 10
37.15000102654012
 20
385.6303170247608
 30
0.0
 11
40.94546361546065
 21
385.6303170247608
 31
0.0
  0
LINE
  5
1E7
330
4E
100
AcDbEntity
  8
0
  6
Continuous
 62
     7
100
AcDbLine
 10
47.75000102654041
 20
385.7053170247608
 30
0.0
 11
47.15000102654109
 21
385.7053170247608
 31
0.0
  0
LINE
  5
1E8
330
4E
100
AcDbEntity
  8
0
  6
Continuous
 62
     7
100
AcDbLine
 10
44.91672988312833
 20
384.6553170247608
 30
0.0
 11
45.60000102654016
 21
384.6553170247607
 31
0.0
  0
LINE
  5
1E9
330
4E
100
AcDbEntity
  8
0
  6
Continuous
 62
     7
100
AcDbLine
 10
47.15000102654088
 20
384.6553170247607
 30
0.0
 11
47.75000102654096
 21
384.6553170247607
 31
0.0
  0
LINE
  5
1EA
330
4E
100
AcDbEntity
  8
0
  6
Continuous
 62
     7
100
AcDbLine
 10
45.60000102654016
 20
384.6553170247607
 30
0.0
 11
47.15000102654088
 21
384.6553170247607
 31
0.0
  0
LINE
  5
1EB
330
4E
100
AcDbEntity
  8
0
  6
Continuous
 62
     7
100
AcDbLine
 10
52.28980679719382
 20
386.8803170247608
 30
0.0
 11
52.5477666948386
 21
386.8803170247608
 31
0.0
  0
LINE
  5
1EC
330
4E
100
AcDbEntity
  8
0
  6
Continuous
 62
     7
100
AcDbLine
 10
12.9688168128076
 20
386.8803170247608
 30
0.0
 11
33.018816805325
 21
386.8803170247608
 31
0.0
  0
LINE
  5
1ED
330
4E
100
AcDbEntity
  8
0
  6
Continuous
 62
     7
100
AcDbLine
 10
33.01881680532499
 20
383.5053170247607
 30
0.0
 11
33.018816805325
 21
386.8803170247608
 31
0.0
  0
LINE
  5
1EE
330
4E
100
AcDbEntity
  8
0
  6
Continuous
 62
     7
100
AcDbLine
 10
33.01881680532499
 20
383.5053170247607
 30
0.0
 11
31.54381680486438
 21
383.5053170247607
 31
0.0
  0
LINE
  5
1EF
330
4E
100
AcDbEntity
  8
0
  6
Continuous
 62
     7
100
AcDbLine
 10
-22.91672783004885
 20
384.6553170247608
 30
0.0
 11
-23.59999897346066
 21
384.6553170247607
 31
0.0
  0
LINE
  5
1F0
330
4E
100
AcDbEntity
  8
0
  6
Continuous
 62
     7
100
AcDbLine
 10
-25.14999897346139
 20
384.6553170247607
 30
0.0
 11
-25.74999897346147
 21
384.6553170247607
 31
0.0
  0
LINE
  5
1F1
330
4E
100
AcDbEntity
  8
0
  6
Continuous
 62
     7
100
AcDbLine
 10
-23.59999897346066
 20
384.6553170247607
 30
0.0
 11
-25.14999897346139
 21
384.6553170247607
 31
0.0
  0
LINE
  5
1F2
330
4E
100
AcDbEntity
  8
0
  6
Continuous
 62
     2
100
AcDbLine
 10
-25.74999897346147
 20
384.6553170247607
 30
0.0
 11
-25.74999897346147
 21
385.7053170247608
 31
0.0
  0
LINE
  5
1F3
330
4E
100
AcDbEntity
  8
0
  6
Continuous
 62
     2
100
AcDbLine
 10
-25.14999897346139
 20
384.6553170247607
 30
0.0
 11
-25.1499989734616
 21
385.7053170247608
 31
0.0
  0
LINE
  5
1F4
330
4E
100
AcDbEntity
  8
0
  6
Continuous
 62
     7
100
AcDbLine
 10
31.54381680486438
 20
383.5053170247607
 30
0.0
 11
31.54381680486439
 21
384.820396255269
 31
0.0
  0
LINE
  5
1F5
330
4E
100
AcDbEntity
  8
0
  6
Continuous
 62
     7
100
AcDbLine
 10
31.54381680486439
 20
384.820396255269
 30
0.0
 11
31.54381680486438
 21
385.1285720460338
 31
0.0
  0
LINE
  5
1F6
330
4E
100
AcDbEntity
  8
0
  6
Continuous
 62
     7
100
AcDbLine
 10
3.84034665156597
 20
386.8803170247608
 30
0.0
 11
4.76539949362662
 21
386.8803170247608
 31
0.0
  0
LINE
  5
1F7
330
4E
100
AcDbEntity
  8
0
  6
Continuous
 62
     7
100
AcDbLine
 10
10.03460255945412
 20
386.8803170247608
 30
0.0
 11
10.95965540151838
 21
386.8803170247608
 31
0.0
  0
LINE
  5
1F8
330
4E
100
AcDbEntity
  8
0
  6
Continuous
 62
     7
100
AcDbLine
 10
4.76539949362662
 20
386.8803170247608
 30
0.0
 11
10.03460255945412
 21
386.8803170247608
 31
0.0
  0
LINE
  5
1F9
330
4E
100
AcDbEntity
  8
0
  6
Continuous
 62
     7
100
AcDbLine
 10
-18.94546156238121
 20
385.6303170247608
 30
0.0
 11
-19.64999897346058
 21
385.6303170247608
 31
0.0
  0
LINE
  5
1FA
330
4E
100
AcDbEntity
  8
0
  6
Continuous
 62
     7
100
AcDbLine
 10
-15.14999897346065
 20
385.6303170247608
 30
0.0
 11
-18.94546156238121
 21
385.6303170247608
 31
0.0
  0
LINE
  5
1FB
330
4E
100
AcDbEntity
  8
0
  6
Continuous
 62
     7
100
AcDbLine
 10
-25.74999897346147
 20
385.7053170247608
 30
0.0
 11
-25.1499989734616
 21
385.7053170247608
 31
0.0
  0
LINE
  5
1FC
330
4E
100
AcDbEntity
  8
0
  6
Continuous
 62
     7
100
AcDbLine
 10
-3.39999897344066
 20
386.3053170247608
 30
0.0
 11
-6.54999897346008
 21
386.3053170247608
 31
0.0
  0
LINE
  5
1FD
330
4E
100
AcDbEntity
  8
0
  6
Continuous
 62
     7
100
AcDbLine
 10
-1.69999897347898
 20
386.3053170247608
 30
0.0
 11
1.4500010265397
 21
386.3053170247608
 31
0.0
  0
LINE
  5
1FE
330
4E
100
AcDbEntity
  8
0
  6
Continuous
 62
     7
100
AcDbLine
 10
-30.28980474411446
 20
386.8803170247608
 30
0.0
 11
-7.26849869274132
 21
386.8803170247608
 31
0.0
  0
LINE
  5
1FF
330
4E
100
AcDbEntity
  8
0
  6
Continuous
 62
     7
100
AcDbLine
 10
-30.28980474411446
 20
386.8803170247608
 30
0.0
 11
-30.54776464175922
 21
386.8803170247608
 31
0.0
  0
LINE
  5
200
330
4E
100
AcDbEntity
  8
0
  6
Continuous
 62
     7
100
AcDbLine
 10
-7.26849869274132
 20
386.8803170247608
 30
0.0
 11
-6.54999897346008
 21
386.8803170247608
 31
0.0
  0
LINE
  5
201
330
4E
100
AcDbEntity
  8
0
  6
Continuous
 62
     7
100
AcDbLine
 10
14.44381680486437
 20
385.1285720460338
 30
0.0
 11
31.54381680486438
 21
385.1285720460338
 31
0.0
  0
LINE
  5
202
330
4E
100
AcDbEntity
  8
0
  6
Continuous
 62
     7
100
AcDbLine
 10
14.44381680486438
 20
384.820396255269
 30
0.0
 11
31.54381680486439
 21
384.820396255269
 31
0.0
  0
LINE
  5
203
330
4E
100
AcDbEntity
  8
0
  6
Continuous
 62
     7
100
AcDbLine
 10
-3.39999897344067
 20
379.3053170247608
 30
0.0
 11
-3.39999897344066
 21
386.3053170247608
 31
0.0
  0
LINE
  5
204
330
4E
100
AcDbEntity
  8
0
  6
Continuous
 62
     7
100
AcDbLine
 10
-6.54999897346008
 20
386.3053170247608
 30
0.0
 11
-6.54999897346008
 21
386.8803170247608
 31
0.0
  0
LINE
  5
205
330
4E
100
AcDbEntity
  8
0
  6
Continuous
 62
     7
100
AcDbLine
 10
-1.69999897347896
 20
379.3053170247608
 30
0.0
 11
-1.69999897347898
 21
386.3053170247608
 31
0.0
  0
LINE
  5
206
330
4E
100
AcDbEntity
  8
0
  6
Continuous
 62
     7
100
AcDbLine
 10
-6.54999897346008
 20
378.7303170247608
 30
0.0
 11
-6.54999897346008
 21
379.3053170247608
 31
0.0
  0
LINE
  5
207
330
4E
100
AcDbEntity
  8
0
  6
Continuous
 62
     7
100
AcDbLine
 10
-6.54999897346008
 20
379.3053170247608
 30
0.0
 11
-3.39999897344067
 21
379.3053170247608
 31
0.0
  0
LINE
  5
208
330
4E
100
AcDbEntity
  8
0
  6
Continuous
 62
     7
100
AcDbLine
 10
1.45000102653977
 20
386.8803170247608
 30
0.0
 11
1.4500010265397
 21
386.3053170247608
 31
0.0
  0
LINE
  5
209
330
4E
100
AcDbEntity
  8
0
  6
Continuous
 62
     7
100
AcDbLine
 10
1.45000102653969
 20
379.3053170247608
 30
0.0
 11
1.45000102653977
 21
378.7303170247608
 31
0.0
  0
LINE
  5
20A
330
4E
100
AcDbEntity
  8
0
  6
Continuous
 62
     7
100
AcDbLine
 10
1.4500010265397
 20
386.3053170247608
 30
0.0
 11
1.45000102653969
 21
379.3053170247608
 31
0.0
  0
LINE
  5
20B
330
4E
100
AcDbEntity
  8
0
  6
Continuous
 62
     7
100
AcDbLine
 10
-6.54999897346008
 20
379.3053170247608
 30
0.0
 11
-6.54999897346008
 21
386.3053170247608
 31
0.0
  0
LINE
  5
20C
330
4E
100
AcDbEntity
  8
0
  6
Continuous
 62
     7
100
AcDbLine
 10
-7.26849869274132
 20
386.8803170247608
 30
0.0
 11
-7.26849869274132
 21
378.7303170247608
 31
0.0
  0
LINE
  5
20D
330
4E
100
AcDbEntity
  8
0
  6
Continuous
 62
     7
100
AcDbLine
 10
54.25000102653998
 20
378.7303170247608
 30
0.0
 11
53.61109717026823
 21
378.7303170247608
 31
0.0
  0
LINE
  5
20E
330
4E
100
AcDbEntity
  8
0
  6
Continuous
 62
     7
100
AcDbLine
 10
52.5477666948386
 20
378.7303170247608
 30
0.0
 11
52.6480349346156
 21
378.7303170247608
 31
0.0
  0
LINE
  5
20F
330
4E
100
AcDbEntity
  8
0
  6
Continuous
 62
     7
100
AcDbLine
 10
33.01881680532512
 20
378.7303170247608
 30
0.0
 11
52.28980679719384
 21
378.7303170247608
 31
0.0
  0
LINE
  5
210
330
4E
100
AcDbEntity
  8
0
  6
Continuous
 62
     7
100
AcDbLine
 10
52.5477666948386
 20
378.7303170247608
 30
0.0
 11
52.28980679719384
 21
378.7303170247608
 31
0.0
  0
LINE
  5
211
330
4E
100
AcDbEntity
  8
0
  6
Continuous
 62
     7
100
AcDbLine
 10
12.9688168128076
 20
378.7303170247608
 30
0.0
 11
33.01881680532512
 21
378.7303170247608
 31
0.0
  0
LINE
  5
212
330
4E
100
AcDbEntity
  8
0
  6
Continuous
 62
     7
100
AcDbLine
 10
12.9688168128076
 20
378.7303170247608
 30
0.0
 11
10.95965540151838
 21
378.7303170247608
 31
0.0
  0
LINE
  5
213
330
4E
100
AcDbEntity
  8
0
  6
Continuous
 62
     7
100
AcDbLine
 10
10.95965540151838
 20
378.7303170247608
 30
0.0
 11
10.03460255945412
 21
378.7303170247608
 31
0.0
  0
LINE
  5
214
330
4E
100
AcDbEntity
  8
0
  6
Continuous
 62
     7
100
AcDbLine
 10
4.76539949362662
 20
378.7303170247608
 30
0.0
 11
3.84034665156597
 21
378.7303170247608
 31
0.0
  0
LINE
  5
215
330
4E
100
AcDbEntity
  8
0
  6
Continuous
 62
     7
100
AcDbLine
 10
-7.26849869274132
 20
378.7303170247608
 30
0.0
 11
-30.28980474411446
 21
378.7303170247608
 31
0.0
  0
LINE
  5
216
330
4E
100
AcDbEntity
  8
0
  6
Continuous
 62
     7
100
AcDbLine
 10
-30.54776464175922
 20
378.7303170247608
 30
0.0
 11
-30.28980474411446
 21
378.7303170247608
 31
0.0
  0
LINE
  5
217
330
4E
100
AcDbEntity
  8
0
  6
Continuous
 62
     7
100
AcDbLine
 10
2.16850074584559
 20
378.7303170247608
 30
0.0
 11
3.84034665156597
 21
378.7303170247608
 31
0.0
  0
LINE
  5
218
330
4E
100
AcDbEntity
  8
0
  6
Continuous
 62
     7
100
AcDbLine
 10
-30.64803288153622
 20
378.7303170247608
 30
0.0
 11
-30.54776464175922
 21
378.7303170247608
 31
0.0
  0
LINE
  5
219
330
4E
100
AcDbEntity
  8
0
  6
Continuous
 62
     7
100
AcDbLine
 10
-31.61109511718878
 20
378.7303170247608
 30
0.0
 11
-30.64803288153622
 21
378.7303170247608
 31
0.0
  0
LINE
  5
21A
330
4E
100
AcDbEntity
  8
0
  6
Continuous
 62
     7
100
AcDbLine
 10
10.03460255945412
 20
378.7303170247608
 30
0.0
 11
4.76539949362662
 21
378.7303170247608
 31
0.0
  0
ARC
  5
21B
330
4E
100
AcDbEntity
  8
0
  6
Continuous
 62
     7
100
AcDbCircle
 10
-25.74999897346149
 20
383.2053170247608
 30
0.0
 40
1.449999999999875
100
AcDbArc
 50
89.99999999999916
 51
180.0
  0
ARC
  5
21C
330
4E
100
AcDbEntity
  8
0
  6
Continuous
 62
     7
100
AcDbCircle
 10
-25.74999897346147
 20
382.4053170247607
 30
0.0
 40
1.44999999999996
100
AcDbArc
 50
180.0
 51
270.0
  0
ARC
  5
21D
330
4E
100
AcDbEntity
  8
0
  6
Continuous
 62
     7
100
AcDbCircle
 10
-25.14999897346159
 20
382.8053170247608
 30
0.0
 40
2.900000000000061
100
AcDbArc
 50
320.3622856093338
 51
329.6093483135481
  0
ARC
  5
21E
330
4E
100
AcDbEntity
  8
0
  6
Continuous
 62
     7
100
AcDbCircle
 10
-25.14999897346159
 20
382.8053170247608
 30
0.0
 40
2.900000000000148
100
AcDbArc
 50
270.0
 51
320.3622856093338
  0
ARC
  5
21F
330
4E
100
AcDbEntity
  8
0
  6
Continuous
 62
     7
100
AcDbCircle
 10
-25.14999897346159
 20
382.8053170247608
 30
0.0
 40
2.90000000000011
100
AcDbArc
 50
329.6093483135481
 51
30.39065168644904
  0
ARC
  5
220
330
4E
100
AcDbEntity
  8
0
  6
Continuous
 62
     7
100
AcDbCircle
 10
-25.74999897346146
 20
382.8053170247608
 30
0.0
 40
2.899999999999977
100
AcDbArc
 50
90.00000000000021
 51
270.0
  0
ARC
  5
221
330
4E
100
AcDbEntity
  8
0
  6
Continuous
 62
     7
100
AcDbCircle
 10
43.15000102654233
 20
380.9553170247608
 30
0.0
 40
1.049999999999984
100
AcDbArc
 50
112.3926878055407
 51
180.0
  0
ARC
  5
222
330
4E
100
AcDbEntity
  8
0
  6
Continuous
 62
     7
100
AcDbCircle
 10
43.15000102654233
 20
380.9553170247608
 30
0.0
 40
1.05000000000004
100
AcDbArc
 50
0.0
 51
49.63240645581325
  0
ARC
  5
223
330
4E
100
AcDbEntity
  8
0
  6
Continuous
 62
     7
100
AcDbCircle
 10
47.15000102654098
 20
382.8053170247608
 30
0.0
 40
2.900000000000022
100
AcDbArc
 50
210.390651686453
 51
219.6377143906673
  0
ARC
  5
224
330
4E
100
AcDbEntity
  8
0
  6
Continuous
 62
     7
100
AcDbCircle
 10
43.15000102654233
 20
380.9553170247608
 30
0.0
 40
1.050000000000034
100
AcDbArc
 50
49.63240645581325
 51
112.3926878055407
  0
ARC
  5
225
330
4E
100
AcDbEntity
  8
0
  6
Continuous
 62
     7
100
AcDbCircle
 10
47.75000102654095
 20
382.4053170247607
 30
0.0
 40
1.449999999999875
100
AcDbArc
 50
270.0000000000003
 51
0.0
  0
ARC
  5
226
330
4E
100
AcDbEntity
  8
0
  6
Continuous
 62
     7
100
AcDbCircle
 10
47.75000102654096
 20
383.2053170247608
 30
0.0
 40
1.450000000000003
100
AcDbArc
 50
0.0
 51
90.0
  0
ARC
  5
227
330
4E
100
AcDbEntity
  8
0
  6
Continuous
 62
     7
100
AcDbCircle
 10
43.15000102654233
 20
380.7053170247608
 30
0.0
 40
1.050000000000004
100
AcDbArc
 50
180.0
 51
0.0
  0
ARC
  5
228
330
4E
100
AcDbEntity
  8
0
  6
Continuous
 62
     7
100
AcDbCircle
 10
47.15000102654098
 20
382.8053170247608
 30
0.0
 40
2.899999999999998
100
AcDbArc
 50
219.6377143906673
 51
270.0000000000007
  0
ARC
  5
229
330
4E
100
AcDbEntity
  8
0
  6
Continuous
 62
     7
100
AcDbCircle
 10
47.15000102654098
 20
382.8053170247608
 30
0.0
 40
2.899999999999936
100
AcDbArc
 50
149.60934831355
 51
210.390651686453
  0
ARC
  5
22A
330
4E
100
AcDbEntity
  8
0
  6
Continuous
 62
     7
100
AcDbCircle
 10
-21.14999897346294
 20
380.9553170247608
 30
0.0
 40
1.049999999999963
100
AcDbArc
 50
67.60731219446197
 51
130.3675935441838
  0
ARC
  5
22B
330
4E
100
AcDbEntity
  8
0
  6
Continuous
 62
     7
100
AcDbCircle
 10
-21.14999897346294
 20
380.9553170247608
 30
0.0
 40
1.049999999999988
100
AcDbArc
 50
130.3675935441838
 51
180.0
  0
ARC
  5
22C
330
4E
100
AcDbEntity
  8
0
  6
Continuous
 62
     7
100
AcDbCircle
 10
-21.14999897346295
 20
380.7053170247608
 30
0.0
 40
1.050000000000001
100
AcDbArc
 50
180.0
 51
0.0
  0
ARC
  5
22D
330
4E
100
AcDbEntity
  8
0
  6
Continuous
 62
     7
100
AcDbCircle
 10
-21.14999897346294
 20
380.9553170247608
 30
0.0
 40
1.04999999999999
100
AcDbArc
 50
0.0
 51
67.60731219446197
  0
ARC
  5
22E
330
4E
100
AcDbEntity
  8
0
  6
Continuous
 62
     7
100
AcDbCircle
 10
47.15000102654098
 20
382.8053170247608
 30
0.0
 40
2.899999999999912
100
AcDbArc
 50
140.3622856093328
 51
149.60934831355
  0
ARC
  5
22F
330
4E
100
AcDbEntity
  8
0
  6
Continuous
 62
     7
100
AcDbCircle
 10
-25.14999897346159
 20
382.8053170247608
 30
0.0
 40
2.900000000000024
100
AcDbArc
 50
30.39065168644904
 51
39.637714390666
  0
ARC
  5
230
330
4E
100
AcDbEntity
  8
0
  6
Continuous
 62
     7
100
AcDbCircle
 10
-25.14999897346159
 20
382.8053170247608
 30
0.0
 40
2.899999999999986
100
AcDbArc
 50
39.637714390666
 51
90.00000000000021
  0
ARC
  5
231
330
4E
100
AcDbEntity
  8
0
  6
Continuous
 62
     7
100
AcDbCircle
 10
47.15000102654098
 20
382.8053170247608
 30
0.0
 40
2.899999999999977
100
AcDbArc
 50
89.99999999999775
 51
140.3622856093328
  0
ARC
  5
232
330
4E
100
AcDbEntity
  8
0
  6
Continuous
 62
     7
100
AcDbCircle
 10
47.75000102654085
 20
382.8053170247608
 30
0.0
 40
2.900000000000148
100
AcDbArc
 50
270.0000000000019
 51
90.0000000000087
  0
CIRCLE
  5
233
330
4E
100
AcDbEntity
  8
0
  6
Continuous
 62
     7
100
AcDbCircle
 10
-10.49999897346079
 20
382.8053170247608
 30
0.0
 40
1.450000000000015
  0
ENDBLK
  5
50
330
4E
100
AcDbEntity
  8
0
100
AcDbBlockEnd
  0
BLOCK
  5
53
330
51
100
AcDbEntity
  8
0
100
AcDbBlockBegin
  2
Drfsicht1
 70
     0
 10
11.0000001659732
 20
382.805316834026
 30
0.0
  3
Drfsicht1
  1

  0
INSERT
  5
52
330
51
100
AcDbEntity
  8
0
100
AcDbBlockReference
  2
ST-4-FSI_C-RD-Select__2
 10
-32.2499989734606
 20
378.7303170247608
 30
0.0
  0
MTEXT
  5
234
330
51
100
AcDbEntity
  8
1
 62
     6
100
AcDbMText
 10
10.9091272156472
 20
373.730317024761
 30
0.0
 40
5.0
 41
0.0
 71
     2
 72
     1
  1
 
  7
CONVERTER_11
 73
     1
 44
1.32052821128451
  0
DIMENSION
  5
241
330
51
100
AcDbEntity
  8
1
100
AcDbDimension
  2
*D17
 10
-41.30322531069632
 20
386.8803170247607
 30
0.0
 11
-44.72822531069632
 21
383.1715762433349
 31
0.0
 70
    32
  1
<>
 71
     5
 42
-1.0
 53
90.0
  3
ME10_DIM_10
100
AcDbAlignedDimension
 13
-30.28980474411446
 23
378.7303170247608
 33
0.0
 14
-30.28980474411446
 24
386.8803170247608
 34
0.0
 50
90.0
100
AcDbRotatedDimension
  0
ENDBLK
  5
54
330
51
100
AcDbEntity
  8
0
100
AcDbBlockEnd
  0
BLOCK
  5
56
330
55
100
AcDbEntity
  8
0
100
AcDbBlockBegin
  2
ST-4-FSI_C-RD-Select__3
 70
     0
 10
90.4118911394332
 20
434.2864874815678
 30
0.0
  3
ST-4-FSI_C-RD-Select__3
  1

  0
LINE
  5
242
330
55
100
AcDbEntity
  8
0
  6
Continuous
 62
     7
100
AcDbLine
 10
90.41189113943322
 20
469.3364081536488
 30
0.0
 11
90.41189113943322
 21
461.4864874815673
 31
0.0
  0
LINE
  5
243
330
55
100
AcDbEntity
  8
0
  6
Continuous
 62
     7
100
AcDbLine
 10
143.2118911394335
 20
467.4864874815678
 30
0.0
 11
151.2118911394333
 21
467.4864874815678
 31
0.0
  0
LINE
  5
244
330
55
100
AcDbEntity
  8
0
  6
Continuous
 62
     7
100
AcDbLine
 10
176.9118911394338
 20
461.4864874815696
 30
0.0
 11
176.9118911394338
 21
469.3364081536489
 31
0.0
  0
LINE
  5
245
330
55
100
AcDbEntity
  8
0
  6
Continuous
 62
     7
100
AcDbLine
 10
176.911891139434
 20
434.2864874815678
 30
0.0
 11
176.9118911394332
 21
437.3864874815678
 31
0.0
  0
LINE
  5
246
330
55
100
AcDbEntity
  8
0
  6
Continuous
 62
     7
100
AcDbLine
 10
175.3099250475094
 20
468.9676365837661
 30
0.0
 11
173.6728945872347
 21
475.0771174350444
 31
0.0
  0
LINE
  5
247
330
55
100
AcDbEntity
  8
0
  6
Continuous
 62
     7
100
AcDbLine
 10
151.2118911394333
 20
474.7864874815662
 30
0.0
 11
151.2118911394333
 21
467.4864874815678
 31
0.0
  0
LINE
  5
248
330
55
100
AcDbEntity
  8
0
  6
Continuous
 62
     7
100
AcDbLine
 10
160.0708347925658
 20
434.2864874815684
 30
0.0
 11
176.911891139434
 21
434.2864874815678
 31
0.0
  0
LINE
  5
249
330
55
100
AcDbEntity
  8
0
  6
Continuous
 62
     7
100
AcDbLine
 10
131.6930753531656
 20
478.3364874815694
 30
0.0
 11
111.6430753606482
 21
478.3364874815694
 31
0.0
  0
LINE
  5
24A
330
55
100
AcDbEntity
  8
0
  6
Continuous
 62
     7
100
AcDbLine
 10
111.6430753606482
 20
476.4864874815694
 30
0.0
 11
111.6430753606482
 21
478.3364874815694
 31
0.0
  0
LINE
  5
24B
330
55
100
AcDbEntity
  8
0
  6
Continuous
 62
     7
100
AcDbLine
 10
174.9516969100877
 20
476.4864874815694
 30
0.0
 11
175.2096568077324
 21
475.5237680372455
 31
0.0
  0
LINE
  5
24C
330
55
100
AcDbEntity
  8
0
  6
Continuous
 62
     7
100
AcDbLine
 10
153.711891139434
 20
476.4864874815694
 30
0.0
 11
151.9303908587145
 21
476.4864874815694
 31
0.0
  0
LINE
  5
24D
330
55
100
AcDbEntity
  8
0
  6
Continuous
 62
     7
100
AcDbLine
 10
140.8215455144072
 20
476.4864874815662
 30
0.0
 11
142.4933914201276
 21
476.486487481566
 31
0.0
  0
LINE
  5
24E
330
55
100
AcDbEntity
  8
0
  6
Continuous
 62
     7
100
AcDbLine
 10
133.7022367644548
 20
476.4864874815694
 30
0.0
 11
131.6930753531656
 21
476.4864874815694
 31
0.0
  0
LINE
  5
24F
330
55
100
AcDbEntity
  8
0
  6
Continuous
 62
     7
100
AcDbLine
 10
131.6930753531656
 20
476.4864874815694
 30
0.0
 11
131.6930753531656
 21
478.3364874815694
 31
0.0
  0
LINE
  5
250
330
55
100
AcDbEntity
  8
0
  6
Continuous
 62
     7
100
AcDbLine
 10
176.3434656816378
 20
469.2445729620258
 30
0.0
 11
176.272987283162
 21
469.5076019259731
 31
0.0
  0
LINE
  5
251
330
55
100
AcDbEntity
  8
0
  6
Continuous
 62
     7
100
AcDbLine
 10
143.2118911394335
 20
467.4864874815678
 30
0.0
 11
143.2118911394334
 21
474.7864874815662
 31
0.0
  0
LINE
  5
252
330
55
100
AcDbEntity
  8
0
  6
Continuous
 62
     7
100
AcDbLine
 10
159.711891139433
 20
440.2864874815875
 30
0.0
 11
159.7118911394329
 21
439.1864874815681
 31
0.0
  0
LINE
  5
253
330
55
100
AcDbEntity
  8
0
  6
Continuous
 62
     7
100
AcDbLine
 10
172.911891139434
 20
438.2864874815676
 30
0.0
 11
172.911891139434
 21
446.8864874815675
 31
0.0
  0
LINE
  5
254
330
55
100
AcDbEntity
  8
0
  6
Continuous
 62
     7
100
AcDbLine
 10
158.4118911394337
 20
438.8381535314077
 30
0.0
 11
158.4118911394337
 21
438.3864874815653
 31
0.0
  0
LINE
  5
255
330
55
100
AcDbEntity
  8
0
  6
Continuous
 62
     7
100
AcDbLine
 10
172.911891139434
 20
438.2864874815676
 30
0.0
 11
176.0118911394333
 21
438.2864874815676
 31
0.0
  0
LINE
  5
256
330
55
100
AcDbEntity
  8
0
  6
Continuous
 62
     7
100
AcDbLine
 10
159.7118911394329
 20
439.1864874815681
 30
0.0
 11
158.4118911394337
 21
438.8381535314077
 31
0.0
  0
LINE
  5
257
330
55
100
AcDbEntity
  8
0
  6
Continuous
 62
     7
100
AcDbLine
 10
158.1118911394337
 20
440.286487481568
 30
0.0
 11
156.5836033124981
 21
445.9901353002787
 31
0.0
  0
LINE
  5
258
330
55
100
AcDbEntity
  8
0
  6
Continuous
 62
     7
100
AcDbLine
 10
126.3118911394337
 20
438.3864874815674
 30
0.0
 11
126.3118911394334
 21
438.8381535314077
 31
0.0
  0
LINE
  5
259
330
55
100
AcDbEntity
  8
0
  6
Continuous
 62
     7
100
AcDbLine
 10
125.0118911394333
 20
439.1864874815681
 30
0.0
 11
125.0118911394333
 21
440.286487481568
 31
0.0
  0
LINE
  5
25A
330
55
100
AcDbEntity
  8
0
  6
Continuous
 62
     7
100
AcDbLine
 10
126.3118911394334
 20
438.8381535314077
 30
0.0
 11
125.0118911394333
 21
439.1864874815681
 31
0.0
  0
LINE
  5
25B
330
55
100
AcDbEntity
  8
0
  6
Continuous
 62
     7
100
AcDbLine
 10
125.0118911394333
 20
440.286487481568
 30
0.0
 11
158.1118911394337
 21
440.286487481568
 31
0.0
  0
LINE
  5
25C
330
55
100
AcDbEntity
  8
0
  6
Continuous
 62
     7
100
AcDbLine
 10
122.2549395643256
 20
434.2864874815679
 30
0.0
 11
124.6529474863009
 21
434.2864874815679
 31
0.0
  0
LINE
  5
25D
330
55
100
AcDbEntity
  8
0
  6
Continuous
 62
     7
100
AcDbLine
 10
176.9118911394338
 20
446.8864874815675
 30
0.0
 11
172.911891139434
 21
446.8864874815675
 31
0.0
  0
LINE
  5
25E
330
55
100
AcDbEntity
  8
0
  6
Continuous
 62
     7
100
AcDbLine
 10
90.41189113943324
 20
445.4864874815694
 30
0.0
 11
90.4118911394332
 21
441.486487481568
 31
0.0
  0
LINE
  5
25F
330
55
100
AcDbEntity
  8
0
  6
Continuous
 62
     7
100
AcDbLine
 10
159.711891139433
 20
440.2864874815875
 30
0.0
 11
158.1023055400356
 21
446.2935427176505
 31
0.0
  0
LINE
  5
260
330
55
100
AcDbEntity
  8
0
  6
Continuous
 62
     7
100
AcDbLine
 10
176.272987283162
 20
469.5076019259731
 30
0.0
 11
176.9118911394338
 21
469.3364081536489
 31
0.0
  0
LINE
  5
261
330
55
100
AcDbEntity
  8
0
  6
Continuous
 62
     7
100
AcDbLine
 10
92.0138572313576
 20
468.9676365837661
 30
0.0
 11
93.65088769163236
 21
475.0771174350444
 31
0.0
  0
LINE
  5
262
330
55
100
AcDbEntity
  8
0
  6
Continuous
 62
     7
100
AcDbLine
 10
174.9516969100877
 20
476.4864874815694
 30
0.0
 11
156.611891139434
 21
476.4864874815693
 31
0.0
  0
LINE
  5
263
330
55
100
AcDbEntity
  8
0
  6
Continuous
 62
     7
100
AcDbLine
 10
134.6272896065191
 20
474.3814874815678
 30
0.0
 11
134.0993911394321
 21
474.3814874815678
 31
0.0
  0
LINE
  5
264
330
55
100
AcDbEntity
  8
0
  6
Continuous
 62
     7
100
AcDbLine
 10
134.0993911394321
 20
474.3814874815678
 30
0.0
 11
134.099391139432
 21
473.3114874815679
 31
0.0
  0
LINE
  5
265
330
55
100
AcDbEntity
  8
0
  6
Continuous
 62
     7
100
AcDbLine
 10
174.7769136198402
 20
475.0910248493544
 30
0.0
 11
174.7064352213641
 21
475.354053813304
 31
0.0
  0
LINE
  5
266
330
55
100
AcDbEntity
  8
0
  6
Continuous
 62
     7
100
AcDbLine
 10
174.7769136198402
 20
475.0910248493544
 30
0.0
 11
175.2096568077324
 21
475.5237680372455
 31
0.0
  0
LINE
  5
267
330
55
100
AcDbEntity
  8
0
  6
Continuous
 62
     7
100
AcDbLine
 10
140.424391139432
 20
474.3814874815678
 30
0.0
 11
139.8964926723466
 21
474.3814874815678
 31
0.0
  0
LINE
  5
268
330
55
100
AcDbEntity
  8
0
  6
Continuous
 62
     7
100
AcDbLine
 10
140.424391139432
 20
474.3814874815678
 30
0.0
 11
140.4243911394322
 21
473.3114874815679
 31
0.0
  0
LINE
  5
269
330
55
100
AcDbEntity
  8
0
  6
Continuous
 62
     7
100
AcDbLine
 10
140.4243911394322
 20
473.3114874815679
 30
0.0
 11
134.099391139432
 21
473.3114874815679
 31
0.0
  0
LINE
  5
26A
330
55
100
AcDbEntity
  8
0
  6
Continuous
 62
     7
100
AcDbLine
 10
91.05079499570496
 20
469.5076019259728
 30
0.0
 11
90.41189113943322
 21
469.3364081536488
 31
0.0
  0
LINE
  5
26B
330
55
100
AcDbEntity
  8
0
  6
Continuous
 62
     7
100
AcDbLine
 10
175.3099250475094
 20
468.9676365837661
 30
0.0
 11
176.3434656816378
 21
469.2445729620258
 31
0.0
  0
LINE
  5
26C
330
55
100
AcDbEntity
  8
0
  6
Continuous
 62
     7
100
AcDbLine
 10
90.9803165972292
 20
469.2445729620259
 30
0.0
 11
92.0138572313576
 21
468.9676365837661
 31
0.0
  0
LINE
  5
26D
330
55
100
AcDbEntity
  8
0
  6
Continuous
 62
     7
100
AcDbLine
 10
91.05079499570496
 20
469.5076019259728
 30
0.0
 11
90.9803165972292
 21
469.2445729620259
 31
0.0
  0
LINE
  5
26E
330
55
100
AcDbEntity
  8
0
  6
Continuous
 62
     7
100
AcDbLine
 10
176.9118911394338
 20
446.8864874815675
 30
0.0
 11
176.9118911394338
 21
448.4864874815667
 31
0.0
  0
LINE
  5
26F
330
55
100
AcDbEntity
  8
0
  6
Continuous
 62
     7
100
AcDbLine
 10
92.54686865902674
 20
475.0910248493545
 30
0.0
 11
92.1141254711346
 21
475.5237680372455
 31
0.0
  0
LINE
  5
270
330
55
100
AcDbEntity
  8
0
  6
Continuous
 62
     7
100
AcDbLine
 10
92.37208536877938
 20
476.4864874815694
 30
0.0
 11
111.6430753606482
 21
476.4864874815694
 31
0.0
  0
LINE
  5
271
330
55
100
AcDbEntity
  8
0
  6
Continuous
 62
     7
100
AcDbLine
 10
156.611891139434
 20
476.4864874815693
 30
0.0
 11
153.711891139434
 21
476.4864874815694
 31
0.0
  0
LINE
  5
272
330
55
100
AcDbEntity
  8
0
  6
Continuous
 62
     7
100
AcDbLine
 10
174.7064352213641
 20
475.354053813304
 30
0.0
 11
173.6728945872347
 21
475.0771174350444
 31
0.0
  0
LINE
  5
273
330
55
100
AcDbEntity
  8
0
  6
Continuous
 62
     7
100
AcDbLine
 10
151.9303908587145
 20
476.4864874815694
 30
0.0
 11
151.2118911394333
 21
474.7864874815662
 31
0.0
  0
LINE
  5
274
330
55
100
AcDbEntity
  8
0
  6
Continuous
 62
     7
100
AcDbLine
 10
143.2118911394334
 20
474.7864874815662
 30
0.0
 11
142.4933914201276
 21
476.486487481566
 31
0.0
  0
LINE
  5
275
330
55
100
AcDbEntity
  8
0
  6
Continuous
 62
     7
100
AcDbLine
 10
140.8215455144072
 20
476.4864874815662
 30
0.0
 11
139.8964926723466
 21
474.3814874815678
 31
0.0
  0
LINE
  5
276
330
55
100
AcDbEntity
  8
0
  6
Continuous
 62
     7
100
AcDbLine
 10
134.6272896065191
 20
474.3814874815678
 30
0.0
 11
133.7022367644548
 21
476.4864874815694
 31
0.0
  0
LINE
  5
277
330
55
100
AcDbEntity
  8
0
  6
Continuous
 62
     7
100
AcDbLine
 10
92.61734705750283
 20
475.354053813304
 30
0.0
 11
92.54686865902674
 21
475.0910248493545
 31
0.0
  0
LINE
  5
278
330
55
100
AcDbEntity
  8
0
  6
Continuous
 62
     7
100
AcDbLine
 10
92.37208536877938
 20
476.4864874815694
 30
0.0
 11
92.1141254711346
 21
475.5237680372455
 31
0.0
  0
LINE
  5
279
330
55
100
AcDbEntity
  8
0
  6
Continuous
 62
     7
100
AcDbLine
 10
93.65088769163236
 20
475.0771174350444
 30
0.0
 11
92.61734705750283
 21
475.354053813304
 31
0.0
  0
LINE
  5
27A
330
55
100
AcDbEntity
  8
0
  6
Continuous
 62
     7
100
AcDbLine
 10
90.4118911394332
 20
441.486487481568
 30
0.0
 11
122.2549395643256
 21
434.2864874815679
 31
0.0
  0
ARC
  5
27B
330
55
100
AcDbEntity
  8
0
  6
Continuous
 62
     7
100
AcDbCircle
 10
167.8058638188098
 20
439.8018592698656
 30
0.0
 40
9.499999999998998
100
AcDbArc
 50
188.5681975617568
 51
215.4903233115761
  0
ARC
  5
27C
330
55
100
AcDbEntity
  8
0
  6
Continuous
 62
     7
100
AcDbCircle
 10
176.0118911394334
 20
437.3864874815678
 30
0.0
 40
0.8999999999998067
100
AcDbArc
 50
0.0
 51
90.00000000000723
  0
ARC
  5
27D
330
55
100
AcDbEntity
  8
0
  6
Continuous
 62
     7
100
AcDbCircle
 10
116.9179184600573
 20
439.8018592698656
 30
0.0
 40
9.499999999999
100
AcDbArc
 50
324.5096766884203
 51
351.4318024382559
  0
ARC
  5
27E
330
55
100
AcDbEntity
  8
0
  6
Continuous
 62
     7
100
AcDbCircle
 10
155.161891139434
 20
476.4864874815693
 30
0.0
 40
1.450000000000045
100
AcDbArc
 50
90.0
 51
179.9999999999978
  0
ARC
  5
27F
330
55
100
AcDbEntity
  8
0
  6
Continuous
 62
     7
100
AcDbCircle
 10
155.161891139434
 20
476.4864874815693
 30
0.0
 40
1.449999999999989
100
AcDbArc
 50
0.0
 51
90.0
  0
ARC
  5
280
330
55
100
AcDbEntity
  8
0
  6
Continuous
 62
     7
100
AcDbCircle
 10
157.3295648790045
 20
446.086487481568
 30
0.0
 40
0.7999999999999723
100
AcDbArc
 50
15.00000000003715
 51
106.6832843343747
  0
ARC
  5
281
330
55
100
AcDbEntity
  8
0
  6
Continuous
 62
     7
100
AcDbCircle
 10
157.2597513909005
 20
446.1713086318508
 30
0.0
 40
0.7000000000002269
100
AcDbArc
 50
103.2004841064748
 51
195.0000000000251
  0
ARC
  5
282
330
55
100
AcDbEntity
  8
0
  6
Continuous
 62
     7
100
AcDbCircle
 10
190.4303969740289
 20
454.9864874815681
 30
0.0
 40
15.00000000000005
100
AcDbArc
 50
154.3207113805367
 51
205.6792886194627
  0
ARC
  5
283
330
55
100
AcDbEntity
  8
0
  6
Continuous
 62
     7
100
AcDbCircle
 10
77.72331359898699
 20
453.4864874815685
 30
0.0
 40
14.99999999999675
100
AcDbArc
 50
327.7690473644942
 51
32.23095263550495
  0
ENDBLK
  5
57
330
55
100
AcDbEntity
  8
0
100
AcDbBlockEnd
  0
BLOCK
  5
5A
330
58
100
AcDbEntity
  8
0
100
AcDbBlockBegin
  2
Rckans1
 70
     0
 10
133.661892
 20
456.311488
 30
0.0
  3
Rckans1
  1

  0
INSERT
  5
59
330
58
100
AcDbEntity
  8
0
100
AcDbBlockReference
  2
ST-4-FSI_C-RD-Select__3
 10
90.4118911394332
 20
434.2864874815678
 30
0.0
  0
MTEXT
  5
284
330
58
100
AcDbEntity
  8
1
 62
     6
100
AcDbMText
 10
133.7527645405473
 20
419.0749998452901
 30
0.0
 40
5.0
 41
0.0
 71
     2
 72
     1
  1
 
  7
CONVERTER_11
 73
     1
 44
1.32052821128451
  0
ENDBLK
  5
5B
330
58
100
AcDbEntity
  8
0
100
AcDbBlockEnd
  0
BLOCK
  5
5D
330
5C
100
AcDbEntity
  8
0
100
AcDbBlockBegin
  2
ST-4-FSI_C-RD-Select__4
 70
     0
 10
67.25594580926213
 20
434.286487481568
 30
0.0
  3
ST-4-FSI_C-RD-Select__4
  1

  0
LINE
  5
285
330
5C
100
AcDbEntity
  8
0
  6
Continuous
 62
     7
100
AcDbLine
 10
70.63094580926213
 20
478.3364874815696
 30
0.0
 11
67.25594580926213
 21
478.3364874815696
 31
0.0
  0
LINE
  5
286
330
5C
100
AcDbEntity
  8
0
  6
Continuous
 62
     7
100
AcDbLine
 10
67.25594580926213
 20
476.4864874815696
 30
0.0
 11
67.25594580926213
 21
478.3364874815696
 31
0.0
  0
LINE
  5
287
330
5C
100
AcDbEntity
  8
0
  6
Continuous
 62
     7
100
AcDbLine
 10
70.63094580926213
 20
478.3364874815696
 30
0.0
 11
70.63094580926213
 21
477.7563299914897
 31
0.0
  0
LINE
  5
288
330
5C
100
AcDbEntity
  8
0
  6
Continuous
 62
     7
100
AcDbLine
 10
67.25594580926213
 20
476.4864874815696
 30
0.0
 11
67.25594580926213
 21
475.5237680372458
 31
0.0
  0
LINE
  5
289
330
5C
100
AcDbEntity
  8
0
  6
Continuous
 62
     7
100
AcDbLine
 10
67.25594580926213
 20
475.0910248493547
 30
0.0
 11
67.25594580926213
 21
475.5237680372458
 31
0.0
  0
LINE
  5
28A
330
5C
100
AcDbEntity
  8
0
  6
Continuous
 62
     7
100
AcDbLine
 10
67.25594580926213
 20
469.5076019259734
 30
0.0
 11
67.25594580926213
 21
475.0771174350447
 31
0.0
  0
LINE
  5
28B
330
5C
100
AcDbEntity
  8
0
  6
Continuous
 62
     7
100
AcDbLine
 10
67.25594580926213
 20
475.0910248493547
 30
0.0
 11
67.25594580926213
 21
475.0771174350447
 31
0.0
  0
LINE
  5
28C
330
5C
100
AcDbEntity
  8
0
  6
Continuous
 62
     7
100
AcDbLine
 10
67.25594580926213
 20
469.5076019259734
 30
0.0
 11
67.25594580926213
 21
469.3364081536491
 31
0.0
  0
LINE
  5
28D
330
5C
100
AcDbEntity
  8
0
  6
Continuous
 62
     7
100
AcDbLine
 10
67.25594580926213
 20
461.4864874815698
 30
0.0
 11
67.25594580926213
 21
469.3364081536491
 31
0.0
  0
LINE
  5
28E
330
5C
100
AcDbEntity
  8
0
  6
Continuous
 62
     7
100
AcDbLine
 10
72.78094580926214
 20
476.4864874815696
 30
0.0
 11
69.88094580926213
 21
476.4864874815696
 31
0.0
  0
LINE
  5
28F
330
5C
100
AcDbEntity
  8
0
  6
Continuous
 62
     7
100
AcDbLine
 10
67.25594580926213
 20
475.0910248493547
 30
0.0
 11
75.40594580926214
 21
475.0910248493547
 31
0.0
  0
LINE
  5
290
330
5C
100
AcDbEntity
  8
0
  6
Continuous
 62
     7
100
AcDbLine
 10
75.40594580926214
 20
478.3364874815696
 30
0.0
 11
75.40594580926214
 21
476.4864874815696
 31
0.0
  0
LINE
  5
291
330
5C
100
AcDbEntity
  8
0
  6
Continuous
 62
     7
100
AcDbLine
 10
72.03094580926214
 20
477.7563299914897
 30
0.0
 11
72.03094580926214
 21
478.3364874815696
 31
0.0
  0
LINE
  5
292
330
5C
100
AcDbEntity
  8
0
  6
Continuous
 62
     7
100
AcDbLine
 10
75.40594580926214
 20
476.4864874815696
 30
0.0
 11
72.78094580926214
 21
476.4864874815696
 31
0.0
  0
LINE
  5
293
330
5C
100
AcDbEntity
  8
0
  6
Continuous
 62
     7
100
AcDbLine
 10
75.40594580926214
 20
478.3364874815696
 30
0.0
 11
72.03094580926214
 21
478.3364874815696
 31
0.0
  0
LINE
  5
294
330
5C
100
AcDbEntity
  8
0
  6
Continuous
 62
     7
100
AcDbLine
 10
75.40594580926214
 20
475.5237680372458
 30
0.0
 11
75.40594580926214
 21
476.4864874815696
 31
0.0
  0
LINE
  5
295
330
5C
100
AcDbEntity
  8
0
  6
Continuous
 62
     7
100
AcDbLine
 10
75.40594580926214
 20
475.5237680372458
 30
0.0
 11
75.40594580926214
 21
475.0910248493547
 31
0.0
  0
LINE
  5
296
330
5C
100
AcDbEntity
  8
0
  6
Continuous
 62
     7
100
AcDbLine
 10
75.40594580926214
 20
475.0771174350447
 30
0.0
 11
75.40594580926214
 21
469.5076019259734
 31
0.0
  0
LINE
  5
297
330
5C
100
AcDbEntity
  8
0
  6
Continuous
 62
     7
100
AcDbLine
 10
75.40594580926214
 20
475.0771174350447
 30
0.0
 11
75.40594580926214
 21
475.0910248493547
 31
0.0
  0
LINE
  5
298
330
5C
100
AcDbEntity
  8
0
  6
Continuous
 62
     7
100
AcDbLine
 10
75.40594580926214
 20
469.3364081536491
 30
0.0
 11
75.40594580926214
 21
469.5076019259734
 31
0.0
  0
LINE
  5
299
330
5C
100
AcDbEntity
  8
0
  6
Continuous
 62
     7
100
AcDbLine
 10
75.40594580926214
 20
469.3364081536491
 30
0.0
 11
75.40594580926214
 21
461.4864874815698
 31
0.0
  0
LINE
  5
29A
330
5C
100
AcDbEntity
  8
0
  6
Continuous
 62
     7
100
AcDbLine
 10
67.25594580926213
 20
434.286487481568
 30
0.0
 11
67.25594580926213
 21
437.3864874815681
 31
0.0
  0
LINE
  5
29B
330
5C
100
AcDbEntity
  8
0
  6
Continuous
 62
     7
100
AcDbLine
 10
67.25594580926213
 20
438.2864874815679
 30
0.0
 11
67.25594580926213
 21
446.8864874815678
 31
0.0
  0
LINE
  5
29C
330
5C
100
AcDbEntity
  8
0
  6
Continuous
 62
     7
100
AcDbLine
 10
67.25594580926213
 20
448.486487481567
 30
0.0
 11
67.25594580926213
 21
461.4864874815698
 31
0.0
  0
LINE
  5
29D
330
5C
100
AcDbEntity
  8
0
  6
Continuous
 62
     7
100
AcDbLine
 10
67.25594580926213
 20
438.2864874815679
 30
0.0
 11
68.40594580926214
 21
438.2864874815679
 31
0.0
  0
LINE
  5
29E
330
5C
100
AcDbEntity
  8
0
  6
Continuous
 62
     7
100
AcDbLine
 10
67.25594580926213
 20
469.3364081536491
 30
0.0
 11
75.40594580926214
 21
469.3364081536491
 31
0.0
  0
LINE
  5
29F
330
5C
100
AcDbEntity
  8
0
  6
Continuous
 62
     7
100
AcDbLine
 10
67.25594580926213
 20
448.486487481567
 30
0.0
 11
75.40594580926214
 21
448.486487481567
 31
0.0
  0
LINE
  5
2A0
330
5C
100
AcDbEntity
  8
0
  6
Continuous
 62
     7
100
AcDbLine
 10
67.25594580926213
 20
446.8864874815678
 30
0.0
 11
67.25594580926213
 21
448.486487481567
 31
0.0
  0
LINE
  5
2A1
330
5C
100
AcDbEntity
  8
0
  6
Continuous
 62
     7
100
AcDbLine
 10
75.40594580926214
 20
438.2864874815679
 30
0.0
 11
75.40594580926214
 21
446.8864874815678
 31
0.0
  0
LINE
  5
2A2
330
5C
100
AcDbEntity
  8
0
  6
Continuous
 62
     7
100
AcDbLine
 10
75.40594580926214
 20
448.486487481567
 30
0.0
 11
75.40594580926214
 21
446.8864874815678
 31
0.0
  0
LINE
  5
2A3
330
5C
100
AcDbEntity
  8
0
  6
Continuous
 62
     7
100
AcDbLine
 10
75.40594580926214
 20
448.486487481567
 30
0.0
 11
75.40594580926214
 21
461.4864874815698
 31
0.0
  0
LINE
  5
2A4
330
5C
100
AcDbEntity
  8
0
  6
Continuous
 62
     7
100
AcDbLine
 10
75.40594580926214
 20
437.3864874815681
 30
0.0
 11
75.40594580926214
 21
434.286487481568
 31
0.0
  0
LINE
  5
2A5
330
5C
100
AcDbEntity
  8
0
  6
Continuous
 62
     7
100
AcDbLine
 10
69.88094580926213
 20
476.4864874815696
 30
0.0
 11
67.25594580926213
 21
476.4864874815696
 31
0.0
  0
LINE
  5
2A6
330
5C
100
AcDbEntity
  8
0
  6
Continuous
 62
     7
100
AcDbLine
 10
67.25594580926213
 20
469.5076019259734
 30
0.0
 11
75.40594580926214
 21
469.5076019259734
 31
0.0
  0
LINE
  5
2A7
330
5C
100
AcDbEntity
  8
0
  6
Continuous
 62
     7
100
AcDbLine
 10
75.40594580926214
 20
475.0771174350447
 30
0.0
 11
67.25594580926213
 21
475.0771174350447
 31
0.0
  0
LINE
  5
2A8
330
5C
100
AcDbEntity
  8
0
  6
Continuous
 62
     7
100
AcDbLine
 10
75.40594580926214
 20
475.5237680372458
 30
0.0
 11
67.25594580926213
 21
475.5237680372458
 31
0.0
  0
LINE
  5
2A9
330
5C
100
AcDbEntity
  8
0
  6
Continuous
 62
     7
100
AcDbLine
 10
67.25594580926213
 20
438.2864874815679
 30
0.0
 11
67.25594580926213
 21
437.3864874815681
 31
0.0
  0
LINE
  5
2AA
330
5C
100
AcDbEntity
  8
0
  6
Continuous
 62
     7
100
AcDbLine
 10
67.25594580926213
 20
434.286487481568
 30
0.0
 11
75.40594580926214
 21
434.286487481568
 31
0.0
  0
LINE
  5
2AB
330
5C
100
AcDbEntity
  8
0
  6
Continuous
 62
     7
100
AcDbLine
 10
68.40594580926214
 20
438.2864874815679
 30
0.0
 11
75.40594580926214
 21
438.2864874815679
 31
0.0
  0
LINE
  5
2AC
330
5C
100
AcDbEntity
  8
0
  6
Continuous
 62
     7
100
AcDbLine
 10
75.40594580926214
 20
438.2864874815679
 30
0.0
 11
75.40594580926214
 21
437.3864874815681
 31
0.0
  0
LINE
  5
2AD
330
5C
100
AcDbEntity
  8
0
  6
Continuous
 62
     7
100
AcDbLine
 10
67.25594580926213
 20
446.8864874815678
 30
0.0
 11
75.40594580926214
 21
446.8864874815678
 31
0.0
  0
LINE
  5
2AE
330
5C
100
AcDbEntity
  8
0
  6
Continuous
 62
     2
100
AcDbLine
 10
67.25594580926213
 20
437.3864874815681
 30
0.0
 11
75.40594580926214
 21
437.3864874815681
 31
0.0
  0
LINE
  5
2AF
330
5C
100
AcDbEntity
  8
0
  6
Continuous
 62
     7
100
AcDbLine
 10
67.25594580926213
 20
461.4864874815698
 30
0.0
 11
75.40594580926214
 21
461.4864874815698
 31
0.0
  0
ARC
  5
2B0
330
5C
100
AcDbEntity
  8
0
  6
Continuous
 62
     7
100
AcDbCircle
 10
71.33094580926212
 20
476.4864874815696
 30
0.0
 40
1.450000000000102
100
AcDbArc
 50
90.0
 51
180.0
  0
ARC
  5
2B1
330
5C
100
AcDbEntity
  8
0
  6
Continuous
 62
     7
100
AcDbCircle
 10
71.33094580926212
 20
476.4864874815696
 30
0.0
 40
1.450000000000017
100
AcDbArc
 50
0.0
 51
90.0
  0
ENDBLK
  5
5E
330
5C
100
AcDbEntity
  8
0
100
AcDbBlockEnd
  0
BLOCK
  5
61
330
5F
100
AcDbEntity
  8
0
100
AcDbBlockBegin
  2
SA_Links1
 70
     0
 10
71.33094599999691
 20
456.3114880000003
 30
0.0
  3
SA_Links1
  1

  0
INSERT
  5
60
330
5F
100
AcDbEntity
  8
0
100
AcDbBlockReference
  2
ST-4-FSI_C-RD-Select__4
 10
67.25594580926213
 20
434.286487481568
 30
0.0
  0
MTEXT
  5
2B2
330
5F
100
AcDbEntity
  8
1
 62
     6
100
AcDbMText
 10
71.33094579510862
 20
419.0749998452901
 30
0.0
 40
5.0
 41
0.0
 71
     2
 72
     1
  1
 
  7
CONVERTER_11
 73
     1
 44
1.32052821128451
  0
ENDBLK
  5
62
330
5F
100
AcDbEntity
  8
0
100
AcDbBlockEnd
  0
BLOCK
  5
64
330
63
100
AcDbEntity
  8
0
100
AcDbBlockBegin
  2
ST-4-FSI_C-RD-Select__5
 70
     0
 10
-76.58769180926183
 20
434.2864874815684
 30
0.0
  3
ST-4-FSI_C-RD-Select__5
  1

  0
LINE
  5
2B3
330
63
100
AcDbEntity
  8
0
  6
Continuous
 62
     7
100
AcDbLine
 10
-68.43769180926182
 20
476.4864874815694
 30
0.0
 11
-68.43769180926182
 21
478.3364874815694
 31
0.0
  0
LINE
  5
2B4
330
63
100
AcDbEntity
  8
0
  6
Continuous
 62
     7
100
AcDbLine
 10
-71.81269180926182
 20
478.3364874815694
 30
0.0
 11
-68.43769180926182
 21
478.3364874815694
 31
0.0
  0
LINE
  5
2B5
330
63
100
AcDbEntity
  8
0
  6
Continuous
 62
     7
100
AcDbLine
 10
-71.81269180926182
 20
476.4864874815694
 30
0.0
 11
-71.81269180926182
 21
478.3364874815694
 31
0.0
  0
LINE
  5
2B6
330
63
100
AcDbEntity
  8
0
  6
Continuous
 62
     7
100
AcDbLine
 10
-71.81269180926182
 20
476.4864874815694
 30
0.0
 11
-73.21269180926183
 21
476.4864874815694
 31
0.0
  0
LINE
  5
2B7
330
63
100
AcDbEntity
  8
0
  6
Continuous
 62
     7
100
AcDbLine
 10
-68.43769180926182
 20
476.4864874815694
 30
0.0
 11
-71.81269180926182
 21
476.4864874815694
 31
0.0
  0
LINE
  5
2B8
330
63
100
AcDbEntity
  8
0
  6
Continuous
 62
     7
100
AcDbLine
 10
-73.21269180926183
 20
476.4864874815694
 30
0.0
 11
-73.21269180926183
 21
478.3364874815694
 31
0.0
  0
LINE
  5
2B9
330
63
100
AcDbEntity
  8
0
  6
Continuous
 62
     7
100
AcDbLine
 10
-76.58769180926183
 20
434.2864874815684
 30
0.0
 11
-76.58769180926183
 21
441.486487481568
 31
0.0
  0
LINE
  5
2BA
330
63
100
AcDbEntity
  8
0
  6
Continuous
 62
     7
100
AcDbLine
 10
-68.43769180926182
 20
475.0910248493544
 30
0.0
 11
-76.58769180926183
 21
475.0910248493544
 31
0.0
  0
LINE
  5
2BB
330
63
100
AcDbEntity
  8
0
  6
Continuous
 62
     7
100
AcDbLine
 10
-76.58769180926183
 20
469.5076019259731
 30
0.0
 11
-76.58769180926183
 21
475.0771174350444
 31
0.0
  0
LINE
  5
2BC
330
63
100
AcDbEntity
  8
0
  6
Continuous
 62
     7
100
AcDbLine
 10
-76.58769180926183
 20
475.0771174350444
 30
0.0
 11
-76.58769180926183
 21
475.0910248493544
 31
0.0
  0
LINE
  5
2BD
330
63
100
AcDbEntity
  8
0
  6
Continuous
 62
     7
100
AcDbLine
 10
-76.58769180926183
 20
475.0910248493544
 30
0.0
 11
-76.58769180926183
 21
475.5237680372455
 31
0.0
  0
LINE
  5
2BE
330
63
100
AcDbEntity
  8
0
  6
Continuous
 62
     7
100
AcDbLine
 10
-76.58769180926183
 20
475.5237680372455
 30
0.0
 11
-76.58769180926183
 21
476.4864874815694
 31
0.0
  0
LINE
  5
2BF
330
63
100
AcDbEntity
  8
0
  6
Continuous
 62
     7
100
AcDbLine
 10
-76.58769180926183
 20
469.5076019259731
 30
0.0
 11
-76.58769180926183
 21
469.3364081536488
 31
0.0
  0
LINE
  5
2C0
330
63
100
AcDbEntity
  8
0
  6
Continuous
 62
     7
100
AcDbLine
 10
-76.58769180926183
 20
461.4864874815673
 30
0.0
 11
-76.58769180926183
 21
445.4864874815694
 31
0.0
  0
LINE
  5
2C1
330
63
100
AcDbEntity
  8
0
  6
Continuous
 62
     7
100
AcDbLine
 10
-76.58769180926183
 20
469.3364081536488
 30
0.0
 11
-76.58769180926183
 21
461.4864874815673
 31
0.0
  0
LINE
  5
2C2
330
63
100
AcDbEntity
  8
0
  6
Continuous
 62
     7
100
AcDbLine
 10
-76.58769180926183
 20
445.4864874815694
 30
0.0
 11
-76.58769180926183
 21
441.486487481568
 31
0.0
  0
LINE
  5
2C3
330
63
100
AcDbEntity
  8
0
  6
Continuous
 62
     7
100
AcDbLine
 10
-68.43769180926182
 20
441.486487481568
 30
0.0
 11
-76.58769180926183
 21
441.486487481568
 31
0.0
  0
LINE
  5
2C4
330
63
100
AcDbEntity
  8
0
  6
Continuous
 62
     7
100
AcDbLine
 10
-68.43769180926182
 20
445.4864874815694
 30
0.0
 11
-76.58769180926183
 21
445.4864874815694
 31
0.0
  0
LINE
  5
2C5
330
63
100
AcDbEntity
  8
0
  6
Continuous
 62
     7
100
AcDbLine
 10
-68.43769180926182
 20
434.2864874815684
 30
0.0
 11
-76.58769180926183
 21
434.2864874815684
 31
0.0
  0
LINE
  5
2C6
330
63
100
AcDbEntity
  8
0
  6
Continuous
 62
     7
100
AcDbLine
 10
-68.43769180926182
 20
434.2864874815684
 30
0.0
 11
-68.43769180926182
 21
441.486487481568
 31
0.0
  0
LINE
  5
2C7
330
63
100
AcDbEntity
  8
0
  6
Continuous
 62
     7
100
AcDbLine
 10
-68.43769180926182
 20
461.4864874815673
 30
0.0
 11
-76.58769180926183
 21
461.4864874815673
 31
0.0
  0
LINE
  5
2C8
330
63
100
AcDbEntity
  8
0
  6
Continuous
 62
     7
100
AcDbLine
 10
-76.58769180926183
 20
478.3364874815694
 30
0.0
 11
-76.58769180926183
 21
476.4864874815694
 31
0.0
  0
LINE
  5
2C9
330
63
100
AcDbEntity
  8
0
  6
Continuous
 62
     7
100
AcDbLine
 10
-76.58769180926183
 20
478.3364874815694
 30
0.0
 11
-73.21269180926183
 21
478.3364874815694
 31
0.0
  0
LINE
  5
2CA
330
63
100
AcDbEntity
  8
0
  6
Continuous
 62
     7
100
AcDbLine
 10
-73.21269180926183
 20
476.4864874815694
 30
0.0
 11
-76.58769180926183
 21
476.4864874815694
 31
0.0
  0
LINE
  5
2CB
330
63
100
AcDbEntity
  8
0
  6
Continuous
 62
     7
100
AcDbLine
 10
-68.43769180926182
 20
469.5076019259731
 30
0.0
 11
-76.58769180926183
 21
469.5076019259731
 31
0.0
  0
LINE
  5
2CC
330
63
100
AcDbEntity
  8
0
  6
Continuous
 62
     7
100
AcDbLine
 10
-68.43769180926182
 20
469.3364081536488
 30
0.0
 11
-76.58769180926183
 21
469.3364081536488
 31
0.0
  0
LINE
  5
2CD
330
63
100
AcDbEntity
  8
0
  6
Continuous
 62
     7
100
AcDbLine
 10
-68.43769180926182
 20
461.4864874815673
 30
0.0
 11
-68.43769180926182
 21
445.4864874815694
 31
0.0
  0
LINE
  5
2CE
330
63
100
AcDbEntity
  8
0
  6
Continuous
 62
     7
100
AcDbLine
 10
-68.43769180926182
 20
441.486487481568
 30
0.0
 11
-68.43769180926182
 21
445.4864874815694
 31
0.0
  0
LINE
  5
2CF
330
63
100
AcDbEntity
  8
0
  6
Continuous
 62
     7
100
AcDbLine
 10
-68.43769180926182
 20
475.0910248493544
 30
0.0
 11
-68.43769180926182
 21
475.0771174350444
 31
0.0
  0
LINE
  5
2D0
330
63
100
AcDbEntity
  8
0
  6
Continuous
 62
     7
100
AcDbLine
 10
-68.43769180926182
 20
475.0771174350444
 30
0.0
 11
-68.43769180926182
 21
469.5076019259731
 31
0.0
  0
LINE
  5
2D1
330
63
100
AcDbEntity
  8
0
  6
Continuous
 62
     7
100
AcDbLine
 10
-68.43769180926182
 20
475.0910248493544
 30
0.0
 11
-68.43769180926182
 21
475.5237680372455
 31
0.0
  0
LINE
  5
2D2
330
63
100
AcDbEntity
  8
0
  6
Continuous
 62
     7
100
AcDbLine
 10
-68.43769180926182
 20
476.4864874815694
 30
0.0
 11
-68.43769180926182
 21
475.5237680372455
 31
0.0
  0
LINE
  5
2D3
330
63
100
AcDbEntity
  8
0
  6
Continuous
 62
     7
100
AcDbLine
 10
-68.43769180926182
 20
461.4864874815673
 30
0.0
 11
-68.43769180926182
 21
469.3364081536488
 31
0.0
  0
LINE
  5
2D4
330
63
100
AcDbEntity
  8
0
  6
Continuous
 62
     7
100
AcDbLine
 10
-68.43769180926182
 20
469.3364081536488
 30
0.0
 11
-68.43769180926182
 21
469.5076019259731
 31
0.0
  0
LINE
  5
2D5
330
63
100
AcDbEntity
  8
0
  6
Continuous
 62
     7
100
AcDbLine
 10
-76.58769180926183
 20
475.0771174350444
 30
0.0
 11
-68.43769180926182
 21
475.0771174350444
 31
0.0
  0
LINE
  5
2D6
330
63
100
AcDbEntity
  8
0
  6
Continuous
 62
     7
100
AcDbLine
 10
-68.43769180926182
 20
475.5237680372455
 30
0.0
 11
-76.58769180926183
 21
475.5237680372455
 31
0.0
  0
ARC
  5
2D7
330
63
100
AcDbEntity
  8
0
  6
Continuous
 62
     7
100
AcDbCircle
 10
-72.51269180926182
 20
476.4864874815694
 30
0.0
 40
1.450000000000085
100
AcDbArc
 50
61.13427258499455
 51
90.0
  0
ARC
  5
2D8
330
63
100
AcDbEntity
  8
0
  6
Continuous
 62
     7
100
AcDbCircle
 10
-72.51269180926182
 20
476.4864874815694
 30
0.0
 40
1.449999999999989
100
AcDbArc
 50
90.0
 51
118.8657274150054
  0
ENDBLK
  5
65
330
63
100
AcDbEntity
  8
0
100
AcDbBlockEnd
  0
BLOCK
  5
68
330
66
100
AcDbEntity
  8
0
100
AcDbBlockBegin
  2
SA_Rechts1
 70
     0
 10
-72.51269199999662
 20
456.311488
 30
0.0
  3
SA_Rechts1
  1

  0
INSERT
  5
67
330
66
100
AcDbEntity
  8
0
100
AcDbBlockReference
  2
ST-4-FSI_C-RD-Select__5
 10
-76.58769180926183
 20
434.2864874815684
 30
0.0
  0
MTEXT
  5
2D9
330
66
100
AcDbEntity
  8
1
 62
     6
100
AcDbMText
 10
-72.51269179510894
 20
419.0749998452901
 30
0.0
 40
5.0
 41
0.0
 71
     2
 72
     1
  1
 
  7
CONVERTER_11
 73
     1
 44
1.32052821128451
  0
ENDBLK
  5
69
330
66
100
AcDbEntity
  8
0
100
AcDbBlockEnd
  0
BLOCK
  5
6B
330
6A
100
AcDbEntity
  8
0
100
AcDbBlockBegin
  2
ST-4-FSI_C-RD-Select__6
 70
     0
 10
-32.24999913943498
 20
434.286487481568
 30
0.0
  3
ST-4-FSI_C-RD-Select__6
  1

  0
LINE
  5
2DA
330
6A
100
AcDbEntity
  8
0
  6
Continuous
 62
     7
100
AcDbLine
 10
52.54776652886442
 20
475.5237680372458
 30
0.0
 11
52.28980663121961
 21
476.4864874815697
 31
0.0
  0
LINE
  5
2DB
330
6A
100
AcDbEntity
  8
0
  6
Continuous
 62
     7
100
AcDbLine
 10
33.01881663935082
 20
476.4864874815696
 30
0.0
 11
52.28980663121961
 21
476.4864874815697
 31
0.0
  0
LINE
  5
2DC
330
6A
100
AcDbEntity
  8
0
  6
Continuous
 62
     7
100
AcDbLine
 10
52.54776652886442
 20
475.5237680372458
 30
0.0
 11
52.11502334097231
 21
475.0910248493548
 31
0.0
  0
LINE
  5
2DD
330
6A
100
AcDbEntity
  8
0
  6
Continuous
 62
     7
100
AcDbLine
 10
52.11502334097231
 20
475.0910248493548
 30
0.0
 11
52.04454494249622
 21
475.3540538133043
 31
0.0
  0
LINE
  5
2DE
330
6A
100
AcDbEntity
  8
0
  6
Continuous
 62
     7
100
AcDbLine
 10
53.68157540276981
 20
469.2445729620262
 30
0.0
 11
53.61109700429402
 21
469.5076019259731
 31
0.0
  0
LINE
  5
2DF
330
6A
100
AcDbEntity
  8
0
  6
Continuous
 62
     7
100
AcDbLine
 10
54.25000086056581
 20
461.4864874815676
 30
0.0
 11
54.25000086056581
 21
469.336408153649
 31
0.0
  0
LINE
  5
2E0
330
6A
100
AcDbEntity
  8
0
  6
Continuous
 62
     7
100
AcDbLine
 10
-11.92171131249909
 20
445.9901353002789
 30
0.0
 11
-13.44999913943472
 21
440.2864874815683
 31
0.0
  0
LINE
  5
2E1
330
6A
100
AcDbEntity
  8
0
  6
Continuous
 62
     7
100
AcDbLine
 10
-13.44041354003663
 20
446.2935427176508
 30
0.0
 11
-15.04999913943397
 21
440.2864874815878
 31
0.0
  0
LINE
  5
2E2
330
6A
100
AcDbEntity
  8
0
  6
Continuous
 62
     7
100
AcDbLine
 10
54.25000086056581
 20
469.336408153649
 30
0.0
 11
53.61109700429402
 21
469.5076019259731
 31
0.0
  0
LINE
  5
2E3
330
6A
100
AcDbEntity
  8
0
  6
Continuous
 62
     7
100
AcDbLine
 10
52.64803476864141
 20
468.9676365837664
 30
0.0
 11
53.68157540276981
 21
469.2445729620262
 31
0.0
  0
LINE
  5
2E4
330
6A
100
AcDbEntity
  8
0
  6
Continuous
 62
     7
100
AcDbLine
 10
51.01100430836662
 20
475.0771174350447
 30
0.0
 11
52.64803476864141
 21
468.9676365837664
 31
0.0
  0
LINE
  5
2E5
330
6A
100
AcDbEntity
  8
0
  6
Continuous
 62
     7
100
AcDbLine
 10
52.04454494249622
 20
475.3540538133043
 30
0.0
 11
51.01100430836662
 21
475.0771174350447
 31
0.0
  0
LINE
  5
2E6
330
6A
100
AcDbEntity
  8
0
  6
Continuous
 62
     7
100
AcDbLine
 10
12.96881664683342
 20
478.3364874815696
 30
0.0
 11
33.0188166393509
 21
478.3364874815696
 31
0.0
  0
LINE
  5
2E7
330
6A
100
AcDbEntity
  8
0
  6
Continuous
 62
     7
100
AcDbLine
 10
4.76539932765242
 20
474.3814874815681
 30
0.0
 11
4.23750086056701
 21
474.3814874815681
 31
0.0
  0
LINE
  5
2E8
330
6A
100
AcDbEntity
  8
0
  6
Continuous
 62
     7
100
AcDbLine
 10
2.16850057987141
 20
476.4864874815663
 30
0.0
 11
1.45000086056561
 21
474.7864874815665
 31
0.0
  0
LINE
  5
2E9
330
6A
100
AcDbEntity
  8
0
  6
Continuous
 62
     7
100
AcDbLine
 10
1.45000086056561
 20
474.7864874815665
 30
0.0
 11
1.45000086056551
 21
467.4864874815681
 31
0.0
  0
LINE
  5
2EA
330
6A
100
AcDbEntity
  8
0
  6
Continuous
 62
     7
100
AcDbLine
 10
-6.54999913943428
 20
467.4864874815681
 30
0.0
 11
-6.54999913943428
 21
474.7864874815664
 31
0.0
  0
LINE
  5
2EB
330
6A
100
AcDbEntity
  8
0
  6
Continuous
 62
     7
100
AcDbLine
 10
10.56250086056691
 20
473.3114874815682
 30
0.0
 11
4.23750086056681
 21
473.3114874815682
 31
0.0
  0
LINE
  5
2EC
330
6A
100
AcDbEntity
  8
0
  6
Continuous
 62
     7
100
AcDbLine
 10
12.96881664683342
 20
476.4864874815697
 30
0.0
 11
10.9596552355442
 21
476.4864874815696
 31
0.0
  0
LINE
  5
2ED
330
6A
100
AcDbEntity
  8
0
  6
Continuous
 62
     7
100
AcDbLine
 10
4.23750086056681
 20
473.3114874815682
 30
0.0
 11
4.23750086056701
 21
474.3814874815681
 31
0.0
  0
LINE
  5
2EE
330
6A
100
AcDbEntity
  8
0
  6
Continuous
 62
     7
100
AcDbLine
 10
2.16850057987141
 20
476.4864874815663
 30
0.0
 11
3.84034648559181
 21
476.4864874815665
 31
0.0
  0
LINE
  5
2EF
330
6A
100
AcDbEntity
  8
0
  6
Continuous
 62
     7
100
AcDbLine
 10
-6.54999913943428
 20
474.7864874815664
 30
0.0
 11
-7.26849885871552
 21
476.4864874815696
 31
0.0
  0
LINE
  5
2F0
330
6A
100
AcDbEntity
  8
0
  6
Continuous
 62
     7
100
AcDbLine
 10
10.56250086056691
 20
473.3114874815682
 30
0.0
 11
10.56250086056691
 21
474.3814874815681
 31
0.0
  0
LINE
  5
2F1
330
6A
100
AcDbEntity
  8
0
  6
Continuous
 62
     7
100
AcDbLine
 10
33.0188166393509
 20
478.3364874815696
 30
0.0
 11
33.01881663935082
 21
476.4864874815696
 31
0.0
  0
LINE
  5
2F2
330
6A
100
AcDbEntity
  8
0
  6
Continuous
 62
     7
100
AcDbLine
 10
10.56250086056691
 20
474.3814874815681
 30
0.0
 11
10.03460239347992
 21
474.3814874815681
 31
0.0
  0
LINE
  5
2F3
330
6A
100
AcDbEntity
  8
0
  6
Continuous
 62
     7
100
AcDbLine
 10
-13.74999913943465
 20
438.838153531408
 30
0.0
 11
-15.04999913943394
 21
439.1864874815684
 31
0.0
  0
LINE
  5
2F4
330
6A
100
AcDbEntity
  8
0
  6
Continuous
 62
     7
100
AcDbLine
 10
19.65000086056571
 20
439.1864874815684
 30
0.0
 11
18.35000086056562
 21
438.838153531408
 31
0.0
  0
LINE
  5
2F5
330
6A
100
AcDbEntity
  8
0
  6
Continuous
 62
     7
100
AcDbLine
 10
18.35000086056562
 20
438.838153531408
 30
0.0
 11
18.35000086056532
 21
438.3864874815677
 31
0.0
  0
LINE
  5
2F6
330
6A
100
AcDbEntity
  8
0
  6
Continuous
 62
     7
100
AcDbLine
 10
4.76539932765242
 20
474.3814874815681
 30
0.0
 11
3.84034648559181
 21
476.4864874815665
 31
0.0
  0
LINE
  5
2F7
330
6A
100
AcDbEntity
  8
0
  6
Continuous
 62
     7
100
AcDbLine
 10
10.9596552355442
 20
476.4864874815696
 30
0.0
 11
10.03460239347992
 21
474.3814874815681
 31
0.0
  0
LINE
  5
2F8
330
6A
100
AcDbEntity
  8
0
  6
Continuous
 62
     7
100
AcDbLine
 10
19.65000086056571
 20
440.2864874815683
 30
0.0
 11
19.65000086056571
 21
439.1864874815684
 31
0.0
  0
LINE
  5
2F9
330
6A
100
AcDbEntity
  8
0
  6
Continuous
 62
     7
100
AcDbLine
 10
-15.04999913943394
 20
439.1864874815684
 30
0.0
 11
-15.04999913943397
 21
440.2864874815878
 31
0.0
  0
LINE
  5
2FA
330
6A
100
AcDbEntity
  8
0
  6
Continuous
 62
     7
100
AcDbLine
 10
-13.44999913943472
 20
440.2864874815683
 30
0.0
 11
19.65000086056571
 21
440.2864874815683
 31
0.0
  0
LINE
  5
2FB
330
6A
100
AcDbEntity
  8
0
  6
Continuous
 62
     7
100
AcDbLine
 10
54.25000086056581
 20
441.4864874815683
 30
0.0
 11
54.25000086056581
 21
445.4864874815697
 31
0.0
  0
LINE
  5
2FC
330
6A
100
AcDbEntity
  8
0
  6
Continuous
 62
     7
100
AcDbLine
 10
-32.24999913943498
 20
434.286487481568
 30
0.0
 11
-15.40894279256682
 21
434.2864874815687
 31
0.0
  0
LINE
  5
2FD
330
6A
100
AcDbEntity
  8
0
  6
Continuous
 62
     7
100
AcDbLine
 10
20.00894451369811
 20
434.2864874815681
 30
0.0
 11
22.4069524356734
 21
434.2864874815681
 31
0.0
  0
LINE
  5
2FE
330
6A
100
AcDbEntity
  8
0
  6
Continuous
 62
     7
100
AcDbLine
 10
-32.24999913943481
 20
469.3364081536491
 30
0.0
 11
-31.61109528316295
 21
469.5076019259734
 31
0.0
  0
LINE
  5
2FF
330
6A
100
AcDbEntity
  8
0
  6
Continuous
 62
     7
100
AcDbLine
 10
-32.24999913943481
 20
469.3364081536491
 30
0.0
 11
-32.24999913943481
 21
461.4864874815698
 31
0.0
  0
LINE
  5
300
330
6A
100
AcDbEntity
  8
0
  6
Continuous
 62
     7
100
AcDbLine
 10
-31.61109528316295
 20
469.5076019259734
 30
0.0
 11
-31.68157368163874
 21
469.2445729620261
 31
0.0
  0
LINE
  5
301
330
6A
100
AcDbEntity
  8
0
  6
Continuous
 62
     7
100
AcDbLine
 10
-32.24999913943479
 20
448.486487481567
 30
0.0
 11
-32.24999913943478
 21
446.8864874815678
 31
0.0
  0
LINE
  5
302
330
6A
100
AcDbEntity
  8
0
  6
Continuous
 62
     7
100
AcDbLine
 10
-32.2499991394342
 20
437.3864874815681
 30
0.0
 11
-32.24999913943498
 21
434.286487481568
 31
0.0
  0
LINE
  5
303
330
6A
100
AcDbEntity
  8
0
  6
Continuous
 62
     7
100
AcDbLine
 10
-31.68157368163874
 20
469.2445729620261
 30
0.0
 11
-30.64803304751041
 21
468.9676365837664
 31
0.0
  0
LINE
  5
304
330
6A
100
AcDbEntity
  8
0
  6
Continuous
 62
     7
100
AcDbLine
 10
-6.54999913943428
 20
467.4864874815681
 30
0.0
 11
1.45000086056551
 21
467.4864874815681
 31
0.0
  0
LINE
  5
305
330
6A
100
AcDbEntity
  8
0
  6
Continuous
 62
     7
100
AcDbLine
 10
12.96881664683342
 20
478.3364874815696
 30
0.0
 11
12.96881664683342
 21
476.4864874815697
 31
0.0
  0
LINE
  5
306
330
6A
100
AcDbEntity
  8
0
  6
Continuous
 62
     7
100
AcDbLine
 10
-13.74999913943466
 20
438.3864874815656
 30
0.0
 11
-13.74999913943465
 21
438.838153531408
 31
0.0
  0
LINE
  5
307
330
6A
100
AcDbEntity
  8
0
  6
Continuous
 62
     7
100
AcDbLine
 10
-30.74999913943498
 20
436.7156670883177
 30
0.0
 11
-30.74999913943499
 21
435.7864874815678
 31
0.0
  0
LINE
  5
308
330
6A
100
AcDbEntity
  8
0
  6
Continuous
 62
     7
100
AcDbLine
 10
-30.54776480773342
 20
475.5237680372458
 30
0.0
 11
-30.28980491008865
 21
476.4864874815696
 31
0.0
  0
LINE
  5
309
330
6A
100
AcDbEntity
  8
0
  6
Continuous
 62
     7
100
AcDbLine
 10
-30.54776480773342
 20
475.5237680372458
 30
0.0
 11
-30.11502161984122
 21
475.0910248493547
 31
0.0
  0
LINE
  5
30A
330
6A
100
AcDbEntity
  8
0
  6
Continuous
 62
     7
100
AcDbLine
 10
-29.01100258723568
 20
475.0771174350447
 30
0.0
 11
-30.64803304751041
 21
468.9676365837664
 31
0.0
  0
LINE
  5
30B
330
6A
100
AcDbEntity
  8
0
  6
Continuous
 62
     7
100
AcDbLine
 10
-28.24999913943499
 20
446.8864874815678
 30
0.0
 11
-32.24999913943478
 21
446.8864874815678
 31
0.0
  0
LINE
  5
30C
330
6A
100
AcDbEntity
  8
0
  6
Continuous
 62
     7
100
AcDbLine
 10
-28.24999913943499
 20
438.2864874815679
 30
0.0
 11
-31.34999913943437
 21
438.2864874815679
 31
0.0
  0
LINE
  5
30D
330
6A
100
AcDbEntity
  8
0
  6
Continuous
 62
     7
100
AcDbLine
 10
-30.04454322136509
 20
475.3540538133043
 30
0.0
 11
-30.11502161984122
 21
475.0910248493547
 31
0.0
  0
LINE
  5
30E
330
6A
100
AcDbEntity
  8
0
  6
Continuous
 62
     7
100
AcDbLine
 10
-29.01100258723568
 20
475.0771174350447
 30
0.0
 11
-30.04454322136509
 21
475.3540538133043
 31
0.0
  0
LINE
  5
30F
330
6A
100
AcDbEntity
  8
0
  6
Continuous
 62
     7
100
AcDbLine
 10
-9.04999913943497
 20
476.4864874815696
 30
0.0
 11
-11.94999913943501
 21
476.4864874815696
 31
0.0
  0
LINE
  5
310
330
6A
100
AcDbEntity
  8
0
  6
Continuous
 62
     7
100
AcDbLine
 10
-7.26849885871552
 20
476.4864874815696
 30
0.0
 11
-9.04999913943497
 21
476.4864874815696
 31
0.0
  0
LINE
  5
311
330
6A
100
AcDbEntity
  8
0
  6
Continuous
 62
     7
100
AcDbLine
 10
-11.94999913943501
 20
476.4864874815696
 30
0.0
 11
-30.28980491008865
 21
476.4864874815696
 31
0.0
  0
LINE
  5
312
330
6A
100
AcDbEntity
  8
0
  6
Continuous
 62
     7
100
AcDbLine
 10
-28.24999913943499
 20
438.2864874815679
 30
0.0
 11
-28.24999913943499
 21
435.7864874815678
 31
0.0
  0
LINE
  5
313
330
6A
100
AcDbEntity
  8
0
  6
Continuous
 62
     7
100
AcDbLine
 10
-28.24999913943499
 20
446.8864874815678
 30
0.0
 11
-28.24999913943499
 21
438.2864874815679
 31
0.0
  0
LINE
  5
314
330
6A
100
AcDbEntity
  8
0
  6
Continuous
 62
     7
100
AcDbLine
 10
-30.74999913943499
 20
435.7864874815678
 30
0.0
 11
-28.24999913943499
 21
435.7864874815678
 31
0.0
  0
LINE
  5
315
330
6A
100
AcDbEntity
  8
0
  6
Continuous
 62
     7
100
AcDbLine
 10
22.4069524356734
 20
434.2864874815681
 30
0.0
 11
54.25000086056581
 21
441.4864874815683
 31
0.0
  0
ARC
  5
316
330
6A
100
AcDbEntity
  8
0
  6
Continuous
 62
     7
100
AcDbCircle
 10
-12.66767287900551
 20
446.0864874815683
 30
0.0
 40
0.7999999999999097
100
AcDbArc
 50
73.31671566561846
 51
164.9999999999673
  0
ARC
  5
317
330
6A
100
AcDbEntity
  8
0
  6
Continuous
 62
     7
100
AcDbCircle
 10
-12.59785939090152
 20
446.1713086318511
 30
0.0
 40
0.7000000000001956
100
AcDbArc
 50
344.9999999999665
 51
76.79951589351926
  0
ARC
  5
318
330
6A
100
AcDbEntity
  8
0
  6
Continuous
 62
     7
100
AcDbCircle
 10
66.93857840101201
 20
453.4864874815688
 30
0.0
 40
14.99999999999655
100
AcDbArc
 50
147.769047364495
 51
212.230952635506
  0
ARC
  5
319
330
6A
100
AcDbEntity
  8
0
  6
Continuous
 62
     7
100
AcDbCircle
 10
-45.76850497402986
 20
454.9864874815684
 30
0.0
 40
14.99999999999998
100
AcDbArc
 50
334.3207113805371
 51
25.67928861946275
  0
ARC
  5
31A
330
6A
100
AcDbEntity
  8
0
  6
Continuous
 62
     7
100
AcDbCircle
 10
-23.14397181881076
 20
439.8018592698659
 30
0.0
 40
9.499999999998971
100
AcDbArc
 50
324.509676688424
 51
351.4318024382431
  0
ARC
  5
31B
330
6A
100
AcDbEntity
  8
0
  6
Continuous
 62
     7
100
AcDbCircle
 10
27.74397353994171
 20
439.8018592698659
 30
0.0
 40
9.499999999998966
100
AcDbArc
 50
188.5681975617441
 51
215.4903233115803
  0
ARC
  5
31C
330
6A
100
AcDbEntity
  8
0
  6
Continuous
 62
     7
100
AcDbCircle
 10
-10.49999913943499
 20
476.4864874815696
 30
0.0
 40
1.450000000000017
100
AcDbArc
 50
0.0
 51
90.0
  0
ARC
  5
31D
330
6A
100
AcDbEntity
  8
0
  6
Continuous
 62
     7
100
AcDbCircle
 10
-10.49999913943499
 20
476.4864874815696
 30
0.0
 40
1.450000000000102
100
AcDbArc
 50
90.0
 51
180.0
  0
ARC
  5
31E
330
6A
100
AcDbEntity
  8
0
  6
Continuous
 62
     7
100
AcDbCircle
 10
-31.34999913943437
 20
437.3864874815681
 30
0.0
 40
0.8999999999998067
100
AcDbArc
 50
90.0
 51
180.0
  0
ARC
  5
31F
330
6A
100
AcDbEntity
  8
0
  6
Continuous
 62
     7
100
AcDbCircle
 10
-31.34999913943437
 20
437.3864874815681
 30
0.0
 40
0.8999999999999667
100
AcDbArc
 50
311.8103148957284
 51
90.0
  0
ENDBLK
  5
6C
330
6A
100
AcDbEntity
  8
0
100
AcDbBlockEnd
  0
BLOCK
  5
6F
330
6D
100
AcDbEntity
  8
0
100
AcDbBlockBegin
  2
Vordans1
 70
     0
 10
10.99999999999901
 20
456.3114880000003
 30
0.0
  3
Vordans1
  1

  0
INSERT
  5
6E
330
6D
100
AcDbEntity
  8
0
100
AcDbBlockReference
  2
ST-4-FSI_C-RD-Select__6
 10
-32.24999913943498
 20
434.286487481568
 30
0.0
  0
LINE
  5
320
330
6D
100
AcDbEntity
  8
1
  6
Continuous
 62
     2
100
AcDbLine
 10
2.15000086056661
 20
442.377010525956
 30
0.0
 11
2.15000086056661
 21
437.377010525956
 31
0.0
  0
MTEXT
  5
321
330
6D
100
AcDbEntity
  8
1
 62
     6
100
AcDbMText
 10
10.90912704967388
 20
419.0749998452901
 30
0.0
 40
5.0
 41
0.0
 71
     2
 72
     1
  1
 
  7
CONVERTER_11
 73
     1
 44
1.32052821128451
  0
DIMENSION
  5
32C
330
6D
100
AcDbEntity
  8
1
100
AcDbDimension
  2
*D18
 10
54.25000086056579
 20
400.0796051655056
 30
0.0
 11
8.85341158210036
 21
404.0046051655056
 31
0.0
 70
    32
  1
<>
 71
     5
 42
-1.0
 53
0.00013888888889
  3
ME10_DIM_11
100
AcDbAlignedDimension
 13
-32.24999913943481
 23
461.4864874815698
 33
0.0
 14
54.25000086056581
 24
461.4864874815676
 34
0.0
100
AcDbRotatedDimension
  0
DIMENSION
  5
337
330
6D
100
AcDbEntity
  8
1
100
AcDbDimension
  2
*D19
 10
2.1500008605666
 20
410.445820861423
 30
0.0
 11
26.69534441314181
 21
414.370820861423
 31
0.0
 70
    32
  1
<>
 71
     5
 42
-1.0
 53
0.00013888888889
  3
ME10_DIM_12
100
AcDbAlignedDimension
 13
54.25000086056581
 23
461.4864874815676
 33
0.0
 14
2.15000086056661
 24
437.377010525956
 34
0.0
100
AcDbRotatedDimension
  0
DIMENSION
  5
342
330
6D
100
AcDbEntity
  8
1
100
AcDbDimension
  2
*D20
 10
-38.05050368947909
 20
476.4864874815698
 30
0.0
 11
-41.47550368947909
 21
457.0962850695481
 31
0.0
 70
    32
  1
<>
 71
     5
 42
-1.0
 53
90.0
  3
ME10_DIM_13
100
AcDbAlignedDimension
 13
-13.44999913943472
 23
440.2864874815683
 33
0.0
 14
-11.94999913943501
 24
476.4864874815696
 34
0.0
 50
90.0
100
AcDbRotatedDimension
  0
DIMENSION
  5
34D
330
6D
100
AcDbEntity
  8
1
100
AcDbDimension
  2
*D21
 10
2.15000086056661
 20
420.427529075724
 30
0.0
 11
11.95047067388756
 21
424.352529075724
 31
0.0
 70
    32
  1
<>
 71
     5
 42
-1.0
 53
0.00013888888889
  3
ME10_DIM_14
100
AcDbAlignedDimension
 13
19.65000086056571
 23
439.1864874815684
 33
0.0
 14
2.15000086056661
 24
437.377010525956
 34
0.0
100
AcDbRotatedDimension
  0
DIMENSION
  5
358
330
6D
100
AcDbEntity
  8
1
100
AcDbDimension
  2
*D22
 10
-47.36169281457961
 20
478.3364874815696
 30
0.0
 11
-50.7866928145796
 21
457.309170039471
 31
0.0
 70
    32
  1
<>
 71
     5
 42
-1.0
 53
90.0
  3
ME10_DIM_15
100
AcDbAlignedDimension
 13
-15.40894279256682
 23
434.2864874815687
 33
0.0
 14
12.96881664683342
 24
478.3364874815696
 34
0.0
 50
90.0
100
AcDbRotatedDimension
  0
ENDBLK
  5
70
330
6D
100
AcDbEntity
  8
0
100
AcDbBlockEnd
  0
BLOCK
  5
72
330
71
100
AcDbEntity
  8
0
100
AcDbBlockBegin
  2
_rahmen
 70
     0
 10
190.1620996650851
 20
303.7126847631477
 30
0.0
  3
_rahmen
  1

  0
LINE
  5
359
330
71
100
AcDbEntity
  8
1
  6
DOT_CENTER
 62
     2
100
AcDbLine
 10
64.60395002489764
 20
329.8376847631477
 30
0.0
 11
70.10395002489764
 21
329.8376847631477
 31
0.0
  0
LINE
  5
35A
330
71
100
AcDbEntity
  8
1
  6
PHANTOM
 62
     2
100
AcDbLine
 10
73.35395002489764
 20
332.5876847631477
 30
0.0
 11
73.35395002489764
 21
327.0876847631477
 31
0.0
  0
LINE
  5
35B
330
71
100
AcDbEntity
  8
1
  6
PHANTOM
 62
     2
100
AcDbLine
 10
76.10395002489764
 20
329.8376847631477
 30
0.0
 11
70.60395002489764
 21
329.8376847631477
 31
0.0
  0
LINE
  5
35C
330
71
100
AcDbEntity
  8
1
  6
Continuous
 62
     7
100
AcDbLine
 10
124.9172951383351
 20
317.2126847631477
 30
0.0
 11
124.9172951383351
 21
325.7126847631478
 31
0.0
  0
LINE
  5
35D
330
71
100
AcDbEntity
  8
1
  6
Continuous
 62
     6
100
AcDbLine
 10
97.01729513833496
 20
325.7126847631478
 30
0.0
 11
190.1620996650867
 21
325.7126847631478
 31
0.0
  0
LINE
  5
35E
330
71
100
AcDbEntity
  8
1
  6
Continuous
 62
     7
100
AcDbLine
 10
60.61729513833504
 20
325.7126847631478
 30
0.0
 11
60.61729513833504
 21
334.2126847631478
 31
0.0
  0
LINE
  5
35F
330
71
100
AcDbEntity
  8
1
  6
Continuous
 62
     7
100
AcDbLine
 10
97.01729513833496
 20
325.7126847631478
 30
0.0
 11
97.01729513833496
 21
334.2126847631478
 31
0.0
  0
LINE
  5
360
330
71
100
AcDbEntity
  8
1
  6
Continuous
 62
     7
100
AcDbLine
 10
154.7436913834079
 20
334.2126847631478
 30
0.0
 11
154.7436913834079
 21
325.7126847631478
 31
0.0
  0
LINE
  5
361
330
71
100
AcDbEntity
  8
1
  6
Continuous
 62
     7
100
AcDbLine
 10
181.2436913834075
 20
334.2126847631478
 30
0.0
 11
181.2436913834075
 21
325.7126847631478
 31
0.0
  0
LINE
  5
362
330
71
100
AcDbEntity
  8
1
  6
Continuous
 62
     6
100
AcDbLine
 10
-8.38270486166493
 20
308.7126847631478
 30
0.0
 11
-53.33790033491493
 21
308.7126847631478
 31
0.0
  0
LINE
  5
363
330
71
100
AcDbEntity
  8
1
  6
Continuous
 62
     7
100
AcDbLine
 10
190.1620996650863
 20
317.2126847631478
 30
0.0
 11
97.01729513833496
 21
317.2126847631478
 31
0.0
  0
LINE
  5
364
102
{ACAD_REACTORS
330
476
330
477
102
}
330
71
100
AcDbEntity
  8
0
  6
Continuous
 62
     2
100
AcDbLine
 10
74.32472408010244
 20
318.0129738788111
 30
0.0
 11
74.32472408010244
 21
318.8854908856143
 31
0.0
  0
LINE
  5
365
102
{ACAD_REACTORS
330
476
330
477
102
}
330
71
100
AcDbEntity
  8
0
  6
Continuous
 62
     2
100
AcDbLine
 10
74.32472408010244
 20
317.0532051713282
 30
0.0
 11
74.32472408010244
 21
316.180688164525
 31
0.0
  0
LINE
  5
366
102
{ACAD_REACTORS
330
478
330
479
102
}
330
71
100
AcDbEntity
  8
0
  6
Continuous
 62
     2
100
AcDbLine
 10
89.65776821639295
 20
318.2747289808516
 30
0.0
 11
90.76140751596105
 21
318.2747289808516
 31
0.0
  0
LINE
  5
367
102
{ACAD_REACTORS
330
478
330
479
102
}
330
71
100
AcDbEntity
  8
0
  6
Continuous
 62
     2
100
AcDbLine
 10
90.42742555935436
 20
317.0532051713277
 30
0.0
 11
90.42742555935436
 21
316.1806881645243
 31
0.0
  0
LINE
  5
368
102
{ACAD_REACTORS
330
482
330
483
102
}
330
71
100
AcDbEntity
  8
0
  6
Continuous
 62
     2
100
AcDbLine
 10
88.56666894397443
 20
319.3653752393384
 30
0.0
 11
89.96462199091474
 21
320.9462342331134
 31
0.0
  0
LINE
  5
369
102
{ACAD_REACTORS
330
482
330
483
102
}
330
71
100
AcDbEntity
  8
0
  6
Continuous
 62
     2
100
AcDbLine
 10
88.66209236014726
 20
322.4191847631496
 30
0.0
 11
89.96462199091474
 21
320.9462342331134
 31
0.0
  0
LINE
  5
36A
102
{ACAD_REACTORS
330
482
330
483
102
}
330
71
100
AcDbEntity
  8
0
  6
Continuous
 62
     2
100
AcDbLine
 10
91.26715162168114
 20
322.4191847631496
 30
0.0
 11
92.66987583942836
 21
322.4191847631496
 31
0.0
  0
LINE
  5
36B
102
{ACAD_REACTORS
330
482
330
483
102
}
330
71
100
AcDbEntity
  8
0
  6
Continuous
 62
     2
100
AcDbLine
 10
89.96939316172265
 20
319.3653752393384
 30
0.0
 11
90.66598409978835
 21
320.1531070246321
 31
0.0
  0
LINE
  5
36C
102
{ACAD_REACTORS
330
482
330
483
102
}
330
71
100
AcDbEntity
  8
0
  6
Continuous
 62
     2
100
AcDbLine
 10
89.96939316172265
 20
319.3653752393384
 30
0.0
 11
88.56666894397443
 21
319.3653752393384
 31
0.0
  0
LINE
  5
36D
102
{ACAD_REACTORS
330
484
330
485
102
}
330
71
100
AcDbEntity
  8
0
  6
Continuous
 62
     2
100
AcDbLine
 10
88.44738967375756
 20
319.3653752393384
 30
0.0
 11
87.20688526350466
 21
319.3653752393384
 31
0.0
  0
LINE
  5
36E
102
{ACAD_REACTORS
330
486
330
487
102
}
330
71
100
AcDbEntity
  8
0
  6
Continuous
 62
     2
100
AcDbLine
 10
86.33890565534955
 20
317.2277085726886
 30
0.0
 11
86.03874041815945
 21
317.9955235386752
 31
0.0
  0
LINE
  5
36F
102
{ACAD_REACTORS
330
486
330
487
102
}
330
71
100
AcDbEntity
  8
0
  6
Continuous
 62
     2
100
AcDbLine
 10
85.73857518096705
 20
317.2277085726886
 30
0.0
 11
86.33890565534955
 21
317.2277085726886
 31
0.0
  0
LINE
  5
370
102
{ACAD_REACTORS
330
486
330
487
102
}
330
71
100
AcDbEntity
  8
0
  6
Continuous
 62
     2
100
AcDbLine
 10
84.02053516609325
 20
316.0061847631641
 30
0.0
 11
85.26103957634623
 21
316.0061847631641
 31
0.0
  0
LINE
  5
371
102
{ACAD_REACTORS
330
486
330
487
102
}
330
71
100
AcDbEntity
  8
0
  6
Continuous
 62
     2
100
AcDbLine
 10
85.41848821303256
 20
319.0599942869752
 30
0.0
 11
86.65899262328526
 21
319.0599942869752
 31
0.0
  0
LINE
  5
372
102
{ACAD_REACTORS
330
486
330
487
102
}
330
71
100
AcDbEntity
  8
0
  6
Continuous
 62
     2
100
AcDbLine
 10
86.65899262328526
 20
319.0599942869752
 30
0.0
 11
88.05694567022556
 21
316.0061847631641
 31
0.0
  0
LINE
  5
373
102
{ACAD_REACTORS
330
486
330
487
102
}
330
71
100
AcDbEntity
  8
0
  6
Continuous
 62
     2
100
AcDbLine
 10
86.81644125997164
 20
316.0061847631641
 30
0.0
 11
86.60496120649586
 21
316.5471453073819
 31
0.0
  0
LINE
  5
374
102
{ACAD_REACTORS
330
488
330
489
102
}
330
71
100
AcDbEntity
  8
0
  6
Continuous
 62
     2
100
AcDbLine
 10
82.67412206438564
 20
316.0061847631641
 30
0.0
 11
83.86691476655216
 21
316.0061847631641
 31
0.0
  0
LINE
  5
375
102
{ACAD_REACTORS
330
488
330
489
102
}
330
71
100
AcDbEntity
  8
0
  6
Continuous
 62
     2
100
AcDbLine
 10
82.67412206438564
 20
318.2747289808516
 30
0.0
 11
82.67412206438564
 21
316.0061847631641
 31
0.0
  0
LINE
  5
376
102
{ACAD_REACTORS
330
488
330
489
102
}
330
71
100
AcDbEntity
  8
0
  6
Continuous
 62
     2
100
AcDbLine
 10
81.86302302691104
 20
319.0599942869752
 30
0.0
 11
81.86302302691104
 21
318.2747289808516
 31
0.0
  0
LINE
  5
377
102
{ACAD_REACTORS
330
48A
330
48B
102
}
330
71
100
AcDbEntity
  8
0
  6
Continuous
 62
     2
100
AcDbLine
 10
83.34223690848364
 20
319.3653752393384
 30
0.0
 11
84.53502961065016
 21
319.3653752393384
 31
0.0
  0
LINE
  5
378
102
{ACAD_REACTORS
330
48A
330
48B
102
}
330
71
100
AcDbEntity
  8
0
  6
Continuous
 62
     2
100
AcDbLine
 10
85.77553402090416
 20
321.1104092529444
 30
0.0
 11
84.53502961065016
 21
322.4191847631496
 31
0.0
  0
LINE
  5
379
102
{ACAD_REACTORS
330
48A
330
48B
102
}
330
71
100
AcDbEntity
  8
0
  6
Continuous
 62
     2
100
AcDbLine
 10
86.96832672307076
 20
322.4191847631496
 30
0.0
 11
85.77553402090416
 21
322.4191847631496
 31
0.0
  0
LINE
  5
37A
102
{ACAD_REACTORS
330
48A
330
48B
102
}
330
71
100
AcDbEntity
  8
0
  6
Continuous
 62
     2
100
AcDbLine
 10
86.96832672307076
 20
319.3653752393384
 30
0.0
 11
86.96832672307076
 21
322.4191847631496
 31
0.0
  0
LINE
  5
37B
102
{ACAD_REACTORS
330
48A
330
48B
102
}
330
71
100
AcDbEntity
  8
0
  6
Continuous
 62
     2
100
AcDbLine
 10
85.77553402090416
 20
319.3653752393384
 30
0.0
 11
86.96832672307076
 21
319.3653752393384
 31
0.0
  0
LINE
  5
37C
102
{ACAD_REACTORS
330
48A
330
48B
102
}
330
71
100
AcDbEntity
  8
0
  6
Continuous
 62
     2
100
AcDbLine
 10
84.53502961065016
 20
320.6741507495431
 30
0.0
 11
85.77553402090416
 21
319.3653752393384
 31
0.0
  0
LINE
  5
37D
102
{ACAD_REACTORS
330
48C
330
48D
102
}
330
71
100
AcDbEntity
  8
0
  6
Continuous
 62
     2
100
AcDbLine
 10
80.52709520048444
 20
317.7512187767701
 30
0.0
 11
79.28659079023154
 21
319.0599942869752
 31
0.0
  0
LINE
  5
37E
102
{ACAD_REACTORS
330
48C
330
48D
102
}
330
71
100
AcDbEntity
  8
0
  6
Continuous
 62
     2
100
AcDbLine
 10
80.52709520048444
 20
319.0599942869752
 30
0.0
 11
80.52709520048444
 21
317.7512187767701
 31
0.0
  0
LINE
  5
37F
102
{ACAD_REACTORS
330
48C
330
48D
102
}
330
71
100
AcDbEntity
  8
0
  6
Continuous
 62
     2
100
AcDbLine
 10
81.71988790265084
 20
319.0599942869752
 30
0.0
 11
80.52709520048444
 21
319.0599942869752
 31
0.0
  0
LINE
  5
380
102
{ACAD_REACTORS
330
48C
330
48D
102
}
330
71
100
AcDbEntity
  8
0
  6
Continuous
 62
     2
100
AcDbLine
 10
81.71988790265084
 20
316.0061847631641
 30
0.0
 11
81.71988790265084
 21
319.0599942869752
 31
0.0
  0
LINE
  5
381
102
{ACAD_REACTORS
330
48C
330
48D
102
}
330
71
100
AcDbEntity
  8
0
  6
Continuous
 62
     2
100
AcDbLine
 10
79.28659079023154
 20
317.3149602733687
 30
0.0
 11
80.52709520048444
 21
316.0061847631641
 31
0.0
  0
LINE
  5
382
102
{ACAD_REACTORS
330
48C
330
48D
102
}
330
71
100
AcDbEntity
  8
0
  6
Continuous
 62
     2
100
AcDbLine
 10
79.28659079023154
 20
316.0061847631641
 30
0.0
 11
79.28659079023154
 21
317.3149602733687
 31
0.0
  0
LINE
  5
383
102
{ACAD_REACTORS
330
47C
330
47D
102
}
330
71
100
AcDbEntity
  8
0
  6
Continuous
 62
     2
100
AcDbLine
 10
81.76775054162306
 20
321.7211711577066
 30
0.0
 11
83.10367836805074
 21
321.7211711577066
 31
0.0
  0
LINE
  5
384
102
{ACAD_REACTORS
330
47C
330
47D
102
}
330
71
100
AcDbEntity
  8
0
  6
Continuous
 62
     2
100
AcDbLine
 10
81.76775054162306
 20
320.0633888447809
 30
0.0
 11
81.76775054162306
 21
320.5432731985226
 31
0.0
  0
LINE
  5
385
102
{ACAD_REACTORS
330
47C
330
47D
102
}
330
71
100
AcDbEntity
  8
0
  6
Continuous
 62
     2
100
AcDbLine
 10
83.10367836805074
 20
320.0633888447809
 30
0.0
 11
81.76775054162306
 21
320.0633888447809
 31
0.0
  0
LINE
  5
386
102
{ACAD_REACTORS
330
47C
330
47D
102
}
330
71
100
AcDbEntity
  8
0
  6
Continuous
 62
     2
100
AcDbLine
 10
83.10367836805074
 20
319.3653752393384
 30
0.0
 11
83.10367836805074
 21
320.0633888447809
 31
0.0
  0
LINE
  5
387
102
{ACAD_REACTORS
330
47C
330
47D
102
}
330
71
100
AcDbEntity
  8
0
  6
Continuous
 62
     2
100
AcDbLine
 10
79.95335864426974
 20
319.3653752393384
 30
0.0
 11
83.10367836805074
 21
319.3653752393384
 31
0.0
  0
LINE
  5
388
102
{ACAD_REACTORS
330
47C
330
47D
102
}
330
71
100
AcDbEntity
  8
0
  6
Continuous
 62
     2
100
AcDbLine
 10
79.95335864426974
 20
322.4191847631496
 30
0.0
 11
83.10367836805074
 21
322.4191847631496
 31
0.0
  0
LINE
  5
389
102
{ACAD_REACTORS
330
47C
330
47D
102
}
330
71
100
AcDbEntity
  8
0
  6
Continuous
 62
     2
100
AcDbLine
 10
83.10367836805074
 20
321.7211711577066
 30
0.0
 11
83.10367836805074
 21
322.4191847631496
 31
0.0
  0
LINE
  5
38A
102
{ACAD_REACTORS
330
48E
330
48F
102
}
330
71
100
AcDbEntity
  8
0
  6
Continuous
 62
     2
100
AcDbLine
 10
77.09200314912974
 20
321.350351429815
 30
0.0
 11
77.09200314912974
 21
322.4191847631496
 31
0.0
  0
LINE
  5
38B
102
{ACAD_REACTORS
330
48E
330
48F
102
}
330
71
100
AcDbEntity
  8
0
  6
Continuous
 62
     2
100
AcDbLine
 10
77.09200314912974
 20
322.4191847631496
 30
0.0
 11
78.28479585129614
 21
322.4191847631496
 31
0.0
  0
LINE
  5
38C
102
{ACAD_REACTORS
330
48E
330
48F
102
}
330
71
100
AcDbEntity
  8
0
  6
Continuous
 62
     2
100
AcDbLine
 10
77.09200314912974
 20
320.4996473481822
 30
0.0
 11
76.04234557122226
 21
320.4996473481822
 31
0.0
  0
LINE
  5
38D
102
{ACAD_REACTORS
330
48E
330
48F
102
}
330
71
100
AcDbEntity
  8
0
  6
Continuous
 62
     2
100
AcDbLine
 10
76.04234557122226
 20
320.4996473481822
 30
0.0
 11
76.04234557122226
 21
319.3653752393384
 31
0.0
  0
LINE
  5
38E
102
{ACAD_REACTORS
330
48E
330
48F
102
}
330
71
100
AcDbEntity
  8
0
  6
Continuous
 62
     2
100
AcDbLine
 10
74.84955286905566
 20
322.4191847631496
 30
0.0
 11
74.84955286905566
 21
319.3653752393384
 31
0.0
  0
LINE
  5
38F
102
{ACAD_REACTORS
330
480
330
481
102
}
330
71
100
AcDbEntity
  8
0
  6
Continuous
 62
     2
100
AcDbLine
 10
72.89337283750206
 20
321.0503512683673
 30
0.0
 11
72.89337283750206
 21
321.7560789177095
 31
0.0
  0
LINE
  5
390
102
{ACAD_REACTORS
330
480
330
481
102
}
330
71
100
AcDbEntity
  8
0
  6
Continuous
 62
     2
100
AcDbLine
 10
71.65286842724794
 20
319.3653752393384
 30
0.0
 11
72.89337283750206
 21
319.3653752393384
 31
0.0
  0
LINE
  5
391
102
{ACAD_REACTORS
330
480
330
481
102
}
330
71
100
AcDbEntity
  8
0
  6
Continuous
 62
     2
100
AcDbLine
 10
72.89337283750206
 20
319.3653752393384
 30
0.0
 11
72.89337283750206
 21
320.3084534804822
 31
0.0
  0
LINE
  5
392
102
{ACAD_REACTORS
330
47A
330
47B
102
}
330
71
100
AcDbEntity
  8
0
  6
Continuous
 62
     2
100
AcDbLine
 10
67.34792257803656
 20
316.718740318721
 30
0.0
 11
65.87208931702693
 21
316.718740318721
 31
0.0
  0
LINE
  5
393
102
{ACAD_REACTORS
330
47A
330
47B
102
}
330
71
100
AcDbEntity
  8
0
  6
Continuous
 62
     2
100
AcDbLine
 10
64.85395002489764
 20
321.9949401477476
 30
0.0
 11
64.85395002489764
 21
316.4304293785474
 31
0.0
  0
LINE
  5
394
102
{ACAD_REACTORS
330
47A
330
47B
102
}
330
71
100
AcDbEntity
  8
0
  6
Continuous
 62
     2
100
AcDbLine
 10
65.27819464028045
 20
322.4191847631314
 30
0.0
 11
70.75150673099725
 21
322.4191847631314
 31
0.0
  0
LINE
  5
395
102
{ACAD_REACTORS
330
47A
330
47B
102
}
330
71
100
AcDbEntity
  8
0
  6
Continuous
 62
     2
100
AcDbLine
 10
71.17575134638113
 20
321.9949401477476
 30
0.0
 11
71.17575134638113
 21
316.4304293785474
 31
0.0
  0
LINE
  5
396
102
{ACAD_REACTORS
330
47A
330
47B
102
}
330
71
100
AcDbEntity
  8
0
  6
Continuous
 62
     2
100
AcDbLine
 10
70.75150673099725
 20
316.0061847631641
 30
0.0
 11
65.27819464028045
 21
316.0061847631641
 31
0.0
  0
LINE
  5
397
102
{ACAD_REACTORS
330
47A
330
47B
102
}
330
71
100
AcDbEntity
  8
0
  6
Continuous
 62
     2
100
AcDbLine
 10
67.66363950111315
 20
317.0344572417977
 30
0.0
 11
67.66363950111315
 21
318.5652281733293
 31
0.0
  0
LINE
  5
398
102
{ACAD_REACTORS
330
47A
330
47B
102
}
330
71
100
AcDbEntity
  8
0
  6
Continuous
 62
     2
100
AcDbLine
 10
67.66363950111315
 20
320.7868876654543
 30
0.0
 11
67.66363950111315
 21
321.3909122845148
 31
0.0
  0
LINE
  5
399
102
{ACAD_REACTORS
330
47A
330
47B
102
}
330
71
100
AcDbEntity
  8
0
  6
Continuous
 62
     2
100
AcDbLine
 10
65.87208931702693
 20
321.7066292075909
 30
0.0
 11
67.34792257803656
 21
321.7066292075909
 31
0.0
  0
LINE
  5
39A
102
{ACAD_REACTORS
330
47A
330
47B
102
}
330
71
100
AcDbEntity
  8
0
  6
Continuous
 62
     2
100
AcDbLine
 10
65.55637239395125
 20
321.3909122845148
 30
0.0
 11
65.55637239395125
 21
317.0344572417977
 31
0.0
  0
LINE
  5
39B
102
{ACAD_REACTORS
330
480
330
481
102
}
330
71
100
AcDbEntity
  8
0
  6
Continuous
 62
     2
100
AcDbLine
 10
72.89337283750206
 20
320.3084534804822
 30
0.0
 11
73.65214042528234
 21
320.3084534804822
 31
0.0
  0
LINE
  5
39C
102
{ACAD_REACTORS
330
480
330
481
102
}
330
71
100
AcDbEntity
  8
0
  6
Continuous
 62
     2
100
AcDbLine
 10
71.65286842724794
 20
322.4191847631496
 30
0.0
 11
73.65214042528234
 21
322.4191847631496
 31
0.0
  0
LINE
  5
39D
102
{ACAD_REACTORS
330
480
330
481
102
}
330
71
100
AcDbEntity
  8
0
  6
Continuous
 62
     2
100
AcDbLine
 10
71.65286842724794
 20
322.4191847631496
 30
0.0
 11
71.65286842724794
 21
319.3653752393384
 31
0.0
  0
LINE
  5
39E
102
{ACAD_REACTORS
330
480
330
481
102
}
330
71
100
AcDbEntity
  8
0
  6
Continuous
 62
     2
100
AcDbLine
 10
72.89337283750206
 20
321.0503512683673
 30
0.0
 11
73.21066789904395
 21
321.0503512683673
 31
0.0
  0
LINE
  5
39F
102
{ACAD_REACTORS
330
480
330
481
102
}
330
71
100
AcDbEntity
  8
0
  6
Continuous
 62
     2
100
AcDbLine
 10
72.89337283750206
 20
321.7560789177095
 30
0.0
 11
73.21066789904395
 21
321.7560789177095
 31
0.0
  0
LINE
  5
3A0
102
{ACAD_REACTORS
330
48E
330
48F
102
}
330
71
100
AcDbEntity
  8
0
  6
Continuous
 62
     2
100
AcDbLine
 10
76.04234557122226
 20
321.350351429815
 30
0.0
 11
77.09200314912974
 21
321.350351429815
 31
0.0
  0
LINE
  5
3A1
102
{ACAD_REACTORS
330
48E
330
48F
102
}
330
71
100
AcDbEntity
  8
0
  6
Continuous
 62
     2
100
AcDbLine
 10
76.04234557122226
 20
322.4191847631496
 30
0.0
 11
76.04234557122226
 21
321.350351429815
 31
0.0
  0
LINE
  5
3A2
102
{ACAD_REACTORS
330
48E
330
48F
102
}
330
71
100
AcDbEntity
  8
0
  6
Continuous
 62
     2
100
AcDbLine
 10
74.84955286905566
 20
322.4191847631496
 30
0.0
 11
76.04234557122226
 21
322.4191847631496
 31
0.0
  0
LINE
  5
3A3
102
{ACAD_REACTORS
330
48E
330
48F
102
}
330
71
100
AcDbEntity
  8
0
  6
Continuous
 62
     2
100
AcDbLine
 10
76.04234557122226
 20
319.3653752393384
 30
0.0
 11
74.84955286905566
 21
319.3653752393384
 31
0.0
  0
LINE
  5
3A4
102
{ACAD_REACTORS
330
48E
330
48F
102
}
330
71
100
AcDbEntity
  8
0
  6
Continuous
 62
     2
100
AcDbLine
 10
77.09200314912974
 20
319.3653752393384
 30
0.0
 11
77.09200314912974
 21
320.4996473481822
 31
0.0
  0
LINE
  5
3A5
102
{ACAD_REACTORS
330
48E
330
48F
102
}
330
71
100
AcDbEntity
  8
0
  6
Continuous
 62
     2
100
AcDbLine
 10
78.28479585129614
 20
319.3653752393384
 30
0.0
 11
77.09200314912974
 21
319.3653752393384
 31
0.0
  0
LINE
  5
3A6
102
{ACAD_REACTORS
330
48E
330
48F
102
}
330
71
100
AcDbEntity
  8
0
  6
Continuous
 62
     2
100
AcDbLine
 10
78.28479585129614
 20
322.4191847631496
 30
0.0
 11
78.28479585129614
 21
319.3653752393384
 31
0.0
  0
LINE
  5
3A7
102
{ACAD_REACTORS
330
47C
330
47D
102
}
330
71
100
AcDbEntity
  8
0
  6
Continuous
 62
     2
100
AcDbLine
 10
81.76775054162306
 20
320.5432731985226
 30
0.0
 11
83.10367836805074
 21
320.5432731985226
 31
0.0
  0
LINE
  5
3A8
102
{ACAD_REACTORS
330
47C
330
47D
102
}
330
71
100
AcDbEntity
  8
0
  6
Continuous
 62
     2
100
AcDbLine
 10
83.10367836805074
 20
320.5432731985226
 30
0.0
 11
83.10367836805074
 21
321.2412868039648
 31
0.0
  0
LINE
  5
3A9
102
{ACAD_REACTORS
330
47C
330
47D
102
}
330
71
100
AcDbEntity
  8
0
  6
Continuous
 62
     2
100
AcDbLine
 10
83.10367836805074
 20
321.2412868039648
 30
0.0
 11
81.76775054162306
 21
321.2412868039648
 31
0.0
  0
LINE
  5
3AA
102
{ACAD_REACTORS
330
47C
330
47D
102
}
330
71
100
AcDbEntity
  8
0
  6
Continuous
 62
     2
100
AcDbLine
 10
81.76775054162306
 20
321.2412868039648
 30
0.0
 11
81.76775054162306
 21
321.7211711577066
 31
0.0
  0
LINE
  5
3AB
102
{ACAD_REACTORS
330
48C
330
48D
102
}
330
71
100
AcDbEntity
  8
0
  6
Continuous
 62
     2
100
AcDbLine
 10
78.09379808806395
 20
316.0061847631641
 30
0.0
 11
79.28659079023154
 21
316.0061847631641
 31
0.0
  0
LINE
  5
3AC
102
{ACAD_REACTORS
330
48C
330
48D
102
}
330
71
100
AcDbEntity
  8
0
  6
Continuous
 62
     2
100
AcDbLine
 10
80.52709520048444
 20
316.0061847631641
 30
0.0
 11
81.71988790265084
 21
316.0061847631641
 31
0.0
  0
LINE
  5
3AD
102
{ACAD_REACTORS
330
48C
330
48D
102
}
330
71
100
AcDbEntity
  8
0
  6
Continuous
 62
     2
100
AcDbLine
 10
79.28659079023154
 20
319.0599942869752
 30
0.0
 11
78.09379808806395
 21
319.0599942869752
 31
0.0
  0
LINE
  5
3AE
102
{ACAD_REACTORS
330
48C
330
48D
102
}
330
71
100
AcDbEntity
  8
0
  6
Continuous
 62
     2
100
AcDbLine
 10
78.09379808806395
 20
319.0599942869752
 30
0.0
 11
78.09379808806395
 21
316.0061847631641
 31
0.0
  0
LINE
  5
3AF
102
{ACAD_REACTORS
330
48A
330
48B
102
}
330
71
100
AcDbEntity
  8
0
  6
Continuous
 62
     2
100
AcDbLine
 10
85.77553402090416
 20
322.4191847631496
 30
0.0
 11
85.77553402090416
 21
321.1104092529444
 31
0.0
  0
LINE
  5
3B0
102
{ACAD_REACTORS
330
48A
330
48B
102
}
330
71
100
AcDbEntity
  8
0
  6
Continuous
 62
     2
100
AcDbLine
 10
84.53502961065016
 20
322.4191847631496
 30
0.0
 11
83.34223690848364
 21
322.4191847631496
 31
0.0
  0
LINE
  5
3B1
102
{ACAD_REACTORS
330
48A
330
48B
102
}
330
71
100
AcDbEntity
  8
0
  6
Continuous
 62
     2
100
AcDbLine
 10
83.34223690848364
 20
322.4191847631496
 30
0.0
 11
83.34223690848364
 21
319.3653752393384
 31
0.0
  0
LINE
  5
3B2
102
{ACAD_REACTORS
330
48A
330
48B
102
}
330
71
100
AcDbEntity
  8
0
  6
Continuous
 62
     2
100
AcDbLine
 10
84.53502961065016
 20
319.3653752393384
 30
0.0
 11
84.53502961065016
 21
320.6741507495431
 31
0.0
  0
LINE
  5
3B3
102
{ACAD_REACTORS
330
488
330
489
102
}
330
71
100
AcDbEntity
  8
0
  6
Continuous
 62
     2
100
AcDbLine
 10
83.86691476655216
 20
316.0061847631641
 30
0.0
 11
83.86691476655216
 21
318.2747289808516
 31
0.0
  0
LINE
  5
3B4
102
{ACAD_REACTORS
330
488
330
489
102
}
330
71
100
AcDbEntity
  8
0
  6
Continuous
 62
     2
100
AcDbLine
 10
83.86691476655216
 20
318.2747289808516
 30
0.0
 11
84.67801380402466
 21
318.2747289808516
 31
0.0
  0
LINE
  5
3B5
102
{ACAD_REACTORS
330
488
330
489
102
}
330
71
100
AcDbEntity
  8
0
  6
Continuous
 62
     2
100
AcDbLine
 10
84.67801380402466
 20
318.2747289808516
 30
0.0
 11
84.67801380402466
 21
319.0599942869752
 31
0.0
  0
LINE
  5
3B6
102
{ACAD_REACTORS
330
488
330
489
102
}
330
71
100
AcDbEntity
  8
0
  6
Continuous
 62
     2
100
AcDbLine
 10
84.67801380402466
 20
319.0599942869752
 30
0.0
 11
81.86302302691104
 21
319.0599942869752
 31
0.0
  0
LINE
  5
3B7
102
{ACAD_REACTORS
330
488
330
489
102
}
330
71
100
AcDbEntity
  8
0
  6
Continuous
 62
     2
100
AcDbLine
 10
81.86302302691104
 20
318.2747289808516
 30
0.0
 11
82.67412206438564
 21
318.2747289808516
 31
0.0
  0
LINE
  5
3B8
102
{ACAD_REACTORS
330
486
330
487
102
}
330
71
100
AcDbEntity
  8
0
  6
Continuous
 62
     2
100
AcDbLine
 10
85.47251962982205
 20
316.5471453073819
 30
0.0
 11
86.60496120649586
 21
316.5471453073819
 31
0.0
  0
LINE
  5
3B9
102
{ACAD_REACTORS
330
486
330
487
102
}
330
71
100
AcDbEntity
  8
0
  6
Continuous
 62
     2
100
AcDbLine
 10
88.05694567022556
 20
316.0061847631641
 30
0.0
 11
86.81644125997164
 21
316.0061847631641
 31
0.0
  0
LINE
  5
3BA
102
{ACAD_REACTORS
330
486
330
487
102
}
330
71
100
AcDbEntity
  8
0
  6
Continuous
 62
     2
100
AcDbLine
 10
85.41848821303256
 20
319.0599942869752
 30
0.0
 11
84.02053516609325
 21
316.0061847631641
 31
0.0
  0
LINE
  5
3BB
102
{ACAD_REACTORS
330
486
330
487
102
}
330
71
100
AcDbEntity
  8
0
  6
Continuous
 62
     2
100
AcDbLine
 10
85.26103957634623
 20
316.0061847631641
 30
0.0
 11
85.47251962982205
 21
316.5471453073819
 31
0.0
  0
LINE
  5
3BC
102
{ACAD_REACTORS
330
486
330
487
102
}
330
71
100
AcDbEntity
  8
0
  6
Continuous
 62
     2
100
AcDbLine
 10
85.73857518096705
 20
317.2277085726886
 30
0.0
 11
86.03874041815945
 21
317.9955235386752
 31
0.0
  0
LINE
  5
3BD
102
{ACAD_REACTORS
330
484
330
485
102
}
330
71
100
AcDbEntity
  8
0
  6
Continuous
 62
     2
100
AcDbLine
 10
87.20688526350466
 20
319.3653752393384
 30
0.0
 11
87.20688526350466
 21
322.4191847631496
 31
0.0
  0
LINE
  5
3BE
102
{ACAD_REACTORS
330
484
330
485
102
}
330
71
100
AcDbEntity
  8
0
  6
Continuous
 62
     2
100
AcDbLine
 10
88.44738967375756
 20
322.4191847631496
 30
0.0
 11
88.44738967375756
 21
319.3653752393384
 31
0.0
  0
LINE
  5
3BF
102
{ACAD_REACTORS
330
484
330
485
102
}
330
71
100
AcDbEntity
  8
0
  6
Continuous
 62
     2
100
AcDbLine
 10
87.20688526350466
 20
322.4191847631496
 30
0.0
 11
88.44738967375756
 21
322.4191847631496
 31
0.0
  0
LINE
  5
3C0
102
{ACAD_REACTORS
330
482
330
483
102
}
330
71
100
AcDbEntity
  8
0
  6
Continuous
 62
     2
100
AcDbLine
 10
90.66598409978835
 20
320.1531070246321
 30
0.0
 11
91.36257503785384
 21
319.3653752393384
 31
0.0
  0
LINE
  5
3C1
102
{ACAD_REACTORS
330
482
330
483
102
}
330
71
100
AcDbEntity
  8
0
  6
Continuous
 62
     2
100
AcDbLine
 10
91.36257503785384
 20
319.3653752393384
 30
0.0
 11
92.76529925560214
 21
319.3653752393384
 31
0.0
  0
LINE
  5
3C2
102
{ACAD_REACTORS
330
482
330
483
102
}
330
71
100
AcDbEntity
  8
0
  6
Continuous
 62
     2
100
AcDbLine
 10
91.36734620866184
 20
320.9462342331134
 30
0.0
 11
92.76529925560214
 21
319.3653752393384
 31
0.0
  0
LINE
  5
3C3
102
{ACAD_REACTORS
330
482
330
483
102
}
330
71
100
AcDbEntity
  8
0
  6
Continuous
 62
     2
100
AcDbLine
 10
91.36734620866184
 20
320.9462342331134
 30
0.0
 11
92.66987583942836
 21
322.4191847631496
 31
0.0
  0
LINE
  5
3C4
102
{ACAD_REACTORS
330
482
330
483
102
}
330
71
100
AcDbEntity
  8
0
  6
Continuous
 62
     2
100
AcDbLine
 10
90.66598409978835
 20
321.739361441594
 30
0.0
 11
91.26715162168114
 21
322.4191847631496
 31
0.0
  0
LINE
  5
3C5
102
{ACAD_REACTORS
330
482
330
483
102
}
330
71
100
AcDbEntity
  8
0
  6
Continuous
 62
     2
100
AcDbLine
 10
90.06481657789655
 20
322.4191847631496
 30
0.0
 11
90.66598409978835
 21
321.739361441594
 31
0.0
  0
LINE
  5
3C6
102
{ACAD_REACTORS
330
482
330
483
102
}
330
71
100
AcDbEntity
  8
0
  6
Continuous
 62
     2
100
AcDbLine
 10
90.06481657789655
 20
322.4191847631496
 30
0.0
 11
88.66209236014726
 21
322.4191847631496
 31
0.0
  0
LINE
  5
3C7
102
{ACAD_REACTORS
330
478
330
479
102
}
330
71
100
AcDbEntity
  8
0
  6
Continuous
 62
     2
100
AcDbLine
 10
90.76140751596105
 20
316.0061847631641
 30
0.0
 11
91.95420021812876
 21
316.0061847631641
 31
0.0
  0
LINE
  5
3C8
102
{ACAD_REACTORS
330
478
330
479
102
}
330
71
100
AcDbEntity
  8
0
  6
Continuous
 62
     2
100
AcDbLine
 10
91.95420021812876
 20
316.0061847631641
 30
0.0
 11
91.95420021812876
 21
318.2747289808516
 31
0.0
  0
LINE
  5
3C9
102
{ACAD_REACTORS
330
478
330
479
102
}
330
71
100
AcDbEntity
  8
0
  6
Continuous
 62
     2
100
AcDbLine
 10
91.95420021812876
 20
318.2747289808516
 30
0.0
 11
92.76529925560214
 21
318.2747289808516
 31
0.0
  0
LINE
  5
3CA
102
{ACAD_REACTORS
330
478
330
479
102
}
330
71
100
AcDbEntity
  8
0
  6
Continuous
 62
     2
100
AcDbLine
 10
92.76529925560214
 20
318.2747289808516
 30
0.0
 11
92.76529925560214
 21
319.0599942869752
 31
0.0
  0
LINE
  5
3CB
102
{ACAD_REACTORS
330
478
330
479
102
}
330
71
100
AcDbEntity
  8
0
  6
Continuous
 62
     2
100
AcDbLine
 10
89.38035373697346
 20
319.0599942869746
 30
0.0
 11
92.76529925560214
 21
319.0599942869752
 31
0.0
  0
LINE
  5
3CC
102
{ACAD_REACTORS
330
478
330
479
102
}
330
71
100
AcDbEntity
  8
0
  6
Continuous
 62
     2
100
AcDbLine
 10
90.76140751596105
 20
318.2747289808516
 30
0.0
 11
90.76140751596105
 21
316.0061847631641
 31
0.0
  0
LINE
  5
3CD
102
{ACAD_REACTORS
330
47A
330
47B
102
}
330
71
100
AcDbEntity
  8
0
  6
Continuous
 62
     2
100
AcDbLine
 10
68.13192108048185
 20
317.9850649127286
 30
0.0
 11
68.13192108048185
 21
318.5669163194236
 31
0.0
  0
LINE
  5
3CE
102
{ACAD_REACTORS
330
47A
330
47B
102
}
330
71
100
AcDbEntity
  8
0
  6
Continuous
 62
     2
100
AcDbLine
 10
68.13192108048185
 20
320.7851995193599
 30
0.0
 11
68.13192108048185
 21
321.3907348078667
 31
0.0
  0
LINE
  5
3CF
330
71
100
AcDbEntity
  8
1
  6
Continuous
 62
     6
100
AcDbLine
 10
46.66209966508507
 20
308.7126847631478
 30
0.0
 11
60.61729513833504
 21
308.7126847631477
 31
0.0
  0
LINE
  5
3D0
330
71
100
AcDbEntity
  8
1
  6
Continuous
 62
     6
100
AcDbLine
 10
-3.33790033491516
 20
308.7126847631478
 30
0.0
 11
-8.38270486166493
 21
308.7126847631478
 31
0.0
  0
LINE
  5
3D1
330
71
100
AcDbEntity
  8
1
  6
Continuous
 62
     6
100
AcDbLine
 10
146.662099665085
 20
308.7126847631478
 30
0.0
 11
190.1620996650851
 21
308.7126847631478
 31
0.0
  0
LINE
  5
3D2
330
71
100
AcDbEntity
  8
1
  6
Continuous
 62
     6
100
AcDbLine
 10
96.66209966508504
 20
308.7126847631478
 30
0.0
 11
78.81729513833506
 21
308.7126847631478
 31
0.0
  0
LINE
  5
3D3
330
71
100
AcDbEntity
  8
1
  6
Continuous
 62
     2
100
AcDbLine
 10
190.1620996650851
 20
308.7126847631478
 30
0.0
 11
195.162099665084
 21
308.7126847631478
 31
0.0
  0
LINE
  5
3D4
330
71
100
AcDbEntity
  8
1
  6
Continuous
 62
     2
100
AcDbLine
 10
190.1620996650851
 20
308.7126847631478
 30
0.0
 11
190.1620996650851
 21
303.7126847631477
 31
0.0
  0
LINE
  5
3D5
330
71
100
AcDbEntity
  8
1
  6
Continuous
 62
     6
100
AcDbLine
 10
60.61729513833504
 20
325.7126847631478
 30
0.0
 11
97.01729513833496
 21
325.7126847631478
 31
0.0
  0
LINE
  5
3D6
330
71
100
AcDbEntity
  8
1
  6
Continuous
 62
     2
100
AcDbLine
 10
195.162099665084
 20
303.7126847631477
 30
0.0
 11
195.162099665084
 21
308.7126847631478
 31
0.0
  0
LINE
  5
3D7
330
71
100
AcDbEntity
  8
1
  6
Continuous
 62
     2
100
AcDbLine
 10
195.162099665084
 20
303.7126847631477
 30
0.0
 11
190.1620996650851
 21
303.7126847631477
 31
0.0
  0
LINE
  5
3D8
330
71
100
AcDbEntity
  8
1
  6
Continuous
 62
     2
100
AcDbLine
 10
190.1620996650851
 20
303.7126847631477
 30
0.0
 11
146.662099665085
 21
303.7126847631477
 31
0.0
  0
LINE
  5
3D9
330
71
100
AcDbEntity
  8
1
  6
Continuous
 62
     6
100
AcDbLine
 10
190.1620996650867
 20
325.7126847631478
 30
0.0
 11
190.162099665086
 21
358.7126847631479
 31
0.0
  0
LINE
  5
3DA
330
71
100
AcDbEntity
  8
1
  6
Continuous
 62
     2
100
AcDbLine
 10
195.162099665084
 20
513.7126847631478
 30
0.0
 11
46.66209966508507
 21
513.7126847631478
 31
0.0
  0
LINE
  5
3DB
330
71
100
AcDbEntity
  8
1
  6
Continuous
 62
     6
100
AcDbLine
 10
190.162099665084
 20
493.7126847631478
 30
0.0
 11
-96.83790033491402
 21
493.7126847631478
 31
0.0
  0
LINE
  5
3DC
330
71
100
AcDbEntity
  8
1
  6
Continuous
 62
     2
100
AcDbLine
 10
190.162099665086
 20
358.7126847631479
 30
0.0
 11
195.162099665084
 21
358.7126847631479
 31
0.0
  0
LINE
  5
3DD
330
71
100
AcDbEntity
  8
1
  6
Continuous
 62
     6
100
AcDbLine
 10
190.162099665086
 20
358.7126847631479
 30
0.0
 11
190.1620996650855
 21
408.7126847631477
 31
0.0
  0
LINE
  5
3DE
330
71
100
AcDbEntity
  8
1
  6
Continuous
 62
     2
100
AcDbLine
 10
195.162099665084
 20
358.7126847631479
 30
0.0
 11
195.162099665084
 21
408.7126847631477
 31
0.0
  0
LINE
  5
3DF
330
71
100
AcDbEntity
  8
1
  6
Continuous
 62
     2
100
AcDbLine
 10
190.1620996650855
 20
408.7126847631477
 30
0.0
 11
195.162099665084
 21
408.7126847631477
 31
0.0
  0
LINE
  5
3E0
330
71
100
AcDbEntity
  8
1
  6
Continuous
 62
     6
100
AcDbLine
 10
190.1620996650855
 20
408.7126847631477
 30
0.0
 11
190.1620996650842
 21
458.7126847631478
 31
0.0
  0
LINE
  5
3E1
330
71
100
AcDbEntity
  8
1
  6
Continuous
 62
     2
100
AcDbLine
 10
195.162099665084
 20
408.7126847631477
 30
0.0
 11
195.162099665084
 21
458.7126847631478
 31
0.0
  0
LINE
  5
3E2
330
71
100
AcDbEntity
  8
1
  6
Continuous
 62
     2
100
AcDbLine
 10
190.1620996650842
 20
458.7126847631478
 30
0.0
 11
195.162099665084
 21
458.7126847631478
 31
0.0
  0
LINE
  5
3E3
330
71
100
AcDbEntity
  8
1
  6
Continuous
 62
     6
100
AcDbLine
 10
190.1620996650842
 20
458.7126847631478
 30
0.0
 11
190.162099665084
 21
493.7126847631478
 31
0.0
  0
LINE
  5
3E4
330
71
100
AcDbEntity
  8
1
  6
Continuous
 62
     2
100
AcDbLine
 10
195.162099665084
 20
458.7126847631478
 30
0.0
 11
195.162099665084
 21
513.7126847631478
 31
0.0
  0
LINE
  5
3E5
330
71
100
AcDbEntity
  8
1
  6
Continuous
 62
     2
100
AcDbLine
 10
195.162099665084
 20
308.7126847631478
 30
0.0
 11
195.162099665084
 21
358.7126847631479
 31
0.0
  0
LINE
  5
3E6
330
71
100
AcDbEntity
  8
1
  6
Continuous
 62
     2
100
AcDbLine
 10
46.66209966508507
 20
513.7126847631478
 30
0.0
 11
-101.837900334914
 21
513.7126847631478
 31
0.0
  0
LINE
  5
3E7
330
71
100
AcDbEntity
  8
1
  6
Continuous
 62
     2
100
AcDbLine
 10
46.66209966508507
 20
513.7126847631478
 30
0.0
 11
46.66209966508507
 21
504.5039929184464
 31
0.0
  0
LINE
  5
3E8
330
71
100
AcDbEntity
  8
1
  6
Continuous
 62
     2
100
AcDbLine
 10
-101.837900334914
 20
303.7126847631477
 30
0.0
 11
-96.83790033491306
 21
303.7126847631477
 31
0.0
  0
LINE
  5
3E9
330
71
100
AcDbEntity
  8
1
  6
Continuous
 62
     2
100
AcDbLine
 10
-101.837900334914
 20
513.7126847631478
 30
0.0
 11
-101.837900334914
 21
458.7126847631478
 31
0.0
  0
LINE
  5
3EA
330
71
100
AcDbEntity
  8
1
  6
Continuous
 62
     6
100
AcDbLine
 10
-96.83790033491402
 20
493.7126847631478
 30
0.0
 11
-96.83790033491397
 21
458.7126847631478
 31
0.0
  0
LINE
  5
3EB
330
71
100
AcDbEntity
  8
1
  6
Continuous
 62
     2
100
AcDbLine
 10
-101.837900334914
 20
458.7126847631478
 30
0.0
 11
-96.83790033491397
 21
458.7126847631478
 31
0.0
  0
LINE
  5
3EC
330
71
100
AcDbEntity
  8
1
  6
Continuous
 62
     2
100
AcDbLine
 10
-101.837900334914
 20
458.7126847631478
 30
0.0
 11
-101.837900334914
 21
408.7126847631477
 31
0.0
  0
LINE
  5
3ED
330
71
100
AcDbEntity
  8
1
  6
Continuous
 62
     6
100
AcDbLine
 10
-96.83790033491397
 20
458.7126847631478
 30
0.0
 11
-96.83790033491346
 21
408.7126847631477
 31
0.0
  0
LINE
  5
3EE
330
71
100
AcDbEntity
  8
1
  6
Continuous
 62
     2
100
AcDbLine
 10
-101.837900334914
 20
408.7126847631477
 30
0.0
 11
-96.83790033491346
 21
408.7126847631477
 31
0.0
  0
LINE
  5
3EF
330
71
100
AcDbEntity
  8
1
  6
Continuous
 62
     2
100
AcDbLine
 10
-101.837900334914
 20
408.7126847631477
 30
0.0
 11
-101.837900334914
 21
358.7126847631479
 31
0.0
  0
LINE
  5
3F0
330
71
100
AcDbEntity
  8
1
  6
Continuous
 62
     6
100
AcDbLine
 10
-96.83790033491346
 20
408.7126847631477
 30
0.0
 11
-96.83790033491323
 21
358.7126847631479
 31
0.0
  0
LINE
  5
3F1
330
71
100
AcDbEntity
  8
1
  6
Continuous
 62
     2
100
AcDbLine
 10
-101.837900334914
 20
358.7126847631479
 30
0.0
 11
-96.83790033491323
 21
358.7126847631479
 31
0.0
  0
LINE
  5
3F2
330
71
100
AcDbEntity
  8
1
  6
Continuous
 62
     2
100
AcDbLine
 10
-101.837900334914
 20
358.7126847631479
 30
0.0
 11
-101.837900334914
 21
308.7126847631478
 31
0.0
  0
LINE
  5
3F3
330
71
100
AcDbEntity
  8
1
  6
Continuous
 62
     6
100
AcDbLine
 10
-96.83790033491323
 20
358.7126847631479
 30
0.0
 11
-96.83790033491306
 21
308.7126847631478
 31
0.0
  0
LINE
  5
3F4
330
71
100
AcDbEntity
  8
1
  6
Continuous
 62
     2
100
AcDbLine
 10
-53.33790033491493
 20
303.7126847631477
 30
0.0
 11
-53.33790033491493
 21
308.7126847631478
 31
0.0
  0
LINE
  5
3F5
330
71
100
AcDbEntity
  8
1
  6
Continuous
 62
     2
100
AcDbLine
 10
-53.33790033491493
 20
303.7126847631477
 30
0.0
 11
-3.33790033491516
 21
303.7126847631477
 31
0.0
  0
LINE
  5
3F6
330
71
100
AcDbEntity
  8
1
  6
Continuous
 62
     2
100
AcDbLine
 10
-3.33790033491516
 20
303.7126847631477
 30
0.0
 11
-3.33790033491516
 21
308.7126847631478
 31
0.0
  0
LINE
  5
3F7
330
71
100
AcDbEntity
  8
1
  6
Continuous
 62
     2
100
AcDbLine
 10
-3.33790033491516
 20
303.7126847631477
 30
0.0
 11
46.66209966508507
 21
303.7126847631477
 31
0.0
  0
LINE
  5
3F8
330
71
100
AcDbEntity
  8
1
  6
Continuous
 62
     2
100
AcDbLine
 10
46.66209966508507
 20
303.7126847631477
 30
0.0
 11
46.66209966508507
 21
308.7126847631478
 31
0.0
  0
LINE
  5
3F9
330
71
100
AcDbEntity
  8
1
  6
Continuous
 62
     2
100
AcDbLine
 10
46.66209966508507
 20
303.7126847631477
 30
0.0
 11
96.66209966508504
 21
303.7126847631477
 31
0.0
  0
LINE
  5
3FA
330
71
100
AcDbEntity
  8
1
  6
Continuous
 62
     2
100
AcDbLine
 10
96.66209966508504
 20
303.7126847631477
 30
0.0
 11
96.66209966508504
 21
308.7126847631478
 31
0.0
  0
LINE
  5
3FB
330
71
100
AcDbEntity
  8
1
  6
Continuous
 62
     2
100
AcDbLine
 10
146.662099665085
 20
303.7126847631477
 30
0.0
 11
146.662099665085
 21
308.7126847631478
 31
0.0
  0
LINE
  5
3FC
330
71
100
AcDbEntity
  8
1
  6
Continuous
 62
     2
100
AcDbLine
 10
146.662099665085
 20
303.7126847631477
 30
0.0
 11
96.66209966508504
 21
303.7126847631477
 31
0.0
  0
LINE
  5
3FD
330
71
100
AcDbEntity
  8
1
  6
Continuous
 62
     2
100
AcDbLine
 10
-96.83790033491306
 20
308.7126847631478
 30
0.0
 11
-96.83790033491306
 21
303.7126847631477
 31
0.0
  0
LINE
  5
3FE
330
71
100
AcDbEntity
  8
1
  6
Continuous
 62
     2
100
AcDbLine
 10
-96.83790033491306
 20
303.7126847631477
 30
0.0
 11
-53.33790033491493
 21
303.7126847631477
 31
0.0
  0
LINE
  5
3FF
330
71
100
AcDbEntity
  8
1
  6
Continuous
 62
     2
100
AcDbLine
 10
-96.83790033491306
 20
308.7126847631478
 30
0.0
 11
-101.837900334914
 21
308.7126847631478
 31
0.0
  0
LINE
  5
400
330
71
100
AcDbEntity
  8
1
  6
Continuous
 62
     2
100
AcDbLine
 10
-101.837900334914
 20
308.7126847631478
 30
0.0
 11
-101.837900334914
 21
303.7126847631477
 31
0.0
  0
LINE
  5
401
330
71
100
AcDbEntity
  8
1
  6
Continuous
 62
     6
100
AcDbLine
 10
190.1620996650851
 20
308.7126847631478
 30
0.0
 11
190.1620996650863
 21
317.2126847631478
 31
0.0
  0
LINE
  5
402
330
71
100
AcDbEntity
  8
1
  6
Continuous
 62
     6
100
AcDbLine
 10
97.01729513833496
 20
308.7126847631477
 30
0.0
 11
146.662099665085
 21
308.7126847631478
 31
0.0
  0
LINE
  5
403
330
71
100
AcDbEntity
  8
1
  6
Continuous
 62
     6
100
AcDbLine
 10
-55.63790033491517
 20
308.7126847631477
 30
0.0
 11
-53.33790033491493
 21
308.7126847631478
 31
0.0
  0
LINE
  5
404
330
71
100
AcDbEntity
  8
1
  6
Continuous
 62
     6
100
AcDbLine
 10
46.66209966508507
 20
308.7126847631478
 30
0.0
 11
-3.33790033491516
 21
308.7126847631478
 31
0.0
  0
LINE
  5
405
330
71
100
AcDbEntity
  8
1
  6
Continuous
 62
     7
100
AcDbLine
 10
60.61729513833504
 20
325.7126847631478
 30
0.0
 11
60.61729513833504
 21
312.9626847631477
 31
0.0
  0
LINE
  5
406
330
71
100
AcDbEntity
  8
1
  6
Continuous
 62
     7
100
AcDbLine
 10
97.01729513833496
 20
325.7126847631478
 30
0.0
 11
97.01729513833496
 21
312.9626847631478
 31
0.0
  0
LINE
  5
407
330
71
100
AcDbEntity
  8
1
  6
Continuous
 62
     6
100
AcDbLine
 10
-55.63790033491517
 20
308.7126847631477
 30
0.0
 11
-61.83790033491317
 21
308.7126847631478
 31
0.0
  0
LINE
  5
408
330
71
100
AcDbEntity
  8
1
  6
Continuous
 62
     6
100
AcDbLine
 10
97.01729513833496
 20
308.7126847631477
 30
0.0
 11
96.66209966508504
 21
308.7126847631478
 31
0.0
  0
LINE
  5
409
330
71
100
AcDbEntity
  8
1
  6
Continuous
 62
     6
100
AcDbLine
 10
190.1620996650867
 20
325.7126847631478
 30
0.0
 11
190.1620996650863
 21
317.2126847631478
 31
0.0
  0
LINE
  5
40A
330
71
100
AcDbEntity
  8
1
  6
Continuous
 62
     6
100
AcDbLine
 10
-61.83790033491317
 20
308.7126847631478
 30
0.0
 11
-96.83790033491306
 21
308.7126847631478
 31
0.0
  0
LINE
  5
40B
330
71
100
AcDbEntity
  8
1
  6
Continuous
 62
     2
100
AcDbLine
 10
64.85395002489764
 20
331.0876847631477
 30
0.0
 11
69.85395002489764
 21
332.3376847631477
 31
0.0
  0
LINE
  5
40C
330
71
100
AcDbEntity
  8
1
  6
Continuous
 62
     2
100
AcDbLine
 10
64.85395002489764
 20
328.5876847631477
 30
0.0
 11
64.85395002489764
 21
331.0876847631477
 31
0.0
  0
LINE
  5
40D
330
71
100
AcDbEntity
  8
1
  6
Continuous
 62
     2
100
AcDbLine
 10
69.85395002489764
 20
327.3376847631477
 30
0.0
 11
64.85395002489764
 21
328.5876847631477
 31
0.0
  0
LINE
  5
40E
330
71
100
AcDbEntity
  8
1
  6
Continuous
 62
     2
100
AcDbLine
 10
69.85395002489764
 20
332.3376847631477
 30
0.0
 11
69.85395002489764
 21
327.3376847631477
 31
0.0
  0
LINE
  5
40F
330
71
100
AcDbEntity
  8
1
  6
Continuous
 62
     7
100
AcDbLine
 10
60.61729513833504
 20
312.9626847631477
 30
0.0
 11
78.81729513833506
 21
312.9626847631478
 31
0.0
  0
LINE
  5
410
330
71
100
AcDbEntity
  8
1
  6
Continuous
 62
     7
100
AcDbLine
 10
60.61729513833504
 20
312.9626847631477
 30
0.0
 11
60.61729513833504
 21
308.7126847631477
 31
0.0
  0
LINE
  5
411
330
71
100
AcDbEntity
  8
1
  6
Continuous
 62
     7
100
AcDbLine
 10
97.01729513833496
 20
312.9626847631478
 30
0.0
 11
97.01729513833496
 21
308.7126847631477
 31
0.0
  0
LINE
  5
412
330
71
100
AcDbEntity
  8
1
  6
Continuous
 62
     7
100
AcDbLine
 10
78.81729513833506
 20
312.9626847631478
 30
0.0
 11
78.81729513833506
 21
308.7126847631478
 31
0.0
  0
LINE
  5
413
330
71
100
AcDbEntity
  8
1
  6
Continuous
 62
     6
100
AcDbLine
 10
78.81729513833506
 20
308.7126847631478
 30
0.0
 11
60.61729513833504
 21
308.7126847631477
 31
0.0
  0
LINE
  5
414
330
71
100
AcDbEntity
  8
1
  6
Continuous
 62
     7
100
AcDbLine
 10
78.81729513833506
 20
312.9626847631478
 30
0.0
 11
97.01729513833496
 21
312.9626847631478
 31
0.0
  0
LINE
  5
415
330
71
100
AcDbEntity
  8
1
  6
Continuous
 62
     6
100
AcDbLine
 10
60.61729513833504
 20
334.2126847631478
 30
0.0
 11
190.1620996650867
 21
334.2126847631478
 31
0.0
  0
ARC
  5
416
102
{ACAD_REACTORS
330
47E
330
47F
102
}
330
71
100
AcDbEntity
  8
0
  6
Continuous
 62
     2
100
AcDbCircle
 10
76.00894313729503
 20
317.5330895250694
 30
0.0
 40
0.7717997786796947
100
AcDbArc
 50
321.8795802028417
 51
38.12041979715494
  0
ARC
  5
417
102
{ACAD_REACTORS
330
47E
330
47F
102
}
330
71
100
AcDbEntity
  8
0
  6
Continuous
 62
     2
100
AcDbCircle
 10
76.20868317364145
 20
317.3763583469494
 30
0.0
 40
0.5179085730137529
100
AcDbArc
 50
218.1204197971956
 51
321.8795802027985
  0
ARC
  5
418
102
{ACAD_REACTORS
330
47E
330
47F
102
}
330
71
100
AcDbEntity
  8
0
  6
Continuous
 62
     2
100
AcDbCircle
 10
76.40842320998755
 20
317.5330895250694
 30
0.0
 40
0.7717997786794808
100
AcDbArc
 50
141.8795802028346
 51
218.1204197971687
  0
ARC
  5
419
102
{ACAD_REACTORS
330
47E
330
47F
102
}
330
71
100
AcDbEntity
  8
0
  6
Continuous
 62
     2
100
AcDbCircle
 10
76.20868317364145
 20
317.6898207031899
 30
0.0
 40
0.5179085730132998
100
AcDbArc
 50
38.12041979714704
 51
141.8795802028588
  0
ARC
  5
41A
102
{ACAD_REACTORS
330
476
330
477
102
}
330
71
100
AcDbEntity
  8
0
  6
Continuous
 62
     2
100
AcDbCircle
 10
73.14666903807756
 20
316.1226231596612
 30
0.0
 40
2.227384008973501
100
AcDbArc
 50
58.06909105004111
 51
71.55192388186745
  0
ARC
  5
41B
102
{ACAD_REACTORS
330
476
330
477
102
}
330
71
100
AcDbEntity
  8
0
  6
Continuous
 62
     2
100
AcDbCircle
 10
73.40839673903633
 20
317.7381609544084
 30
0.0
 40
0.511580060194904
100
AcDbArc
 50
113.3722778881979
 51
151.4785267423044
  0
ARC
  5
41C
102
{ACAD_REACTORS
330
476
330
477
102
}
330
71
100
AcDbEntity
  8
0
  6
Continuous
 62
     2
100
AcDbCircle
 10
73.78575399711664
 20
317.5330895250694
 30
0.0
 40
0.9410597353332545
100
AcDbArc
 50
151.4785267422669
 51
208.5214732577118
  0
ARC
  5
41D
102
{ACAD_REACTORS
330
476
330
477
102
}
330
71
100
AcDbEntity
  8
0
  6
Continuous
 62
     2
100
AcDbCircle
 10
72.98879616298464
 20
320.8457704703258
 30
0.0
 40
4.852596863498279
100
AcDbArc
 50
275.1581447696248
 51
285.9799912583529
  0
ARC
  5
41E
102
{ACAD_REACTORS
330
476
330
477
102
}
330
71
100
AcDbEntity
  8
0
  6
Continuous
 62
     2
100
AcDbCircle
 10
73.27765225772055
 20
317.6458798871042
 30
0.0
 40
1.63969512393938
100
AcDbArc
 50
195.0618917770886
 51
275.1581447696393
  0
ARC
  5
41F
102
{ACAD_REACTORS
330
476
330
477
102
}
330
71
100
AcDbEntity
  8
0
  6
Continuous
 62
     2
100
AcDbCircle
 10
72.85852441425774
 20
317.5330895250694
 30
0.0
 40
1.205656168390944
100
AcDbArc
 50
164.9381082228765
 51
195.0618917770948
  0
ARC
  5
420
102
{ACAD_REACTORS
330
476
330
477
102
}
330
71
100
AcDbEntity
  8
0
  6
Continuous
 62
     2
100
AcDbCircle
 10
73.27765225772055
 20
317.4202991630344
 30
0.0
 40
1.63969512394062
100
AcDbArc
 50
84.84185523036271
 51
164.9381082228826
  0
ARC
  5
421
102
{ACAD_REACTORS
330
47A
330
47B
102
}
330
71
100
AcDbEntity
  8
0
  6
Continuous
 62
     2
100
AcDbCircle
 10
68.44763800355864
 20
318.5669163194236
 30
0.0
 40
0.3157169230765842
100
AcDbArc
 50
115.3740086783474
 51
180.0
  0
ARC
  5
422
102
{ACAD_REACTORS
330
47A
330
47B
102
}
330
71
100
AcDbEntity
  8
0
  6
Continuous
 62
     2
100
AcDbCircle
 10
68.44763800355864
 20
320.7851995193599
 30
0.0
 40
0.315716923076792
100
AcDbArc
 50
180.0
 51
244.6259913216437
  0
ARC
  5
423
102
{ACAD_REACTORS
330
47A
330
47B
102
}
330
71
100
AcDbEntity
  8
0
  6
Continuous
 62
     2
100
AcDbCircle
 10
68.45325413886866
 20
319.6878998602975
 30
0.0
 40
2.018561131933209
100
AcDbArc
 50
269.8110329575858
 51
90.18896704241416
  0
ARC
  5
424
102
{ACAD_REACTORS
330
47A
330
47B
102
}
330
71
100
AcDbEntity
  8
0
  6
Continuous
 62
     2
100
AcDbCircle
 10
68.44763800355864
 20
317.9850649127286
 30
0.0
 40
0.315716923076792
100
AcDbArc
 50
180.0
 51
269.8110329574542
  0
ARC
  5
425
102
{ACAD_REACTORS
330
478
330
479
102
}
330
71
100
AcDbEntity
  8
0
  6
Continuous
 62
     2
100
AcDbCircle
 10
89.51109821828925
 20
317.7381609544084
 30
0.0
 40
0.5115800601944143
100
AcDbArc
 50
109.3371432194853
 51
151.4785267424197
  0
ARC
  5
426
102
{ACAD_REACTORS
330
478
330
479
102
}
330
71
100
AcDbEntity
  8
0
  6
Continuous
 62
     2
100
AcDbCircle
 10
89.51109821828925
 20
317.3280180957308
 30
0.0
 40
0.5115800601959674
100
AcDbArc
 50
208.5214732576754
 51
246.6277221118399
  0
ARC
  5
427
102
{ACAD_REACTORS
330
478
330
479
102
}
330
71
100
AcDbEntity
  8
0
  6
Continuous
 62
     2
100
AcDbCircle
 10
88.96122589351185
 20
317.5330895250694
 30
0.0
 40
1.205656168393002
100
AcDbArc
 50
164.9381082229028
 51
195.0618917770946
  0
ARC
  5
428
102
{ACAD_REACTORS
330
478
330
479
102
}
330
71
100
AcDbEntity
  8
0
  6
Continuous
 62
     2
100
AcDbCircle
 10
89.38035373697346
 20
317.4202991630344
 30
0.0
 40
1.639695123940214
100
AcDbArc
 50
90.0
 51
164.9381082228911
  0
ARC
  5
429
102
{ACAD_REACTORS
330
47C
330
47D
102
}
330
71
100
AcDbEntity
  8
0
  6
Continuous
 62
     2
100
AcDbCircle
 10
79.95335864426974
 20
320.8922800012437
 30
0.0
 40
1.526904761905882
100
AcDbArc
 50
90.0
 51
270.0
  0
ARC
  5
42A
102
{ACAD_REACTORS
330
480
330
481
102
}
330
71
100
AcDbEntity
  8
0
  6
Continuous
 62
     2
100
AcDbCircle
 10
73.21066789904395
 20
321.4032150930384
 30
0.0
 40
0.3528638246710898
100
AcDbArc
 50
270.0
 51
90.0
  0
ARC
  5
42B
102
{ACAD_REACTORS
330
47A
330
47B
102
}
330
71
100
AcDbEntity
  8
0
  6
Continuous
 62
     2
100
AcDbCircle
 10
65.87208931702693
 20
321.3909122845148
 30
0.0
 40
0.3157169230760815
100
AcDbArc
 50
90.0
 51
180.0
  0
ARC
  5
42C
102
{ACAD_REACTORS
330
47A
330
47B
102
}
330
71
100
AcDbEntity
  8
0
  6
Continuous
 62
     2
100
AcDbCircle
 10
67.87050702561154
 20
319.6760579193921
 30
0.0
 40
0.9118975235575889
100
AcDbArc
 50
115.194410648529
 51
244.8055893514878
  0
ARC
  5
42D
102
{ACAD_REACTORS
330
47A
330
47B
102
}
330
71
100
AcDbEntity
  8
0
  6
Continuous
 62
     2
100
AcDbCircle
 10
67.34792257803656
 20
318.5652281733293
 30
0.0
 40
0.315716923076593
100
AcDbArc
 50
0.0
 51
64.80558935146468
  0
ARC
  5
42E
102
{ACAD_REACTORS
330
47A
330
47B
102
}
330
71
100
AcDbEntity
  8
0
  6
Continuous
 62
     2
100
AcDbCircle
 10
65.27819464028045
 20
316.4304293785474
 30
0.0
 40
0.4242446153828041
100
AcDbArc
 50
180.0
 51
270.0
  0
ARC
  5
42F
102
{ACAD_REACTORS
330
47C
330
47D
102
}
330
71
100
AcDbEntity
  8
0
  6
Continuous
 62
     2
100
AcDbCircle
 10
80.16963065443494
 20
321.0490111793641
 30
0.0
 40
0.5179085730135967
100
AcDbArc
 50
38.12041979715324
 51
141.879580202839
  0
ARC
  5
430
102
{ACAD_REACTORS
330
47C
330
47D
102
}
330
71
100
AcDbEntity
  8
0
  6
Continuous
 62
     2
100
AcDbCircle
 10
80.36937069078124
 20
320.8922800012437
 30
0.0
 40
0.7717997786796724
100
AcDbArc
 50
141.8795802028404
 51
218.1204197971596
  0
ARC
  5
431
102
{ACAD_REACTORS
330
47E
330
47F
102
}
330
71
100
AcDbEntity
  8
0
  6
Continuous
 62
     2
100
AcDbCircle
 10
76.20868317364145
 20
318.0716645353726
 30
0.0
 40
2.065479772208382
100
AcDbArc
 50
242.4518518243383
 51
297.5481481756889
  0
ARC
  5
432
102
{ACAD_REACTORS
330
47E
330
47F
102
}
330
71
100
AcDbEntity
  8
0
  6
Continuous
 62
     2
100
AcDbCircle
 10
76.20868317364145
 20
316.9945145147666
 30
0.0
 40
2.065479772208593
100
AcDbArc
 50
62.45185182430674
 51
117.548148175666
  0
ARC
  5
433
102
{ACAD_REACTORS
330
47E
330
47F
102
}
330
71
100
AcDbEntity
  8
0
  6
Continuous
 62
     2
100
AcDbCircle
 10
75.92774328180815
 20
317.5330895250694
 30
0.0
 40
1.458034083651515
100
AcDbArc
 50
117.5481481756619
 51
242.451851824337
  0
ARC
  5
434
102
{ACAD_REACTORS
330
47E
330
47F
102
}
330
71
100
AcDbEntity
  8
0
  6
Continuous
 62
     2
100
AcDbCircle
 10
76.48962306547475
 20
317.5330895250694
 30
0.0
 40
1.458034083651977
100
AcDbArc
 50
297.5481481757016
 51
62.45185182429947
  0
ARC
  5
435
102
{ACAD_REACTORS
330
47C
330
47D
102
}
330
71
100
AcDbEntity
  8
0
  6
Continuous
 62
     2
100
AcDbCircle
 10
80.16963065443494
 20
320.7355488231233
 30
0.0
 40
0.5179085730134722
100
AcDbArc
 50
218.120419797156
 51
321.8795802028517
  0
ARC
  5
436
102
{ACAD_REACTORS
330
47C
330
47D
102
}
330
71
100
AcDbEntity
  8
0
  6
Continuous
 62
     2
100
AcDbCircle
 10
79.96989061808875
 20
320.8922800012437
 30
0.0
 40
0.7717997786796724
100
AcDbArc
 50
321.8795802028404
 51
38.12041979715956
  0
ARC
  5
437
102
{ACAD_REACTORS
330
47A
330
47B
102
}
330
71
100
AcDbEntity
  8
0
  6
Continuous
 62
     2
100
AcDbCircle
 10
70.75150673099725
 20
316.4304293785474
 30
0.0
 40
0.4242446153833157
100
AcDbArc
 50
270.0
 51
0.0
  0
ARC
  5
438
102
{ACAD_REACTORS
330
47A
330
47B
102
}
330
71
100
AcDbEntity
  8
0
  6
Continuous
 62
     2
100
AcDbCircle
 10
70.75150673099725
 20
321.9949401477476
 30
0.0
 40
0.4242446153838841
100
AcDbArc
 50
0.0
 51
90.0
  0
ARC
  5
439
102
{ACAD_REACTORS
330
47A
330
47B
102
}
330
71
100
AcDbEntity
  8
0
  6
Continuous
 62
     2
100
AcDbCircle
 10
65.27819464028045
 20
321.9949401477476
 30
0.0
 40
0.4242446153837705
100
AcDbArc
 50
90.0
 51
180.0
  0
ARC
  5
43A
102
{ACAD_REACTORS
330
47A
330
47B
102
}
330
71
100
AcDbEntity
  8
0
  6
Continuous
 62
     2
100
AcDbCircle
 10
67.34792257803656
 20
317.0344572417977
 30
0.0
 40
0.3157169230767067
100
AcDbArc
 50
270.0
 51
0.0
  0
ARC
  5
43B
102
{ACAD_REACTORS
330
47A
330
47B
102
}
330
71
100
AcDbEntity
  8
0
  6
Continuous
 62
     2
100
AcDbCircle
 10
67.34792257803656
 20
320.7868876654543
 30
0.0
 40
0.3157169230761203
100
AcDbArc
 50
295.1944106485397
 51
0.0
  0
ARC
  5
43C
102
{ACAD_REACTORS
330
47A
330
47B
102
}
330
71
100
AcDbEntity
  8
0
  6
Continuous
 62
     2
100
AcDbCircle
 10
67.34792257803656
 20
321.3909122845148
 30
0.0
 40
0.315716923076593
100
AcDbArc
 50
0.0
 51
90.0
  0
ARC
  5
43D
102
{ACAD_REACTORS
330
47A
330
47B
102
}
330
71
100
AcDbEntity
  8
0
  6
Continuous
 62
     2
100
AcDbCircle
 10
65.87208931702693
 20
317.0344572417977
 30
0.0
 40
0.3157169230756836
100
AcDbArc
 50
180.0
 51
270.0
  0
ARC
  5
43E
102
{ACAD_REACTORS
330
480
330
481
102
}
330
71
100
AcDbEntity
  8
0
  6
Continuous
 62
     2
100
AcDbCircle
 10
73.65214042528234
 20
321.3638191218159
 30
0.0
 40
1.055365641333651
100
AcDbArc
 50
270.0
 51
90.0
  0
ARC
  5
43F
102
{ACAD_REACTORS
330
478
330
479
102
}
330
71
100
AcDbEntity
  8
0
  6
Continuous
 62
     2
100
AcDbCircle
 10
89.38035373697346
 20
317.6458798871042
 30
0.0
 40
1.639695123940434
100
AcDbArc
 50
195.0618917770993
 51
275.1581447696764
  0
ARC
  5
440
102
{ACAD_REACTORS
330
478
330
479
102
}
330
71
100
AcDbEntity
  8
0
  6
Continuous
 62
     2
100
AcDbCircle
 10
89.09149764223764
 20
320.8457704703258
 30
0.0
 40
4.852596863498825
100
AcDbArc
 50
275.1581447696364
 51
285.9799912583384
  0
ARC
  5
441
102
{ACAD_REACTORS
330
478
330
479
102
}
330
71
100
AcDbEntity
  8
0
  6
Continuous
 62
     2
100
AcDbCircle
 10
89.24937051733045
 20
318.9435558904775
 30
0.0
 40
2.227384008972773
100
AcDbArc
 50
288.4480761181333
 51
301.9309089499394
  0
ARC
  5
442
102
{ACAD_REACTORS
330
478
330
479
102
}
330
71
100
AcDbEntity
  8
0
  6
Continuous
 62
     2
100
AcDbCircle
 10
89.66753825099235
 20
317.6900101144408
 30
0.0
 40
0.9059297849851757
100
AcDbArc
 50
246.6277221118154
 51
288.448076118084
  0
ARC
  5
443
102
{ACAD_REACTORS
330
478
330
479
102
}
330
71
100
AcDbEntity
  8
0
  6
Continuous
 62
     2
100
AcDbCircle
 10
89.88845547637064
 20
317.5330895250694
 30
0.0
 40
0.941059735334906
100
AcDbArc
 50
151.4785267423609
 51
208.5214732576695
  0
ARC
  5
444
102
{ACAD_REACTORS
330
478
330
479
102
}
330
71
100
AcDbEntity
  8
0
  6
Continuous
 62
     2
100
AcDbCircle
 10
89.65776821639295
 20
317.3202059740255
 30
0.0
 40
0.9545230068260935
100
AcDbArc
 50
90.0
 51
109.337143219432
  0
ARC
  5
445
102
{ACAD_REACTORS
330
47A
330
47B
102
}
330
71
100
AcDbEntity
  8
0
  6
Continuous
 62
     2
100
AcDbCircle
 10
68.44763800355864
 20
321.3907348078667
 30
0.0
 40
0.3157169230759573
100
AcDbArc
 50
90.188967042546
 51
180.0
  0
ARC
  5
446
102
{ACAD_REACTORS
330
47A
330
47B
102
}
330
71
100
AcDbEntity
  8
0
  6
Continuous
 62
     2
100
AcDbCircle
 10
67.92159530547076
 20
319.6760579193921
 30
0.0
 40
0.9118481501444847
100
AcDbArc
 50
295.3740086781757
 51
64.62599132180748
  0
ARC
  5
447
102
{ACAD_REACTORS
330
476
330
477
102
}
330
71
100
AcDbEntity
  8
0
  6
Continuous
 62
     2
100
AcDbCircle
 10
73.14666903807756
 20
318.943555890478
 30
0.0
 40
2.22738400897271
100
AcDbArc
 50
288.448076118133
 51
301.9309089499604
  0
ARC
  5
448
102
{ACAD_REACTORS
330
476
330
477
102
}
330
71
100
AcDbEntity
  8
0
  6
Continuous
 62
     2
100
AcDbCircle
 10
73.56483677173836
 20
317.6900101144408
 30
0.0
 40
0.9059297849848149
100
AcDbArc
 50
246.6277221118682
 51
288.4480761181601
  0
ARC
  5
449
102
{ACAD_REACTORS
330
476
330
477
102
}
330
71
100
AcDbEntity
  8
0
  6
Continuous
 62
     2
100
AcDbCircle
 10
73.40839673903633
 20
317.3280180957308
 30
0.0
 40
0.5115800601948034
100
AcDbArc
 50
208.5214732576956
 51
246.6277221118223
  0
ARC
  5
44A
102
{ACAD_REACTORS
330
476
330
477
102
}
330
71
100
AcDbEntity
  8
0
  6
Continuous
 62
     2
100
AcDbCircle
 10
73.56483677173836
 20
317.3761689356978
 30
0.0
 40
0.9059297849853228
100
AcDbArc
 50
71.55192388185348
 51
113.372277888129
  0
ARC
  5
44B
102
{ACAD_REACTORS
330
476
330
477
102
}
330
71
100
AcDbEntity
  8
0
  6
Continuous
 62
     2
100
AcDbCircle
 10
72.98879616298464
 20
314.2204085798135
 30
0.0
 40
4.852596863497931
100
AcDbArc
 50
74.02000874164692
 51
84.84185523037502
  0
CIRCLE
  5
44C
102
{ACAD_REACTORS
330
47A
330
47B
102
}
330
71
100
AcDbEntity
  8
0
  6
Continuous
 62
     2
100
AcDbCircle
 10
67.89778029079795
 20
319.6760579193921
 30
0.0
 40
0.4709789327785074
  0
CIRCLE
  5
44D
330
71
100
AcDbEntity
  8
1
  6
Continuous
 62
     2
100
AcDbCircle
 10
73.35395002489764
 20
329.8376847631477
 30
0.0
 40
1.249999999999915
  0
CIRCLE
  5
44E
330
71
100
AcDbEntity
  8
1
  6
Continuous
 62
     2
100
AcDbCircle
 10
73.35395002489764
 20
329.8376847631477
 30
0.0
 40
2.5
  0
TEXT
  5
44F
330
71
100
AcDbEntity
  8
1
 62
     7
100
AcDbText
 10
115.9908428603488
 20
327.0126847631477
 30
0.0
 40
2.5
  1
/
 41
0.9
  7
CONVERTER_11
100
AcDbText
  0
TEXT
  5
451
330
71
100
AcDbEntity
  8
1
 62
     7
100
AcDbText
 10
118.1472073573908
 20
327.0126847631477
 30
0.0
 40
2.5
  1
00
 41
0.81
  7
CONVERTER_12
100
AcDbText
  0
TEXT
  5
452
330
71
100
AcDbEntity
  8
1
 62
     3
100
AcDbText
 10
155.7436913834079
 20
327.0126847631477
 30
0.0
 40
2.5
  1
26.04.2018
 41
0.81
  7
CONVERTER_12
100
AcDbText
  0
MTEXT
  5
453
330
71
100
AcDbEntity
  8
1
 62
     2
100
AcDbMText
 10
155.7436913834079
 20
333.2126847631477
 30
0.0
 40
1.8
 41
0.0
 71
     1
 72
     1
  1
date
  7
CONVERTER_11
 73
     1
 44
1.32052821128451
  0
MTEXT
  5
454
330
71
100
AcDbEntity
  8
1
 62
     2
100
AcDbMText
 10
125.9172951383351
 20
324.7126847631477
 30
0.0
 40
1.8
 41
0.0
 71
     1
 72
     1
  1
document-type
  7
CONVERTER_11
 73
     1
 44
1.20048019207683
  0
TEXT
  5
455
330
71
100
AcDbEntity
  8
1
 62
     3
100
AcDbText
 10
125.9172951383351
 20
318.5126847631477
 30
0.0
 40
2.5
  1
TECDOC 2D_Productdrawing
 41
0.81
  7
CONVERTER_12
100
AcDbText
  0
MTEXT
  5
457
330
71
100
AcDbEntity
  8
1
 62
     2
100
AcDbMText
 10
98.11729513833504
 20
333.2126847631478
 30
0.0
 40
1.8
 41
0.0
 71
     1
 72
     1
  1
document-No. / RI
  7
CONVERTER_13
 73
     1
 44
1.32052821128451
  0
TEXT
  5
458
330
71
100
AcDbEntity
  8
1
 62
     7
100
AcDbText
 10
98.11729513833504
 20
327.0126847631477
 30
0.0
 40
2.5
  1
01138582
 41
0.81
  7
CONVERTER_12
100
AcDbText
  0
MTEXT
  5
45A
330
71
100
AcDbEntity
  8
1
 62
     3
100
AcDbMText
 10
185.7028955242474
 20
327.0126847631478
 30
0.0
 40
2.5
 41
0.0
 71
     8
 72
     1
  1
1:1
  7
CONVERTER_14
 73
     1
 44
1.32052821128451
  0
MTEXT
  5
45B
330
71
100
AcDbEntity
  8
1
 62
     2
100
AcDbMText
 10
182.3436913834078
 20
333.2126847631478
 30
0.0
 40
1.8
 41
0.0
 71
     1
 72
     1
  1
scale
  7
CONVERTER_11
 73
     1
 44
1.20048019207683
  0
MTEXT
  5
45C
330
71
100
AcDbEntity
  8
1
 62
     2
100
AcDbMText
 10
98.11729513833504
 20
324.7126847631478
 30
0.0
 40
1.8
 41
0.0
 71
     1
 72
     1
  1
ident.-No.
  7
CONVERTER_11
 73
     1
 44
1.20048019207683
  0
TEXT
  5
45D
330
71
100
AcDbEntity
  8
1
 62
     7
100
AcDbText
 10
98.51729513833476
 20
318.5126847631477
 30
0.0
 40
2.5
  1
3037863
 41
0.81
  7
CONVERTER_12
100
AcDbText
  0
MTEXT
  5
45E
330
71
100
AcDbEntity
  8
1
 62
     2
100
AcDbMText
 10
26.17928041328753
 20
321.4626847631477
 30
0.0
 40
2.0
 41
0.0
 71
     5
 72
     1
  1
General Information\P- Simplified representation\P- Document excluded from change process\P- Linear dimensions [mm]
  7
CONVERTER_11
 73
     1
 44
1.20048019207683
  0
MTEXT
  5
45F
330
71
100
AcDbEntity
  8
1
 62
     7
100
AcDbMText
 10
192.662099665084
 20
383.7126847631497
 30
0.0
 40
3.5
 41
0.0
 71
     5
 72
     1
  1
C
  7
CONVERTER_11
 73
     1
 44
1.20048019207683
  0
MTEXT
  5
460
330
71
100
AcDbEntity
  8
1
 62
     7
100
AcDbMText
 10
192.662099665084
 20
486.2126847631478
 30
0.0
 40
3.5
 41
0.0
 71
     5
 72
     1
  1
A
  7
CONVERTER_11
 73
     1
 44
1.20048019207683
  0
MTEXT
  5
461
330
71
100
AcDbEntity
  8
1
 62
     7
100
AcDbMText
 10
192.662099665084
 20
433.7126847631497
 30
0.0
 40
3.5
 41
0.0
 71
     5
 72
     1
  1
B
  7
CONVERTER_11
 73
     1
 44
1.20048019207683
  0
MTEXT
  5
462
330
71
100
AcDbEntity
  8
1
 62
     7
100
AcDbMText
 10
192.662099665084
 20
331.2126847631478
 30
0.0
 40
3.5
 41
0.0
 71
     5
 72
     1
  1
D
  7
CONVERTER_11
 73
     1
 44
1.20048019207683
  0
MTEXT
  5
463
330
71
100
AcDbEntity
  8
1
 62
     7
100
AcDbMText
 10
-77.58790033491454
 20
306.2126847631477
 30
0.0
 40
3.5
 41
0.0
 71
     5
 72
     1
  1
1
  7
CONVERTER_11
 73
     1
 44
1.20048019207683
  0
MTEXT
  5
464
330
71
100
AcDbEntity
  8
1
 62
     7
100
AcDbMText
 10
-28.33790033491493
 20
306.2126847631477
 30
0.0
 40
3.5
 41
0.0
 71
     5
 72
     1
  1
2
  7
CONVERTER_11
 73
     1
 44
1.20048019207683
  0
MTEXT
  5
465
330
71
100
AcDbEntity
  8
1
 62
     7
100
AcDbMText
 10
21.66209966508507
 20
306.2126847631477
 30
0.0
 40
3.5
 41
0.0
 71
     5
 72
     1
  1
3
  7
CONVERTER_11
 73
     1
 44
1.20048019207683
  0
MTEXT
  5
466
330
71
100
AcDbEntity
  8
1
 62
     7
100
AcDbMText
 10
71.66209966508495
 20
306.2126847631477
 30
0.0
 40
3.5
 41
0.0
 71
     5
 72
     1
  1
4
  7
CONVERTER_11
 73
     1
 44
1.20048019207683
  0
MTEXT
  5
467
330
71
100
AcDbEntity
  8
1
 62
     7
100
AcDbMText
 10
121.662099665085
 20
306.2126847631477
 30
0.0
 40
3.5
 41
0.0
 71
     5
 72
     1
  1
5
  7
CONVERTER_11
 73
     1
 44
1.20048019207683
  0
MTEXT
  5
468
330
71
100
AcDbEntity
  8
1
 62
     7
100
AcDbMText
 10
170.9120996650842
 20
306.2126847631477
 30
0.0
 40
3.5
 41
0.0
 71
     5
 72
     1
  1
6
  7
CONVERTER_11
 73
     1
 44
1.20048019207683
  0
MTEXT
  5
469
330
71
100
AcDbEntity
  8
1
 62
     7
100
AcDbMText
 10
-99.33790033491402
 20
486.2126847631478
 30
0.0
 40
3.5
 41
0.0
 71
     5
 72
     1
  1
A
  7
CONVERTER_11
 73
     1
 44
1.20048019207683
  0
MTEXT
  5
46A
330
71
100
AcDbEntity
  8
1
 62
     7
100
AcDbMText
 10
-99.33790033491402
 20
433.7126847631478
 30
0.0
 40
3.5
 41
0.0
 71
     5
 72
     1
  1
B
  7
CONVERTER_11
 73
     1
 44
1.20048019207683
  0
MTEXT
  5
46B
330
71
100
AcDbEntity
  8
1
 62
     7
100
AcDbMText
 10
-99.33790033491402
 20
383.7126847631478
 30
0.0
 40
3.5
 41
0.0
 71
     5
 72
     1
  1
C
  7
CONVERTER_11
 73
     1
 44
1.20048019207683
  0
MTEXT
  5
46C
330
71
100
AcDbEntity
  8
1
 62
     7
100
AcDbMText
 10
-99.33790033491402
 20
331.2126847631478
 30
0.0
 40
3.5
 41
0.0
 71
     5
 72
     1
  1
D
  7
CONVERTER_11
 73
     1
 44
1.20048019207683
  0
MTEXT
  5
46D
330
71
100
AcDbEntity
  8
1
 62
     3
100
AcDbMText
 10
86.81729513833494
 20
329.8376847631478
 30
0.0
 40
2.5
 41
0.0
 71
     5
 72
     1
  1
DIN A4
  7
CONVERTER_11
 73
     1
 44
1.20048019207683
  0
MTEXT
  5
46E
330
71
100
AcDbEntity
  8
1
 62
     2
100
AcDbMText
 10
98.01729513833496
 20
316.2126847631478
 30
0.0
 40
1.8
 41
0.0
 71
     1
 72
     1
  1
description
  7
CONVERTER_11
 73
     1
 44
1.20048019207683
  0
MTEXT
  5
46F
330
71
100
AcDbEntity
  8
1
 62
     7
100
AcDbMText
 10
143.5896974017105
 20
311.962684763148
 30
0.0
 40
3.0
 41
0.0
 71
     5
 72
     1
  1
ST 4-FSI/C RD
  7
CONVERTER_12
 73
     1
 44
1.20048019207683
  0
TEXT
  5
470
330
71
100
AcDbEntity
  8
1
 62
     2
100
AcDbText
 10
85.05260394814854
 20
309.9626847631477
 30
0.0
 40
1.8
  1
1
 41
0.9
  7
CONVERTER_11
100
AcDbText
  0
TEXT
  5
471
330
71
100
AcDbEntity
  8
1
 62
     2
100
AcDbText
 10
70.26356010867704
 20
309.9134361093458
 30
0.0
 40
1.8
  1
1
 41
0.9
  7
CONVERTER_11
100
AcDbText
  0
TEXT
  5
472
330
71
100
AcDbEntity
  8
1
 62
     2
100
AcDbText
 10
61.61729513833504
 20
309.9536675481561
 30
0.0
 40
1.8
  1
page
 41
0.9
  7
CONVERTER_11
100
AcDbText
  0
TEXT
  5
473
330
71
100
AcDbEntity
  8
1
 62
     2
100
AcDbText
 10
79.81729513833486
 20
309.9536675481562
 30
0.0
 40
1.8
  1
of
 41
0.9
  7
CONVERTER_11
100
AcDbText
  0
MTEXT
  5
474
330
71
100
AcDbEntity
  8
1
 62
     3
100
AcDbMText
 10
86.02027728994494
 20
495.5039929184466
 30
0.0
 40
1.8
 41
0.0
 71
     7
 72
     1
  3
Transfer or duplication of this document as well as the utilisation or\Pcommunication of its content are not permitted unless express consent\Pis granted. Violations give rise to claims for damages. All rights reserved\Pin case of patent, utility mo
  1
del or design patent registrations.
  7
CONVERTER_11
 73
     1
 44
0.99639855942377
  0
MTEXT
  5
475
330
71
100
AcDbEntity
  8
1
 62
     3
100
AcDbMText
 10
-96.83283254884316
 20
495.5039929184466
 30
0.0
 40
1.8
 41
0.0
 71
     7
 72
     1
  3
Weitergabe sowie Vervielf\U+00e4ltigung dieses Dokuments, Verwertung und \PMitteilung seines Inhalts sind verboten, soweit nicht ausdr\U+00fccklich gestattet. \PZuwiderhandlungen verpflichten zu Schadenersatz. Alle Rechte f\U+00fcr den Fall\Pder Pat
  1
ent-, Gebrauchsmuster- oder Designeintragung vorbehalten.
  7
CONVERTER_11
 73
     1
 44
0.99639855942377
  0
HATCH
  5
476
330
71
100
AcDbEntity
  8
1
  6
Continuous
 62
     2
100
AcDbHatch
 10
0.0
 20
0.0
 30
0.0
210
0.0
220
0.0
230
1.0
  2
_USER
 70
     0
 71
     1
 91
        1
 92
        1
 93
       14
 72
     2
 10
72.85852441425774
 20
317.5330895250694
 40
1.205656168390944
 50
164.9381082228765
 51
195.0618917770948
 73
     1
 72
     2
 10
73.27765225772055
 20
317.6458798871042
 40
1.63969512393938
 50
195.0618917770886
 51
275.1581447696393
 73
     1
 72
     2
 10
72.98879616298464
 20
320.8457704703258
 40
4.852596863498279
 50
275.1581447696248
 51
285.9799912583529
 73
     1
 72
     1
 10
74.32472408010244
 20
316.180688164525
 11
74.32472408010244
 21
317.0532051713282
 72
     2
 10
73.14666903807756
 20
318.943555890478
 40
2.22738400897271
 50
58.06909105003953
 51
71.55192388186698
 73
     0
 72
     2
 10
73.56483677173836
 20
317.6900101144408
 40
0.9059297849848149
 50
71.55192388183985
 51
113.3722778881318
 73
     0
 72
     2
 10
73.40839673903633
 20
317.3280180957308
 40
0.5115800601948034
 50
113.3722778881777
 51
151.4785267423044
 73
     0
 72
     2
 10
73.78575399711664
 20
317.5330895250694
 40
0.9410597353332545
 50
151.4785267422882
 51
208.5214732577331
 73
     0
 72
     2
 10
73.40839673903633
 20
317.7381609544084
 40
0.511580060194904
 50
208.5214732576956
 51
246.6277221118021
 73
     0
 72
     2
 10
73.56483677173836
 20
317.3761689356978
 40
0.9059297849853228
 50
246.627722111871
 51
288.4480761181465
 73
     0
 72
     2
 10
73.14666903807756
 20
316.1226231596612
 40
2.227384008973501
 50
288.4480761181326
 51
301.9309089499589
 73
     0
 72
     1
 10
74.32472408010244
 20
318.0129738788111
 11
74.32472408010244
 21
318.8854908856143
 72
     2
 10
72.98879616298464
 20
314.2204085798135
 40
4.852596863497931
 50
74.02000874164692
 51
84.84185523037502
 73
     1
 72
     2
 10
73.27765225772055
 20
317.4202991630344
 40
1.63969512394062
 50
84.84185523036271
 51
164.9381082228826
 73
     1
 97
       14
330
44B
330
364
330
41A
330
44A
330
41B
330
41C
330
449
330
448
330
447
330
365
330
41D
330
41E
330
41F
330
420
 75
     1
 76
     0
 52
45.0
 41
0.1
 77
     0
 78
     1
 53
45.0
 43
0.0
 44
0.0
 45
-0.0707106781186548
 46
0.0707106781186548
 79
     0
 98
        1
 10
0.0
 20
0.0
  0
HATCH
  5
477
330
71
100
AcDbEntity
  8
1
  6
Continuous
 62
     2
100
AcDbHatch
 10
0.0
 20
0.0
 30
0.0
210
0.0
220
0.0
230
1.0
  2
_USER
 70
     0
 71
     1
 91
        1
 92
        1
 93
       14
 72
     2
 10
72.85852441425774
 20
317.5330895250694
 40
1.205656168390944
 50
164.9381082228765
 51
195.0618917770948
 73
     1
 72
     2
 10
73.27765225772055
 20
317.6458798871042
 40
1.63969512393938
 50
195.0618917770886
 51
275.1581447696393
 73
     1
 72
     2
 10
72.98879616298464
 20
320.8457704703258
 40
4.852596863498279
 50
275.1581447696248
 51
285.9799912583529
 73
     1
 72
     1
 10
74.32472408010244
 20
316.180688164525
 11
74.32472408010244
 21
317.0532051713282
 72
     2
 10
73.14666903807756
 20
318.943555890478
 40
2.22738400897271
 50
58.06909105003953
 51
71.55192388186698
 73
     0
 72
     2
 10
73.56483677173836
 20
317.6900101144408
 40
0.9059297849848149
 50
71.55192388183985
 51
113.3722778881318
 73
     0
 72
     2
 10
73.40839673903633
 20
317.3280180957308
 40
0.5115800601948034
 50
113.3722778881777
 51
151.4785267423044
 73
     0
 72
     2
 10
73.78575399711664
 20
317.5330895250694
 40
0.9410597353332545
 50
151.4785267422882
 51
208.5214732577331
 73
     0
 72
     2
 10
73.40839673903633
 20
317.7381609544084
 40
0.511580060194904
 50
208.5214732576956
 51
246.6277221118021
 73
     0
 72
     2
 10
73.56483677173836
 20
317.3761689356978
 40
0.9059297849853228
 50
246.627722111871
 51
288.4480761181465
 73
     0
 72
     2
 10
73.14666903807756
 20
316.1226231596612
 40
2.227384008973501
 50
288.4480761181326
 51
301.9309089499589
 73
     0
 72
     1
 10
74.32472408010244
 20
318.0129738788111
 11
74.32472408010244
 21
318.8854908856143
 72
     2
 10
72.98879616298464
 20
314.2204085798135
 40
4.852596863497931
 50
74.02000874164692
 51
84.84185523037502
 73
     1
 72
     2
 10
73.27765225772055
 20
317.4202991630344
 40
1.63969512394062
 50
84.84185523036271
 51
164.9381082228826
 73
     1
 97
       14
330
44B
330
364
330
41A
330
44A
330
41B
330
41C
330
449
330
448
330
447
330
365
330
41D
330
41E
330
41F
330
420
 75
     1
 76
     0
 52
45.0
 41
0.1
 77
     0
 78
     1
 53
45.0
 43
0.0
 44
0.0
 45
-0.0707106781186548
 46
0.0707106781186548
 79
     0
 98
        1
 10
0.0
 20
0.0
  0
HATCH
  5
478
330
71
100
AcDbEntity
  8
1
  6
Continuous
 62
     2
100
AcDbHatch
 10
0.0
 20
0.0
 30
0.0
210
0.0
220
0.0
230
1.0
  2
_USER
 70
     0
 71
     1
 91
        1
 92
        1
 93
       18
 72
     2
 10
89.38035373697346
 20
317.4202991630344
 40
1.639695123940214
 50
90.0
 51
164.9381082228911
 73
     1
 72
     2
 10
88.96122589351185
 20
317.5330895250694
 40
1.205656168393002
 50
164.9381082229028
 51
195.0618917770946
 73
     1
 72
     2
 10
89.38035373697346
 20
317.6458798871042
 40
1.639695123940434
 50
195.0618917770993
 51
275.1581447696764
 73
     1
 72
     2
 10
89.09149764223764
 20
320.8457704703258
 40
4.852596863498825
 50
275.1581447696364
 51
285.9799912583384
 73
     1
 72
     1
 10
90.42742555935436
 20
316.1806881645243
 11
90.42742555935436
 21
317.0532051713277
 72
     2
 10
89.24937051733045
 20
318.9435558904775
 40
2.227384008972773
 50
58.06909105006066
 51
71.55192388186677
 73
     0
 72
     2
 10
89.66753825099235
 20
317.6900101144408
 40
0.9059297849851757
 50
71.55192388191598
 51
113.3722778881846
 73
     0
 72
     2
 10
89.51109821828925
 20
317.3280180957308
 40
0.5115800601959674
 50
113.3722778881601
 51
151.4785267423246
 73
     0
 72
     2
 10
89.88845547637064
 20
317.5330895250694
 40
0.941059735334906
 50
151.4785267423305
 51
208.5214732576391
 73
     0
 72
     2
 10
89.51109821828925
 20
317.7381609544084
 40
0.5115800601944143
 50
208.5214732575803
 51
250.6628567805147
 73
     0
 72
     2
 10
89.65776821639295
 20
317.3202059740255
 40
0.9545230068260935
 50
250.662856780568
 51
270.0
 73
     0
 72
     1
 10
89.65776821639295
 20
318.2747289808516
 11
90.76140751596105
 21
318.2747289808516
 72
     1
 10
90.76140751596105
 20
318.2747289808516
 11
90.76140751596105
 21
316.0061847631641
 72
     1
 10
90.76140751596105
 20
316.0061847631641
 11
91.95420021812876
 21
316.0061847631641
 72
     1
 10
91.95420021812876
 20
316.0061847631641
 11
91.95420021812876
 21
318.2747289808516
 72
     1
 10
91.95420021812876
 20
318.2747289808516
 11
92.76529925560214
 21
318.2747289808516
 72
     1
 10
92.76529925560214
 20
318.2747289808516
 11
92.76529925560214
 21
319.0599942869752
 72
     1
 10
92.76529925560214
 20
319.0599942869752
 11
89.38035373697346
 21
319.0599942869746
 97
       18
330
3CA
330
3C9
330
3C8
330
3C7
330
3CC
330
366
330
444
330
425
330
443
330
426
330
442
330
441
330
367
330
440
330
43F
330
427
330
428
330
3CB
 75
     1
 76
     0
 52
45.0
 41
0.1
 77
     0
 78
     1
 53
45.0
 43
0.0
 44
0.0
 45
-0.0707106781186548
 46
0.0707106781186548
 79
     0
 98
        1
 10
0.0
 20
0.0
  0
HATCH
  5
479
330
71
100
AcDbEntity
  8
1
  6
Continuous
 62
     2
100
AcDbHatch
 10
0.0
 20
0.0
 30
0.0
210
0.0
220
0.0
230
1.0
  2
_USER
 70
     0
 71
     1
 91
        1
 92
        1
 93
       18
 72
     2
 10
89.38035373697346
 20
317.4202991630344
 40
1.639695123940214
 50
90.0
 51
164.9381082228911
 73
     1
 72
     2
 10
88.96122589351185
 20
317.5330895250694
 40
1.205656168393002
 50
164.9381082229028
 51
195.0618917770946
 73
     1
 72
     2
 10
89.38035373697346
 20
317.6458798871042
 40
1.639695123940434
 50
195.0618917770993
 51
275.1581447696764
 73
     1
 72
     2
 10
89.09149764223764
 20
320.8457704703258
 40
4.852596863498825
 50
275.1581447696364
 51
285.9799912583384
 73
     1
 72
     1
 10
90.42742555935436
 20
316.1806881645243
 11
90.42742555935436
 21
317.0532051713277
 72
     2
 10
89.24937051733045
 20
318.9435558904775
 40
2.227384008972773
 50
58.06909105006066
 51
71.55192388186677
 73
     0
 72
     2
 10
89.66753825099235
 20
317.6900101144408
 40
0.9059297849851757
 50
71.55192388191598
 51
113.3722778881846
 73
     0
 72
     2
 10
89.51109821828925
 20
317.3280180957308
 40
0.5115800601959674
 50
113.3722778881601
 51
151.4785267423246
 73
     0
 72
     2
 10
89.88845547637064
 20
317.5330895250694
 40
0.941059735334906
 50
151.4785267423305
 51
208.5214732576391
 73
     0
 72
     2
 10
89.51109821828925
 20
317.7381609544084
 40
0.5115800601944143
 50
208.5214732575803
 51
250.6628567805147
 73
     0
 72
     2
 10
89.65776821639295
 20
317.3202059740255
 40
0.9545230068260935
 50
250.662856780568
 51
270.0
 73
     0
 72
     1
 10
89.65776821639295
 20
318.2747289808516
 11
90.76140751596105
 21
318.2747289808516
 72
     1
 10
90.76140751596105
 20
318.2747289808516
 11
90.76140751596105
 21
316.0061847631641
 72
     1
 10
90.76140751596105
 20
316.0061847631641
 11
91.95420021812876
 21
316.0061847631641
 72
     1
 10
91.95420021812876
 20
316.0061847631641
 11
91.95420021812876
 21
318.2747289808516
 72
     1
 10
91.95420021812876
 20
318.2747289808516
 11
92.76529925560214
 21
318.2747289808516
 72
     1
 10
92.76529925560214
 20
318.2747289808516
 11
92.76529925560214
 21
319.0599942869752
 72
     1
 10
92.76529925560214
 20
319.0599942869752
 11
89.38035373697346
 21
319.0599942869746
 97
       18
330
3CA
330
3C9
330
3C8
330
3C7
330
3CC
330
366
330
444
330
425
330
443
330
426
330
442
330
441
330
367
330
440
330
43F
330
427
330
428
330
3CB
 75
     1
 76
     0
 52
45.0
 41
0.1
 77
     0
 78
     1
 53
45.0
 43
0.0
 44
0.0
 45
-0.0707106781186548
 46
0.0707106781186548
 79
     0
 98
        1
 10
0.0
 20
0.0
  0
HATCH
  5
47A
330
71
100
AcDbEntity
  8
1
  6
Continuous
 62
     2
100
AcDbHatch
 10
0.0
 20
0.0
 30
0.0
210
0.0
220
0.0
230
1.0
  2
_USER
 70
     0
 71
     1
 91
        4
 92
        1
 93
        8
 72
     2
 10
65.27819464028045
 20
321.9949401477476
 40
0.4242446153837705
 50
90.0
 51
180.0
 73
     1
 72
     1
 10
64.85395002489764
 20
321.9949401477476
 11
64.85395002489764
 21
316.4304293785474
 72
     2
 10
65.27819464028045
 20
316.4304293785474
 40
0.4242446153828041
 50
180.0
 51
270.0
 73
     1
 72
     1
 10
65.27819464028045
 20
316.0061847631641
 11
70.75150673099725
 21
316.0061847631641
 72
     2
 10
70.75150673099725
 20
316.4304293785474
 40
0.4242446153833157
 50
270.0
 51
360.0
 73
     1
 72
     1
 10
71.17575134638113
 20
316.4304293785474
 11
71.17575134638113
 21
321.9949401477476
 72
     2
 10
70.75150673099725
 20
321.9949401477476
 40
0.4242446153838841
 50
0.0
 51
90.0
 73
     1
 72
     1
 10
70.75150673099725
 20
322.4191847631314
 11
65.27819464028045
 21
322.4191847631314
 97
        8
330
438
330
395
330
437
330
396
330
42E
330
393
330
439
330
394
 92
       16
 93
        1
 72
     2
 10
67.89778029079795
 20
319.6760579193921
 40
0.4709789327785074
 50
0.0
 51
360.0
 73
     1
 97
        1
330
44C
 92
       16
 93
        8
 72
     2
 10
67.92159530547076
 20
319.6760579193921
 40
0.9118481501444847
 50
295.3740086781757
 51
424.6259913218075
 73
     1
 72
     2
 10
68.44763800355864
 20
320.7851995193599
 40
0.315716923076792
 50
115.3740086783563
 51
180.0
 73
     0
 72
     1
 10
68.13192108048185
 20
320.7851995193599
 11
68.13192108048185
 21
321.3907348078667
 72
     2
 10
68.44763800355864
 20
321.3907348078667
 40
0.3157169230759573
 50
180.0
 51
269.811032957454
 73
     0
 72
     2
 10
68.45325413886866
 20
319.6878998602975
 40
2.018561131933209
 50
269.8110329575858
 51
450.1889670424142
 73
     0
 72
     2
 10
68.44763800355864
 20
317.9850649127286
 40
0.315716923076792
 50
90.1889670425458
 51
180.0
 73
     0
 72
     1
 10
68.13192108048185
 20
317.9850649127286
 11
68.13192108048185
 21
318.5669163194236
 72
     2
 10
68.44763800355864
 20
318.5669163194236
 40
0.3157169230765842
 50
180.0
 51
244.6259913216525
 73
     0
 97
        8
330
446
330
422
330
3CE
330
445
330
423
330
424
330
3CD
330
421
 92
       16
 93
       12
 72
     1
 10
65.87208931702693
 20
316.718740318721
 11
67.34792257803656
 21
316.718740318721
 72
     2
 10
67.34792257803656
 20
317.0344572417977
 40
0.3157169230767067
 50
270.0
 51
360.0
 73
     1
 72
     1
 10
67.66363950111315
 20
317.0344572417977
 11
67.66363950111315
 21
318.5652281733293
 72
     2
 10
67.34792257803656
 20
318.5652281733293
 40
0.315716923076593
 50
0.0
 51
64.80558935146468
 73
     1
 72
     2
 10
67.87050702561154
 20
319.6760579193921
 40
0.9118975235575889
 50
115.1944106485122
 51
244.805589351471
 73
     0
 72
     2
 10
67.34792257803656
 20
320.7868876654543
 40
0.3157169230761203
 50
295.1944106485397
 51
360.0
 73
     1
 72
     1
 10
67.66363950111315
 20
320.7868876654543
 11
67.66363950111315
 21
321.3909122845148
 72
     2
 10
67.34792257803656
 20
321.3909122845148
 40
0.315716923076593
 50
0.0
 51
90.0
 73
     1
 72
     1
 10
67.34792257803656
 20
321.7066292075909
 11
65.87208931702693
 21
321.7066292075909
 72
     2
 10
65.87208931702693
 20
321.3909122845148
 40
0.3157169230760815
 50
90.0
 51
180.0
 73
     1
 72
     1
 10
65.55637239395125
 20
321.3909122845148
 11
65.55637239395125
 21
317.0344572417977
 72
     2
 10
65.87208931702693
 20
317.0344572417977
 40
0.3157169230756836
 50
180.0
 51
270.0
 73
     1
 97
       12
330
39A
330
42B
330
399
330
43C
330
398
330
43B
330
42C
330
42D
330
397
330
43A
330
392
330
43D
 75
     1
 76
     0
 52
45.0
 41
0.1
 77
     0
 78
     1
 53
45.0
 43
0.0
 44
0.0
 45
-0.0707106781186548
 46
0.0707106781186548
 79
     0
 98
        1
 10
0.0
 20
0.0
  0
HATCH
  5
47B
330
71
100
AcDbEntity
  8
1
  6
Continuous
 62
     2
100
AcDbHatch
 10
0.0
 20
0.0
 30
0.0
210
0.0
220
0.0
230
1.0
  2
_USER
 70
     0
 71
     1
 91
        4
 92
        1
 93
        8
 72
     2
 10
65.27819464028045
 20
321.9949401477476
 40
0.4242446153837705
 50
90.0
 51
180.0
 73
     1
 72
     1
 10
64.85395002489764
 20
321.9949401477476
 11
64.85395002489764
 21
316.4304293785474
 72
     2
 10
65.27819464028045
 20
316.4304293785474
 40
0.4242446153828041
 50
180.0
 51
270.0
 73
     1
 72
     1
 10
65.27819464028045
 20
316.0061847631641
 11
70.75150673099725
 21
316.0061847631641
 72
     2
 10
70.75150673099725
 20
316.4304293785474
 40
0.4242446153833157
 50
270.0
 51
360.0
 73
     1
 72
     1
 10
71.17575134638113
 20
316.4304293785474
 11
71.17575134638113
 21
321.9949401477476
 72
     2
 10
70.75150673099725
 20
321.9949401477476
 40
0.4242446153838841
 50
0.0
 51
90.0
 73
     1
 72
     1
 10
70.75150673099725
 20
322.4191847631314
 11
65.27819464028045
 21
322.4191847631314
 97
        8
330
438
330
395
330
437
330
396
330
42E
330
393
330
439
330
394
 92
       16
 93
        1
 72
     2
 10
67.89778029079795
 20
319.6760579193921
 40
0.4709789327785074
 50
0.0
 51
360.0
 73
     1
 97
        1
330
44C
 92
       16
 93
        8
 72
     2
 10
67.92159530547076
 20
319.6760579193921
 40
0.9118481501444847
 50
295.3740086781757
 51
424.6259913218075
 73
     1
 72
     2
 10
68.44763800355864
 20
320.7851995193599
 40
0.315716923076792
 50
115.3740086783563
 51
180.0
 73
     0
 72
     1
 10
68.13192108048185
 20
320.7851995193599
 11
68.13192108048185
 21
321.3907348078667
 72
     2
 10
68.44763800355864
 20
321.3907348078667
 40
0.3157169230759573
 50
180.0
 51
269.811032957454
 73
     0
 72
     2
 10
68.45325413886866
 20
319.6878998602975
 40
2.018561131933209
 50
269.8110329575858
 51
450.1889670424142
 73
     0
 72
     2
 10
68.44763800355864
 20
317.9850649127286
 40
0.315716923076792
 50
90.1889670425458
 51
180.0
 73
     0
 72
     1
 10
68.13192108048185
 20
317.9850649127286
 11
68.13192108048185
 21
318.5669163194236
 72
     2
 10
68.44763800355864
 20
318.5669163194236
 40
0.3157169230765842
 50
180.0
 51
244.6259913216525
 73
     0
 97
        8
330
446
330
422
330
3CE
330
445
330
423
330
424
330
3CD
330
421
 92
       16
 93
       12
 72
     1
 10
65.87208931702693
 20
316.718740318721
 11
67.34792257803656
 21
316.718740318721
 72
     2
 10
67.34792257803656
 20
317.0344572417977
 40
0.3157169230767067
 50
270.0
 51
360.0
 73
     1
 72
     1
 10
67.66363950111315
 20
317.0344572417977
 11
67.66363950111315
 21
318.5652281733293
 72
     2
 10
67.34792257803656
 20
318.5652281733293
 40
0.315716923076593
 50
0.0
 51
64.80558935146468
 73
     1
 72
     2
 10
67.87050702561154
 20
319.6760579193921
 40
0.9118975235575889
 50
115.1944106485122
 51
244.805589351471
 73
     0
 72
     2
 10
67.34792257803656
 20
320.7868876654543
 40
0.3157169230761203
 50
295.1944106485397
 51
360.0
 73
     1
 72
     1
 10
67.66363950111315
 20
320.7868876654543
 11
67.66363950111315
 21
321.3909122845148
 72
     2
 10
67.34792257803656
 20
321.3909122845148
 40
0.315716923076593
 50
0.0
 51
90.0
 73
     1
 72
     1
 10
67.34792257803656
 20
321.7066292075909
 11
65.87208931702693
 21
321.7066292075909
 72
     2
 10
65.87208931702693
 20
321.3909122845148
 40
0.3157169230760815
 50
90.0
 51
180.0
 73
     1
 72
     1
 10
65.55637239395125
 20
321.3909122845148
 11
65.55637239395125
 21
317.0344572417977
 72
     2
 10
65.87208931702693
 20
317.0344572417977
 40
0.3157169230756836
 50
180.0
 51
270.0
 73
     1
 97
       12
330
39A
330
42B
330
399
330
43C
330
398
330
43B
330
42C
330
42D
330
397
330
43A
330
392
330
43D
 75
     1
 76
     0
 52
45.0
 41
0.1
 77
     0
 78
     1
 53
45.0
 43
0.0
 44
0.0
 45
-0.0707106781186548
 46
0.0707106781186548
 79
     0
 98
        1
 10
0.0
 20
0.0
  0
HATCH
  5
47C
330
71
100
AcDbEntity
  8
1
  6
Continuous
 62
     2
100
AcDbHatch
 10
0.0
 20
0.0
 30
0.0
210
0.0
220
0.0
230
1.0
  2
_USER
 70
     0
 71
     1
 91
        2
 92
        1
 93
       12
 72
     2
 10
79.95335864426974
 20
320.8922800012437
 40
1.526904761905882
 50
90.0
 51
270.0
 73
     1
 72
     1
 10
79.95335864426974
 20
319.3653752393384
 11
83.10367836805074
 21
319.3653752393384
 72
     1
 10
83.10367836805074
 20
319.3653752393384
 11
83.10367836805074
 21
320.0633888447809
 72
     1
 10
83.10367836805074
 20
320.0633888447809
 11
81.76775054162306
 21
320.0633888447809
 72
     1
 10
81.76775054162306
 20
320.0633888447809
 11
81.76775054162306
 21
320.5432731985226
 72
     1
 10
81.76775054162306
 20
320.5432731985226
 11
83.10367836805074
 21
320.5432731985226
 72
     1
 10
83.10367836805074
 20
320.5432731985226
 11
83.10367836805074
 21
321.2412868039648
 72
     1
 10
83.10367836805074
 20
321.2412868039648
 11
81.76775054162306
 21
321.2412868039648
 72
     1
 10
81.76775054162306
 20
321.2412868039648
 11
81.76775054162306
 21
321.7211711577066
 72
     1
 10
81.76775054162306
 20
321.7211711577066
 11
83.10367836805074
 21
321.7211711577066
 72
     1
 10
83.10367836805074
 20
321.7211711577066
 11
83.10367836805074
 21
322.4191847631496
 72
     1
 10
83.10367836805074
 20
322.4191847631496
 11
79.95335864426974
 21
322.4191847631496
 97
       12
330
389
330
383
330
3AA
330
3A9
330
3A8
330
3A7
330
384
330
385
330
386
330
387
330
429
330
388
 92
       16
 93
        4
 72
     2
 10
80.36937069078124
 20
320.8922800012437
 40
0.7717997786796724
 50
141.8795802028404
 51
218.1204197971596
 73
     1
 72
     2
 10
80.16963065443494
 20
320.7355488231233
 40
0.5179085730134722
 50
218.120419797156
 51
321.8795802028517
 73
     1
 72
     2
 10
79.96989061808875
 20
320.8922800012437
 40
0.7717997786796724
 50
321.8795802028404
 51
398.1204197971596
 73
     1
 72
     2
 10
80.16963065443494
 20
321.0490111793641
 40
0.5179085730135967
 50
38.12041979715324
 51
141.879580202839
 73
     1
 97
        4
330
436
330
435
330
430
330
42F
 75
     1
 76
     0
 52
45.0
 41
0.1
 77
     0
 78
     1
 53
45.0
 43
0.0
 44
0.0
 45
-0.0707106781186548
 46
0.0707106781186548
 79
     0
 98
        1
 10
0.0
 20
0.0
  0
HATCH
  5
47D
330
71
100
AcDbEntity
  8
1
  6
Continuous
 62
     2
100
AcDbHatch
 10
0.0
 20
0.0
 30
0.0
210
0.0
220
0.0
230
1.0
  2
_USER
 70
     0
 71
     1
 91
        2
 92
        1
 93
       12
 72
     2
 10
79.95335864426974
 20
320.8922800012437
 40
1.526904761905882
 50
90.0
 51
270.0
 73
     1
 72
     1
 10
79.95335864426974
 20
319.3653752393384
 11
83.10367836805074
 21
319.3653752393384
 72
     1
 10
83.10367836805074
 20
319.3653752393384
 11
83.10367836805074
 21
320.0633888447809
 72
     1
 10
83.10367836805074
 20
320.0633888447809
 11
81.76775054162306
 21
320.0633888447809
 72
     1
 10
81.76775054162306
 20
320.0633888447809
 11
81.76775054162306
 21
320.5432731985226
 72
     1
 10
81.76775054162306
 20
320.5432731985226
 11
83.10367836805074
 21
320.5432731985226
 72
     1
 10
83.10367836805074
 20
320.5432731985226
 11
83.10367836805074
 21
321.2412868039648
 72
     1
 10
83.10367836805074
 20
321.2412868039648
 11
81.76775054162306
 21
321.2412868039648
 72
     1
 10
81.76775054162306
 20
321.2412868039648
 11
81.76775054162306
 21
321.7211711577066
 72
     1
 10
81.76775054162306
 20
321.7211711577066
 11
83.10367836805074
 21
321.7211711577066
 72
     1
 10
83.10367836805074
 20
321.7211711577066
 11
83.10367836805074
 21
322.4191847631496
 72
     1
 10
83.10367836805074
 20
322.4191847631496
 11
79.95335864426974
 21
322.4191847631496
 97
       12
330
389
330
383
330
3AA
330
3A9
330
3A8
330
3A7
330
384
330
385
330
386
330
387
330
429
330
388
 92
       16
 93
        4
 72
     2
 10
80.36937069078124
 20
320.8922800012437
 40
0.7717997786796724
 50
141.8795802028404
 51
218.1204197971596
 73
     1
 72
     2
 10
80.16963065443494
 20
320.7355488231233
 40
0.5179085730134722
 50
218.120419797156
 51
321.8795802028517
 73
     1
 72
     2
 10
79.96989061808875
 20
320.8922800012437
 40
0.7717997786796724
 50
321.8795802028404
 51
398.1204197971596
 73
     1
 72
     2
 10
80.16963065443494
 20
321.0490111793641
 40
0.5179085730135967
 50
38.12041979715324
 51
141.879580202839
 73
     1
 97
        4
330
436
330
435
330
430
330
42F
 75
     1
 76
     0
 52
45.0
 41
0.1
 77
     0
 78
     1
 53
45.0
 43
0.0
 44
0.0
 45
-0.0707106781186548
 46
0.0707106781186548
 79
     0
 98
        1
 10
0.0
 20
0.0
  0
HATCH
  5
47E
330
71
100
AcDbEntity
  8
1
  6
Continuous
 62
     2
100
AcDbHatch
 10
0.0
 20
0.0
 30
0.0
210
0.0
220
0.0
230
1.0
  2
_USER
 70
     0
 71
     1
 91
        2
 92
        1
 93
        4
 72
     2
 10
75.92774328180815
 20
317.5330895250694
 40
1.458034083651515
 50
117.5481481756619
 51
242.451851824337
 73
     1
 72
     2
 10
76.20868317364145
 20
318.0716645353726
 40
2.065479772208382
 50
242.4518518243383
 51
297.5481481756889
 73
     1
 72
     2
 10
76.48962306547475
 20
317.5330895250694
 40
1.458034083651977
 50
297.5481481757016
 51
422.4518518242994
 73
     1
 72
     2
 10
76.20868317364145
 20
316.9945145147666
 40
2.065479772208593
 50
62.45185182430674
 51
117.548148175666
 73
     1
 97
        4
330
434
330
431
330
433
330
432
 92
       16
 93
        4
 72
     2
 10
76.20868317364145
 20
317.6898207031899
 40
0.5179085730132998
 50
38.12041979714704
 51
141.8795802028588
 73
     1
 72
     2
 10
76.40842320998755
 20
317.5330895250694
 40
0.7717997786794808
 50
141.8795802028346
 51
218.1204197971687
 73
     1
 72
     2
 10
76.20868317364145
 20
317.3763583469494
 40
0.5179085730137529
 50
218.1204197971956
 51
321.8795802027985
 73
     1
 72
     2
 10
76.00894313729503
 20
317.5330895250694
 40
0.7717997786796947
 50
321.8795802028417
 51
398.120419797155
 73
     1
 97
        4
330
417
330
418
330
419
330
416
 75
     1
 76
     0
 52
45.0
 41
0.1
 77
     0
 78
     1
 53
45.0
 43
0.0
 44
0.0
 45
-0.0707106781186548
 46
0.0707106781186548
 79
     0
 98
        1
 10
0.0
 20
0.0
  0
HATCH
  5
47F
330
71
100
AcDbEntity
  8
1
  6
Continuous
 62
     2
100
AcDbHatch
 10
0.0
 20
0.0
 30
0.0
210
0.0
220
0.0
230
1.0
  2
_USER
 70
     0
 71
     1
 91
        2
 92
        1
 93
        4
 72
     2
 10
75.92774328180815
 20
317.5330895250694
 40
1.458034083651515
 50
117.5481481756619
 51
242.451851824337
 73
     1
 72
     2
 10
76.20868317364145
 20
318.0716645353726
 40
2.065479772208382
 50
242.4518518243383
 51
297.5481481756889
 73
     1
 72
     2
 10
76.48962306547475
 20
317.5330895250694
 40
1.458034083651977
 50
297.5481481757016
 51
422.4518518242994
 73
     1
 72
     2
 10
76.20868317364145
 20
316.9945145147666
 40
2.065479772208593
 50
62.45185182430674
 51
117.548148175666
 73
     1
 97
        4
330
434
330
431
330
433
330
432
 92
       16
 93
        4
 72
     2
 10
76.20868317364145
 20
317.6898207031899
 40
0.5179085730132998
 50
38.12041979714704
 51
141.8795802028588
 73
     1
 72
     2
 10
76.40842320998755
 20
317.5330895250694
 40
0.7717997786794808
 50
141.8795802028346
 51
218.1204197971687
 73
     1
 72
     2
 10
76.20868317364145
 20
317.3763583469494
 40
0.5179085730137529
 50
218.1204197971956
 51
321.8795802027985
 73
     1
 72
     2
 10
76.00894313729503
 20
317.5330895250694
 40
0.7717997786796947
 50
321.8795802028417
 51
398.120419797155
 73
     1
 97
        4
330
417
330
418
330
419
330
416
 75
     1
 76
     0
 52
45.0
 41
0.1
 77
     0
 78
     1
 53
45.0
 43
0.0
 44
0.0
 45
-0.0707106781186548
 46
0.0707106781186548
 79
     0
 98
        1
 10
0.0
 20
0.0
  0
HATCH
  5
480
330
71
100
AcDbEntity
  8
1
  6
Continuous
 62
     2
100
AcDbHatch
 10
0.0
 20
0.0
 30
0.0
210
0.0
220
0.0
230
1.0
  2
_USER
 70
     0
 71
     1
 91
        2
 92
        1
 93
        6
 72
     1
 10
71.65286842724794
 20
322.4191847631496
 11
71.65286842724794
 21
319.3653752393384
 72
     1
 10
71.65286842724794
 20
319.3653752393384
 11
72.89337283750206
 21
319.3653752393384
 72
     1
 10
72.89337283750206
 20
319.3653752393384
 11
72.89337283750206
 21
320.3084534804822
 72
     1
 10
72.89337283750206
 20
320.3084534804822
 11
73.65214042528234
 21
320.3084534804822
 72
     2
 10
73.65214042528234
 20
321.3638191218159
 40
1.055365641333651
 50
270.0
 51
450.0
 73
     1
 72
     1
 10
73.65214042528234
 20
322.4191847631496
 11
71.65286842724794
 21
322.4191847631496
 97
        6
330
43E
330
39B
330
391
330
390
330
39D
330
39C
 92
       16
 93
        4
 72
     1
 10
73.21066789904395
 20
321.7560789177095
 11
72.89337283750206
 21
321.7560789177095
 72
     1
 10
72.89337283750206
 20
321.7560789177095
 11
72.89337283750206
 21
321.0503512683673
 72
     1
 10
72.89337283750206
 20
321.0503512683673
 11
73.21066789904395
 21
321.0503512683673
 72
     2
 10
73.21066789904395
 20
321.4032150930384
 40
0.3528638246710898
 50
270.0
 51
450.0
 73
     1
 97
        4
330
39E
330
38F
330
39F
330
42A
 75
     1
 76
     0
 52
45.0
 41
0.1
 77
     0
 78
     1
 53
45.0
 43
0.0
 44
0.0
 45
-0.0707106781186548
 46
0.0707106781186548
 79
     0
 98
        1
 10
0.0
 20
0.0
  0
HATCH
  5
481
330
71
100
AcDbEntity
  8
1
  6
Continuous
 62
     2
100
AcDbHatch
 10
0.0
 20
0.0
 30
0.0
210
0.0
220
0.0
230
1.0
  2
_USER
 70
     0
 71
     1
 91
        2
 92
        1
 93
        6
 72
     1
 10
71.65286842724794
 20
322.4191847631496
 11
71.65286842724794
 21
319.3653752393384
 72
     1
 10
71.65286842724794
 20
319.3653752393384
 11
72.89337283750206
 21
319.3653752393384
 72
     1
 10
72.89337283750206
 20
319.3653752393384
 11
72.89337283750206
 21
320.3084534804822
 72
     1
 10
72.89337283750206
 20
320.3084534804822
 11
73.65214042528234
 21
320.3084534804822
 72
     2
 10
73.65214042528234
 20
321.3638191218159
 40
1.055365641333651
 50
270.0
 51
450.0
 73
     1
 72
     1
 10
73.65214042528234
 20
322.4191847631496
 11
71.65286842724794
 21
322.4191847631496
 97
        6
330
43E
330
39B
330
391
330
390
330
39D
330
39C
 92
       16
 93
        4
 72
     1
 10
73.21066789904395
 20
321.7560789177095
 11
72.89337283750206
 21
321.7560789177095
 72
     1
 10
72.89337283750206
 20
321.7560789177095
 11
72.89337283750206
 21
321.0503512683673
 72
     1
 10
72.89337283750206
 20
321.0503512683673
 11
73.21066789904395
 21
321.0503512683673
 72
     2
 10
73.21066789904395
 20
321.4032150930384
 40
0.3528638246710898
 50
270.0
 51
450.0
 73
     1
 97
        4
330
39E
330
38F
330
39F
330
42A
 75
     1
 76
     0
 52
45.0
 41
0.1
 77
     0
 78
     1
 53
45.0
 43
0.0
 44
0.0
 45
-0.0707106781186548
 46
0.0707106781186548
 79
     0
 98
        1
 10
0.0
 20
0.0
  0
HATCH
  5
482
330
71
100
AcDbEntity
  8
1
  6
Continuous
 62
     2
100
AcDbHatch
 10
0.0
 20
0.0
 30
0.0
210
0.0
220
0.0
230
1.0
  2
_USER
 70
     0
 71
     1
 91
        1
 92
        1
 93
       12
 72
     1
 10
91.26715162168114
 20
322.4191847631496
 11
92.66987583942836
 21
322.4191847631496
 72
     1
 10
92.66987583942836
 20
322.4191847631496
 11
91.36734620866184
 21
320.9462342331134
 72
     1
 10
91.36734620866184
 20
320.9462342331134
 11
92.76529925560214
 21
319.3653752393384
 72
     1
 10
92.76529925560214
 20
319.3653752393384
 11
91.36257503785384
 21
319.3653752393384
 72
     1
 10
91.36257503785384
 20
319.3653752393384
 11
90.66598409978835
 21
320.1531070246321
 72
     1
 10
90.66598409978835
 20
320.1531070246321
 11
89.96939316172265
 21
319.3653752393384
 72
     1
 10
89.96939316172265
 20
319.3653752393384
 11
88.56666894397443
 21
319.3653752393384
 72
     1
 10
88.56666894397443
 20
319.3653752393384
 11
89.96462199091474
 21
320.9462342331134
 72
     1
 10
89.96462199091474
 20
320.9462342331134
 11
88.66209236014726
 21
322.4191847631496
 72
     1
 10
88.66209236014726
 20
322.4191847631496
 11
90.06481657789655
 21
322.4191847631496
 72
     1
 10
90.06481657789655
 20
322.4191847631496
 11
90.66598409978835
 21
321.739361441594
 72
     1
 10
90.66598409978835
 20
321.739361441594
 11
91.26715162168114
 21
322.4191847631496
 97
       12
330
36A
330
3C3
330
3C2
330
3C1
330
3C0
330
36B
330
36C
330
368
330
369
330
3C6
330
3C5
330
3C4
 75
     1
 76
     0
 52
45.0
 41
0.1
 77
     0
 78
     1
 53
45.0
 43
0.0
 44
0.0
 45
-0.0707106781186548
 46
0.0707106781186548
 79
     0
 98
        1
 10
0.0
 20
0.0
  0
HATCH
  5
483
330
71
100
AcDbEntity
  8
1
  6
Continuous
 62
     2
100
AcDbHatch
 10
0.0
 20
0.0
 30
0.0
210
0.0
220
0.0
230
1.0
  2
_USER
 70
     0
 71
     1
 91
        1
 92
        1
 93
       12
 72
     1
 10
91.26715162168114
 20
322.4191847631496
 11
92.66987583942836
 21
322.4191847631496
 72
     1
 10
92.66987583942836
 20
322.4191847631496
 11
91.36734620866184
 21
320.9462342331134
 72
     1
 10
91.36734620866184
 20
320.9462342331134
 11
92.76529925560214
 21
319.3653752393384
 72
     1
 10
92.76529925560214
 20
319.3653752393384
 11
91.36257503785384
 21
319.3653752393384
 72
     1
 10
91.36257503785384
 20
319.3653752393384
 11
90.66598409978835
 21
320.1531070246321
 72
     1
 10
90.66598409978835
 20
320.1531070246321
 11
89.96939316172265
 21
319.3653752393384
 72
     1
 10
89.96939316172265
 20
319.3653752393384
 11
88.56666894397443
 21
319.3653752393384
 72
     1
 10
88.56666894397443
 20
319.3653752393384
 11
89.96462199091474
 21
320.9462342331134
 72
     1
 10
89.96462199091474
 20
320.9462342331134
 11
88.66209236014726
 21
322.4191847631496
 72
     1
 10
88.66209236014726
 20
322.4191847631496
 11
90.06481657789655
 21
322.4191847631496
 72
     1
 10
90.06481657789655
 20
322.4191847631496
 11
90.66598409978835
 21
321.739361441594
 72
     1
 10
90.66598409978835
 20
321.739361441594
 11
91.26715162168114
 21
322.4191847631496
 97
       12
330
36A
330
3C3
330
3C2
330
3C1
330
3C0
330
36B
330
36C
330
368
330
369
330
3C6
330
3C5
330
3C4
 75
     1
 76
     0
 52
45.0
 41
0.1
 77
     0
 78
     1
 53
45.0
 43
0.0
 44
0.0
 45
-0.0707106781186548
 46
0.0707106781186548
 79
     0
 98
        1
 10
0.0
 20
0.0
  0
HATCH
  5
484
330
71
100
AcDbEntity
  8
1
  6
Continuous
 62
     2
100
AcDbHatch
 10
0.0
 20
0.0
 30
0.0
210
0.0
220
0.0
230
1.0
  2
_USER
 70
     0
 71
     1
 91
        1
 92
        1
 93
        4
 72
     1
 10
88.44738967375756
 20
322.4191847631496
 11
88.44738967375756
 21
319.3653752393384
 72
     1
 10
88.44738967375756
 20
319.3653752393384
 11
87.20688526350466
 21
319.3653752393384
 72
     1
 10
87.20688526350466
 20
319.3653752393384
 11
87.20688526350466
 21
322.4191847631496
 72
     1
 10
87.20688526350466
 20
322.4191847631496
 11
88.44738967375756
 21
322.4191847631496
 97
        4
330
3BE
330
36D
330
3BD
330
3BF
 75
     1
 76
     0
 52
45.0
 41
0.1
 77
     0
 78
     1
 53
45.0
 43
0.0
 44
0.0
 45
-0.0707106781186548
 46
0.0707106781186548
 79
     0
 98
        1
 10
0.0
 20
0.0
  0
HATCH
  5
485
330
71
100
AcDbEntity
  8
1
  6
Continuous
 62
     2
100
AcDbHatch
 10
0.0
 20
0.0
 30
0.0
210
0.0
220
0.0
230
1.0
  2
_USER
 70
     0
 71
     1
 91
        1
 92
        1
 93
        4
 72
     1
 10
88.44738967375756
 20
322.4191847631496
 11
88.44738967375756
 21
319.3653752393384
 72
     1
 10
88.44738967375756
 20
319.3653752393384
 11
87.20688526350466
 21
319.3653752393384
 72
     1
 10
87.20688526350466
 20
319.3653752393384
 11
87.20688526350466
 21
322.4191847631496
 72
     1
 10
87.20688526350466
 20
322.4191847631496
 11
88.44738967375756
 21
322.4191847631496
 97
        4
330
3BE
330
36D
330
3BD
330
3BF
 75
     1
 76
     0
 52
45.0
 41
0.1
 77
     0
 78
     1
 53
45.0
 43
0.0
 44
0.0
 45
-0.0707106781186548
 46
0.0707106781186548
 79
     0
 98
        1
 10
0.0
 20
0.0
  0
HATCH
  5
486
330
71
100
AcDbEntity
  8
1
  6
Continuous
 62
     2
100
AcDbHatch
 10
0.0
 20
0.0
 30
0.0
210
0.0
220
0.0
230
1.0
  2
_USER
 70
     0
 71
     1
 91
        2
 92
        1
 93
        8
 72
     1
 10
88.05694567022556
 20
316.0061847631641
 11
86.81644125997164
 21
316.0061847631641
 72
     1
 10
86.81644125997164
 20
316.0061847631641
 11
86.60496120649586
 21
316.5471453073819
 72
     1
 10
86.60496120649586
 20
316.5471453073819
 11
85.47251962982205
 21
316.5471453073819
 72
     1
 10
85.47251962982205
 20
316.5471453073819
 11
85.26103957634623
 21
316.0061847631641
 72
     1
 10
85.26103957634623
 20
316.0061847631641
 11
84.02053516609325
 21
316.0061847631641
 72
     1
 10
84.02053516609325
 20
316.0061847631641
 11
85.41848821303256
 21
319.0599942869752
 72
     1
 10
85.41848821303256
 20
319.0599942869752
 11
86.65899262328526
 21
319.0599942869752
 72
     1
 10
86.65899262328526
 20
319.0599942869752
 11
88.05694567022556
 21
316.0061847631641
 97
        8
330
3B9
330
373
330
3B8
330
3BB
330
370
330
3BA
330
371
330
372
 92
       16
 93
        3
 72
     1
 10
85.73857518096705
 20
317.2277085726886
 11
86.33890565534955
 21
317.2277085726886
 72
     1
 10
86.33890565534955
 20
317.2277085726886
 11
86.03874041815945
 21
317.9955235386752
 72
     1
 10
86.03874041815945
 20
317.9955235386752
 11
85.73857518096705
 21
317.2277085726886
 97
        3
330
36F
330
36E
330
3BC
 75
     1
 76
     0
 52
45.0
 41
0.1
 77
     0
 78
     1
 53
45.0
 43
0.0
 44
0.0
 45
-0.0707106781186548
 46
0.0707106781186548
 79
     0
 98
        1
 10
0.0
 20
0.0
  0
HATCH
  5
487
330
71
100
AcDbEntity
  8
1
  6
Continuous
 62
     2
100
AcDbHatch
 10
0.0
 20
0.0
 30
0.0
210
0.0
220
0.0
230
1.0
  2
_USER
 70
     0
 71
     1
 91
        2
 92
        1
 93
        8
 72
     1
 10
88.05694567022556
 20
316.0061847631641
 11
86.81644125997164
 21
316.0061847631641
 72
     1
 10
86.81644125997164
 20
316.0061847631641
 11
86.60496120649586
 21
316.5471453073819
 72
     1
 10
86.60496120649586
 20
316.5471453073819
 11
85.47251962982205
 21
316.5471453073819
 72
     1
 10
85.47251962982205
 20
316.5471453073819
 11
85.26103957634623
 21
316.0061847631641
 72
     1
 10
85.26103957634623
 20
316.0061847631641
 11
84.02053516609325
 21
316.0061847631641
 72
     1
 10
84.02053516609325
 20
316.0061847631641
 11
85.41848821303256
 21
319.0599942869752
 72
     1
 10
85.41848821303256
 20
319.0599942869752
 11
86.65899262328526
 21
319.0599942869752
 72
     1
 10
86.65899262328526
 20
319.0599942869752
 11
88.05694567022556
 21
316.0061847631641
 97
        8
330
3B9
330
373
330
3B8
330
3BB
330
370
330
3BA
330
371
330
372
 92
       16
 93
        3
 72
     1
 10
85.73857518096705
 20
317.2277085726886
 11
86.33890565534955
 21
317.2277085726886
 72
     1
 10
86.33890565534955
 20
317.2277085726886
 11
86.03874041815945
 21
317.9955235386752
 72
     1
 10
86.03874041815945
 20
317.9955235386752
 11
85.73857518096705
 21
317.2277085726886
 97
        3
330
36F
330
36E
330
3BC
 75
     1
 76
     0
 52
45.0
 41
0.1
 77
     0
 78
     1
 53
45.0
 43
0.0
 44
0.0
 45
-0.0707106781186548
 46
0.0707106781186548
 79
     0
 98
        1
 10
0.0
 20
0.0
  0
HATCH
  5
488
330
71
100
AcDbEntity
  8
1
  6
Continuous
 62
     2
100
AcDbHatch
 10
0.0
 20
0.0
 30
0.0
210
0.0
220
0.0
230
1.0
  2
_USER
 70
     0
 71
     1
 91
        1
 92
        1
 93
        8
 72
     1
 10
81.86302302691104
 20
319.0599942869752
 11
81.86302302691104
 21
318.2747289808516
 72
     1
 10
81.86302302691104
 20
318.2747289808516
 11
82.67412206438564
 21
318.2747289808516
 72
     1
 10
82.67412206438564
 20
318.2747289808516
 11
82.67412206438564
 21
316.0061847631641
 72
     1
 10
82.67412206438564
 20
316.0061847631641
 11
83.86691476655216
 21
316.0061847631641
 72
     1
 10
83.86691476655216
 20
316.0061847631641
 11
83.86691476655216
 21
318.2747289808516
 72
     1
 10
83.86691476655216
 20
318.2747289808516
 11
84.67801380402466
 21
318.2747289808516
 72
     1
 10
84.67801380402466
 20
318.2747289808516
 11
84.67801380402466
 21
319.0599942869752
 72
     1
 10
84.67801380402466
 20
319.0599942869752
 11
81.86302302691104
 21
319.0599942869752
 97
        8
330
3B5
330
3B4
330
3B3
330
374
330
375
330
3B7
330
376
330
3B6
 75
     1
 76
     0
 52
45.0
 41
0.1
 77
     0
 78
     1
 53
45.0
 43
0.0
 44
0.0
 45
-0.0707106781186548
 46
0.0707106781186548
 79
     0
 98
        1
 10
0.0
 20
0.0
  0
HATCH
  5
489
330
71
100
AcDbEntity
  8
1
  6
Continuous
 62
     2
100
AcDbHatch
 10
0.0
 20
0.0
 30
0.0
210
0.0
220
0.0
230
1.0
  2
_USER
 70
     0
 71
     1
 91
        1
 92
        1
 93
        8
 72
     1
 10
81.86302302691104
 20
319.0599942869752
 11
81.86302302691104
 21
318.2747289808516
 72
     1
 10
81.86302302691104
 20
318.2747289808516
 11
82.67412206438564
 21
318.2747289808516
 72
     1
 10
82.67412206438564
 20
318.2747289808516
 11
82.67412206438564
 21
316.0061847631641
 72
     1
 10
82.67412206438564
 20
316.0061847631641
 11
83.86691476655216
 21
316.0061847631641
 72
     1
 10
83.86691476655216
 20
316.0061847631641
 11
83.86691476655216
 21
318.2747289808516
 72
     1
 10
83.86691476655216
 20
318.2747289808516
 11
84.67801380402466
 21
318.2747289808516
 72
     1
 10
84.67801380402466
 20
318.2747289808516
 11
84.67801380402466
 21
319.0599942869752
 72
     1
 10
84.67801380402466
 20
319.0599942869752
 11
81.86302302691104
 21
319.0599942869752
 97
        8
330
3B5
330
3B4
330
3B3
330
374
330
375
330
3B7
330
376
330
3B6
 75
     1
 76
     0
 52
45.0
 41
0.1
 77
     0
 78
     1
 53
45.0
 43
0.0
 44
0.0
 45
-0.0707106781186548
 46
0.0707106781186548
 79
     0
 98
        1
 10
0.0
 20
0.0
  0
HATCH
  5
48A
330
71
100
AcDbEntity
  8
1
  6
Continuous
 62
     2
100
AcDbHatch
 10
0.0
 20
0.0
 30
0.0
210
0.0
220
0.0
230
1.0
  2
_USER
 70
     0
 71
     1
 91
        1
 92
        1
 93
       10
 72
     1
 10
84.53502961065016
 20
322.4191847631496
 11
83.34223690848364
 21
322.4191847631496
 72
     1
 10
83.34223690848364
 20
322.4191847631496
 11
83.34223690848364
 21
319.3653752393384
 72
     1
 10
83.34223690848364
 20
319.3653752393384
 11
84.53502961065016
 21
319.3653752393384
 72
     1
 10
84.53502961065016
 20
319.3653752393384
 11
84.53502961065016
 21
320.6741507495431
 72
     1
 10
84.53502961065016
 20
320.6741507495431
 11
85.77553402090416
 21
319.3653752393384
 72
     1
 10
85.77553402090416
 20
319.3653752393384
 11
86.96832672307076
 21
319.3653752393384
 72
     1
 10
86.96832672307076
 20
319.3653752393384
 11
86.96832672307076
 21
322.4191847631496
 72
     1
 10
86.96832672307076
 20
322.4191847631496
 11
85.77553402090416
 21
322.4191847631496
 72
     1
 10
85.77553402090416
 20
322.4191847631496
 11
85.77553402090416
 21
321.1104092529444
 72
     1
 10
85.77553402090416
 20
321.1104092529444
 11
84.53502961065016
 21
322.4191847631496
 97
       10
330
3AF
330
379
330
37A
330
37B
330
37C
330
3B2
330
377
330
3B1
330
3B0
330
378
 75
     1
 76
     0
 52
45.0
 41
0.1
 77
     0
 78
     1
 53
45.0
 43
0.0
 44
0.0
 45
-0.0707106781186548
 46
0.0707106781186548
 79
     0
 98
        1
 10
0.0
 20
0.0
  0
HATCH
  5
48B
330
71
100
AcDbEntity
  8
1
  6
Continuous
 62
     2
100
AcDbHatch
 10
0.0
 20
0.0
 30
0.0
210
0.0
220
0.0
230
1.0
  2
_USER
 70
     0
 71
     1
 91
        1
 92
        1
 93
       10
 72
     1
 10
84.53502961065016
 20
322.4191847631496
 11
83.34223690848364
 21
322.4191847631496
 72
     1
 10
83.34223690848364
 20
322.4191847631496
 11
83.34223690848364
 21
319.3653752393384
 72
     1
 10
83.34223690848364
 20
319.3653752393384
 11
84.53502961065016
 21
319.3653752393384
 72
     1
 10
84.53502961065016
 20
319.3653752393384
 11
84.53502961065016
 21
320.6741507495431
 72
     1
 10
84.53502961065016
 20
320.6741507495431
 11
85.77553402090416
 21
319.3653752393384
 72
     1
 10
85.77553402090416
 20
319.3653752393384
 11
86.96832672307076
 21
319.3653752393384
 72
     1
 10
86.96832672307076
 20
319.3653752393384
 11
86.96832672307076
 21
322.4191847631496
 72
     1
 10
86.96832672307076
 20
322.4191847631496
 11
85.77553402090416
 21
322.4191847631496
 72
     1
 10
85.77553402090416
 20
322.4191847631496
 11
85.77553402090416
 21
321.1104092529444
 72
     1
 10
85.77553402090416
 20
321.1104092529444
 11
84.53502961065016
 21
322.4191847631496
 97
       10
330
3AF
330
379
330
37A
330
37B
330
37C
330
3B2
330
377
330
3B1
330
3B0
330
378
 75
     1
 76
     0
 52
45.0
 41
0.1
 77
     0
 78
     1
 53
45.0
 43
0.0
 44
0.0
 45
-0.0707106781186548
 46
0.0707106781186548
 79
     0
 98
        1
 10
0.0
 20
0.0
  0
HATCH
  5
48C
330
71
100
AcDbEntity
  8
1
  6
Continuous
 62
     2
100
AcDbHatch
 10
0.0
 20
0.0
 30
0.0
210
0.0
220
0.0
230
1.0
  2
_USER
 70
     0
 71
     1
 91
        1
 92
        1
 93
       10
 72
     1
 10
79.28659079023154
 20
319.0599942869752
 11
78.09379808806395
 21
319.0599942869752
 72
     1
 10
78.09379808806395
 20
319.0599942869752
 11
78.09379808806395
 21
316.0061847631641
 72
     1
 10
78.09379808806395
 20
316.0061847631641
 11
79.28659079023154
 21
316.0061847631641
 72
     1
 10
79.28659079023154
 20
316.0061847631641
 11
79.28659079023154
 21
317.3149602733687
 72
     1
 10
79.28659079023154
 20
317.3149602733687
 11
80.52709520048444
 21
316.0061847631641
 72
     1
 10
80.52709520048444
 20
316.0061847631641
 11
81.71988790265084
 21
316.0061847631641
 72
     1
 10
81.71988790265084
 20
316.0061847631641
 11
81.71988790265084
 21
319.0599942869752
 72
     1
 10
81.71988790265084
 20
319.0599942869752
 11
80.52709520048444
 21
319.0599942869752
 72
     1
 10
80.52709520048444
 20
319.0599942869752
 11
80.52709520048444
 21
317.7512187767701
 72
     1
 10
80.52709520048444
 20
317.7512187767701
 11
79.28659079023154
 21
319.0599942869752
 97
       10
330
37E
330
37F
330
380
330
3AC
330
381
330
382
330
3AB
330
3AE
330
3AD
330
37D
 75
     1
 76
     0
 52
45.0
 41
0.1
 77
     0
 78
     1
 53
45.0
 43
0.0
 44
0.0
 45
-0.0707106781186548
 46
0.0707106781186548
 79
     0
 98
        1
 10
0.0
 20
0.0
  0
HATCH
  5
48D
330
71
100
AcDbEntity
  8
1
  6
Continuous
 62
     2
100
AcDbHatch
 10
0.0
 20
0.0
 30
0.0
210
0.0
220
0.0
230
1.0
  2
_USER
 70
     0
 71
     1
 91
        1
 92
        1
 93
       10
 72
     1
 10
79.28659079023154
 20
319.0599942869752
 11
78.09379808806395
 21
319.0599942869752
 72
     1
 10
78.09379808806395
 20
319.0599942869752
 11
78.09379808806395
 21
316.0061847631641
 72
     1
 10
78.09379808806395
 20
316.0061847631641
 11
79.28659079023154
 21
316.0061847631641
 72
     1
 10
79.28659079023154
 20
316.0061847631641
 11
79.28659079023154
 21
317.3149602733687
 72
     1
 10
79.28659079023154
 20
317.3149602733687
 11
80.52709520048444
 21
316.0061847631641
 72
     1
 10
80.52709520048444
 20
316.0061847631641
 11
81.71988790265084
 21
316.0061847631641
 72
     1
 10
81.71988790265084
 20
316.0061847631641
 11
81.71988790265084
 21
319.0599942869752
 72
     1
 10
81.71988790265084
 20
319.0599942869752
 11
80.52709520048444
 21
319.0599942869752
 72
     1
 10
80.52709520048444
 20
319.0599942869752
 11
80.52709520048444
 21
317.7512187767701
 72
     1
 10
80.52709520048444
 20
317.7512187767701
 11
79.28659079023154
 21
319.0599942869752
 97
       10
330
37E
330
37F
330
380
330
3AC
330
381
330
382
330
3AB
330
3AE
330
3AD
330
37D
 75
     1
 76
     0
 52
45.0
 41
0.1
 77
     0
 78
     1
 53
45.0
 43
0.0
 44
0.0
 45
-0.0707106781186548
 46
0.0707106781186548
 79
     0
 98
        1
 10
0.0
 20
0.0
  0
HATCH
  5
48E
330
71
100
AcDbEntity
  8
1
  6
Continuous
 62
     2
100
AcDbHatch
 10
0.0
 20
0.0
 30
0.0
210
0.0
220
0.0
230
1.0
  2
_USER
 70
     0
 71
     1
 91
        1
 92
        1
 93
       12
 72
     1
 10
78.28479585129614
 20
322.4191847631496
 11
78.28479585129614
 21
319.3653752393384
 72
     1
 10
78.28479585129614
 20
319.3653752393384
 11
77.09200314912974
 21
319.3653752393384
 72
     1
 10
77.09200314912974
 20
319.3653752393384
 11
77.09200314912974
 21
320.4996473481822
 72
     1
 10
77.09200314912974
 20
320.4996473481822
 11
76.04234557122226
 21
320.4996473481822
 72
     1
 10
76.04234557122226
 20
320.4996473481822
 11
76.04234557122226
 21
319.3653752393384
 72
     1
 10
76.04234557122226
 20
319.3653752393384
 11
74.84955286905566
 21
319.3653752393384
 72
     1
 10
74.84955286905566
 20
319.3653752393384
 11
74.84955286905566
 21
322.4191847631496
 72
     1
 10
74.84955286905566
 20
322.4191847631496
 11
76.04234557122226
 21
322.4191847631496
 72
     1
 10
76.04234557122226
 20
322.4191847631496
 11
76.04234557122226
 21
321.350351429815
 72
     1
 10
76.04234557122226
 20
321.350351429815
 11
77.09200314912974
 21
321.350351429815
 72
     1
 10
77.09200314912974
 20
321.350351429815
 11
77.09200314912974
 21
322.4191847631496
 72
     1
 10
77.09200314912974
 20
322.4191847631496
 11
78.28479585129614
 21
322.4191847631496
 97
       12
330
3A6
330
3A5
330
3A4
330
38C
330
38D
330
3A3
330
38E
330
3A2
330
3A1
330
3A0
330
38A
330
38B
 75
     1
 76
     0
 52
45.0
 41
0.1
 77
     0
 78
     1
 53
45.0
 43
0.0
 44
0.0
 45
-0.0707106781186548
 46
0.0707106781186548
 79
     0
 98
        1
 10
0.0
 20
0.0
  0
HATCH
  5
48F
330
71
100
AcDbEntity
  8
1
  6
Continuous
 62
     2
100
AcDbHatch
 10
0.0
 20
0.0
 30
0.0
210
0.0
220
0.0
230
1.0
  2
_USER
 70
     0
 71
     1
 91
        1
 92
        1
 93
       12
 72
     1
 10
78.28479585129614
 20
322.4191847631496
 11
78.28479585129614
 21
319.3653752393384
 72
     1
 10
78.28479585129614
 20
319.3653752393384
 11
77.09200314912974
 21
319.3653752393384
 72
     1
 10
77.09200314912974
 20
319.3653752393384
 11
77.09200314912974
 21
320.4996473481822
 72
     1
 10
77.09200314912974
 20
320.4996473481822
 11
76.04234557122226
 21
320.4996473481822
 72
     1
 10
76.04234557122226
 20
320.4996473481822
 11
76.04234557122226
 21
319.3653752393384
 72
     1
 10
76.04234557122226
 20
319.3653752393384
 11
74.84955286905566
 21
319.3653752393384
 72
     1
 10
74.84955286905566
 20
319.3653752393384
 11
74.84955286905566
 21
322.4191847631496
 72
     1
 10
74.84955286905566
 20
322.4191847631496
 11
76.04234557122226
 21
322.4191847631496
 72
     1
 10
76.04234557122226
 20
322.4191847631496
 11
76.04234557122226
 21
321.350351429815
 72
     1
 10
76.04234557122226
 20
321.350351429815
 11
77.09200314912974
 21
321.350351429815
 72
     1
 10
77.09200314912974
 20
321.350351429815
 11
77.09200314912974
 21
322.4191847631496
 72
     1
 10
77.09200314912974
 20
322.4191847631496
 11
78.28479585129614
 21
322.4191847631496
 97
       12
330
3A6
330
3A5
330
3A4
330
38C
330
38D
330
3A3
330
38E
330
3A2
330
3A1
330
3A0
330
38A
330
38B
 75
     1
 76
     0
 52
45.0
 41
0.1
 77
     0
 78
     1
 53
45.0
 43
0.0
 44
0.0
 45
-0.0707106781186548
 46
0.0707106781186548
 79
     0
 98
        1
 10
0.0
 20
0.0
  0
ENDBLK
  5
73
330
71
100
AcDbEntity
  8
0
100
AcDbBlockEnd
  0
BLOCK
  5
75
330
74
100
AcDbEntity
  8
0
100
AcDbBlockBegin
  2
_punkt
 70
     0
 10
190.1620996650851
 20
308.7126847631478
 30
0.0
  3
_punkt
  1

  0
LINE
  5
490
330
74
100
AcDbEntity
  8
1
  6
Continuous
 62
     2
100
AcDbLine
 10
190.1620996650851
 20
308.7126847631478
 30
0.0
 11
190.1620996650851
 21
303.7126847631477
 31
0.0
  0
LINE
  5
491
330
74
100
AcDbEntity
  8
1
  6
Continuous
 62
     2
100
AcDbLine
 10
190.1620996650851
 20
308.7126847631478
 30
0.0
 11
195.162099665084
 21
308.7126847631478
 31
0.0
  0
ENDBLK
  5
76
330
74
100
AcDbEntity
  8
0
100
AcDbBlockEnd
  0
BLOCK
  5
7A
330
77
100
AcDbEntity
  8
0
100
AcDbBlockBegin
  2
A4I_CS
 70
     0
 10
190.1620996650851
 20
303.7126847631477
 30
0.0
  3
A4I_CS
  1

  0
INSERT
  5
78
330
77
100
AcDbEntity
  8
1
100
AcDbBlockReference
  2
_rahmen
 10
190.1620996650851
 20
303.7126847631477
 30
0.0
  0
INSERT
  5
79
330
77
100
AcDbEntity
  8
1
100
AcDbBlockReference
  2
_punkt
 10
190.1620996650851
 20
308.7126847631478
 30
0.0
  0
ENDBLK
  5
7B
330
77
100
AcDbEntity
  8
0
100
AcDbBlockEnd
  0
BLOCK
  5
84
330
7C
100
AcDbEntity
  8
0
100
AcDbBlockBegin
  2
1
 70
     0
 10
0.0
 20
0.0
 30
0.0
  3
1
  1

  0
INSERT
  5
7D
330
7C
100
AcDbEntity
  8
0
100
AcDbBlockReference
  2
AllgSicht1
 10
132.6618919999961
 20
383.0
 30
0.0
  0
INSERT
  5
7E
330
7C
100
AcDbEntity
  8
0
100
AcDbBlockReference
  2
Drfsicht1
 10
11.0000001659732
 20
382.805316834026
 30
0.0
  0
INSERT
  5
7F
330
7C
100
AcDbEntity
  8
0
100
AcDbBlockReference
  2
Rckans1
 10
133.661892
 20
456.311488
 30
0.0
  0
INSERT
  5
80
330
7C
100
AcDbEntity
  8
0
100
AcDbBlockReference
  2
SA_Links1
 10
71.33094599999691
 20
456.3114880000003
 30
0.0
  0
INSERT
  5
81
330
7C
100
AcDbEntity
  8
0
100
AcDbBlockReference
  2
SA_Rechts1
 10
-72.51269199999662
 20
456.311488
 30
0.0
  0
INSERT
  5
82
330
7C
100
AcDbEntity
  8
0
100
AcDbBlockReference
  2
Vordans1
 10
10.99999999999901
 20
456.3114880000003
 30
0.0
  0
INSERT
  5
83
330
7C
100
AcDbEntity
  8
0
100
AcDbBlockReference
  2
A4I_CS
 10
190.1620996650851
 20
303.7126847631477
 30
0.0
  0
ENDBLK
  5
85
330
7C
100
AcDbEntity
  8
0
100
AcDbBlockEnd
  0
BLOCK
  5
23E
330
235
100
AcDbEntity
  8
0
100
AcDbBlockBegin
  2
*D17
 70
     1
 10
0.0
 20
0.0
 30
0.0
  3
*D17
  1

  0
LINE
  5
236
330
235
100
AcDbEntity
  8
1
  6
Continuous
 62
     2
100
AcDbLine
 10
-41.30322531069632
 20
393.8803170247607
 30
0.0
 11
-41.30322531069632
 21
386.8803170247607
 31
0.0
  0
LINE
  5
237
330
235
100
AcDbEntity
  8
1
  6
Continuous
 62
     2
100
AcDbLine
 10
-41.30322531069632
 20
386.8803170247607
 30
0.0
 11
-41.30322531069632
 21
378.730317024761
 31
0.0
  0
LINE
  5
238
330
235
100
AcDbEntity
  8
1
  6
Continuous
 62
     2
100
AcDbLine
 10
-41.30322531069632
 20
378.730317024761
 30
0.0
 11
-41.30322531069632
 21
371.730317024761
 31
0.0
  0
LINE
  5
239
330
235
100
AcDbEntity
  8
1
  6
Continuous
 62
     2
100
AcDbLine
 10
-30.28980474411447
 20
386.8803170247607
 30
0.0
 11
-42.80322531069632
 21
386.8803170247607
 31
0.0
  0
LINE
  5
23A
330
235
100
AcDbEntity
  8
1
  6
Continuous
 62
     2
100
AcDbLine
 10
-30.28980474411446
 20
378.730317024761
 30
0.0
 11
-42.80322531069632
 21
378.730317024761
 31
0.0
  0
SOLID
  5
23B
330
235
100
AcDbEntity
  8
1
 62
     2
100
AcDbTrace
 10
-41.76400905225221
 20
390.3803170247607
 30
0.0
 11
-40.84244156914043
 21
390.3803170247607
 31
0.0
 12
-41.30322531069632
 22
386.8803170247607
 32
0.0
 13
-41.30322531069632
 23
386.8803170247607
 33
0.0
  0
SOLID
  5
23C
330
235
100
AcDbEntity
  8
1
 62
     2
100
AcDbTrace
 10
-40.84244156914043
 20
375.230317024761
 30
0.0
 11
-41.76400905225221
 21
375.230317024761
 31
0.0
 12
-41.30322531069632
 22
378.730317024761
 32
0.0
 13
-41.30322531069632
 23
378.730317024761
 33
0.0
  0
MTEXT
  5
23D
330
235
100
AcDbEntity
  8
1
 62
     3
100
AcDbMText
 10
-43.15322531069631
 20
378.8840762433349
 30
0.0
 40
3.5
 41
0.0
 71
     7
 72
     1
  1
8,15
  7
CONVERTER_11
 11
0.0
 21
1.0
 31
0.0
 73
     1
 44
0.60024009603842
  0
ENDBLK
  5
23F
330
235
100
AcDbEntity
  8
0
100
AcDbBlockEnd
  0
BLOCK
  5
329
330
322
100
AcDbEntity
  8
0
100
AcDbBlockBegin
  2
*D18
 70
     1
 10
0.0
 20
0.0
 30
0.0
  3
*D18
  1

  0
LINE
  5
323
330
322
100
AcDbEntity
  8
1
  6
Continuous
 62
     2
100
AcDbLine
 10
54.25000086056579
 20
400.0796051655056
 30
0.0
 11
-32.24999913943481
 21
400.0796051655056
 31
0.0
  0
LINE
  5
324
330
322
100
AcDbEntity
  8
1
  6
Continuous
 62
     2
100
AcDbLine
 10
54.25000086056579
 20
461.4864874815676
 30
0.0
 11
54.25000086056579
 21
398.0796051655056
 31
0.0
  0
LINE
  5
325
330
322
100
AcDbEntity
  8
1
  6
Continuous
 62
     2
100
AcDbLine
 10
-32.24999913943481
 20
461.4864874815698
 30
0.0
 11
-32.24999913943481
 21
398.0796051655056
 31
0.0
  0
SOLID
  5
326
330
322
100
AcDbEntity
  8
1
 62
     2
100
AcDbTrace
 10
50.75000086056579
 20
399.6188214239497
 30
0.0
 11
50.75000086056579
 21
400.5403889070615
 31
0.0
 12
54.25000086056579
 22
400.0796051655056
 32
0.0
 13
54.25000086056579
 23
400.0796051655056
 33
0.0
  0
SOLID
  5
327
330
322
100
AcDbEntity
  8
1
 62
     2
100
AcDbTrace
 10
-28.74999913943481
 20
400.5403889070615
 30
0.0
 11
-28.74999913943481
 21
399.6188214239497
 31
0.0
 12
-32.24999913943481
 22
400.0796051655056
 32
0.0
 13
-32.24999913943481
 23
400.0796051655056
 33
0.0
  0
MTEXT
  5
328
330
322
100
AcDbEntity
  8
1
 62
     3
100
AcDbMText
 10
4.04091158210036
 20
402.4296051655056
 30
0.0
 40
3.5
 41
0.0
 71
     7
 72
     1
  1
86,5
  7
CONVERTER_11
 11
0.9999999999970619
 21
2.424068405545306E-6
 31
0.0
 73
     1
 44
0.60024009603842
  0
ENDBLK
  5
32A
330
322
100
AcDbEntity
  8
0
100
AcDbBlockEnd
  0
BLOCK
  5
334
330
32D
100
AcDbEntity
  8
0
100
AcDbBlockBegin
  2
*D19
 70
     1
 10
0.0
 20
0.0
 30
0.0
  3
*D19
  1

  0
LINE
  5
32E
330
32D
100
AcDbEntity
  8
1
  6
Continuous
 62
     2
100
AcDbLine
 10
2.1500008605666
 20
410.445820861423
 30
0.0
 11
54.25000086056581
 21
410.445820861423
 31
0.0
  0
LINE
  5
32F
330
32D
100
AcDbEntity
  8
1
  6
Continuous
 62
     2
100
AcDbLine
 10
2.1500008605666
 20
437.377010525956
 30
0.0
 11
2.1500008605666
 21
408.445820861423
 31
0.0
  0
LINE
  5
330
330
32D
100
AcDbEntity
  8
1
  6
Continuous
 62
     2
100
AcDbLine
 10
54.25000086056581
 20
461.4864874815676
 30
0.0
 11
54.25000086056581
 21
408.445820861423
 31
0.0
  0
SOLID
  5
331
330
32D
100
AcDbEntity
  8
1
 62
     2
100
AcDbTrace
 10
5.6500008605666
 20
410.9066046029789
 30
0.0
 11
5.6500008605666
 21
409.9850371198671
 31
0.0
 12
2.1500008605666
 22
410.445820861423
 32
0.0
 13
2.1500008605666
 23
410.445820861423
 33
0.0
  0
SOLID
  5
332
330
32D
100
AcDbEntity
  8
1
 62
     2
100
AcDbTrace
 10
50.75000086056581
 20
409.9850371198671
 30
0.0
 11
50.75000086056581
 21
410.9066046029789
 31
0.0
 12
54.25000086056581
 22
410.445820861423
 32
0.0
 13
54.25000086056581
 23
410.445820861423
 33
0.0
  0
MTEXT
  5
333
330
32D
100
AcDbEntity
  8
1
 62
     3
100
AcDbMText
 10
22.40784441314181
 20
412.795820861423
 30
0.0
 40
3.5
 41
0.0
 71
     7
 72
     1
  1
52,1
  7
CONVERTER_11
 11
0.9999999999970619
 21
2.424068405545306E-6
 31
0.0
 73
     1
 44
0.60024009603842
  0
ENDBLK
  5
335
330
32D
100
AcDbEntity
  8
0
100
AcDbBlockEnd
  0
BLOCK
  5
33F
330
338
100
AcDbEntity
  8
0
100
AcDbBlockBegin
  2
*D20
 70
     1
 10
0.0
 20
0.0
 30
0.0
  3
*D20
  1

  0
LINE
  5
339
330
338
100
AcDbEntity
  8
1
  6
Continuous
 62
     2
100
AcDbLine
 10
-38.05050368947909
 20
476.4864874815698
 30
0.0
 11
-38.05050368947909
 21
440.2864874815683
 31
0.0
  0
LINE
  5
33A
330
338
100
AcDbEntity
  8
1
  6
Continuous
 62
     2
100
AcDbLine
 10
-11.94999913943501
 20
476.4864874815698
 30
0.0
 11
-39.55050368947909
 21
476.4864874815698
 31
0.0
  0
LINE
  5
33B
330
338
100
AcDbEntity
  8
1
  6
Continuous
 62
     2
100
AcDbLine
 10
-13.44999913943472
 20
440.2864874815683
 30
0.0
 11
-39.55050368947909
 21
440.2864874815683
 31
0.0
  0
SOLID
  5
33C
330
338
100
AcDbEntity
  8
1
 62
     2
100
AcDbTrace
 10
-37.58971994792321
 20
472.9864874815698
 30
0.0
 11
-38.51128743103498
 21
472.9864874815698
 31
0.0
 12
-38.05050368947909
 22
476.4864874815698
 32
0.0
 13
-38.05050368947909
 23
476.4864874815698
 33
0.0
  0
SOLID
  5
33D
330
338
100
AcDbEntity
  8
1
 62
     2
100
AcDbTrace
 10
-38.51128743103498
 20
443.7864874815683
 30
0.0
 11
-37.58971994792321
 21
443.7864874815683
 31
0.0
 12
-38.05050368947909
 22
440.2864874815683
 32
0.0
 13
-38.05050368947909
 23
440.2864874815683
 33
0.0
  0
MTEXT
  5
33E
330
338
100
AcDbEntity
  8
1
 62
     3
100
AcDbMText
 10
-39.90050368947909
 20
452.2837850695481
 30
0.0
 40
3.5
 41
0.0
 71
     7
 72
     1
  1
36,2
  7
CONVERTER_11
 11
0.0
 21
1.0
 31
0.0
 73
     1
 44
0.60024009603842
  0
ENDBLK
  5
340
330
338
100
AcDbEntity
  8
0
100
AcDbBlockEnd
  0
BLOCK
  5
34A
330
343
100
AcDbEntity
  8
0
100
AcDbBlockBegin
  2
*D21
 70
     1
 10
0.0
 20
0.0
 30
0.0
  3
*D21
  1

  0
LINE
  5
344
330
343
100
AcDbEntity
  8
1
  6
Continuous
 62
     2
100
AcDbLine
 10
2.15000086056661
 20
420.427529075724
 30
0.0
 11
19.65000086056572
 21
420.427529075724
 31
0.0
  0
LINE
  5
345
330
343
100
AcDbEntity
  8
1
  6
Continuous
 62
     2
100
AcDbLine
 10
2.15000086056661
 20
437.377010525956
 30
0.0
 11
2.15000086056661
 21
418.427529075724
 31
0.0
  0
LINE
  5
346
330
343
100
AcDbEntity
  8
1
  6
Continuous
 62
     2
100
AcDbLine
 10
19.65000086056572
 20
439.1864874815683
 30
0.0
 11
19.65000086056572
 21
418.427529075724
 31
0.0
  0
SOLID
  5
347
330
343
100
AcDbEntity
  8
1
 62
     2
100
AcDbTrace
 10
5.65000086056661
 20
420.8883128172799
 30
0.0
 11
5.65000086056661
 21
419.9667453341681
 31
0.0
 12
2.15000086056661
 22
420.427529075724
 32
0.0
 13
2.15000086056661
 23
420.427529075724
 33
0.0
  0
SOLID
  5
348
330
343
100
AcDbEntity
  8
1
 62
     2
100
AcDbTrace
 10
16.15000086056572
 20
419.9667453341681
 30
0.0
 11
16.15000086056572
 21
420.8883128172799
 31
0.0
 12
19.65000086056572
 22
420.427529075724
 32
0.0
 13
19.65000086056572
 23
420.427529075724
 33
0.0
  0
MTEXT
  5
349
330
343
100
AcDbEntity
  8
1
 62
     3
100
AcDbMText
 10
7.66297067388756
 20
422.777529075724
 30
0.0
 40
3.5
 41
0.0
 71
     7
 72
     1
  1
17,5
  7
CONVERTER_11
 11
0.9999999999970619
 21
2.424068405545306E-6
 31
0.0
 73
     1
 44
0.60024009603842
  0
ENDBLK
  5
34B
330
343
100
AcDbEntity
  8
0
100
AcDbBlockEnd
  0
BLOCK
  5
355
330
34E
100
AcDbEntity
  8
0
100
AcDbBlockBegin
  2
*D22
 70
     1
 10
0.0
 20
0.0
 30
0.0
  3
*D22
  1

  0
LINE
  5
34F
330
34E
100
AcDbEntity
  8
1
  6
Continuous
 62
     2
100
AcDbLine
 10
-47.36169281457961
 20
478.3364874815696
 30
0.0
 11
-47.36169281457961
 21
434.2864874815687
 31
0.0
  0
LINE
  5
350
330
34E
100
AcDbEntity
  8
1
  6
Continuous
 62
     2
100
AcDbLine
 10
12.96881664683341
 20
478.3364874815696
 30
0.0
 11
-48.86169281457961
 21
478.3364874815696
 31
0.0
  0
LINE
  5
351
330
34E
100
AcDbEntity
  8
1
  6
Continuous
 62
     2
100
AcDbLine
 10
-15.40894279256682
 20
434.2864874815687
 30
0.0
 11
-48.86169281457961
 21
434.2864874815687
 31
0.0
  0
SOLID
  5
352
330
34E
100
AcDbEntity
  8
1
 62
     2
100
AcDbTrace
 10
-46.90090907302372
 20
474.8364874815696
 30
0.0
 11
-47.82247655613549
 21
474.8364874815696
 31
0.0
 12
-47.36169281457961
 22
478.3364874815696
 32
0.0
 13
-47.36169281457961
 23
478.3364874815696
 33
0.0
  0
SOLID
  5
353
330
34E
100
AcDbEntity
  8
1
 62
     2
100
AcDbTrace
 10
-47.82247655613549
 20
437.7864874815687
 30
0.0
 11
-46.90090907302372
 21
437.7864874815687
 31
0.0
 12
-47.36169281457961
 22
434.2864874815687
 32
0.0
 13
-47.36169281457961
 23
434.2864874815687
 33
0.0
  0
MTEXT
  5
354
330
34E
100
AcDbEntity
  8
1
 62
     3
100
AcDbMText
 10
-49.2116928145796
 20
453.021670039471
 30
0.0
 40
3.5
 41
0.0
 71
     7
 72
     1
  1
44,1
  7
CONVERTER_11
 11
0.0
 21
1.0
 31
0.0
 73
     1
 44
0.60024009603842
  0
ENDBLK
  5
356
330
34E
100
AcDbEntity
  8
0
100
AcDbBlockEnd
  0
ENDSEC
  0
SECTION
  2
ENTITIES
  0
INSERT
  5
86
330
1F
100
AcDbEntity
  8
1
100
AcDbBlockReference
  2
1
 10
0.0
 20
0.0
 30
0.0
  0
ENDSEC
  0
SECTION
  2
OBJECTS
  0
DICTIONARY
  5
C
330
0
100
AcDbDictionary
281
     1
  3
ACAD_GROUP
350
D
  3
ACAD_LAYOUT
350
1A
  3
ACAD_MATERIAL
350
3B
  3
ACAD_MLEADERSTYLE
350
4B9
  3
ACAD_MLINESTYLE
350
17
  3
ACAD_PLOTSETTINGS
350
19
  3
ACAD_PLOTSTYLENAME
350
E
  3
ACAD_TABLESTYLE
350
4B8
  3
ACAD_VISUALSTYLE
350
2A
  0
DICTIONARY
  5
D
102
{ACAD_REACTORS
330
C
102
}
330
C
100
AcDbDictionary
281
     1
  0
DICTIONARY
  5
1A
102
{ACAD_REACTORS
330
C
102
}
330
C
100
AcDbDictionary
281
     1
  3
Layout1
350
1E
  3
Layout2
350
26
  3
Model
350
22
  0
DICTIONARY
  5
3B
102
{ACAD_REACTORS
330
C
102
}
330
C
100
AcDbDictionary
281
     1
  3
ByBlock
350
3D
  3
ByLayer
350
3C
  3
Global
350
3E
  0
DICTIONARY
  5
4B9
102
{ACAD_REACTORS
330
C
102
}
330
C
100
AcDbDictionary
281
     1
  0
DICTIONARY
  5
17
102
{ACAD_REACTORS
330
C
102
}
330
C
100
AcDbDictionary
281
     1
  3
Standard
350
18
  0
DICTIONARY
  5
19
102
{ACAD_REACTORS
330
C
102
}
330
C
100
AcDbDictionary
281
     1
  0
ACDBDICTIONARYWDFLT
  5
E
102
{ACAD_REACTORS
330
C
102
}
330
C
100
AcDbDictionary
281
     1
  3
Normal
350
F
100
AcDbDictionaryWithDefault
340
F
  0
DICTIONARY
  5
4B8
102
{ACAD_REACTORS
330
C
102
}
330
C
100
AcDbDictionary
281
     1
  0
DICTIONARY
  5
2A
102
{ACAD_REACTORS
330
C
102
}
330
C
100
AcDbDictionary
281
     1
  3
2dWireframe
350
2F
  3
3D Hidden
350
31
  3
3dWireframe
350
30
  3
Basic
350
32
  3
Brighten
350
36
  3
ColorChange
350
3A
  3
Conceptual
350
34
  3
Dim
350
35
  3
Facepattern
350
39
  3
Flat
350
2B
  3
FlatWithEdges
350
2C
  3
Gouraud
350
2D
  3
GouraudWithEdges
350
2E
  3
Linepattern
350
38
  3
Realistic
350
33
  3
Thicken
350
37
  0
LAYOUT
  5
1E
102
{ACAD_REACTORS
330
1A
102
}
330
1A
100
AcDbPlotSettings
  1

  2
none_device
  4

  6

 40
0.0
 41
0.0
 42
0.0
 43
0.0
 44
0.0
 45
0.0
 46
0.0
 47
0.0
 48
0.0
 49
0.0
140
0.0
141
0.0
142
1.0
143
1.0
 70
   688
 72
     0
 73
     0
 74
     5
  7

 75
    16
 76
     0
 77
     2
 78
   300
147
1.0
148
0.0
149
0.0
100
AcDbLayout
  1
Layout1
 70
     1
 71
     1
 10
0.0
 20
0.0
 11
12.0
 21
9.0
 12
0.0
 22
0.0
 32
0.0
 14
1.00000000000000E+20
 24
1.00000000000000E+20
 34
1.00000000000000E+20
 15
-1.00000000000000E+20
 25
-1.00000000000000E+20
 35
-1.00000000000000E+20
146
0.0
 13
0.0
 23
0.0
 33
0.0
 16
1.0
 26
0.0
 36
0.0
 17
0.0
 27
1.0
 37
0.0
 76
     0
330
1B
  0
LAYOUT
  5
26
102
{ACAD_REACTORS
330
1A
102
}
330
1A
100
AcDbPlotSettings
  1

  2
none_device
  4

  6

 40
0.0
 41
0.0
 42
0.0
 43
0.0
 44
0.0
 45
0.0
 46
0.0
 47
0.0
 48
0.0
 49
0.0
140
0.0
141
0.0
142
1.0
143
1.0
 70
   688
 72
     0
 73
     0
 74
     5
  7

 75
    16
 76
     0
 77
     2
 78
   300
147
1.0
148
0.0
149
0.0
100
AcDbLayout
  1
Layout2
 70
     1
 71
     2
 10
0.0
 20
0.0
 11
0.0
 21
0.0
 12
0.0
 22
0.0
 32
0.0
 14
0.0
 24
0.0
 34
0.0
 15
0.0
 25
0.0
 35
0.0
146
0.0
 13
0.0
 23
0.0
 33
0.0
 16
1.0
 26
0.0
 36
0.0
 17
0.0
 27
1.0
 37
0.0
 76
     0
330
23
  0
LAYOUT
  5
22
102
{ACAD_REACTORS
330
1A
102
}
330
1A
100
AcDbPlotSettings
  1

  2
none_device
  4

  6

 40
0.0
 41
0.0
 42
0.0
 43
0.0
 44
0.0
 45
0.0
 46
0.0
 47
0.0
 48
0.0
 49
0.0
140
0.0
141
0.0
142
1.0
143
1.0
 70
  1712
 72
     0
 73
     0
 74
     0
  7

 75
     0
 76
     0
 77
     2
 78
   300
147
1.0
148
0.0
149
0.0
100
AcDbLayout
  1
Model
 70
     1
 71
     0
 10
0.0
 20
0.0
 11
12.0
 21
9.0
 12
0.0
 22
0.0
 32
0.0
 14
-101.837900334914
 24
303.7126847631477
 34
0.0
 15
195.162099665084
 25
513.7126847631478
 35
0.0
146
0.0
 13
0.0
 23
0.0
 33
0.0
 16
1.0
 26
0.0
 36
0.0
 17
0.0
 27
1.0
 37
0.0
 76
     0
330
1F
331
29
  0
MATERIAL
  5
3D
102
{ACAD_REACTORS
330
3B
102
}
102
{ACAD_XDICTIONARY
360
4B4
102
}
330
3B
100
AcDbMaterial
  1
ByBlock
  0
MATERIAL
  5
3C
102
{ACAD_REACTORS
330
3B
102
}
102
{ACAD_XDICTIONARY
360
4B2
102
}
330
3B
100
AcDbMaterial
  1
ByLayer
  0
MATERIAL
  5
3E
102
{ACAD_REACTORS
330
3B
102
}
102
{ACAD_XDICTIONARY
360
4B6
102
}
330
3B
100
AcDbMaterial
  1
Global
  0
MLINESTYLE
  5
18
102
{ACAD_REACTORS
330
17
102
}
330
17
100
AcDbMlineStyle
  2
Standard
 70
     0
  3

 62
   256
 51
90.0
 52
90.0
 71
     2
 49
0.5
 62
   256
  6
BYLAYER
 49
-0.5
 62
   256
  6
BYLAYER
  0
ACDBPLACEHOLDER
  5
F
102
{ACAD_REACTORS
330
E
102
}
330
E
  0
VISUALSTYLE
  5
2F
102
{ACAD_REACTORS
330
2A
102
}
102
{ACAD_XDICTIONARY
360
49A
102
}
330
2A
100
AcDbVisualStyle
  2
2dWireframe
 70
     4
 71
     0
 72
     2
 73
     0
 90
        0
 40
-0.6
 41
-30.0
 62
     5
 63
     7
421
 16777215
 74
     1
 91
        4
 64
     7
 65
   257
 75
     1
175
     1
 42
1.0
 92
        0
 66
   257
 43
1.0
 76
     1
 77
     6
 78
     2
 67
     7
 79
     5
170
     0
171
     0
290
     0
174
     0
 93
        1
 44
0.0
173
     0
291
     0
 45
0.0
1001
ACAD
1000
AcDbSavedByObjectVersion
1070
     0
  0
VISUALSTYLE
  5
31
102
{ACAD_REACTORS
330
2A
102
}
102
{ACAD_XDICTIONARY
360
49E
102
}
330
2A
100
AcDbVisualStyle
  2
3D Hidden
 70
     6
 71
     1
 72
     2
 73
     2
 90
        0
 40
-0.6
 41
-30.0
 62
     5
 63
     7
421
 16777215
 74
     2
 91
        2
 64
     7
 65
   257
 75
     2
175
     1
 42
40.0
 92
        0
 66
   257
 43
1.0
 76
     1
 77
     6
 78
     2
 67
     7
 79
     3
170
     0
171
     0
290
     0
174
     0
 93
        1
 44
0.0
173
     0
291
     0
 45
0.0
1001
ACAD
1000
AcDbSavedByObjectVersion
1070
     0
  0
VISUALSTYLE
  5
30
102
{ACAD_REACTORS
330
2A
102
}
102
{ACAD_XDICTIONARY
360
49C
102
}
330
2A
100
AcDbVisualStyle
  2
3dWireframe
 70
     5
 71
     0
 72
     2
 73
     0
 90
        0
 40
-0.6
 41
-30.0
 62
     5
 63
     7
421
 16777215
 74
     1
 91
        4
 64
     7
 65
   257
 75
     1
175
     1
 42
1.0
 92
        0
 66
   257
 43
1.0
 76
     1
 77
     6
 78
     2
 67
     7
 79
     5
170
     0
171
     0
290
     0
174
     0
 93
        1
 44
0.0
173
     0
291
     0
 45
0.0
1001
ACAD
1000
AcDbSavedByObjectVersion
1070
     0
  0
VISUALSTYLE
  5
32
102
{ACAD_REACTORS
330
2A
102
}
102
{ACAD_XDICTIONARY
360
4A0
102
}
330
2A
100
AcDbVisualStyle
  2
Basic
 70
     7
 71
     1
 72
     0
 73
     1
 90
        0
 40
-0.6
 41
-30.0
 62
     5
 63
     7
421
 16777215
 74
     0
 91
        4
 64
     7
 65
   257
 75
     1
175
     1
 42
1.0
 92
        8
 66
     7
 43
1.0
 76
     1
 77
     6
 78
     2
 67
     7
 79
     5
170
     0
171
     0
290
     0
174
     0
 93
        1
 44
0.0
173
     0
291
     1
 45
0.0
1001
ACAD
1000
AcDbSavedByObjectVersion
1070
     0
  0
VISUALSTYLE
  5
36
102
{ACAD_REACTORS
330
2A
102
}
102
{ACAD_XDICTIONARY
360
4A8
102
}
330
2A
100
AcDbVisualStyle
  2
Brighten
 70
    12
 71
     2
 72
     2
 73
     0
 90
        0
 40
-0.6
 41
-30.0
 62
     5
 63
     7
421
 16777215
 74
     1
 91
        4
 64
     7
 65
   257
 75
     1
175
     1
 42
1.0
 92
        8
 66
     7
 43
1.0
 76
     1
 77
     6
 78
     2
 67
     7
 79
     5
170
     0
171
     0
290
     0
174
     0
 93
        1
 44
50.0
173
     0
291
     1
 45
0.0
1001
ACAD
1000
AcDbSavedByObjectVersion
1070
     0
  0
VISUALSTYLE
  5
3A
102
{ACAD_REACTORS
330
2A
102
}
102
{ACAD_XDICTIONARY
360
4B0
102
}
330
2A
100
AcDbVisualStyle
  2
ColorChange
 70
    16
 71
     2
 72
     2
 73
     3
 90
        0
 40
-0.6
 41
-30.0
 62
     5
 63
     8
421
  8421504
 74
     1
 91
        4
 64
     7
 65
   257
 75
     1
175
     1
 42
1.0
 92
        8
 66
     8
424
  8421504
 43
1.0
 76
     1
 77
     6
 78
     2
 67
     7
 79
     5
170
     0
171
     0
290
     0
174
     0
 93
        1
 44
0.0
173
     0
291
     1
 45
0.0
1001
ACAD
1000
AcDbSavedByObjectVersion
1070
     0
  0
VISUALSTYLE
  5
34
102
{ACAD_REACTORS
330
2A
102
}
102
{ACAD_XDICTIONARY
360
4A4
102
}
330
2A
100
AcDbVisualStyle
  2
Conceptual
 70
     9
 71
     3
 72
     2
 73
     0
 90
        0
 40
-0.6
 41
-30.0
 62
     5
 63
     7
421
 16777215
 74
     2
 91
        2
 64
     7
 65
   257
 75
     1
175
     1
 42
40.0
 92
        8
 66
     7
 43
1.0
 76
     1
 77
     6
 78
     2
 67
     7
 79
     3
170
     0
171
     0
290
     0
174
     0
 93
        1
 44
0.0
173
     0
291
     0
 45
0.0
1001
ACAD
1000
AcDbSavedByObjectVersion
1070
     0
  0
VISUALSTYLE
  5
35
102
{ACAD_REACTORS
330
2A
102
}
102
{ACAD_XDICTIONARY
360
4A6
102
}
330
2A
100
AcDbVisualStyle
  2
Dim
 70
    11
 71
     2
 72
     2
 73
     0
 90
        0
 40
-0.6
 41
-30.0
 62
     5
 63
     7
421
 16777215
 74
     1
 91
        4
 64
     7
 65
   257
 75
     1
175
     1
 42
1.0
 92
        8
 66
     7
 43
1.0
 76
     1
 77
     6
 78
     2
 67
     7
 79
     5
170
     0
171
     0
290
     0
174
     0
 93
        1
 44
-50.0
173
     0
291
     1
 45
0.0
1001
ACAD
1000
AcDbSavedByObjectVersion
1070
     0
  0
VISUALSTYLE
  5
39
102
{ACAD_REACTORS
330
2A
102
}
102
{ACAD_XDICTIONARY
360
4AE
102
}
330
2A
100
AcDbVisualStyle
  2
Facepattern
 70
    15
 71
     2
 72
     2
 73
     0
 90
        0
 40
-0.6
 41
-30.0
 62
     5
 63
     7
421
 16777215
 74
     1
 91
        4
 64
     7
 65
   257
 75
     1
175
     1
 42
1.0
 92
        8
 66
     7
 43
1.0
 76
     1
 77
     6
 78
     2
 67
     7
 79
     5
170
     0
171
     0
290
     0
174
     0
 93
        1
 44
0.0
173
     0
291
     1
 45
0.0
1001
ACAD
1000
AcDbSavedByObjectVersion
1070
     0
  0
VISUALSTYLE
  5
2B
102
{ACAD_REACTORS
330
2A
102
}
102
{ACAD_XDICTIONARY
360
492
102
}
330
2A
100
AcDbVisualStyle
  2
Flat
 70
     0
 71
     2
 72
     1
 73
     1
 90
        2
 40
-0.6
 41
30.0
 62
     5
 63
     7
421
 16777215
 74
     0
 91
        4
 64
     7
 65
   257
 75
     1
175
     1
 42
1.0
 92
        8
 66
     7
 43
1.0
 76
     1
 77
     6
 78
     2
 67
     7
 79
     5
170
     0
171
     0
290
     0
174
     0
 93
       13
 44
0.0
173
     0
291
     1
 45
0.0
1001
ACAD
1000
AcDbSavedByObjectVersion
1070
     0
  0
VISUALSTYLE
  5
2C
102
{ACAD_REACTORS
330
2A
102
}
102
{ACAD_XDICTIONARY
360
494
102
}
330
2A
100
AcDbVisualStyle
  2
FlatWithEdges
 70
     1
 71
     2
 72
     1
 73
     1
 90
        2
 40
-0.6
 41
30.0
 62
     5
 63
     7
421
 16777215
 74
     1
 91
        4
 64
     7
 65
   257
 75
     1
175
     1
 42
1.0
 92
        0
 66
   257
 43
1.0
 76
     1
 77
     6
 78
     2
 67
     7
 79
     5
170
     0
171
     0
290
     0
174
     0
 93
       13
 44
0.0
173
     0
291
     1
 45
0.0
1001
ACAD
1000
AcDbSavedByObjectVersion
1070
     0
  0
VISUALSTYLE
  5
2D
102
{ACAD_REACTORS
330
2A
102
}
102
{ACAD_XDICTIONARY
360
496
102
}
330
2A
100
AcDbVisualStyle
  2
Gouraud
 70
     2
 71
     2
 72
     2
 73
     1
 90
        2
 40
-0.6
 41
30.0
 62
     5
 63
     7
421
 16777215
 74
     0
 91
        4
 64
     7
 65
   257
 75
     1
175
     1
 42
1.0
 92
        0
 66
     7
 43
1.0
 76
     1
 77
     6
 78
     2
 67
     7
 79
     5
170
     0
171
     0
290
     0
174
     0
 93
       13
 44
0.0
173
     0
291
     1
 45
0.0
1001
ACAD
1000
AcDbSavedByObjectVersion
1070
     0
  0
VISUALSTYLE
  5
2E
102
{ACAD_REACTORS
330
2A
102
}
102
{ACAD_XDICTIONARY
360
498
102
}
330
2A
100
AcDbVisualStyle
  2
GouraudWithEdges
 70
     3
 71
     2
 72
     2
 73
     1
 90
        2
 40
-0.6
 41
30.0
 62
     5
 63
     7
421
 16777215
 74
     1
 91
        4
 64
     7
 65
   257
 75
     1
175
     1
 42
1.0
 92
        0
 66
   257
 43
1.0
 76
     1
 77
     6
 78
     2
 67
     7
 79
     5
170
     0
171
     0
290
     0
174
     0
 93
       13
 44
0.0
173
     0
291
     1
 45
0.0
1001
ACAD
1000
AcDbSavedByObjectVersion
1070
     0
  0
VISUALSTYLE
  5
38
102
{ACAD_REACTORS
330
2A
102
}
102
{ACAD_XDICTIONARY
360
4AC
102
}
330
2A
100
AcDbVisualStyle
  2
Linepattern
 70
    14
 71
     2
 72
     2
 73
     0
 90
        0
 40
-0.6
 41
-30.0
 62
     5
 63
     7
421
 16777215
 74
     1
 91
        4
 64
     7
 65
   257
 75
     7
175
     7
 42
1.0
 92
        8
 66
     7
 43
1.0
 76
     1
 77
     6
 78
     2
 67
     7
 79
     5
170
     0
171
     0
290
     0
174
     0
 93
        1
 44
0.0
173
     0
291
     1
 45
0.0
1001
ACAD
1000
AcDbSavedByObjectVersion
1070
     0
  0
VISUALSTYLE
  5
33
102
{ACAD_REACTORS
330
2A
102
}
102
{ACAD_XDICTIONARY
360
4A2
102
}
330
2A
100
AcDbVisualStyle
  2
Realistic
 70
     8
 71
     2
 72
     2
 73
     0
 90
        0
 40
-0.6
 41
-30.0
 62
     5
 63
     7
421
 16777215
 74
     1
 91
        0
 64
     7
 65
   257
 75
     1
175
     1
 42
1.0
 92
        8
 66
     8
424
  7895160
 43
1.0
 76
     1
 77
     6
 78
     2
 67
     7
 79
     5
170
     0
171
     0
290
     0
174
     0
 93
       13
 44
0.0
173
     0
291
     0
 45
0.0
1001
ACAD
1000
AcDbSavedByObjectVersion
1070
     0
  0
VISUALSTYLE
  5
37
102
{ACAD_REACTORS
330
2A
102
}
102
{ACAD_XDICTIONARY
360
4AA
102
}
330
2A
100
AcDbVisualStyle
  2
Thicken
 70
    13
 71
     2
 72
     2
 73
     0
 90
        0
 40
-0.6
 41
-30.0
 62
     5
 63
     7
421
 16777215
 74
     1
 91
        4
 64
     7
 65
   257
 75
     1
175
     1
 42
1.0
 92
       12
 66
     7
 43
1.0
 76
     1
 77
     6
 78
     2
 67
     7
 79
     5
170
     0
171
     0
290
     0
174
     0
 93
        1
 44
0.0
173
     0
291
     1
 45
0.0
1001
ACAD
1000
AcDbSavedByObjectVersion
1070
     0
  0
DICTIONARY
  5
4B4
330
3D
100
AcDbDictionary
280
     1
281
     1
  3
ACAD_XREC_ROUNDTRIP
360
4B5
  0
DICTIONARY
  5
4B2
330
3C
100
AcDbDictionary
280
     1
281
     1
  3
ACAD_XREC_ROUNDTRIP
360
4B3
  0
DICTIONARY
  5
4B6
330
3E
100
AcDbDictionary
280
     1
281
     1
  3
ACAD_XREC_ROUNDTRIP
360
4B7
  0
DICTIONARY
  5
49A
330
2F
100
AcDbDictionary
280
     1
281
     1
  3
ACAD_XREC_ROUNDTRIP
360
49B
  0
DICTIONARY
  5
49E
330
31
100
AcDbDictionary
280
     1
281
     1
  3
ACAD_XREC_ROUNDTRIP
360
49F
  0
DICTIONARY
  5
49C
330
30
100
AcDbDictionary
280
     1
281
     1
  3
ACAD_XREC_ROUNDTRIP
360
49D
  0
DICTIONARY
  5
4A0
330
32
100
AcDbDictionary
280
     1
281
     1
  3
ACAD_XREC_ROUNDTRIP
360
4A1
  0
DICTIONARY
  5
4A8
330
36
100
AcDbDictionary
280
     1
281
     1
  3
ACAD_XREC_ROUNDTRIP
360
4A9
  0
DICTIONARY
  5
4B0
330
3A
100
AcDbDictionary
280
     1
281
     1
  3
ACAD_XREC_ROUNDTRIP
360
4B1
  0
DICTIONARY
  5
4A4
330
34
100
AcDbDictionary
280
     1
281
     1
  3
ACAD_XREC_ROUNDTRIP
360
4A5
  0
DICTIONARY
  5
4A6
330
35
100
AcDbDictionary
280
     1
281
     1
  3
ACAD_XREC_ROUNDTRIP
360
4A7
  0
DICTIONARY
  5
4AE
330
39
100
AcDbDictionary
280
     1
281
     1
  3
ACAD_XREC_ROUNDTRIP
360
4AF
  0
DICTIONARY
  5
492
330
2B
100
AcDbDictionary
280
     1
281
     1
  3
ACAD_XREC_ROUNDTRIP
360
493
  0
DICTIONARY
  5
494
330
2C
100
AcDbDictionary
280
     1
281
     1
  3
ACAD_XREC_ROUNDTRIP
360
495
  0
DICTIONARY
  5
496
330
2D
100
AcDbDictionary
280
     1
281
     1
  3
ACAD_XREC_ROUNDTRIP
360
497
  0
DICTIONARY
  5
498
330
2E
100
AcDbDictionary
280
     1
281
     1
  3
ACAD_XREC_ROUNDTRIP
360
499
  0
DICTIONARY
  5
4AC
330
38
100
AcDbDictionary
280
     1
281
     1
  3
ACAD_XREC_ROUNDTRIP
360
4AD
  0
DICTIONARY
  5
4A2
330
33
100
AcDbDictionary
280
     1
281
     1
  3
ACAD_XREC_ROUNDTRIP
360
4A3
  0
DICTIONARY
  5
4AA
330
37
100
AcDbDictionary
280
     1
281
     1
  3
ACAD_XREC_ROUNDTRIP
360
4AB
  0
XRECORD
  5
4B5
102
{ACAD_REACTORS
330
4B4
102
}
330
4B4
100
AcDbXrecord
280
     1
102
MATERIAL
148
0.0
149
0.0
149
0.0
 93
        0
 94
      127
282
     0
 72
     1
 77
     1
171
     1
175
     1
179
     1
273
     0
  0
XRECORD
  5
4B3
102
{ACAD_REACTORS
330
4B2
102
}
330
4B2
100
AcDbXrecord
280
     1
102
MATERIAL
148
0.0
149
0.0
149
0.0
 93
        0
 94
      127
282
     0
 72
     1
 77
     1
171
     1
175
     1
179
     1
273
     0
  0
XRECORD
  5
4B7
102
{ACAD_REACTORS
330
4B6
102
}
330
4B6
100
AcDbXrecord
280
     1
102
MATERIAL
148
0.0
149
0.0
149
0.0
 93
        0
 94
      127
282
     0
 72
     1
 77
     1
171
     1
175
     1
179
     1
273
     0
  0
XRECORD
  5
49B
102
{ACAD_REACTORS
330
49A
102
}
330
49A
100
AcDbXrecord
280
     1
102
RTVSPropertyOp0
 70
     1
102
RTVSPropertyOp1
 70
     1
102
RTVSPropertyOp2
 70
     1
102
RTVSPropertyOp3
 70
     1
102
RTVSPropertyOp4
 70
     1
102
RTVSPropertyOp5
 70
     1
102
RTVSPropertyOp6
 70
     1
102
RTVSPropertyOp7
 70
     1
102
RTVSPropertyOp8
 70
     1
102
RTVSPropertyOp9
 70
     1
102
RTVSPropertyOp10
 70
     1
102
RTVSPropertyOp11
 70
     1
102
RTVSPropertyOp12
 70
     1
102
RTVSPropertyOp13
 70
     1
102
RTVSPropertyOp14
 70
     1
102
RTVSPropertyOp15
 70
     1
102
RTVSPropertyOp16
 70
     1
102
RTVSPropertyOp17
 70
     1
102
RTVSPropertyOp18
 70
     1
102
RTVSPropertyOp19
 70
     1
102
RTVSPropertyOp20
 70
     1
102
RTVSPropertyOp21
 70
     1
102
RTVSPropertyOp22
 70
     1
102
RTVSPropertyOp23
 70
     1
102
RTVSPropertyOp24
 70
     1
102
RTVSPropertyOp25
 70
     1
102
RTVSPropertyOp26
 70
     1
102
RTVSPropertyOp27
 70
     1
102
RTVSPropertyOp28
 70
     1
102
RTVSPropertyOp29
 70
     1
102
RTVSPropertyOp30
 70
     1
102
RTVSPropertyOp31
 70
     1
102
RTVSPropertyOp32
 70
     1
  0
XRECORD
  5
49F
102
{ACAD_REACTORS
330
49E
102
}
330
49E
100
AcDbXrecord
280
     1
102
RTVSPropertyOp0
 70
     1
102
RTVSPropertyOp1
 70
     1
102
RTVSPropertyOp2
 70
     1
102
RTVSPropertyOp3
 70
     1
102
RTVSPropertyOp4
 70
     1
102
RTVSPropertyOp5
 70
     1
102
RTVSPropertyOp6
 70
     1
102
RTVSPropertyOp7
 70
     1
102
RTVSPropertyOp8
 70
     1
102
RTVSPropertyOp9
 70
     1
102
RTVSPropertyOp10
 70
     1
102
RTVSPropertyOp11
 70
     1
102
RTVSPropertyOp12
 70
     1
102
RTVSPropertyOp13
 70
     1
102
RTVSPropertyOp14
 70
     1
102
RTVSPropertyOp15
 70
     1
102
RTVSPropertyOp16
 70
     1
102
RTVSPropertyOp17
 70
     1
102
RTVSPropertyOp18
 70
     1
102
RTVSPropertyOp19
 70
     1
102
RTVSPropertyOp20
 70
     1
102
RTVSPropertyOp21
 70
     1
102
RTVSPropertyOp22
 70
     1
102
RTVSPropertyOp23
 70
     1
102
RTVSPropertyOp24
 70
     1
102
RTVSPropertyOp25
 70
     1
102
RTVSPropertyOp26
 70
     1
102
RTVSPropertyOp27
 70
     1
102
RTVSPropertyOp28
 70
     1
102
RTVSPropertyOp29
 70
     1
102
RTVSPropertyOp30
 70
     1
102
RTVSPropertyOp31
 70
     1
102
RTVSPropertyOp32
 70
     1
  0
XRECORD
  5
49D
102
{ACAD_REACTORS
330
49C
102
}
330
49C
100
AcDbXrecord
280
     1
102
RTVSPropertyOp0
 70
     1
102
RTVSPropertyOp1
 70
     1
102
RTVSPropertyOp2
 70
     1
102
RTVSPropertyOp3
 70
     1
102
RTVSPropertyOp4
 70
     1
102
RTVSPropertyOp5
 70
     1
102
RTVSPropertyOp6
 70
     1
102
RTVSPropertyOp7
 70
     1
102
RTVSPropertyOp8
 70
     1
102
RTVSPropertyOp9
 70
     1
102
RTVSPropertyOp10
 70
     1
102
RTVSPropertyOp11
 70
     1
102
RTVSPropertyOp12
 70
     1
102
RTVSPropertyOp13
 70
     1
102
RTVSPropertyOp14
 70
     1
102
RTVSPropertyOp15
 70
     1
102
RTVSPropertyOp16
 70
     1
102
RTVSPropertyOp17
 70
     1
102
RTVSPropertyOp18
 70
     1
102
RTVSPropertyOp19
 70
     1
102
RTVSPropertyOp20
 70
     1
102
RTVSPropertyOp21
 70
     1
102
RTVSPropertyOp22
 70
     1
102
RTVSPropertyOp23
 70
     1
102
RTVSPropertyOp24
 70
     1
102
RTVSPropertyOp25
 70
     1
102
RTVSPropertyOp26
 70
     1
102
RTVSPropertyOp27
 70
     1
102
RTVSPropertyOp28
 70
     1
102
RTVSPropertyOp29
 70
     1
102
RTVSPropertyOp30
 70
     1
102
RTVSPropertyOp31
 70
     1
102
RTVSPropertyOp32
 70
     1
  0
XRECORD
  5
4A1
102
{ACAD_REACTORS
330
4A0
102
}
330
4A0
100
AcDbXrecord
280
     1
102
RTVSPropertyOp0
 70
     1
102
RTVSPropertyOp1
 70
     1
102
RTVSPropertyOp2
 70
     1
102
RTVSPropertyOp3
 70
     1
102
RTVSPropertyOp4
 70
     1
102
RTVSPropertyOp5
 70
     1
102
RTVSPropertyOp6
 70
     1
102
RTVSPropertyOp7
 70
     1
102
RTVSPropertyOp8
 70
     1
102
RTVSPropertyOp9
 70
     1
102
RTVSPropertyOp10
 70
     1
102
RTVSPropertyOp11
 70
     1
102
RTVSPropertyOp12
 70
     1
102
RTVSPropertyOp13
 70
     1
102
RTVSPropertyOp14
 70
     1
102
RTVSPropertyOp15
 70
     1
102
RTVSPropertyOp16
 70
     1
102
RTVSPropertyOp17
 70
     1
102
RTVSPropertyOp18
 70
     1
102
RTVSPropertyOp19
 70
     1
102
RTVSPropertyOp20
 70
     1
102
RTVSPropertyOp21
 70
     1
102
RTVSPropertyOp22
 70
     1
102
RTVSPropertyOp23
 70
     1
102
RTVSPropertyOp24
 70
     1
102
RTVSPropertyOp25
 70
     1
102
RTVSPropertyOp26
 70
     1
102
RTVSPropertyOp27
 70
     1
102
RTVSPropertyOp28
 70
     1
102
RTVSPropertyOp29
 70
     1
102
RTVSPropertyOp30
 70
     1
102
RTVSPropertyOp31
 70
     1
102
RTVSPropertyOp32
 70
     1
  0
XRECORD
  5
4A9
102
{ACAD_REACTORS
330
4A8
102
}
330
4A8
100
AcDbXrecord
280
     1
102
RTVSPropertyOp0
 70
     1
102
RTVSPropertyOp1
 70
     1
102
RTVSPropertyOp2
 70
     1
102
RTVSPropertyOp3
 70
     1
102
RTVSPropertyOp4
 70
     1
102
RTVSPropertyOp5
 70
     1
102
RTVSPropertyOp6
 70
     1
102
RTVSPropertyOp7
 70
     1
102
RTVSPropertyOp8
 70
     1
102
RTVSPropertyOp9
 70
     1
102
RTVSPropertyOp10
 70
     1
102
RTVSPropertyOp11
 70
     1
102
RTVSPropertyOp12
 70
     1
102
RTVSPropertyOp13
 70
     1
102
RTVSPropertyOp14
 70
     1
102
RTVSPropertyOp15
 70
     1
102
RTVSPropertyOp16
 70
     1
102
RTVSPropertyOp17
 70
     1
102
RTVSPropertyOp18
 70
     1
102
RTVSPropertyOp19
 70
     1
102
RTVSPropertyOp20
 70
     1
102
RTVSPropertyOp21
 70
     1
102
RTVSPropertyOp22
 70
     1
102
RTVSPropertyOp23
 70
     1
102
RTVSPropertyOp24
 70
     1
102
RTVSPropertyOp25
 70
     1
102
RTVSPropertyOp26
 70
     1
102
RTVSPropertyOp27
 70
     1
102
RTVSPropertyOp28
 70
     1
102
RTVSPropertyOp29
 70
     1
102
RTVSPropertyOp30
 70
     1
102
RTVSPropertyOp31
 70
     1
102
RTVSPropertyOp32
 70
     1
  0
XRECORD
  5
4B1
102
{ACAD_REACTORS
330
4B0
102
}
330
4B0
100
AcDbXrecord
280
     1
102
RTVSPropertyOp0
 70
     1
102
RTVSPropertyOp1
 70
     1
102
RTVSPropertyOp2
 70
     1
102
RTVSPropertyOp3
 70
     1
102
RTVSPropertyOp4
 70
     1
102
RTVSPropertyOp5
 70
     1
102
RTVSPropertyOp6
 70
     1
102
RTVSPropertyOp7
 70
     1
102
RTVSPropertyOp8
 70
     1
102
RTVSPropertyOp9
 70
     1
102
RTVSPropertyOp10
 70
     1
102
RTVSPropertyOp11
 70
     1
102
RTVSPropertyOp12
 70
     1
102
RTVSPropertyOp13
 70
     1
102
RTVSPropertyOp14
 70
     1
102
RTVSPropertyOp15
 70
     1
102
RTVSPropertyOp16
 70
     1
102
RTVSPropertyOp17
 70
     1
102
RTVSPropertyOp18
 70
     1
102
RTVSPropertyOp19
 70
     1
102
RTVSPropertyOp20
 70
     1
102
RTVSPropertyOp21
 70
     1
102
RTVSPropertyOp22
 70
     1
102
RTVSPropertyOp23
 70
     1
102
RTVSPropertyOp24
 70
     1
102
RTVSPropertyOp25
 70
     1
102
RTVSPropertyOp26
 70
     1
102
RTVSPropertyOp27
 70
     1
102
RTVSPropertyOp28
 70
     1
102
RTVSPropertyOp29
 70
     1
102
RTVSPropertyOp30
 70
     1
102
RTVSPropertyOp31
 70
     1
102
RTVSPropertyOp32
 70
     1
  0
XRECORD
  5
4A5
102
{ACAD_REACTORS
330
4A4
102
}
330
4A4
100
AcDbXrecord
280
     1
102
RTVSPropertyOp0
 70
     1
102
RTVSPropertyOp1
 70
     1
102
RTVSPropertyOp2
 70
     1
102
RTVSPropertyOp3
 70
     1
102
RTVSPropertyOp4
 70
     1
102
RTVSPropertyOp5
 70
     1
102
RTVSPropertyOp6
 70
     1
102
RTVSPropertyOp7
 70
     1
102
RTVSPropertyOp8
 70
     1
102
RTVSPropertyOp9
 70
     1
102
RTVSPropertyOp10
 70
     1
102
RTVSPropertyOp11
 70
     1
102
RTVSPropertyOp12
 70
     1
102
RTVSPropertyOp13
 70
     1
102
RTVSPropertyOp14
 70
     1
102
RTVSPropertyOp15
 70
     1
102
RTVSPropertyOp16
 70
     1
102
RTVSPropertyOp17
 70
     1
102
RTVSPropertyOp18
 70
     1
102
RTVSPropertyOp19
 70
     1
102
RTVSPropertyOp20
 70
     1
102
RTVSPropertyOp21
 70
     1
102
RTVSPropertyOp22
 70
     1
102
RTVSPropertyOp23
 70
     1
102
RTVSPropertyOp24
 70
     1
102
RTVSPropertyOp25
 70
     1
102
RTVSPropertyOp26
 70
     1
102
RTVSPropertyOp27
 70
     1
102
RTVSPropertyOp28
 70
     1
102
RTVSPropertyOp29
 70
     1
102
RTVSPropertyOp30
 70
     1
102
RTVSPropertyOp31
 70
     1
102
RTVSPropertyOp32
 70
     1
  0
XRECORD
  5
4A7
102
{ACAD_REACTORS
330
4A6
102
}
330
4A6
100
AcDbXrecord
280
     1
102
RTVSPropertyOp0
 70
     1
102
RTVSPropertyOp1
 70
     1
102
RTVSPropertyOp2
 70
     1
102
RTVSPropertyOp3
 70
     1
102
RTVSPropertyOp4
 70
     1
102
RTVSPropertyOp5
 70
     1
102
RTVSPropertyOp6
 70
     1
102
RTVSPropertyOp7
 70
     1
102
RTVSPropertyOp8
 70
     1
102
RTVSPropertyOp9
 70
     1
102
RTVSPropertyOp10
 70
     1
102
RTVSPropertyOp11
 70
     1
102
RTVSPropertyOp12
 70
     1
102
RTVSPropertyOp13
 70
     1
102
RTVSPropertyOp14
 70
     1
102
RTVSPropertyOp15
 70
     1
102
RTVSPropertyOp16
 70
     1
102
RTVSPropertyOp17
 70
     1
102
RTVSPropertyOp18
 70
     1
102
RTVSPropertyOp19
 70
     1
102
RTVSPropertyOp20
 70
     1
102
RTVSPropertyOp21
 70
     1
102
RTVSPropertyOp22
 70
     1
102
RTVSPropertyOp23
 70
     1
102
RTVSPropertyOp24
 70
     1
102
RTVSPropertyOp25
 70
     1
102
RTVSPropertyOp26
 70
     1
102
RTVSPropertyOp27
 70
     1
102
RTVSPropertyOp28
 70
     1
102
RTVSPropertyOp29
 70
     1
102
RTVSPropertyOp30
 70
     1
102
RTVSPropertyOp31
 70
     1
102
RTVSPropertyOp32
 70
     1
  0
XRECORD
  5
4AF
102
{ACAD_REACTORS
330
4AE
102
}
330
4AE
100
AcDbXrecord
280
     1
102
RTVSPropertyOp0
 70
     1
102
RTVSPropertyOp1
 70
     1
102
RTVSPropertyOp2
 70
     1
102
RTVSPropertyOp3
 70
     1
102
RTVSPropertyOp4
 70
     1
102
RTVSPropertyOp5
 70
     1
102
RTVSPropertyOp6
 70
     1
102
RTVSPropertyOp7
 70
     1
102
RTVSPropertyOp8
 70
     1
102
RTVSPropertyOp9
 70
     1
102
RTVSPropertyOp10
 70
     1
102
RTVSPropertyOp11
 70
     1
102
RTVSPropertyOp12
 70
     1
102
RTVSPropertyOp13
 70
     1
102
RTVSPropertyOp14
 70
     1
102
RTVSPropertyOp15
 70
     1
102
RTVSPropertyOp16
 70
     1
102
RTVSPropertyOp17
 70
     1
102
RTVSPropertyOp18
 70
     1
102
RTVSPropertyOp19
 70
     1
102
RTVSPropertyOp20
 70
     1
102
RTVSPropertyOp21
 70
     1
102
RTVSPropertyOp22
 70
     1
102
RTVSPropertyOp23
 70
     1
102
RTVSPropertyOp24
 70
     1
102
RTVSPropertyOp25
 70
     1
102
RTVSPropertyOp26
 70
     1
102
RTVSPropertyOp27
 70
     1
102
RTVSPropertyOp28
 70
     1
102
RTVSPropertyOp29
 70
     1
102
RTVSPropertyOp30
 70
     1
102
RTVSPropertyOp31
 70
     1
102
RTVSPropertyOp32
 70
     1
  0
XRECORD
  5
493
102
{ACAD_REACTORS
330
492
102
}
330
492
100
AcDbXrecord
280
     1
102
RTVSPropertyOp0
 70
     1
102
RTVSPropertyOp1
 70
     1
102
RTVSPropertyOp2
 70
     1
102
RTVSPropertyOp3
 70
     1
102
RTVSPropertyOp4
 70
     1
102
RTVSPropertyOp5
 70
     1
102
RTVSPropertyOp6
 70
     1
102
RTVSPropertyOp7
 70
     1
102
RTVSPropertyOp8
 70
     1
102
RTVSPropertyOp9
 70
     1
102
RTVSPropertyOp10
 70
     1
102
RTVSPropertyOp11
 70
     1
102
RTVSPropertyOp12
 70
     1
102
RTVSPropertyOp13
 70
     1
102
RTVSPropertyOp14
 70
     1
102
RTVSPropertyOp15
 70
     1
102
RTVSPropertyOp16
 70
     1
102
RTVSPropertyOp17
 70
     1
102
RTVSPropertyOp18
 70
     1
102
RTVSPropertyOp19
 70
     1
102
RTVSPropertyOp20
 70
     1
102
RTVSPropertyOp21
 70
     1
102
RTVSPropertyOp22
 70
     1
102
RTVSPropertyOp23
 70
     1
102
RTVSPropertyOp24
 70
     1
102
RTVSPropertyOp25
 70
     1
102
RTVSPropertyOp26
 70
     1
102
RTVSPropertyOp27
 70
     1
102
RTVSPropertyOp28
 70
     1
102
RTVSPropertyOp29
 70
     1
102
RTVSPropertyOp30
 70
     1
102
RTVSPropertyOp31
 70
     1
102
RTVSPropertyOp32
 70
     1
  0
XRECORD
  5
495
102
{ACAD_REACTORS
330
494
102
}
330
494
100
AcDbXrecord
280
     1
102
RTVSPropertyOp0
 70
     1
102
RTVSPropertyOp1
 70
     1
102
RTVSPropertyOp2
 70
     1
102
RTVSPropertyOp3
 70
     1
102
RTVSPropertyOp4
 70
     1
102
RTVSPropertyOp5
 70
     1
102
RTVSPropertyOp6
 70
     1
102
RTVSPropertyOp7
 70
     1
102
RTVSPropertyOp8
 70
     1
102
RTVSPropertyOp9
 70
     1
102
RTVSPropertyOp10
 70
     1
102
RTVSPropertyOp11
 70
     1
102
RTVSPropertyOp12
 70
     1
102
RTVSPropertyOp13
 70
     1
102
RTVSPropertyOp14
 70
     1
102
RTVSPropertyOp15
 70
     1
102
RTVSPropertyOp16
 70
     1
102
RTVSPropertyOp17
 70
     1
102
RTVSPropertyOp18
 70
     1
102
RTVSPropertyOp19
 70
     1
102
RTVSPropertyOp20
 70
     1
102
RTVSPropertyOp21
 70
     1
102
RTVSPropertyOp22
 70
     1
102
RTVSPropertyOp23
 70
     1
102
RTVSPropertyOp24
 70
     1
102
RTVSPropertyOp25
 70
     1
102
RTVSPropertyOp26
 70
     1
102
RTVSPropertyOp27
 70
     1
102
RTVSPropertyOp28
 70
     1
102
RTVSPropertyOp29
 70
     1
102
RTVSPropertyOp30
 70
     1
102
RTVSPropertyOp31
 70
     1
102
RTVSPropertyOp32
 70
     1
  0
XRECORD
  5
497
102
{ACAD_REACTORS
330
496
102
}
330
496
100
AcDbXrecord
280
     1
102
RTVSPropertyOp0
 70
     1
102
RTVSPropertyOp1
 70
     1
102
RTVSPropertyOp2
 70
     1
102
RTVSPropertyOp3
 70
     1
102
RTVSPropertyOp4
 70
     1
102
RTVSPropertyOp5
 70
     1
102
RTVSPropertyOp6
 70
     1
102
RTVSPropertyOp7
 70
     1
102
RTVSPropertyOp8
 70
     1
102
RTVSPropertyOp9
 70
     1
102
RTVSPropertyOp10
 70
     1
102
RTVSPropertyOp11
 70
     1
102
RTVSPropertyOp12
 70
     1
102
RTVSPropertyOp13
 70
     1
102
RTVSPropertyOp14
 70
     1
102
RTVSPropertyOp15
 70
     1
102
RTVSPropertyOp16
 70
     1
102
RTVSPropertyOp17
 70
     1
102
RTVSPropertyOp18
 70
     1
102
RTVSPropertyOp19
 70
     1
102
RTVSPropertyOp20
 70
     1
102
RTVSPropertyOp21
 70
     1
102
RTVSPropertyOp22
 70
     1
102
RTVSPropertyOp23
 70
     1
102
RTVSPropertyOp24
 70
     1
102
RTVSPropertyOp25
 70
     1
102
RTVSPropertyOp26
 70
     1
102
RTVSPropertyOp27
 70
     1
102
RTVSPropertyOp28
 70
     1
102
RTVSPropertyOp29
 70
     1
102
RTVSPropertyOp30
 70
     1
102
RTVSPropertyOp31
 70
     1
102
RTVSPropertyOp32
 70
     1
  0
XRECORD
  5
499
102
{ACAD_REACTORS
330
498
102
}
330
498
100
AcDbXrecord
280
     1
102
RTVSPropertyOp0
 70
     1
102
RTVSPropertyOp1
 70
     1
102
RTVSPropertyOp2
 70
     1
102
RTVSPropertyOp3
 70
     1
102
RTVSPropertyOp4
 70
     1
102
RTVSPropertyOp5
 70
     1
102
RTVSPropertyOp6
 70
     1
102
RTVSPropertyOp7
 70
     1
102
RTVSPropertyOp8
 70
     1
102
RTVSPropertyOp9
 70
     1
102
RTVSPropertyOp10
 70
     1
102
RTVSPropertyOp11
 70
     1
102
RTVSPropertyOp12
 70
     1
102
RTVSPropertyOp13
 70
     1
102
RTVSPropertyOp14
 70
     1
102
RTVSPropertyOp15
 70
     1
102
RTVSPropertyOp16
 70
     1
102
RTVSPropertyOp17
 70
     1
102
RTVSPropertyOp18
 70
     1
102
RTVSPropertyOp19
 70
     1
102
RTVSPropertyOp20
 70
     1
102
RTVSPropertyOp21
 70
     1
102
RTVSPropertyOp22
 70
     1
102
RTVSPropertyOp23
 70
     1
102
RTVSPropertyOp24
 70
     1
102
RTVSPropertyOp25
 70
     1
102
RTVSPropertyOp26
 70
     1
102
RTVSPropertyOp27
 70
     1
102
RTVSPropertyOp28
 70
     1
102
RTVSPropertyOp29
 70
     1
102
RTVSPropertyOp30
 70
     1
102
RTVSPropertyOp31
 70
     1
102
RTVSPropertyOp32
 70
     1
  0
XRECORD
  5
4AD
102
{ACAD_REACTORS
330
4AC
102
}
330
4AC
100
AcDbXrecord
280
     1
102
RTVSPropertyOp0
 70
     1
102
RTVSPropertyOp1
 70
     1
102
RTVSPropertyOp2
 70
     1
102
RTVSPropertyOp3
 70
     1
102
RTVSPropertyOp4
 70
     1
102
RTVSPropertyOp5
 70
     1
102
RTVSPropertyOp6
 70
     1
102
RTVSPropertyOp7
 70
     1
102
RTVSPropertyOp8
 70
     1
102
RTVSPropertyOp9
 70
     1
102
RTVSPropertyOp10
 70
     1
102
RTVSPropertyOp11
 70
     1
102
RTVSPropertyOp12
 70
     1
102
RTVSPropertyOp13
 70
     1
102
RTVSPropertyOp14
 70
     1
102
RTVSPropertyOp15
 70
     1
102
RTVSPropertyOp16
 70
     1
102
RTVSPropertyOp17
 70
     1
102
RTVSPropertyOp18
 70
     1
102
RTVSPropertyOp19
 70
     1
102
RTVSPropertyOp20
 70
     1
102
RTVSPropertyOp21
 70
     1
102
RTVSPropertyOp22
 70
     1
102
RTVSPropertyOp23
 70
     1
102
RTVSPropertyOp24
 70
     1
102
RTVSPropertyOp25
 70
     1
102
RTVSPropertyOp26
 70
     1
102
RTVSPropertyOp27
 70
     1
102
RTVSPropertyOp28
 70
     1
102
RTVSPropertyOp29
 70
     1
102
RTVSPropertyOp30
 70
     1
102
RTVSPropertyOp31
 70
     1
102
RTVSPropertyOp32
 70
     1
  0
XRECORD
  5
4A3
102
{ACAD_REACTORS
330
4A2
102
}
330
4A2
100
AcDbXrecord
280
     1
102
RTVSPropertyOp0
 70
     1
102
RTVSPropertyOp1
 70
     1
102
RTVSPropertyOp2
 70
     1
102
RTVSPropertyOp3
 70
     1
102
RTVSPropertyOp4
 70
     1
102
RTVSPropertyOp5
 70
     1
102
RTVSPropertyOp6
 70
     1
102
RTVSPropertyOp7
 70
     1
102
RTVSPropertyOp8
 70
     1
102
RTVSPropertyOp9
 70
     1
102
RTVSPropertyOp10
 70
     1
102
RTVSPropertyOp11
 70
     1
102
RTVSPropertyOp12
 70
     1
102
RTVSPropertyOp13
 70
     1
102
RTVSPropertyOp14
 70
     1
102
RTVSPropertyOp15
 70
     1
102
RTVSPropertyOp16
 70
     1
102
RTVSPropertyOp17
 70
     1
102
RTVSPropertyOp18
 70
     1
102
RTVSPropertyOp19
 70
     1
102
RTVSPropertyOp20
 70
     1
102
RTVSPropertyOp21
 70
     1
102
RTVSPropertyOp22
 70
     1
102
RTVSPropertyOp23
 70
     1
102
RTVSPropertyOp24
 70
     1
102
RTVSPropertyOp25
 70
     1
102
RTVSPropertyOp26
 70
     1
102
RTVSPropertyOp27
 70
     1
102
RTVSPropertyOp28
 70
     1
102
RTVSPropertyOp29
 70
     1
102
RTVSPropertyOp30
 70
     1
102
RTVSPropertyOp31
 70
     1
102
RTVSPropertyOp32
 70
     1
  0
XRECORD
  5
4AB
102
{ACAD_REACTORS
330
4AA
102
}
330
4AA
100
AcDbXrecord
280
     1
102
RTVSPropertyOp0
 70
     1
102
RTVSPropertyOp1
 70
     1
102
RTVSPropertyOp2
 70
     1
102
RTVSPropertyOp3
 70
     1
102
RTVSPropertyOp4
 70
     1
102
RTVSPropertyOp5
 70
     1
102
RTVSPropertyOp6
 70
     1
102
RTVSPropertyOp7
 70
     1
102
RTVSPropertyOp8
 70
     1
102
RTVSPropertyOp9
 70
     1
102
RTVSPropertyOp10
 70
     1
102
RTVSPropertyOp11
 70
     1
102
RTVSPropertyOp12
 70
     1
102
RTVSPropertyOp13
 70
     1
102
RTVSPropertyOp14
 70
     1
102
RTVSPropertyOp15
 70
     1
102
RTVSPropertyOp16
 70
     1
102
RTVSPropertyOp17
 70
     1
102
RTVSPropertyOp18
 70
     1
102
RTVSPropertyOp19
 70
     1
102
RTVSPropertyOp20
 70
     1
102
RTVSPropertyOp21
 70
     1
102
RTVSPropertyOp22
 70
     1
102
RTVSPropertyOp23
 70
     1
102
RTVSPropertyOp24
 70
     1
102
RTVSPropertyOp25
 70
     1
102
RTVSPropertyOp26
 70
     1
102
RTVSPropertyOp27
 70
     1
102
RTVSPropertyOp28
 70
     1
102
RTVSPropertyOp29
 70
     1
102
RTVSPropertyOp30
 70
     1
102
RTVSPropertyOp31
 70
     1
102
RTVSPropertyOp32
 70
     1
  0
ENDSEC
  0
EOF
