  0
SECTION
  2
HEADER
  9
$ACADVER
  1
AC1018
  9
$ACADMAINTVER
 70
     0
  9
$DWGCODEPAGE
  3
ANSI_1252
  9
$INSBASE
 10
0.0
 20
0.0
 30
0.0
  9
$EXTMIN
 10
-102.837900334894
 20
297.2126847631527
 30
0.0
  9
$EXTMAX
 10
194.1620996651041
 20
507.2126847631528
 30
0.0
  9
$LIMMIN
 10
0.0
 20
0.0
  9
$LIMMAX
 10
12.0
 20
9.0
  9
$ORTHOMODE
 70
     0
  9
$REGENMODE
 70
     1
  9
$FILLMODE
 70
     1
  9
$QTEXTMODE
 70
     0
  9
$MIRRTEXT
 70
     1
  9
$LTSCALE
 40
1.0
  9
$ATTMODE
 70
     1
  9
$TEXTSIZE
 40
0.2
  9
$TRACEWID
 40
0.05
  9
$TEXTSTYLE
  7
Standard
  9
$CLAYER
  8
0
  9
$CELTYPE
  6
ByLayer
  9
$CECOLOR
 62
   256
  9
$CELTSCALE
 40
1.0
  9
$DISPSILH
 70
     0
  9
$DIMSCALE
 40
1.0
  9
$DIMASZ
 40
0.18
  9
$DIMEXO
 40
0.0625
  9
$DIMDLI
 40
0.38
  9
$DIMRND
 40
0.0
  9
$DIMDLE
 40
0.0
  9
$DIMEXE
 40
0.18
  9
$DIMTP
 40
0.0
  9
$DIMTM
 40
0.0
  9
$DIMTXT
 40
0.18
  9
$DIMCEN
 40
0.09
  9
$DIMTSZ
 40
0.0
  9
$DIMTOL
 70
     0
  9
$DIMLIM
 70
     0
  9
$DIMTIH
 70
     1
  9
$DIMTOH
 70
     1
  9
$DIMSE1
 70
     0
  9
$DIMSE2
 70
     0
  9
$DIMTAD
 70
     0
  9
$DIMZIN
 70
     0
  9
$DIMBLK
  1

  9
$DIMASO
 70
     1
  9
$DIMSHO
 70
     1
  9
$DIMPOST
  1

  9
$DIMAPOST
  1

  9
$DIMALT
 70
     0
  9
$DIMALTD
 70
     2
  9
$DIMALTF
 40
25.4
  9
$DIMLFAC
 40
1.0
  9
$DIMTOFL
 70
     0
  9
$DIMTVP
 40
0.0
  9
$DIMTIX
 70
     0
  9
$DIMSOXD
 70
     0
  9
$DIMSAH
 70
     0
  9
$DIMBLK1
  1

  9
$DIMBLK2
  1

  9
$DIMSTYLE
  2
Standard
  9
$DIMCLRD
 70
     0
  9
$DIMCLRE
 70
     0
  9
$DIMCLRT
 70
     0
  9
$DIMTFAC
 40
1.0
  9
$DIMGAP
 40
0.09
  9
$DIMJUST
 70
     0
  9
$DIMSD1
 70
     0
  9
$DIMSD2
 70
     0
  9
$DIMTOLJ
 70
     1
  9
$DIMTZIN
 70
     0
  9
$DIMALTZ
 70
     0
  9
$DIMALTTZ
 70
     0
  9
$DIMUPT
 70
     0
  9
$DIMDEC
 70
     4
  9
$DIMTDEC
 70
     4
  9
$DIMALTU
 70
     2
  9
$DIMALTTD
 70
     2
  9
$DIMTXSTY
  7
Standard
  9
$DIMAUNIT
 70
     0
  9
$DIMADEC
 70
     0
  9
$DIMALTRND
 40
0.0
  9
$DIMAZIN
 70
     0
  9
$DIMDSEP
 70
    46
  9
$DIMATFIT
 70
     3
  9
$DIMFRAC
 70
     0
  9
$DIMLDRBLK
  1

  9
$DIMLUNIT
 70
     2
  9
$DIMLWD
 70
    -2
  9
$DIMLWE
 70
    -2
  9
$DIMTMOVE
 70
     0
  9
$LUNITS
 70
     2
  9
$LUPREC
 70
     4
  9
$SKETCHINC
 40
0.1
  9
$FILLETRAD
 40
0.5
  9
$AUNITS
 70
     0
  9
$AUPREC
 70
     0
  9
$MENU
  1
.
  9
$ELEVATION
 40
0.0
  9
$PELEVATION
 40
0.0
  9
$THICKNESS
 40
0.0
  9
$LIMCHECK
 70
     0
  9
$CHAMFERA
 40
0.5
  9
$CHAMFERB
 40
0.5
  9
$CHAMFERC
 40
1.0
  9
$CHAMFERD
 40
0.0
  9
$SKPOLY
 70
     0
  9
$TDCREATE
 40
2458302.697862836
  9
$TDUCREATE
 40
2458302.614529502
  9
$TDUPDATE
 40
2458302.697863379
  9
$TDUUPDATE
 40
2458302.614530046
  9
$TDINDWG
 40
0.0000000116
  9
$TDUSRTIMER
 40
0.0000000116
  9
$USRTIMER
 70
     1
  9
$ANGBASE
 50
0.0
  9
$ANGDIR
 70
     0
  9
$PDMODE
 70
     0
  9
$PDSIZE
 40
0.0
  9
$PLINEWID
 40
0.0
  9
$SPLFRAME
 70
     0
  9
$SPLINETYPE
 70
     6
  9
$SPLINESEGS
 70
     8
  9
$HANDSEED
  5
4D8
  9
$SURFTAB1
 70
     6
  9
$SURFTAB2
 70
     6
  9
$SURFTYPE
 70
     6
  9
$SURFU
 70
     6
  9
$SURFV
 70
     6
  9
$UCSBASE
  2

  9
$UCSNAME
  2

  9
$UCSORG
 10
0.0
 20
0.0
 30
0.0
  9
$UCSXDIR
 10
1.0
 20
0.0
 30
0.0
  9
$UCSYDIR
 10
0.0
 20
1.0
 30
0.0
  9
$UCSORTHOREF
  2

  9
$UCSORTHOVIEW
 70
     0
  9
$UCSORGTOP
 10
0.0
 20
0.0
 30
0.0
  9
$UCSORGBOTTOM
 10
0.0
 20
0.0
 30
0.0
  9
$UCSORGLEFT
 10
0.0
 20
0.0
 30
0.0
  9
$UCSORGRIGHT
 10
0.0
 20
0.0
 30
0.0
  9
$UCSORGFRONT
 10
0.0
 20
0.0
 30
0.0
  9
$UCSORGBACK
 10
0.0
 20
0.0
 30
0.0
  9
$PUCSBASE
  2

  9
$PUCSNAME
  2

  9
$PUCSORG
 10
0.0
 20
0.0
 30
0.0
  9
$PUCSXDIR
 10
1.0
 20
0.0
 30
0.0
  9
$PUCSYDIR
 10
0.0
 20
1.0
 30
0.0
  9
$PUCSORTHOREF
  2

  9
$PUCSORTHOVIEW
 70
     0
  9
$PUCSORGTOP
 10
0.0
 20
0.0
 30
0.0
  9
$PUCSORGBOTTOM
 10
0.0
 20
0.0
 30
0.0
  9
$PUCSORGLEFT
 10
0.0
 20
0.0
 30
0.0
  9
$PUCSORGRIGHT
 10
0.0
 20
0.0
 30
0.0
  9
$PUCSORGFRONT
 10
0.0
 20
0.0
 30
0.0
  9
$PUCSORGBACK
 10
0.0
 20
0.0
 30
0.0
  9
$USERI1
 70
     0
  9
$USERI2
 70
     0
  9
$USERI3
 70
     0
  9
$USERI4
 70
     0
  9
$USERI5
 70
     0
  9
$USERR1
 40
18.1
  9
$USERR2
 40
0.0
  9
$USERR3
 40
0.0
  9
$USERR4
 40
0.0
  9
$USERR5
 40
0.0
  9
$WORLDVIEW
 70
     1
  9
$SHADEDGE
 70
     3
  9
$SHADEDIF
 70
    70
  9
$TILEMODE
 70
     1
  9
$MAXACTVP
 70
    64
  9
$PINSBASE
 10
0.0
 20
0.0
 30
0.0
  9
$PLIMCHECK
 70
     0
  9
$PEXTMIN
 10
1.00000000000000E+20
 20
1.00000000000000E+20
 30
1.00000000000000E+20
  9
$PEXTMAX
 10
-1.00000000000000E+20
 20
-1.00000000000000E+20
 30
-1.00000000000000E+20
  9
$PLIMMIN
 10
0.0
 20
0.0
  9
$PLIMMAX
 10
12.0
 20
9.0
  9
$UNITMODE
 70
     0
  9
$VISRETAIN
 70
     1
  9
$PLINEGEN
 70
     0
  9
$PSLTSCALE
 70
     1
  9
$TREEDEPTH
 70
  3020
  9
$CMLSTYLE
  2
Standard
  9
$CMLJUST
 70
     0
  9
$CMLSCALE
 40
1.0
  9
$PROXYGRAPHICS
 70
     1
  9
$MEASUREMENT
 70
     1
  9
$CELWEIGHT
370
    -1
  9
$ENDCAPS
280
     0
  9
$JOINSTYLE
280
     0
  9
$LWDISPLAY
290
     0
  9
$INSUNITS
 70
     4
  9
$HYPERLINKBASE
  1

  9
$STYLESHEET
  1

  9
$XEDIT
290
     1
  9
$CEPSNTYPE
380
     0
  9
$PSTYLEMODE
290
     1
  9
$FINGERPRINTGUID
  2
{FD744EA9-0BB5-4EFB-86A5-6F05376F1178}
  9
$VERSIONGUID
  2
{FAEB1C32-E019-11D5-929B-00C0DF256EC4}
  9
$EXTNAMES
290
     1
  9
$PSVPSCALE
 40
0.0
  9
$OLESTARTUP
290
     0
  9
$SORTENTS
280
   127
  9
$INDEXCTL
280
     0
  9
$HIDETEXT
280
     1
  9
$XCLIPFRAME
290
     0
  9
$HALOGAP
280
     0
  9
$OBSCOLOR
 70
   257
  9
$OBSLTYPE
280
     0
  9
$INTERSECTIONDISPLAY
280
     0
  9
$INTERSECTIONCOLOR
 70
   257
  9
$DIMASSOC
280
     2
  9
$PROJECTNAME
  1

  0
ENDSEC
  0
SECTION
  2
CLASSES
  0
CLASS
  1
ACDBDICTIONARYWDFLT
  2
AcDbDictionaryWithDefault
  3
ObjectDBX Classes
 90
        0
 91
        4
280
     0
281
     0
  0
CLASS
  1
VISUALSTYLE
  2
AcDbVisualStyle
  3
ObjectDBX Classes
 90
     4095
 91
        4
280
     0
281
     0
  0
CLASS
  1
MATERIAL
  2
AcDbMaterial
  3
ObjectDBX Classes
 90
     1153
 91
        4
280
     0
281
     0
  0
ENDSEC
  0
SECTION
  2
TABLES
  0
TABLE
  2
VPORT
  5
8
330
0
100
AcDbSymbolTable
 70
     1
  0
VPORT
  5
29
330
8
100
AcDbSymbolTableRecord
100
AcDbViewportTableRecord
  2
*Active
 70
     0
 10
0.0
 20
0.0
 11
1.0
 21
1.0
 12
45.66209966510505
 22
402.2126847631528
 13
0.0
 23
0.0
 14
0.5
 24
0.5
 15
0.5
 25
0.5
 16
0.0
 26
0.0
 36
1.0
 17
0.0
 27
0.0
 37
0.0
 40
231.0000000000001
 41
1.60267857142857
 42
50.0
 43
0.0
 44
0.0
 50
0.0
 51
0.0
 71
     0
 72
   100
 73
     1
 74
     3
 75
     0
 76
     0
 77
     0
 78
     0
281
     0
 65
     1
110
0.0
120
0.0
130
0.0
111
1.0
121
0.0
131
0.0
112
0.0
122
1.0
132
0.0
 79
     0
146
0.0
  0
ENDTAB
  0
TABLE
  2
LTYPE
  5
5
330
0
100
AcDbSymbolTable
 70
     8
  0
LTYPE
  5
14
330
5
100
AcDbSymbolTableRecord
100
AcDbLinetypeTableRecord
  2
ByBlock
 70
     0
  3

 72
    65
 73
     0
 40
0.0
  0
LTYPE
  5
15
330
5
100
AcDbSymbolTableRecord
100
AcDbLinetypeTableRecord
  2
ByLayer
 70
     0
  3

 72
    65
 73
     0
 40
0.0
  0
LTYPE
  5
16
330
5
100
AcDbSymbolTableRecord
100
AcDbLinetypeTableRecord
  2
Continuous
 70
     0
  3
Solid line
 72
    65
 73
     0
 40
0.0
  0
LTYPE
  5
3F
330
5
100
AcDbSymbolTableRecord
100
AcDbLinetypeTableRecord
  2
DASHED
 70
     0
  3
Dashed
 72
    65
 73
     2
 40
15.0
 49
7.0
 74
     0
 49
-8.0
 74
     0
  0
LTYPE
  5
40
330
5
100
AcDbSymbolTableRecord
100
AcDbLinetypeTableRecord
  2
DOTTED
 70
     0
  3
Dotted
 72
    65
 73
     2
 40
1.0
 49
0.0
 74
     0
 49
-1.0
 74
     0
  0
LTYPE
  5
41
330
5
100
AcDbSymbolTableRecord
100
AcDbLinetypeTableRecord
  2
DOT_CENTER
 70
     0
  3
Dot_Center
 72
    65
 73
     4
 40
14.0
 49
12.0
 74
     0
 49
-1.0
 74
     0
 49
0.0
 74
     0
 49
-1.0
 74
     0
  0
LTYPE
  5
42
330
5
100
AcDbSymbolTableRecord
100
AcDbLinetypeTableRecord
  2
LONG_DASHED
 70
     0
  3
Long_Dashed
 72
    65
 73
     2
 40
15.0
 49
10.0
 74
     0
 49
-5.0
 74
     0
  0
LTYPE
  5
43
330
5
100
AcDbSymbolTableRecord
100
AcDbLinetypeTableRecord
  2
DASH_CENTER
 70
     0
  3
Dash_Center
 72
    65
 73
     4
 40
14.0
 49
11.0
 74
     0
 49
-1.0
 74
     0
 49
1.0
 74
     0
 49
-1.0
 74
     0
  0
LTYPE
  5
44
330
5
100
AcDbSymbolTableRecord
100
AcDbLinetypeTableRecord
  2
PHANTOM
 70
     0
  3
Phantom
 72
    65
 73
     6
 40
13.0
 49
10.0
 74
     0
 49
-1.0
 74
     0
 49
0.0
 74
     0
 49
-1.0
 74
     0
 49
0.0
 74
     0
 49
-1.0
 74
     0
  0
LTYPE
  5
45
330
5
100
AcDbSymbolTableRecord
100
AcDbLinetypeTableRecord
  2
CENTER_DASH_DASH
 70
     0
  3
Center_Dash_Dash
 72
    65
 73
     6
 40
14.0
 49
9.0
 74
     0
 49
-1.0
 74
     0
 49
1.0
 74
     0
 49
-1.0
 74
     0
 49
1.0
 74
     0
 49
-1.0
 74
     0
  0
ENDTAB
  0
TABLE
  2
LAYER
  5
2
330
0
100
AcDbSymbolTable
 70
     2
  0
LAYER
  5
10
330
2
100
AcDbSymbolTableRecord
100
AcDbLayerTableRecord
  2
0
 70
     0
 62
     7
  6
Continuous
370
    -3
390
F
  0
LAYER
  5
46
330
2
100
AcDbSymbolTableRecord
100
AcDbLayerTableRecord
  2
1
 70
     0
 62
     7
  6
Continuous
370
    -3
390
F
  0
ENDTAB
  0
TABLE
  2
STYLE
  5
3
330
0
100
AcDbSymbolTable
 70
     5
  0
STYLE
  5
11
330
3
100
AcDbSymbolTableRecord
100
AcDbTextStyleTableRecord
  2
Standard
 70
     0
 40
0.0
 41
1.0
 50
0.0
 71
     0
 42
0.2
  3
txt
  4

  0
STYLE
  5
14B
330
3
100
AcDbSymbolTableRecord
100
AcDbTextStyleTableRecord
  2
CONVERTER_11
 70
     0
 40
0.0
 41
0.9
 50
0.0
 71
     0
 42
0.2
  3
txt.shx
  4

  0
STYLE
  5
46E
330
3
100
AcDbSymbolTableRecord
100
AcDbTextStyleTableRecord
  2
CONVERTER_12
 70
     0
 40
0.0
 41
0.81
 50
0.0
 71
     0
 42
0.2
  3
txt.shx
  4

  0
STYLE
  5
474
330
3
100
AcDbSymbolTableRecord
100
AcDbTextStyleTableRecord
  2
CONVERTER_13
 70
     0
 40
0.0
 41
0.855
 50
0.0
 71
     0
 42
0.2
  3
txt.shx
  4

  0
STYLE
  5
477
330
3
100
AcDbSymbolTableRecord
100
AcDbTextStyleTableRecord
  2
CONVERTER_14
 70
     0
 40
0.0
 41
0.72
 50
0.0
 71
     0
 42
0.2
  3
txt.shx
  4

  0
ENDTAB
  0
TABLE
  2
VIEW
  5
6
330
0
100
AcDbSymbolTable
 70
     0
  0
ENDTAB
  0
TABLE
  2
UCS
  5
7
330
0
100
AcDbSymbolTable
 70
     0
  0
ENDTAB
  0
TABLE
  2
APPID
  5
9
330
0
100
AcDbSymbolTable
 70
     1
  0
APPID
  5
12
330
9
100
AcDbSymbolTableRecord
100
AcDbRegAppTableRecord
  2
ACAD
 70
     0
  0
ENDTAB
  0
TABLE
  2
DIMSTYLE
  5
A
330
0
100
AcDbSymbolTable
 70
     9
100
AcDbDimStyleTable
  0
DIMSTYLE
105
27
330
A
100
AcDbSymbolTableRecord
100
AcDbDimStyleTableRecord
  2
Standard
 70
     0
178
     0
340
11
  0
DIMSTYLE
105
241
102
{ACAD_REACTORS
330
242
102
}
330
A
100
AcDbSymbolTableRecord
100
AcDbDimStyleTableRecord
  2
ME10_DIM_10
 70
     0
 41
3.5
 42
0.0
 44
1.5
 73
     0
 74
     0
 77
     1
 78
     8
140
3.5
147
1.5
172
     1
173
     1
174
     1
175
     1
176
     2
177
     2
178
     3
340
14B
  0
DIMSTYLE
105
2C0
102
{ACAD_REACTORS
330
2C1
102
}
330
A
100
AcDbSymbolTableRecord
100
AcDbDimStyleTableRecord
  2
ME10_DIM_11
 70
     0
 41
3.5
 42
0.0
 44
2.0
 73
     0
 74
     0
 77
     1
 78
     8
140
3.5
147
2.0
172
     1
173
     1
174
     1
175
     1
176
     2
177
     2
178
     3
340
14B
  0
DIMSTYLE
105
33E
102
{ACAD_REACTORS
330
33F
102
}
330
A
100
AcDbSymbolTableRecord
100
AcDbDimStyleTableRecord
  2
ME10_DIM_12
 70
     0
 41
3.5
 42
0.0
 44
1.5
 73
     0
 74
     0
 77
     1
 78
     8
140
3.5
147
1.5
172
     1
173
     1
174
     1
175
     1
176
     2
177
     2
271
     1
178
     3
271
     1
340
14B
  0
DIMSTYLE
105
349
102
{ACAD_REACTORS
330
34A
102
}
330
A
100
AcDbSymbolTableRecord
100
AcDbDimStyleTableRecord
  2
ME10_DIM_13
 70
     0
 41
3.5
 42
0.0
 44
1.5
 73
     0
 74
     0
 77
     1
 78
     8
140
3.5
147
1.5
172
     1
173
     1
174
     1
175
     1
176
     2
177
     2
271
     1
178
     3
271
     1
340
14B
  0
DIMSTYLE
105
354
102
{ACAD_REACTORS
330
355
102
}
330
A
100
AcDbSymbolTableRecord
100
AcDbDimStyleTableRecord
  2
ME10_DIM_14
 70
     0
 41
3.5
 42
0.0
 44
1.5
 73
     0
 74
     0
 77
     1
 78
     8
140
3.5
147
1.5
172
     1
173
     1
174
     1
175
     1
176
     2
177
     2
271
     1
178
     3
271
     1
340
14B
  0
DIMSTYLE
105
35F
102
{ACAD_REACTORS
330
360
102
}
330
A
100
AcDbSymbolTableRecord
100
AcDbDimStyleTableRecord
  2
ME10_DIM_15
 70
     0
 41
3.5
 42
0.0
 44
2.0
 73
     0
 74
     0
 77
     1
 78
     8
140
3.5
147
2.0
172
     1
173
     1
174
     1
175
     1
176
     2
177
     2
178
     3
340
14B
  0
DIMSTYLE
105
36A
102
{ACAD_REACTORS
330
36B
102
}
330
A
100
AcDbSymbolTableRecord
100
AcDbDimStyleTableRecord
  2
ME10_DIM_16
 70
     0
 41
3.5
 42
0.0
 44
2.0
 73
     0
 74
     0
 77
     1
 78
     8
140
3.5
147
2.0
172
     1
173
     1
174
     1
175
     1
176
     2
177
     2
178
     3
340
14B
  0
DIMSTYLE
105
375
102
{ACAD_REACTORS
330
376
102
}
330
A
100
AcDbSymbolTableRecord
100
AcDbDimStyleTableRecord
  2
ME10_DIM_17
 70
     0
 41
3.5
 42
0.0
 44
2.0
 73
     0
 74
     0
 77
     1
 78
     8
140
3.5
147
2.0
172
     1
173
     1
174
     1
175
     1
176
     2
177
     2
178
     3
340
14B
  0
ENDTAB
  0
TABLE
  2
BLOCK_RECORD
  5
1
330
0
100
AcDbSymbolTable
 70
    25
  0
BLOCK_RECORD
  5
1F
330
1
100
AcDbSymbolTableRecord
100
AcDbBlockTableRecord
  2
*Model_Space
340
22
  0
BLOCK_RECORD
  5
1B
330
1
100
AcDbSymbolTableRecord
100
AcDbBlockTableRecord
  2
*Paper_Space
340
1E
  0
BLOCK_RECORD
  5
23
330
1
100
AcDbSymbolTableRecord
100
AcDbBlockTableRecord
  2
*Paper_Space0
340
26
  0
BLOCK_RECORD
  5
47
330
1
100
AcDbSymbolTableRecord
100
AcDbBlockTableRecord
  2
ST-4-FSI-C-select__1
340
0
102
{BLKREFS
331
4B
102
}
  0
BLOCK_RECORD
  5
4A
330
1
100
AcDbSymbolTableRecord
100
AcDbBlockTableRecord
  2
AllgSicht1
340
0
102
{BLKREFS
331
7D
102
}
  0
BLOCK_RECORD
  5
4E
330
1
100
AcDbSymbolTableRecord
100
AcDbBlockTableRecord
  2
ST-4-FSI-C-select__2
340
0
102
{BLKREFS
331
52
102
}
  0
BLOCK_RECORD
  5
51
330
1
100
AcDbSymbolTableRecord
100
AcDbBlockTableRecord
  2
Drfsicht1
340
0
102
{BLKREFS
331
7E
102
}
  0
BLOCK_RECORD
  5
55
330
1
100
AcDbSymbolTableRecord
100
AcDbBlockTableRecord
  2
ST-4-FSI-C-select__3
340
0
102
{BLKREFS
331
59
102
}
  0
BLOCK_RECORD
  5
58
330
1
100
AcDbSymbolTableRecord
100
AcDbBlockTableRecord
  2
Rckans1
340
0
102
{BLKREFS
331
7F
102
}
  0
BLOCK_RECORD
  5
5C
330
1
100
AcDbSymbolTableRecord
100
AcDbBlockTableRecord
  2
ST-4-FSI-C-select__4
340
0
102
{BLKREFS
331
60
102
}
  0
BLOCK_RECORD
  5
5F
330
1
100
AcDbSymbolTableRecord
100
AcDbBlockTableRecord
  2
SA_Links1
340
0
102
{BLKREFS
331
80
102
}
  0
BLOCK_RECORD
  5
63
330
1
100
AcDbSymbolTableRecord
100
AcDbBlockTableRecord
  2
ST-4-FSI-C-select__5
340
0
102
{BLKREFS
331
67
102
}
  0
BLOCK_RECORD
  5
66
330
1
100
AcDbSymbolTableRecord
100
AcDbBlockTableRecord
  2
SA_Rechts1
340
0
102
{BLKREFS
331
81
102
}
  0
BLOCK_RECORD
  5
6A
330
1
100
AcDbSymbolTableRecord
100
AcDbBlockTableRecord
  2
ST-4-FSI-C-select__6
340
0
102
{BLKREFS
331
6E
102
}
  0
BLOCK_RECORD
  5
6D
330
1
100
AcDbSymbolTableRecord
100
AcDbBlockTableRecord
  2
Vordans1
340
0
102
{BLKREFS
331
82
102
}
  0
BLOCK_RECORD
  5
71
330
1
100
AcDbSymbolTableRecord
100
AcDbBlockTableRecord
  2
_rahmen
340
0
102
{BLKREFS
331
78
102
}
  0
BLOCK_RECORD
  5
74
330
1
100
AcDbSymbolTableRecord
100
AcDbBlockTableRecord
  2
_punkt
340
0
102
{BLKREFS
331
79
102
}
  0
BLOCK_RECORD
  5
77
330
1
100
AcDbSymbolTableRecord
100
AcDbBlockTableRecord
  2
A4I_CS
340
0
102
{BLKREFS
331
83
102
}
  0
BLOCK_RECORD
  5
7C
330
1
100
AcDbSymbolTableRecord
100
AcDbBlockTableRecord
  2
1
340
0
102
{BLKREFS
331
86
102
}
  0
BLOCK_RECORD
  5
236
330
1
100
AcDbSymbolTableRecord
100
AcDbBlockTableRecord
  2
*D17
340
0
  0
BLOCK_RECORD
  5
2B5
330
1
100
AcDbSymbolTableRecord
100
AcDbBlockTableRecord
  2
*D18
340
0
  0
BLOCK_RECORD
  5
335
330
1
100
AcDbSymbolTableRecord
100
AcDbBlockTableRecord
  2
*D19
340
0
  0
BLOCK_RECORD
  5
340
330
1
100
AcDbSymbolTableRecord
100
AcDbBlockTableRecord
  2
*D20
340
0
  0
BLOCK_RECORD
  5
34B
330
1
100
AcDbSymbolTableRecord
100
AcDbBlockTableRecord
  2
*D21
340
0
  0
BLOCK_RECORD
  5
356
330
1
100
AcDbSymbolTableRecord
100
AcDbBlockTableRecord
  2
*D22
340
0
  0
BLOCK_RECORD
  5
361
330
1
100
AcDbSymbolTableRecord
100
AcDbBlockTableRecord
  2
*D23
340
0
  0
BLOCK_RECORD
  5
36C
330
1
100
AcDbSymbolTableRecord
100
AcDbBlockTableRecord
  2
*D24
340
0
  0
ENDTAB
  0
ENDSEC
  0
SECTION
  2
BLOCKS
  0
BLOCK
  5
20
330
1F
100
AcDbEntity
  8
0
100
AcDbBlockBegin
  2
*Model_Space
 70
     0
 10
0.0
 20
0.0
 30
0.0
  3
*Model_Space
  1

  0
ENDBLK
  5
21
330
1F
100
AcDbEntity
  8
0
100
AcDbBlockEnd
  0
BLOCK
  5
1C
330
1B
100
AcDbEntity
 67
     1
  8
0
100
AcDbBlockBegin
  2
*Paper_Space
 70
     0
 10
0.0
 20
0.0
 30
0.0
  3
*Paper_Space
  1

  0
ENDBLK
  5
1D
330
1B
100
AcDbEntity
 67
     1
  8
0
100
AcDbBlockEnd
  0
BLOCK
  5
24
330
23
100
AcDbEntity
  8
0
100
AcDbBlockBegin
  2
*Paper_Space0
 70
     0
 10
0.0
 20
0.0
 30
0.0
  3
*Paper_Space0
  1

  0
ENDBLK
  5
25
330
23
100
AcDbEntity
  8
0
100
AcDbBlockEnd
  0
BLOCK
  5
48
330
47
100
AcDbEntity
  8
0
100
AcDbBlockBegin
  2
ST-4-FSI-C-select__1
 70
     0
 10
90.1687941269258
 20
342.5841460471685
 30
0.0
  3
ST-4-FSI-C-select__1
  1

  0
LINE
  5
87
330
47
100
AcDbEntity
  8
0
  6
Continuous
 62
     7
100
AcDbLine
 10
90.168794126926
 20
388.3278848425721
 30
0.0
 11
90.168794126926
 21
381.5296541228587
 31
0.0
  0
LINE
  5
88
330
47
100
AcDbEntity
  8
0
  6
Continuous
 62
     7
100
AcDbLine
 10
90.168794126926
 20
370.2713238736586
 30
0.0
 11
90.168794126926
 21
368.8856832276042
 31
0.0
  0
LINE
  5
89
330
47
100
AcDbEntity
  8
0
  6
Continuous
 62
     7
100
AcDbLine
 10
92.3016052603327
 20
390.1749534655766
 30
0.0
 11
90.168794126926
 21
388.3278848425721
 31
0.0
  0
LINE
  5
8A
330
47
100
AcDbEntity
  8
0
  6
Continuous
 62
     7
100
AcDbLine
 10
91.86637212589142
 20
394.0299866222887
 30
0.0
 11
95.9413721258914
 21
397.5590401427102
 31
0.0
  0
LINE
  5
8B
330
47
100
AcDbEntity
  8
0
  6
Continuous
 62
     7
100
AcDbLine
 10
125.4989502695596
 20
389.0265022937874
 30
0.0
 11
124.0510892439928
 21
389.4444637702173
 31
0.0
  0
LINE
  5
8C
330
47
100
AcDbEntity
  8
0
  6
Continuous
 62
     7
100
AcDbLine
 10
115.4411270261243
 20
379.7622888491469
 30
0.0
 11
118.9411270261243
 21
382.7933777623925
 31
0.0
  0
LINE
  5
8D
330
47
100
AcDbEntity
  8
0
  6
Continuous
 62
     7
100
AcDbLine
 10
112.7131470041865
 20
380.5497888491518
 30
0.0
 11
115.4411270261243
 21
379.7622888491469
 31
0.0
  0
LINE
  5
8E
330
47
100
AcDbEntity
  8
0
  6
Continuous
 62
     7
100
AcDbLine
 10
112.4256470041865
 20
380.3008065455638
 30
0.0
 11
112.7131470041865
 21
380.5497888491518
 31
0.0
  0
LINE
  5
8F
330
47
100
AcDbEntity
  8
0
  6
Continuous
 62
     7
100
AcDbLine
 10
125.4989502695596
 20
389.0265022937874
 30
0.0
 11
126.3000695306271
 21
386.9722556083074
 31
0.0
  0
LINE
  5
90
330
47
100
AcDbEntity
  8
0
  6
Continuous
 62
     7
100
AcDbLine
 10
125.8428960475121
 20
386.5763317579932
 30
0.0
 11
125.8428960475121
 21
386.1775830430295
 31
0.0
  0
LINE
  5
91
330
47
100
AcDbEntity
  8
0
  6
Continuous
 62
     7
100
AcDbLine
 10
125.8428960475121
 20
386.1775830430295
 30
0.0
 11
129.2832025044021
 21
385.1844521135394
 31
0.0
  0
LINE
  5
92
330
47
100
AcDbEntity
  8
0
  6
Continuous
 62
     7
100
AcDbLine
 10
127.2455067264488
 20
381.9939267046572
 30
0.0
 11
126.7883332433326
 21
382.125901321429
 31
0.0
  0
LINE
  5
93
330
47
100
AcDbEntity
  8
0
  6
Continuous
 62
     7
100
AcDbLine
 10
127.2455067264488
 20
381.0672795226079
 30
0.0
 11
127.2455067264488
 21
381.9939267046572
 31
0.0
  0
LINE
  5
94
330
47
100
AcDbEntity
  8
0
  6
Continuous
 62
     7
100
AcDbLine
 10
129.3294373268831
 20
384.8174782300594
 30
0.0
 11
129.3294373268831
 21
383.2153312330581
 31
0.0
  0
LINE
  5
95
330
47
100
AcDbEntity
  8
0
  6
Continuous
 62
     7
100
AcDbLine
 10
127.5894525044032
 20
383.7176215858805
 30
0.0
 11
126.7883332433326
 21
382.125901321429
 31
0.0
  0
LINE
  5
96
330
47
100
AcDbEntity
  8
0
  6
Continuous
 62
     7
100
AcDbLine
 10
129.3294373268831
 20
383.2153312330581
 30
0.0
 11
127.5894525044032
 21
383.7176215858805
 31
0.0
  0
LINE
  5
97
330
47
100
AcDbEntity
  8
0
  6
Continuous
 62
     7
100
AcDbLine
 10
118.9411270261243
 20
382.7933777623925
 30
0.0
 11
116.2131470041865
 21
383.5808777623973
 31
0.0
  0
LINE
  5
98
330
47
100
AcDbEntity
  8
0
  6
Continuous
 62
     7
100
AcDbLine
 10
116.9133702125247
 20
379.3372888491565
 30
0.0
 11
119.3538502344618
 21
381.4508065455825
 31
0.0
  0
LINE
  5
99
330
47
100
AcDbEntity
  8
0
  6
Continuous
 62
     7
100
AcDbLine
 10
121.7678960475121
 20
382.6485295226079
 30
0.0
 11
121.7678960475123
 21
383.5751767046572
 31
0.0
  0
LINE
  5
9A
330
47
100
AcDbEntity
  8
0
  6
Continuous
 62
     7
100
AcDbLine
 10
122.2250695306271
 20
383.4432020878858
 30
0.0
 11
121.7678960475123
 21
383.5751767046572
 31
0.0
  0
LINE
  5
9B
330
47
100
AcDbEntity
  8
0
  6
Continuous
 62
     7
100
AcDbLine
 10
119.3538502344619
 20
384.6227919931889
 30
0.0
 11
119.3538502344619
 21
378.3008065455638
 31
0.0
  0
LINE
  5
9C
330
47
100
AcDbEntity
  8
0
  6
Continuous
 62
     7
100
AcDbLine
 10
127.2455067264488
 20
381.0672795226079
 30
0.0
 11
121.7678960475121
 21
382.6485295226079
 31
0.0
  0
LINE
  5
9D
330
47
100
AcDbEntity
  8
0
  6
Continuous
 62
     7
100
AcDbLine
 10
121.7678960475121
 20
382.6485295226079
 30
0.0
 11
125.8428960475121
 21
386.1775830430295
 31
0.0
  0
LINE
  5
9E
330
47
100
AcDbEntity
  8
0
  6
Continuous
 62
     7
100
AcDbLine
 10
126.3000695306271
 20
386.9722556083074
 30
0.0
 11
122.2250695306271
 21
383.4432020878858
 31
0.0
  0
LINE
  5
9F
330
47
100
AcDbEntity
  8
0
  6
Continuous
 62
     7
100
AcDbLine
 10
121.4239502695596
 20
385.4974487733658
 30
0.0
 11
125.4989502695596
 21
389.0265022937874
 31
0.0
  0
LINE
  5
A0
330
47
100
AcDbEntity
  8
0
  6
Continuous
 62
     7
100
AcDbLine
 10
131.6644525044032
 20
387.2466751063021
 30
0.0
 11
127.5894525044032
 21
383.7176215858805
 31
0.0
  0
LINE
  5
A1
330
47
100
AcDbEntity
  8
0
  6
Continuous
 62
     7
100
AcDbLine
 10
124.0510892439928
 20
389.4444637702173
 30
0.0
 11
119.9760892439928
 21
385.9154102497957
 31
0.0
  0
LINE
  5
A2
330
47
100
AcDbEntity
  8
0
  6
Continuous
 62
     7
100
AcDbLine
 10
169.1549915542807
 20
349.5773011827291
 30
0.0
 11
169.1549915542805
 21
346.1131995675901
 31
0.0
  0
LINE
  5
A3
330
47
100
AcDbEntity
  8
0
  6
Continuous
 62
     7
100
AcDbLine
 10
135.1155125833388
 20
349.2422876184644
 30
0.0
 11
133.9896795584189
 21
349.265621568625
 31
0.0
  0
LINE
  5
A4
330
47
100
AcDbEntity
  8
0
  6
Continuous
 62
     7
100
AcDbLine
 10
133.9896795584189
 20
349.265621568625
 30
0.0
 11
133.9896795584187
 21
348.8744672954363
 31
0.0
  0
LINE
  5
A5
330
47
100
AcDbEntity
  8
0
  6
Continuous
 62
     7
100
AcDbLine
 10
137.6917166685278
 20
344.2977243991949
 30
0.0
 11
165.0799915542805
 21
342.5841460471685
 31
0.0
  0
LINE
  5
A6
330
47
100
AcDbEntity
  8
0
  6
Continuous
 62
     7
100
AcDbLine
 10
165.0799915542805
 20
342.5841460471685
 30
0.0
 11
165.0799915542807
 21
346.0482476623075
 31
0.0
  0
LINE
  5
A7
330
47
100
AcDbEntity
  8
0
  6
Continuous
 62
     7
100
AcDbLine
 10
169.1549915542807
 20
349.5773011827291
 30
0.0
 11
165.0799915542807
 21
346.0482476623075
 31
0.0
  0
LINE
  5
A8
330
47
100
AcDbEntity
  8
0
  6
Continuous
 62
     7
100
AcDbLine
 10
169.1549915542805
 20
346.1131995675901
 30
0.0
 11
165.0799915542805
 21
342.5841460471685
 31
0.0
  0
LINE
  5
A9
330
47
100
AcDbEntity
  8
0
  6
Continuous
 62
     7
100
AcDbLine
 10
135.0759300210392
 20
350.2063420641267
 30
0.0
 11
133.9896795584189
 21
349.265621568625
 31
0.0
  0
LINE
  5
AA
330
47
100
AcDbEntity
  8
0
  6
Continuous
 62
     7
100
AcDbLine
 10
168.6016845841733
 20
370.5399224828637
 30
0.0
 11
169.1549915542804
 21
370.2319383629935
 31
0.0
  0
LINE
  5
AB
330
47
100
AcDbEntity
  8
0
  6
Continuous
 62
     7
100
AcDbLine
 10
116.9133702125247
 20
379.3372888491565
 30
0.0
 11
119.3538502344619
 21
378.6327829503479
 31
0.0
  0
LINE
  5
AC
330
47
100
AcDbEntity
  8
0
  6
Continuous
 62
     7
100
AcDbLine
 10
146.693246666281
 20
378.2028312349288
 30
0.0
 11
148.380746666281
 21
379.6642491038151
 31
0.0
  0
LINE
  5
AD
330
47
100
AcDbEntity
  8
0
  6
Continuous
 62
     7
100
AcDbLine
 10
149.0807466662809
 20
380.2704668864641
 30
0.0
 11
148.380746666281
 21
379.6642491038151
 31
0.0
  0
LINE
  5
AE
330
47
100
AcDbEntity
  8
0
  6
Continuous
 62
     7
100
AcDbLine
 10
151.0959571495667
 20
377.8845061377472
 30
0.0
 11
153.7209571495667
 21
380.1578228226813
 31
0.0
  0
LINE
  5
AF
330
47
100
AcDbEntity
  8
0
  6
Continuous
 62
     7
100
AcDbLine
 10
153.7209571495667
 20
380.1578228226813
 30
0.0
 11
157.6180714665966
 21
379.0328228226813
 31
0.0
  0
LINE
  5
B0
330
47
100
AcDbEntity
  8
0
  6
Continuous
 62
     7
100
AcDbLine
 10
162.938326429682
 20
377.5402987753232
 30
0.0
 11
162.4187111874119
 21
377.6902987753232
 31
0.0
  0
LINE
  5
B1
330
47
100
AcDbEntity
  8
0
  6
Continuous
 62
     7
100
AcDbLine
 10
112.4256470041865
 20
380.3008065455638
 30
0.0
 11
119.3538502344619
 21
378.3008065455638
 31
0.0
  0
LINE
  5
B2
330
47
100
AcDbEntity
  8
0
  6
Continuous
 62
     7
100
AcDbLine
 10
157.6180714665966
 20
379.0328228226813
 30
0.0
 11
154.9930714665966
 21
376.7595061377472
 31
0.0
  0
LINE
  5
B3
330
47
100
AcDbEntity
  8
0
  6
Continuous
 62
     7
100
AcDbLine
 10
106.1902640969382
 20
356.8994672954345
 30
0.0
 11
106.1902640969382
 21
357.290621568625
 31
0.0
  0
LINE
  5
B4
330
47
100
AcDbEntity
  8
0
  6
Continuous
 62
     7
100
AcDbLine
 10
107.6152640969402
 20
358.1335534958291
 30
0.0
 11
106.1902640969382
 21
356.8994672954345
 31
0.0
  0
LINE
  5
B5
330
47
100
AcDbEntity
  8
0
  6
Continuous
 62
     7
100
AcDbLine
 10
90.16879412692651
 20
360.6584418916522
 30
0.0
 11
90.1687941269258
 21
357.9737631399205
 31
0.0
  0
LINE
  5
B6
330
47
100
AcDbEntity
  8
0
  6
Continuous
 62
     7
100
AcDbLine
 10
93.63289574206362
 20
367.8856832276043
 30
0.0
 11
93.63289574206362
 21
358.272801245597
 31
0.0
  0
LINE
  5
B7
330
47
100
AcDbEntity
  8
0
  6
Continuous
 62
     2
100
AcDbLine
 10
106.8545083537264
 20
364.0128448003095
 30
0.0
 11
106.4583730906621
 21
363.6697815991619
 31
0.0
  0
LINE
  5
B8
330
47
100
AcDbEntity
  8
0
  6
Continuous
 62
     7
100
AcDbLine
 10
107.0708643278896
 20
360.6075377332258
 30
0.0
 11
105.0644310720191
 21
358.869915562644
 31
0.0
  0
LINE
  5
B9
330
47
100
AcDbEntity
  8
0
  6
Continuous
 62
     7
100
AcDbLine
 10
105.0644310720191
 20
357.9172876184643
 30
0.0
 11
106.7012490856114
 21
359.3348135996073
 31
0.0
  0
LINE
  5
BA
330
47
100
AcDbEntity
  8
0
  6
Continuous
 62
     7
100
AcDbLine
 10
106.1902640969382
 20
357.290621568625
 30
0.0
 11
107.2765145595585
 21
358.2313420641267
 31
0.0
  0
LINE
  5
BB
330
47
100
AcDbEntity
  8
0
  6
Continuous
 62
     7
100
AcDbLine
 10
105.0644310720191
 20
357.9172876184643
 30
0.0
 11
105.0644310720191
 21
358.869915562644
 31
0.0
  0
LINE
  5
BC
330
47
100
AcDbEntity
  8
0
  6
Continuous
 62
     7
100
AcDbLine
 10
91.46783223260252
 20
358.8978012455969
 30
0.0
 11
93.63289574206362
 21
358.272801245597
 31
0.0
  0
LINE
  5
BD
330
47
100
AcDbEntity
  8
0
  6
Continuous
 62
     7
100
AcDbLine
 10
106.1902640969382
 20
357.290621568625
 30
0.0
 11
105.0644310720191
 21
357.9172876184643
 31
0.0
  0
LINE
  5
BE
330
47
100
AcDbEntity
  8
0
  6
Continuous
 62
     7
100
AcDbLine
 10
91.46783223260252
 20
359.7024943897208
 30
0.0
 11
91.46783223260252
 21
358.8978012455969
 31
0.0
  0
LINE
  5
BF
330
47
100
AcDbEntity
  8
0
  6
Continuous
 62
     7
100
AcDbLine
 10
93.63289574206362
 20
363.9490299816305
 30
0.0
 11
90.35902868669532
 21
361.1137779430687
 31
0.0
  0
LINE
  5
C0
330
47
100
AcDbEntity
  8
0
  6
Continuous
 62
     7
100
AcDbLine
 10
93.63289574206362
 20
361.5678538016729
 30
0.0
 11
91.53740529396941
 21
359.7531058402357
 31
0.0
  0
LINE
  5
C1
330
47
100
AcDbEntity
  8
0
  6
Continuous
 62
     7
100
AcDbLine
 10
91.46783223260252
 20
358.8978012455969
 30
0.0
 11
93.63289574206362
 21
360.7728012455969
 31
0.0
  0
LINE
  5
C2
330
47
100
AcDbEntity
  8
0
  6
Continuous
 62
     7
100
AcDbLine
 10
107.7736078004943
 20
363.0273475111365
 30
0.0
 11
106.4500717180735
 21
358.4699155626273
 31
0.0
  0
LINE
  5
C3
330
47
100
AcDbEntity
  8
0
  6
Continuous
 62
     7
100
AcDbLine
 10
106.4583730906621
 20
363.6697815991619
 30
0.0
 11
105.0644310720191
 21
358.869915562644
 31
0.0
  0
LINE
  5
C4
330
47
100
AcDbEntity
  8
0
  6
Continuous
 62
     7
100
AcDbLine
 10
90.1687941269258
 20
357.9737631399205
 30
0.0
 11
104.7535767498788
 21
353.763499053204
 31
0.0
  0
LINE
  5
C5
330
47
100
AcDbEntity
  8
0
  6
Continuous
 62
     7
100
AcDbLine
 10
108.8285767498788
 20
357.2925525736256
 30
0.0
 11
104.7535767498788
 21
353.763499053204
 31
0.0
  0
LINE
  5
C6
330
47
100
AcDbEntity
  8
0
  6
Continuous
 62
     7
100
AcDbLine
 10
116.2131470041865
 20
383.5808777623973
 30
0.0
 11
116.2131470041865
 21
380.4308777623779
 31
0.0
  0
LINE
  5
C7
330
47
100
AcDbEntity
  8
0
  6
Continuous
 62
     7
100
AcDbLine
 10
119.3538502344618
 20
383.0062112394593
 30
0.0
 11
116.5006470041865
 21
383.8298600659853
 31
0.0
  0
LINE
  5
C8
330
47
100
AcDbEntity
  8
0
  6
Continuous
 62
     7
100
AcDbLine
 10
90.66106501353522
 20
388.1062468692161
 30
0.0
 11
91.55613745853381
 21
387.6080277718791
 31
0.0
  0
LINE
  5
C9
330
47
100
AcDbEntity
  8
0
  6
Continuous
 62
     7
100
AcDbLine
 10
92.97384742390062
 20
392.4897357779519
 30
0.0
 11
91.55613745853381
 21
387.6080277718791
 31
0.0
  0
LINE
  5
CA
330
47
100
AcDbEntity
  8
0
  6
Continuous
 62
     7
100
AcDbLine
 10
115.878407994677
 20
391.8037136298669
 30
0.0
 11
116.5006470041865
 21
390.1518455136104
 31
0.0
  0
LINE
  5
CB
330
47
100
AcDbEntity
  8
0
  6
Continuous
 62
     7
100
AcDbLine
 10
112.4256470041865
 20
386.6227919931887
 30
0.0
 11
111.803407994677
 21
388.2746601094453
 31
0.0
  0
LINE
  5
CC
330
47
100
AcDbEntity
  8
0
  6
Continuous
 62
     7
100
AcDbLine
 10
112.4256470041865
 20
386.6227919931887
 30
0.0
 11
116.5006470041865
 21
390.1518455136104
 31
0.0
  0
LINE
  5
CD
330
47
100
AcDbEntity
  8
0
  6
Continuous
 62
     7
100
AcDbLine
 10
116.5006470041865
 20
390.1518455136104
 30
0.0
 11
116.5006470041865
 21
383.8298600659853
 31
0.0
  0
LINE
  5
CE
330
47
100
AcDbEntity
  8
0
  6
Continuous
 62
     7
100
AcDbLine
 10
116.2131470041865
 20
383.5808777623973
 30
0.0
 11
116.5006470041865
 21
383.8298600659853
 31
0.0
  0
LINE
  5
CF
330
47
100
AcDbEntity
  8
0
  6
Continuous
 62
     7
100
AcDbLine
 10
122.2250695306271
 20
383.4432020878858
 30
0.0
 11
121.4239502695596
 21
385.4974487733658
 31
0.0
  0
LINE
  5
D0
330
47
100
AcDbEntity
  8
0
  6
Continuous
 62
     7
100
AcDbLine
 10
119.9760892439928
 20
385.9154102497957
 30
0.0
 11
119.3538502344619
 21
384.6227919931889
 31
0.0
  0
LINE
  5
D1
330
47
100
AcDbEntity
  8
0
  6
Continuous
 62
     7
100
AcDbLine
 10
119.9760892439928
 20
385.9154102497957
 30
0.0
 11
121.4239502695596
 21
385.4974487733658
 31
0.0
  0
LINE
  5
D2
330
47
100
AcDbEntity
  8
0
  6
Continuous
 62
     7
100
AcDbLine
 10
115.878407994677
 20
391.8037136298669
 30
0.0
 11
111.803407994677
 21
388.2746601094453
 31
0.0
  0
LINE
  5
D3
330
47
100
AcDbEntity
  8
0
  6
Continuous
 62
     7
100
AcDbLine
 10
105.8028285316399
 20
390.9595061377474
 30
0.0
 11
108.4278285316399
 21
393.2328228226815
 31
0.0
  0
LINE
  5
D4
330
47
100
AcDbEntity
  8
0
  6
Continuous
 62
     7
100
AcDbLine
 10
108.4278285316399
 20
393.2328228226815
 30
0.0
 11
104.5307142146099
 21
394.3578228226815
 31
0.0
  0
LINE
  5
D5
330
47
100
AcDbEntity
  8
0
  6
Continuous
 62
     7
100
AcDbLine
 10
101.6785027829049
 20
392.3377352658629
 30
0.0
 11
101.8035027829049
 21
392.4459884413359
 31
0.0
  0
LINE
  5
D6
330
47
100
AcDbEntity
  8
0
  6
Continuous
 62
     7
100
AcDbLine
 10
104.5307142146099
 20
394.3578228226815
 30
0.0
 11
101.9057142146099
 21
392.0845061377473
 31
0.0
  0
LINE
  5
D7
330
47
100
AcDbEntity
  8
0
  6
Continuous
 62
     7
100
AcDbLine
 10
105.1408615105212
 20
391.3111711303506
 30
0.0
 11
104.5307142146099
 21
394.3578228226815
 31
0.0
  0
LINE
  5
D8
330
47
100
AcDbEntity
  8
0
  6
Continuous
 62
     7
100
AcDbLine
 10
105.0018024485848
 20
391.1907424500872
 30
0.0
 11
105.1408615105212
 21
391.3111711303506
 31
0.0
  0
LINE
  5
D9
330
47
100
AcDbEntity
  8
0
  6
Continuous
 62
     7
100
AcDbLine
 10
105.1408615105212
 20
391.3111711303506
 30
0.0
 11
105.3014330842057
 21
391.1042465360206
 31
0.0
  0
LINE
  5
DA
330
47
100
AcDbEntity
  8
0
  6
Continuous
 62
     7
100
AcDbLine
 10
105.8028285316399
 20
390.9595061377474
 30
0.0
 11
101.9057142146099
 21
392.0845061377473
 31
0.0
  0
LINE
  5
DB
330
47
100
AcDbEntity
  8
0
  6
Continuous
 62
     7
100
AcDbLine
 10
112.4256470041865
 20
380.3008065455638
 30
0.0
 11
112.4256470041865
 21
386.6227919931887
 31
0.0
  0
LINE
  5
DC
330
47
100
AcDbEntity
  8
0
  6
Continuous
 62
     7
100
AcDbLine
 10
99.98484943495762
 20
392.970988441336
 30
0.0
 11
99.85984943495762
 21
392.8627352658629
 31
0.0
  0
LINE
  5
DD
330
47
100
AcDbEntity
  8
0
  6
Continuous
 62
     7
100
AcDbLine
 10
96.90507449379473
 20
393.2538251043488
 30
0.0
 11
96.38545925152411
 21
393.4038251043488
 31
0.0
  0
LINE
  5
DE
330
47
100
AcDbEntity
  8
0
  6
Continuous
 62
     7
100
AcDbLine
 10
99.28545925152412
 20
395.9152987753236
 30
0.0
 11
99.8050744937947
 21
395.7652987753237
 31
0.0
  0
LINE
  5
DF
330
47
100
AcDbEntity
  8
0
  6
Continuous
 62
     2
100
AcDbLine
 10
99.28545925152412
 20
393.1362098179656
 30
0.0
 11
99.28545925152412
 21
395.9152987753236
 31
0.0
  0
LINE
  5
E0
330
47
100
AcDbEntity
  8
0
  6
Continuous
 62
     2
100
AcDbLine
 10
99.8050744937947
 20
393.2538251043486
 30
0.0
 11
99.8050744937947
 21
395.7652987753237
 31
0.0
  0
LINE
  5
E1
330
47
100
AcDbEntity
  8
0
  6
Continuous
 62
     7
100
AcDbLine
 10
91.64297230137342
 20
393.2607371011981
 30
0.0
 11
92.01773889540272
 21
392.7777847101967
 31
0.0
  0
LINE
  5
E2
330
47
100
AcDbEntity
  8
0
  6
Continuous
 62
     7
100
AcDbLine
 10
91.64297230137342
 20
393.2607371011981
 30
0.0
 11
91.86637212589142
 21
394.0299866222887
 31
0.0
  0
LINE
  5
E3
330
47
100
AcDbEntity
  8
0
  6
Continuous
 62
     2
100
AcDbLine
 10
99.85984943495762
 20
392.8627352658629
 30
0.0
 11
99.85984943495762
 21
392.3377352658629
 31
0.0
  0
LINE
  5
E4
330
47
100
AcDbEntity
  8
0
  6
Continuous
 62
     2
100
AcDbLine
 10
99.98484943495762
 20
392.970988441336
 30
0.0
 11
99.98484943495762
 21
392.2511895423203
 31
0.0
  0
LINE
  5
E5
330
47
100
AcDbEntity
  8
0
  6
Continuous
 62
     7
100
AcDbLine
 10
92.18935129493201
 20
392.9264054077935
 30
0.0
 11
92.01773889540272
 21
392.7777847101967
 31
0.0
  0
LINE
  5
E6
330
47
100
AcDbEntity
  8
0
  6
Continuous
 62
     7
100
AcDbLine
 10
92.07877497890112
 20
392.9879548752892
 30
0.0
 11
92.01773889540272
 21
392.7777847101967
 31
0.0
  0
LINE
  5
E7
330
47
100
AcDbEntity
  8
0
  6
Continuous
 62
     7
100
AcDbLine
 10
92.97384742390062
 20
392.4897357779519
 30
0.0
 11
92.07877497890112
 21
392.9879548752892
 31
0.0
  0
LINE
  5
E8
330
47
100
AcDbEntity
  8
0
  6
Continuous
 62
     7
100
AcDbLine
 10
90.7221010970332
 20
388.3164170343066
 30
0.0
 11
90.66106501353522
 21
388.1062468692161
 31
0.0
  0
LINE
  5
E9
330
47
100
AcDbEntity
  8
0
  6
Continuous
 62
     7
100
AcDbLine
 10
92.111236994779
 20
389.5194440110633
 30
0.0
 11
90.7221010970332
 21
388.3164170343066
 31
0.0
  0
LINE
  5
EA
330
47
100
AcDbEntity
  8
0
  6
Continuous
 62
     7
100
AcDbLine
 10
92.05020091128102
 20
389.309273845973
 30
0.0
 11
90.66106501353522
 21
388.1062468692161
 31
0.0
  0
LINE
  5
EB
330
47
100
AcDbEntity
  8
0
  6
Continuous
 62
     7
100
AcDbLine
 10
111.803407994677
 20
388.2746601094453
 30
0.0
 11
91.86637212589142
 21
394.0299866222887
 31
0.0
  0
LINE
  5
EC
330
47
100
AcDbEntity
  8
0
  6
Continuous
 62
     7
100
AcDbLine
 10
95.9413721258914
 20
397.5590401427102
 30
0.0
 11
115.878407994677
 21
391.8037136298669
 31
0.0
  0
LINE
  5
ED
330
47
100
AcDbEntity
  8
0
  6
Continuous
 62
     7
100
AcDbLine
 10
90.168794126926
 20
388.3278848425721
 30
0.0
 11
90.7221010970332
 21
388.3164170343066
 31
0.0
  0
LINE
  5
EE
330
47
100
AcDbEntity
  8
0
  6
Continuous
 62
     7
100
AcDbLine
 10
93.63289574206362
 20
367.8856832276043
 30
0.0
 11
90.168794126926
 21
368.8856832276042
 31
0.0
  0
LINE
  5
EF
330
47
100
AcDbEntity
  8
0
  6
Continuous
 62
     7
100
AcDbLine
 10
153.7209571495667
 20
377.1267339094358
 30
0.0
 11
153.7209571495667
 21
380.1578228226813
 31
0.0
  0
LINE
  5
F0
330
47
100
AcDbEntity
  8
0
  6
Continuous
 62
     7
100
AcDbLine
 10
129.3294373268831
 20
384.8174782300594
 30
0.0
 11
131.0169373268831
 21
386.2788960989456
 31
0.0
  0
LINE
  5
F1
330
47
100
AcDbEntity
  8
0
  6
Continuous
 62
     7
100
AcDbLine
 10
133.7587238706968
 20
384.8358489337968
 30
0.0
 11
133.8059523012226
 21
387.219253926202
 31
0.0
  0
LINE
  5
F2
330
47
100
AcDbEntity
  8
0
  6
Continuous
 62
     7
100
AcDbLine
 10
131.6644525044032
 20
387.2466751063021
 30
0.0
 11
132.0169373268831
 21
387.14492150273
 31
0.0
  0
LINE
  5
F3
330
47
100
AcDbEntity
  8
0
  6
Continuous
 62
     7
100
AcDbLine
 10
150.7682466662809
 20
381.7318847553504
 30
0.0
 11
150.7682466662809
 21
383.3340317523516
 31
0.0
  0
LINE
  5
F4
330
47
100
AcDbEntity
  8
0
  6
Continuous
 62
     7
100
AcDbLine
 10
149.0807466662809
 20
381.8726138834653
 30
0.0
 11
150.7682466662809
 21
383.3340317523516
 31
0.0
  0
LINE
  5
F5
330
47
100
AcDbEntity
  8
0
  6
Continuous
 62
     7
100
AcDbLine
 10
149.0807466662809
 20
380.2704668864641
 30
0.0
 11
150.7682466662809
 21
381.7318847553504
 31
0.0
  0
LINE
  5
F6
330
47
100
AcDbEntity
  8
0
  6
Continuous
 62
     7
100
AcDbLine
 10
131.716937326883
 20
386.8851138815947
 30
0.0
 11
131.716937326883
 21
386.0768235047293
 31
0.0
  0
LINE
  5
F7
330
47
100
AcDbEntity
  8
0
  6
Continuous
 62
     7
100
AcDbLine
 10
132.9943247905861
 20
385.0565119411319
 30
0.0
 11
132.9943247905861
 21
386.5163638835805
 31
0.0
  0
LINE
  5
F8
330
47
100
AcDbEntity
  8
0
  6
Continuous
 62
     7
100
AcDbLine
 10
148.380746666281
 20
379.6642491038151
 30
0.0
 11
148.380746666281
 21
381.2663961008162
 31
0.0
  0
LINE
  5
F9
330
47
100
AcDbEntity
  8
0
  6
Continuous
 62
     7
100
AcDbLine
 10
146.6932466662811
 20
379.80497823193
 30
0.0
 11
146.693246666281
 21
378.2028312349288
 31
0.0
  0
LINE
  5
FA
330
47
100
AcDbEntity
  8
0
  6
Continuous
 62
     7
100
AcDbLine
 10
132.2943247905861
 20
385.2585845353483
 30
0.0
 11
132.2943247905861
 21
385.9101461009314
 31
0.0
  0
LINE
  5
FB
330
47
100
AcDbEntity
  8
0
  6
Continuous
 62
     7
100
AcDbLine
 10
146.5390903273754
 20
381.1464749267441
 30
0.0
 11
131.7300559226616
 21
385.4214749267441
 31
0.0
  0
LINE
  5
FC
330
47
100
AcDbEntity
  8
0
  6
Continuous
 62
     7
100
AcDbLine
 10
131.0169373268831
 20
386.2788960989456
 30
0.0
 11
132.2943247905861
 21
385.9101461009314
 31
0.0
  0
LINE
  5
FD
330
47
100
AcDbEntity
  8
0
  6
Continuous
 62
     7
100
AcDbLine
 10
146.6932466662811
 20
379.80497823193
 30
0.0
 11
148.380746666281
 21
381.2663961008162
 31
0.0
  0
LINE
  5
FE
330
47
100
AcDbEntity
  8
0
  6
Continuous
 62
     7
100
AcDbLine
 10
146.5390903273754
 20
381.1464749267441
 30
0.0
 11
147.1033591953
 21
381.6351461009314
 31
0.0
  0
LINE
  5
FF
330
47
100
AcDbEntity
  8
0
  6
Continuous
 62
     7
100
AcDbLine
 10
147.8033591953
 20
382.2413638835805
 30
0.0
 11
147.8033591953
 21
381.4330735067151
 31
0.0
  0
LINE
  5
100
330
47
100
AcDbEntity
  8
0
  6
Continuous
 62
     7
100
AcDbLine
 10
147.1033591953
 20
381.6351461009314
 30
0.0
 11
148.380746666281
 21
381.2663961008162
 31
0.0
  0
LINE
  5
101
330
47
100
AcDbEntity
  8
0
  6
Continuous
 62
     7
100
AcDbLine
 10
149.0807466662809
 20
381.8726138834653
 30
0.0
 11
149.0807466662809
 21
380.2704668864641
 31
0.0
  0
LINE
  5
102
330
47
100
AcDbEntity
  8
0
  6
Continuous
 62
     7
100
AcDbLine
 10
147.8033591953
 20
382.2413638835805
 30
0.0
 11
148.6149867059365
 21
382.944253926202
 31
0.0
  0
LINE
  5
103
330
47
100
AcDbEntity
  8
0
  6
Continuous
 62
     7
100
AcDbLine
 10
131.7300559226616
 20
385.4214749267441
 30
0.0
 11
132.2943247905861
 21
385.9101461009314
 31
0.0
  0
LINE
  5
104
330
47
100
AcDbEntity
  8
0
  6
Continuous
 62
     7
100
AcDbLine
 10
149.0807466662809
 20
381.8726138834653
 30
0.0
 11
147.8033591953
 21
382.2413638835805
 31
0.0
  0
LINE
  5
105
330
47
100
AcDbEntity
  8
0
  6
Continuous
 62
     7
100
AcDbLine
 10
133.8059523012226
 20
387.219253926202
 30
0.0
 11
148.6149867059365
 21
382.944253926202
 31
0.0
  0
LINE
  5
106
330
47
100
AcDbEntity
  8
0
  6
Continuous
 62
     7
100
AcDbLine
 10
132.9943247905861
 20
386.5163638835805
 30
0.0
 11
131.716937326883
 21
386.8851138815947
 31
0.0
  0
LINE
  5
107
330
47
100
AcDbEntity
  8
0
  6
Continuous
 62
     7
100
AcDbLine
 10
131.716937326883
 20
386.8851138815947
 30
0.0
 11
133.4044373268831
 21
388.3465317504811
 31
0.0
  0
LINE
  5
108
330
47
100
AcDbEntity
  8
0
  6
Continuous
 62
     7
100
AcDbLine
 10
132.9943247905861
 20
386.5163638835805
 30
0.0
 11
133.8059523012226
 21
387.219253926202
 31
0.0
  0
LINE
  5
109
330
47
100
AcDbEntity
  8
0
  6
Continuous
 62
     7
100
AcDbLine
 10
133.4044373268831
 20
388.3465317504811
 30
0.0
 11
150.7682466662809
 21
383.3340317523516
 31
0.0
  0
LINE
  5
10A
330
47
100
AcDbEntity
  8
0
  6
Continuous
 62
     7
100
AcDbLine
 10
129.3294373268831
 20
384.8174782300594
 30
0.0
 11
146.6932466662811
 21
379.80497823193
 31
0.0
  0
LINE
  5
10B
330
47
100
AcDbEntity
  8
0
  6
Continuous
 62
     7
100
AcDbLine
 10
167.457413555315
 20
376.9141372573832
 30
0.0
 11
150.7682466662809
 21
381.7318847553504
 31
0.0
  0
LINE
  5
10C
330
47
100
AcDbEntity
  8
0
  6
Continuous
 62
     7
100
AcDbLine
 10
135.1155125833388
 20
350.1949155626272
 30
0.0
 11
135.1155125833388
 21
349.2422876184644
 31
0.0
  0
LINE
  5
10D
330
47
100
AcDbEntity
  8
0
  6
Continuous
 62
     7
100
AcDbLine
 10
135.4263669054786
 20
344.9090272266374
 30
0.0
 11
137.3097273267425
 21
344.3653479035385
 31
0.0
  0
LINE
  5
10E
330
47
100
AcDbEntity
  8
0
  6
Continuous
 62
     7
100
AcDbLine
 10
167.457413555315
 20
376.9141372573832
 30
0.0
 11
167.6808133798331
 21
376.0159077874703
 31
0.0
  0
LINE
  5
10F
330
47
100
AcDbEntity
  8
0
  6
Continuous
 62
     7
100
AcDbLine
 10
167.457413555315
 20
376.9141372573832
 30
0.0
 11
163.382413555315
 21
373.3850837369616
 31
0.0
  0
LINE
  5
110
330
47
100
AcDbEntity
  8
0
  6
Continuous
 62
     7
100
AcDbLine
 10
167.6808133798331
 20
376.0159077874703
 30
0.0
 11
163.6058133798331
 21
372.4868542670487
 31
0.0
  0
LINE
  5
111
330
47
100
AcDbEntity
  8
0
  6
Continuous
 62
     7
100
AcDbLine
 10
167.7676482226727
 20
370.3130643382627
 30
0.0
 11
166.5852584876528
 21
375.0671294196018
 31
0.0
  0
LINE
  5
112
330
47
100
AcDbEntity
  8
0
  6
Continuous
 62
     7
100
AcDbLine
 10
168.3263601258483
 20
370.3014845076714
 30
0.0
 11
167.7676482226727
 21
370.3130643382627
 31
0.0
  0
LINE
  5
113
330
47
100
AcDbEntity
  8
0
  6
Continuous
 62
     7
100
AcDbLine
 10
168.6016845841733
 20
370.5399224828637
 30
0.0
 11
164.5266845841733
 21
367.0108689624421
 31
0.0
  0
LINE
  5
114
330
47
100
AcDbEntity
  8
0
  6
Continuous
 62
     7
100
AcDbLine
 10
167.7676482226727
 20
370.3130643382627
 30
0.0
 11
163.6926482226727
 21
366.7840108178411
 31
0.0
  0
LINE
  5
115
330
47
100
AcDbEntity
  8
0
  6
Continuous
 62
     7
100
AcDbLine
 10
169.1549915542804
 20
370.2319383629935
 30
0.0
 11
169.1549915542804
 21
363.4337076432782
 31
0.0
  0
LINE
  5
116
330
47
100
AcDbEntity
  8
0
  6
Continuous
 62
     7
100
AcDbLine
 10
169.1549915542804
 20
363.4337076432782
 30
0.0
 11
165.0799915542805
 21
359.9046541228566
 31
0.0
  0
LINE
  5
117
330
47
100
AcDbEntity
  8
0
  6
Continuous
 62
     7
100
AcDbLine
 10
163.6926482226727
 20
366.7840108178411
 30
0.0
 11
164.5877206676714
 21
366.765459598114
 31
0.0
  0
LINE
  5
118
330
47
100
AcDbEntity
  8
0
  6
Continuous
 62
     7
100
AcDbLine
 10
163.6058133798331
 20
372.4868542670487
 30
0.0
 11
163.382413555315
 21
373.3850837369616
 31
0.0
  0
LINE
  5
119
330
47
100
AcDbEntity
  8
0
  6
Continuous
 62
     7
100
AcDbLine
 10
165.0799915542805
 20
359.9046541228566
 30
0.0
 11
165.0799915542805
 21
366.7028848425719
 31
0.0
  0
LINE
  5
11A
330
47
100
AcDbEntity
  8
0
  6
Continuous
 62
     7
100
AcDbLine
 10
163.2310467858038
 20
372.2202734699935
 30
0.0
 11
163.1700107023055
 21
372.4656828343238
 31
0.0
  0
LINE
  5
11B
330
47
100
AcDbEntity
  8
0
  6
Continuous
 62
     7
100
AcDbLine
 10
163.6058133798331
 20
372.4868542670487
 30
0.0
 11
163.2310467858038
 21
372.2202734699935
 31
0.0
  0
LINE
  5
11C
330
47
100
AcDbEntity
  8
0
  6
Continuous
 62
     7
100
AcDbLine
 10
163.1700107023055
 20
372.4656828343238
 30
0.0
 11
162.2749382573058
 21
372.4842340540513
 31
0.0
  0
LINE
  5
11D
330
47
100
AcDbEntity
  8
0
  6
Continuous
 62
     7
100
AcDbLine
 10
162.2749382573058
 20
372.4842340540513
 30
0.0
 11
163.6926482226727
 21
366.7840108178411
 31
0.0
  0
LINE
  5
11E
330
47
100
AcDbEntity
  8
0
  6
Continuous
 62
     7
100
AcDbLine
 10
164.5877206676714
 20
366.765459598114
 30
0.0
 11
164.5266845841733
 21
367.0108689624421
 31
0.0
  0
LINE
  5
11F
330
47
100
AcDbEntity
  8
0
  6
Continuous
 62
     7
100
AcDbLine
 10
165.0799915542805
 20
366.7028848425719
 30
0.0
 11
164.5266845841733
 21
367.0108689624421
 31
0.0
  0
LINE
  5
120
330
47
100
AcDbEntity
  8
0
  6
Continuous
 62
     2
100
AcDbLine
 10
162.9383264296825
 20
375.0288251043484
 30
0.0
 11
162.938326429682
 21
377.5402987753232
 31
0.0
  0
LINE
  5
121
330
47
100
AcDbEntity
  8
0
  6
Continuous
 62
     7
100
AcDbLine
 10
159.5187111874119
 20
375.1788251043483
 30
0.0
 11
160.0383264296824
 21
375.0288251043482
 31
0.0
  0
LINE
  5
122
330
47
100
AcDbEntity
  8
0
  6
Continuous
 62
     7
100
AcDbLine
 10
155.5452828983016
 20
376.7877352658616
 30
0.0
 11
155.6702828983016
 21
376.8959884413347
 31
0.0
  0
LINE
  5
123
330
47
100
AcDbEntity
  8
0
  6
Continuous
 62
     7
100
AcDbLine
 10
157.4889362462489
 20
376.3709884413347
 30
0.0
 11
157.3639362462489
 21
376.2627352658616
 31
0.0
  0
LINE
  5
124
330
47
100
AcDbEntity
  8
0
  6
Continuous
 62
     2
100
AcDbLine
 10
155.5452828983016
 20
376.7877352658616
 30
0.0
 11
155.5452828983016
 21
376.2627352658616
 31
0.0
  0
LINE
  5
125
330
47
100
AcDbEntity
  8
0
  6
Continuous
 62
     2
100
AcDbLine
 10
162.4187111874119
 20
374.9112098179653
 30
0.0
 11
162.4187111874119
 21
377.6902987753232
 31
0.0
  0
LINE
  5
126
330
47
100
AcDbEntity
  8
0
  6
Continuous
 62
     2
100
AcDbLine
 10
155.6702828983016
 20
376.8959884413347
 30
0.0
 11
155.6702828983016
 21
376.176189542319
 31
0.0
  0
LINE
  5
127
330
47
100
AcDbEntity
  8
0
  6
Continuous
 62
     7
100
AcDbLine
 10
151.0959571495667
 20
377.8845061377472
 30
0.0
 11
154.9930714665966
 21
376.7595061377472
 31
0.0
  0
LINE
  5
128
330
47
100
AcDbEntity
  8
0
  6
Continuous
 62
     7
100
AcDbLine
 10
146.693246666281
 20
378.2028312349288
 30
0.0
 11
163.382413555315
 21
373.3850837369616
 31
0.0
  0
LINE
  5
129
330
47
100
AcDbEntity
  8
0
  6
Continuous
 62
     7
100
AcDbLine
 10
169.1549915542804
 20
370.2319383629935
 30
0.0
 11
165.0799915542805
 21
366.7028848425719
 31
0.0
  0
LINE
  5
12A
330
47
100
AcDbEntity
  8
0
  6
Continuous
 62
     7
100
AcDbLine
 10
106.4500717180735
 20
358.4699155626273
 30
0.0
 11
135.1155125833388
 21
350.1949155626272
 31
0.0
  0
ARC
  5
12B
330
47
100
AcDbEntity
  8
0
  6
Continuous
 62
     7
100
AcDbCircle
 10
111.0423466592374
 20
390.847061939836
 30
0.0
 40
1.450000000000003
100
AcDbArc
 50
0.0
 51
180.0
  0
SPLINE
  5
12C
330
47
100
AcDbEntity
  8
0
  6
Continuous
 62
     7
100
AcDbSpline
210
0.0
220
0.0
230
1.0
 70
     8
 71
     3
 72
    11
 73
     7
 74
     5
 42
0.000000001
 43
0.0000000001
 44
0.00000001
 40
0.0
 40
0.0
 40
0.0
 40
0.0
 40
1.094313437822046
 40
2.169457302757537
 40
3.220281523627583
 40
4.242658325227549
 40
4.242658325227549
 40
4.242658325227549
 40
4.242658325227549
 10
135.4263669054786
 20
344.9090272266374
 30
0.0
 10
135.2486220922686
 20
345.2279056761556
 30
0.0
 10
134.8962461136468
 20
345.8600766471444
 30
0.0
 10
134.4875334786217
 20
346.854733022018
 30
0.0
 10
134.169370843632
 20
347.8573396252715
 30
0.0
 10
134.0490262125213
 20
348.5385404357535
 30
0.0
 10
133.9896795584187
 20
348.8744672954363
 30
0.0
 11
135.4263669054786
 21
344.9090272266374
 31
0.0
 11
134.9127323463975
 21
345.875309504535
 31
0.0
 11
134.4985081403001
 21
346.8674549774582
 31
0.0
 11
134.1894037379413
 21
347.8717885942619
 31
0.0
 11
133.9896795584187
 21
348.8744672954363
 31
0.0
  0
SPLINE
  5
12D
330
47
100
AcDbEntity
  8
0
  6
Continuous
 62
     7
100
AcDbSpline
210
0.0
220
0.0
230
1.0
 70
     8
 71
     3
 72
    11
 73
     7
 74
     5
 42
0.000000001
 43
0.0000000001
 44
0.00000001
 40
0.0
 40
0.0
 40
0.0
 40
0.0
 40
0.8440176141068885
 40
1.703424486572973
 40
2.585246614931127
 40
3.494813282880842
 40
3.494813282880842
 40
3.494813282880842
 40
3.494813282880842
 10
104.7535767498788
 20
353.763499053204
 30
0.0
 10
104.9322878148138
 20
353.9815698495683
 30
0.0
 10
105.2929684319714
 20
354.4216876098072
 30
0.0
 10
105.7012805277494
 20
355.1856043914472
 30
0.0
 10
106.0180512541802
 20
356.0141756502139
 30
0.0
 10
106.1322701571929
 20
356.601338805103
 30
0.0
 10
106.1902640969382
 20
356.8994672954345
 30
0.0
 11
104.7535767498788
 21
353.763499053204
 31
0.0
 11
105.2672113089596
 21
354.4332342801505
 31
0.0
 11
105.6814355150568
 21
355.1862272961781
 31
0.0
 11
105.9905399174155
 21
356.0120994030719
 31
0.0
 11
106.1902640969382
 21
356.8994672954345
 31
0.0
  0
SPLINE
  5
12E
330
47
100
AcDbEntity
  8
0
  6
Continuous
 62
     7
100
AcDbSpline
210
0.0
220
0.0
230
1.0
 70
     8
 71
     3
 72
    11
 73
     7
 74
     5
 42
0.000000001
 43
0.0000000001
 44
0.00000001
 40
0.0
 40
0.0
 40
0.0
 40
0.0
 40
0.120652029116351
 40
0.2441615189901019
 40
0.3728551532218438
 40
0.5081863407456249
 40
0.5081863407456249
 40
0.5081863407456249
 40
0.5081863407456249
 10
90.35902868669532
 20
361.1137779430687
 30
0.0
 10
90.33038344789563
 20
361.0852611552168
 30
0.0
 10
90.27241456224264
 20
361.0275521927041
 30
0.0
 10
90.2134567715143
 20
360.9164083454174
 30
0.0
 10
90.17539160167578
 20
360.791874074998
 30
0.0
 10
90.17102983165762
 20
360.7036585294909
 30
0.0
 10
90.16879412692651
 20
360.6584418916522
 30
0.0
 11
90.35902868669532
 21
361.1137779430687
 31
0.0
 11
90.27782054454212
 21
361.0245470618793
 31
0.0
 11
90.21789965016242
 21
360.9165466864632
 31
0.0
 11
90.18116876185817
 21
360.7932061260201
 31
0.0
 11
90.16879412692651
 21
360.6584418916522
 31
0.0
  0
SPLINE
  5
12F
330
47
100
AcDbEntity
  8
0
  6
Continuous
 62
     7
100
AcDbSpline
210
0.0
220
0.0
230
1.0
 70
     8
 71
     3
 72
     9
 73
     5
 74
     3
 42
0.000000001
 43
0.0000000001
 44
0.00000001
 40
0.0
 40
0.0
 40
0.0
 40
0.0
 40
0.1359563309102522
 40
0.2769419554983557
 40
0.2769419554983557
 40
0.2769419554983557
 40
0.2769419554983557
 10
106.6038631970865
 20
363.9020244962845
 30
0.0
 10
106.5717158717849
 20
363.8692752647922
 30
0.0
 10
106.5062320438017
 20
363.8025653312425
 30
0.0
 10
106.4745180456307
 20
363.7145754811715
 30
0.0
 10
106.4583730906621
 20
363.6697815991619
 30
0.0
 11
106.6038631970865
 21
363.9020244962845
 31
0.0
 11
106.51555983816
 21
363.7986482847619
 31
0.0
 11
106.4583730906621
 21
363.6697815991619
 31
0.0
  0
SPLINE
  5
130
330
47
100
AcDbEntity
  8
0
  6
Continuous
 62
     7
100
AcDbSpline
210
0.0
220
0.0
230
1.0
 70
     8
 71
     3
 72
    13
 73
     9
 74
     7
 42
0.000000001
 43
0.0000000001
 44
0.00000001
 40
0.0
 40
0.0
 40
0.0
 40
0.0
 40
0.1554904882689732
 40
0.323275065332804
 40
0.5017213082147496
 40
0.6867166514959474
 40
0.8728065658524726
 40
1.054323677606582
 40
1.054323677606582
 40
1.054323677606582
 40
1.054323677606582
 10
107.7736078004943
 20
363.0273475111365
 30
0.0
 10
107.7834061399769
 20
363.0785869056426
 30
0.0
 10
107.8037775247771
 20
363.1851170161759
 30
0.0
 10
107.7767134539143
 20
363.3531029055925
 30
0.0
 10
107.7130683319448
 20
363.5193433654802
 30
0.0
 10
107.6119105474802
 20
363.6734065421198
 30
0.0
 10
107.4833815626712
 20
363.8079660208469
 30
0.0
 10
107.3783461537325
 20
363.8719353040682
 30
0.0
 10
107.326481732773
 20
363.9035220706264
 30
0.0
 11
107.7736078004943
 21
363.0273475111365
 31
0.0
 11
107.7942556831025
 21
363.1814609682366
 31
0.0
 11
107.7719331225939
 21
363.3477539895301
 31
0.0
 11
107.7082217514123
 21
363.5144390933924
 31
0.0
 11
107.607638352623
 21
363.669700993066
 31
0.0
 11
107.4773121777846
 21
363.8025337622482
 31
0.0
 11
107.326481732773
 21
363.9035220706264
 31
0.0
  0
SPLINE
  5
131
330
47
100
AcDbEntity
  8
0
  6
Continuous
 62
     7
100
AcDbSpline
210
0.0
220
0.0
230
1.0
 70
     8
 71
     3
 72
    11
 73
     7
 74
     5
 42
0.000000001
 43
0.0000000001
 44
0.00000001
 40
0.0
 40
0.0
 40
0.0
 40
0.0
 40
0.2139776288176886
 40
0.4124032389310973
 40
0.5953107056532658
 40
0.7683178011220602
 40
0.7683178011220602
 40
0.7683178011220602
 40
0.7683178011220602
 10
107.326481732773
 20
363.9035220706264
 30
0.0
 10
107.262425050533
 20
363.9359111967393
 30
0.0
 10
107.1389673575884
 20
363.9983353750899
 30
0.0
 10
106.9399810364968
 20
364.0272268420782
 30
0.0
 10
106.7512856369091
 20
364.0026438001017
 30
0.0
 10
106.6520841888502
 20
363.9349364700214
 30
0.0
 10
106.6038631970865
 20
363.9020244962845
 30
0.0
 11
107.326481732773
 21
363.9035220706264
 31
0.0
 11
107.1304375609347
 21
363.9892723374473
 31
0.0
 11
106.9341600291758
 21
364.0183902765324
 31
0.0
 11
106.7537127734583
 21
363.9884916027335
 31
0.0
 11
106.6038631970865
 21
363.9020244962845
 31
0.0
  0
SPLINE
  5
132
330
47
100
AcDbEntity
  8
0
  6
Continuous
 62
     7
100
AcDbSpline
210
0.0
220
0.0
230
1.0
 70
     8
 71
     3
 72
     9
 73
     5
 74
     3
 42
0.000000001
 43
0.0000000001
 44
0.00000001
 40
0.0
 40
0.0
 40
0.0
 40
0.0
 40
0.2559395012082908
 40
0.5127834764249316
 40
0.5127834764249316
 40
0.5127834764249316
 40
0.5127834764249316
 10
108.8285767498788
 20
357.2925525736256
 30
0.0
 10
108.8848324214638
 20
357.3567293504548
 30
0.0
 10
108.9975425532812
 20
357.4853097136042
 30
0.0
 10
109.1009080962006
 20
357.6215159310494
 30
0.0
 10
109.1526820205736
 20
357.6897391697958
 30
0.0
 11
108.8285767498788
 21
357.2925525736256
 31
0.0
 11
108.9950158438127
 21
357.4869826546563
 31
0.0
 11
109.1526820205736
 21
357.6897391697958
 31
0.0
  0
SPLINE
  5
133
330
47
100
AcDbEntity
  8
0
  6
Continuous
 62
     7
100
AcDbSpline
210
0.0
220
0.0
230
1.0
 70
     8
 71
     3
 72
     9
 73
     5
 74
     3
 42
0.000000001
 43
0.0000000001
 44
0.00000001
 40
0.0
 40
0.0
 40
0.0
 40
0.0
 40
0.0431231433506603
 40
0.0861115098986784
 40
0.0861115098986784
 40
0.0861115098986784
 40
0.0861115098986784
 10
91.46783223260252
 20
359.7024943897208
 30
0.0
 10
91.47998208480607
 20
359.7102058577199
 30
0.0
 10
91.50424380473619
 20
359.7256047087357
 30
0.0
 10
91.52636300815149
 20
359.7439483612574
 30
0.0
 10
91.53740529396941
 20
359.7531058402357
 30
0.0
 11
91.46783223260252
 21
359.7024943897208
 31
0.0
 11
91.50374447656083
 21
359.7263673087463
 31
0.0
 11
91.53740529396941
 21
359.7531058402357
 31
0.0
  0
SPLINE
  5
134
330
47
100
AcDbEntity
  8
0
  6
Continuous
 62
     7
100
AcDbSpline
210
0.0
220
0.0
230
1.0
 70
     8
 71
     3
 72
    17
 73
    13
 74
    11
 42
0.000000001
 43
0.0000000001
 44
0.00000001
 40
0.0
 40
0.0
 40
0.0
 40
0.0
 40
0.2131868451802167
 40
0.4406714182615826
 40
0.6895572016061011
 40
0.9581437233565386
 40
1.238214278488555
 40
1.518284833620595
 40
1.786871355371038
 40
2.035757138715615
 40
2.263241711796993
 40
2.476428556977114
 40
2.476428556977114
 40
2.476428556977114
 40
2.476428556977114
 10
91.53740529396941
 20
359.7531058402357
 30
0.0
 10
91.58546640283066
 20
359.8067927233703
 30
0.0
 10
91.68481190714779
 20
359.9177670972308
 30
0.0
 10
91.73767517986536
 20
360.15018586695
 30
0.0
 10
91.7177366523531
 20
360.3999273020216
 30
0.0
 10
91.62357697816856
 20
360.6521415751465
 30
0.0
 10
91.46668882415074
 20
360.8824516708855
 30
0.0
 10
91.26115353911547
 20
361.0706321153426
 30
0.0
 10
91.02497752945807
 20
361.1998566341954
 30
0.0
 10
90.78064597378892
 20
361.2552680064512
 30
0.0
 10
90.5430591532372
 20
361.2361496168675
 30
0.0
 10
90.41903079326917
 20
361.1536765497157
 30
0.0
 10
90.35902868669532
 20
361.1137779430687
 30
0.0
 11
91.53740529396941
 21
359.7531058402357
 31
0.0
 11
91.66624434531327
 21
359.922956162274
 31
0.0
 11
91.72479896408082
 21
360.1427756109462
 31
0.0
 11
91.70733515207124
 21
360.3910479406869
 31
0.0
 11
91.61556471527076
 21
360.6434700215027
 31
0.0
 11
91.4584686225223
 21
360.8753327674511
 31
0.0
 11
91.25142631784922
 21
361.0639408250501
 31
0.0
 11
91.01470331229199
 21
361.1908302989787
 31
0.0
 11
90.77147226302216
 21
361.2435824659099
 31
0.0
 11
90.54554248685999
 21
361.2170312015926
 31
0.0
 11
90.35902868669532
 21
361.1137779430687
 31
0.0
  0
SPLINE
  5
135
330
47
100
AcDbEntity
  8
0
  6
Continuous
 62
     7
100
AcDbSpline
210
0.0
220
0.0
230
1.0
 70
     8
 71
     3
 72
     9
 73
     5
 74
     3
 42
0.000000001
 43
0.0000000001
 44
0.00000001
 40
0.0
 40
0.0
 40
0.0
 40
0.0
 40
0.2270633057839185
 40
0.4211027915550438
 40
0.4211027915550438
 40
0.4211027915550438
 40
0.4211027915550438
 10
112.2980834947248
 20
390.484561939836
 30
0.0
 10
112.3541905966644
 20
390.5388281781972
 30
0.0
 10
112.4582446334155
 20
390.6394682474044
 30
0.0
 10
112.4815895770678
 20
390.7815789189213
 30
0.0
 10
112.4923466592374
 20
390.847061939836
 30
0.0
 11
112.2980834947248
 21
390.484561939836
 31
0.0
 11
112.4429387339505
 21
390.6594181821636
 31
0.0
 11
112.4923466592374
 21
390.847061939836
 31
0.0
  0
SPLINE
  5
136
330
47
100
AcDbEntity
  8
0
  6
Continuous
 62
     7
100
AcDbSpline
210
0.0
220
0.0
230
1.0
 70
     8
 71
     3
 72
    17
 73
    13
 74
    11
 42
0.000000001
 43
0.0000000001
 44
0.00000001
 40
0.0
 40
0.0
 40
0.0
 40
0.0
 40
0.1940394789806256
 40
0.4211027868213448
 40
0.6961386786545076
 40
1.017786914120089
 40
1.37492075797495
 40
1.751020485806353
 40
2.127120213414718
 40
2.484254056360515
 40
2.805902292433267
 40
3.080938189940033
 40
3.080938189940033
 40
3.080938189940033
 40
3.080938189940033
 10
109.5923466592374
 20
390.847061939836
 30
0.0
 10
109.6033953385073
 20
390.7820915864489
 30
0.0
 10
109.6273730969576
 20
390.6410934966347
 30
0.0
 10
109.7936233756078
 20
390.4645868403492
 30
0.0
 10
110.0259923620701
 20
390.3183905489187
 30
0.0
 10
110.3266408420752
 20
390.2073919250583
 30
0.0
 10
110.6722332926418
 20
390.1377306725154
 30
0.0
 10
111.0422927615458
 20
390.114107327813
 30
0.0
 10
111.4126701297723
 20
390.1374093569926
 30
0.0
 10
111.7573861820766
 20
390.2085520987815
 30
0.0
 10
112.0607739981744
 20
390.3147480872575
 30
0.0
 10
112.2232101107975
 20
390.4309840631415
 30
0.0
 10
112.2980834947248
 20
390.484561939836
 30
0.0
 11
109.5923466592374
 21
390.847061939836
 31
0.0
 11
109.6417545845243
 21
390.6594181821637
 31
0.0
 11
109.78660982375
 21
390.484561939836
 31
0.0
 11
110.0170420998691
 21
390.3344096601518
 31
0.0
 11
110.3173466592374
 21
390.2191935220923
 31
0.0
 11
110.6670591438926
 21
390.1467659024794
 31
0.0
 11
111.0423466592374
 21
390.122061939836
 31
0.0
 11
111.4176341745822
 21
390.1467659024794
 31
0.0
 11
111.7673466592374
 21
390.2191935220923
 31
0.0
 11
112.0676512186057
 21
390.3344096601519
 31
0.0
 11
112.2980834947248
 21
390.484561939836
 31
0.0
  0
SPLINE
  5
137
330
47
100
AcDbEntity
  8
0
  6
Continuous
 62
     7
100
AcDbSpline
210
0.0
220
0.0
230
1.0
 70
     8
 71
     3
 72
    17
 73
    13
 74
    11
 42
0.000000001
 43
0.0000000001
 44
0.00000001
 40
0.0
 40
0.0
 40
0.0
 40
0.0
 40
0.199163927759519
 40
0.4320816163454734
 40
0.6906957783900639
 40
0.9630438570628737
 40
1.235391935958709
 40
1.494006098912405
 40
1.726923786891235
 40
1.92608770897706
 40
2.090512862903619
 40
2.231024207284039
 40
2.231024207284039
 40
2.231024207284039
 40
2.231024207284039
 10
101.6785027829049
 20
392.3377352658629
 30
0.0
 10
101.6242841250396
 20
392.2989374926986
 30
0.0
 10
101.5066579720616
 20
392.2147666161413
 30
0.0
 10
101.2869633477983
 20
392.1378660683899
 30
0.0
 10
101.0373413782555
 20
392.0863489113958
 30
0.0
 10
100.7691370772149
 20
392.0694750280419
 30
0.0
 10
100.5011629789627
 20
392.0865815883119
 30
0.0
 10
100.2509063764904
 20
392.1370259436709
 30
0.0
 10
100.0331954087441
 20
392.2174042583521
 30
0.0
 10
99.8649282095889
 20
392.3232705373198
 30
0.0
 10
99.74454008381286
 20
392.4510857066097
 30
0.0
 10
99.72717687653785
 20
392.553187769409
 30
0.0
 10
99.71917610893121
 20
392.6002352658629
 30
0.0
 11
101.6785027829049
 21
392.3377352658629
 31
0.0
 11
101.5116380312324
 21
392.2290043047123
 31
0.0
 11
101.2941761089313
 21
392.1455719288761
 31
0.0
 11
101.0409360338361
 21
392.0931243422598
 31
0.0
 11
100.7691761089312
 21
392.0752352658629
 31
0.0
 11
100.4974161840264
 21
392.0931243422598
 31
0.0
 11
100.2441761089312
 21
392.1455719288761
 31
0.0
 11
100.02671418663
 21
392.2290043047123
 31
0.0
 11
99.85984943495755
 21
392.3377352658629
 31
0.0
 11
99.7549542617252
 21
392.4643553034105
 31
0.0
 11
99.71917610893121
 21
392.6002352658629
 31
0.0
  0
SPLINE
  5
138
330
47
100
AcDbEntity
  8
0
  6
Continuous
 62
     7
100
AcDbSpline
210
0.0
220
0.0
230
1.0
 70
     8
 71
     3
 72
    17
 73
    13
 74
    11
 42
0.000000001
 43
0.0000000001
 44
0.00000001
 40
0.0
 40
0.0
 40
0.0
 40
0.0
 40
0.199163927759476
 40
0.4320816163454375
 40
0.690695778390028
 40
0.9630438570628415
 40
1.235391935958694
 40
1.494006098912391
 40
1.726923786891228
 40
1.926087708977034
 40
2.090512862903593
 40
2.231024207284042
 40
2.231024207284042
 40
2.231024207284042
 40
2.231024207284042
 10
99.98484943495762
 20
392.970988441336
 30
0.0
 10
100.039068092823
 20
393.0097862145003
 30
0.0
 10
100.1566942458009
 20
393.0939570910575
 30
0.0
 10
100.3763888700642
 20
393.1708576388091
 30
0.0
 10
100.626010839607
 20
393.2223747958029
 30
0.0
 10
100.8942151406477
 20
393.2392486791571
 30
0.0
 10
101.1621892388998
 20
393.2221421188869
 30
0.0
 10
101.4124458413722
 20
393.171697763528
 30
0.0
 10
101.6301568091184
 20
393.0913194488468
 30
0.0
 10
101.7984240082736
 20
392.985453169879
 30
0.0
 10
101.9188121340497
 20
392.8576380005891
 30
0.0
 10
101.9361753413246
 20
392.7555359377899
 30
0.0
 10
101.9441761089312
 20
392.7084884413359
 30
0.0
 11
99.98484943495762
 21
392.970988441336
 31
0.0
 11
100.1517141866301
 21
393.0797194024865
 31
0.0
 11
100.3691761089312
 21
393.1631517783228
 31
0.0
 11
100.6224161840264
 21
393.215599364939
 31
0.0
 11
100.8941761089312
 21
393.233488441336
 31
0.0
 11
101.1659360338361
 21
393.215599364939
 31
0.0
 11
101.4191761089313
 21
393.1631517783228
 31
0.0
 11
101.6366380312325
 21
393.0797194024865
 31
0.0
 11
101.803502782905
 21
392.970988441336
 31
0.0
 11
101.9083979561373
 21
392.8443684037883
 31
0.0
 11
101.9441761089312
 21
392.7084884413359
 31
0.0
  0
SPLINE
  5
139
330
47
100
AcDbEntity
  8
0
  6
Continuous
 62
     7
100
AcDbSpline
210
0.0
220
0.0
230
1.0
 70
     8
 71
     3
 72
    15
 73
    11
 74
     9
 42
0.000000001
 43
0.0000000001
 44
0.00000001
 40
0.0
 40
0.0
 40
0.0
 40
0.0
 40
0.3880789676473518
 40
0.8422055805054556
 40
1.392277362407681
 40
2.035573832167155
 40
2.749841518847115
 40
3.502040973542272
 40
4.254240428513931
 40
4.968508124450532
 40
4.968508124450532
 40
4.968508124450532
 40
4.968508124450532
 10
101.2550744937947
 20
394.509561939836
 30
0.0
 10
101.2329770947595
 20
394.3796210283815
 30
0.0
 10
101.1850215003257
 20
394.0976244043704
 30
0.0
 10
100.8525217073165
 20
393.7446150917987
 30
0.0
 10
100.3877797954371
 20
393.452202594371
 30
0.0
 10
99.78650129696875
 20
393.2302984609952
 30
0.0
 10
99.0952365213918
 20
393.0905731415834
 30
0.0
 10
98.35543702852775
 20
393.0449374124377
 30
0.0
 10
97.61349894569146
 20
393.0855738738851
 30
0.0
 10
97.13710852625572
 20
393.198716881054
 30
0.0
 10
96.90507449379473
 20
393.2538251043488
 30
0.0
 11
101.2550744937947
 21
394.509561939836
 31
0.0
 11
101.1562586432209
 21
394.1342744244911
 31
0.0
 11
100.8665481647695
 21
393.784561939836
 31
0.0
 11
100.4056836125312
 21
393.4842573804677
 31
0.0
 11
99.80507449379465
 21
393.2538251043487
 31
0.0
 11
99.10564952448429
 21
393.108969865123
 31
0.0
 11
98.35507449379467
 21
393.059561939836
 31
0.0
 11
97.60449946310509
 21
393.108969865123
 31
0.0
 11
96.90507449379473
 21
393.2538251043488
 31
0.0
  0
SPLINE
  5
13A
330
47
100
AcDbEntity
  8
0
  6
Continuous
 62
     7
100
AcDbSpline
210
0.0
220
0.0
230
1.0
 70
     8
 71
     3
 72
     9
 73
     5
 74
     3
 42
0.000000001
 43
0.0000000001
 44
0.00000001
 40
0.0
 40
0.0
 40
0.0
 40
0.0
 40
0.1405113511707885
 40
0.3049365030405903
 40
0.3049365030405903
 40
0.3049365030405903
 40
0.3049365030405903
 10
101.9441761089312
 20
392.7084884413359
 30
0.0
 10
101.9363864977379
 20
392.6610697022535
 30
0.0
 10
101.9194815335872
 20
392.5581619768283
 30
0.0
 10
101.8441320634729
 20
392.4852846827658
 30
0.0
 10
101.8035027829049
 20
392.4459884413359
 30
0.0
 11
101.9441761089312
 21
392.7084884413359
 31
0.0
 11
101.9083979561373
 21
392.5726084788835
 31
0.0
 11
101.8035027829049
 21
392.4459884413359
 31
0.0
  0
SPLINE
  5
13B
330
47
100
AcDbEntity
  8
0
  6
Continuous
 62
     7
100
AcDbSpline
210
0.0
220
0.0
230
1.0
 70
     8
 71
     3
 72
    11
 73
     7
 74
     5
 42
0.000000001
 43
0.0000000001
 44
0.00000001
 40
0.0
 40
0.0
 40
0.0
 40
0.0
 40
0.6432964749390255
 40
1.193368252334745
 40
1.647494861258957
 40
2.035573833287872
 40
2.035573833287872
 40
2.035573833287872
 40
2.035573833287872
 10
99.8050744937947
 20
395.7652987753237
 30
0.0
 10
100.0094699455767
 20
395.6970290502946
 30
0.0
 10
100.3886404365347
 20
395.5703830446955
 30
0.0
 10
100.8523479791573
 20
395.2738100553121
 30
0.0
 10
101.1850546739466
 20
394.9216329198781
 30
0.0
 10
101.2329875594224
 20
394.6395449454206
 30
0.0
 10
101.2550744937947
 20
394.509561939836
 30
0.0
 11
99.8050744937947
 21
395.7652987753237
 31
0.0
 11
100.4056836125313
 21
395.5348664992043
 31
0.0
 11
100.8665481647695
 21
395.234561939836
 31
0.0
 11
101.1562586432209
 21
394.8848494551809
 31
0.0
 11
101.2550744937947
 21
394.509561939836
 31
0.0
  0
SPLINE
  5
13C
330
47
100
AcDbEntity
  8
0
  6
Continuous
 62
     7
100
AcDbSpline
210
0.0
220
0.0
230
1.0
 70
     8
 71
     3
 72
    11
 73
     7
 74
     5
 42
0.000000001
 43
0.0000000001
 44
0.00000001
 40
0.0
 40
0.0
 40
0.0
 40
0.0
 40
0.6432964749388892
 40
1.193368252334621
 40
1.647494861258805
 40
2.035573833287665
 40
2.035573833287665
 40
2.035573833287665
 40
2.035573833287665
 10
96.38545925152411
 20
393.4038251043488
 30
0.0
 10
96.1810637997421
 20
393.4720948293776
 30
0.0
 10
95.80189330878403
 20
393.5987408349768
 30
0.0
 10
95.33818576616144
 20
393.8953138243599
 30
0.0
 10
95.0054790713722
 20
394.2474909597937
 30
0.0
 10
94.95754618589648
 20
394.5295789342514
 30
0.0
 10
94.93545925152412
 20
394.659561939836
 30
0.0
 11
96.38545925152411
 21
393.4038251043488
 31
0.0
 11
95.78485013278748
 21
393.6342573804677
 31
0.0
 11
95.32398558054928
 21
393.934561939836
 31
0.0
 11
95.03427510209791
 21
394.2842744244912
 31
0.0
 11
94.93545925152412
 21
394.659561939836
 31
0.0
  0
SPLINE
  5
13D
330
47
100
AcDbEntity
  8
0
  6
Continuous
 62
     7
100
AcDbSpline
210
0.0
220
0.0
230
1.0
 70
     8
 71
     3
 72
    15
 73
    11
 74
     9
 42
0.000000001
 43
0.0000000001
 44
0.00000001
 40
0.0
 40
0.0
 40
0.0
 40
0.0
 40
0.3880789676472896
 40
0.842205580505428
 40
1.392277362407648
 40
2.03557383216717
 40
2.749841518847143
 40
3.502040973542308
 40
4.254240428514002
 40
4.968508124450559
 40
4.968508124450559
 40
4.968508124450559
 40
4.968508124450559
 10
94.93545925152412
 20
394.659561939836
 30
0.0
 10
94.95755665055933
 20
394.7895028512905
 30
0.0
 10
95.0055122449931
 20
395.0714994753017
 30
0.0
 10
95.33801203800223
 20
395.4245087878732
 30
0.0
 10
95.80275394988166
 20
395.7169212853012
 30
0.0
 10
96.40403244835002
 20
395.938825418677
 30
0.0
 10
97.09529722392699
 20
396.0785507380888
 30
0.0
 10
97.83509671679103
 20
396.1241864672342
 30
0.0
 10
98.57703479962736
 20
396.0835500057872
 30
0.0
 10
99.05342521906312
 20
395.9704069986183
 30
0.0
 10
99.28545925152412
 20
395.9152987753236
 30
0.0
 11
94.93545925152412
 21
394.659561939836
 31
0.0
 11
95.0342751020979
 21
395.0348494551808
 31
0.0
 11
95.32398558054928
 21
395.384561939836
 31
0.0
 11
95.78485013278748
 21
395.6848664992043
 31
0.0
 11
96.38545925152411
 21
395.9152987753234
 31
0.0
 11
97.08488422083448
 21
396.0601540145491
 31
0.0
 11
97.83545925152411
 21
396.109561939836
 31
0.0
 11
98.58603428221375
 21
396.0601540145491
 31
0.0
 11
99.28545925152412
 21
395.9152987753236
 31
0.0
  0
SPLINE
  5
13E
330
47
100
AcDbEntity
  8
0
  6
Continuous
 62
     7
100
AcDbSpline
210
0.0
220
0.0
230
1.0
 70
     8
 71
     3
 72
     9
 73
     5
 74
     3
 42
0.000000001
 43
0.0000000001
 44
0.00000001
 40
0.0
 40
0.0
 40
0.0
 40
0.0
 40
0.1405113511708579
 40
0.3049365030406522
 40
0.3049365030406522
 40
0.3049365030406522
 40
0.3049365030406522
 10
99.71917610893121
 20
392.6002352658629
 30
0.0
 10
99.72696572012453
 20
392.6476540049454
 30
0.0
 10
99.74387068427524
 20
392.7505617303706
 30
0.0
 10
99.81922015438964
 20
392.823439024433
 30
0.0
 10
99.85984943495762
 20
392.8627352658629
 30
0.0
 11
99.71917610893121
 21
392.6002352658629
 31
0.0
 11
99.75495426172517
 21
392.7361152283153
 31
0.0
 11
99.85984943495762
 21
392.8627352658629
 31
0.0
  0
SPLINE
  5
13F
330
47
100
AcDbEntity
  8
0
  6
Continuous
 62
     7
100
AcDbSpline
210
0.0
220
0.0
230
1.0
 70
     8
 71
     3
 72
    13
 73
     9
 74
     7
 42
0.000000001
 43
0.0000000001
 44
0.00000001
 40
0.0
 40
0.0
 40
0.0
 40
0.0
 40
1.75035178443566
 40
3.568197722466961
 40
5.465453371734988
 40
7.446017246105105
 40
9.506381378759066
 40
11.63673440881143
 40
11.63673440881143
 40
11.63673440881143
 40
11.63673440881143
 10
90.168794126926
 20
370.2713238736586
 30
0.0
 10
90.42505883202413
 20
370.7972789015731
 30
0.0
 10
90.94746988204817
 20
371.869469966094
 30
0.0
 10
91.357133146868
 20
373.6591286695887
 30
0.0
 10
91.50184003720167
 20
375.5578493250189
 30
0.0
 10
91.34616845534536
 20
377.5376594753358
 30
0.0
 10
90.92276287360356
 20
379.559156216023
 30
0.0
 10
90.42289977423789
 20
380.8655488292338
 30
0.0
 10
90.168794126926
 20
381.5296541228587
 30
0.0
 11
90.168794126926
 21
370.2713238736586
 31
0.0
 11
90.87623758273793
 21
371.8723407795412
 31
0.0
 11
91.30710782260986
 21
373.6383857109822
 31
0.0
 11
91.45180559020496
 21
375.53011549141
 31
0.0
 11
91.30710782260986
 21
377.5053865669099
 31
0.0
 11
90.87623758273793
 21
379.5201945473266
 31
0.0
 11
90.168794126926
 21
381.5296541228587
 31
0.0
  0
SPLINE
  5
140
330
47
100
AcDbEntity
  8
0
  6
Continuous
 62
     7
100
AcDbSpline
210
0.0
220
0.0
230
1.0
 70
     8
 71
     3
 72
     9
 73
     5
 74
     3
 42
0.000000001
 43
0.0000000001
 44
0.00000001
 40
0.0
 40
0.0
 40
0.0
 40
0.0
 40
0.1973301553994279
 40
0.3885074689952354
 40
0.3885074689952354
 40
0.3885074689952354
 40
0.3885074689952354
 10
137.3097273267425
 20
344.3653479035385
 30
0.0
 10
137.3734715509442
 20
344.3486249048112
 30
0.0
 10
137.4989724301322
 20
344.3157003574285
 30
0.0
 10
137.6281505247031
 20
344.3036527791241
 30
0.0
 10
137.6917166685278
 20
344.2977243991949
 30
0.0
 11
137.3097273267425
 21
344.3653479035385
 31
0.0
 11
137.5019086543379
 21
344.3205647842973
 31
0.0
 11
137.6917166685278
 21
344.2977243991949
 31
0.0
  0
SPLINE
  5
141
330
47
100
AcDbEntity
  8
0
  6
Continuous
 62
     7
100
AcDbSpline
210
0.0
220
0.0
230
1.0
 70
     8
 71
     3
 72
    13
 73
     9
 74
     7
 42
0.000000001
 43
0.0000000001
 44
0.00000001
 40
0.0
 40
0.0
 40
0.0
 40
0.0
 40
2.154056032928993
 40
4.399756438330225
 40
6.766606053035448
 40
9.264344638332968
 40
11.88442710656329
 40
14.6034968971676
 40
14.6034968971676
 40
14.6034968971676
 40
14.6034968971676
 10
165.0799915542805
 20
359.9046541228566
 30
0.0
 10
164.6823161886325
 20
359.3027525324214
 30
0.0
 10
163.8700463605803
 20
358.0733414246781
 30
0.0
 10
163.2247410734092
 20
355.8812523007567
 30
0.0
 10
162.999631351169
 20
353.5106965950255
 30
0.0
 10
163.2466591021403
 20
351.0151385133717
 30
0.0
 10
163.9124355056455
 20
348.4731055979322
 30
0.0
 10
164.6860254415612
 20
346.8664626361796
 30
0.0
 10
165.0799915542807
 20
346.0482476623075
 30
0.0
 11
165.0799915542805
 21
359.9046541228566
 31
0.0
 11
163.9810888639138
 21
358.0519883997063
 31
0.0
 11
163.3059485826226
 21
355.9101770339842
 31
0.0
 11
163.0782414527981
 21
353.5543063725526
 31
0.0
 11
163.3059485826226
 21
351.0669689384205
 31
0.0
 11
163.9810888639139
 21
348.5353651495542
 31
0.0
 11
165.0799915542807
 21
346.0482476623075
 31
0.0
  0
SPLINE
  5
142
330
47
100
AcDbEntity
  8
0
  6
Continuous
 62
     7
100
AcDbSpline
210
0.0
220
0.0
230
1.0
 70
     8
 71
     3
 72
    13
 73
     9
 74
     7
 42
0.000000001
 43
0.0000000001
 44
0.00000001
 40
0.0
 40
0.0
 40
0.0
 40
0.0
 40
2.154056032928964
 40
4.399756438330188
 40
6.766606053035355
 40
9.26434463833293
 40
11.88442710656325
 40
14.60349689716757
 40
14.60349689716757
 40
14.60349689716757
 40
14.60349689716757
 10
169.1549915542804
 20
363.4337076432782
 30
0.0
 10
168.7573161886324
 20
362.831806052843
 30
0.0
 10
167.9450463605802
 20
361.6023949450995
 30
0.0
 10
167.2997410734093
 20
359.4103058211784
 30
0.0
 10
167.0746313511689
 20
357.0397501154471
 30
0.0
 10
167.3216591021403
 20
354.5441920337933
 30
0.0
 10
167.9874355056455
 20
352.0021591183539
 30
0.0
 10
168.7610254415611
 20
350.3955161566009
 30
0.0
 10
169.1549915542807
 20
349.5773011827291
 30
0.0
 11
169.1549915542804
 21
363.4337076432782
 31
0.0
 11
168.0560888639138
 21
361.5810419201279
 31
0.0
 11
167.3809485826226
 21
359.4392305544058
 31
0.0
 11
167.1532414527981
 21
357.0833598929742
 31
0.0
 11
167.3809485826226
 21
354.5960224588421
 31
0.0
 11
168.0560888639139
 21
352.0644186699758
 31
0.0
 11
169.1549915542807
 21
349.5773011827291
 31
0.0
  0
SPLINE
  5
143
330
47
100
AcDbEntity
  8
0
  6
Continuous
 62
     7
100
AcDbSpline
210
0.0
220
0.0
230
1.0
 70
     8
 71
     3
 72
    11
 73
     7
 74
     5
 42
0.000000001
 43
0.0000000001
 44
0.00000001
 40
0.0
 40
0.0
 40
0.0
 40
0.0
 40
0.3880789720289154
 40
0.842205580953225
 40
1.392277358349075
 40
2.035573833288125
 40
2.035573833288125
 40
2.035573833288125
 40
2.035573833288125
 10
164.3883264296824
 20
376.2845619398358
 30
0.0
 10
164.36623949531
 20
376.4145449454203
 30
0.0
 10
164.3183066098343
 20
376.6966329198781
 30
0.0
 10
163.985599915045
 20
377.0488100553119
 30
0.0
 10
163.5218923724223
 20
377.3453830446955
 30
0.0
 10
163.142721881464
 20
377.4720290502942
 30
0.0
 10
162.938326429682
 20
377.5402987753232
 30
0.0
 11
164.3883264296824
 21
376.2845619398358
 31
0.0
 11
164.2895105791086
 21
376.6598494551807
 31
0.0
 11
163.9998001006571
 21
377.0095619398359
 31
0.0
 11
163.5389355484187
 21
377.3098664992042
 31
0.0
 11
162.938326429682
 21
377.5402987753232
 31
0.0
  0
SPLINE
  5
144
330
47
100
AcDbEntity
  8
0
  6
Continuous
 62
     7
100
AcDbSpline
210
0.0
220
0.0
230
1.0
 70
     8
 71
     3
 72
    15
 73
    11
 74
     9
 42
0.000000001
 43
0.0000000001
 44
0.00000001
 40
0.0
 40
0.0
 40
0.0
 40
0.0
 40
0.7142676959366125
 40
1.466467150908293
 40
2.218666605603447
 40
2.932934292283392
 40
3.576230762042874
 40
4.126302543945052
 40
4.580429156803208
 40
4.968508124450505
 40
4.968508124450505
 40
4.968508124450505
 40
4.968508124450505
 10
160.0383264296824
 20
375.0288251043482
 30
0.0
 10
160.2703604621434
 20
374.9737168810535
 30
0.0
 10
160.7467508815792
 20
374.8605738738847
 30
0.0
 10
161.4886889644156
 20
374.8199374124376
 30
0.0
 10
162.2284884572795
 20
374.865573141583
 30
0.0
 10
162.9197532328566
 20
375.0052984609949
 30
0.0
 10
163.5210317313247
 20
375.2272025943706
 30
0.0
 10
163.9857736432043
 20
375.5196150917985
 30
0.0
 10
164.3182734362134
 20
375.8726244043702
 30
0.0
 10
164.3662290306472
 20
376.1546210283812
 30
0.0
 10
164.3883264296824
 20
376.2845619398358
 30
0.0
 11
160.0383264296824
 21
375.0288251043482
 31
0.0
 11
160.7377513989928
 21
374.8839698651227
 31
0.0
 11
161.4883264296824
 21
374.8345619398358
 31
0.0
 11
162.2389014603721
 21
374.8839698651227
 31
0.0
 11
162.9383264296824
 21
375.0288251043484
 31
0.0
 11
163.538935548419
 21
375.2592573804675
 31
0.0
 11
163.9998001006572
 21
375.5595619398358
 31
0.0
 11
164.2895105791086
 21
375.909274424491
 31
0.0
 11
164.3883264296824
 21
376.2845619398358
 31
0.0
  0
SPLINE
  5
145
330
47
100
AcDbEntity
  8
0
  6
Continuous
 62
     7
100
AcDbSpline
210
0.0
220
0.0
230
1.0
 70
     8
 71
     3
 72
     9
 73
     5
 74
     3
 42
0.000000001
 43
0.0000000001
 44
0.00000001
 40
0.0
 40
0.0
 40
0.0
 40
0.0
 40
0.1644251518697233
 40
0.3049365030406398
 40
0.3049365030406398
 40
0.3049365030406398
 40
0.3049365030406398
 10
155.5452828983016
 20
376.7877352658616
 30
0.0
 10
155.5046536177336
 20
376.7484390244318
 30
0.0
 10
155.4293041476192
 20
376.6755617303694
 30
0.0
 10
155.4123991834686
 20
376.5726540049441
 30
0.0
 10
155.4046095722752
 20
376.5252352658616
 30
0.0
 11
155.5452828983016
 21
376.7877352658616
 31
0.0
 11
155.4403877250692
 21
376.6611152283141
 31
0.0
 11
155.4046095722752
 21
376.5252352658616
 31
0.0
  0
SPLINE
  5
146
330
47
100
AcDbEntity
  8
0
  6
Continuous
 62
     7
100
AcDbSpline
210
0.0
220
0.0
230
1.0
 70
     8
 71
     3
 72
    17
 73
    13
 74
    11
 42
0.000000001
 43
0.0000000001
 44
0.00000001
 40
0.0
 40
0.0
 40
0.0
 40
0.0
 40
0.1405113443804645
 40
0.3049364983070597
 40
0.5041004203928532
 40
0.7370181083716838
 40
0.9956322713253474
 40
1.26798035022114
 40
1.540328428893967
 40
1.798942590938597
 40
2.031860279524584
 40
2.23102420728402
 40
2.23102420728402
 40
2.23102420728402
 40
2.23102420728402
 10
157.6296095722752
 20
376.6334884413346
 30
0.0
 10
157.6216088046685
 20
376.6805359377886
 30
0.0
 10
157.6042455973936
 20
376.7826380005878
 30
0.0
 10
157.4838574716175
 20
376.9104531698776
 30
0.0
 10
157.3155902724623
 20
377.0163194488456
 30
0.0
 10
157.0978793047161
 20
377.0966977635265
 30
0.0
 10
156.8476227022438
 20
377.1471421188857
 30
0.0
 10
156.5796486039917
 20
377.1642486791558
 30
0.0
 10
156.3114443029509
 20
377.1473747958018
 30
0.0
 10
156.0618223334081
 20
377.0958576388076
 30
0.0
 10
155.8421277091447
 20
377.0189570910563
 30
0.0
 10
155.7245015561669
 20
376.9347862144989
 30
0.0
 10
155.6702828983016
 20
376.8959884413347
 30
0.0
 11
157.6296095722752
 21
376.6334884413346
 31
0.0
 11
157.5938314194812
 21
376.769368403787
 31
0.0
 11
157.4889362462488
 21
376.8959884413347
 31
0.0
 11
157.3220714945764
 21
377.0047194024852
 31
0.0
 11
157.1046095722752
 21
377.0881517783214
 31
0.0
 11
156.8513694971801
 21
377.1405993649378
 31
0.0
 11
156.5796095722752
 21
377.1584884413347
 31
0.0
 11
156.3078496473703
 21
377.1405993649377
 31
0.0
 11
156.0546095722752
 21
377.0881517783214
 31
0.0
 11
155.837147649974
 21
377.0047194024853
 31
0.0
 11
155.6702828983016
 21
376.8959884413347
 31
0.0
  0
SPLINE
  5
147
330
47
100
AcDbEntity
  8
0
  6
Continuous
 62
     7
100
AcDbSpline
210
0.0
220
0.0
230
1.0
 70
     8
 71
     3
 72
    17
 73
    13
 74
    11
 42
0.000000001
 43
0.0000000001
 44
0.00000001
 40
0.0
 40
0.0
 40
0.0
 40
0.0
 40
0.1405113443804096
 40
0.3049364983068991
 40
0.5041004203927856
 40
0.7370181083716161
 40
0.9956322713253238
 40
1.267980350221169
 40
1.540328428893937
 40
1.798942590938499
 40
2.031860279524533
 40
2.23102420728404
 40
2.23102420728404
 40
2.23102420728404
 40
2.23102420728404
 10
155.4046095722752
 20
376.5252352658616
 30
0.0
 10
155.4126103398819
 20
376.4781877694076
 30
0.0
 10
155.4299735471568
 20
376.3760857066085
 30
0.0
 10
155.550361672933
 20
376.2482705373186
 30
0.0
 10
155.718628872088
 20
376.1424042583507
 30
0.0
 10
155.9363398398344
 20
376.0620259436697
 30
0.0
 10
156.1865964423066
 20
376.0115815883105
 30
0.0
 10
156.4545705405588
 20
375.9944750280406
 30
0.0
 10
156.7227748415994
 20
376.0113489113944
 30
0.0
 10
156.9723968111423
 20
376.0628660683886
 30
0.0
 10
157.1920914354056
 20
376.13976661614
 30
0.0
 10
157.3097175883836
 20
376.2239374926972
 30
0.0
 10
157.3639362462489
 20
376.2627352658616
 30
0.0
 11
155.4046095722752
 21
376.5252352658616
 31
0.0
 11
155.4403877250692
 21
376.3893553034092
 31
0.0
 11
155.5452828983015
 21
376.2627352658617
 31
0.0
 11
155.712147649974
 21
376.154004304711
 31
0.0
 11
155.9296095722752
 21
376.0705719288748
 31
0.0
 11
156.1828496473703
 21
376.0181243422585
 31
0.0
 11
156.4546095722752
 21
376.0002352658616
 31
0.0
 11
156.7263694971801
 21
376.0181243422585
 31
0.0
 11
156.9796095722752
 21
376.0705719288748
 31
0.0
 11
157.1970714945764
 21
376.154004304711
 31
0.0
 11
157.3639362462489
 21
376.2627352658616
 31
0.0
  0
SPLINE
  5
148
330
47
100
AcDbEntity
  8
0
  6
Continuous
 62
     7
100
AcDbSpline
210
0.0
220
0.0
230
1.0
 70
     8
 71
     3
 72
     9
 73
     5
 74
     3
 42
0.000000001
 43
0.0000000001
 44
0.00000001
 40
0.0
 40
0.0
 40
0.0
 40
0.0
 40
0.1644251518696614
 40
0.3049365030405085
 40
0.3049365030405085
 40
0.3049365030405085
 40
0.3049365030405085
 10
157.4889362462489
 20
376.3709884413347
 30
0.0
 10
157.5295655268168
 20
376.4102846827645
 30
0.0
 10
157.6049149969313
 20
376.483161976827
 30
0.0
 10
157.6218199610819
 20
376.5860697022521
 30
0.0
 10
157.6296095722752
 20
376.6334884413346
 30
0.0
 11
157.4889362462489
 21
376.3709884413347
 31
0.0
 11
157.5938314194813
 21
376.4976084788822
 31
0.0
 11
157.6296095722752
 21
376.6334884413346
 31
0.0
  0
SPLINE
  5
149
330
47
100
AcDbEntity
  8
0
  6
Continuous
 62
     7
100
AcDbSpline
210
0.0
220
0.0
230
1.0
 70
     8
 71
     3
 72
    11
 73
     7
 74
     5
 42
0.000000001
 43
0.0000000001
 44
0.00000001
 40
0.0
 40
0.0
 40
0.0
 40
0.0
 40
0.3880789720289154
 40
0.8422055809531268
 40
1.392277358348882
 40
2.035573833287913
 40
2.035573833287913
 40
2.035573833287913
 40
2.035573833287913
 10
158.0687111874118
 20
376.4345619398358
 30
0.0
 10
158.0907981217841
 20
376.3045789342512
 30
0.0
 10
158.1387310072598
 20
376.0224909597936
 30
0.0
 10
158.4714377020492
 20
375.6703138243599
 30
0.0
 10
158.9351452446718
 20
375.3737408349763
 30
0.0
 10
159.3143157356299
 20
375.2470948293773
 30
0.0
 10
159.5187111874119
 20
375.1788251043483
 30
0.0
 11
158.0687111874118
 21
376.4345619398358
 31
0.0
 11
158.1675270379856
 21
376.0592744244909
 31
0.0
 11
158.457237516437
 21
375.7095619398358
 31
0.0
 11
158.9181020686752
 21
375.4092573804675
 31
0.0
 11
159.5187111874119
 21
375.1788251043483
 31
0.0
  0
SPLINE
  5
14A
330
47
100
AcDbEntity
  8
0
  6
Continuous
 62
     7
100
AcDbSpline
210
0.0
220
0.0
230
1.0
 70
     8
 71
     3
 72
    15
 73
    11
 74
     9
 42
0.000000001
 43
0.0000000001
 44
0.00000001
 40
0.0
 40
0.0
 40
0.0
 40
0.0
 40
0.714267695936603
 40
1.466467150908311
 40
2.218666605603433
 40
2.932934292283434
 40
3.576230762042975
 40
4.126302543945279
 40
4.580429156803417
 40
4.968508124450755
 40
4.968508124450755
 40
4.968508124450755
 40
4.968508124450755
 10
162.4187111874119
 20
377.6902987753232
 30
0.0
 10
162.1866771549509
 20
377.7454069986179
 30
0.0
 10
161.7102867355152
 20
377.8585500057869
 30
0.0
 10
160.9683486526788
 20
377.899186467234
 30
0.0
 10
160.2285491598147
 20
377.8535507380885
 30
0.0
 10
159.5372843842378
 20
377.7138254186767
 30
0.0
 10
158.9360058857694
 20
377.491921285301
 30
0.0
 10
158.4712639738898
 20
377.1995087878731
 30
0.0
 10
158.1387641808808
 20
376.8464994753016
 30
0.0
 10
158.090808586447
 20
376.5645028512903
 30
0.0
 10
158.0687111874118
 20
376.4345619398358
 30
0.0
 11
162.4187111874119
 21
377.6902987753232
 31
0.0
 11
161.7192862181015
 21
377.8351540145489
 31
0.0
 11
160.9687111874119
 21
377.8845619398358
 31
0.0
 11
160.2181361567223
 21
377.8351540145489
 31
0.0
 11
159.5187111874119
 21
377.6902987753232
 31
0.0
 11
158.9181020686752
 21
377.4598664992042
 31
0.0
 11
158.4572375164369
 21
377.1595619398358
 31
0.0
 11
158.1675270379855
 21
376.8098494551807
 31
0.0
 11
158.0687111874118
 21
376.4345619398358
 31
0.0
  0
ENDBLK
  5
49
330
47
100
AcDbEntity
  8
0
100
AcDbBlockEnd
  0
BLOCK
  5
4C
330
4A
100
AcDbEntity
  8
0
100
AcDbBlockBegin
  2
AllgSicht1
 70
     0
 10
129.661891999998
 20
368.0
 30
0.0
  3
AllgSicht1
  1

  0
INSERT
  5
4B
330
4A
100
AcDbEntity
  8
0
100
AcDbBlockReference
  2
ST-4-FSI-C-select__1
 10
90.1687941269258
 20
342.5841460471685
 30
0.0
  0
MTEXT
  5
14C
330
4A
100
AcDbEntity
  8
1
 62
     6
100
AcDbMText
 10
129.5831937164671
 20
323.0888820447356
 30
0.0
 40
5.0
 41
0.0
 71
     2
 72
     1
  1
 
  7
CONVERTER_11
 73
     1
 44
1.32052821128451
  0
ENDBLK
  5
4D
330
4A
100
AcDbEntity
  8
0
100
AcDbBlockEnd
  0
BLOCK
  5
4F
330
4E
100
AcDbEntity
  8
0
100
AcDbBlockBegin
  2
ST-4-FSI-C-select__2
 70
     0
 10
-41.2499991394732
 20
362.9250001907348
 30
0.0
  3
ST-4-FSI-C-select__2
  1

  0
LINE
  5
14D
330
4E
100
AcDbEntity
  8
0
  6
Continuous
 62
     7
100
AcDbLine
 10
3.9688166467944
 20
367.7000001907347
 30
0.0
 11
3.9688166467944
 21
371.0750001907348
 31
0.0
  0
LINE
  5
14E
330
4E
100
AcDbEntity
  8
0
  6
Continuous
 62
     7
100
AcDbLine
 10
3.96881664679441
 20
362.9250001907348
 30
0.0
 11
3.96881664679441
 21
366.3000001907348
 31
0.0
  0
LINE
  5
14F
330
4E
100
AcDbEntity
  8
0
  6
Continuous
 62
     7
100
AcDbLine
 10
3.9688166467944
 20
367.7000001907347
 30
0.0
 11
3.96881664679441
 21
366.3000001907348
 31
0.0
  0
LINE
  5
150
330
4E
100
AcDbEntity
  8
0
  6
Continuous
 62
     7
100
AcDbLine
 10
5.44381663885118
 20
369.0150794212431
 30
0.0
 11
5.44381663885117
 21
369.3232552120078
 31
0.0
  0
LINE
  5
151
330
4E
100
AcDbEntity
  8
0
  6
Continuous
 62
     7
100
AcDbLine
 10
5.44381663885118
 20
367.7000001907347
 30
0.0
 11
5.44381663885118
 21
369.0150794212431
 31
0.0
  0
LINE
  5
152
330
4E
100
AcDbEntity
  8
0
  6
Continuous
 62
     7
100
AcDbLine
 10
5.44381663885117
 20
369.3232552120078
 30
0.0
 11
22.54381663885118
 21
369.3232552120078
 31
0.0
  0
LINE
  5
153
330
4E
100
AcDbEntity
  8
0
  6
Continuous
 62
     7
100
AcDbLine
 10
5.44381663885118
 20
369.0150794212431
 30
0.0
 11
22.54381663885119
 21
369.0150794212431
 31
0.0
  0
LINE
  5
154
330
4E
100
AcDbEntity
  8
0
  6
Continuous
 62
     7
100
AcDbLine
 10
43.64803476860242
 20
371.0750001907348
 30
0.0
 11
43.54776652882543
 21
371.0750001907348
 31
0.0
  0
LINE
  5
155
330
4E
100
AcDbEntity
  8
0
  6
Continuous
 62
     7
100
AcDbLine
 10
43.54776652882543
 20
371.0750001907348
 30
0.0
 11
43.28980663118065
 21
371.0750001907348
 31
0.0
  0
LINE
  5
156
330
4E
100
AcDbEntity
  8
0
  6
Continuous
 62
     7
100
AcDbLine
 10
43.28980663118065
 20
371.0750001907348
 30
0.0
 11
24.01881663931179
 21
371.0750001907348
 31
0.0
  0
LINE
  5
157
330
4E
100
AcDbEntity
  8
0
  6
Continuous
 62
     7
100
AcDbLine
 10
44.61109700425504
 20
371.0750001907348
 30
0.0
 11
45.25000086052678
 21
371.0750001907348
 31
0.0
  0
LINE
  5
158
330
4E
100
AcDbEntity
  8
0
  6
Continuous
 62
     7
100
AcDbLine
 10
1.95965523550518
 20
371.0750001907348
 30
0.0
 11
3.9688166467944
 21
371.0750001907348
 31
0.0
  0
LINE
  5
159
330
4E
100
AcDbEntity
  8
0
  6
Continuous
 62
     7
100
AcDbLine
 10
3.9688166467944
 20
371.0750001907348
 30
0.0
 11
24.01881663931179
 21
371.0750001907348
 31
0.0
  0
LINE
  5
15A
330
4E
100
AcDbEntity
  8
0
  6
Continuous
 62
     7
100
AcDbLine
 10
8.25000086052622
 20
367.4009335260563
 30
0.0
 11
8.25000086052622
 21
367.0500001907348
 31
0.0
  0
LINE
  5
15B
330
4E
100
AcDbEntity
  8
0
  6
Continuous
 62
     7
100
AcDbLine
 10
6.15000086056128
 20
367.0500001907348
 30
0.0
 11
8.25000086052622
 21
367.0500001907348
 31
0.0
  0
LINE
  5
15C
330
4E
100
AcDbEntity
  8
0
  6
Continuous
 62
     2
100
AcDbLine
 10
9.35000086052622
 20
367.4009335260563
 30
0.0
 11
11.80000086052622
 21
367.4009335260563
 31
0.0
  0
LINE
  5
15D
330
4E
100
AcDbEntity
  8
0
  6
Continuous
 62
     7
100
AcDbLine
 10
11.80000086052622
 20
367.500000190711
 30
0.0
 11
11.80000086052622
 21
367.4009335260563
 31
0.0
  0
LINE
  5
15E
330
4E
100
AcDbEntity
  8
0
  6
Continuous
 62
     7
100
AcDbLine
 10
9.35000086052659
 20
367.5000001907389
 30
0.0
 11
8.25000086052623
 21
367.500000190711
 31
0.0
  0
LINE
  5
15F
330
4E
100
AcDbEntity
  8
0
  6
Continuous
 62
     7
100
AcDbLine
 10
12.35000086052621
 20
367.5000001907389
 30
0.0
 11
11.80000086052622
 21
367.500000190711
 31
0.0
  0
LINE
  5
160
330
4E
100
AcDbEntity
  8
0
  6
Continuous
 62
     7
100
AcDbLine
 10
8.25000086052623
 20
367.500000190711
 30
0.0
 11
6.15000086053718
 21
367.5000001907389
 31
0.0
  0
LINE
  5
161
330
4E
100
AcDbEntity
  8
0
  6
Continuous
 62
     7
100
AcDbLine
 10
11.80000086052622
 20
367.500000190711
 30
0.0
 11
9.35000086052659
 21
367.5000001907389
 31
0.0
  0
LINE
  5
162
330
4E
100
AcDbEntity
  8
0
  6
Continuous
 62
     7
100
AcDbLine
 10
9.35000086052622
 20
367.0500001907348
 30
0.0
 11
11.80000086052622
 21
367.0500001907348
 31
0.0
  0
LINE
  5
163
330
4E
100
AcDbEntity
  8
0
  6
Continuous
 62
     7
100
AcDbLine
 10
11.80000086052622
 20
366.9500001907348
 30
0.0
 11
9.35000086052622
 21
366.9500001907348
 31
0.0
  0
LINE
  5
164
330
4E
100
AcDbEntity
  8
0
  6
Continuous
 62
     7
100
AcDbLine
 10
5.44381663885118
 20
365.1714624548857
 30
0.0
 11
5.44381663885119
 21
366.3000001907348
 31
0.0
  0
LINE
  5
165
330
4E
100
AcDbEntity
  8
0
  6
Continuous
 62
     7
100
AcDbLine
 10
18.65000086052685
 20
366.5990668554132
 30
0.0
 11
18.65000086052685
 21
366.500000190711
 31
0.0
  0
LINE
  5
166
330
4E
100
AcDbEntity
  8
0
  6
Continuous
 62
     7
100
AcDbLine
 10
19.75000086052686
 20
366.5000001907348
 30
0.0
 11
19.75000086052686
 21
366.5990668554132
 31
0.0
  0
LINE
  5
167
330
4E
100
AcDbEntity
  8
0
  6
Continuous
 62
     2
100
AcDbLine
 10
19.75000086052686
 20
366.5990668554132
 30
0.0
 11
21.85000086052688
 21
366.5990668554132
 31
0.0
  0
LINE
  5
168
330
4E
100
AcDbEntity
  8
0
  6
Continuous
 62
     7
100
AcDbLine
 10
8.25000086052622
 20
366.500000190711
 30
0.0
 11
9.35000086052659
 21
366.5000001907389
 31
0.0
  0
LINE
  5
169
330
4E
100
AcDbEntity
  8
0
  6
Continuous
 62
     7
100
AcDbLine
 10
6.15000086051423
 20
366.5000001907389
 30
0.0
 11
8.25000086052622
 21
366.500000190711
 31
0.0
  0
LINE
  5
16A
330
4E
100
AcDbEntity
  8
0
  6
Continuous
 62
     7
100
AcDbLine
 10
11.80000086052622
 20
366.5000001905871
 30
0.0
 11
12.35000086052621
 21
366.5000001907389
 31
0.0
  0
LINE
  5
16B
330
4E
100
AcDbEntity
  8
0
  6
Continuous
 62
     7
100
AcDbLine
 10
18.65000086052685
 20
366.500000190711
 30
0.0
 11
19.75000086052686
 21
366.5000001907348
 31
0.0
  0
LINE
  5
16C
330
4E
100
AcDbEntity
  8
0
  6
Continuous
 62
     7
100
AcDbLine
 10
15.65000086052752
 20
366.5000001907389
 30
0.0
 11
16.20000086052685
 21
366.5000001905871
 31
0.0
  0
LINE
  5
16D
330
4E
100
AcDbEntity
  8
0
  6
Continuous
 62
     7
100
AcDbLine
 10
19.75000086052686
 20
366.5000001907348
 30
0.0
 11
21.85000086052687
 21
366.5000001907389
 31
0.0
  0
LINE
  5
16E
330
4E
100
AcDbEntity
  8
0
  6
Continuous
 62
     7
100
AcDbLine
 10
9.35000086052659
 20
366.5000001907389
 30
0.0
 11
11.80000086052622
 21
366.5000001905871
 31
0.0
  0
LINE
  5
16F
330
4E
100
AcDbEntity
  8
0
  6
Continuous
 62
     2
100
AcDbLine
 10
16.20000086052685
 20
366.5990668554132
 30
0.0
 11
18.65000086052685
 21
366.5990668554132
 31
0.0
  0
LINE
  5
170
330
4E
100
AcDbEntity
  8
0
  6
Continuous
 62
     7
100
AcDbLine
 10
16.20000086052685
 20
366.5000001905871
 30
0.0
 11
18.65000086052685
 21
366.500000190711
 31
0.0
  0
LINE
  5
171
330
4E
100
AcDbEntity
  8
0
  6
Continuous
 62
     2
100
AcDbLine
 10
11.80000086052622
 20
366.5990668554133
 30
0.0
 11
9.35000086052622
 21
366.5990668554133
 31
0.0
  0
LINE
  5
172
330
4E
100
AcDbEntity
  8
0
  6
Continuous
 62
     2
100
AcDbLine
 10
6.15000086056128
 20
367.4009335260564
 30
0.0
 11
8.25000086052622
 21
367.4009335260563
 31
0.0
  0
LINE
  5
173
330
4E
100
AcDbEntity
  8
0
  6
Continuous
 62
     7
100
AcDbLine
 10
8.25000086052623
 20
367.500000190711
 30
0.0
 11
8.25000086052622
 21
367.4009335260563
 31
0.0
  0
LINE
  5
174
330
4E
100
AcDbEntity
  8
0
  6
Continuous
 62
     7
100
AcDbLine
 10
8.25000086052622
 20
366.5990668554133
 30
0.0
 11
8.25000086052622
 21
366.9500001907348
 31
0.0
  0
LINE
  5
175
330
4E
100
AcDbEntity
  8
0
  6
Continuous
 62
     7
100
AcDbLine
 10
9.35000086052622
 20
367.4009335260563
 30
0.0
 11
9.35000086052622
 21
367.0500001907348
 31
0.0
  0
LINE
  5
176
330
4E
100
AcDbEntity
  8
0
  6
Continuous
 62
     7
100
AcDbLine
 10
9.35000086052622
 20
366.5990668554133
 30
0.0
 11
9.35000086052659
 21
366.5000001907389
 31
0.0
  0
LINE
  5
177
330
4E
100
AcDbEntity
  8
0
  6
Continuous
 62
     7
100
AcDbLine
 10
9.35000086052622
 20
366.9500001907348
 30
0.0
 11
9.35000086052622
 21
366.5990668554133
 31
0.0
  0
LINE
  5
178
330
4E
100
AcDbEntity
  8
0
  6
Continuous
 62
     7
100
AcDbLine
 10
9.35000086052659
 20
367.5000001907389
 30
0.0
 11
9.35000086052622
 21
367.4009335260563
 31
0.0
  0
LINE
  5
179
330
4E
100
AcDbEntity
  8
0
  6
Continuous
 62
     7
100
AcDbLine
 10
6.15000086056128
 20
367.0500001907348
 30
0.0
 11
6.15000086049011
 21
366.9500001907348
 31
0.0
  0
LINE
  5
17A
330
4E
100
AcDbEntity
  8
0
  6
Continuous
 62
     7
100
AcDbLine
 10
6.15000086053718
 20
367.5000001907389
 30
0.0
 11
6.15000086056128
 21
367.4009335260564
 31
0.0
  0
LINE
  5
17B
330
4E
100
AcDbEntity
  8
0
  6
Continuous
 62
     7
100
AcDbLine
 10
6.15000086049011
 20
366.9500001907348
 30
0.0
 11
6.15000086051649
 21
366.5990668554132
 31
0.0
  0
LINE
  5
17C
330
4E
100
AcDbEntity
  8
0
  6
Continuous
 62
     7
100
AcDbLine
 10
6.15000086051649
 20
366.5990668554132
 30
0.0
 11
6.15000086051423
 21
366.5000001907389
 31
0.0
  0
LINE
  5
17D
330
4E
100
AcDbEntity
  8
0
  6
Continuous
 62
     7
100
AcDbLine
 10
6.15000086056128
 20
367.4009335260564
 30
0.0
 11
6.15000086056128
 21
367.0500001907348
 31
0.0
  0
LINE
  5
17E
330
4E
100
AcDbEntity
  8
0
  6
Continuous
 62
     2
100
AcDbLine
 10
8.25000086052622
 20
366.5990668554133
 30
0.0
 11
6.15000086051649
 21
366.5990668554132
 31
0.0
  0
LINE
  5
17F
330
4E
100
AcDbEntity
  8
0
  6
Continuous
 62
     7
100
AcDbLine
 10
18.65000086052685
 20
366.5990668554132
 30
0.0
 11
18.65000086052686
 21
366.9500001907348
 31
0.0
  0
LINE
  5
180
330
4E
100
AcDbEntity
  8
0
  6
Continuous
 62
     7
100
AcDbLine
 10
19.75000086052686
 20
366.5990668554132
 30
0.0
 11
19.75000086052686
 21
366.9500001907348
 31
0.0
  0
LINE
  5
181
330
4E
100
AcDbEntity
  8
0
  6
Continuous
 62
     7
100
AcDbLine
 10
21.85000086052686
 20
366.9500001907348
 30
0.0
 11
21.85000086052688
 21
366.5990668554132
 31
0.0
  0
LINE
  5
182
330
4E
100
AcDbEntity
  8
0
  6
Continuous
 62
     7
100
AcDbLine
 10
21.85000086052688
 20
367.5000001907389
 30
0.0
 11
21.85000086052688
 21
367.4009335260563
 31
0.0
  0
LINE
  5
183
330
4E
100
AcDbEntity
  8
0
  6
Continuous
 62
     7
100
AcDbLine
 10
21.85000086052688
 20
366.5990668554132
 30
0.0
 11
21.85000086052687
 21
366.5000001907389
 31
0.0
  0
LINE
  5
184
330
4E
100
AcDbEntity
  8
0
  6
Continuous
 62
     7
100
AcDbLine
 10
21.85000086052689
 20
367.0500001907348
 30
0.0
 11
21.85000086052686
 21
366.9500001907348
 31
0.0
  0
LINE
  5
185
330
4E
100
AcDbEntity
  8
0
  6
Continuous
 62
     7
100
AcDbLine
 10
21.85000086052686
 20
366.9500001907348
 30
0.0
 11
19.75000086052686
 21
366.9500001907348
 31
0.0
  0
LINE
  5
186
330
4E
100
AcDbEntity
  8
0
  6
Continuous
 62
     7
100
AcDbLine
 10
21.85000086052688
 20
367.4009335260563
 30
0.0
 11
21.85000086052689
 21
367.0500001907348
 31
0.0
  0
LINE
  5
187
330
4E
100
AcDbEntity
  8
0
  6
Continuous
 62
     7
100
AcDbLine
 10
19.75000086052686
 20
367.0500001907348
 30
0.0
 11
21.85000086052689
 21
367.0500001907348
 31
0.0
  0
LINE
  5
188
330
4E
100
AcDbEntity
  8
0
  6
Continuous
 62
     7
100
AcDbLine
 10
19.75000086052686
 20
367.4009335260563
 30
0.0
 11
19.75000086052686
 21
367.0500001907348
 31
0.0
  0
LINE
  5
189
330
4E
100
AcDbEntity
  8
0
  6
Continuous
 62
     7
100
AcDbLine
 10
18.65000086052685
 20
367.4009335260564
 30
0.0
 11
18.65000086052686
 21
367.0500001907348
 31
0.0
  0
LINE
  5
18A
330
4E
100
AcDbEntity
  8
0
  6
Continuous
 62
     2
100
AcDbLine
 10
19.75000086052686
 20
367.4009335260563
 30
0.0
 11
21.85000086052688
 21
367.4009335260563
 31
0.0
  0
LINE
  5
18B
330
4E
100
AcDbEntity
  8
0
  6
Continuous
 62
     7
100
AcDbLine
 10
18.65000086052685
 20
367.5000001907348
 30
0.0
 11
18.65000086052685
 21
367.4009335260564
 31
0.0
  0
LINE
  5
18C
330
4E
100
AcDbEntity
  8
0
  6
Continuous
 62
     7
100
AcDbLine
 10
19.75000086052686
 20
367.4009335260563
 30
0.0
 11
19.75000086052686
 21
367.500000190711
 31
0.0
  0
LINE
  5
18D
330
4E
100
AcDbEntity
  8
0
  6
Continuous
 62
     7
100
AcDbLine
 10
19.75000086052686
 20
367.500000190711
 30
0.0
 11
18.65000086052685
 21
367.5000001907348
 31
0.0
  0
LINE
  5
18E
330
4E
100
AcDbEntity
  8
0
  6
Continuous
 62
     7
100
AcDbLine
 10
16.20000086052685
 20
367.5000001905871
 30
0.0
 11
15.65000086052752
 21
367.5000001907389
 31
0.0
  0
LINE
  5
18F
330
4E
100
AcDbEntity
  8
0
  6
Continuous
 62
     7
100
AcDbLine
 10
18.65000086052685
 20
367.5000001907348
 30
0.0
 11
16.20000086052685
 21
367.5000001905871
 31
0.0
  0
LINE
  5
190
330
4E
100
AcDbEntity
  8
0
  6
Continuous
 62
     7
100
AcDbLine
 10
21.85000086052688
 20
367.5000001907389
 30
0.0
 11
19.75000086052686
 21
367.500000190711
 31
0.0
  0
LINE
  5
191
330
4E
100
AcDbEntity
  8
0
  6
Continuous
 62
     2
100
AcDbLine
 10
16.20000086052685
 20
367.4009335260563
 30
0.0
 11
18.65000086052685
 21
367.4009335260564
 31
0.0
  0
LINE
  5
192
330
4E
100
AcDbEntity
  8
0
  6
Continuous
 62
     7
100
AcDbLine
 10
16.20000086052686
 20
367.0500001907348
 30
0.0
 11
18.65000086052686
 21
367.0500001907348
 31
0.0
  0
LINE
  5
193
330
4E
100
AcDbEntity
  8
0
  6
Continuous
 62
     7
100
AcDbLine
 10
18.65000086052686
 20
366.9500001907348
 30
0.0
 11
16.20000086052686
 21
366.9500001907348
 31
0.0
  0
LINE
  5
194
330
4E
100
AcDbEntity
  8
0
  6
Continuous
 62
     7
100
AcDbLine
 10
22.54381663885114
 20
365.1714624548857
 30
0.0
 11
22.54381663885118
 21
366.3000001907348
 31
0.0
  0
LINE
  5
195
330
4E
100
AcDbEntity
  8
0
  6
Continuous
 62
     7
100
AcDbLine
 10
11.80000086052622
 20
367.0500001907348
 30
0.0
 11
11.80000086052622
 21
366.9500001907348
 31
0.0
  0
LINE
  5
196
330
4E
100
AcDbEntity
  8
0
  6
Continuous
 62
     7
100
AcDbLine
 10
11.80000086052622
 20
366.5990668554133
 30
0.0
 11
11.80000086052622
 21
366.5000001905871
 31
0.0
  0
LINE
  5
197
330
4E
100
AcDbEntity
  8
0
  6
Continuous
 62
     7
100
AcDbLine
 10
11.80000086052622
 20
366.9500001907348
 30
0.0
 11
11.80000086052622
 21
366.5990668554133
 31
0.0
  0
LINE
  5
198
330
4E
100
AcDbEntity
  8
0
  6
Continuous
 62
     7
100
AcDbLine
 10
11.80000086052622
 20
367.4009335260563
 30
0.0
 11
11.80000086052622
 21
367.0500001907348
 31
0.0
  0
LINE
  5
199
330
4E
100
AcDbEntity
  8
0
  6
Continuous
 62
     7
100
AcDbLine
 10
16.20000086052686
 20
366.9500001907348
 30
0.0
 11
16.20000086052686
 21
367.0500001907348
 31
0.0
  0
LINE
  5
19A
330
4E
100
AcDbEntity
  8
0
  6
Continuous
 62
     7
100
AcDbLine
 10
16.20000086052685
 20
367.4009335260563
 30
0.0
 11
16.20000086052685
 21
367.5000001905871
 31
0.0
  0
LINE
  5
19B
330
4E
100
AcDbEntity
  8
0
  6
Continuous
 62
     7
100
AcDbLine
 10
16.20000086052685
 20
366.5000001905871
 30
0.0
 11
16.20000086052685
 21
366.5990668554132
 31
0.0
  0
LINE
  5
19C
330
4E
100
AcDbEntity
  8
0
  6
Continuous
 62
     7
100
AcDbLine
 10
15.65000086052752
 20
366.5000001907389
 30
0.0
 11
15.65000086052752
 21
367.5000001907389
 31
0.0
  0
LINE
  5
19D
330
4E
100
AcDbEntity
  8
0
  6
Continuous
 62
     7
100
AcDbLine
 10
12.35000086052621
 20
367.5000001907389
 30
0.0
 11
12.35000086052621
 21
366.5000001907389
 31
0.0
  0
LINE
  5
19E
330
4E
100
AcDbEntity
  8
0
  6
Continuous
 62
     7
100
AcDbLine
 10
16.20000086052686
 20
367.0500001907348
 30
0.0
 11
16.20000086052685
 21
367.4009335260563
 31
0.0
  0
LINE
  5
19F
330
4E
100
AcDbEntity
  8
0
  6
Continuous
 62
     7
100
AcDbLine
 10
16.20000086052685
 20
366.5990668554132
 30
0.0
 11
16.20000086052686
 21
366.9500001907348
 31
0.0
  0
LINE
  5
1A0
330
4E
100
AcDbEntity
  8
0
  6
Continuous
 62
     7
100
AcDbLine
 10
8.25000086052622
 20
366.5990668554133
 30
0.0
 11
8.25000086052622
 21
366.500000190711
 31
0.0
  0
LINE
  5
1A1
330
4E
100
AcDbEntity
  8
0
  6
Continuous
 62
     7
100
AcDbLine
 10
3.96881664679441
 20
366.3000001907348
 30
0.0
 11
5.44381663885119
 21
366.3000001907348
 31
0.0
  0
LINE
  5
1A2
330
4E
100
AcDbEntity
  8
0
  6
Continuous
 62
     7
100
AcDbLine
 10
8.25000086052622
 20
366.9500001907348
 30
0.0
 11
6.15000086049011
 21
366.9500001907348
 31
0.0
  0
LINE
  5
1A3
330
4E
100
AcDbEntity
  8
0
  6
Continuous
 62
     7
100
AcDbLine
 10
5.44381663885118
 20
367.7000001907347
 30
0.0
 11
3.9688166467944
 21
367.7000001907347
 31
0.0
  0
LINE
  5
1A4
330
4E
100
AcDbEntity
  8
0
  6
Continuous
 62
     7
100
AcDbLine
 10
24.01881663931179
 20
367.7000001907347
 30
0.0
 11
22.54381663885118
 21
367.7000001907347
 31
0.0
  0
LINE
  5
1A5
330
4E
100
AcDbEntity
  8
0
  6
Continuous
 62
     7
100
AcDbLine
 10
22.54381663885114
 20
365.1714624548857
 30
0.0
 11
5.44381663885118
 21
365.1714624548857
 31
0.0
  0
LINE
  5
1A6
330
4E
100
AcDbEntity
  8
0
  6
Continuous
 62
     7
100
AcDbLine
 10
1.03460239344091
 20
371.0750001907348
 30
0.0
 11
1.95965523550518
 21
371.0750001907348
 31
0.0
  0
LINE
  5
1A7
330
4E
100
AcDbEntity
  8
0
  6
Continuous
 62
     7
100
AcDbLine
 10
33.75000086052678
 20
365.9500001907348
 30
0.0
 11
34.83007438596594
 21
365.9500001907348
 31
0.0
  0
LINE
  5
1A8
330
4E
100
AcDbEntity
  8
0
  6
Continuous
 62
     7
100
AcDbLine
 10
33.75000086052678
 20
366.1208245826812
 30
0.0
 11
33.75000086052678
 21
365.9500001907348
 31
0.0
  0
LINE
  5
1A9
330
4E
100
AcDbEntity
  8
0
  6
Continuous
 62
     7
100
AcDbLine
 10
35.20000086052917
 20
365.1500001907348
 30
0.0
 11
35.20000086052914
 21
364.9000001907348
 31
0.0
  0
LINE
  5
1AA
330
4E
100
AcDbEntity
  8
0
  6
Continuous
 62
     7
100
AcDbLine
 10
35.64847181784728
 20
365.5329104018583
 30
0.0
 11
35.64847181784728
 21
368.4670899796113
 31
0.0
  0
LINE
  5
1AB
330
4E
100
AcDbEntity
  8
0
  6
Continuous
 62
     7
100
AcDbLine
 10
36.60000086052696
 20
368.8500001907348
 30
0.0
 11
36.60000086052694
 21
365.1500001907348
 31
0.0
  0
LINE
  5
1AC
330
4E
100
AcDbEntity
  8
0
  6
Continuous
 62
     7
100
AcDbLine
 10
22.54381663885119
 20
369.0150794212431
 30
0.0
 11
22.54381663885118
 21
369.3232552120078
 31
0.0
  0
LINE
  5
1AD
330
4E
100
AcDbEntity
  8
0
  6
Continuous
 62
     7
100
AcDbLine
 10
22.54381663885118
 20
367.7000001907347
 30
0.0
 11
22.54381663885119
 21
369.0150794212431
 31
0.0
  0
LINE
  5
1AE
330
4E
100
AcDbEntity
  8
0
  6
Continuous
 62
     7
100
AcDbLine
 10
24.01881663931179
 20
367.7000001907347
 30
0.0
 11
24.01881663931179
 21
371.0750001907348
 31
0.0
  0
LINE
  5
1AF
330
4E
100
AcDbEntity
  8
0
  6
Continuous
 62
     7
100
AcDbLine
 10
24.01881663931179
 20
367.7000001907347
 30
0.0
 11
24.01881663931182
 21
366.3000001907348
 31
0.0
  0
LINE
  5
1B0
330
4E
100
AcDbEntity
  8
0
  6
Continuous
 62
     7
100
AcDbLine
 10
24.01881663931179
 20
362.9250001907348
 30
0.0
 11
24.01881663931182
 21
366.3000001907348
 31
0.0
  0
LINE
  5
1B1
330
4E
100
AcDbEntity
  8
0
  6
Continuous
 62
     7
100
AcDbLine
 10
22.54381663885118
 20
366.3000001907348
 30
0.0
 11
24.01881663931182
 21
366.3000001907348
 31
0.0
  0
LINE
  5
1B2
330
4E
100
AcDbEntity
  8
0
  6
Continuous
 62
     7
100
AcDbLine
 10
38.15000086052768
 20
368.8500001907348
 30
0.0
 11
38.75000086052776
 21
368.8500001907348
 31
0.0
  0
LINE
  5
1B3
330
4E
100
AcDbEntity
  8
0
  6
Continuous
 62
     7
100
AcDbLine
 10
31.94546344944745
 20
369.8250001907348
 30
0.0
 11
32.6500008605269
 21
369.8250001907348
 31
0.0
  0
LINE
  5
1B4
330
4E
100
AcDbEntity
  8
0
  6
Continuous
 62
     7
100
AcDbLine
 10
28.15000086052692
 20
369.8250001907348
 30
0.0
 11
31.94546344944745
 21
369.8250001907348
 31
0.0
  0
LINE
  5
1B5
330
4E
100
AcDbEntity
  8
0
  6
Continuous
 62
     7
100
AcDbLine
 10
36.60000086052696
 20
368.8500001907348
 30
0.0
 11
38.15000086052768
 21
368.8500001907348
 31
0.0
  0
LINE
  5
1B6
330
4E
100
AcDbEntity
  8
0
  6
Continuous
 62
     2
100
AcDbLine
 10
38.15000086052768
 20
368.8500001907348
 30
0.0
 11
38.15000086052788
 21
369.9000001907348
 31
0.0
  0
LINE
  5
1B7
330
4E
100
AcDbEntity
  8
0
  6
Continuous
 62
     7
100
AcDbLine
 10
35.91672971711513
 20
368.8500001907348
 30
0.0
 11
36.60000086052696
 21
368.8500001907348
 31
0.0
  0
LINE
  5
1B8
330
4E
100
AcDbEntity
  8
0
  6
Continuous
 62
     7
100
AcDbLine
 10
40.20000086052775
 20
367.4000001907348
 30
0.0
 11
40.20000086052772
 21
366.6000001907348
 31
0.0
  0
LINE
  5
1B9
330
4E
100
AcDbEntity
  8
0
  6
Continuous
 62
     2
100
AcDbLine
 10
38.75000086052776
 20
368.8500001907348
 30
0.0
 11
38.75000086052722
 21
369.9000001907348
 31
0.0
  0
LINE
  5
1BA
330
4E
100
AcDbEntity
  8
0
  6
Continuous
 62
     7
100
AcDbLine
 10
38.75000086052722
 20
369.9000001907348
 30
0.0
 11
38.15000086052788
 21
369.9000001907348
 31
0.0
  0
LINE
  5
1BB
330
4E
100
AcDbEntity
  8
0
  6
Continuous
 62
     2
100
AcDbLine
 10
38.75000086052776
 20
365.1500001907348
 30
0.0
 11
38.75000086052773
 21
364.1000001907348
 31
0.0
  0
LINE
  5
1BC
330
4E
100
AcDbEntity
  8
0
  6
Continuous
 62
     2
100
AcDbLine
 10
38.15000086052769
 20
365.1500001907348
 30
0.0
 11
38.15000086052781
 21
364.1000001907348
 31
0.0
  0
LINE
  5
1BD
330
4E
100
AcDbEntity
  8
0
  6
Continuous
 62
     7
100
AcDbLine
 10
38.75000086052776
 20
365.1500001907348
 30
0.0
 11
38.15000086052769
 21
365.1500001907348
 31
0.0
  0
LINE
  5
1BE
330
4E
100
AcDbEntity
  8
0
  6
Continuous
 62
     7
100
AcDbLine
 10
33.10000086052913
 20
364.9000001907348
 30
0.0
 11
33.10000086052913
 21
365.1500001907348
 31
0.0
  0
LINE
  5
1BF
330
4E
100
AcDbEntity
  8
0
  6
Continuous
 62
     7
100
AcDbLine
 10
35.9167297171151
 20
365.1500001907348
 30
0.0
 11
36.60000086052694
 21
365.1500001907348
 31
0.0
  0
LINE
  5
1C0
330
4E
100
AcDbEntity
  8
0
  6
Continuous
 62
     7
100
AcDbLine
 10
36.60000086052694
 20
365.1500001907348
 30
0.0
 11
38.15000086052769
 21
365.1500001907348
 31
0.0
  0
LINE
  5
1C1
330
4E
100
AcDbEntity
  8
0
  6
Continuous
 62
     7
100
AcDbLine
 10
45.25000086052678
 20
371.0750001907348
 30
0.0
 11
45.25000086052678
 21
362.9250001907348
 31
0.0
  0
LINE
  5
1C2
330
4E
100
AcDbEntity
  8
0
  6
Continuous
 62
     7
100
AcDbLine
 10
38.15000086052781
 20
364.1000001907348
 30
0.0
 11
38.75000086052773
 21
364.1000001907348
 31
0.0
  0
LINE
  5
1C3
330
4E
100
AcDbEntity
  8
0
  6
Continuous
 62
     7
100
AcDbLine
 10
31.94546344944745
 20
364.5750001907348
 30
0.0
 11
32.6500008605269
 21
364.5750001907348
 31
0.0
  0
LINE
  5
1C4
330
4E
100
AcDbEntity
  8
0
  6
Continuous
 62
     7
100
AcDbLine
 10
28.15000086052692
 20
364.5750001907348
 30
0.0
 11
31.94546344944745
 21
364.5750001907348
 31
0.0
  0
LINE
  5
1C5
330
4E
100
AcDbEntity
  8
0
  6
Continuous
 62
     7
100
AcDbLine
 10
32.6500008605269
 20
369.8250001907348
 30
0.0
 11
32.6500008605269
 21
364.5750001907348
 31
0.0
  0
LINE
  5
1C6
330
4E
100
AcDbEntity
  8
0
  6
Continuous
 62
     7
100
AcDbLine
 10
31.94546344944745
 20
364.5750001907348
 30
0.0
 11
31.94546344944745
 21
369.8250001907348
 31
0.0
  0
LINE
  5
1C7
330
4E
100
AcDbEntity
  8
0
  6
Continuous
 62
     7
100
AcDbLine
 10
28.15000086052692
 20
364.5750001907348
 30
0.0
 11
28.15000086052692
 21
369.8250001907348
 31
0.0
  0
LINE
  5
1C8
330
4E
100
AcDbEntity
  8
0
  6
Continuous
 62
     7
100
AcDbLine
 10
43.64803476860242
 20
362.9250001907348
 30
0.0
 11
44.61109700425504
 21
362.9250001907348
 31
0.0
  0
LINE
  5
1C9
330
4E
100
AcDbEntity
  8
0
  6
Continuous
 62
     7
100
AcDbLine
 10
43.64803476860242
 20
371.0750001907348
 30
0.0
 11
44.61109700425504
 21
371.0750001907348
 31
0.0
  0
LINE
  5
1CA
330
4E
100
AcDbEntity
  8
0
  6
Continuous
 62
     7
100
AcDbLine
 10
43.64803476860242
 20
371.0750001907348
 30
0.0
 11
43.64803476860242
 21
362.9250001907348
 31
0.0
  0
LINE
  5
1CB
330
4E
100
AcDbEntity
  8
0
  6
Continuous
 62
     7
100
AcDbLine
 10
44.61109700425504
 20
371.0750001907348
 30
0.0
 11
44.61109700425504
 21
362.9250001907348
 31
0.0
  0
LINE
  5
1CC
330
4E
100
AcDbEntity
  8
0
  6
Continuous
 62
     7
100
AcDbLine
 10
43.28980663118065
 20
371.0750001907348
 30
0.0
 11
43.28980663118065
 21
362.9250001907348
 31
0.0
  0
LINE
  5
1CD
330
4E
100
AcDbEntity
  8
0
  6
Continuous
 62
     7
100
AcDbLine
 10
43.54776652882543
 20
371.0750001907348
 30
0.0
 11
43.54776652882543
 21
362.9250001907348
 31
0.0
  0
LINE
  5
1CE
330
4E
100
AcDbEntity
  8
0
  6
Continuous
 62
     7
100
AcDbLine
 10
3.96881664679441
 20
362.9250001907348
 30
0.0
 11
1.95965523550518
 21
362.9250001907348
 31
0.0
  0
LINE
  5
1CF
330
4E
100
AcDbEntity
  8
0
  6
Continuous
 62
     7
100
AcDbLine
 10
3.96881664679441
 20
362.9250001907348
 30
0.0
 11
24.01881663931179
 21
362.9250001907348
 31
0.0
  0
LINE
  5
1D0
330
4E
100
AcDbEntity
  8
0
  6
Continuous
 62
     7
100
AcDbLine
 10
24.01881663931179
 20
362.9250001907348
 30
0.0
 11
43.28980663118065
 21
362.9250001907348
 31
0.0
  0
LINE
  5
1D1
330
4E
100
AcDbEntity
  8
0
  6
Continuous
 62
     7
100
AcDbLine
 10
43.54776652882543
 20
362.9250001907348
 30
0.0
 11
43.64803476860242
 21
362.9250001907348
 31
0.0
  0
LINE
  5
1D2
330
4E
100
AcDbEntity
  8
0
  6
Continuous
 62
     7
100
AcDbLine
 10
43.28980663118065
 20
362.9250001907348
 30
0.0
 11
43.54776652882543
 21
362.9250001907348
 31
0.0
  0
LINE
  5
1D3
330
4E
100
AcDbEntity
  8
0
  6
Continuous
 62
     7
100
AcDbLine
 10
45.25000086052678
 20
362.9250001907348
 30
0.0
 11
44.61109700425504
 21
362.9250001907348
 31
0.0
  0
LINE
  5
1D4
330
4E
100
AcDbEntity
  8
0
  6
Continuous
 62
     7
100
AcDbLine
 10
1.95965523550518
 20
362.9250001907348
 30
0.0
 11
1.03460239344091
 21
362.9250001907348
 31
0.0
  0
LINE
  5
1D5
330
4E
100
AcDbEntity
  8
0
  6
Continuous
 62
     7
100
AcDbLine
 10
1.95965523550518
 20
371.0750001907348
 30
0.0
 11
1.95965523550518
 21
362.9250001907348
 31
0.0
  0
LINE
  5
1D6
330
4E
100
AcDbEntity
  8
0
  6
Continuous
 62
     7
100
AcDbLine
 10
-27.9454617283944
 20
364.5750001907348
 30
0.0
 11
-27.9454617283944
 21
369.8250001907348
 31
0.0
  0
LINE
  5
1D7
330
4E
100
AcDbEntity
  8
0
  6
Continuous
 62
     7
100
AcDbLine
 10
-24.14999913947386
 20
364.5750001907348
 30
0.0
 11
-24.14999913947386
 21
369.8250001907348
 31
0.0
  0
LINE
  5
1D8
330
4E
100
AcDbEntity
  8
0
  6
Continuous
 62
     7
100
AcDbLine
 10
-28.64999913947379
 20
369.8250001907348
 30
0.0
 11
-28.64999913947379
 21
364.5750001907348
 31
0.0
  0
LINE
  5
1D9
330
4E
100
AcDbEntity
  8
0
  6
Continuous
 62
     7
100
AcDbLine
 10
-27.9454617283944
 20
364.5750001907348
 30
0.0
 11
-28.64999913947379
 21
364.5750001907348
 31
0.0
  0
LINE
  5
1DA
330
4E
100
AcDbEntity
  8
0
  6
Continuous
 62
     7
100
AcDbLine
 10
-24.14999913947386
 20
364.5750001907348
 30
0.0
 11
-27.9454617283944
 21
364.5750001907348
 31
0.0
  0
LINE
  5
1DB
330
4E
100
AcDbEntity
  8
0
  6
Continuous
 62
     7
100
AcDbLine
 10
-27.9454617283944
 20
369.8250001907348
 30
0.0
 11
-28.64999913947379
 21
369.8250001907348
 31
0.0
  0
LINE
  5
1DC
330
4E
100
AcDbEntity
  8
0
  6
Continuous
 62
     7
100
AcDbLine
 10
-29.74999913947383
 20
366.1208245826812
 30
0.0
 11
-29.74999913947383
 21
365.9500001907348
 31
0.0
  0
LINE
  5
1DD
330
4E
100
AcDbEntity
  8
0
  6
Continuous
 62
     7
100
AcDbLine
 10
-30.83007266491291
 20
365.9500001907348
 30
0.0
 11
-29.74999913947383
 21
365.9500001907348
 31
0.0
  0
LINE
  5
1DE
330
4E
100
AcDbEntity
  8
0
  6
Continuous
 62
     7
100
AcDbLine
 10
-29.09999913947616
 20
364.9000001907348
 30
0.0
 11
-29.09999913947615
 21
365.1500001907348
 31
0.0
  0
LINE
  5
1DF
330
4E
100
AcDbEntity
  8
0
  6
Continuous
 62
     7
100
AcDbLine
 10
-31.19999913947613
 20
365.1500001907348
 30
0.0
 11
-31.19999913947613
 21
364.9000001907348
 31
0.0
  0
LINE
  5
1E0
330
4E
100
AcDbEntity
  8
0
  6
Continuous
 62
     7
100
AcDbLine
 10
-24.14999913947386
 20
369.8250001907348
 30
0.0
 11
-27.9454617283944
 21
369.8250001907348
 31
0.0
  0
LINE
  5
1E1
330
4E
100
AcDbEntity
  8
0
  6
Continuous
 62
     7
100
AcDbLine
 10
-15.54999913947329
 20
370.5000001907348
 30
0.0
 11
-15.54999913947329
 21
371.0750001907348
 31
0.0
  0
LINE
  5
1E2
330
4E
100
AcDbEntity
  8
0
  6
Continuous
 62
     7
100
AcDbLine
 10
-15.54999913947329
 20
362.9250001907348
 30
0.0
 11
-15.54999913947329
 21
363.5000001907348
 31
0.0
  0
LINE
  5
1E3
330
4E
100
AcDbEntity
  8
0
  6
Continuous
 62
     7
100
AcDbLine
 10
-15.54999913947329
 20
363.5000001907348
 30
0.0
 11
-15.54999913947329
 21
370.5000001907348
 31
0.0
  0
LINE
  5
1E4
330
4E
100
AcDbEntity
  8
0
  6
Continuous
 62
     7
100
AcDbLine
 10
-16.26849885875454
 20
371.0750001907348
 30
0.0
 11
-16.26849885875454
 21
362.9250001907348
 31
0.0
  0
LINE
  5
1E5
330
4E
100
AcDbEntity
  8
0
  6
Continuous
 62
     7
100
AcDbLine
 10
-12.39999913945387
 20
363.5000001907348
 30
0.0
 11
-12.39999913945387
 21
370.5000001907348
 31
0.0
  0
LINE
  5
1E6
330
4E
100
AcDbEntity
  8
0
  6
Continuous
 62
     7
100
AcDbLine
 10
-34.74999913947467
 20
365.1500001907348
 30
0.0
 11
-34.14999913947462
 21
365.1500001907348
 31
0.0
  0
LINE
  5
1E7
330
4E
100
AcDbEntity
  8
0
  6
Continuous
 62
     2
100
AcDbLine
 10
-34.14999913947462
 20
365.1500001907348
 30
0.0
 11
-34.14999913947479
 21
364.1000001907348
 31
0.0
  0
LINE
  5
1E8
330
4E
100
AcDbEntity
  8
0
  6
Continuous
 62
     7
100
AcDbLine
 10
-31.91672799606201
 20
365.1500001907348
 30
0.0
 11
-32.59999913947387
 21
365.1500001907348
 31
0.0
  0
LINE
  5
1E9
330
4E
100
AcDbEntity
  8
0
  6
Continuous
 62
     7
100
AcDbLine
 10
-32.59999913947387
 20
365.1500001907348
 30
0.0
 11
-34.14999913947462
 21
365.1500001907348
 31
0.0
  0
LINE
  5
1EA
330
4E
100
AcDbEntity
  8
0
  6
Continuous
 62
     7
100
AcDbLine
 10
-31.6484700967942
 20
365.5329104018583
 30
0.0
 11
-31.6484700967942
 21
368.4670899796113
 31
0.0
  0
LINE
  5
1EB
330
4E
100
AcDbEntity
  8
0
  6
Continuous
 62
     2
100
AcDbLine
 10
-34.14999913947459
 20
368.8500001907348
 30
0.0
 11
-34.14999913947474
 21
369.9000001907348
 31
0.0
  0
LINE
  5
1EC
330
4E
100
AcDbEntity
  8
0
  6
Continuous
 62
     7
100
AcDbLine
 10
-34.14999913947459
 20
368.8500001907348
 30
0.0
 11
-34.74999913947469
 21
368.8500001907348
 31
0.0
  0
LINE
  5
1ED
330
4E
100
AcDbEntity
  8
0
  6
Continuous
 62
     7
100
AcDbLine
 10
-32.59999913947388
 20
368.8500001907348
 30
0.0
 11
-34.14999913947459
 21
368.8500001907348
 31
0.0
  0
LINE
  5
1EE
330
4E
100
AcDbEntity
  8
0
  6
Continuous
 62
     7
100
AcDbLine
 10
-31.91672799606204
 20
368.8500001907348
 30
0.0
 11
-32.59999913947388
 21
368.8500001907348
 31
0.0
  0
LINE
  5
1EF
330
4E
100
AcDbEntity
  8
0
  6
Continuous
 62
     2
100
AcDbLine
 10
-34.74999913947469
 20
368.8500001907348
 30
0.0
 11
-34.74999913947469
 21
369.9000001907348
 31
0.0
  0
LINE
  5
1F0
330
4E
100
AcDbEntity
  8
0
  6
Continuous
 62
     7
100
AcDbLine
 10
-34.74999913947469
 20
369.9000001907348
 30
0.0
 11
-34.14999913947474
 21
369.9000001907348
 31
0.0
  0
LINE
  5
1F1
330
4E
100
AcDbEntity
  8
0
  6
Continuous
 62
     2
100
AcDbLine
 10
-34.74999913947467
 20
365.1500001907348
 30
0.0
 11
-34.74999913947464
 21
364.1000001907348
 31
0.0
  0
LINE
  5
1F2
330
4E
100
AcDbEntity
  8
0
  6
Continuous
 62
     7
100
AcDbLine
 10
-32.59999913947388
 20
368.8500001907348
 30
0.0
 11
-32.59999913947387
 21
365.1500001907348
 31
0.0
  0
LINE
  5
1F3
330
4E
100
AcDbEntity
  8
0
  6
Continuous
 62
     7
100
AcDbLine
 10
-10.69999913949217
 20
363.5000001907348
 30
0.0
 11
-7.5499991394735
 21
363.5000001907348
 31
0.0
  0
LINE
  5
1F4
330
4E
100
AcDbEntity
  8
0
  6
Continuous
 62
     7
100
AcDbLine
 10
-15.54999913947329
 20
363.5000001907348
 30
0.0
 11
-12.39999913945387
 21
363.5000001907348
 31
0.0
  0
LINE
  5
1F5
330
4E
100
AcDbEntity
  8
0
  6
Continuous
 62
     7
100
AcDbLine
 10
-16.26849885875454
 20
362.9250001907348
 30
0.0
 11
-39.28980491012766
 21
362.9250001907348
 31
0.0
  0
LINE
  5
1F6
330
4E
100
AcDbEntity
  8
0
  6
Continuous
 62
     7
100
AcDbLine
 10
-15.54999913947329
 20
362.9250001907348
 30
0.0
 11
-16.26849885875454
 21
362.9250001907348
 31
0.0
  0
LINE
  5
1F7
330
4E
100
AcDbEntity
  8
0
  6
Continuous
 62
     7
100
AcDbLine
 10
-4.23460067238658
 20
362.9250001907348
 30
0.0
 11
-5.15965351444723
 21
362.9250001907348
 31
0.0
  0
LINE
  5
1F8
330
4E
100
AcDbEntity
  8
0
  6
Continuous
 62
     7
100
AcDbLine
 10
-6.83149942016758
 20
362.9250001907348
 30
0.0
 11
-7.54999913947343
 21
362.9250001907348
 31
0.0
  0
LINE
  5
1F9
330
4E
100
AcDbEntity
  8
0
  6
Continuous
 62
     7
100
AcDbLine
 10
-6.83149942016758
 20
362.9250001907348
 30
0.0
 11
-5.15965351444723
 21
362.9250001907348
 31
0.0
  0
LINE
  5
1FA
330
4E
100
AcDbEntity
  8
0
  6
Continuous
 62
     7
100
AcDbLine
 10
1.03460239344091
 20
362.9250001907348
 30
0.0
 11
-4.23460067238658
 21
362.9250001907348
 31
0.0
  0
LINE
  5
1FB
330
4E
100
AcDbEntity
  8
0
  6
Continuous
 62
     7
100
AcDbLine
 10
-39.6480330475494
 20
362.9250001907348
 30
0.0
 11
-40.61109528320198
 21
362.9250001907348
 31
0.0
  0
LINE
  5
1FC
330
4E
100
AcDbEntity
  8
0
  6
Continuous
 62
     7
100
AcDbLine
 10
-15.54999913947329
 20
362.9250001907348
 30
0.0
 11
-7.54999913947343
 21
362.9250001907348
 31
0.0
  0
LINE
  5
1FD
330
4E
100
AcDbEntity
  8
0
  6
Continuous
 62
     7
100
AcDbLine
 10
-7.5499991394735
 20
363.5000001907348
 30
0.0
 11
-7.54999913947343
 21
362.9250001907348
 31
0.0
  0
LINE
  5
1FE
330
4E
100
AcDbEntity
  8
0
  6
Continuous
 62
     7
100
AcDbLine
 10
-7.5499991394735
 20
370.5000001907348
 30
0.0
 11
-7.5499991394735
 21
363.5000001907348
 31
0.0
  0
LINE
  5
1FF
330
4E
100
AcDbEntity
  8
0
  6
Continuous
 62
     7
100
AcDbLine
 10
-5.15965351444723
 20
371.0750001907348
 30
0.0
 11
-4.23460067238658
 21
371.0750001907348
 31
0.0
  0
LINE
  5
200
330
4E
100
AcDbEntity
  8
0
  6
Continuous
 62
     7
100
AcDbLine
 10
-5.15965351444723
 20
371.0750001907348
 30
0.0
 11
-6.83149942016758
 21
371.0750001907348
 31
0.0
  0
LINE
  5
201
330
4E
100
AcDbEntity
  8
0
  6
Continuous
 62
     7
100
AcDbLine
 10
-6.83149942016758
 20
371.0750001907348
 30
0.0
 11
-6.83149942016758
 21
362.9250001907348
 31
0.0
  0
LINE
  5
202
330
4E
100
AcDbEntity
  8
0
  6
Continuous
 62
     7
100
AcDbLine
 10
1.03460239344091
 20
371.0750001907348
 30
0.0
 11
1.03460239344091
 21
362.9250001907348
 31
0.0
  0
LINE
  5
203
330
4E
100
AcDbEntity
  8
0
  6
Continuous
 62
     7
100
AcDbLine
 10
-4.23460067238658
 20
371.0750001907348
 30
0.0
 11
1.03460239344091
 21
371.0750001907348
 31
0.0
  0
LINE
  5
204
330
4E
100
AcDbEntity
  8
0
  6
Continuous
 62
     7
100
AcDbLine
 10
-5.15965351444723
 20
362.9250001907348
 30
0.0
 11
-5.15965351444723
 21
371.0750001907348
 31
0.0
  0
LINE
  5
205
330
4E
100
AcDbEntity
  8
0
  6
Continuous
 62
     7
100
AcDbLine
 10
-4.23460067238658
 20
371.0750001907348
 30
0.0
 11
-4.23460067238658
 21
362.9250001907348
 31
0.0
  0
LINE
  5
206
330
4E
100
AcDbEntity
  8
0
  6
Continuous
 62
     7
100
AcDbLine
 10
-10.69999913949217
 20
363.5000001907348
 30
0.0
 11
-10.69999913949217
 21
370.5000001907348
 31
0.0
  0
LINE
  5
207
330
4E
100
AcDbEntity
  8
0
  6
Continuous
 62
     7
100
AcDbLine
 10
-40.61109528320198
 20
362.9250001907348
 30
0.0
 11
-41.2499991394732
 21
362.9250001907348
 31
0.0
  0
LINE
  5
208
330
4E
100
AcDbEntity
  8
0
  6
Continuous
 62
     7
100
AcDbLine
 10
-40.61109528320198
 20
371.0750001907348
 30
0.0
 11
-41.2499991394732
 21
371.0750001907348
 31
0.0
  0
LINE
  5
209
330
4E
100
AcDbEntity
  8
0
  6
Continuous
 62
     7
100
AcDbLine
 10
-41.2499991394732
 20
371.0750001907348
 30
0.0
 11
-41.2499991394732
 21
362.9250001907348
 31
0.0
  0
LINE
  5
20A
330
4E
100
AcDbEntity
  8
0
  6
Continuous
 62
     7
100
AcDbLine
 10
-40.61109528320198
 20
371.0750001907348
 30
0.0
 11
-40.61109528320198
 21
362.9250001907348
 31
0.0
  0
LINE
  5
20B
330
4E
100
AcDbEntity
  8
0
  6
Continuous
 62
     7
100
AcDbLine
 10
-34.14999913947479
 20
364.1000001907348
 30
0.0
 11
-34.74999913947464
 21
364.1000001907348
 31
0.0
  0
LINE
  5
20C
330
4E
100
AcDbEntity
  8
0
  6
Continuous
 62
     7
100
AcDbLine
 10
-36.19999913947467
 20
367.4000001907348
 30
0.0
 11
-36.19999913947463
 21
366.6000001907348
 31
0.0
  0
LINE
  5
20D
330
4E
100
AcDbEntity
  8
0
  6
Continuous
 62
     7
100
AcDbLine
 10
-39.54776480777242
 20
362.9250001907348
 30
0.0
 11
-39.6480330475494
 21
362.9250001907348
 31
0.0
  0
LINE
  5
20E
330
4E
100
AcDbEntity
  8
0
  6
Continuous
 62
     7
100
AcDbLine
 10
-39.28980491012766
 20
362.9250001907348
 30
0.0
 11
-39.54776480777242
 21
362.9250001907348
 31
0.0
  0
LINE
  5
20F
330
4E
100
AcDbEntity
  8
0
  6
Continuous
 62
     7
100
AcDbLine
 10
-39.54776480777242
 20
362.9250001907348
 30
0.0
 11
-39.54776480777242
 21
371.0750001907348
 31
0.0
  0
LINE
  5
210
330
4E
100
AcDbEntity
  8
0
  6
Continuous
 62
     7
100
AcDbLine
 10
-39.28980491012766
 20
362.9250001907348
 30
0.0
 11
-39.28980491012766
 21
371.0750001907348
 31
0.0
  0
LINE
  5
211
330
4E
100
AcDbEntity
  8
0
  6
Continuous
 62
     7
100
AcDbLine
 10
-39.6480330475494
 20
371.0750001907348
 30
0.0
 11
-39.6480330475494
 21
362.9250001907348
 31
0.0
  0
LINE
  5
212
330
4E
100
AcDbEntity
  8
0
  6
Continuous
 62
     7
100
AcDbLine
 10
-12.39999913945387
 20
370.5000001907348
 30
0.0
 11
-15.54999913947329
 21
370.5000001907348
 31
0.0
  0
LINE
  5
213
330
4E
100
AcDbEntity
  8
0
  6
Continuous
 62
     7
100
AcDbLine
 10
-7.54999913947343
 20
371.0750001907348
 30
0.0
 11
-6.83149942016758
 21
371.0750001907348
 31
0.0
  0
LINE
  5
214
330
4E
100
AcDbEntity
  8
0
  6
Continuous
 62
     7
100
AcDbLine
 10
-7.54999913947343
 20
371.0750001907348
 30
0.0
 11
-15.54999913947329
 21
371.0750001907348
 31
0.0
  0
LINE
  5
215
330
4E
100
AcDbEntity
  8
0
  6
Continuous
 62
     7
100
AcDbLine
 10
-10.69999913949217
 20
370.5000001907348
 30
0.0
 11
-7.5499991394735
 21
370.5000001907348
 31
0.0
  0
LINE
  5
216
330
4E
100
AcDbEntity
  8
0
  6
Continuous
 62
     7
100
AcDbLine
 10
-39.28980491012766
 20
371.0750001907348
 30
0.0
 11
-16.26849885875454
 21
371.0750001907348
 31
0.0
  0
LINE
  5
217
330
4E
100
AcDbEntity
  8
0
  6
Continuous
 62
     7
100
AcDbLine
 10
-16.26849885875454
 20
371.0750001907348
 30
0.0
 11
-15.54999913947329
 21
371.0750001907348
 31
0.0
  0
LINE
  5
218
330
4E
100
AcDbEntity
  8
0
  6
Continuous
 62
     7
100
AcDbLine
 10
-7.54999913947343
 20
371.0750001907348
 30
0.0
 11
-7.5499991394735
 21
370.5000001907348
 31
0.0
  0
LINE
  5
219
330
4E
100
AcDbEntity
  8
0
  6
Continuous
 62
     7
100
AcDbLine
 10
-39.6480330475494
 20
371.0750001907348
 30
0.0
 11
-40.61109528320198
 21
371.0750001907348
 31
0.0
  0
LINE
  5
21A
330
4E
100
AcDbEntity
  8
0
  6
Continuous
 62
     7
100
AcDbLine
 10
-39.54776480777242
 20
371.0750001907348
 30
0.0
 11
-39.6480330475494
 21
371.0750001907348
 31
0.0
  0
LINE
  5
21B
330
4E
100
AcDbEntity
  8
0
  6
Continuous
 62
     7
100
AcDbLine
 10
-39.28980491012766
 20
371.0750001907348
 30
0.0
 11
-39.54776480777242
 21
371.0750001907348
 31
0.0
  0
ARC
  5
21C
330
4E
100
AcDbEntity
  8
0
  6
Continuous
 62
     7
100
AcDbCircle
 10
34.15000086052913
 20
365.1500001907348
 30
0.0
 40
1.050000000000034
100
AcDbArc
 50
49.63240645581325
 51
112.3926878055395
  0
ARC
  5
21D
330
4E
100
AcDbEntity
  8
0
  6
Continuous
 62
     7
100
AcDbCircle
 10
34.15000086052913
 20
365.1500001907348
 30
0.0
 40
1.050000000000036
100
AcDbArc
 50
112.3926878055395
 51
180.0
  0
ARC
  5
21E
330
4E
100
AcDbEntity
  8
0
  6
Continuous
 62
     7
100
AcDbCircle
 10
34.15000086052913
 20
365.1500001907348
 30
0.0
 40
1.05000000000004
100
AcDbArc
 50
0.0
 51
49.63240645581325
  0
ARC
  5
21F
330
4E
100
AcDbEntity
  8
0
  6
Continuous
 62
     7
100
AcDbCircle
 10
38.15000086052778
 20
367.0000001907348
 30
0.0
 40
2.899999999999942
100
AcDbArc
 50
149.60934831355
 51
210.39065168645
  0
ARC
  5
220
330
4E
100
AcDbEntity
  8
0
  6
Continuous
 62
     7
100
AcDbCircle
 10
38.15000086052778
 20
367.0000001907348
 30
0.0
 40
2.899999999999954
100
AcDbArc
 50
140.362285609332
 51
149.60934831355
  0
ARC
  5
221
330
4E
100
AcDbEntity
  8
0
  6
Continuous
 62
     7
100
AcDbCircle
 10
38.15000086052778
 20
367.0000001907348
 30
0.0
 40
2.899999999999977
100
AcDbArc
 50
89.99999999999804
 51
140.362285609332
  0
ARC
  5
222
330
4E
100
AcDbEntity
  8
0
  6
Continuous
 62
     7
100
AcDbCircle
 10
38.75000086052776
 20
367.4000001907348
 30
0.0
 40
1.449999999999989
100
AcDbArc
 50
0.0
 51
90.0
  0
ARC
  5
223
330
4E
100
AcDbEntity
  8
0
  6
Continuous
 62
     7
100
AcDbCircle
 10
38.75000086052776
 20
366.6000001907348
 30
0.0
 40
1.450000000000045
100
AcDbArc
 50
270.0
 51
0.0
  0
ARC
  5
224
330
4E
100
AcDbEntity
  8
0
  6
Continuous
 62
     7
100
AcDbCircle
 10
34.15000086052913
 20
364.9000001907348
 30
0.0
 40
1.050000000000004
100
AcDbArc
 50
180.0
 51
0.0
  0
ARC
  5
225
330
4E
100
AcDbEntity
  8
0
  6
Continuous
 62
     7
100
AcDbCircle
 10
38.15000086052778
 20
367.0000001907348
 30
0.0
 40
2.899999999999942
100
AcDbArc
 50
210.39065168645
 51
219.6377143906676
  0
ARC
  5
226
330
4E
100
AcDbEntity
  8
0
  6
Continuous
 62
     7
100
AcDbCircle
 10
38.15000086052778
 20
367.0000001907348
 30
0.0
 40
2.899999999999976
100
AcDbArc
 50
219.6377143906676
 51
270.0000000000006
  0
ARC
  5
227
330
4E
100
AcDbEntity
  8
0
  6
Continuous
 62
     7
100
AcDbCircle
 10
-30.14999913947614
 20
365.1500001907348
 30
0.0
 40
1.04999999999999
100
AcDbArc
 50
0.0
 51
67.60731219446244
  0
ARC
  5
228
330
4E
100
AcDbEntity
  8
0
  6
Continuous
 62
     7
100
AcDbCircle
 10
-30.14999913947614
 20
365.1500001907348
 30
0.0
 40
1.050000000000021
100
AcDbArc
 50
67.60731219446244
 51
130.3675935441851
  0
ARC
  5
229
330
4E
100
AcDbEntity
  8
0
  6
Continuous
 62
     7
100
AcDbCircle
 10
-30.14999913947614
 20
365.1500001907348
 30
0.0
 40
1.050000000000008
100
AcDbArc
 50
130.3675935441851
 51
180.0
  0
ARC
  5
22A
330
4E
100
AcDbEntity
  8
0
  6
Continuous
 62
     7
100
AcDbCircle
 10
-30.14999913947614
 20
364.9000001907348
 30
0.0
 40
1.04999999999999
100
AcDbArc
 50
180.0
 51
0.0
  0
ARC
  5
22B
330
4E
100
AcDbEntity
  8
0
  6
Continuous
 62
     7
100
AcDbCircle
 10
-34.14999913947479
 20
367.0000001907348
 30
0.0
 40
2.90000000000005
100
AcDbArc
 50
320.3622856093336
 51
329.6093483135509
  0
ARC
  5
22C
330
4E
100
AcDbEntity
  8
0
  6
Continuous
 62
     7
100
AcDbCircle
 10
-34.14999913947479
 20
367.0000001907348
 30
0.0
 40
2.900000000000015
100
AcDbArc
 50
30.39065168644915
 51
39.63771439066677
  0
ARC
  5
22D
330
4E
100
AcDbEntity
  8
0
  6
Continuous
 62
     7
100
AcDbCircle
 10
-34.14999913947479
 20
367.0000001907348
 30
0.0
 40
2.900000000000015
100
AcDbArc
 50
329.6093483135509
 51
30.39065168644915
  0
ARC
  5
22E
330
4E
100
AcDbEntity
  8
0
  6
Continuous
 62
     7
100
AcDbCircle
 10
-34.14999913947479
 20
367.0000001907348
 30
0.0
 40
2.900000000000028
100
AcDbArc
 50
39.63771439066677
 51
89.99999999999902
  0
ARC
  5
22F
330
4E
100
AcDbEntity
  8
0
  6
Continuous
 62
     7
100
AcDbCircle
 10
-34.14999913947479
 20
367.0000001907348
 30
0.0
 40
2.899999999999977
100
AcDbArc
 50
270.0
 51
320.3622856093336
  0
ARC
  5
230
330
4E
100
AcDbEntity
  8
0
  6
Continuous
 62
     7
100
AcDbCircle
 10
-34.74999913947467
 20
366.6000001907348
 30
0.0
 40
1.44999999999996
100
AcDbArc
 50
180.0
 51
270.0
  0
ARC
  5
231
330
4E
100
AcDbEntity
  8
0
  6
Continuous
 62
     7
100
AcDbCircle
 10
-34.74999913947469
 20
367.4000001907348
 30
0.0
 40
1.450000000000045
100
AcDbArc
 50
90.0
 51
180.0
  0
ARC
  5
232
330
4E
100
AcDbEntity
  8
0
  6
Continuous
 62
     7
100
AcDbCircle
 10
-34.74999913947465
 20
367.0000001907348
 30
0.0
 40
2.899999999999977
100
AcDbArc
 50
90.0000000000007
 51
270.0000000000003
  0
ARC
  5
233
330
4E
100
AcDbEntity
  8
0
  6
Continuous
 62
     7
100
AcDbCircle
 10
38.75000086052764
 20
367.0000001907348
 30
0.0
 40
2.899999999999977
100
AcDbArc
 50
270.0000000000017
 51
90.00000000000827
  0
CIRCLE
  5
234
330
4E
100
AcDbEntity
  8
0
  6
Continuous
 62
     7
100
AcDbCircle
 10
-19.49999913947399
 20
367.0000001907348
 30
0.0
 40
1.45000000000001
  0
ENDBLK
  5
50
330
4E
100
AcDbEntity
  8
0
100
AcDbBlockEnd
  0
BLOCK
  5
53
330
51
100
AcDbEntity
  8
0
100
AcDbBlockBegin
  2
Drfsicht1
 70
     0
 10
2.0
 20
367.0
 30
0.0
  3
Drfsicht1
  1

  0
INSERT
  5
52
330
51
100
AcDbEntity
  8
0
100
AcDbBlockReference
  2
ST-4-FSI-C-select__2
 10
-41.2499991394732
 20
362.9250001907348
 30
0.0
  0
MTEXT
  5
235
330
51
100
AcDbEntity
  8
1
 62
     6
100
AcDbMText
 10
1.90912704963398
 20
357.9250001907349
 30
0.0
 40
5.0
 41
0.0
 71
     2
 72
     1
  1
 
  7
CONVERTER_11
 73
     1
 44
1.32052821128451
  0
DIMENSION
  5
242
330
51
100
AcDbEntity
  8
1
100
AcDbDimension
  2
*D17
 10
-50.9351105043933
 20
371.0750001907349
 30
0.0
 11
-54.3601105043933
 21
366.831369080957
 31
0.0
 70
    32
  1
<>
 71
     5
 42
-1.0
 53
90.0
  3
ME10_DIM_10
100
AcDbAlignedDimension
 13
-39.28980491012766
 23
362.9250001907348
 33
0.0
 14
-39.28980491012766
 24
371.0750001907348
 34
0.0
 50
90.0
100
AcDbRotatedDimension
  0
ENDBLK
  5
54
330
51
100
AcDbEntity
  8
0
100
AcDbBlockEnd
  0
BLOCK
  5
56
330
55
100
AcDbEntity
  8
0
100
AcDbBlockBegin
  2
ST-4-FSI-C-select__3
 70
     0
 10
93.41189113947318
 20
425.2864874815678
 30
0.0
  3
ST-4-FSI-C-select__3
  1

  0
LINE
  5
243
330
55
100
AcDbEntity
  8
0
  6
Continuous
 62
     7
100
AcDbLine
 10
95.37208536881934
 20
467.4864874815694
 30
0.0
 11
114.6430753606882
 21
467.4864874815694
 31
0.0
  0
LINE
  5
244
330
55
100
AcDbEntity
  8
0
  6
Continuous
 62
     7
100
AcDbLine
 10
134.6930753532056
 20
469.3364874815694
 30
0.0
 11
114.6430753606882
 21
469.3364874815694
 31
0.0
  0
LINE
  5
245
330
55
100
AcDbEntity
  8
0
  6
Continuous
 62
     7
100
AcDbLine
 10
114.6430753606882
 20
467.4864874815694
 30
0.0
 11
114.6430753606882
 21
469.3364874815694
 31
0.0
  0
LINE
  5
246
330
55
100
AcDbEntity
  8
0
  6
Continuous
 62
     7
100
AcDbLine
 10
156.711891139474
 20
467.4864874815694
 30
0.0
 11
154.9303908587545
 21
467.4864874815694
 31
0.0
  0
LINE
  5
247
330
55
100
AcDbEntity
  8
0
  6
Continuous
 62
     7
100
AcDbLine
 10
134.6930753532056
 20
467.4864874815694
 30
0.0
 11
134.6930753532056
 21
469.3364874815694
 31
0.0
  0
LINE
  5
248
330
55
100
AcDbEntity
  8
0
  6
Continuous
 62
     7
100
AcDbLine
 10
177.9516969101277
 20
467.4864874815694
 30
0.0
 11
159.611891139474
 21
467.4864874815693
 31
0.0
  0
LINE
  5
249
330
55
100
AcDbEntity
  8
0
  6
Continuous
 62
     7
100
AcDbLine
 10
161.1118911394737
 20
431.286487481568
 30
0.0
 11
159.5836033125381
 21
436.9901353002787
 31
0.0
  0
LINE
  5
24A
330
55
100
AcDbEntity
  8
0
  6
Continuous
 62
     7
100
AcDbLine
 10
179.9118911394738
 20
437.8864874815675
 30
0.0
 11
175.911891139474
 21
437.8864874815675
 31
0.0
  0
LINE
  5
24B
330
55
100
AcDbEntity
  8
0
  6
Continuous
 62
     7
100
AcDbLine
 10
179.9118911394738
 20
437.8864874815675
 30
0.0
 11
179.9118911394738
 21
439.4864874815667
 31
0.0
  0
LINE
  5
24C
330
55
100
AcDbEntity
  8
0
  6
Continuous
 62
     7
100
AcDbLine
 10
162.711891139473
 20
431.2864874815875
 30
0.0
 11
161.1023055400763
 21
437.2935427176507
 31
0.0
  0
LINE
  5
24D
330
55
100
AcDbEntity
  8
0
  6
Continuous
 62
     7
100
AcDbLine
 10
128.0118911394733
 20
430.1864874815681
 30
0.0
 11
128.0118911394733
 21
431.286487481568
 31
0.0
  0
LINE
  5
24E
330
55
100
AcDbEntity
  8
0
  6
Continuous
 62
     7
100
AcDbLine
 10
129.3118911394734
 20
429.8381535314077
 30
0.0
 11
128.0118911394733
 21
430.1864874815681
 31
0.0
  0
LINE
  5
24F
330
55
100
AcDbEntity
  8
0
  6
Continuous
 62
     7
100
AcDbLine
 10
129.3118911394737
 20
429.3864874815674
 30
0.0
 11
129.3118911394734
 21
429.8381535314077
 31
0.0
  0
LINE
  5
250
330
55
100
AcDbEntity
  8
0
  6
Continuous
 62
     7
100
AcDbLine
 10
125.4782301939449
 20
425.2864874815679
 30
0.0
 11
127.6529474863409
 21
425.2864874815679
 31
0.0
  0
LINE
  5
251
330
55
100
AcDbEntity
  8
0
  6
Continuous
 62
     7
100
AcDbLine
 10
143.424391139472
 20
465.3814874815678
 30
0.0
 11
142.8964926723866
 21
465.3814874815678
 31
0.0
  0
LINE
  5
252
330
55
100
AcDbEntity
  8
0
  6
Continuous
 62
     7
100
AcDbLine
 10
143.8215455144472
 20
467.4864874815662
 30
0.0
 11
142.8964926723866
 21
465.3814874815678
 31
0.0
  0
LINE
  5
253
330
55
100
AcDbEntity
  8
0
  6
Continuous
 62
     7
100
AcDbLine
 10
137.0993911394721
 20
465.3814874815678
 30
0.0
 11
137.0993911394721
 21
464.3114874815679
 31
0.0
  0
LINE
  5
254
330
55
100
AcDbEntity
  8
0
  6
Continuous
 62
     7
100
AcDbLine
 10
143.4243911394722
 20
464.3114874815679
 30
0.0
 11
137.0993911394721
 21
464.3114874815679
 31
0.0
  0
LINE
  5
255
330
55
100
AcDbEntity
  8
0
  6
Continuous
 62
     7
100
AcDbLine
 10
143.424391139472
 20
465.3814874815678
 30
0.0
 11
143.4243911394722
 21
464.3114874815679
 31
0.0
  0
LINE
  5
256
330
55
100
AcDbEntity
  8
0
  6
Continuous
 62
     7
100
AcDbLine
 10
137.6272896065591
 20
465.3814874815678
 30
0.0
 11
137.0993911394721
 21
465.3814874815678
 31
0.0
  0
LINE
  5
257
330
55
100
AcDbEntity
  8
0
  6
Continuous
 62
     7
100
AcDbLine
 10
146.2118911394735
 20
458.4864874815678
 30
0.0
 11
146.2118911394734
 21
465.7864874815662
 31
0.0
  0
LINE
  5
258
330
55
100
AcDbEntity
  8
0
  6
Continuous
 62
     7
100
AcDbLine
 10
137.6272896065591
 20
465.3814874815678
 30
0.0
 11
136.7022367644948
 21
467.4864874815695
 31
0.0
  0
LINE
  5
259
330
55
100
AcDbEntity
  8
0
  6
Continuous
 62
     7
100
AcDbLine
 10
154.2118911394733
 20
458.4864874815678
 30
0.0
 11
146.2118911394735
 21
458.4864874815678
 31
0.0
  0
LINE
  5
25A
330
55
100
AcDbEntity
  8
0
  6
Continuous
 62
     7
100
AcDbLine
 10
154.2118911394733
 20
465.7864874815662
 30
0.0
 11
154.2118911394733
 21
458.4864874815678
 31
0.0
  0
LINE
  5
25B
330
55
100
AcDbEntity
  8
0
  6
Continuous
 62
     7
100
AcDbLine
 10
159.611891139474
 20
467.4864874815693
 30
0.0
 11
156.711891139474
 21
467.4864874815694
 31
0.0
  0
LINE
  5
25C
330
55
100
AcDbEntity
  8
0
  6
Continuous
 62
     7
100
AcDbLine
 10
128.0118911394733
 20
431.286487481568
 30
0.0
 11
161.1118911394737
 21
431.286487481568
 31
0.0
  0
LINE
  5
25D
330
55
100
AcDbEntity
  8
0
  6
Continuous
 62
     7
100
AcDbLine
 10
136.7022367644948
 20
467.4864874815695
 30
0.0
 11
134.6930753532056
 21
467.4864874815694
 31
0.0
  0
LINE
  5
25E
330
55
100
AcDbEntity
  8
0
  6
Continuous
 62
     7
100
AcDbLine
 10
143.8215455144472
 20
467.4864874815662
 30
0.0
 11
145.4933914201676
 21
467.486487481566
 31
0.0
  0
LINE
  5
25F
330
55
100
AcDbEntity
  8
0
  6
Continuous
 62
     7
100
AcDbLine
 10
154.9303908587545
 20
467.4864874815694
 30
0.0
 11
154.2118911394733
 21
465.7864874815662
 31
0.0
  0
LINE
  5
260
330
55
100
AcDbEntity
  8
0
  6
Continuous
 62
     7
100
AcDbLine
 10
146.2118911394734
 20
465.7864874815662
 30
0.0
 11
145.4933914201676
 21
467.486487481566
 31
0.0
  0
LINE
  5
261
330
55
100
AcDbEntity
  8
0
  6
Continuous
 62
     7
100
AcDbLine
 10
179.911891139474
 20
425.2864874815678
 30
0.0
 11
179.911891139474
 21
428.3864874815678
 31
0.0
  0
LINE
  5
262
330
55
100
AcDbEntity
  8
0
  6
Continuous
 62
     7
100
AcDbLine
 10
177.7769136198802
 20
466.0910248493544
 30
0.0
 11
177.7064352214041
 21
466.354053813304
 31
0.0
  0
LINE
  5
263
330
55
100
AcDbEntity
  8
0
  6
Continuous
 62
     7
100
AcDbLine
 10
177.7769136198802
 20
466.0910248493544
 30
0.0
 11
178.2096568077724
 21
466.5237680372455
 31
0.0
  0
LINE
  5
264
330
55
100
AcDbEntity
  8
0
  6
Continuous
 62
     7
100
AcDbLine
 10
177.7064352214041
 20
466.354053813304
 30
0.0
 11
176.6728945872747
 21
466.0771174350444
 31
0.0
  0
LINE
  5
265
330
55
100
AcDbEntity
  8
0
  6
Continuous
 62
     7
100
AcDbLine
 10
178.3099250475494
 20
459.9676365837661
 30
0.0
 11
176.6728945872747
 21
466.0771174350444
 31
0.0
  0
LINE
  5
266
330
55
100
AcDbEntity
  8
0
  6
Continuous
 62
     7
100
AcDbLine
 10
177.9516969101277
 20
467.4864874815694
 30
0.0
 11
178.2096568077724
 21
466.5237680372455
 31
0.0
  0
LINE
  5
267
330
55
100
AcDbEntity
  8
0
  6
Continuous
 62
     7
100
AcDbLine
 10
95.54686865906675
 20
466.0910248493545
 30
0.0
 11
95.11412547117456
 21
466.5237680372455
 31
0.0
  0
LINE
  5
268
330
55
100
AcDbEntity
  8
0
  6
Continuous
 62
     7
100
AcDbLine
 10
95.61734705754277
 20
466.3540538133041
 30
0.0
 11
95.54686865906675
 21
466.0910248493545
 31
0.0
  0
LINE
  5
269
330
55
100
AcDbEntity
  8
0
  6
Continuous
 62
     7
100
AcDbLine
 10
95.37208536881934
 20
467.4864874815694
 30
0.0
 11
95.11412547117456
 21
466.5237680372455
 31
0.0
  0
LINE
  5
26A
330
55
100
AcDbEntity
  8
0
  6
Continuous
 62
     7
100
AcDbLine
 10
96.65088769167231
 20
466.0771174350444
 30
0.0
 11
95.61734705754277
 21
466.3540538133041
 31
0.0
  0
LINE
  5
26B
330
55
100
AcDbEntity
  8
0
  6
Continuous
 62
     7
100
AcDbLine
 10
95.01385723139758
 20
459.9676365837661
 30
0.0
 11
96.65088769167231
 21
466.0771174350444
 31
0.0
  0
LINE
  5
26C
330
55
100
AcDbEntity
  8
0
  6
Continuous
 62
     7
100
AcDbLine
 10
93.41189113947324
 20
436.4864874815694
 30
0.0
 11
93.41189113947318
 21
432.486487481568
 31
0.0
  0
LINE
  5
26D
330
55
100
AcDbEntity
  8
0
  6
Continuous
 62
     7
100
AcDbLine
 10
163.0708347926058
 20
425.2864874815684
 30
0.0
 11
179.911891139474
 21
425.2864874815678
 31
0.0
  0
LINE
  5
26E
330
55
100
AcDbEntity
  8
0
  6
Continuous
 62
     7
100
AcDbLine
 10
175.911891139474
 20
429.2864874815676
 30
0.0
 11
175.911891139474
 21
437.8864874815675
 31
0.0
  0
LINE
  5
26F
330
55
100
AcDbEntity
  8
0
  6
Continuous
 62
     7
100
AcDbLine
 10
175.911891139474
 20
429.2864874815676
 30
0.0
 11
179.0118911394733
 21
429.2864874815676
 31
0.0
  0
LINE
  5
270
330
55
100
AcDbEntity
  8
0
  6
Continuous
 62
     7
100
AcDbLine
 10
161.4118911394737
 20
429.8381535314077
 30
0.0
 11
161.4118911394737
 21
429.3864874815653
 31
0.0
  0
LINE
  5
271
330
55
100
AcDbEntity
  8
0
  6
Continuous
 62
     7
100
AcDbLine
 10
179.272987283202
 20
460.5076019259731
 30
0.0
 11
179.9118911394738
 21
460.3364081536489
 31
0.0
  0
LINE
  5
272
330
55
100
AcDbEntity
  8
0
  6
Continuous
 62
     7
100
AcDbLine
 10
179.3434656816777
 20
460.2445729620258
 30
0.0
 11
179.272987283202
 21
460.5076019259731
 31
0.0
  0
LINE
  5
273
330
55
100
AcDbEntity
  8
0
  6
Continuous
 62
     7
100
AcDbLine
 10
179.9118911394738
 20
452.4864874815696
 30
0.0
 11
179.9118911394738
 21
460.3364081536489
 31
0.0
  0
LINE
  5
274
330
55
100
AcDbEntity
  8
0
  6
Continuous
 62
     7
100
AcDbLine
 10
178.3099250475494
 20
459.9676365837661
 30
0.0
 11
179.3434656816777
 21
460.2445729620258
 31
0.0
  0
LINE
  5
275
330
55
100
AcDbEntity
  8
0
  6
Continuous
 62
     7
100
AcDbLine
 10
162.711891139473
 20
431.2864874815875
 30
0.0
 11
162.7118911394729
 21
430.1864874815681
 31
0.0
  0
LINE
  5
276
330
55
100
AcDbEntity
  8
0
  6
Continuous
 62
     7
100
AcDbLine
 10
162.7118911394729
 20
430.1864874815681
 30
0.0
 11
161.4118911394737
 21
429.8381535314077
 31
0.0
  0
LINE
  5
277
330
55
100
AcDbEntity
  8
0
  6
Continuous
 62
     7
100
AcDbLine
 10
93.41189113947321
 20
460.3364081536488
 30
0.0
 11
93.41189113947321
 21
452.4864874815673
 31
0.0
  0
LINE
  5
278
330
55
100
AcDbEntity
  8
0
  6
Continuous
 62
     7
100
AcDbLine
 10
94.05079499574495
 20
460.5076019259728
 30
0.0
 11
93.9803165972692
 21
460.2445729620259
 31
0.0
  0
LINE
  5
279
330
55
100
AcDbEntity
  8
0
  6
Continuous
 62
     7
100
AcDbLine
 10
93.9803165972692
 20
460.2445729620259
 30
0.0
 11
95.01385723139758
 21
459.9676365837661
 31
0.0
  0
LINE
  5
27A
330
55
100
AcDbEntity
  8
0
  6
Continuous
 62
     7
100
AcDbLine
 10
94.05079499574495
 20
460.5076019259728
 30
0.0
 11
93.41189113947321
 21
460.3364081536488
 31
0.0
  0
LINE
  5
27B
330
55
100
AcDbEntity
  8
0
  6
Continuous
 62
     7
100
AcDbLine
 10
93.41189113947318
 20
432.486487481568
 30
0.0
 11
125.0371468953307
 21
425.3357323652904
 31
0.0
  0
ARC
  5
27C
330
55
100
AcDbEntity
  8
0
  6
Continuous
 62
     7
100
AcDbCircle
 10
193.4303969740689
 20
445.9864874815681
 30
0.0
 40
15.00000000000007
100
AcDbArc
 50
154.3207113805368
 51
205.6792886194626
  0
ARC
  5
27D
330
55
100
AcDbEntity
  8
0
  6
Continuous
 62
     7
100
AcDbCircle
 10
125.4782301939455
 20
427.2864874815679
 30
0.0
 40
1.999999999999934
100
AcDbArc
 50
257.25915135382
 51
269.9999999999825
  0
ARC
  5
27E
330
55
100
AcDbEntity
  8
0
  6
Continuous
 62
     7
100
AcDbCircle
 10
119.9179184600973
 20
430.8018592698656
 30
0.0
 40
9.499999999999
100
AcDbArc
 50
324.5096766884203
 51
351.4318024382559
  0
ARC
  5
27F
330
55
100
AcDbEntity
  8
0
  6
Continuous
 62
     7
100
AcDbCircle
 10
158.161891139474
 20
467.4864874815693
 30
0.0
 40
1.450000000000045
100
AcDbArc
 50
90.0
 51
179.9999999999978
  0
ARC
  5
280
330
55
100
AcDbEntity
  8
0
  6
Continuous
 62
     7
100
AcDbCircle
 10
160.2597513909405
 20
437.1713086318508
 30
0.0
 40
0.7000000000002269
100
AcDbArc
 50
103.2004841064748
 51
195.0000000000251
  0
ARC
  5
281
330
55
100
AcDbEntity
  8
0
  6
Continuous
 62
     7
100
AcDbCircle
 10
160.3295648790445
 20
437.086487481568
 30
0.0
 40
0.80000000000069
100
AcDbArc
 50
15.00000000004023
 51
106.6832843343767
  0
ARC
  5
282
330
55
100
AcDbEntity
  8
0
  6
Continuous
 62
     7
100
AcDbCircle
 10
158.161891139474
 20
467.4864874815693
 30
0.0
 40
1.450000000000017
100
AcDbArc
 50
0.0
 51
90.0
  0
ARC
  5
283
330
55
100
AcDbEntity
  8
0
  6
Continuous
 62
     7
100
AcDbCircle
 10
179.0118911394734
 20
428.3864874815678
 30
0.0
 40
0.9000000000006025
100
AcDbArc
 50
0.0
 51
90.00000000000543
  0
ARC
  5
284
330
55
100
AcDbEntity
  8
0
  6
Continuous
 62
     7
100
AcDbCircle
 10
170.8058638188498
 20
430.8018592698656
 30
0.0
 40
9.49999999999897
100
AcDbArc
 50
188.5681975617569
 51
215.4903233115762
  0
ARC
  5
285
330
55
100
AcDbEntity
  8
0
  6
Continuous
 62
     7
100
AcDbCircle
 10
80.72331359902698
 20
444.4864874815685
 30
0.0
 40
14.99999999999676
100
AcDbArc
 50
327.7690473644942
 51
32.23095263550495
  0
ENDBLK
  5
57
330
55
100
AcDbEntity
  8
0
100
AcDbBlockEnd
  0
BLOCK
  5
5A
330
58
100
AcDbEntity
  8
0
100
AcDbBlockBegin
  2
Rckans1
 70
     0
 10
136.661892
 20
447.311488
 30
0.0
  3
Rckans1
  1

  0
INSERT
  5
59
330
58
100
AcDbEntity
  8
0
100
AcDbBlockReference
  2
ST-4-FSI-C-select__3
 10
93.41189113947318
 20
425.2864874815678
 30
0.0
  0
MTEXT
  5
286
330
58
100
AcDbEntity
  8
1
 62
     6
100
AcDbMText
 10
136.7527645405874
 20
410.0749998452901
 30
0.0
 40
5.0
 41
0.0
 71
     2
 72
     1
  1
 
  7
CONVERTER_11
 73
     1
 44
1.32052821128451
  0
ENDBLK
  5
5B
330
58
100
AcDbEntity
  8
0
100
AcDbBlockEnd
  0
BLOCK
  5
5D
330
5C
100
AcDbEntity
  8
0
100
AcDbBlockBegin
  2
ST-4-FSI-C-select__4
 70
     0
 10
61.25594580926392
 20
425.2864874815681
 30
0.0
  3
ST-4-FSI-C-select__4
  1

  0
LINE
  5
287
330
5C
100
AcDbEntity
  8
0
  6
Continuous
 62
     7
100
AcDbLine
 10
69.40594580926393
 20
466.0771174350447
 30
0.0
 11
69.40594580926393
 21
460.5076019259734
 31
0.0
  0
LINE
  5
288
330
5C
100
AcDbEntity
  8
0
  6
Continuous
 62
     7
100
AcDbLine
 10
69.40594580926393
 20
460.3364081536492
 30
0.0
 11
69.40594580926393
 21
460.5076019259734
 31
0.0
  0
LINE
  5
289
330
5C
100
AcDbEntity
  8
0
  6
Continuous
 62
     7
100
AcDbLine
 10
69.40594580926393
 20
460.3364081536492
 30
0.0
 11
69.40594580926393
 21
452.4864874815698
 31
0.0
  0
LINE
  5
28A
330
5C
100
AcDbEntity
  8
0
  6
Continuous
 62
     7
100
AcDbLine
 10
69.40594580926393
 20
467.4864874815697
 30
0.0
 11
69.40594580926393
 21
466.5237680372458
 31
0.0
  0
LINE
  5
28B
330
5C
100
AcDbEntity
  8
0
  6
Continuous
 62
     7
100
AcDbLine
 10
62.40594580926393
 20
429.2864874815679
 30
0.0
 11
69.40594580926393
 21
429.2864874815679
 31
0.0
  0
LINE
  5
28C
330
5C
100
AcDbEntity
  8
0
  6
Continuous
 62
     2
100
AcDbLine
 10
61.25594580926392
 20
428.3864874815681
 30
0.0
 11
69.40594580926393
 21
428.3864874815681
 31
0.0
  0
LINE
  5
28D
330
5C
100
AcDbEntity
  8
0
  6
Continuous
 62
     7
100
AcDbLine
 10
61.25594580926392
 20
425.2864874815681
 30
0.0
 11
69.40594580926393
 21
425.2864874815681
 31
0.0
  0
LINE
  5
28E
330
5C
100
AcDbEntity
  8
0
  6
Continuous
 62
     7
100
AcDbLine
 10
61.25594580926392
 20
429.2864874815679
 30
0.0
 11
61.25594580926392
 21
437.8864874815678
 31
0.0
  0
LINE
  5
28F
330
5C
100
AcDbEntity
  8
0
  6
Continuous
 62
     7
100
AcDbLine
 10
61.25594580926392
 20
428.3864874815681
 30
0.0
 11
61.25594580926392
 21
429.2864874815679
 31
0.0
  0
LINE
  5
290
330
5C
100
AcDbEntity
  8
0
  6
Continuous
 62
     7
100
AcDbLine
 10
61.25594580926392
 20
425.2864874815681
 30
0.0
 11
61.25594580926392
 21
428.3864874815681
 31
0.0
  0
LINE
  5
291
330
5C
100
AcDbEntity
  8
0
  6
Continuous
 62
     7
100
AcDbLine
 10
61.25594580926392
 20
460.3364081536492
 30
0.0
 11
69.40594580926393
 21
460.3364081536492
 31
0.0
  0
LINE
  5
292
330
5C
100
AcDbEntity
  8
0
  6
Continuous
 62
     7
100
AcDbLine
 10
61.25594580926392
 20
460.5076019259734
 30
0.0
 11
61.25594580926392
 21
466.0771174350447
 31
0.0
  0
LINE
  5
293
330
5C
100
AcDbEntity
  8
0
  6
Continuous
 62
     7
100
AcDbLine
 10
69.40594580926393
 20
466.0910248493547
 30
0.0
 11
69.40594580926393
 21
466.0771174350447
 31
0.0
  0
LINE
  5
294
330
5C
100
AcDbEntity
  8
0
  6
Continuous
 62
     7
100
AcDbLine
 10
69.40594580926393
 20
466.0771174350447
 30
0.0
 11
61.25594580926392
 21
466.0771174350447
 31
0.0
  0
LINE
  5
295
330
5C
100
AcDbEntity
  8
0
  6
Continuous
 62
     7
100
AcDbLine
 10
61.25594580926392
 20
466.0771174350447
 30
0.0
 11
61.25594580926392
 21
466.0910248493547
 31
0.0
  0
LINE
  5
296
330
5C
100
AcDbEntity
  8
0
  6
Continuous
 62
     7
100
AcDbLine
 10
69.40594580926393
 20
466.5237680372458
 30
0.0
 11
69.40594580926393
 21
466.0910248493547
 31
0.0
  0
LINE
  5
297
330
5C
100
AcDbEntity
  8
0
  6
Continuous
 62
     7
100
AcDbLine
 10
66.78094580926393
 20
467.4864874815696
 30
0.0
 11
69.40594580926393
 21
467.4864874815697
 31
0.0
  0
LINE
  5
298
330
5C
100
AcDbEntity
  8
0
  6
Continuous
 62
     7
100
AcDbLine
 10
63.88094580926392
 20
467.4864874815696
 30
0.0
 11
66.78094580926393
 21
467.4864874815696
 31
0.0
  0
LINE
  5
299
330
5C
100
AcDbEntity
  8
0
  6
Continuous
 62
     7
100
AcDbLine
 10
61.25594580926392
 20
466.0910248493547
 30
0.0
 11
69.40594580926393
 21
466.0910248493547
 31
0.0
  0
LINE
  5
29A
330
5C
100
AcDbEntity
  8
0
  6
Continuous
 62
     7
100
AcDbLine
 10
61.25594580926392
 20
466.0910248493547
 30
0.0
 11
61.25594580926392
 21
466.5237680372458
 31
0.0
  0
LINE
  5
29B
330
5C
100
AcDbEntity
  8
0
  6
Continuous
 62
     7
100
AcDbLine
 10
69.40594580926393
 20
466.5237680372458
 30
0.0
 11
61.25594580926392
 21
466.5237680372458
 31
0.0
  0
LINE
  5
29C
330
5C
100
AcDbEntity
  8
0
  6
Continuous
 62
     7
100
AcDbLine
 10
61.25594580926392
 20
460.5076019259734
 30
0.0
 11
69.40594580926393
 21
460.5076019259734
 31
0.0
  0
LINE
  5
29D
330
5C
100
AcDbEntity
  8
0
  6
Continuous
 62
     7
100
AcDbLine
 10
61.25594580926392
 20
439.486487481567
 30
0.0
 11
69.40594580926393
 21
439.486487481567
 31
0.0
  0
LINE
  5
29E
330
5C
100
AcDbEntity
  8
0
  6
Continuous
 62
     7
100
AcDbLine
 10
61.25594580926392
 20
452.4864874815698
 30
0.0
 11
69.40594580926393
 21
452.4864874815698
 31
0.0
  0
LINE
  5
29F
330
5C
100
AcDbEntity
  8
0
  6
Continuous
 62
     7
100
AcDbLine
 10
61.25594580926392
 20
429.2864874815679
 30
0.0
 11
62.40594580926393
 21
429.2864874815679
 31
0.0
  0
LINE
  5
2A0
330
5C
100
AcDbEntity
  8
0
  6
Continuous
 62
     7
100
AcDbLine
 10
69.40594580926393
 20
425.2864874815681
 30
0.0
 11
69.40594580926393
 21
428.3864874815681
 31
0.0
  0
LINE
  5
2A1
330
5C
100
AcDbEntity
  8
0
  6
Continuous
 62
     7
100
AcDbLine
 10
69.40594580926393
 20
429.2864874815679
 30
0.0
 11
69.40594580926393
 21
437.8864874815678
 31
0.0
  0
LINE
  5
2A2
330
5C
100
AcDbEntity
  8
0
  6
Continuous
 62
     7
100
AcDbLine
 10
69.40594580926393
 20
428.3864874815681
 30
0.0
 11
69.40594580926393
 21
429.2864874815679
 31
0.0
  0
LINE
  5
2A3
330
5C
100
AcDbEntity
  8
0
  6
Continuous
 62
     7
100
AcDbLine
 10
69.40594580926393
 20
439.486487481567
 30
0.0
 11
69.40594580926393
 21
437.8864874815678
 31
0.0
  0
LINE
  5
2A4
330
5C
100
AcDbEntity
  8
0
  6
Continuous
 62
     7
100
AcDbLine
 10
69.40594580926393
 20
439.486487481567
 30
0.0
 11
69.40594580926393
 21
452.4864874815698
 31
0.0
  0
LINE
  5
2A5
330
5C
100
AcDbEntity
  8
0
  6
Continuous
 62
     7
100
AcDbLine
 10
69.40594580926393
 20
469.3364874815696
 30
0.0
 11
66.03094580926393
 21
469.3364874815696
 31
0.0
  0
LINE
  5
2A6
330
5C
100
AcDbEntity
  8
0
  6
Continuous
 62
     7
100
AcDbLine
 10
69.40594580926393
 20
469.3364874815696
 30
0.0
 11
69.40594580926393
 21
467.4864874815697
 31
0.0
  0
LINE
  5
2A7
330
5C
100
AcDbEntity
  8
0
  6
Continuous
 62
     7
100
AcDbLine
 10
66.03094580926393
 20
468.7563299914897
 30
0.0
 11
66.03094580926393
 21
469.3364874815696
 31
0.0
  0
LINE
  5
2A8
330
5C
100
AcDbEntity
  8
0
  6
Continuous
 62
     7
100
AcDbLine
 10
64.63094580926392
 20
469.3364874815696
 30
0.0
 11
61.25594580926392
 21
469.3364874815699
 31
0.0
  0
LINE
  5
2A9
330
5C
100
AcDbEntity
  8
0
  6
Continuous
 62
     7
100
AcDbLine
 10
61.25594580926392
 20
467.4864874815697
 30
0.0
 11
61.25594580926392
 21
469.3364874815699
 31
0.0
  0
LINE
  5
2AA
330
5C
100
AcDbEntity
  8
0
  6
Continuous
 62
     7
100
AcDbLine
 10
64.63094580926392
 20
469.3364874815696
 30
0.0
 11
64.63094580926392
 21
468.7563299914897
 31
0.0
  0
LINE
  5
2AB
330
5C
100
AcDbEntity
  8
0
  6
Continuous
 62
     7
100
AcDbLine
 10
61.25594580926392
 20
466.5237680372458
 30
0.0
 11
61.25594580926392
 21
467.4864874815697
 31
0.0
  0
LINE
  5
2AC
330
5C
100
AcDbEntity
  8
0
  6
Continuous
 62
     7
100
AcDbLine
 10
61.25594580926392
 20
467.4864874815697
 30
0.0
 11
63.88094580926392
 21
467.4864874815696
 31
0.0
  0
LINE
  5
2AD
330
5C
100
AcDbEntity
  8
0
  6
Continuous
 62
     7
100
AcDbLine
 10
61.25594580926392
 20
452.4864874815698
 30
0.0
 11
61.25594580926392
 21
460.3364081536492
 31
0.0
  0
LINE
  5
2AE
330
5C
100
AcDbEntity
  8
0
  6
Continuous
 62
     7
100
AcDbLine
 10
61.25594580926392
 20
460.5076019259734
 30
0.0
 11
61.25594580926392
 21
460.3364081536492
 31
0.0
  0
LINE
  5
2AF
330
5C
100
AcDbEntity
  8
0
  6
Continuous
 62
     7
100
AcDbLine
 10
61.25594580926392
 20
437.8864874815678
 30
0.0
 11
61.25594580926392
 21
439.486487481567
 31
0.0
  0
LINE
  5
2B0
330
5C
100
AcDbEntity
  8
0
  6
Continuous
 62
     7
100
AcDbLine
 10
61.25594580926392
 20
439.486487481567
 30
0.0
 11
61.25594580926392
 21
452.4864874815698
 31
0.0
  0
LINE
  5
2B1
330
5C
100
AcDbEntity
  8
0
  6
Continuous
 62
     7
100
AcDbLine
 10
61.25594580926392
 20
437.8864874815678
 30
0.0
 11
69.40594580926393
 21
437.8864874815678
 31
0.0
  0
ARC
  5
2B2
330
5C
100
AcDbEntity
  8
0
  6
Continuous
 62
     7
100
AcDbCircle
 10
65.33094580926391
 20
467.4864874815696
 30
0.0
 40
1.450000000000017
100
AcDbArc
 50
0.0
 51
90.0
  0
ARC
  5
2B3
330
5C
100
AcDbEntity
  8
0
  6
Continuous
 62
     7
100
AcDbCircle
 10
65.33094580926391
 20
467.4864874815696
 30
0.0
 40
1.450000000000102
100
AcDbArc
 50
90.0
 51
180.0
  0
ENDBLK
  5
5E
330
5C
100
AcDbEntity
  8
0
100
AcDbBlockEnd
  0
BLOCK
  5
61
330
5F
100
AcDbEntity
  8
0
100
AcDbBlockBegin
  2
SA_Links1
 70
     0
 10
65.3309459999987
 20
447.3114880000003
 30
0.0
  3
SA_Links1
  1

  0
INSERT
  5
60
330
5F
100
AcDbEntity
  8
0
100
AcDbBlockReference
  2
ST-4-FSI-C-select__4
 10
61.25594580926392
 20
425.2864874815681
 30
0.0
  0
MTEXT
  5
2B4
330
5F
100
AcDbEntity
  8
1
 62
     6
100
AcDbMText
 10
65.33094579510862
 20
410.0749998452901
 30
0.0
 40
5.0
 41
0.0
 71
     2
 72
     1
  1
 
  7
CONVERTER_11
 73
     1
 44
1.32052821128451
  0
DIMENSION
  5
2C1
330
5F
100
AcDbEntity
  8
1
100
AcDbDimension
  2
*D18
 10
61.25594580926392
 20
413.7473149363725
 30
0.0
 11
80.87629403616123
 21
417.6723149363725
 31
0.0
 70
    33
  1
<>
 71
     5
 42
-1.0
 53
0.00013888888889
  3
ME10_DIM_11
100
AcDbAlignedDimension
 13
69.40594580926393
 23
425.2864874815681
 33
0.0
 14
61.25594580926392
 24
425.2864874815681
 34
0.0
  0
ENDBLK
  5
62
330
5F
100
AcDbEntity
  8
0
100
AcDbBlockEnd
  0
BLOCK
  5
64
330
63
100
AcDbEntity
  8
0
100
AcDbBlockBegin
  2
ST-4-FSI-C-select__5
 70
     0
 10
-86.58769180926322
 20
425.2864874815684
 30
0.0
  3
ST-4-FSI-C-select__5
  1

  0
LINE
  5
2C2
330
63
100
AcDbEntity
  8
0
  6
Continuous
 62
     7
100
AcDbLine
 10
-78.43769180926321
 20
432.486487481568
 30
0.0
 11
-86.58769180926322
 21
432.486487481568
 31
0.0
  0
LINE
  5
2C3
330
63
100
AcDbEntity
  8
0
  6
Continuous
 62
     2
100
AcDbLine
 10
-86.58769180926322
 20
425.3357323652904
 30
0.0
 11
-78.43769180926321
 21
425.3357323652904
 31
0.0
  0
LINE
  5
2C4
330
63
100
AcDbEntity
  8
0
  6
Continuous
 62
     7
100
AcDbLine
 10
-78.43769180926321
 20
425.2864874815684
 30
0.0
 11
-86.58769180926322
 21
425.2864874815684
 31
0.0
  0
LINE
  5
2C5
330
63
100
AcDbEntity
  8
0
  6
Continuous
 62
     7
100
AcDbLine
 10
-78.43769180926321
 20
436.4864874815694
 30
0.0
 11
-86.58769180926322
 21
436.4864874815694
 31
0.0
  0
LINE
  5
2C6
330
63
100
AcDbEntity
  8
0
  6
Continuous
 62
     7
100
AcDbLine
 10
-78.43769180926321
 20
460.3364081536488
 30
0.0
 11
-78.43769180926321
 21
452.4864874815673
 31
0.0
  0
LINE
  5
2C7
330
63
100
AcDbEntity
  8
0
  6
Continuous
 62
     7
100
AcDbLine
 10
-78.43769180926321
 20
460.3364081536488
 30
0.0
 11
-86.58769180926322
 21
460.3364081536488
 31
0.0
  0
LINE
  5
2C8
330
63
100
AcDbEntity
  8
0
  6
Continuous
 62
     7
100
AcDbLine
 10
-78.43769180926321
 20
452.4864874815673
 30
0.0
 11
-86.58769180926322
 21
452.4864874815673
 31
0.0
  0
LINE
  5
2C9
330
63
100
AcDbEntity
  8
0
  6
Continuous
 62
     7
100
AcDbLine
 10
-78.43769180926321
 20
460.5076019259731
 30
0.0
 11
-86.58769180926322
 21
460.5076019259731
 31
0.0
  0
LINE
  5
2CA
330
63
100
AcDbEntity
  8
0
  6
Continuous
 62
     7
100
AcDbLine
 10
-86.58769180926322
 20
425.3357323652904
 30
0.0
 11
-86.58769180926322
 21
432.486487481568
 31
0.0
  0
LINE
  5
2CB
330
63
100
AcDbEntity
  8
0
  6
Continuous
 62
     7
100
AcDbLine
 10
-78.43769180926321
 20
452.4864874815673
 30
0.0
 11
-78.43769180926321
 21
436.4864874815694
 31
0.0
  0
LINE
  5
2CC
330
63
100
AcDbEntity
  8
0
  6
Continuous
 62
     7
100
AcDbLine
 10
-78.43769180926321
 20
425.2864874815684
 30
0.0
 11
-78.43769180926321
 21
425.3357323652904
 31
0.0
  0
LINE
  5
2CD
330
63
100
AcDbEntity
  8
0
  6
Continuous
 62
     7
100
AcDbLine
 10
-78.43769180926321
 20
432.486487481568
 30
0.0
 11
-78.43769180926321
 21
425.3357323652904
 31
0.0
  0
LINE
  5
2CE
330
63
100
AcDbEntity
  8
0
  6
Continuous
 62
     7
100
AcDbLine
 10
-78.43769180926321
 20
460.5076019259731
 30
0.0
 11
-78.43769180926321
 21
466.0771174350444
 31
0.0
  0
LINE
  5
2CF
330
63
100
AcDbEntity
  8
0
  6
Continuous
 62
     7
100
AcDbLine
 10
-78.43769180926321
 20
466.0910248493544
 30
0.0
 11
-78.43769180926321
 21
466.5237680372455
 31
0.0
  0
LINE
  5
2D0
330
63
100
AcDbEntity
  8
0
  6
Continuous
 62
     7
100
AcDbLine
 10
-78.43769180926321
 20
467.4864874815694
 30
0.0
 11
-78.43769180926321
 21
466.5237680372455
 31
0.0
  0
LINE
  5
2D1
330
63
100
AcDbEntity
  8
0
  6
Continuous
 62
     7
100
AcDbLine
 10
-78.43769180926321
 20
467.4864874815694
 30
0.0
 11
-78.43769180926321
 21
469.3364874815694
 31
0.0
  0
LINE
  5
2D2
330
63
100
AcDbEntity
  8
0
  6
Continuous
 62
     7
100
AcDbLine
 10
-78.43769180926321
 20
466.0771174350444
 30
0.0
 11
-78.43769180926321
 21
466.0910248493544
 31
0.0
  0
LINE
  5
2D3
330
63
100
AcDbEntity
  8
0
  6
Continuous
 62
     7
100
AcDbLine
 10
-78.43769180926321
 20
460.3364081536488
 30
0.0
 11
-78.43769180926321
 21
460.5076019259731
 31
0.0
  0
LINE
  5
2D4
330
63
100
AcDbEntity
  8
0
  6
Continuous
 62
     7
100
AcDbLine
 10
-78.43769180926321
 20
436.4864874815694
 30
0.0
 11
-78.43769180926321
 21
432.486487481568
 31
0.0
  0
LINE
  5
2D5
330
63
100
AcDbEntity
  8
0
  6
Continuous
 62
     7
100
AcDbLine
 10
-81.81269180926321
 20
467.4864874815694
 30
0.0
 11
-78.43769180926321
 21
467.4864874815694
 31
0.0
  0
LINE
  5
2D6
330
63
100
AcDbEntity
  8
0
  6
Continuous
 62
     7
100
AcDbLine
 10
-78.43769180926321
 20
466.5237680372455
 30
0.0
 11
-86.58769180926322
 21
466.5237680372455
 31
0.0
  0
LINE
  5
2D7
330
63
100
AcDbEntity
  8
0
  6
Continuous
 62
     7
100
AcDbLine
 10
-78.43769180926321
 20
466.0910248493544
 30
0.0
 11
-86.58769180926322
 21
466.0910248493544
 31
0.0
  0
LINE
  5
2D8
330
63
100
AcDbEntity
  8
0
  6
Continuous
 62
     7
100
AcDbLine
 10
-86.58769180926322
 20
467.4864874815662
 30
0.0
 11
-83.21269180926322
 21
467.4864874815694
 31
0.0
  0
LINE
  5
2D9
330
63
100
AcDbEntity
  8
0
  6
Continuous
 62
     7
100
AcDbLine
 10
-86.58769180926322
 20
469.3364874815694
 30
0.0
 11
-83.21269180926322
 21
469.3364874815694
 31
0.0
  0
LINE
  5
2DA
330
63
100
AcDbEntity
  8
0
  6
Continuous
 62
     7
100
AcDbLine
 10
-83.21269180926322
 20
467.4864874815694
 30
0.0
 11
-83.21269180926322
 21
469.3364874815694
 31
0.0
  0
LINE
  5
2DB
330
63
100
AcDbEntity
  8
0
  6
Continuous
 62
     7
100
AcDbLine
 10
-86.58769180926322
 20
466.5237680372455
 30
0.0
 11
-86.58769180926322
 21
466.0910248493544
 31
0.0
  0
LINE
  5
2DC
330
63
100
AcDbEntity
  8
0
  6
Continuous
 62
     7
100
AcDbLine
 10
-86.58769180926322
 20
466.5237680372455
 30
0.0
 11
-86.58769180926322
 21
467.4864874815662
 31
0.0
  0
LINE
  5
2DD
330
63
100
AcDbEntity
  8
0
  6
Continuous
 62
     7
100
AcDbLine
 10
-86.58769180926322
 20
469.3364874815694
 30
0.0
 11
-86.58769180926322
 21
467.4864874815662
 31
0.0
  0
LINE
  5
2DE
330
63
100
AcDbEntity
  8
0
  6
Continuous
 62
     7
100
AcDbLine
 10
-81.81269180926321
 20
469.3364874815694
 30
0.0
 11
-78.43769180926321
 21
469.3364874815694
 31
0.0
  0
LINE
  5
2DF
330
63
100
AcDbEntity
  8
0
  6
Continuous
 62
     7
100
AcDbLine
 10
-81.81269180926321
 20
469.3364874815694
 30
0.0
 11
-81.81269180926321
 21
467.4864874815694
 31
0.0
  0
LINE
  5
2E0
330
63
100
AcDbEntity
  8
0
  6
Continuous
 62
     7
100
AcDbLine
 10
-81.81269180926321
 20
467.4864874815694
 30
0.0
 11
-83.21269180926322
 21
467.4864874815694
 31
0.0
  0
LINE
  5
2E1
330
63
100
AcDbEntity
  8
0
  6
Continuous
 62
     7
100
AcDbLine
 10
-86.58769180926322
 20
466.0771174350444
 30
0.0
 11
-78.43769180926321
 21
466.0771174350444
 31
0.0
  0
LINE
  5
2E2
330
63
100
AcDbEntity
  8
0
  6
Continuous
 62
     7
100
AcDbLine
 10
-86.58769180926322
 20
452.4864874815673
 30
0.0
 11
-86.58769180926322
 21
436.4864874815694
 31
0.0
  0
LINE
  5
2E3
330
63
100
AcDbEntity
  8
0
  6
Continuous
 62
     7
100
AcDbLine
 10
-86.58769180926322
 20
425.2864874815684
 30
0.0
 11
-86.58769180926322
 21
425.3357323652904
 31
0.0
  0
LINE
  5
2E4
330
63
100
AcDbEntity
  8
0
  6
Continuous
 62
     7
100
AcDbLine
 10
-86.58769180926322
 20
466.0910248493544
 30
0.0
 11
-86.58769180926322
 21
466.0771174350444
 31
0.0
  0
LINE
  5
2E5
330
63
100
AcDbEntity
  8
0
  6
Continuous
 62
     7
100
AcDbLine
 10
-86.58769180926322
 20
466.0771174350444
 30
0.0
 11
-86.58769180926322
 21
460.5076019259731
 31
0.0
  0
LINE
  5
2E6
330
63
100
AcDbEntity
  8
0
  6
Continuous
 62
     7
100
AcDbLine
 10
-86.58769180926322
 20
452.4864874815673
 30
0.0
 11
-86.58769180926322
 21
460.3364081536488
 31
0.0
  0
LINE
  5
2E7
330
63
100
AcDbEntity
  8
0
  6
Continuous
 62
     7
100
AcDbLine
 10
-86.58769180926322
 20
460.5076019259731
 30
0.0
 11
-86.58769180926322
 21
460.3364081536488
 31
0.0
  0
LINE
  5
2E8
330
63
100
AcDbEntity
  8
0
  6
Continuous
 62
     7
100
AcDbLine
 10
-86.58769180926322
 20
432.486487481568
 30
0.0
 11
-86.58769180926322
 21
436.4864874815694
 31
0.0
  0
ARC
  5
2E9
330
63
100
AcDbEntity
  8
0
  6
Continuous
 62
     7
100
AcDbCircle
 10
-82.51269180926322
 20
467.4864874815694
 30
0.0
 40
1.449999999999989
100
AcDbArc
 50
90.0
 51
118.8657274150054
  0
ARC
  5
2EA
330
63
100
AcDbEntity
  8
0
  6
Continuous
 62
     7
100
AcDbCircle
 10
-82.51269180926322
 20
467.4864874815694
 30
0.0
 40
1.450000000000085
100
AcDbArc
 50
61.13427258499455
 51
90.0
  0
ENDBLK
  5
65
330
63
100
AcDbEntity
  8
0
100
AcDbBlockEnd
  0
BLOCK
  5
68
330
66
100
AcDbEntity
  8
0
100
AcDbBlockBegin
  2
SA_Rechts1
 70
     0
 10
-82.51269199999801
 20
447.311488
 30
0.0
  3
SA_Rechts1
  1

  0
INSERT
  5
67
330
66
100
AcDbEntity
  8
0
100
AcDbBlockReference
  2
ST-4-FSI-C-select__5
 10
-86.58769180926322
 20
425.2864874815684
 30
0.0
  0
MTEXT
  5
2EB
330
66
100
AcDbEntity
  8
1
 62
     6
100
AcDbMText
 10
-82.51269179510894
 20
410.0749998452901
 30
0.0
 40
5.0
 41
0.0
 71
     2
 72
     1
  1
 
  7
CONVERTER_11
 73
     1
 44
1.32052821128451
  0
ENDBLK
  5
69
330
66
100
AcDbEntity
  8
0
100
AcDbBlockEnd
  0
BLOCK
  5
6B
330
6A
100
AcDbEntity
  8
0
100
AcDbBlockBegin
  2
ST-4-FSI-C-select__6
 70
     0
 10
-41.2499991394745
 20
425.286487481568
 30
0.0
  3
ST-4-FSI-C-select__6
  1

  0
LINE
  5
2EC
330
6A
100
AcDbEntity
  8
0
  6
Continuous
 62
     7
100
AcDbLine
 10
3.96881664679391
 20
469.3364874815696
 30
0.0
 11
3.96881664679391
 21
467.4864874815697
 31
0.0
  0
LINE
  5
2ED
330
6A
100
AcDbEntity
  8
0
  6
Continuous
 62
     7
100
AcDbLine
 10
24.01881663931131
 20
467.4864874815697
 30
0.0
 11
43.2898066311801
 21
467.4864874815697
 31
0.0
  0
LINE
  5
2EE
330
6A
100
AcDbEntity
  8
0
  6
Continuous
 62
     7
100
AcDbLine
 10
3.96881664679391
 20
469.3364874815696
 30
0.0
 11
24.01881663931131
 21
469.3364874815696
 31
0.0
  0
LINE
  5
2EF
330
6A
100
AcDbEntity
  8
0
  6
Continuous
 62
     7
100
AcDbLine
 10
-4.23460067238709
 20
465.3814874815681
 30
0.0
 11
-4.7624991394725
 21
465.3814874815681
 31
0.0
  0
LINE
  5
2F0
330
6A
100
AcDbEntity
  8
0
  6
Continuous
 62
     7
100
AcDbLine
 10
1.56250086052741
 20
464.3114874815682
 30
0.0
 11
-4.76249913947269
 21
464.3114874815682
 31
0.0
  0
LINE
  5
2F1
330
6A
100
AcDbEntity
  8
0
  6
Continuous
 62
     7
100
AcDbLine
 10
-4.76249913947269
 20
464.3114874815682
 30
0.0
 11
-4.7624991394725
 21
465.3814874815681
 31
0.0
  0
LINE
  5
2F2
330
6A
100
AcDbEntity
  8
0
  6
Continuous
 62
     7
100
AcDbLine
 10
-7.5499991394739
 20
465.7864874815665
 30
0.0
 11
-7.549999139474
 21
458.4864874815681
 31
0.0
  0
LINE
  5
2F3
330
6A
100
AcDbEntity
  8
0
  6
Continuous
 62
     7
100
AcDbLine
 10
-15.5499991394738
 20
458.4864874815681
 30
0.0
 11
-15.5499991394738
 21
465.7864874815664
 31
0.0
  0
LINE
  5
2F4
330
6A
100
AcDbEntity
  8
0
  6
Continuous
 62
     7
100
AcDbLine
 10
45.2500008605263
 20
460.336408153649
 30
0.0
 11
44.61109700425452
 21
460.5076019259731
 31
0.0
  0
LINE
  5
2F5
330
6A
100
AcDbEntity
  8
0
  6
Continuous
 62
     7
100
AcDbLine
 10
-39.54776480777294
 20
466.5237680372458
 30
0.0
 11
-39.11502161988072
 21
466.0910248493547
 31
0.0
  0
LINE
  5
2F6
330
6A
100
AcDbEntity
  8
0
  6
Continuous
 62
     7
100
AcDbLine
 10
-20.94999913947451
 20
467.4864874815696
 30
0.0
 11
-39.28980491012817
 21
467.4864874815696
 31
0.0
  0
LINE
  5
2F7
330
6A
100
AcDbEntity
  8
0
  6
Continuous
 62
     7
100
AcDbLine
 10
-16.26849885875504
 20
467.4864874815696
 30
0.0
 11
-18.04999913947448
 21
467.4864874815696
 31
0.0
  0
LINE
  5
2F8
330
6A
100
AcDbEntity
  8
0
  6
Continuous
 62
     7
100
AcDbLine
 10
-39.0445432214046
 20
466.3540538133043
 30
0.0
 11
-39.11502161988072
 21
466.0910248493547
 31
0.0
  0
LINE
  5
2F9
330
6A
100
AcDbEntity
  8
0
  6
Continuous
 62
     7
100
AcDbLine
 10
-39.54776480777294
 20
466.5237680372458
 30
0.0
 11
-39.28980491012817
 21
467.4864874815696
 31
0.0
  0
LINE
  5
2FA
330
6A
100
AcDbEntity
  8
0
  6
Continuous
 62
     7
100
AcDbLine
 10
-38.0110025872752
 20
466.0771174350447
 30
0.0
 11
-39.0445432214046
 21
466.3540538133043
 31
0.0
  0
LINE
  5
2FB
330
6A
100
AcDbEntity
  8
0
  6
Continuous
 62
     7
100
AcDbLine
 10
-41.24999913947433
 20
460.3364081536492
 30
0.0
 11
-41.24999913947431
 21
452.4864874815698
 31
0.0
  0
LINE
  5
2FC
330
6A
100
AcDbEntity
  8
0
  6
Continuous
 62
     7
100
AcDbLine
 10
-24.04999913947346
 20
430.1864874815684
 30
0.0
 11
-24.04999913947347
 21
431.2864874815878
 31
0.0
  0
LINE
  5
2FD
330
6A
100
AcDbEntity
  8
0
  6
Continuous
 62
     7
100
AcDbLine
 10
-22.74999913947417
 20
429.838153531408
 30
0.0
 11
-24.04999913947346
 21
430.1864874815684
 31
0.0
  0
LINE
  5
2FE
330
6A
100
AcDbEntity
  8
0
  6
Continuous
 62
     7
100
AcDbLine
 10
-22.74999913947418
 20
429.3864874815656
 30
0.0
 11
-22.74999913947417
 21
429.838153531408
 31
0.0
  0
LINE
  5
2FF
330
6A
100
AcDbEntity
  8
0
  6
Continuous
 62
     7
100
AcDbLine
 10
-37.2499991394745
 20
429.286487481568
 30
0.0
 11
-37.2499991394745
 21
426.7864874815678
 31
0.0
  0
LINE
  5
300
330
6A
100
AcDbEntity
  8
0
  6
Continuous
 62
     7
100
AcDbLine
 10
-18.04999913947448
 20
467.4864874815696
 30
0.0
 11
-20.94999913947451
 21
467.4864874815696
 31
0.0
  0
LINE
  5
301
330
6A
100
AcDbEntity
  8
0
  6
Continuous
 62
     7
100
AcDbLine
 10
-20.92171131253859
 20
436.990135300279
 30
0.0
 11
-22.44999913947423
 21
431.2864874815683
 31
0.0
  0
LINE
  5
302
330
6A
100
AcDbEntity
  8
0
  6
Continuous
 62
     7
100
AcDbLine
 10
-22.44041354007686
 20
437.293542717651
 30
0.0
 11
-24.04999913947347
 21
431.2864874815878
 31
0.0
  0
LINE
  5
303
330
6A
100
AcDbEntity
  8
0
  6
Continuous
 62
     7
100
AcDbLine
 10
10.65000086052621
 20
430.1864874815684
 30
0.0
 11
9.35000086052611
 21
429.838153531408
 31
0.0
  0
LINE
  5
304
330
6A
100
AcDbEntity
  8
0
  6
Continuous
 62
     7
100
AcDbLine
 10
-15.5499991394738
 20
458.4864874815681
 30
0.0
 11
-7.549999139474
 21
458.4864874815681
 31
0.0
  0
LINE
  5
305
330
6A
100
AcDbEntity
  8
0
  6
Continuous
 62
     7
100
AcDbLine
 10
9.35000086052611
 20
429.838153531408
 30
0.0
 11
9.35000086052581
 21
429.3864874815677
 31
0.0
  0
LINE
  5
306
330
6A
100
AcDbEntity
  8
0
  6
Continuous
 62
     7
100
AcDbLine
 10
-22.44999913947423
 20
431.2864874815683
 30
0.0
 11
10.65000086052621
 21
431.2864874815683
 31
0.0
  0
LINE
  5
307
330
6A
100
AcDbEntity
  8
0
  6
Continuous
 62
     7
100
AcDbLine
 10
10.65000086052621
 20
431.2864874815683
 30
0.0
 11
10.65000086052621
 21
430.1864874815684
 31
0.0
  0
LINE
  5
308
330
6A
100
AcDbEntity
  8
0
  6
Continuous
 62
     7
100
AcDbLine
 10
-41.2499991394745
 20
425.286487481568
 30
0.0
 11
-24.40894279260634
 21
425.2864874815687
 31
0.0
  0
LINE
  5
309
330
6A
100
AcDbEntity
  8
0
  6
Continuous
 62
     7
100
AcDbLine
 10
-41.2499991394743
 20
439.486487481567
 30
0.0
 11
-41.2499991394743
 21
437.8864874815678
 31
0.0
  0
LINE
  5
30A
330
6A
100
AcDbEntity
  8
0
  6
Continuous
 62
     7
100
AcDbLine
 10
-41.2499991394745
 20
428.3864874815681
 30
0.0
 11
-41.2499991394745
 21
425.286487481568
 31
0.0
  0
LINE
  5
30B
330
6A
100
AcDbEntity
  8
0
  6
Continuous
 62
     7
100
AcDbLine
 10
-39.74999913947448
 20
426.7864874815678
 30
0.0
 11
-37.2499991394745
 21
426.7864874815678
 31
0.0
  0
LINE
  5
30C
330
6A
100
AcDbEntity
  8
0
  6
Continuous
 62
     7
100
AcDbLine
 10
-39.7499991394745
 20
427.7156670883177
 30
0.0
 11
-39.74999913947448
 21
426.7864874815678
 31
0.0
  0
LINE
  5
30D
330
6A
100
AcDbEntity
  8
0
  6
Continuous
 62
     7
100
AcDbLine
 10
-37.2499991394745
 20
429.286487481568
 30
0.0
 11
-40.34999913947388
 21
429.2864874815679
 31
0.0
  0
LINE
  5
30E
330
6A
100
AcDbEntity
  8
0
  6
Continuous
 62
     7
100
AcDbLine
 10
-37.2499991394745
 20
437.8864874815678
 30
0.0
 11
-37.2499991394745
 21
429.286487481568
 31
0.0
  0
LINE
  5
30F
330
6A
100
AcDbEntity
  8
0
  6
Continuous
 62
     7
100
AcDbLine
 10
-37.2499991394745
 20
437.8864874815678
 30
0.0
 11
-41.2499991394743
 21
437.8864874815678
 31
0.0
  0
LINE
  5
310
330
6A
100
AcDbEntity
  8
0
  6
Continuous
 62
     7
100
AcDbLine
 10
-41.24999913947433
 20
460.3364081536492
 30
0.0
 11
-40.61109528320249
 21
460.5076019259734
 31
0.0
  0
LINE
  5
311
330
6A
100
AcDbEntity
  8
0
  6
Continuous
 62
     7
100
AcDbLine
 10
-38.0110025872752
 20
466.0771174350447
 30
0.0
 11
-39.6480330475499
 21
459.9676365837664
 31
0.0
  0
LINE
  5
312
330
6A
100
AcDbEntity
  8
0
  6
Continuous
 62
     7
100
AcDbLine
 10
-40.68157368167826
 20
460.2445729620261
 30
0.0
 11
-39.6480330475499
 21
459.9676365837664
 31
0.0
  0
LINE
  5
313
330
6A
100
AcDbEntity
  8
0
  6
Continuous
 62
     7
100
AcDbLine
 10
-40.61109528320249
 20
460.5076019259734
 30
0.0
 11
-40.68157368167826
 21
460.2445729620261
 31
0.0
  0
LINE
  5
314
330
6A
100
AcDbEntity
  8
0
  6
Continuous
 62
     7
100
AcDbLine
 10
1.56250086052741
 20
464.3114874815682
 30
0.0
 11
1.56250086052741
 21
465.3814874815681
 31
0.0
  0
LINE
  5
315
330
6A
100
AcDbEntity
  8
0
  6
Continuous
 62
     7
100
AcDbLine
 10
1.56250086052741
 20
465.3814874815681
 30
0.0
 11
1.03460239344041
 21
465.3814874815681
 31
0.0
  0
LINE
  5
316
330
6A
100
AcDbEntity
  8
0
  6
Continuous
 62
     7
100
AcDbLine
 10
3.96881664679391
 20
467.4864874815697
 30
0.0
 11
1.9596552355047
 21
467.4864874815697
 31
0.0
  0
LINE
  5
317
330
6A
100
AcDbEntity
  8
0
  6
Continuous
 62
     7
100
AcDbLine
 10
1.9596552355047
 20
467.4864874815697
 30
0.0
 11
1.03460239344041
 21
465.3814874815681
 31
0.0
  0
LINE
  5
318
330
6A
100
AcDbEntity
  8
0
  6
Continuous
 62
     7
100
AcDbLine
 10
-4.23460067238709
 20
465.3814874815681
 30
0.0
 11
-5.1596535144477
 21
467.4864874815665
 31
0.0
  0
LINE
  5
319
330
6A
100
AcDbEntity
  8
0
  6
Continuous
 62
     7
100
AcDbLine
 10
-6.8314994201681
 20
467.4864874815663
 30
0.0
 11
-5.1596535144477
 21
467.4864874815665
 31
0.0
  0
LINE
  5
31A
330
6A
100
AcDbEntity
  8
0
  6
Continuous
 62
     7
100
AcDbLine
 10
-6.8314994201681
 20
467.4864874815663
 30
0.0
 11
-7.5499991394739
 21
465.7864874815665
 31
0.0
  0
LINE
  5
31B
330
6A
100
AcDbEntity
  8
0
  6
Continuous
 62
     7
100
AcDbLine
 10
-15.5499991394738
 20
465.7864874815664
 30
0.0
 11
-16.26849885875504
 21
467.4864874815696
 31
0.0
  0
LINE
  5
31C
330
6A
100
AcDbEntity
  8
0
  6
Continuous
 62
     7
100
AcDbLine
 10
43.6480347686019
 20
459.9676365837664
 30
0.0
 11
44.6815754027303
 21
460.2445729620262
 31
0.0
  0
LINE
  5
31D
330
6A
100
AcDbEntity
  8
0
  6
Continuous
 62
     7
100
AcDbLine
 10
43.54776652882491
 20
466.5237680372458
 30
0.0
 11
43.2898066311801
 21
467.4864874815697
 31
0.0
  0
LINE
  5
31E
330
6A
100
AcDbEntity
  8
0
  6
Continuous
 62
     7
100
AcDbLine
 10
43.11502334093269
 20
466.0910248493548
 30
0.0
 11
43.04454494245671
 21
466.3540538133043
 31
0.0
  0
LINE
  5
31F
330
6A
100
AcDbEntity
  8
0
  6
Continuous
 62
     7
100
AcDbLine
 10
43.54776652882491
 20
466.5237680372458
 30
0.0
 11
43.11502334093269
 21
466.0910248493548
 31
0.0
  0
LINE
  5
320
330
6A
100
AcDbEntity
  8
0
  6
Continuous
 62
     7
100
AcDbLine
 10
43.04454494245671
 20
466.3540538133043
 30
0.0
 11
42.0110043083272
 21
466.0771174350447
 31
0.0
  0
LINE
  5
321
330
6A
100
AcDbEntity
  8
0
  6
Continuous
 62
     7
100
AcDbLine
 10
44.6815754027303
 20
460.2445729620262
 30
0.0
 11
44.61109700425452
 21
460.5076019259731
 31
0.0
  0
LINE
  5
322
330
6A
100
AcDbEntity
  8
0
  6
Continuous
 62
     7
100
AcDbLine
 10
45.2500008605263
 20
452.4864874815676
 30
0.0
 11
45.2500008605263
 21
460.336408153649
 31
0.0
  0
LINE
  5
323
330
6A
100
AcDbEntity
  8
0
  6
Continuous
 62
     7
100
AcDbLine
 10
45.2500008605263
 20
432.4864874815683
 30
0.0
 11
45.25000086052621
 21
436.4864874815697
 31
0.0
  0
LINE
  5
324
330
6A
100
AcDbEntity
  8
0
  6
Continuous
 62
     7
100
AcDbLine
 10
42.0110043083272
 20
466.0771174350447
 30
0.0
 11
43.6480347686019
 21
459.9676365837664
 31
0.0
  0
LINE
  5
325
330
6A
100
AcDbEntity
  8
0
  6
Continuous
 62
     7
100
AcDbLine
 10
11.00894451365861
 20
425.2864874815681
 30
0.0
 11
13.1836618060546
 21
425.2864874815681
 31
0.0
  0
LINE
  5
326
330
6A
100
AcDbEntity
  8
0
  6
Continuous
 62
     7
100
AcDbLine
 10
24.01881663931131
 20
469.3364874815696
 30
0.0
 11
24.01881663931131
 21
467.4864874815697
 31
0.0
  0
LINE
  5
327
330
6A
100
AcDbEntity
  8
0
  6
Continuous
 62
     7
100
AcDbLine
 10
13.6247451046688
 20
425.3357323652907
 30
0.0
 11
45.2500008605263
 21
432.4864874815683
 31
0.0
  0
ARC
  5
328
330
6A
100
AcDbEntity
  8
0
  6
Continuous
 62
     7
100
AcDbCircle
 10
57.9385784009725
 20
444.4864874815688
 30
0.0
 40
14.99999999999656
100
AcDbArc
 50
147.769047364495
 51
212.2309526355058
  0
ARC
  5
329
330
6A
100
AcDbEntity
  8
0
  6
Continuous
 62
     7
100
AcDbCircle
 10
-21.59785939094104
 20
437.1713086318511
 30
0.0
 40
0.7000000000001834
100
AcDbArc
 50
344.9999999999758
 51
76.79951589351998
  0
ARC
  5
32A
330
6A
100
AcDbEntity
  8
0
  6
Continuous
 62
     7
100
AcDbCircle
 10
-21.66767287904503
 20
437.0864874815683
 30
0.0
 40
0.7999999999999071
100
AcDbArc
 50
73.31671566561909
 51
164.9999999999647
  0
ARC
  5
32B
330
6A
100
AcDbEntity
  8
0
  6
Continuous
 62
     7
100
AcDbCircle
 10
-19.4999991394745
 20
467.4864874815696
 30
0.0
 40
1.450000000000021
100
AcDbArc
 50
0.0
 51
90.0
  0
ARC
  5
32C
330
6A
100
AcDbEntity
  8
0
  6
Continuous
 62
     7
100
AcDbCircle
 10
-19.4999991394745
 20
467.4864874815696
 30
0.0
 40
1.450000000000102
100
AcDbArc
 50
90.0
 51
180.0
  0
ARC
  5
32D
330
6A
100
AcDbEntity
  8
0
  6
Continuous
 62
     7
100
AcDbCircle
 10
-40.34999913947389
 20
428.3864874815681
 30
0.0
 40
0.8999999999998067
100
AcDbArc
 50
89.99999999999955
 51
180.0
  0
ARC
  5
32E
330
6A
100
AcDbEntity
  8
0
  6
Continuous
 62
     7
100
AcDbCircle
 10
-40.34999913947389
 20
428.3864874815681
 30
0.0
 40
0.8999999999999667
100
AcDbArc
 50
311.8103148957284
 51
89.99999999999955
  0
ARC
  5
32F
330
6A
100
AcDbEntity
  8
0
  6
Continuous
 62
     7
100
AcDbCircle
 10
-32.14397181885028
 20
430.8018592698659
 30
0.0
 40
9.499999999998975
100
AcDbArc
 50
324.509676688424
 51
351.4318024382431
  0
ARC
  5
330
330
6A
100
AcDbEntity
  8
0
  6
Continuous
 62
     7
100
AcDbCircle
 10
-54.76850497406937
 20
445.9864874815684
 30
0.0
 40
14.99999999999999
100
AcDbArc
 50
334.3207113805371
 51
25.67928861946273
  0
ARC
  5
331
330
6A
100
AcDbEntity
  8
0
  6
Continuous
 62
     7
100
AcDbCircle
 10
18.7439735399022
 20
430.8018592698659
 30
0.0
 40
9.499999999998966
100
AcDbArc
 50
188.5681975617441
 51
215.4903233115803
  0
ARC
  5
332
330
6A
100
AcDbEntity
  8
0
  6
Continuous
 62
     7
100
AcDbCircle
 10
13.18366180605401
 20
427.2864874815681
 30
0.0
 40
2.0
100
AcDbArc
 50
270.0000000000169
 51
282.74084864618
  0
ENDBLK
  5
6C
330
6A
100
AcDbEntity
  8
0
100
AcDbBlockEnd
  0
BLOCK
  5
6F
330
6D
100
AcDbEntity
  8
0
100
AcDbBlockBegin
  2
Vordans1
 70
     0
 10
1.9999999999995
 20
447.3114880000003
 30
0.0
  3
Vordans1
  1

  0
INSERT
  5
6E
330
6D
100
AcDbEntity
  8
0
100
AcDbBlockReference
  2
ST-4-FSI-C-select__6
 10
-41.2499991394745
 20
425.286487481568
 30
0.0
  0
LINE
  5
333
330
6D
100
AcDbEntity
  8
1
  6
Continuous
 62
     2
100
AcDbLine
 10
-6.8499991394734
 20
433.146870078971
 30
0.0
 11
-6.8499991394734
 21
428.146870078971
 31
0.0
  0
MTEXT
  5
334
330
6D
100
AcDbEntity
  8
1
 62
     6
100
AcDbMText
 10
1.90912704963387
 20
410.0749998452901
 30
0.0
 40
5.0
 41
0.0
 71
     2
 72
     1
  1
 
  7
CONVERTER_11
 73
     1
 44
1.32052821128451
  0
DIMENSION
  5
33F
330
6D
100
AcDbEntity
  8
1
100
AcDbDimension
  2
*D19
 10
-47.9339596996316
 20
467.4864874815696
 30
0.0
 11
-51.3589596996316
 21
448.745720001269
 31
0.0
 70
    32
  1
<>
 71
     5
 42
-1.0
 53
90.0
  3
ME10_DIM_12
100
AcDbAlignedDimension
 13
-22.44999913947423
 23
431.2864874815683
 33
0.0
 14
-20.94999913947451
 24
467.4864874815696
 34
0.0
 50
90.0
100
AcDbRotatedDimension
  0
DIMENSION
  5
34A
330
6D
100
AcDbEntity
  8
1
100
AcDbDimension
  2
*D20
 10
-57.6985725765184
 20
467.4864874815696
 30
0.0
 11
-61.1235725765184
 21
448.7457200012691
 31
0.0
 70
    32
  1
<>
 71
     5
 42
-1.0
 53
90.0
  3
ME10_DIM_13
100
AcDbAlignedDimension
 13
-24.40894279260634
 23
425.2864874815687
 33
0.0
 14
-39.28980491012817
 24
467.4864874815696
 34
0.0
 50
90.0
100
AcDbRotatedDimension
  0
DIMENSION
  5
355
330
6D
100
AcDbEntity
  8
1
100
AcDbDimension
  2
*D21
 10
-65.6985725765184
 20
468.9364874815697
 30
0.0
 11
-69.1235725765184
 21
448.7457200012692
 31
0.0
 70
    32
  1
<>
 71
     5
 42
-1.0
 53
90.0
  3
ME10_DIM_14
100
AcDbAlignedDimension
 13
-24.40894279260634
 23
425.2864874815687
 33
0.0
 14
-19.4999991394745
 24
468.9364874815697
 34
0.0
 50
90.0
100
AcDbRotatedDimension
  0
DIMENSION
  5
360
330
6D
100
AcDbEntity
  8
1
100
AcDbDimension
  2
*D22
 10
45.25000086052629
 20
393.0264863615814
 30
0.0
 11
-2.12723711029919
 21
396.9514863615814
 31
0.0
 70
    32
  1
<>
 71
     5
 42
-1.0
 53
0.00013888888889
  3
ME10_DIM_15
100
AcDbAlignedDimension
 13
-41.24999913947431
 23
452.4864874815698
 33
0.0
 14
45.2500008605263
 24
452.4864874815676
 34
0.0
100
AcDbRotatedDimension
  0
DIMENSION
  5
36B
330
6D
100
AcDbEntity
  8
1
100
AcDbDimension
  2
*D23
 10
-6.8499991394734
 20
403.938551100226
 30
0.0
 11
16.40042791353151
 21
407.863551100226
 31
0.0
 70
    32
  1
<>
 71
     5
 42
-1.0
 53
0.00013888888889
  3
ME10_DIM_16
100
AcDbAlignedDimension
 13
45.2500008605263
 23
452.4864874815676
 33
0.0
 14
-6.8499991394734
 24
428.146870078971
 34
0.0
100
AcDbRotatedDimension
  0
DIMENSION
  5
376
330
6D
100
AcDbEntity
  8
1
100
AcDbDimension
  2
*D24
 10
-6.8499991394734
 20
414.728191319986
 30
0.0
 11
3.32207613200406
 21
418.653191319986
 31
0.0
 70
    32
  1
<>
 71
     5
 42
-1.0
 53
0.00013888888889
  3
ME10_DIM_17
100
AcDbAlignedDimension
 13
10.65000086052621
 23
430.1864874815684
 33
0.0
 14
-6.8499991394734
 24
428.146870078971
 34
0.0
100
AcDbRotatedDimension
  0
ENDBLK
  5
70
330
6D
100
AcDbEntity
  8
0
100
AcDbBlockEnd
  0
BLOCK
  5
72
330
71
100
AcDbEntity
  8
0
100
AcDbBlockBegin
  2
_rahmen
 70
     0
 10
189.1620996651051
 20
297.2126847631527
 30
0.0
  3
_rahmen
  1

  0
LINE
  5
377
330
71
100
AcDbEntity
  8
1
  6
DOT_CENTER
 62
     2
100
AcDbLine
 10
63.60395002491765
 20
323.3376847631527
 30
0.0
 11
69.10395002491765
 21
323.3376847631527
 31
0.0
  0
LINE
  5
378
330
71
100
AcDbEntity
  8
1
  6
PHANTOM
 62
     2
100
AcDbLine
 10
72.35395002491765
 20
326.0876847631527
 30
0.0
 11
72.35395002491765
 21
320.5876847631527
 31
0.0
  0
LINE
  5
379
330
71
100
AcDbEntity
  8
1
  6
PHANTOM
 62
     2
100
AcDbLine
 10
75.10395002491765
 20
323.3376847631527
 30
0.0
 11
69.60395002491765
 21
323.3376847631527
 31
0.0
  0
LINE
  5
37A
330
71
100
AcDbEntity
  8
1
  6
Continuous
 62
     7
100
AcDbLine
 10
123.9172951383551
 20
310.7126847631527
 30
0.0
 11
123.9172951383551
 21
319.2126847631528
 31
0.0
  0
LINE
  5
37B
330
71
100
AcDbEntity
  8
1
  6
Continuous
 62
     6
100
AcDbLine
 10
96.01729513835497
 20
319.2126847631528
 30
0.0
 11
189.1620996651068
 21
319.2126847631528
 31
0.0
  0
LINE
  5
37C
330
71
100
AcDbEntity
  8
1
  6
Continuous
 62
     7
100
AcDbLine
 10
59.61729513835505
 20
319.2126847631528
 30
0.0
 11
59.61729513835505
 21
327.7126847631528
 31
0.0
  0
LINE
  5
37D
330
71
100
AcDbEntity
  8
1
  6
Continuous
 62
     7
100
AcDbLine
 10
96.01729513835497
 20
319.2126847631528
 30
0.0
 11
96.01729513835497
 21
327.7126847631528
 31
0.0
  0
LINE
  5
37E
330
71
100
AcDbEntity
  8
1
  6
Continuous
 62
     7
100
AcDbLine
 10
153.7436913834279
 20
327.7126847631528
 30
0.0
 11
153.7436913834279
 21
319.2126847631528
 31
0.0
  0
LINE
  5
37F
330
71
100
AcDbEntity
  8
1
  6
Continuous
 62
     7
100
AcDbLine
 10
180.2436913834276
 20
327.7126847631528
 30
0.0
 11
180.2436913834276
 21
319.2126847631528
 31
0.0
  0
LINE
  5
380
330
71
100
AcDbEntity
  8
1
  6
Continuous
 62
     6
100
AcDbLine
 10
-9.38270486164492
 20
302.2126847631528
 30
0.0
 11
-54.33790033489493
 21
302.2126847631528
 31
0.0
  0
LINE
  5
381
330
71
100
AcDbEntity
  8
1
  6
Continuous
 62
     7
100
AcDbLine
 10
189.1620996651064
 20
310.7126847631528
 30
0.0
 11
96.01729513835497
 21
310.7126847631528
 31
0.0
  0
LINE
  5
382
102
{ACAD_REACTORS
330
494
330
495
102
}
330
71
100
AcDbEntity
  8
0
  6
Continuous
 62
     2
100
AcDbLine
 10
73.32472408012245
 20
311.5129738788161
 30
0.0
 11
73.32472408012245
 21
312.3854908856193
 31
0.0
  0
LINE
  5
383
102
{ACAD_REACTORS
330
494
330
495
102
}
330
71
100
AcDbEntity
  8
0
  6
Continuous
 62
     2
100
AcDbLine
 10
73.32472408012245
 20
310.5532051713332
 30
0.0
 11
73.32472408012245
 21
309.68068816453
 31
0.0
  0
LINE
  5
384
102
{ACAD_REACTORS
330
496
330
497
102
}
330
71
100
AcDbEntity
  8
0
  6
Continuous
 62
     2
100
AcDbLine
 10
88.65776821641296
 20
311.7747289808566
 30
0.0
 11
89.76140751598106
 21
311.7747289808566
 31
0.0
  0
LINE
  5
385
102
{ACAD_REACTORS
330
496
330
497
102
}
330
71
100
AcDbEntity
  8
0
  6
Continuous
 62
     2
100
AcDbLine
 10
89.42742555937437
 20
310.5532051713327
 30
0.0
 11
89.42742555937437
 21
309.6806881645293
 31
0.0
  0
LINE
  5
386
102
{ACAD_REACTORS
330
4A0
330
4A1
102
}
330
71
100
AcDbEntity
  8
0
  6
Continuous
 62
     2
100
AcDbLine
 10
87.56666894399444
 20
312.8653752393434
 30
0.0
 11
88.96462199093475
 21
314.4462342331184
 31
0.0
  0
LINE
  5
387
102
{ACAD_REACTORS
330
4A0
330
4A1
102
}
330
71
100
AcDbEntity
  8
0
  6
Continuous
 62
     2
100
AcDbLine
 10
87.66209236016726
 20
315.9191847631546
 30
0.0
 11
88.96462199093475
 21
314.4462342331184
 31
0.0
  0
LINE
  5
388
102
{ACAD_REACTORS
330
4A0
330
4A1
102
}
330
71
100
AcDbEntity
  8
0
  6
Continuous
 62
     2
100
AcDbLine
 10
90.26715162170115
 20
315.9191847631546
 30
0.0
 11
91.66987583944837
 21
315.9191847631546
 31
0.0
  0
LINE
  5
389
102
{ACAD_REACTORS
330
4A0
330
4A1
102
}
330
71
100
AcDbEntity
  8
0
  6
Continuous
 62
     2
100
AcDbLine
 10
88.96939316174266
 20
312.8653752393434
 30
0.0
 11
89.66598409980836
 21
313.6531070246371
 31
0.0
  0
LINE
  5
38A
102
{ACAD_REACTORS
330
4A0
330
4A1
102
}
330
71
100
AcDbEntity
  8
0
  6
Continuous
 62
     2
100
AcDbLine
 10
88.96939316174266
 20
312.8653752393434
 30
0.0
 11
87.56666894399444
 21
312.8653752393434
 31
0.0
  0
LINE
  5
38B
102
{ACAD_REACTORS
330
4A2
330
4A3
102
}
330
71
100
AcDbEntity
  8
0
  6
Continuous
 62
     2
100
AcDbLine
 10
87.44738967377756
 20
312.8653752393434
 30
0.0
 11
86.20688526352467
 21
312.8653752393434
 31
0.0
  0
LINE
  5
38C
102
{ACAD_REACTORS
330
4A4
330
4A5
102
}
330
71
100
AcDbEntity
  8
0
  6
Continuous
 62
     2
100
AcDbLine
 10
85.33890565536956
 20
310.7277085726936
 30
0.0
 11
85.03874041817946
 21
311.4955235386802
 31
0.0
  0
LINE
  5
38D
102
{ACAD_REACTORS
330
4A4
330
4A5
102
}
330
71
100
AcDbEntity
  8
0
  6
Continuous
 62
     2
100
AcDbLine
 10
84.73857518098706
 20
310.7277085726936
 30
0.0
 11
85.33890565536956
 21
310.7277085726936
 31
0.0
  0
LINE
  5
38E
102
{ACAD_REACTORS
330
4A4
330
4A5
102
}
330
71
100
AcDbEntity
  8
0
  6
Continuous
 62
     2
100
AcDbLine
 10
83.02053516611326
 20
309.5061847631691
 30
0.0
 11
84.26103957636624
 21
309.5061847631691
 31
0.0
  0
LINE
  5
38F
102
{ACAD_REACTORS
330
4A4
330
4A5
102
}
330
71
100
AcDbEntity
  8
0
  6
Continuous
 62
     2
100
AcDbLine
 10
84.41848821305257
 20
312.5599942869802
 30
0.0
 11
85.65899262330527
 21
312.5599942869802
 31
0.0
  0
LINE
  5
390
102
{ACAD_REACTORS
330
4A4
330
4A5
102
}
330
71
100
AcDbEntity
  8
0
  6
Continuous
 62
     2
100
AcDbLine
 10
85.65899262330527
 20
312.5599942869802
 30
0.0
 11
87.05694567024557
 21
309.5061847631691
 31
0.0
  0
LINE
  5
391
102
{ACAD_REACTORS
330
4A4
330
4A5
102
}
330
71
100
AcDbEntity
  8
0
  6
Continuous
 62
     2
100
AcDbLine
 10
85.81644125999165
 20
309.5061847631691
 30
0.0
 11
85.60496120651587
 21
310.0471453073869
 31
0.0
  0
LINE
  5
392
102
{ACAD_REACTORS
330
4A6
330
4A7
102
}
330
71
100
AcDbEntity
  8
0
  6
Continuous
 62
     2
100
AcDbLine
 10
81.67412206440565
 20
309.5061847631691
 30
0.0
 11
82.86691476657217
 21
309.5061847631691
 31
0.0
  0
LINE
  5
393
102
{ACAD_REACTORS
330
4A6
330
4A7
102
}
330
71
100
AcDbEntity
  8
0
  6
Continuous
 62
     2
100
AcDbLine
 10
81.67412206440565
 20
311.7747289808566
 30
0.0
 11
81.67412206440565
 21
309.5061847631691
 31
0.0
  0
LINE
  5
394
102
{ACAD_REACTORS
330
4A6
330
4A7
102
}
330
71
100
AcDbEntity
  8
0
  6
Continuous
 62
     2
100
AcDbLine
 10
80.86302302693105
 20
312.5599942869802
 30
0.0
 11
80.86302302693105
 21
311.7747289808566
 31
0.0
  0
LINE
  5
395
102
{ACAD_REACTORS
330
4A8
330
4A9
102
}
330
71
100
AcDbEntity
  8
0
  6
Continuous
 62
     2
100
AcDbLine
 10
82.34223690850365
 20
312.8653752393434
 30
0.0
 11
83.53502961067016
 21
312.8653752393434
 31
0.0
  0
LINE
  5
396
102
{ACAD_REACTORS
330
4A8
330
4A9
102
}
330
71
100
AcDbEntity
  8
0
  6
Continuous
 62
     2
100
AcDbLine
 10
84.77553402092417
 20
314.6104092529494
 30
0.0
 11
83.53502961067016
 21
315.9191847631546
 31
0.0
  0
LINE
  5
397
102
{ACAD_REACTORS
330
4A8
330
4A9
102
}
330
71
100
AcDbEntity
  8
0
  6
Continuous
 62
     2
100
AcDbLine
 10
85.96832672309077
 20
315.9191847631546
 30
0.0
 11
84.77553402092417
 21
315.9191847631546
 31
0.0
  0
LINE
  5
398
102
{ACAD_REACTORS
330
4A8
330
4A9
102
}
330
71
100
AcDbEntity
  8
0
  6
Continuous
 62
     2
100
AcDbLine
 10
85.96832672309077
 20
312.8653752393434
 30
0.0
 11
85.96832672309077
 21
315.9191847631546
 31
0.0
  0
LINE
  5
399
102
{ACAD_REACTORS
330
4A8
330
4A9
102
}
330
71
100
AcDbEntity
  8
0
  6
Continuous
 62
     2
100
AcDbLine
 10
84.77553402092417
 20
312.8653752393434
 30
0.0
 11
85.96832672309077
 21
312.8653752393434
 31
0.0
  0
LINE
  5
39A
102
{ACAD_REACTORS
330
4A8
330
4A9
102
}
330
71
100
AcDbEntity
  8
0
  6
Continuous
 62
     2
100
AcDbLine
 10
83.53502961067016
 20
314.1741507495481
 30
0.0
 11
84.77553402092417
 21
312.8653752393434
 31
0.0
  0
LINE
  5
39B
102
{ACAD_REACTORS
330
4AA
330
4AB
102
}
330
71
100
AcDbEntity
  8
0
  6
Continuous
 62
     2
100
AcDbLine
 10
79.52709520050445
 20
311.2512187767751
 30
0.0
 11
78.28659079025155
 21
312.5599942869802
 31
0.0
  0
LINE
  5
39C
102
{ACAD_REACTORS
330
4AA
330
4AB
102
}
330
71
100
AcDbEntity
  8
0
  6
Continuous
 62
     2
100
AcDbLine
 10
79.52709520050445
 20
312.5599942869802
 30
0.0
 11
79.52709520050445
 21
311.2512187767751
 31
0.0
  0
LINE
  5
39D
102
{ACAD_REACTORS
330
4AA
330
4AB
102
}
330
71
100
AcDbEntity
  8
0
  6
Continuous
 62
     2
100
AcDbLine
 10
80.71988790267085
 20
312.5599942869802
 30
0.0
 11
79.52709520050445
 21
312.5599942869802
 31
0.0
  0
LINE
  5
39E
102
{ACAD_REACTORS
330
4AA
330
4AB
102
}
330
71
100
AcDbEntity
  8
0
  6
Continuous
 62
     2
100
AcDbLine
 10
80.71988790267085
 20
309.5061847631691
 30
0.0
 11
80.71988790267085
 21
312.5599942869802
 31
0.0
  0
LINE
  5
39F
102
{ACAD_REACTORS
330
4AA
330
4AB
102
}
330
71
100
AcDbEntity
  8
0
  6
Continuous
 62
     2
100
AcDbLine
 10
78.28659079025155
 20
310.8149602733737
 30
0.0
 11
79.52709520050445
 21
309.5061847631691
 31
0.0
  0
LINE
  5
3A0
102
{ACAD_REACTORS
330
4AA
330
4AB
102
}
330
71
100
AcDbEntity
  8
0
  6
Continuous
 62
     2
100
AcDbLine
 10
78.28659079025155
 20
309.5061847631691
 30
0.0
 11
78.28659079025155
 21
310.8149602733737
 31
0.0
  0
LINE
  5
3A1
102
{ACAD_REACTORS
330
49A
330
49B
102
}
330
71
100
AcDbEntity
  8
0
  6
Continuous
 62
     2
100
AcDbLine
 10
80.76775054164307
 20
315.2211711577116
 30
0.0
 11
82.10367836807075
 21
315.2211711577116
 31
0.0
  0
LINE
  5
3A2
102
{ACAD_REACTORS
330
49A
330
49B
102
}
330
71
100
AcDbEntity
  8
0
  6
Continuous
 62
     2
100
AcDbLine
 10
80.76775054164307
 20
313.5633888447859
 30
0.0
 11
80.76775054164307
 21
314.0432731985276
 31
0.0
  0
LINE
  5
3A3
102
{ACAD_REACTORS
330
49A
330
49B
102
}
330
71
100
AcDbEntity
  8
0
  6
Continuous
 62
     2
100
AcDbLine
 10
82.10367836807075
 20
313.5633888447859
 30
0.0
 11
80.76775054164307
 21
313.5633888447859
 31
0.0
  0
LINE
  5
3A4
102
{ACAD_REACTORS
330
49A
330
49B
102
}
330
71
100
AcDbEntity
  8
0
  6
Continuous
 62
     2
100
AcDbLine
 10
82.10367836807075
 20
312.8653752393434
 30
0.0
 11
82.10367836807075
 21
313.5633888447859
 31
0.0
  0
LINE
  5
3A5
102
{ACAD_REACTORS
330
49A
330
49B
102
}
330
71
100
AcDbEntity
  8
0
  6
Continuous
 62
     2
100
AcDbLine
 10
78.95335864428975
 20
312.8653752393434
 30
0.0
 11
82.10367836807075
 21
312.8653752393434
 31
0.0
  0
LINE
  5
3A6
102
{ACAD_REACTORS
330
49A
330
49B
102
}
330
71
100
AcDbEntity
  8
0
  6
Continuous
 62
     2
100
AcDbLine
 10
78.95335864428975
 20
315.9191847631546
 30
0.0
 11
82.10367836807075
 21
315.9191847631546
 31
0.0
  0
LINE
  5
3A7
102
{ACAD_REACTORS
330
49A
330
49B
102
}
330
71
100
AcDbEntity
  8
0
  6
Continuous
 62
     2
100
AcDbLine
 10
82.10367836807075
 20
315.2211711577116
 30
0.0
 11
82.10367836807075
 21
315.9191847631546
 31
0.0
  0
LINE
  5
3A8
102
{ACAD_REACTORS
330
4AC
330
4AD
102
}
330
71
100
AcDbEntity
  8
0
  6
Continuous
 62
     2
100
AcDbLine
 10
76.09200314914975
 20
314.85035142982
 30
0.0
 11
76.09200314914975
 21
315.9191847631546
 31
0.0
  0
LINE
  5
3A9
102
{ACAD_REACTORS
330
4AC
330
4AD
102
}
330
71
100
AcDbEntity
  8
0
  6
Continuous
 62
     2
100
AcDbLine
 10
76.09200314914975
 20
315.9191847631546
 30
0.0
 11
77.28479585131615
 21
315.9191847631546
 31
0.0
  0
LINE
  5
3AA
102
{ACAD_REACTORS
330
4AC
330
4AD
102
}
330
71
100
AcDbEntity
  8
0
  6
Continuous
 62
     2
100
AcDbLine
 10
76.09200314914975
 20
313.9996473481872
 30
0.0
 11
75.04234557124227
 21
313.9996473481872
 31
0.0
  0
LINE
  5
3AB
102
{ACAD_REACTORS
330
4AC
330
4AD
102
}
330
71
100
AcDbEntity
  8
0
  6
Continuous
 62
     2
100
AcDbLine
 10
75.04234557124227
 20
313.9996473481872
 30
0.0
 11
75.04234557124227
 21
312.8653752393434
 31
0.0
  0
LINE
  5
3AC
102
{ACAD_REACTORS
330
4AC
330
4AD
102
}
330
71
100
AcDbEntity
  8
0
  6
Continuous
 62
     2
100
AcDbLine
 10
73.84955286907567
 20
315.9191847631546
 30
0.0
 11
73.84955286907567
 21
312.8653752393434
 31
0.0
  0
LINE
  5
3AD
102
{ACAD_REACTORS
330
49E
330
49F
102
}
330
71
100
AcDbEntity
  8
0
  6
Continuous
 62
     2
100
AcDbLine
 10
71.89337283752207
 20
314.5503512683723
 30
0.0
 11
71.89337283752207
 21
315.2560789177145
 31
0.0
  0
LINE
  5
3AE
102
{ACAD_REACTORS
330
49E
330
49F
102
}
330
71
100
AcDbEntity
  8
0
  6
Continuous
 62
     2
100
AcDbLine
 10
70.65286842726795
 20
312.8653752393434
 30
0.0
 11
71.89337283752207
 21
312.8653752393434
 31
0.0
  0
LINE
  5
3AF
102
{ACAD_REACTORS
330
49E
330
49F
102
}
330
71
100
AcDbEntity
  8
0
  6
Continuous
 62
     2
100
AcDbLine
 10
71.89337283752207
 20
312.8653752393434
 30
0.0
 11
71.89337283752207
 21
313.8084534804872
 31
0.0
  0
LINE
  5
3B0
102
{ACAD_REACTORS
330
498
330
499
102
}
330
71
100
AcDbEntity
  8
0
  6
Continuous
 62
     2
100
AcDbLine
 10
66.34792257805657
 20
310.218740318726
 30
0.0
 11
64.87208931704694
 21
310.218740318726
 31
0.0
  0
LINE
  5
3B1
102
{ACAD_REACTORS
330
498
330
499
102
}
330
71
100
AcDbEntity
  8
0
  6
Continuous
 62
     2
100
AcDbLine
 10
63.85395002491765
 20
315.4949401477526
 30
0.0
 11
63.85395002491765
 21
309.9304293785524
 31
0.0
  0
LINE
  5
3B2
102
{ACAD_REACTORS
330
498
330
499
102
}
330
71
100
AcDbEntity
  8
0
  6
Continuous
 62
     2
100
AcDbLine
 10
64.27819464030046
 20
315.9191847631364
 30
0.0
 11
69.75150673101726
 21
315.9191847631364
 31
0.0
  0
LINE
  5
3B3
102
{ACAD_REACTORS
330
498
330
499
102
}
330
71
100
AcDbEntity
  8
0
  6
Continuous
 62
     2
100
AcDbLine
 10
70.17575134640114
 20
315.4949401477526
 30
0.0
 11
70.17575134640114
 21
309.9304293785524
 31
0.0
  0
LINE
  5
3B4
102
{ACAD_REACTORS
330
498
330
499
102
}
330
71
100
AcDbEntity
  8
0
  6
Continuous
 62
     2
100
AcDbLine
 10
69.75150673101726
 20
309.5061847631691
 30
0.0
 11
64.27819464030046
 21
309.5061847631691
 31
0.0
  0
LINE
  5
3B5
102
{ACAD_REACTORS
330
498
330
499
102
}
330
71
100
AcDbEntity
  8
0
  6
Continuous
 62
     2
100
AcDbLine
 10
66.66363950113316
 20
310.5344572418027
 30
0.0
 11
66.66363950113316
 21
312.0652281733343
 31
0.0
  0
LINE
  5
3B6
102
{ACAD_REACTORS
330
498
330
499
102
}
330
71
100
AcDbEntity
  8
0
  6
Continuous
 62
     2
100
AcDbLine
 10
66.66363950113316
 20
314.2868876654593
 30
0.0
 11
66.66363950113316
 21
314.8909122845198
 31
0.0
  0
LINE
  5
3B7
102
{ACAD_REACTORS
330
498
330
499
102
}
330
71
100
AcDbEntity
  8
0
  6
Continuous
 62
     2
100
AcDbLine
 10
64.87208931704694
 20
315.2066292075959
 30
0.0
 11
66.34792257805657
 21
315.2066292075959
 31
0.0
  0
LINE
  5
3B8
102
{ACAD_REACTORS
330
498
330
499
102
}
330
71
100
AcDbEntity
  8
0
  6
Continuous
 62
     2
100
AcDbLine
 10
64.55637239397126
 20
314.8909122845198
 30
0.0
 11
64.55637239397126
 21
310.5344572418027
 31
0.0
  0
LINE
  5
3B9
102
{ACAD_REACTORS
330
49E
330
49F
102
}
330
71
100
AcDbEntity
  8
0
  6
Continuous
 62
     2
100
AcDbLine
 10
71.89337283752207
 20
313.8084534804872
 30
0.0
 11
72.65214042530235
 21
313.8084534804872
 31
0.0
  0
LINE
  5
3BA
102
{ACAD_REACTORS
330
49E
330
49F
102
}
330
71
100
AcDbEntity
  8
0
  6
Continuous
 62
     2
100
AcDbLine
 10
70.65286842726795
 20
315.9191847631546
 30
0.0
 11
72.65214042530235
 21
315.9191847631546
 31
0.0
  0
LINE
  5
3BB
102
{ACAD_REACTORS
330
49E
330
49F
102
}
330
71
100
AcDbEntity
  8
0
  6
Continuous
 62
     2
100
AcDbLine
 10
70.65286842726795
 20
315.9191847631546
 30
0.0
 11
70.65286842726795
 21
312.8653752393434
 31
0.0
  0
LINE
  5
3BC
102
{ACAD_REACTORS
330
49E
330
49F
102
}
330
71
100
AcDbEntity
  8
0
  6
Continuous
 62
     2
100
AcDbLine
 10
71.89337283752207
 20
314.5503512683723
 30
0.0
 11
72.21066789906396
 21
314.5503512683723
 31
0.0
  0
LINE
  5
3BD
102
{ACAD_REACTORS
330
49E
330
49F
102
}
330
71
100
AcDbEntity
  8
0
  6
Continuous
 62
     2
100
AcDbLine
 10
71.89337283752207
 20
315.2560789177145
 30
0.0
 11
72.21066789906396
 21
315.2560789177145
 31
0.0
  0
LINE
  5
3BE
102
{ACAD_REACTORS
330
4AC
330
4AD
102
}
330
71
100
AcDbEntity
  8
0
  6
Continuous
 62
     2
100
AcDbLine
 10
75.04234557124227
 20
314.85035142982
 30
0.0
 11
76.09200314914975
 21
314.85035142982
 31
0.0
  0
LINE
  5
3BF
102
{ACAD_REACTORS
330
4AC
330
4AD
102
}
330
71
100
AcDbEntity
  8
0
  6
Continuous
 62
     2
100
AcDbLine
 10
75.04234557124227
 20
315.9191847631546
 30
0.0
 11
75.04234557124227
 21
314.85035142982
 31
0.0
  0
LINE
  5
3C0
102
{ACAD_REACTORS
330
4AC
330
4AD
102
}
330
71
100
AcDbEntity
  8
0
  6
Continuous
 62
     2
100
AcDbLine
 10
73.84955286907567
 20
315.9191847631546
 30
0.0
 11
75.04234557124227
 21
315.9191847631546
 31
0.0
  0
LINE
  5
3C1
102
{ACAD_REACTORS
330
4AC
330
4AD
102
}
330
71
100
AcDbEntity
  8
0
  6
Continuous
 62
     2
100
AcDbLine
 10
75.04234557124227
 20
312.8653752393434
 30
0.0
 11
73.84955286907567
 21
312.8653752393434
 31
0.0
  0
LINE
  5
3C2
102
{ACAD_REACTORS
330
4AC
330
4AD
102
}
330
71
100
AcDbEntity
  8
0
  6
Continuous
 62
     2
100
AcDbLine
 10
76.09200314914975
 20
312.8653752393434
 30
0.0
 11
76.09200314914975
 21
313.9996473481872
 31
0.0
  0
LINE
  5
3C3
102
{ACAD_REACTORS
330
4AC
330
4AD
102
}
330
71
100
AcDbEntity
  8
0
  6
Continuous
 62
     2
100
AcDbLine
 10
77.28479585131615
 20
312.8653752393434
 30
0.0
 11
76.09200314914975
 21
312.8653752393434
 31
0.0
  0
LINE
  5
3C4
102
{ACAD_REACTORS
330
4AC
330
4AD
102
}
330
71
100
AcDbEntity
  8
0
  6
Continuous
 62
     2
100
AcDbLine
 10
77.28479585131615
 20
315.9191847631546
 30
0.0
 11
77.28479585131615
 21
312.8653752393434
 31
0.0
  0
LINE
  5
3C5
102
{ACAD_REACTORS
330
49A
330
49B
102
}
330
71
100
AcDbEntity
  8
0
  6
Continuous
 62
     2
100
AcDbLine
 10
80.76775054164307
 20
314.0432731985276
 30
0.0
 11
82.10367836807075
 21
314.0432731985276
 31
0.0
  0
LINE
  5
3C6
102
{ACAD_REACTORS
330
49A
330
49B
102
}
330
71
100
AcDbEntity
  8
0
  6
Continuous
 62
     2
100
AcDbLine
 10
82.10367836807075
 20
314.0432731985276
 30
0.0
 11
82.10367836807075
 21
314.7412868039698
 31
0.0
  0
LINE
  5
3C7
102
{ACAD_REACTORS
330
49A
330
49B
102
}
330
71
100
AcDbEntity
  8
0
  6
Continuous
 62
     2
100
AcDbLine
 10
82.10367836807075
 20
314.7412868039698
 30
0.0
 11
80.76775054164307
 21
314.7412868039698
 31
0.0
  0
LINE
  5
3C8
102
{ACAD_REACTORS
330
49A
330
49B
102
}
330
71
100
AcDbEntity
  8
0
  6
Continuous
 62
     2
100
AcDbLine
 10
80.76775054164307
 20
314.7412868039698
 30
0.0
 11
80.76775054164307
 21
315.2211711577116
 31
0.0
  0
LINE
  5
3C9
102
{ACAD_REACTORS
330
4AA
330
4AB
102
}
330
71
100
AcDbEntity
  8
0
  6
Continuous
 62
     2
100
AcDbLine
 10
77.09379808808396
 20
309.5061847631691
 30
0.0
 11
78.28659079025155
 21
309.5061847631691
 31
0.0
  0
LINE
  5
3CA
102
{ACAD_REACTORS
330
4AA
330
4AB
102
}
330
71
100
AcDbEntity
  8
0
  6
Continuous
 62
     2
100
AcDbLine
 10
79.52709520050445
 20
309.5061847631691
 30
0.0
 11
80.71988790267085
 21
309.5061847631691
 31
0.0
  0
LINE
  5
3CB
102
{ACAD_REACTORS
330
4AA
330
4AB
102
}
330
71
100
AcDbEntity
  8
0
  6
Continuous
 62
     2
100
AcDbLine
 10
78.28659079025155
 20
312.5599942869802
 30
0.0
 11
77.09379808808396
 21
312.5599942869802
 31
0.0
  0
LINE
  5
3CC
102
{ACAD_REACTORS
330
4AA
330
4AB
102
}
330
71
100
AcDbEntity
  8
0
  6
Continuous
 62
     2
100
AcDbLine
 10
77.09379808808396
 20
312.5599942869802
 30
0.0
 11
77.09379808808396
 21
309.5061847631691
 31
0.0
  0
LINE
  5
3CD
102
{ACAD_REACTORS
330
4A8
330
4A9
102
}
330
71
100
AcDbEntity
  8
0
  6
Continuous
 62
     2
100
AcDbLine
 10
84.77553402092417
 20
315.9191847631546
 30
0.0
 11
84.77553402092417
 21
314.6104092529494
 31
0.0
  0
LINE
  5
3CE
102
{ACAD_REACTORS
330
4A8
330
4A9
102
}
330
71
100
AcDbEntity
  8
0
  6
Continuous
 62
     2
100
AcDbLine
 10
83.53502961067016
 20
315.9191847631546
 30
0.0
 11
82.34223690850365
 21
315.9191847631546
 31
0.0
  0
LINE
  5
3CF
102
{ACAD_REACTORS
330
4A8
330
4A9
102
}
330
71
100
AcDbEntity
  8
0
  6
Continuous
 62
     2
100
AcDbLine
 10
82.34223690850365
 20
315.9191847631546
 30
0.0
 11
82.34223690850365
 21
312.8653752393434
 31
0.0
  0
LINE
  5
3D0
102
{ACAD_REACTORS
330
4A8
330
4A9
102
}
330
71
100
AcDbEntity
  8
0
  6
Continuous
 62
     2
100
AcDbLine
 10
83.53502961067016
 20
312.8653752393434
 30
0.0
 11
83.53502961067016
 21
314.1741507495481
 31
0.0
  0
LINE
  5
3D1
102
{ACAD_REACTORS
330
4A6
330
4A7
102
}
330
71
100
AcDbEntity
  8
0
  6
Continuous
 62
     2
100
AcDbLine
 10
82.86691476657217
 20
309.5061847631691
 30
0.0
 11
82.86691476657217
 21
311.7747289808566
 31
0.0
  0
LINE
  5
3D2
102
{ACAD_REACTORS
330
4A6
330
4A7
102
}
330
71
100
AcDbEntity
  8
0
  6
Continuous
 62
     2
100
AcDbLine
 10
82.86691476657217
 20
311.7747289808566
 30
0.0
 11
83.67801380404467
 21
311.7747289808566
 31
0.0
  0
LINE
  5
3D3
102
{ACAD_REACTORS
330
4A6
330
4A7
102
}
330
71
100
AcDbEntity
  8
0
  6
Continuous
 62
     2
100
AcDbLine
 10
83.67801380404467
 20
311.7747289808566
 30
0.0
 11
83.67801380404467
 21
312.5599942869802
 31
0.0
  0
LINE
  5
3D4
102
{ACAD_REACTORS
330
4A6
330
4A7
102
}
330
71
100
AcDbEntity
  8
0
  6
Continuous
 62
     2
100
AcDbLine
 10
83.67801380404467
 20
312.5599942869802
 30
0.0
 11
80.86302302693105
 21
312.5599942869802
 31
0.0
  0
LINE
  5
3D5
102
{ACAD_REACTORS
330
4A6
330
4A7
102
}
330
71
100
AcDbEntity
  8
0
  6
Continuous
 62
     2
100
AcDbLine
 10
80.86302302693105
 20
311.7747289808566
 30
0.0
 11
81.67412206440565
 21
311.7747289808566
 31
0.0
  0
LINE
  5
3D6
102
{ACAD_REACTORS
330
4A4
330
4A5
102
}
330
71
100
AcDbEntity
  8
0
  6
Continuous
 62
     2
100
AcDbLine
 10
84.47251962984205
 20
310.0471453073869
 30
0.0
 11
85.60496120651587
 21
310.0471453073869
 31
0.0
  0
LINE
  5
3D7
102
{ACAD_REACTORS
330
4A4
330
4A5
102
}
330
71
100
AcDbEntity
  8
0
  6
Continuous
 62
     2
100
AcDbLine
 10
87.05694567024557
 20
309.5061847631691
 30
0.0
 11
85.81644125999165
 21
309.5061847631691
 31
0.0
  0
LINE
  5
3D8
102
{ACAD_REACTORS
330
4A4
330
4A5
102
}
330
71
100
AcDbEntity
  8
0
  6
Continuous
 62
     2
100
AcDbLine
 10
84.41848821305257
 20
312.5599942869802
 30
0.0
 11
83.02053516611326
 21
309.5061847631691
 31
0.0
  0
LINE
  5
3D9
102
{ACAD_REACTORS
330
4A4
330
4A5
102
}
330
71
100
AcDbEntity
  8
0
  6
Continuous
 62
     2
100
AcDbLine
 10
84.26103957636624
 20
309.5061847631691
 30
0.0
 11
84.47251962984205
 21
310.0471453073869
 31
0.0
  0
LINE
  5
3DA
102
{ACAD_REACTORS
330
4A4
330
4A5
102
}
330
71
100
AcDbEntity
  8
0
  6
Continuous
 62
     2
100
AcDbLine
 10
84.73857518098706
 20
310.7277085726936
 30
0.0
 11
85.03874041817946
 21
311.4955235386802
 31
0.0
  0
LINE
  5
3DB
102
{ACAD_REACTORS
330
4A2
330
4A3
102
}
330
71
100
AcDbEntity
  8
0
  6
Continuous
 62
     2
100
AcDbLine
 10
86.20688526352467
 20
312.8653752393434
 30
0.0
 11
86.20688526352467
 21
315.9191847631546
 31
0.0
  0
LINE
  5
3DC
102
{ACAD_REACTORS
330
4A2
330
4A3
102
}
330
71
100
AcDbEntity
  8
0
  6
Continuous
 62
     2
100
AcDbLine
 10
87.44738967377756
 20
315.9191847631546
 30
0.0
 11
87.44738967377756
 21
312.8653752393434
 31
0.0
  0
LINE
  5
3DD
102
{ACAD_REACTORS
330
4A2
330
4A3
102
}
330
71
100
AcDbEntity
  8
0
  6
Continuous
 62
     2
100
AcDbLine
 10
86.20688526352467
 20
315.9191847631546
 30
0.0
 11
87.44738967377756
 21
315.9191847631546
 31
0.0
  0
LINE
  5
3DE
102
{ACAD_REACTORS
330
4A0
330
4A1
102
}
330
71
100
AcDbEntity
  8
0
  6
Continuous
 62
     2
100
AcDbLine
 10
89.66598409980836
 20
313.6531070246371
 30
0.0
 11
90.36257503787385
 21
312.8653752393434
 31
0.0
  0
LINE
  5
3DF
102
{ACAD_REACTORS
330
4A0
330
4A1
102
}
330
71
100
AcDbEntity
  8
0
  6
Continuous
 62
     2
100
AcDbLine
 10
90.36257503787385
 20
312.8653752393434
 30
0.0
 11
91.76529925562215
 21
312.8653752393434
 31
0.0
  0
LINE
  5
3E0
102
{ACAD_REACTORS
330
4A0
330
4A1
102
}
330
71
100
AcDbEntity
  8
0
  6
Continuous
 62
     2
100
AcDbLine
 10
90.36734620868185
 20
314.4462342331184
 30
0.0
 11
91.76529925562215
 21
312.8653752393434
 31
0.0
  0
LINE
  5
3E1
102
{ACAD_REACTORS
330
4A0
330
4A1
102
}
330
71
100
AcDbEntity
  8
0
  6
Continuous
 62
     2
100
AcDbLine
 10
90.36734620868185
 20
314.4462342331184
 30
0.0
 11
91.66987583944837
 21
315.9191847631546
 31
0.0
  0
LINE
  5
3E2
102
{ACAD_REACTORS
330
4A0
330
4A1
102
}
330
71
100
AcDbEntity
  8
0
  6
Continuous
 62
     2
100
AcDbLine
 10
89.66598409980836
 20
315.239361441599
 30
0.0
 11
90.26715162170115
 21
315.9191847631546
 31
0.0
  0
LINE
  5
3E3
102
{ACAD_REACTORS
330
4A0
330
4A1
102
}
330
71
100
AcDbEntity
  8
0
  6
Continuous
 62
     2
100
AcDbLine
 10
89.06481657791656
 20
315.9191847631546
 30
0.0
 11
89.66598409980836
 21
315.239361441599
 31
0.0
  0
LINE
  5
3E4
102
{ACAD_REACTORS
330
4A0
330
4A1
102
}
330
71
100
AcDbEntity
  8
0
  6
Continuous
 62
     2
100
AcDbLine
 10
89.06481657791656
 20
315.9191847631546
 30
0.0
 11
87.66209236016726
 21
315.9191847631546
 31
0.0
  0
LINE
  5
3E5
102
{ACAD_REACTORS
330
496
330
497
102
}
330
71
100
AcDbEntity
  8
0
  6
Continuous
 62
     2
100
AcDbLine
 10
89.76140751598106
 20
309.5061847631691
 30
0.0
 11
90.95420021814877
 21
309.5061847631691
 31
0.0
  0
LINE
  5
3E6
102
{ACAD_REACTORS
330
496
330
497
102
}
330
71
100
AcDbEntity
  8
0
  6
Continuous
 62
     2
100
AcDbLine
 10
90.95420021814877
 20
309.5061847631691
 30
0.0
 11
90.95420021814877
 21
311.7747289808566
 31
0.0
  0
LINE
  5
3E7
102
{ACAD_REACTORS
330
496
330
497
102
}
330
71
100
AcDbEntity
  8
0
  6
Continuous
 62
     2
100
AcDbLine
 10
90.95420021814877
 20
311.7747289808566
 30
0.0
 11
91.76529925562215
 21
311.7747289808566
 31
0.0
  0
LINE
  5
3E8
102
{ACAD_REACTORS
330
496
330
497
102
}
330
71
100
AcDbEntity
  8
0
  6
Continuous
 62
     2
100
AcDbLine
 10
91.76529925562215
 20
311.7747289808566
 30
0.0
 11
91.76529925562215
 21
312.5599942869802
 31
0.0
  0
LINE
  5
3E9
102
{ACAD_REACTORS
330
496
330
497
102
}
330
71
100
AcDbEntity
  8
0
  6
Continuous
 62
     2
100
AcDbLine
 10
88.38035373699347
 20
312.5599942869797
 30
0.0
 11
91.76529925562215
 21
312.5599942869802
 31
0.0
  0
LINE
  5
3EA
102
{ACAD_REACTORS
330
496
330
497
102
}
330
71
100
AcDbEntity
  8
0
  6
Continuous
 62
     2
100
AcDbLine
 10
89.76140751598106
 20
311.7747289808566
 30
0.0
 11
89.76140751598106
 21
309.5061847631691
 31
0.0
  0
LINE
  5
3EB
102
{ACAD_REACTORS
330
498
330
499
102
}
330
71
100
AcDbEntity
  8
0
  6
Continuous
 62
     2
100
AcDbLine
 10
67.13192108050185
 20
311.4850649127336
 30
0.0
 11
67.13192108050185
 21
312.0669163194286
 31
0.0
  0
LINE
  5
3EC
102
{ACAD_REACTORS
330
498
330
499
102
}
330
71
100
AcDbEntity
  8
0
  6
Continuous
 62
     2
100
AcDbLine
 10
67.13192108050185
 20
314.2851995193649
 30
0.0
 11
67.13192108050185
 21
314.8907348078717
 31
0.0
  0
LINE
  5
3ED
330
71
100
AcDbEntity
  8
1
  6
Continuous
 62
     6
100
AcDbLine
 10
45.66209966510508
 20
302.2126847631528
 30
0.0
 11
59.61729513835505
 21
302.2126847631527
 31
0.0
  0
LINE
  5
3EE
330
71
100
AcDbEntity
  8
1
  6
Continuous
 62
     6
100
AcDbLine
 10
-4.33790033489515
 20
302.2126847631528
 30
0.0
 11
-9.38270486164492
 21
302.2126847631528
 31
0.0
  0
LINE
  5
3EF
330
71
100
AcDbEntity
  8
1
  6
Continuous
 62
     6
100
AcDbLine
 10
145.6620996651051
 20
302.2126847631528
 30
0.0
 11
189.1620996651051
 21
302.2126847631528
 31
0.0
  0
LINE
  5
3F0
330
71
100
AcDbEntity
  8
1
  6
Continuous
 62
     6
100
AcDbLine
 10
95.66209966510505
 20
302.2126847631528
 30
0.0
 11
77.81729513835506
 21
302.2126847631528
 31
0.0
  0
LINE
  5
3F1
330
71
100
AcDbEntity
  8
1
  6
Continuous
 62
     2
100
AcDbLine
 10
189.1620996651051
 20
302.2126847631528
 30
0.0
 11
194.1620996651041
 21
302.2126847631528
 31
0.0
  0
LINE
  5
3F2
330
71
100
AcDbEntity
  8
1
  6
Continuous
 62
     2
100
AcDbLine
 10
189.1620996651051
 20
302.2126847631528
 30
0.0
 11
189.1620996651051
 21
297.2126847631527
 31
0.0
  0
LINE
  5
3F3
330
71
100
AcDbEntity
  8
1
  6
Continuous
 62
     6
100
AcDbLine
 10
59.61729513835505
 20
319.2126847631528
 30
0.0
 11
96.01729513835497
 21
319.2126847631528
 31
0.0
  0
LINE
  5
3F4
330
71
100
AcDbEntity
  8
1
  6
Continuous
 62
     2
100
AcDbLine
 10
194.1620996651041
 20
297.2126847631527
 30
0.0
 11
194.1620996651041
 21
302.2126847631528
 31
0.0
  0
LINE
  5
3F5
330
71
100
AcDbEntity
  8
1
  6
Continuous
 62
     2
100
AcDbLine
 10
194.1620996651041
 20
297.2126847631527
 30
0.0
 11
189.1620996651051
 21
297.2126847631527
 31
0.0
  0
LINE
  5
3F6
330
71
100
AcDbEntity
  8
1
  6
Continuous
 62
     2
100
AcDbLine
 10
189.1620996651051
 20
297.2126847631527
 30
0.0
 11
145.6620996651051
 21
297.2126847631527
 31
0.0
  0
LINE
  5
3F7
330
71
100
AcDbEntity
  8
1
  6
Continuous
 62
     6
100
AcDbLine
 10
189.1620996651068
 20
319.2126847631528
 30
0.0
 11
189.162099665106
 21
352.2126847631529
 31
0.0
  0
LINE
  5
3F8
330
71
100
AcDbEntity
  8
1
  6
Continuous
 62
     2
100
AcDbLine
 10
194.1620996651041
 20
507.2126847631528
 30
0.0
 11
45.66209966510508
 21
507.2126847631528
 31
0.0
  0
LINE
  5
3F9
330
71
100
AcDbEntity
  8
1
  6
Continuous
 62
     6
100
AcDbLine
 10
189.1620996651041
 20
487.2126847631528
 30
0.0
 11
-97.83790033489402
 21
487.2126847631528
 31
0.0
  0
LINE
  5
3FA
330
71
100
AcDbEntity
  8
1
  6
Continuous
 62
     2
100
AcDbLine
 10
189.162099665106
 20
352.2126847631529
 30
0.0
 11
194.1620996651041
 21
352.2126847631529
 31
0.0
  0
LINE
  5
3FB
330
71
100
AcDbEntity
  8
1
  6
Continuous
 62
     6
100
AcDbLine
 10
189.162099665106
 20
352.2126847631529
 30
0.0
 11
189.1620996651055
 21
402.2126847631527
 31
0.0
  0
LINE
  5
3FC
330
71
100
AcDbEntity
  8
1
  6
Continuous
 62
     2
100
AcDbLine
 10
194.1620996651041
 20
352.2126847631529
 30
0.0
 11
194.1620996651041
 21
402.2126847631527
 31
0.0
  0
LINE
  5
3FD
330
71
100
AcDbEntity
  8
1
  6
Continuous
 62
     2
100
AcDbLine
 10
189.1620996651055
 20
402.2126847631527
 30
0.0
 11
194.1620996651041
 21
402.2126847631527
 31
0.0
  0
LINE
  5
3FE
330
71
100
AcDbEntity
  8
1
  6
Continuous
 62
     6
100
AcDbLine
 10
189.1620996651055
 20
402.2126847631527
 30
0.0
 11
189.1620996651043
 21
452.2126847631528
 31
0.0
  0
LINE
  5
3FF
330
71
100
AcDbEntity
  8
1
  6
Continuous
 62
     2
100
AcDbLine
 10
194.1620996651041
 20
402.2126847631527
 30
0.0
 11
194.1620996651041
 21
452.2126847631528
 31
0.0
  0
LINE
  5
400
330
71
100
AcDbEntity
  8
1
  6
Continuous
 62
     2
100
AcDbLine
 10
189.1620996651043
 20
452.2126847631528
 30
0.0
 11
194.1620996651041
 21
452.2126847631528
 31
0.0
  0
LINE
  5
401
330
71
100
AcDbEntity
  8
1
  6
Continuous
 62
     6
100
AcDbLine
 10
189.1620996651043
 20
452.2126847631528
 30
0.0
 11
189.1620996651041
 21
487.2126847631528
 31
0.0
  0
LINE
  5
402
330
71
100
AcDbEntity
  8
1
  6
Continuous
 62
     2
100
AcDbLine
 10
194.1620996651041
 20
452.2126847631528
 30
0.0
 11
194.1620996651041
 21
507.2126847631528
 31
0.0
  0
LINE
  5
403
330
71
100
AcDbEntity
  8
1
  6
Continuous
 62
     2
100
AcDbLine
 10
194.1620996651041
 20
302.2126847631528
 30
0.0
 11
194.1620996651041
 21
352.2126847631529
 31
0.0
  0
LINE
  5
404
330
71
100
AcDbEntity
  8
1
  6
Continuous
 62
     2
100
AcDbLine
 10
45.66209966510508
 20
507.2126847631528
 30
0.0
 11
-102.837900334894
 21
507.2126847631528
 31
0.0
  0
LINE
  5
405
330
71
100
AcDbEntity
  8
1
  6
Continuous
 62
     2
100
AcDbLine
 10
45.66209966510508
 20
507.2126847631528
 30
0.0
 11
45.66209966510508
 21
498.0039929184514
 31
0.0
  0
LINE
  5
406
330
71
100
AcDbEntity
  8
1
  6
Continuous
 62
     2
100
AcDbLine
 10
-102.837900334894
 20
297.2126847631527
 30
0.0
 11
-97.83790033489305
 21
297.2126847631527
 31
0.0
  0
LINE
  5
407
330
71
100
AcDbEntity
  8
1
  6
Continuous
 62
     2
100
AcDbLine
 10
-102.837900334894
 20
507.2126847631528
 30
0.0
 11
-102.837900334894
 21
452.2126847631528
 31
0.0
  0
LINE
  5
408
330
71
100
AcDbEntity
  8
1
  6
Continuous
 62
     6
100
AcDbLine
 10
-97.83790033489402
 20
487.2126847631528
 30
0.0
 11
-97.83790033489396
 21
452.2126847631528
 31
0.0
  0
LINE
  5
409
330
71
100
AcDbEntity
  8
1
  6
Continuous
 62
     2
100
AcDbLine
 10
-102.837900334894
 20
452.2126847631528
 30
0.0
 11
-97.83790033489396
 21
452.2126847631528
 31
0.0
  0
LINE
  5
40A
330
71
100
AcDbEntity
  8
1
  6
Continuous
 62
     2
100
AcDbLine
 10
-102.837900334894
 20
452.2126847631528
 30
0.0
 11
-102.837900334894
 21
402.2126847631527
 31
0.0
  0
LINE
  5
40B
330
71
100
AcDbEntity
  8
1
  6
Continuous
 62
     6
100
AcDbLine
 10
-97.83790033489396
 20
452.2126847631528
 30
0.0
 11
-97.83790033489345
 21
402.2126847631527
 31
0.0
  0
LINE
  5
40C
330
71
100
AcDbEntity
  8
1
  6
Continuous
 62
     2
100
AcDbLine
 10
-102.837900334894
 20
402.2126847631527
 30
0.0
 11
-97.83790033489345
 21
402.2126847631527
 31
0.0
  0
LINE
  5
40D
330
71
100
AcDbEntity
  8
1
  6
Continuous
 62
     2
100
AcDbLine
 10
-102.837900334894
 20
402.2126847631527
 30
0.0
 11
-102.837900334894
 21
352.2126847631529
 31
0.0
  0
LINE
  5
40E
330
71
100
AcDbEntity
  8
1
  6
Continuous
 62
     6
100
AcDbLine
 10
-97.83790033489345
 20
402.2126847631527
 30
0.0
 11
-97.83790033489322
 21
352.2126847631529
 31
0.0
  0
LINE
  5
40F
330
71
100
AcDbEntity
  8
1
  6
Continuous
 62
     2
100
AcDbLine
 10
-102.837900334894
 20
352.2126847631529
 30
0.0
 11
-97.83790033489322
 21
352.2126847631529
 31
0.0
  0
LINE
  5
410
330
71
100
AcDbEntity
  8
1
  6
Continuous
 62
     2
100
AcDbLine
 10
-102.837900334894
 20
352.2126847631529
 30
0.0
 11
-102.837900334894
 21
302.2126847631528
 31
0.0
  0
LINE
  5
411
330
71
100
AcDbEntity
  8
1
  6
Continuous
 62
     6
100
AcDbLine
 10
-97.83790033489322
 20
352.2126847631529
 30
0.0
 11
-97.83790033489305
 21
302.2126847631528
 31
0.0
  0
LINE
  5
412
330
71
100
AcDbEntity
  8
1
  6
Continuous
 62
     2
100
AcDbLine
 10
-54.33790033489493
 20
297.2126847631527
 30
0.0
 11
-54.33790033489493
 21
302.2126847631528
 31
0.0
  0
LINE
  5
413
330
71
100
AcDbEntity
  8
1
  6
Continuous
 62
     2
100
AcDbLine
 10
-54.33790033489493
 20
297.2126847631527
 30
0.0
 11
-4.33790033489515
 21
297.2126847631527
 31
0.0
  0
LINE
  5
414
330
71
100
AcDbEntity
  8
1
  6
Continuous
 62
     2
100
AcDbLine
 10
-4.33790033489515
 20
297.2126847631527
 30
0.0
 11
-4.33790033489515
 21
302.2126847631528
 31
0.0
  0
LINE
  5
415
330
71
100
AcDbEntity
  8
1
  6
Continuous
 62
     2
100
AcDbLine
 10
-4.33790033489515
 20
297.2126847631527
 30
0.0
 11
45.66209966510508
 21
297.2126847631527
 31
0.0
  0
LINE
  5
416
330
71
100
AcDbEntity
  8
1
  6
Continuous
 62
     2
100
AcDbLine
 10
45.66209966510508
 20
297.2126847631527
 30
0.0
 11
45.66209966510508
 21
302.2126847631528
 31
0.0
  0
LINE
  5
417
330
71
100
AcDbEntity
  8
1
  6
Continuous
 62
     2
100
AcDbLine
 10
45.66209966510508
 20
297.2126847631527
 30
0.0
 11
95.66209966510505
 21
297.2126847631527
 31
0.0
  0
LINE
  5
418
330
71
100
AcDbEntity
  8
1
  6
Continuous
 62
     2
100
AcDbLine
 10
95.66209966510505
 20
297.2126847631527
 30
0.0
 11
95.66209966510505
 21
302.2126847631528
 31
0.0
  0
LINE
  5
419
330
71
100
AcDbEntity
  8
1
  6
Continuous
 62
     2
100
AcDbLine
 10
145.6620996651051
 20
297.2126847631527
 30
0.0
 11
145.6620996651051
 21
302.2126847631528
 31
0.0
  0
LINE
  5
41A
330
71
100
AcDbEntity
  8
1
  6
Continuous
 62
     2
100
AcDbLine
 10
145.6620996651051
 20
297.2126847631527
 30
0.0
 11
95.66209966510505
 21
297.2126847631527
 31
0.0
  0
LINE
  5
41B
330
71
100
AcDbEntity
  8
1
  6
Continuous
 62
     2
100
AcDbLine
 10
-97.83790033489305
 20
302.2126847631528
 30
0.0
 11
-97.83790033489305
 21
297.2126847631527
 31
0.0
  0
LINE
  5
41C
330
71
100
AcDbEntity
  8
1
  6
Continuous
 62
     2
100
AcDbLine
 10
-97.83790033489305
 20
297.2126847631527
 30
0.0
 11
-54.33790033489493
 21
297.2126847631527
 31
0.0
  0
LINE
  5
41D
330
71
100
AcDbEntity
  8
1
  6
Continuous
 62
     2
100
AcDbLine
 10
-97.83790033489305
 20
302.2126847631528
 30
0.0
 11
-102.837900334894
 21
302.2126847631528
 31
0.0
  0
LINE
  5
41E
330
71
100
AcDbEntity
  8
1
  6
Continuous
 62
     2
100
AcDbLine
 10
-102.837900334894
 20
302.2126847631528
 30
0.0
 11
-102.837900334894
 21
297.2126847631527
 31
0.0
  0
LINE
  5
41F
330
71
100
AcDbEntity
  8
1
  6
Continuous
 62
     6
100
AcDbLine
 10
189.1620996651051
 20
302.2126847631528
 30
0.0
 11
189.1620996651064
 21
310.7126847631528
 31
0.0
  0
LINE
  5
420
330
71
100
AcDbEntity
  8
1
  6
Continuous
 62
     6
100
AcDbLine
 10
96.01729513835497
 20
302.2126847631527
 30
0.0
 11
145.6620996651051
 21
302.2126847631528
 31
0.0
  0
LINE
  5
421
330
71
100
AcDbEntity
  8
1
  6
Continuous
 62
     6
100
AcDbLine
 10
-56.63790033489516
 20
302.2126847631527
 30
0.0
 11
-54.33790033489493
 21
302.2126847631528
 31
0.0
  0
LINE
  5
422
330
71
100
AcDbEntity
  8
1
  6
Continuous
 62
     6
100
AcDbLine
 10
45.66209966510508
 20
302.2126847631528
 30
0.0
 11
-4.33790033489515
 21
302.2126847631528
 31
0.0
  0
LINE
  5
423
330
71
100
AcDbEntity
  8
1
  6
Continuous
 62
     7
100
AcDbLine
 10
59.61729513835505
 20
319.2126847631528
 30
0.0
 11
59.61729513835505
 21
306.4626847631527
 31
0.0
  0
LINE
  5
424
330
71
100
AcDbEntity
  8
1
  6
Continuous
 62
     7
100
AcDbLine
 10
96.01729513835497
 20
319.2126847631528
 30
0.0
 11
96.01729513835497
 21
306.4626847631528
 31
0.0
  0
LINE
  5
425
330
71
100
AcDbEntity
  8
1
  6
Continuous
 62
     6
100
AcDbLine
 10
-56.63790033489516
 20
302.2126847631527
 30
0.0
 11
-62.83790033489316
 21
302.2126847631528
 31
0.0
  0
LINE
  5
426
330
71
100
AcDbEntity
  8
1
  6
Continuous
 62
     6
100
AcDbLine
 10
96.01729513835497
 20
302.2126847631527
 30
0.0
 11
95.66209966510505
 21
302.2126847631528
 31
0.0
  0
LINE
  5
427
330
71
100
AcDbEntity
  8
1
  6
Continuous
 62
     6
100
AcDbLine
 10
189.1620996651068
 20
319.2126847631528
 30
0.0
 11
189.1620996651064
 21
310.7126847631528
 31
0.0
  0
LINE
  5
428
330
71
100
AcDbEntity
  8
1
  6
Continuous
 62
     6
100
AcDbLine
 10
-62.83790033489316
 20
302.2126847631528
 30
0.0
 11
-97.83790033489305
 21
302.2126847631528
 31
0.0
  0
LINE
  5
429
330
71
100
AcDbEntity
  8
1
  6
Continuous
 62
     2
100
AcDbLine
 10
63.85395002491765
 20
324.5876847631527
 30
0.0
 11
68.85395002491765
 21
325.8376847631527
 31
0.0
  0
LINE
  5
42A
330
71
100
AcDbEntity
  8
1
  6
Continuous
 62
     2
100
AcDbLine
 10
63.85395002491765
 20
322.0876847631527
 30
0.0
 11
63.85395002491765
 21
324.5876847631527
 31
0.0
  0
LINE
  5
42B
330
71
100
AcDbEntity
  8
1
  6
Continuous
 62
     2
100
AcDbLine
 10
68.85395002491765
 20
320.8376847631527
 30
0.0
 11
63.85395002491765
 21
322.0876847631527
 31
0.0
  0
LINE
  5
42C
330
71
100
AcDbEntity
  8
1
  6
Continuous
 62
     2
100
AcDbLine
 10
68.85395002491765
 20
325.8376847631527
 30
0.0
 11
68.85395002491765
 21
320.8376847631527
 31
0.0
  0
LINE
  5
42D
330
71
100
AcDbEntity
  8
1
  6
Continuous
 62
     7
100
AcDbLine
 10
59.61729513835505
 20
306.4626847631527
 30
0.0
 11
77.81729513835506
 21
306.4626847631528
 31
0.0
  0
LINE
  5
42E
330
71
100
AcDbEntity
  8
1
  6
Continuous
 62
     7
100
AcDbLine
 10
59.61729513835505
 20
306.4626847631527
 30
0.0
 11
59.61729513835505
 21
302.2126847631527
 31
0.0
  0
LINE
  5
42F
330
71
100
AcDbEntity
  8
1
  6
Continuous
 62
     7
100
AcDbLine
 10
96.01729513835497
 20
306.4626847631528
 30
0.0
 11
96.01729513835497
 21
302.2126847631527
 31
0.0
  0
LINE
  5
430
330
71
100
AcDbEntity
  8
1
  6
Continuous
 62
     7
100
AcDbLine
 10
77.81729513835506
 20
306.4626847631528
 30
0.0
 11
77.81729513835506
 21
302.2126847631528
 31
0.0
  0
LINE
  5
431
330
71
100
AcDbEntity
  8
1
  6
Continuous
 62
     6
100
AcDbLine
 10
77.81729513835506
 20
302.2126847631528
 30
0.0
 11
59.61729513835505
 21
302.2126847631527
 31
0.0
  0
LINE
  5
432
330
71
100
AcDbEntity
  8
1
  6
Continuous
 62
     7
100
AcDbLine
 10
77.81729513835506
 20
306.4626847631528
 30
0.0
 11
96.01729513835497
 21
306.4626847631528
 31
0.0
  0
LINE
  5
433
330
71
100
AcDbEntity
  8
1
  6
Continuous
 62
     6
100
AcDbLine
 10
59.61729513835505
 20
327.7126847631528
 30
0.0
 11
189.1620996651068
 21
327.7126847631528
 31
0.0
  0
ARC
  5
434
102
{ACAD_REACTORS
330
49C
330
49D
102
}
330
71
100
AcDbEntity
  8
0
  6
Continuous
 62
     2
100
AcDbCircle
 10
75.00894313731504
 20
311.0330895250744
 30
0.0
 40
0.7717997786796947
100
AcDbArc
 50
321.8795802028417
 51
38.12041979715494
  0
ARC
  5
435
102
{ACAD_REACTORS
330
49C
330
49D
102
}
330
71
100
AcDbEntity
  8
0
  6
Continuous
 62
     2
100
AcDbCircle
 10
75.20868317366146
 20
310.8763583469544
 30
0.0
 40
0.5179085730137529
100
AcDbArc
 50
218.1204197971956
 51
321.8795802027985
  0
ARC
  5
436
102
{ACAD_REACTORS
330
49C
330
49D
102
}
330
71
100
AcDbEntity
  8
0
  6
Continuous
 62
     2
100
AcDbCircle
 10
75.40842321000756
 20
311.0330895250744
 30
0.0
 40
0.7717997786794808
100
AcDbArc
 50
141.8795802028346
 51
218.1204197971687
  0
ARC
  5
437
102
{ACAD_REACTORS
330
49C
330
49D
102
}
330
71
100
AcDbEntity
  8
0
  6
Continuous
 62
     2
100
AcDbCircle
 10
75.20868317366146
 20
311.1898207031949
 30
0.0
 40
0.5179085730132998
100
AcDbArc
 50
38.12041979714704
 51
141.8795802028588
  0
ARC
  5
438
102
{ACAD_REACTORS
330
494
330
495
102
}
330
71
100
AcDbEntity
  8
0
  6
Continuous
 62
     2
100
AcDbCircle
 10
72.14666903809757
 20
309.6226231596662
 30
0.0
 40
2.227384008973501
100
AcDbArc
 50
58.06909105004111
 51
71.55192388186745
  0
ARC
  5
439
102
{ACAD_REACTORS
330
494
330
495
102
}
330
71
100
AcDbEntity
  8
0
  6
Continuous
 62
     2
100
AcDbCircle
 10
72.40839673905634
 20
311.2381609544134
 30
0.0
 40
0.511580060194904
100
AcDbArc
 50
113.3722778881979
 51
151.4785267423044
  0
ARC
  5
43A
102
{ACAD_REACTORS
330
494
330
495
102
}
330
71
100
AcDbEntity
  8
0
  6
Continuous
 62
     2
100
AcDbCircle
 10
72.78575399713665
 20
311.0330895250744
 30
0.0
 40
0.9410597353332545
100
AcDbArc
 50
151.4785267422669
 51
208.5214732577118
  0
ARC
  5
43B
102
{ACAD_REACTORS
330
494
330
495
102
}
330
71
100
AcDbEntity
  8
0
  6
Continuous
 62
     2
100
AcDbCircle
 10
71.98879616300465
 20
314.3457704703308
 30
0.0
 40
4.852596863498279
100
AcDbArc
 50
275.1581447696248
 51
285.9799912583529
  0
ARC
  5
43C
102
{ACAD_REACTORS
330
494
330
495
102
}
330
71
100
AcDbEntity
  8
0
  6
Continuous
 62
     2
100
AcDbCircle
 10
72.27765225774056
 20
311.1458798871092
 30
0.0
 40
1.63969512393938
100
AcDbArc
 50
195.0618917770886
 51
275.1581447696393
  0
ARC
  5
43D
102
{ACAD_REACTORS
330
494
330
495
102
}
330
71
100
AcDbEntity
  8
0
  6
Continuous
 62
     2
100
AcDbCircle
 10
71.85852441427775
 20
311.0330895250744
 30
0.0
 40
1.205656168390944
100
AcDbArc
 50
164.9381082228765
 51
195.0618917770948
  0
ARC
  5
43E
102
{ACAD_REACTORS
330
494
330
495
102
}
330
71
100
AcDbEntity
  8
0
  6
Continuous
 62
     2
100
AcDbCircle
 10
72.27765225774056
 20
310.9202991630394
 30
0.0
 40
1.63969512394062
100
AcDbArc
 50
84.84185523036271
 51
164.9381082228826
  0
ARC
  5
43F
102
{ACAD_REACTORS
330
498
330
499
102
}
330
71
100
AcDbEntity
  8
0
  6
Continuous
 62
     2
100
AcDbCircle
 10
67.44763800357865
 20
312.0669163194286
 30
0.0
 40
0.3157169230765842
100
AcDbArc
 50
115.3740086783474
 51
180.0
  0
ARC
  5
440
102
{ACAD_REACTORS
330
498
330
499
102
}
330
71
100
AcDbEntity
  8
0
  6
Continuous
 62
     2
100
AcDbCircle
 10
67.44763800357865
 20
314.2851995193649
 30
0.0
 40
0.315716923076792
100
AcDbArc
 50
180.0
 51
244.6259913216437
  0
ARC
  5
441
102
{ACAD_REACTORS
330
498
330
499
102
}
330
71
100
AcDbEntity
  8
0
  6
Continuous
 62
     2
100
AcDbCircle
 10
67.45325413888867
 20
313.1878998603025
 30
0.0
 40
2.018561131933209
100
AcDbArc
 50
269.8110329575858
 51
90.18896704241413
  0
ARC
  5
442
102
{ACAD_REACTORS
330
498
330
499
102
}
330
71
100
AcDbEntity
  8
0
  6
Continuous
 62
     2
100
AcDbCircle
 10
67.44763800357865
 20
311.4850649127336
 30
0.0
 40
0.315716923076792
100
AcDbArc
 50
180.0
 51
269.8110329574542
  0
ARC
  5
443
102
{ACAD_REACTORS
330
496
330
497
102
}
330
71
100
AcDbEntity
  8
0
  6
Continuous
 62
     2
100
AcDbCircle
 10
88.51109821830926
 20
311.2381609544134
 30
0.0
 40
0.5115800601944143
100
AcDbArc
 50
109.3371432194853
 51
151.4785267424197
  0
ARC
  5
444
102
{ACAD_REACTORS
330
496
330
497
102
}
330
71
100
AcDbEntity
  8
0
  6
Continuous
 62
     2
100
AcDbCircle
 10
88.51109821830926
 20
310.8280180957358
 30
0.0
 40
0.5115800601959674
100
AcDbArc
 50
208.5214732576754
 51
246.6277221118399
  0
ARC
  5
445
102
{ACAD_REACTORS
330
496
330
497
102
}
330
71
100
AcDbEntity
  8
0
  6
Continuous
 62
     2
100
AcDbCircle
 10
87.96122589353186
 20
311.0330895250744
 30
0.0
 40
1.205656168393002
100
AcDbArc
 50
164.9381082229028
 51
195.0618917770946
  0
ARC
  5
446
102
{ACAD_REACTORS
330
496
330
497
102
}
330
71
100
AcDbEntity
  8
0
  6
Continuous
 62
     2
100
AcDbCircle
 10
88.38035373699347
 20
310.9202991630394
 30
0.0
 40
1.639695123940328
100
AcDbArc
 50
90.0
 51
164.9381082228911
  0
ARC
  5
447
102
{ACAD_REACTORS
330
49A
330
49B
102
}
330
71
100
AcDbEntity
  8
0
  6
Continuous
 62
     2
100
AcDbCircle
 10
78.95335864428975
 20
314.3922800012487
 30
0.0
 40
1.526904761905882
100
AcDbArc
 50
90.0
 51
270.0
  0
ARC
  5
448
102
{ACAD_REACTORS
330
49E
330
49F
102
}
330
71
100
AcDbEntity
  8
0
  6
Continuous
 62
     2
100
AcDbCircle
 10
72.21066789906396
 20
314.9032150930434
 30
0.0
 40
0.3528638246710898
100
AcDbArc
 50
270.0
 51
90.0
  0
ARC
  5
449
102
{ACAD_REACTORS
330
498
330
499
102
}
330
71
100
AcDbEntity
  8
0
  6
Continuous
 62
     2
100
AcDbCircle
 10
64.87208931704694
 20
314.8909122845198
 30
0.0
 40
0.3157169230760815
100
AcDbArc
 50
90.0
 51
180.0
  0
ARC
  5
44A
102
{ACAD_REACTORS
330
498
330
499
102
}
330
71
100
AcDbEntity
  8
0
  6
Continuous
 62
     2
100
AcDbCircle
 10
66.87050702563155
 20
313.1760579193971
 30
0.0
 40
0.9118975235575889
100
AcDbArc
 50
115.194410648529
 51
244.8055893514878
  0
ARC
  5
44B
102
{ACAD_REACTORS
330
498
330
499
102
}
330
71
100
AcDbEntity
  8
0
  6
Continuous
 62
     2
100
AcDbCircle
 10
66.34792257805657
 20
312.0652281733343
 30
0.0
 40
0.315716923076593
100
AcDbArc
 50
0.0
 51
64.80558935146468
  0
ARC
  5
44C
102
{ACAD_REACTORS
330
498
330
499
102
}
330
71
100
AcDbEntity
  8
0
  6
Continuous
 62
     2
100
AcDbCircle
 10
64.27819464030046
 20
309.9304293785524
 30
0.0
 40
0.4242446153828041
100
AcDbArc
 50
180.0
 51
270.0
  0
ARC
  5
44D
102
{ACAD_REACTORS
330
49A
330
49B
102
}
330
71
100
AcDbEntity
  8
0
  6
Continuous
 62
     2
100
AcDbCircle
 10
79.16963065445495
 20
314.5490111793691
 30
0.0
 40
0.5179085730135967
100
AcDbArc
 50
38.12041979715324
 51
141.879580202839
  0
ARC
  5
44E
102
{ACAD_REACTORS
330
49A
330
49B
102
}
330
71
100
AcDbEntity
  8
0
  6
Continuous
 62
     2
100
AcDbCircle
 10
79.36937069080125
 20
314.3922800012487
 30
0.0
 40
0.7717997786796724
100
AcDbArc
 50
141.8795802028404
 51
218.1204197971596
  0
ARC
  5
44F
102
{ACAD_REACTORS
330
49C
330
49D
102
}
330
71
100
AcDbEntity
  8
0
  6
Continuous
 62
     2
100
AcDbCircle
 10
75.20868317366146
 20
311.5716645353776
 30
0.0
 40
2.065479772208382
100
AcDbArc
 50
242.4518518243383
 51
297.5481481756889
  0
ARC
  5
450
102
{ACAD_REACTORS
330
49C
330
49D
102
}
330
71
100
AcDbEntity
  8
0
  6
Continuous
 62
     2
100
AcDbCircle
 10
75.20868317366146
 20
310.4945145147716
 30
0.0
 40
2.065479772208593
100
AcDbArc
 50
62.45185182430674
 51
117.548148175666
  0
ARC
  5
451
102
{ACAD_REACTORS
330
49C
330
49D
102
}
330
71
100
AcDbEntity
  8
0
  6
Continuous
 62
     2
100
AcDbCircle
 10
74.92774328182816
 20
311.0330895250744
 30
0.0
 40
1.458034083651515
100
AcDbArc
 50
117.5481481756619
 51
242.451851824337
  0
ARC
  5
452
102
{ACAD_REACTORS
330
49C
330
49D
102
}
330
71
100
AcDbEntity
  8
0
  6
Continuous
 62
     2
100
AcDbCircle
 10
75.48962306549475
 20
311.0330895250744
 30
0.0
 40
1.458034083651977
100
AcDbArc
 50
297.5481481757016
 51
62.45185182429947
  0
ARC
  5
453
102
{ACAD_REACTORS
330
49A
330
49B
102
}
330
71
100
AcDbEntity
  8
0
  6
Continuous
 62
     2
100
AcDbCircle
 10
79.16963065445495
 20
314.2355488231283
 30
0.0
 40
0.5179085730134722
100
AcDbArc
 50
218.120419797156
 51
321.8795802028517
  0
ARC
  5
454
102
{ACAD_REACTORS
330
49A
330
49B
102
}
330
71
100
AcDbEntity
  8
0
  6
Continuous
 62
     2
100
AcDbCircle
 10
78.96989061810876
 20
314.3922800012487
 30
0.0
 40
0.7717997786796724
100
AcDbArc
 50
321.8795802028404
 51
38.12041979715956
  0
ARC
  5
455
102
{ACAD_REACTORS
330
498
330
499
102
}
330
71
100
AcDbEntity
  8
0
  6
Continuous
 62
     2
100
AcDbCircle
 10
69.75150673101726
 20
309.9304293785524
 30
0.0
 40
0.4242446153833157
100
AcDbArc
 50
270.0
 51
0.0
  0
ARC
  5
456
102
{ACAD_REACTORS
330
498
330
499
102
}
330
71
100
AcDbEntity
  8
0
  6
Continuous
 62
     2
100
AcDbCircle
 10
69.75150673101726
 20
315.4949401477526
 30
0.0
 40
0.4242446153838841
100
AcDbArc
 50
0.0
 51
90.0
  0
ARC
  5
457
102
{ACAD_REACTORS
330
498
330
499
102
}
330
71
100
AcDbEntity
  8
0
  6
Continuous
 62
     2
100
AcDbCircle
 10
64.27819464030046
 20
315.4949401477526
 30
0.0
 40
0.4242446153838273
100
AcDbArc
 50
90.0
 51
180.0
  0
ARC
  5
458
102
{ACAD_REACTORS
330
498
330
499
102
}
330
71
100
AcDbEntity
  8
0
  6
Continuous
 62
     2
100
AcDbCircle
 10
66.34792257805657
 20
310.5344572418027
 30
0.0
 40
0.3157169230767067
100
AcDbArc
 50
270.0
 51
0.0
  0
ARC
  5
459
102
{ACAD_REACTORS
330
498
330
499
102
}
330
71
100
AcDbEntity
  8
0
  6
Continuous
 62
     2
100
AcDbCircle
 10
66.34792257805657
 20
314.2868876654593
 30
0.0
 40
0.3157169230761203
100
AcDbArc
 50
295.1944106485397
 51
0.0
  0
ARC
  5
45A
102
{ACAD_REACTORS
330
498
330
499
102
}
330
71
100
AcDbEntity
  8
0
  6
Continuous
 62
     2
100
AcDbCircle
 10
66.34792257805657
 20
314.8909122845198
 30
0.0
 40
0.315716923076593
100
AcDbArc
 50
0.0
 51
90.0
  0
ARC
  5
45B
102
{ACAD_REACTORS
330
498
330
499
102
}
330
71
100
AcDbEntity
  8
0
  6
Continuous
 62
     2
100
AcDbCircle
 10
64.87208931704694
 20
310.5344572418027
 30
0.0
 40
0.3157169230756836
100
AcDbArc
 50
180.0
 51
270.0
  0
ARC
  5
45C
102
{ACAD_REACTORS
330
49E
330
49F
102
}
330
71
100
AcDbEntity
  8
0
  6
Continuous
 62
     2
100
AcDbCircle
 10
72.65214042530235
 20
314.8638191218209
 30
0.0
 40
1.055365641333708
100
AcDbArc
 50
270.0
 51
90.0
  0
ARC
  5
45D
102
{ACAD_REACTORS
330
496
330
497
102
}
330
71
100
AcDbEntity
  8
0
  6
Continuous
 62
     2
100
AcDbCircle
 10
88.38035373699347
 20
311.1458798871092
 30
0.0
 40
1.639695123940434
100
AcDbArc
 50
195.0618917770993
 51
275.1581447696762
  0
ARC
  5
45E
102
{ACAD_REACTORS
330
496
330
497
102
}
330
71
100
AcDbEntity
  8
0
  6
Continuous
 62
     2
100
AcDbCircle
 10
88.09149764225765
 20
314.3457704703308
 30
0.0
 40
4.852596863498881
100
AcDbArc
 50
275.1581447696363
 51
285.9799912583382
  0
ARC
  5
45F
102
{ACAD_REACTORS
330
496
330
497
102
}
330
71
100
AcDbEntity
  8
0
  6
Continuous
 62
     2
100
AcDbCircle
 10
88.24937051735046
 20
312.4435558904825
 30
0.0
 40
2.227384008972773
100
AcDbArc
 50
288.4480761181333
 51
301.9309089499394
  0
ARC
  5
460
102
{ACAD_REACTORS
330
496
330
497
102
}
330
71
100
AcDbEntity
  8
0
  6
Continuous
 62
     2
100
AcDbCircle
 10
88.66753825101236
 20
311.1900101144458
 30
0.0
 40
0.9059297849851757
100
AcDbArc
 50
246.6277221118154
 51
288.448076118084
  0
ARC
  5
461
102
{ACAD_REACTORS
330
496
330
497
102
}
330
71
100
AcDbEntity
  8
0
  6
Continuous
 62
     2
100
AcDbCircle
 10
88.88845547639065
 20
311.0330895250744
 30
0.0
 40
0.941059735334906
100
AcDbArc
 50
151.4785267423609
 51
208.5214732576695
  0
ARC
  5
462
102
{ACAD_REACTORS
330
496
330
497
102
}
330
71
100
AcDbEntity
  8
0
  6
Continuous
 62
     2
100
AcDbCircle
 10
88.65776821641296
 20
310.8202059740305
 30
0.0
 40
0.9545230068260935
100
AcDbArc
 50
90.0
 51
109.337143219432
  0
ARC
  5
463
102
{ACAD_REACTORS
330
498
330
499
102
}
330
71
100
AcDbEntity
  8
0
  6
Continuous
 62
     2
100
AcDbCircle
 10
67.44763800357865
 20
314.8907348078717
 30
0.0
 40
0.3157169230760711
100
AcDbArc
 50
90.18896704254594
 51
180.0
  0
ARC
  5
464
102
{ACAD_REACTORS
330
498
330
499
102
}
330
71
100
AcDbEntity
  8
0
  6
Continuous
 62
     2
100
AcDbCircle
 10
66.92159530549077
 20
313.1760579193971
 30
0.0
 40
0.9118481501444847
100
AcDbArc
 50
295.3740086781757
 51
64.62599132180748
  0
ARC
  5
465
102
{ACAD_REACTORS
330
494
330
495
102
}
330
71
100
AcDbEntity
  8
0
  6
Continuous
 62
     2
100
AcDbCircle
 10
72.14666903809757
 20
312.443555890483
 30
0.0
 40
2.22738400897271
100
AcDbArc
 50
288.448076118133
 51
301.9309089499604
  0
ARC
  5
466
102
{ACAD_REACTORS
330
494
330
495
102
}
330
71
100
AcDbEntity
  8
0
  6
Continuous
 62
     2
100
AcDbCircle
 10
72.56483677175837
 20
311.1900101144458
 30
0.0
 40
0.9059297849848149
100
AcDbArc
 50
246.6277221118682
 51
288.4480761181601
  0
ARC
  5
467
102
{ACAD_REACTORS
330
494
330
495
102
}
330
71
100
AcDbEntity
  8
0
  6
Continuous
 62
     2
100
AcDbCircle
 10
72.40839673905634
 20
310.8280180957358
 30
0.0
 40
0.5115800601948034
100
AcDbArc
 50
208.5214732576956
 51
246.6277221118223
  0
ARC
  5
468
102
{ACAD_REACTORS
330
494
330
495
102
}
330
71
100
AcDbEntity
  8
0
  6
Continuous
 62
     2
100
AcDbCircle
 10
72.56483677175837
 20
310.8761689357028
 30
0.0
 40
0.9059297849853228
100
AcDbArc
 50
71.55192388185348
 51
113.372277888129
  0
ARC
  5
469
102
{ACAD_REACTORS
330
494
330
495
102
}
330
71
100
AcDbEntity
  8
0
  6
Continuous
 62
     2
100
AcDbCircle
 10
71.98879616300465
 20
307.7204085798185
 30
0.0
 40
4.852596863497931
100
AcDbArc
 50
74.02000874164692
 51
84.84185523037502
  0
CIRCLE
  5
46A
102
{ACAD_REACTORS
330
498
330
499
102
}
330
71
100
AcDbEntity
  8
0
  6
Continuous
 62
     2
100
AcDbCircle
 10
66.89778029081796
 20
313.1760579193971
 30
0.0
 40
0.4709789327785074
  0
CIRCLE
  5
46B
330
71
100
AcDbEntity
  8
1
  6
Continuous
 62
     2
100
AcDbCircle
 10
72.35395002491765
 20
323.3376847631527
 30
0.0
 40
1.249999999999915
  0
CIRCLE
  5
46C
330
71
100
AcDbEntity
  8
1
  6
Continuous
 62
     2
100
AcDbCircle
 10
72.35395002491765
 20
323.3376847631527
 30
0.0
 40
2.5
  0
TEXT
  5
46D
330
71
100
AcDbEntity
  8
1
 62
     7
100
AcDbText
 10
114.9908428603688
 20
320.5126847631527
 30
0.0
 40
2.5
  1
/
 41
0.9
  7
CONVERTER_11
100
AcDbText
  0
TEXT
  5
46F
330
71
100
AcDbEntity
  8
1
 62
     7
100
AcDbText
 10
117.1472073574109
 20
320.5126847631527
 30
0.0
 40
2.5
  1
02
 41
0.81
  7
CONVERTER_12
100
AcDbText
  0
TEXT
  5
470
330
71
100
AcDbEntity
  8
1
 62
     3
100
AcDbText
 10
154.7436913834279
 20
320.5126847631527
 30
0.0
 40
2.5
  1
06.04.2018
 41
0.81
  7
CONVERTER_12
100
AcDbText
  0
MTEXT
  5
471
330
71
100
AcDbEntity
  8
1
 62
     2
100
AcDbMText
 10
154.7436913834279
 20
326.7126847631527
 30
0.0
 40
1.8
 41
0.0
 71
     1
 72
     1
  1
date
  7
CONVERTER_11
 73
     1
 44
1.32052821128451
  0
MTEXT
  5
472
330
71
100
AcDbEntity
  8
1
 62
     2
100
AcDbMText
 10
124.9172951383551
 20
318.2126847631527
 30
0.0
 40
1.8
 41
0.0
 71
     1
 72
     1
  1
document-type
  7
CONVERTER_11
 73
     1
 44
1.20048019207683
  0
TEXT
  5
473
330
71
100
AcDbEntity
  8
1
 62
     3
100
AcDbText
 10
124.9172951383551
 20
312.0126847631527
 30
0.0
 40
2.5
  1
TECDOC 2D_Productdrawing
 41
0.81
  7
CONVERTER_12
100
AcDbText
  0
MTEXT
  5
475
330
71
100
AcDbEntity
  8
1
 62
     2
100
AcDbMText
 10
97.11729513835505
 20
326.7126847631528
 30
0.0
 40
1.8
 41
0.0
 71
     1
 72
     1
  1
document-No. / RI
  7
CONVERTER_13
 73
     1
 44
1.32052821128451
  0
TEXT
  5
476
330
71
100
AcDbEntity
  8
1
 62
     7
100
AcDbText
 10
97.11729513835505
 20
320.5126847631527
 30
0.0
 40
2.5
  1
00319157
 41
0.81
  7
CONVERTER_12
100
AcDbText
  0
MTEXT
  5
478
330
71
100
AcDbEntity
  8
1
 62
     3
100
AcDbMText
 10
184.7028955242674
 20
320.5126847631528
 30
0.0
 40
2.5
 41
0.0
 71
     8
 72
     1
  1
1:1
  7
CONVERTER_14
 73
     1
 44
1.32052821128451
  0
MTEXT
  5
479
330
71
100
AcDbEntity
  8
1
 62
     2
100
AcDbMText
 10
181.3436913834278
 20
326.7126847631528
 30
0.0
 40
1.8
 41
0.0
 71
     1
 72
     1
  1
scale
  7
CONVERTER_11
 73
     1
 44
1.20048019207683
  0
MTEXT
  5
47A
330
71
100
AcDbEntity
  8
1
 62
     2
100
AcDbMText
 10
97.11729513835505
 20
318.2126847631528
 30
0.0
 40
1.8
 41
0.0
 71
     1
 72
     1
  1
ident.-No.
  7
CONVERTER_11
 73
     1
 44
1.20048019207683
  0
TEXT
  5
47B
330
71
100
AcDbEntity
  8
1
 62
     7
100
AcDbText
 10
97.51729513835477
 20
312.0126847631527
 30
0.0
 40
2.5
  1
3036372
 41
0.81
  7
CONVERTER_12
100
AcDbText
  0
MTEXT
  5
47C
330
71
100
AcDbEntity
  8
1
 62
     2
100
AcDbMText
 10
25.17928041330754
 20
314.9626847631527
 30
0.0
 40
2.0
 41
0.0
 71
     5
 72
     1
  1
General Information\P- Simplified representation\P- Document excluded from change process\P- Linear dimensions [mm]
  7
CONVERTER_11
 73
     1
 44
1.20048019207683
  0
MTEXT
  5
47D
330
71
100
AcDbEntity
  8
1
 62
     7
100
AcDbMText
 10
191.6620996651041
 20
377.2126847631547
 30
0.0
 40
3.5
 41
0.0
 71
     5
 72
     1
  1
C
  7
CONVERTER_11
 73
     1
 44
1.20048019207683
  0
MTEXT
  5
47E
330
71
100
AcDbEntity
  8
1
 62
     7
100
AcDbMText
 10
191.6620996651041
 20
479.7126847631528
 30
0.0
 40
3.5
 41
0.0
 71
     5
 72
     1
  1
A
  7
CONVERTER_11
 73
     1
 44
1.20048019207683
  0
MTEXT
  5
47F
330
71
100
AcDbEntity
  8
1
 62
     7
100
AcDbMText
 10
191.6620996651041
 20
427.2126847631547
 30
0.0
 40
3.5
 41
0.0
 71
     5
 72
     1
  1
B
  7
CONVERTER_11
 73
     1
 44
1.20048019207683
  0
MTEXT
  5
480
330
71
100
AcDbEntity
  8
1
 62
     7
100
AcDbMText
 10
191.6620996651041
 20
324.7126847631528
 30
0.0
 40
3.5
 41
0.0
 71
     5
 72
     1
  1
D
  7
CONVERTER_11
 73
     1
 44
1.20048019207683
  0
MTEXT
  5
481
330
71
100
AcDbEntity
  8
1
 62
     7
100
AcDbMText
 10
-78.58790033489453
 20
299.7126847631527
 30
0.0
 40
3.5
 41
0.0
 71
     5
 72
     1
  1
1
  7
CONVERTER_11
 73
     1
 44
1.20048019207683
  0
MTEXT
  5
482
330
71
100
AcDbEntity
  8
1
 62
     7
100
AcDbMText
 10
-29.33790033489493
 20
299.7126847631527
 30
0.0
 40
3.5
 41
0.0
 71
     5
 72
     1
  1
2
  7
CONVERTER_11
 73
     1
 44
1.20048019207683
  0
MTEXT
  5
483
330
71
100
AcDbEntity
  8
1
 62
     7
100
AcDbMText
 10
20.66209966510508
 20
299.7126847631527
 30
0.0
 40
3.5
 41
0.0
 71
     5
 72
     1
  1
3
  7
CONVERTER_11
 73
     1
 44
1.20048019207683
  0
MTEXT
  5
484
330
71
100
AcDbEntity
  8
1
 62
     7
100
AcDbMText
 10
70.66209966510496
 20
299.7126847631527
 30
0.0
 40
3.5
 41
0.0
 71
     5
 72
     1
  1
4
  7
CONVERTER_11
 73
     1
 44
1.20048019207683
  0
MTEXT
  5
485
330
71
100
AcDbEntity
  8
1
 62
     7
100
AcDbMText
 10
120.6620996651051
 20
299.7126847631527
 30
0.0
 40
3.5
 41
0.0
 71
     5
 72
     1
  1
5
  7
CONVERTER_11
 73
     1
 44
1.20048019207683
  0
MTEXT
  5
486
330
71
100
AcDbEntity
  8
1
 62
     7
100
AcDbMText
 10
169.9120996651043
 20
299.7126847631527
 30
0.0
 40
3.5
 41
0.0
 71
     5
 72
     1
  1
6
  7
CONVERTER_11
 73
     1
 44
1.20048019207683
  0
MTEXT
  5
487
330
71
100
AcDbEntity
  8
1
 62
     7
100
AcDbMText
 10
-100.337900334894
 20
479.7126847631528
 30
0.0
 40
3.5
 41
0.0
 71
     5
 72
     1
  1
A
  7
CONVERTER_11
 73
     1
 44
1.20048019207683
  0
MTEXT
  5
488
330
71
100
AcDbEntity
  8
1
 62
     7
100
AcDbMText
 10
-100.337900334894
 20
427.2126847631528
 30
0.0
 40
3.5
 41
0.0
 71
     5
 72
     1
  1
B
  7
CONVERTER_11
 73
     1
 44
1.20048019207683
  0
MTEXT
  5
489
330
71
100
AcDbEntity
  8
1
 62
     7
100
AcDbMText
 10
-100.337900334894
 20
377.2126847631528
 30
0.0
 40
3.5
 41
0.0
 71
     5
 72
     1
  1
C
  7
CONVERTER_11
 73
     1
 44
1.20048019207683
  0
MTEXT
  5
48A
330
71
100
AcDbEntity
  8
1
 62
     7
100
AcDbMText
 10
-100.337900334894
 20
324.7126847631528
 30
0.0
 40
3.5
 41
0.0
 71
     5
 72
     1
  1
D
  7
CONVERTER_11
 73
     1
 44
1.20048019207683
  0
MTEXT
  5
48B
330
71
100
AcDbEntity
  8
1
 62
     3
100
AcDbMText
 10
85.81729513835495
 20
323.3376847631528
 30
0.0
 40
2.5
 41
0.0
 71
     5
 72
     1
  1
DIN A4
  7
CONVERTER_11
 73
     1
 44
1.20048019207683
  0
MTEXT
  5
48C
330
71
100
AcDbEntity
  8
1
 62
     2
100
AcDbMText
 10
97.01729513835497
 20
309.7126847631528
 30
0.0
 40
1.8
 41
0.0
 71
     1
 72
     1
  1
description
  7
CONVERTER_11
 73
     1
 44
1.20048019207683
  0
MTEXT
  5
48D
330
71
100
AcDbEntity
  8
1
 62
     7
100
AcDbMText
 10
142.5896974017306
 20
305.462684763153
 30
0.0
 40
3.0
 41
0.0
 71
     5
 72
     1
  1
ST 4-FSI/C
  7
CONVERTER_12
 73
     1
 44
1.20048019207683
  0
TEXT
  5
48E
330
71
100
AcDbEntity
  8
1
 62
     2
100
AcDbText
 10
84.05260394816855
 20
303.4626847631527
 30
0.0
 40
1.8
  1
1
 41
0.9
  7
CONVERTER_11
100
AcDbText
  0
TEXT
  5
48F
330
71
100
AcDbEntity
  8
1
 62
     2
100
AcDbText
 10
69.26356010869705
 20
303.4134361093508
 30
0.0
 40
1.8
  1
1
 41
0.9
  7
CONVERTER_11
100
AcDbText
  0
TEXT
  5
490
330
71
100
AcDbEntity
  8
1
 62
     2
100
AcDbText
 10
60.61729513835505
 20
303.4536675481611
 30
0.0
 40
1.8
  1
page
 41
0.9
  7
CONVERTER_11
100
AcDbText
  0
TEXT
  5
491
330
71
100
AcDbEntity
  8
1
 62
     2
100
AcDbText
 10
78.81729513835487
 20
303.4536675481612
 30
0.0
 40
1.8
  1
of
 41
0.9
  7
CONVERTER_11
100
AcDbText
  0
MTEXT
  5
492
330
71
100
AcDbEntity
  8
1
 62
     3
100
AcDbMText
 10
85.02027728996495
 20
489.0039929184516
 30
0.0
 40
1.8
 41
0.0
 71
     7
 72
     1
  3
Transfer or duplication of this document as well as the utilisation or\Pcommunication of its content are not permitted unless express consent\Pis granted. Violations give rise to claims for damages. All rights reserved\Pin case of patent, utility mo
  1
del or design patent registrations.
  7
CONVERTER_11
 73
     1
 44
0.99639855942377
  0
MTEXT
  5
493
330
71
100
AcDbEntity
  8
1
 62
     3
100
AcDbMText
 10
-97.83283254882315
 20
489.0039929184516
 30
0.0
 40
1.8
 41
0.0
 71
     7
 72
     1
  3
Weitergabe sowie Vervielf\U+00e4ltigung dieses Dokuments, Verwertung und \PMitteilung seines Inhalts sind verboten, soweit nicht ausdr\U+00fccklich gestattet. \PZuwiderhandlungen verpflichten zu Schadenersatz. Alle Rechte f\U+00fcr den Fall\Pder Pat
  1
ent-, Gebrauchsmuster- oder Designeintragung vorbehalten.
  7
CONVERTER_11
 73
     1
 44
0.99639855942377
  0
HATCH
  5
494
330
71
100
AcDbEntity
  8
1
  6
Continuous
 62
     2
100
AcDbHatch
 10
0.0
 20
0.0
 30
0.0
210
0.0
220
0.0
230
1.0
  2
_USER
 70
     0
 71
     1
 91
        1
 92
        1
 93
       14
 72
     2
 10
71.85852441427775
 20
311.0330895250744
 40
1.205656168390944
 50
164.9381082228765
 51
195.0618917770948
 73
     1
 72
     2
 10
72.27765225774056
 20
311.1458798871092
 40
1.63969512393938
 50
195.0618917770886
 51
275.1581447696393
 73
     1
 72
     2
 10
71.98879616300465
 20
314.3457704703308
 40
4.852596863498279
 50
275.1581447696248
 51
285.9799912583529
 73
     1
 72
     1
 10
73.32472408012245
 20
309.68068816453
 11
73.32472408012245
 21
310.5532051713332
 72
     2
 10
72.14666903809757
 20
312.443555890483
 40
2.22738400897271
 50
58.06909105003953
 51
71.55192388186698
 73
     0
 72
     2
 10
72.56483677175837
 20
311.1900101144458
 40
0.9059297849848149
 50
71.55192388183985
 51
113.3722778881318
 73
     0
 72
     2
 10
72.40839673905634
 20
310.8280180957358
 40
0.5115800601948034
 50
113.3722778881777
 51
151.4785267423044
 73
     0
 72
     2
 10
72.78575399713665
 20
311.0330895250744
 40
0.9410597353332545
 50
151.4785267422882
 51
208.5214732577331
 73
     0
 72
     2
 10
72.40839673905634
 20
311.2381609544134
 40
0.511580060194904
 50
208.5214732576956
 51
246.6277221118021
 73
     0
 72
     2
 10
72.56483677175837
 20
310.8761689357028
 40
0.9059297849853228
 50
246.627722111871
 51
288.4480761181465
 73
     0
 72
     2
 10
72.14666903809757
 20
309.6226231596662
 40
2.227384008973501
 50
288.4480761181326
 51
301.9309089499589
 73
     0
 72
     1
 10
73.32472408012245
 20
311.5129738788161
 11
73.32472408012245
 21
312.3854908856193
 72
     2
 10
71.98879616300465
 20
307.7204085798185
 40
4.852596863497931
 50
74.02000874164692
 51
84.84185523037502
 73
     1
 72
     2
 10
72.27765225774056
 20
310.9202991630394
 40
1.63969512394062
 50
84.84185523036271
 51
164.9381082228826
 73
     1
 97
       14
330
469
330
382
330
438
330
468
330
439
330
43A
330
467
330
466
330
465
330
383
330
43B
330
43C
330
43D
330
43E
 75
     1
 76
     0
 52
45.0
 41
0.1
 77
     0
 78
     1
 53
45.0
 43
0.0
 44
0.0
 45
-0.0707106781186548
 46
0.0707106781186548
 79
     0
 98
        1
 10
0.0
 20
0.0
  0
HATCH
  5
495
330
71
100
AcDbEntity
  8
1
  6
Continuous
 62
     2
100
AcDbHatch
 10
0.0
 20
0.0
 30
0.0
210
0.0
220
0.0
230
1.0
  2
_USER
 70
     0
 71
     1
 91
        1
 92
        1
 93
       14
 72
     2
 10
71.85852441427775
 20
311.0330895250744
 40
1.205656168390944
 50
164.9381082228765
 51
195.0618917770948
 73
     1
 72
     2
 10
72.27765225774056
 20
311.1458798871092
 40
1.63969512393938
 50
195.0618917770886
 51
275.1581447696393
 73
     1
 72
     2
 10
71.98879616300465
 20
314.3457704703308
 40
4.852596863498279
 50
275.1581447696248
 51
285.9799912583529
 73
     1
 72
     1
 10
73.32472408012245
 20
309.68068816453
 11
73.32472408012245
 21
310.5532051713332
 72
     2
 10
72.14666903809757
 20
312.443555890483
 40
2.22738400897271
 50
58.06909105003953
 51
71.55192388186698
 73
     0
 72
     2
 10
72.56483677175837
 20
311.1900101144458
 40
0.9059297849848149
 50
71.55192388183985
 51
113.3722778881318
 73
     0
 72
     2
 10
72.40839673905634
 20
310.8280180957358
 40
0.5115800601948034
 50
113.3722778881777
 51
151.4785267423044
 73
     0
 72
     2
 10
72.78575399713665
 20
311.0330895250744
 40
0.9410597353332545
 50
151.4785267422882
 51
208.5214732577331
 73
     0
 72
     2
 10
72.40839673905634
 20
311.2381609544134
 40
0.511580060194904
 50
208.5214732576956
 51
246.6277221118021
 73
     0
 72
     2
 10
72.56483677175837
 20
310.8761689357028
 40
0.9059297849853228
 50
246.627722111871
 51
288.4480761181465
 73
     0
 72
     2
 10
72.14666903809757
 20
309.6226231596662
 40
2.227384008973501
 50
288.4480761181326
 51
301.9309089499589
 73
     0
 72
     1
 10
73.32472408012245
 20
311.5129738788161
 11
73.32472408012245
 21
312.3854908856193
 72
     2
 10
71.98879616300465
 20
307.7204085798185
 40
4.852596863497931
 50
74.02000874164692
 51
84.84185523037502
 73
     1
 72
     2
 10
72.27765225774056
 20
310.9202991630394
 40
1.63969512394062
 50
84.84185523036271
 51
164.9381082228826
 73
     1
 97
       14
330
469
330
382
330
438
330
468
330
439
330
43A
330
467
330
466
330
465
330
383
330
43B
330
43C
330
43D
330
43E
 75
     1
 76
     0
 52
45.0
 41
0.1
 77
     0
 78
     1
 53
45.0
 43
0.0
 44
0.0
 45
-0.0707106781186548
 46
0.0707106781186548
 79
     0
 98
        1
 10
0.0
 20
0.0
  0
HATCH
  5
496
330
71
100
AcDbEntity
  8
1
  6
Continuous
 62
     2
100
AcDbHatch
 10
0.0
 20
0.0
 30
0.0
210
0.0
220
0.0
230
1.0
  2
_USER
 70
     0
 71
     1
 91
        1
 92
        1
 93
       18
 72
     2
 10
88.38035373699347
 20
310.9202991630394
 40
1.639695123940328
 50
90.0
 51
164.9381082228911
 73
     1
 72
     2
 10
87.96122589353186
 20
311.0330895250744
 40
1.205656168393002
 50
164.9381082229028
 51
195.0618917770946
 73
     1
 72
     2
 10
88.38035373699347
 20
311.1458798871092
 40
1.639695123940434
 50
195.0618917770993
 51
275.1581447696762
 73
     1
 72
     2
 10
88.09149764225765
 20
314.3457704703308
 40
4.852596863498881
 50
275.1581447696363
 51
285.9799912583382
 73
     1
 72
     1
 10
89.42742555937437
 20
309.6806881645293
 11
89.42742555937437
 21
310.5532051713327
 72
     2
 10
88.24937051735046
 20
312.4435558904825
 40
2.227384008972773
 50
58.06909105006066
 51
71.55192388186677
 73
     0
 72
     2
 10
88.66753825101236
 20
311.1900101144458
 40
0.9059297849851757
 50
71.55192388191598
 51
113.3722778881846
 73
     0
 72
     2
 10
88.51109821830926
 20
310.8280180957358
 40
0.5115800601959674
 50
113.3722778881601
 51
151.4785267423246
 73
     0
 72
     2
 10
88.88845547639065
 20
311.0330895250744
 40
0.941059735334906
 50
151.4785267423305
 51
208.5214732576391
 73
     0
 72
     2
 10
88.51109821830926
 20
311.2381609544134
 40
0.5115800601944143
 50
208.5214732575803
 51
250.6628567805147
 73
     0
 72
     2
 10
88.65776821641296
 20
310.8202059740305
 40
0.9545230068260935
 50
250.662856780568
 51
270.0
 73
     0
 72
     1
 10
88.65776821641296
 20
311.7747289808566
 11
89.76140751598106
 21
311.7747289808566
 72
     1
 10
89.76140751598106
 20
311.7747289808566
 11
89.76140751598106
 21
309.5061847631691
 72
     1
 10
89.76140751598106
 20
309.5061847631691
 11
90.95420021814877
 21
309.5061847631691
 72
     1
 10
90.95420021814877
 20
309.5061847631691
 11
90.95420021814877
 21
311.7747289808566
 72
     1
 10
90.95420021814877
 20
311.7747289808566
 11
91.76529925562215
 21
311.7747289808566
 72
     1
 10
91.76529925562215
 20
311.7747289808566
 11
91.76529925562215
 21
312.5599942869802
 72
     1
 10
91.76529925562215
 20
312.5599942869802
 11
88.38035373699347
 21
312.5599942869797
 97
       18
330
3E8
330
3E7
330
3E6
330
3E5
330
3EA
330
384
330
462
330
443
330
461
330
444
330
460
330
45F
330
385
330
45E
330
45D
330
445
330
446
330
3E9
 75
     1
 76
     0
 52
45.0
 41
0.1
 77
     0
 78
     1
 53
45.0
 43
0.0
 44
0.0
 45
-0.0707106781186548
 46
0.0707106781186548
 79
     0
 98
        1
 10
0.0
 20
0.0
  0
HATCH
  5
497
330
71
100
AcDbEntity
  8
1
  6
Continuous
 62
     2
100
AcDbHatch
 10
0.0
 20
0.0
 30
0.0
210
0.0
220
0.0
230
1.0
  2
_USER
 70
     0
 71
     1
 91
        1
 92
        1
 93
       18
 72
     2
 10
88.38035373699347
 20
310.9202991630394
 40
1.639695123940328
 50
90.0
 51
164.9381082228911
 73
     1
 72
     2
 10
87.96122589353186
 20
311.0330895250744
 40
1.205656168393002
 50
164.9381082229028
 51
195.0618917770946
 73
     1
 72
     2
 10
88.38035373699347
 20
311.1458798871092
 40
1.639695123940434
 50
195.0618917770993
 51
275.1581447696762
 73
     1
 72
     2
 10
88.09149764225765
 20
314.3457704703308
 40
4.852596863498881
 50
275.1581447696363
 51
285.9799912583382
 73
     1
 72
     1
 10
89.42742555937437
 20
309.6806881645293
 11
89.42742555937437
 21
310.5532051713327
 72
     2
 10
88.24937051735046
 20
312.4435558904825
 40
2.227384008972773
 50
58.06909105006066
 51
71.55192388186677
 73
     0
 72
     2
 10
88.66753825101236
 20
311.1900101144458
 40
0.9059297849851757
 50
71.55192388191598
 51
113.3722778881846
 73
     0
 72
     2
 10
88.51109821830926
 20
310.8280180957358
 40
0.5115800601959674
 50
113.3722778881601
 51
151.4785267423246
 73
     0
 72
     2
 10
88.88845547639065
 20
311.0330895250744
 40
0.941059735334906
 50
151.4785267423305
 51
208.5214732576391
 73
     0
 72
     2
 10
88.51109821830926
 20
311.2381609544134
 40
0.5115800601944143
 50
208.5214732575803
 51
250.6628567805147
 73
     0
 72
     2
 10
88.65776821641296
 20
310.8202059740305
 40
0.9545230068260935
 50
250.662856780568
 51
270.0
 73
     0
 72
     1
 10
88.65776821641296
 20
311.7747289808566
 11
89.76140751598106
 21
311.7747289808566
 72
     1
 10
89.76140751598106
 20
311.7747289808566
 11
89.76140751598106
 21
309.5061847631691
 72
     1
 10
89.76140751598106
 20
309.5061847631691
 11
90.95420021814877
 21
309.5061847631691
 72
     1
 10
90.95420021814877
 20
309.5061847631691
 11
90.95420021814877
 21
311.7747289808566
 72
     1
 10
90.95420021814877
 20
311.7747289808566
 11
91.76529925562215
 21
311.7747289808566
 72
     1
 10
91.76529925562215
 20
311.7747289808566
 11
91.76529925562215
 21
312.5599942869802
 72
     1
 10
91.76529925562215
 20
312.5599942869802
 11
88.38035373699347
 21
312.5599942869797
 97
       18
330
3E8
330
3E7
330
3E6
330
3E5
330
3EA
330
384
330
462
330
443
330
461
330
444
330
460
330
45F
330
385
330
45E
330
45D
330
445
330
446
330
3E9
 75
     1
 76
     0
 52
45.0
 41
0.1
 77
     0
 78
     1
 53
45.0
 43
0.0
 44
0.0
 45
-0.0707106781186548
 46
0.0707106781186548
 79
     0
 98
        1
 10
0.0
 20
0.0
  0
HATCH
  5
498
330
71
100
AcDbEntity
  8
1
  6
Continuous
 62
     2
100
AcDbHatch
 10
0.0
 20
0.0
 30
0.0
210
0.0
220
0.0
230
1.0
  2
_USER
 70
     0
 71
     1
 91
        4
 92
        1
 93
        8
 72
     2
 10
64.27819464030046
 20
315.4949401477526
 40
0.4242446153838273
 50
90.0
 51
180.0
 73
     1
 72
     1
 10
63.85395002491765
 20
315.4949401477526
 11
63.85395002491765
 21
309.9304293785524
 72
     2
 10
64.27819464030046
 20
309.9304293785524
 40
0.4242446153828041
 50
180.0
 51
270.0
 73
     1
 72
     1
 10
64.27819464030046
 20
309.5061847631691
 11
69.75150673101726
 21
309.5061847631691
 72
     2
 10
69.75150673101726
 20
309.9304293785524
 40
0.4242446153833157
 50
270.0
 51
360.0
 73
     1
 72
     1
 10
70.17575134640114
 20
309.9304293785524
 11
70.17575134640114
 21
315.4949401477526
 72
     2
 10
69.75150673101726
 20
315.4949401477526
 40
0.4242446153838841
 50
0.0
 51
90.0
 73
     1
 72
     1
 10
69.75150673101726
 20
315.9191847631364
 11
64.27819464030046
 21
315.9191847631364
 97
        8
330
456
330
3B3
330
455
330
3B4
330
44C
330
3B1
330
457
330
3B2
 92
       16
 93
        1
 72
     2
 10
66.89778029081796
 20
313.1760579193971
 40
0.4709789327785074
 50
0.0
 51
360.0
 73
     1
 97
        1
330
46A
 92
       16
 93
        8
 72
     2
 10
66.92159530549077
 20
313.1760579193971
 40
0.9118481501444847
 50
295.3740086781757
 51
424.6259913218075
 73
     1
 72
     2
 10
67.44763800357865
 20
314.2851995193649
 40
0.315716923076792
 50
115.3740086783563
 51
180.0
 73
     0
 72
     1
 10
67.13192108050185
 20
314.2851995193649
 11
67.13192108050185
 21
314.8907348078717
 72
     2
 10
67.44763800357865
 20
314.8907348078717
 40
0.3157169230760711
 50
180.0
 51
269.8110329574541
 73
     0
 72
     2
 10
67.45325413888867
 20
313.1878998603025
 40
2.018561131933209
 50
269.8110329575858
 51
450.1889670424142
 73
     0
 72
     2
 10
67.44763800357865
 20
311.4850649127336
 40
0.315716923076792
 50
90.1889670425458
 51
180.0
 73
     0
 72
     1
 10
67.13192108050185
 20
311.4850649127336
 11
67.13192108050185
 21
312.0669163194286
 72
     2
 10
67.44763800357865
 20
312.0669163194286
 40
0.3157169230765842
 50
180.0
 51
244.6259913216525
 73
     0
 97
        8
330
464
330
440
330
3EC
330
463
330
441
330
442
330
3EB
330
43F
 92
       16
 93
       12
 72
     1
 10
64.87208931704694
 20
310.218740318726
 11
66.34792257805657
 21
310.218740318726
 72
     2
 10
66.34792257805657
 20
310.5344572418027
 40
0.3157169230767067
 50
270.0
 51
360.0
 73
     1
 72
     1
 10
66.66363950113316
 20
310.5344572418027
 11
66.66363950113316
 21
312.0652281733343
 72
     2
 10
66.34792257805657
 20
312.0652281733343
 40
0.315716923076593
 50
0.0
 51
64.80558935146468
 73
     1
 72
     2
 10
66.87050702563155
 20
313.1760579193971
 40
0.9118975235575889
 50
115.1944106485122
 51
244.805589351471
 73
     0
 72
     2
 10
66.34792257805657
 20
314.2868876654593
 40
0.3157169230761203
 50
295.1944106485397
 51
360.0
 73
     1
 72
     1
 10
66.66363950113316
 20
314.2868876654593
 11
66.66363950113316
 21
314.8909122845198
 72
     2
 10
66.34792257805657
 20
314.8909122845198
 40
0.315716923076593
 50
0.0
 51
90.0
 73
     1
 72
     1
 10
66.34792257805657
 20
315.2066292075959
 11
64.87208931704694
 21
315.2066292075959
 72
     2
 10
64.87208931704694
 20
314.8909122845198
 40
0.3157169230760815
 50
90.0
 51
180.0
 73
     1
 72
     1
 10
64.55637239397126
 20
314.8909122845198
 11
64.55637239397126
 21
310.5344572418027
 72
     2
 10
64.87208931704694
 20
310.5344572418027
 40
0.3157169230756836
 50
180.0
 51
270.0
 73
     1
 97
       12
330
3B8
330
449
330
3B7
330
45A
330
3B6
330
459
330
44A
330
44B
330
3B5
330
458
330
3B0
330
45B
 75
     1
 76
     0
 52
45.0
 41
0.1
 77
     0
 78
     1
 53
45.0
 43
0.0
 44
0.0
 45
-0.0707106781186548
 46
0.0707106781186548
 79
     0
 98
        1
 10
0.0
 20
0.0
  0
HATCH
  5
499
330
71
100
AcDbEntity
  8
1
  6
Continuous
 62
     2
100
AcDbHatch
 10
0.0
 20
0.0
 30
0.0
210
0.0
220
0.0
230
1.0
  2
_USER
 70
     0
 71
     1
 91
        4
 92
        1
 93
        8
 72
     2
 10
64.27819464030046
 20
315.4949401477526
 40
0.4242446153838273
 50
90.0
 51
180.0
 73
     1
 72
     1
 10
63.85395002491765
 20
315.4949401477526
 11
63.85395002491765
 21
309.9304293785524
 72
     2
 10
64.27819464030046
 20
309.9304293785524
 40
0.4242446153828041
 50
180.0
 51
270.0
 73
     1
 72
     1
 10
64.27819464030046
 20
309.5061847631691
 11
69.75150673101726
 21
309.5061847631691
 72
     2
 10
69.75150673101726
 20
309.9304293785524
 40
0.4242446153833157
 50
270.0
 51
360.0
 73
     1
 72
     1
 10
70.17575134640114
 20
309.9304293785524
 11
70.17575134640114
 21
315.4949401477526
 72
     2
 10
69.75150673101726
 20
315.4949401477526
 40
0.4242446153838841
 50
0.0
 51
90.0
 73
     1
 72
     1
 10
69.75150673101726
 20
315.9191847631364
 11
64.27819464030046
 21
315.9191847631364
 97
        8
330
456
330
3B3
330
455
330
3B4
330
44C
330
3B1
330
457
330
3B2
 92
       16
 93
        1
 72
     2
 10
66.89778029081796
 20
313.1760579193971
 40
0.4709789327785074
 50
0.0
 51
360.0
 73
     1
 97
        1
330
46A
 92
       16
 93
        8
 72
     2
 10
66.92159530549077
 20
313.1760579193971
 40
0.9118481501444847
 50
295.3740086781757
 51
424.6259913218075
 73
     1
 72
     2
 10
67.44763800357865
 20
314.2851995193649
 40
0.315716923076792
 50
115.3740086783563
 51
180.0
 73
     0
 72
     1
 10
67.13192108050185
 20
314.2851995193649
 11
67.13192108050185
 21
314.8907348078717
 72
     2
 10
67.44763800357865
 20
314.8907348078717
 40
0.3157169230760711
 50
180.0
 51
269.8110329574541
 73
     0
 72
     2
 10
67.45325413888867
 20
313.1878998603025
 40
2.018561131933209
 50
269.8110329575858
 51
450.1889670424142
 73
     0
 72
     2
 10
67.44763800357865
 20
311.4850649127336
 40
0.315716923076792
 50
90.1889670425458
 51
180.0
 73
     0
 72
     1
 10
67.13192108050185
 20
311.4850649127336
 11
67.13192108050185
 21
312.0669163194286
 72
     2
 10
67.44763800357865
 20
312.0669163194286
 40
0.3157169230765842
 50
180.0
 51
244.6259913216525
 73
     0
 97
        8
330
464
330
440
330
3EC
330
463
330
441
330
442
330
3EB
330
43F
 92
       16
 93
       12
 72
     1
 10
64.87208931704694
 20
310.218740318726
 11
66.34792257805657
 21
310.218740318726
 72
     2
 10
66.34792257805657
 20
310.5344572418027
 40
0.3157169230767067
 50
270.0
 51
360.0
 73
     1
 72
     1
 10
66.66363950113316
 20
310.5344572418027
 11
66.66363950113316
 21
312.0652281733343
 72
     2
 10
66.34792257805657
 20
312.0652281733343
 40
0.315716923076593
 50
0.0
 51
64.80558935146468
 73
     1
 72
     2
 10
66.87050702563155
 20
313.1760579193971
 40
0.9118975235575889
 50
115.1944106485122
 51
244.805589351471
 73
     0
 72
     2
 10
66.34792257805657
 20
314.2868876654593
 40
0.3157169230761203
 50
295.1944106485397
 51
360.0
 73
     1
 72
     1
 10
66.66363950113316
 20
314.2868876654593
 11
66.66363950113316
 21
314.8909122845198
 72
     2
 10
66.34792257805657
 20
314.8909122845198
 40
0.315716923076593
 50
0.0
 51
90.0
 73
     1
 72
     1
 10
66.34792257805657
 20
315.2066292075959
 11
64.87208931704694
 21
315.2066292075959
 72
     2
 10
64.87208931704694
 20
314.8909122845198
 40
0.3157169230760815
 50
90.0
 51
180.0
 73
     1
 72
     1
 10
64.55637239397126
 20
314.8909122845198
 11
64.55637239397126
 21
310.5344572418027
 72
     2
 10
64.87208931704694
 20
310.5344572418027
 40
0.3157169230756836
 50
180.0
 51
270.0
 73
     1
 97
       12
330
3B8
330
449
330
3B7
330
45A
330
3B6
330
459
330
44A
330
44B
330
3B5
330
458
330
3B0
330
45B
 75
     1
 76
     0
 52
45.0
 41
0.1
 77
     0
 78
     1
 53
45.0
 43
0.0
 44
0.0
 45
-0.0707106781186548
 46
0.0707106781186548
 79
     0
 98
        1
 10
0.0
 20
0.0
  0
HATCH
  5
49A
330
71
100
AcDbEntity
  8
1
  6
Continuous
 62
     2
100
AcDbHatch
 10
0.0
 20
0.0
 30
0.0
210
0.0
220
0.0
230
1.0
  2
_USER
 70
     0
 71
     1
 91
        2
 92
        1
 93
       12
 72
     2
 10
78.95335864428975
 20
314.3922800012487
 40
1.526904761905882
 50
90.0
 51
270.0
 73
     1
 72
     1
 10
78.95335864428975
 20
312.8653752393434
 11
82.10367836807075
 21
312.8653752393434
 72
     1
 10
82.10367836807075
 20
312.8653752393434
 11
82.10367836807075
 21
313.5633888447859
 72
     1
 10
82.10367836807075
 20
313.5633888447859
 11
80.76775054164307
 21
313.5633888447859
 72
     1
 10
80.76775054164307
 20
313.5633888447859
 11
80.76775054164307
 21
314.0432731985276
 72
     1
 10
80.76775054164307
 20
314.0432731985276
 11
82.10367836807075
 21
314.0432731985276
 72
     1
 10
82.10367836807075
 20
314.0432731985276
 11
82.10367836807075
 21
314.7412868039698
 72
     1
 10
82.10367836807075
 20
314.7412868039698
 11
80.76775054164307
 21
314.7412868039698
 72
     1
 10
80.76775054164307
 20
314.7412868039698
 11
80.76775054164307
 21
315.2211711577116
 72
     1
 10
80.76775054164307
 20
315.2211711577116
 11
82.10367836807075
 21
315.2211711577116
 72
     1
 10
82.10367836807075
 20
315.2211711577116
 11
82.10367836807075
 21
315.9191847631546
 72
     1
 10
82.10367836807075
 20
315.9191847631546
 11
78.95335864428975
 21
315.9191847631546
 97
       12
330
3A7
330
3A1
330
3C8
330
3C7
330
3C6
330
3C5
330
3A2
330
3A3
330
3A4
330
3A5
330
447
330
3A6
 92
       16
 93
        4
 72
     2
 10
79.36937069080125
 20
314.3922800012487
 40
0.7717997786796724
 50
141.8795802028404
 51
218.1204197971596
 73
     1
 72
     2
 10
79.16963065445495
 20
314.2355488231283
 40
0.5179085730134722
 50
218.120419797156
 51
321.8795802028517
 73
     1
 72
     2
 10
78.96989061810876
 20
314.3922800012487
 40
0.7717997786796724
 50
321.8795802028404
 51
398.1204197971596
 73
     1
 72
     2
 10
79.16963065445495
 20
314.5490111793691
 40
0.5179085730135967
 50
38.12041979715324
 51
141.879580202839
 73
     1
 97
        4
330
454
330
453
330
44E
330
44D
 75
     1
 76
     0
 52
45.0
 41
0.1
 77
     0
 78
     1
 53
45.0
 43
0.0
 44
0.0
 45
-0.0707106781186548
 46
0.0707106781186548
 79
     0
 98
        1
 10
0.0
 20
0.0
  0
HATCH
  5
49B
330
71
100
AcDbEntity
  8
1
  6
Continuous
 62
     2
100
AcDbHatch
 10
0.0
 20
0.0
 30
0.0
210
0.0
220
0.0
230
1.0
  2
_USER
 70
     0
 71
     1
 91
        2
 92
        1
 93
       12
 72
     2
 10
78.95335864428975
 20
314.3922800012487
 40
1.526904761905882
 50
90.0
 51
270.0
 73
     1
 72
     1
 10
78.95335864428975
 20
312.8653752393434
 11
82.10367836807075
 21
312.8653752393434
 72
     1
 10
82.10367836807075
 20
312.8653752393434
 11
82.10367836807075
 21
313.5633888447859
 72
     1
 10
82.10367836807075
 20
313.5633888447859
 11
80.76775054164307
 21
313.5633888447859
 72
     1
 10
80.76775054164307
 20
313.5633888447859
 11
80.76775054164307
 21
314.0432731985276
 72
     1
 10
80.76775054164307
 20
314.0432731985276
 11
82.10367836807075
 21
314.0432731985276
 72
     1
 10
82.10367836807075
 20
314.0432731985276
 11
82.10367836807075
 21
314.7412868039698
 72
     1
 10
82.10367836807075
 20
314.7412868039698
 11
80.76775054164307
 21
314.7412868039698
 72
     1
 10
80.76775054164307
 20
314.7412868039698
 11
80.76775054164307
 21
315.2211711577116
 72
     1
 10
80.76775054164307
 20
315.2211711577116
 11
82.10367836807075
 21
315.2211711577116
 72
     1
 10
82.10367836807075
 20
315.2211711577116
 11
82.10367836807075
 21
315.9191847631546
 72
     1
 10
82.10367836807075
 20
315.9191847631546
 11
78.95335864428975
 21
315.9191847631546
 97
       12
330
3A7
330
3A1
330
3C8
330
3C7
330
3C6
330
3C5
330
3A2
330
3A3
330
3A4
330
3A5
330
447
330
3A6
 92
       16
 93
        4
 72
     2
 10
79.36937069080125
 20
314.3922800012487
 40
0.7717997786796724
 50
141.8795802028404
 51
218.1204197971596
 73
     1
 72
     2
 10
79.16963065445495
 20
314.2355488231283
 40
0.5179085730134722
 50
218.120419797156
 51
321.8795802028517
 73
     1
 72
     2
 10
78.96989061810876
 20
314.3922800012487
 40
0.7717997786796724
 50
321.8795802028404
 51
398.1204197971596
 73
     1
 72
     2
 10
79.16963065445495
 20
314.5490111793691
 40
0.5179085730135967
 50
38.12041979715324
 51
141.879580202839
 73
     1
 97
        4
330
454
330
453
330
44E
330
44D
 75
     1
 76
     0
 52
45.0
 41
0.1
 77
     0
 78
     1
 53
45.0
 43
0.0
 44
0.0
 45
-0.0707106781186548
 46
0.0707106781186548
 79
     0
 98
        1
 10
0.0
 20
0.0
  0
HATCH
  5
49C
330
71
100
AcDbEntity
  8
1
  6
Continuous
 62
     2
100
AcDbHatch
 10
0.0
 20
0.0
 30
0.0
210
0.0
220
0.0
230
1.0
  2
_USER
 70
     0
 71
     1
 91
        2
 92
        1
 93
        4
 72
     2
 10
74.92774328182816
 20
311.0330895250744
 40
1.458034083651515
 50
117.5481481756619
 51
242.451851824337
 73
     1
 72
     2
 10
75.20868317366146
 20
311.5716645353776
 40
2.065479772208382
 50
242.4518518243383
 51
297.5481481756889
 73
     1
 72
     2
 10
75.48962306549475
 20
311.0330895250744
 40
1.458034083651977
 50
297.5481481757016
 51
422.4518518242994
 73
     1
 72
     2
 10
75.20868317366146
 20
310.4945145147716
 40
2.065479772208593
 50
62.45185182430674
 51
117.548148175666
 73
     1
 97
        4
330
452
330
44F
330
451
330
450
 92
       16
 93
        4
 72
     2
 10
75.20868317366146
 20
311.1898207031949
 40
0.5179085730132998
 50
38.12041979714704
 51
141.8795802028588
 73
     1
 72
     2
 10
75.40842321000756
 20
311.0330895250744
 40
0.7717997786794808
 50
141.8795802028346
 51
218.1204197971687
 73
     1
 72
     2
 10
75.20868317366146
 20
310.8763583469544
 40
0.5179085730137529
 50
218.1204197971956
 51
321.8795802027985
 73
     1
 72
     2
 10
75.00894313731504
 20
311.0330895250744
 40
0.7717997786796947
 50
321.8795802028417
 51
398.120419797155
 73
     1
 97
        4
330
435
330
436
330
437
330
434
 75
     1
 76
     0
 52
45.0
 41
0.1
 77
     0
 78
     1
 53
45.0
 43
0.0
 44
0.0
 45
-0.0707106781186548
 46
0.0707106781186548
 79
     0
 98
        1
 10
0.0
 20
0.0
  0
HATCH
  5
49D
330
71
100
AcDbEntity
  8
1
  6
Continuous
 62
     2
100
AcDbHatch
 10
0.0
 20
0.0
 30
0.0
210
0.0
220
0.0
230
1.0
  2
_USER
 70
     0
 71
     1
 91
        2
 92
        1
 93
        4
 72
     2
 10
74.92774328182816
 20
311.0330895250744
 40
1.458034083651515
 50
117.5481481756619
 51
242.451851824337
 73
     1
 72
     2
 10
75.20868317366146
 20
311.5716645353776
 40
2.065479772208382
 50
242.4518518243383
 51
297.5481481756889
 73
     1
 72
     2
 10
75.48962306549475
 20
311.0330895250744
 40
1.458034083651977
 50
297.5481481757016
 51
422.4518518242994
 73
     1
 72
     2
 10
75.20868317366146
 20
310.4945145147716
 40
2.065479772208593
 50
62.45185182430674
 51
117.548148175666
 73
     1
 97
        4
330
452
330
44F
330
451
330
450
 92
       16
 93
        4
 72
     2
 10
75.20868317366146
 20
311.1898207031949
 40
0.5179085730132998
 50
38.12041979714704
 51
141.8795802028588
 73
     1
 72
     2
 10
75.40842321000756
 20
311.0330895250744
 40
0.7717997786794808
 50
141.8795802028346
 51
218.1204197971687
 73
     1
 72
     2
 10
75.20868317366146
 20
310.8763583469544
 40
0.5179085730137529
 50
218.1204197971956
 51
321.8795802027985
 73
     1
 72
     2
 10
75.00894313731504
 20
311.0330895250744
 40
0.7717997786796947
 50
321.8795802028417
 51
398.120419797155
 73
     1
 97
        4
330
435
330
436
330
437
330
434
 75
     1
 76
     0
 52
45.0
 41
0.1
 77
     0
 78
     1
 53
45.0
 43
0.0
 44
0.0
 45
-0.0707106781186548
 46
0.0707106781186548
 79
     0
 98
        1
 10
0.0
 20
0.0
  0
HATCH
  5
49E
330
71
100
AcDbEntity
  8
1
  6
Continuous
 62
     2
100
AcDbHatch
 10
0.0
 20
0.0
 30
0.0
210
0.0
220
0.0
230
1.0
  2
_USER
 70
     0
 71
     1
 91
        2
 92
        1
 93
        6
 72
     1
 10
70.65286842726795
 20
315.9191847631546
 11
70.65286842726795
 21
312.8653752393434
 72
     1
 10
70.65286842726795
 20
312.8653752393434
 11
71.89337283752207
 21
312.8653752393434
 72
     1
 10
71.89337283752207
 20
312.8653752393434
 11
71.89337283752207
 21
313.8084534804872
 72
     1
 10
71.89337283752207
 20
313.8084534804872
 11
72.65214042530235
 21
313.8084534804872
 72
     2
 10
72.65214042530235
 20
314.8638191218209
 40
1.055365641333708
 50
270.0
 51
450.0
 73
     1
 72
     1
 10
72.65214042530235
 20
315.9191847631546
 11
70.65286842726795
 21
315.9191847631546
 97
        6
330
45C
330
3B9
330
3AF
330
3AE
330
3BB
330
3BA
 92
       16
 93
        4
 72
     1
 10
72.21066789906396
 20
315.2560789177145
 11
71.89337283752207
 21
315.2560789177145
 72
     1
 10
71.89337283752207
 20
315.2560789177145
 11
71.89337283752207
 21
314.5503512683723
 72
     1
 10
71.89337283752207
 20
314.5503512683723
 11
72.21066789906396
 21
314.5503512683723
 72
     2
 10
72.21066789906396
 20
314.9032150930434
 40
0.3528638246710898
 50
270.0
 51
450.0
 73
     1
 97
        4
330
3BC
330
3AD
330
3BD
330
448
 75
     1
 76
     0
 52
45.0
 41
0.1
 77
     0
 78
     1
 53
45.0
 43
0.0
 44
0.0
 45
-0.0707106781186548
 46
0.0707106781186548
 79
     0
 98
        1
 10
0.0
 20
0.0
  0
HATCH
  5
49F
330
71
100
AcDbEntity
  8
1
  6
Continuous
 62
     2
100
AcDbHatch
 10
0.0
 20
0.0
 30
0.0
210
0.0
220
0.0
230
1.0
  2
_USER
 70
     0
 71
     1
 91
        2
 92
        1
 93
        6
 72
     1
 10
70.65286842726795
 20
315.9191847631546
 11
70.65286842726795
 21
312.8653752393434
 72
     1
 10
70.65286842726795
 20
312.8653752393434
 11
71.89337283752207
 21
312.8653752393434
 72
     1
 10
71.89337283752207
 20
312.8653752393434
 11
71.89337283752207
 21
313.8084534804872
 72
     1
 10
71.89337283752207
 20
313.8084534804872
 11
72.65214042530235
 21
313.8084534804872
 72
     2
 10
72.65214042530235
 20
314.8638191218209
 40
1.055365641333708
 50
270.0
 51
450.0
 73
     1
 72
     1
 10
72.65214042530235
 20
315.9191847631546
 11
70.65286842726795
 21
315.9191847631546
 97
        6
330
45C
330
3B9
330
3AF
330
3AE
330
3BB
330
3BA
 92
       16
 93
        4
 72
     1
 10
72.21066789906396
 20
315.2560789177145
 11
71.89337283752207
 21
315.2560789177145
 72
     1
 10
71.89337283752207
 20
315.2560789177145
 11
71.89337283752207
 21
314.5503512683723
 72
     1
 10
71.89337283752207
 20
314.5503512683723
 11
72.21066789906396
 21
314.5503512683723
 72
     2
 10
72.21066789906396
 20
314.9032150930434
 40
0.3528638246710898
 50
270.0
 51
450.0
 73
     1
 97
        4
330
3BC
330
3AD
330
3BD
330
448
 75
     1
 76
     0
 52
45.0
 41
0.1
 77
     0
 78
     1
 53
45.0
 43
0.0
 44
0.0
 45
-0.0707106781186548
 46
0.0707106781186548
 79
     0
 98
        1
 10
0.0
 20
0.0
  0
HATCH
  5
4A0
330
71
100
AcDbEntity
  8
1
  6
Continuous
 62
     2
100
AcDbHatch
 10
0.0
 20
0.0
 30
0.0
210
0.0
220
0.0
230
1.0
  2
_USER
 70
     0
 71
     1
 91
        1
 92
        1
 93
       12
 72
     1
 10
90.26715162170115
 20
315.9191847631546
 11
91.66987583944837
 21
315.9191847631546
 72
     1
 10
91.66987583944837
 20
315.9191847631546
 11
90.36734620868185
 21
314.4462342331184
 72
     1
 10
90.36734620868185
 20
314.4462342331184
 11
91.76529925562215
 21
312.8653752393434
 72
     1
 10
91.76529925562215
 20
312.8653752393434
 11
90.36257503787385
 21
312.8653752393434
 72
     1
 10
90.36257503787385
 20
312.8653752393434
 11
89.66598409980836
 21
313.6531070246371
 72
     1
 10
89.66598409980836
 20
313.6531070246371
 11
88.96939316174266
 21
312.8653752393434
 72
     1
 10
88.96939316174266
 20
312.8653752393434
 11
87.56666894399444
 21
312.8653752393434
 72
     1
 10
87.56666894399444
 20
312.8653752393434
 11
88.96462199093475
 21
314.4462342331184
 72
     1
 10
88.96462199093475
 20
314.4462342331184
 11
87.66209236016726
 21
315.9191847631546
 72
     1
 10
87.66209236016726
 20
315.9191847631546
 11
89.06481657791656
 21
315.9191847631546
 72
     1
 10
89.06481657791656
 20
315.9191847631546
 11
89.66598409980836
 21
315.239361441599
 72
     1
 10
89.66598409980836
 20
315.239361441599
 11
90.26715162170115
 21
315.9191847631546
 97
       12
330
388
330
3E1
330
3E0
330
3DF
330
3DE
330
389
330
38A
330
386
330
387
330
3E4
330
3E3
330
3E2
 75
     1
 76
     0
 52
45.0
 41
0.1
 77
     0
 78
     1
 53
45.0
 43
0.0
 44
0.0
 45
-0.0707106781186548
 46
0.0707106781186548
 79
     0
 98
        1
 10
0.0
 20
0.0
  0
HATCH
  5
4A1
330
71
100
AcDbEntity
  8
1
  6
Continuous
 62
     2
100
AcDbHatch
 10
0.0
 20
0.0
 30
0.0
210
0.0
220
0.0
230
1.0
  2
_USER
 70
     0
 71
     1
 91
        1
 92
        1
 93
       12
 72
     1
 10
90.26715162170115
 20
315.9191847631546
 11
91.66987583944837
 21
315.9191847631546
 72
     1
 10
91.66987583944837
 20
315.9191847631546
 11
90.36734620868185
 21
314.4462342331184
 72
     1
 10
90.36734620868185
 20
314.4462342331184
 11
91.76529925562215
 21
312.8653752393434
 72
     1
 10
91.76529925562215
 20
312.8653752393434
 11
90.36257503787385
 21
312.8653752393434
 72
     1
 10
90.36257503787385
 20
312.8653752393434
 11
89.66598409980836
 21
313.6531070246371
 72
     1
 10
89.66598409980836
 20
313.6531070246371
 11
88.96939316174266
 21
312.8653752393434
 72
     1
 10
88.96939316174266
 20
312.8653752393434
 11
87.56666894399444
 21
312.8653752393434
 72
     1
 10
87.56666894399444
 20
312.8653752393434
 11
88.96462199093475
 21
314.4462342331184
 72
     1
 10
88.96462199093475
 20
314.4462342331184
 11
87.66209236016726
 21
315.9191847631546
 72
     1
 10
87.66209236016726
 20
315.9191847631546
 11
89.06481657791656
 21
315.9191847631546
 72
     1
 10
89.06481657791656
 20
315.9191847631546
 11
89.66598409980836
 21
315.239361441599
 72
     1
 10
89.66598409980836
 20
315.239361441599
 11
90.26715162170115
 21
315.9191847631546
 97
       12
330
388
330
3E1
330
3E0
330
3DF
330
3DE
330
389
330
38A
330
386
330
387
330
3E4
330
3E3
330
3E2
 75
     1
 76
     0
 52
45.0
 41
0.1
 77
     0
 78
     1
 53
45.0
 43
0.0
 44
0.0
 45
-0.0707106781186548
 46
0.0707106781186548
 79
     0
 98
        1
 10
0.0
 20
0.0
  0
HATCH
  5
4A2
330
71
100
AcDbEntity
  8
1
  6
Continuous
 62
     2
100
AcDbHatch
 10
0.0
 20
0.0
 30
0.0
210
0.0
220
0.0
230
1.0
  2
_USER
 70
     0
 71
     1
 91
        1
 92
        1
 93
        4
 72
     1
 10
87.44738967377756
 20
315.9191847631546
 11
87.44738967377756
 21
312.8653752393434
 72
     1
 10
87.44738967377756
 20
312.8653752393434
 11
86.20688526352467
 21
312.8653752393434
 72
     1
 10
86.20688526352467
 20
312.8653752393434
 11
86.20688526352467
 21
315.9191847631546
 72
     1
 10
86.20688526352467
 20
315.9191847631546
 11
87.44738967377756
 21
315.9191847631546
 97
        4
330
3DC
330
38B
330
3DB
330
3DD
 75
     1
 76
     0
 52
45.0
 41
0.1
 77
     0
 78
     1
 53
45.0
 43
0.0
 44
0.0
 45
-0.0707106781186548
 46
0.0707106781186548
 79
     0
 98
        1
 10
0.0
 20
0.0
  0
HATCH
  5
4A3
330
71
100
AcDbEntity
  8
1
  6
Continuous
 62
     2
100
AcDbHatch
 10
0.0
 20
0.0
 30
0.0
210
0.0
220
0.0
230
1.0
  2
_USER
 70
     0
 71
     1
 91
        1
 92
        1
 93
        4
 72
     1
 10
87.44738967377756
 20
315.9191847631546
 11
87.44738967377756
 21
312.8653752393434
 72
     1
 10
87.44738967377756
 20
312.8653752393434
 11
86.20688526352467
 21
312.8653752393434
 72
     1
 10
86.20688526352467
 20
312.8653752393434
 11
86.20688526352467
 21
315.9191847631546
 72
     1
 10
86.20688526352467
 20
315.9191847631546
 11
87.44738967377756
 21
315.9191847631546
 97
        4
330
3DC
330
38B
330
3DB
330
3DD
 75
     1
 76
     0
 52
45.0
 41
0.1
 77
     0
 78
     1
 53
45.0
 43
0.0
 44
0.0
 45
-0.0707106781186548
 46
0.0707106781186548
 79
     0
 98
        1
 10
0.0
 20
0.0
  0
HATCH
  5
4A4
330
71
100
AcDbEntity
  8
1
  6
Continuous
 62
     2
100
AcDbHatch
 10
0.0
 20
0.0
 30
0.0
210
0.0
220
0.0
230
1.0
  2
_USER
 70
     0
 71
     1
 91
        2
 92
        1
 93
        8
 72
     1
 10
87.05694567024557
 20
309.5061847631691
 11
85.81644125999165
 21
309.5061847631691
 72
     1
 10
85.81644125999165
 20
309.5061847631691
 11
85.60496120651587
 21
310.0471453073869
 72
     1
 10
85.60496120651587
 20
310.0471453073869
 11
84.47251962984205
 21
310.0471453073869
 72
     1
 10
84.47251962984205
 20
310.0471453073869
 11
84.26103957636624
 21
309.5061847631691
 72
     1
 10
84.26103957636624
 20
309.5061847631691
 11
83.02053516611326
 21
309.5061847631691
 72
     1
 10
83.02053516611326
 20
309.5061847631691
 11
84.41848821305257
 21
312.5599942869802
 72
     1
 10
84.41848821305257
 20
312.5599942869802
 11
85.65899262330527
 21
312.5599942869802
 72
     1
 10
85.65899262330527
 20
312.5599942869802
 11
87.05694567024557
 21
309.5061847631691
 97
        8
330
3D7
330
391
330
3D6
330
3D9
330
38E
330
3D8
330
38F
330
390
 92
       16
 93
        3
 72
     1
 10
84.73857518098706
 20
310.7277085726936
 11
85.33890565536956
 21
310.7277085726936
 72
     1
 10
85.33890565536956
 20
310.7277085726936
 11
85.03874041817946
 21
311.4955235386802
 72
     1
 10
85.03874041817946
 20
311.4955235386802
 11
84.73857518098706
 21
310.7277085726936
 97
        3
330
38D
330
38C
330
3DA
 75
     1
 76
     0
 52
45.0
 41
0.1
 77
     0
 78
     1
 53
45.0
 43
0.0
 44
0.0
 45
-0.0707106781186548
 46
0.0707106781186548
 79
     0
 98
        1
 10
0.0
 20
0.0
  0
HATCH
  5
4A5
330
71
100
AcDbEntity
  8
1
  6
Continuous
 62
     2
100
AcDbHatch
 10
0.0
 20
0.0
 30
0.0
210
0.0
220
0.0
230
1.0
  2
_USER
 70
     0
 71
     1
 91
        2
 92
        1
 93
        8
 72
     1
 10
87.05694567024557
 20
309.5061847631691
 11
85.81644125999165
 21
309.5061847631691
 72
     1
 10
85.81644125999165
 20
309.5061847631691
 11
85.60496120651587
 21
310.0471453073869
 72
     1
 10
85.60496120651587
 20
310.0471453073869
 11
84.47251962984205
 21
310.0471453073869
 72
     1
 10
84.47251962984205
 20
310.0471453073869
 11
84.26103957636624
 21
309.5061847631691
 72
     1
 10
84.26103957636624
 20
309.5061847631691
 11
83.02053516611326
 21
309.5061847631691
 72
     1
 10
83.02053516611326
 20
309.5061847631691
 11
84.41848821305257
 21
312.5599942869802
 72
     1
 10
84.41848821305257
 20
312.5599942869802
 11
85.65899262330527
 21
312.5599942869802
 72
     1
 10
85.65899262330527
 20
312.5599942869802
 11
87.05694567024557
 21
309.5061847631691
 97
        8
330
3D7
330
391
330
3D6
330
3D9
330
38E
330
3D8
330
38F
330
390
 92
       16
 93
        3
 72
     1
 10
84.73857518098706
 20
310.7277085726936
 11
85.33890565536956
 21
310.7277085726936
 72
     1
 10
85.33890565536956
 20
310.7277085726936
 11
85.03874041817946
 21
311.4955235386802
 72
     1
 10
85.03874041817946
 20
311.4955235386802
 11
84.73857518098706
 21
310.7277085726936
 97
        3
330
38D
330
38C
330
3DA
 75
     1
 76
     0
 52
45.0
 41
0.1
 77
     0
 78
     1
 53
45.0
 43
0.0
 44
0.0
 45
-0.0707106781186548
 46
0.0707106781186548
 79
     0
 98
        1
 10
0.0
 20
0.0
  0
HATCH
  5
4A6
330
71
100
AcDbEntity
  8
1
  6
Continuous
 62
     2
100
AcDbHatch
 10
0.0
 20
0.0
 30
0.0
210
0.0
220
0.0
230
1.0
  2
_USER
 70
     0
 71
     1
 91
        1
 92
        1
 93
        8
 72
     1
 10
80.86302302693105
 20
312.5599942869802
 11
80.86302302693105
 21
311.7747289808566
 72
     1
 10
80.86302302693105
 20
311.7747289808566
 11
81.67412206440565
 21
311.7747289808566
 72
     1
 10
81.67412206440565
 20
311.7747289808566
 11
81.67412206440565
 21
309.5061847631691
 72
     1
 10
81.67412206440565
 20
309.5061847631691
 11
82.86691476657217
 21
309.5061847631691
 72
     1
 10
82.86691476657217
 20
309.5061847631691
 11
82.86691476657217
 21
311.7747289808566
 72
     1
 10
82.86691476657217
 20
311.7747289808566
 11
83.67801380404467
 21
311.7747289808566
 72
     1
 10
83.67801380404467
 20
311.7747289808566
 11
83.67801380404467
 21
312.5599942869802
 72
     1
 10
83.67801380404467
 20
312.5599942869802
 11
80.86302302693105
 21
312.5599942869802
 97
        8
330
3D3
330
3D2
330
3D1
330
392
330
393
330
3D5
330
394
330
3D4
 75
     1
 76
     0
 52
45.0
 41
0.1
 77
     0
 78
     1
 53
45.0
 43
0.0
 44
0.0
 45
-0.0707106781186548
 46
0.0707106781186548
 79
     0
 98
        1
 10
0.0
 20
0.0
  0
HATCH
  5
4A7
330
71
100
AcDbEntity
  8
1
  6
Continuous
 62
     2
100
AcDbHatch
 10
0.0
 20
0.0
 30
0.0
210
0.0
220
0.0
230
1.0
  2
_USER
 70
     0
 71
     1
 91
        1
 92
        1
 93
        8
 72
     1
 10
80.86302302693105
 20
312.5599942869802
 11
80.86302302693105
 21
311.7747289808566
 72
     1
 10
80.86302302693105
 20
311.7747289808566
 11
81.67412206440565
 21
311.7747289808566
 72
     1
 10
81.67412206440565
 20
311.7747289808566
 11
81.67412206440565
 21
309.5061847631691
 72
     1
 10
81.67412206440565
 20
309.5061847631691
 11
82.86691476657217
 21
309.5061847631691
 72
     1
 10
82.86691476657217
 20
309.5061847631691
 11
82.86691476657217
 21
311.7747289808566
 72
     1
 10
82.86691476657217
 20
311.7747289808566
 11
83.67801380404467
 21
311.7747289808566
 72
     1
 10
83.67801380404467
 20
311.7747289808566
 11
83.67801380404467
 21
312.5599942869802
 72
     1
 10
83.67801380404467
 20
312.5599942869802
 11
80.86302302693105
 21
312.5599942869802
 97
        8
330
3D3
330
3D2
330
3D1
330
392
330
393
330
3D5
330
394
330
3D4
 75
     1
 76
     0
 52
45.0
 41
0.1
 77
     0
 78
     1
 53
45.0
 43
0.0
 44
0.0
 45
-0.0707106781186548
 46
0.0707106781186548
 79
     0
 98
        1
 10
0.0
 20
0.0
  0
HATCH
  5
4A8
330
71
100
AcDbEntity
  8
1
  6
Continuous
 62
     2
100
AcDbHatch
 10
0.0
 20
0.0
 30
0.0
210
0.0
220
0.0
230
1.0
  2
_USER
 70
     0
 71
     1
 91
        1
 92
        1
 93
       10
 72
     1
 10
83.53502961067016
 20
315.9191847631546
 11
82.34223690850365
 21
315.9191847631546
 72
     1
 10
82.34223690850365
 20
315.9191847631546
 11
82.34223690850365
 21
312.8653752393434
 72
     1
 10
82.34223690850365
 20
312.8653752393434
 11
83.53502961067016
 21
312.8653752393434
 72
     1
 10
83.53502961067016
 20
312.8653752393434
 11
83.53502961067016
 21
314.1741507495481
 72
     1
 10
83.53502961067016
 20
314.1741507495481
 11
84.77553402092417
 21
312.8653752393434
 72
     1
 10
84.77553402092417
 20
312.8653752393434
 11
85.96832672309077
 21
312.8653752393434
 72
     1
 10
85.96832672309077
 20
312.8653752393434
 11
85.96832672309077
 21
315.9191847631546
 72
     1
 10
85.96832672309077
 20
315.9191847631546
 11
84.77553402092417
 21
315.9191847631546
 72
     1
 10
84.77553402092417
 20
315.9191847631546
 11
84.77553402092417
 21
314.6104092529494
 72
     1
 10
84.77553402092417
 20
314.6104092529494
 11
83.53502961067016
 21
315.9191847631546
 97
       10
330
3CD
330
397
330
398
330
399
330
39A
330
3D0
330
395
330
3CF
330
3CE
330
396
 75
     1
 76
     0
 52
45.0
 41
0.1
 77
     0
 78
     1
 53
45.0
 43
0.0
 44
0.0
 45
-0.0707106781186548
 46
0.0707106781186548
 79
     0
 98
        1
 10
0.0
 20
0.0
  0
HATCH
  5
4A9
330
71
100
AcDbEntity
  8
1
  6
Continuous
 62
     2
100
AcDbHatch
 10
0.0
 20
0.0
 30
0.0
210
0.0
220
0.0
230
1.0
  2
_USER
 70
     0
 71
     1
 91
        1
 92
        1
 93
       10
 72
     1
 10
83.53502961067016
 20
315.9191847631546
 11
82.34223690850365
 21
315.9191847631546
 72
     1
 10
82.34223690850365
 20
315.9191847631546
 11
82.34223690850365
 21
312.8653752393434
 72
     1
 10
82.34223690850365
 20
312.8653752393434
 11
83.53502961067016
 21
312.8653752393434
 72
     1
 10
83.53502961067016
 20
312.8653752393434
 11
83.53502961067016
 21
314.1741507495481
 72
     1
 10
83.53502961067016
 20
314.1741507495481
 11
84.77553402092417
 21
312.8653752393434
 72
     1
 10
84.77553402092417
 20
312.8653752393434
 11
85.96832672309077
 21
312.8653752393434
 72
     1
 10
85.96832672309077
 20
312.8653752393434
 11
85.96832672309077
 21
315.9191847631546
 72
     1
 10
85.96832672309077
 20
315.9191847631546
 11
84.77553402092417
 21
315.9191847631546
 72
     1
 10
84.77553402092417
 20
315.9191847631546
 11
84.77553402092417
 21
314.6104092529494
 72
     1
 10
84.77553402092417
 20
314.6104092529494
 11
83.53502961067016
 21
315.9191847631546
 97
       10
330
3CD
330
397
330
398
330
399
330
39A
330
3D0
330
395
330
3CF
330
3CE
330
396
 75
     1
 76
     0
 52
45.0
 41
0.1
 77
     0
 78
     1
 53
45.0
 43
0.0
 44
0.0
 45
-0.0707106781186548
 46
0.0707106781186548
 79
     0
 98
        1
 10
0.0
 20
0.0
  0
HATCH
  5
4AA
330
71
100
AcDbEntity
  8
1
  6
Continuous
 62
     2
100
AcDbHatch
 10
0.0
 20
0.0
 30
0.0
210
0.0
220
0.0
230
1.0
  2
_USER
 70
     0
 71
     1
 91
        1
 92
        1
 93
       10
 72
     1
 10
78.28659079025155
 20
312.5599942869802
 11
77.09379808808396
 21
312.5599942869802
 72
     1
 10
77.09379808808396
 20
312.5599942869802
 11
77.09379808808396
 21
309.5061847631691
 72
     1
 10
77.09379808808396
 20
309.5061847631691
 11
78.28659079025155
 21
309.5061847631691
 72
     1
 10
78.28659079025155
 20
309.5061847631691
 11
78.28659079025155
 21
310.8149602733737
 72
     1
 10
78.28659079025155
 20
310.8149602733737
 11
79.52709520050445
 21
309.5061847631691
 72
     1
 10
79.52709520050445
 20
309.5061847631691
 11
80.71988790267085
 21
309.5061847631691
 72
     1
 10
80.71988790267085
 20
309.5061847631691
 11
80.71988790267085
 21
312.5599942869802
 72
     1
 10
80.71988790267085
 20
312.5599942869802
 11
79.52709520050445
 21
312.5599942869802
 72
     1
 10
79.52709520050445
 20
312.5599942869802
 11
79.52709520050445
 21
311.2512187767751
 72
     1
 10
79.52709520050445
 20
311.2512187767751
 11
78.28659079025155
 21
312.5599942869802
 97
       10
330
39C
330
39D
330
39E
330
3CA
330
39F
330
3A0
330
3C9
330
3CC
330
3CB
330
39B
 75
     1
 76
     0
 52
45.0
 41
0.1
 77
     0
 78
     1
 53
45.0
 43
0.0
 44
0.0
 45
-0.0707106781186548
 46
0.0707106781186548
 79
     0
 98
        1
 10
0.0
 20
0.0
  0
HATCH
  5
4AB
330
71
100
AcDbEntity
  8
1
  6
Continuous
 62
     2
100
AcDbHatch
 10
0.0
 20
0.0
 30
0.0
210
0.0
220
0.0
230
1.0
  2
_USER
 70
     0
 71
     1
 91
        1
 92
        1
 93
       10
 72
     1
 10
78.28659079025155
 20
312.5599942869802
 11
77.09379808808396
 21
312.5599942869802
 72
     1
 10
77.09379808808396
 20
312.5599942869802
 11
77.09379808808396
 21
309.5061847631691
 72
     1
 10
77.09379808808396
 20
309.5061847631691
 11
78.28659079025155
 21
309.5061847631691
 72
     1
 10
78.28659079025155
 20
309.5061847631691
 11
78.28659079025155
 21
310.8149602733737
 72
     1
 10
78.28659079025155
 20
310.8149602733737
 11
79.52709520050445
 21
309.5061847631691
 72
     1
 10
79.52709520050445
 20
309.5061847631691
 11
80.71988790267085
 21
309.5061847631691
 72
     1
 10
80.71988790267085
 20
309.5061847631691
 11
80.71988790267085
 21
312.5599942869802
 72
     1
 10
80.71988790267085
 20
312.5599942869802
 11
79.52709520050445
 21
312.5599942869802
 72
     1
 10
79.52709520050445
 20
312.5599942869802
 11
79.52709520050445
 21
311.2512187767751
 72
     1
 10
79.52709520050445
 20
311.2512187767751
 11
78.28659079025155
 21
312.5599942869802
 97
       10
330
39C
330
39D
330
39E
330
3CA
330
39F
330
3A0
330
3C9
330
3CC
330
3CB
330
39B
 75
     1
 76
     0
 52
45.0
 41
0.1
 77
     0
 78
     1
 53
45.0
 43
0.0
 44
0.0
 45
-0.0707106781186548
 46
0.0707106781186548
 79
     0
 98
        1
 10
0.0
 20
0.0
  0
HATCH
  5
4AC
330
71
100
AcDbEntity
  8
1
  6
Continuous
 62
     2
100
AcDbHatch
 10
0.0
 20
0.0
 30
0.0
210
0.0
220
0.0
230
1.0
  2
_USER
 70
     0
 71
     1
 91
        1
 92
        1
 93
       12
 72
     1
 10
77.28479585131615
 20
315.9191847631546
 11
77.28479585131615
 21
312.8653752393434
 72
     1
 10
77.28479585131615
 20
312.8653752393434
 11
76.09200314914975
 21
312.8653752393434
 72
     1
 10
76.09200314914975
 20
312.8653752393434
 11
76.09200314914975
 21
313.9996473481872
 72
     1
 10
76.09200314914975
 20
313.9996473481872
 11
75.04234557124227
 21
313.9996473481872
 72
     1
 10
75.04234557124227
 20
313.9996473481872
 11
75.04234557124227
 21
312.8653752393434
 72
     1
 10
75.04234557124227
 20
312.8653752393434
 11
73.84955286907567
 21
312.8653752393434
 72
     1
 10
73.84955286907567
 20
312.8653752393434
 11
73.84955286907567
 21
315.9191847631546
 72
     1
 10
73.84955286907567
 20
315.9191847631546
 11
75.04234557124227
 21
315.9191847631546
 72
     1
 10
75.04234557124227
 20
315.9191847631546
 11
75.04234557124227
 21
314.85035142982
 72
     1
 10
75.04234557124227
 20
314.85035142982
 11
76.09200314914975
 21
314.85035142982
 72
     1
 10
76.09200314914975
 20
314.85035142982
 11
76.09200314914975
 21
315.9191847631546
 72
     1
 10
76.09200314914975
 20
315.9191847631546
 11
77.28479585131615
 21
315.9191847631546
 97
       12
330
3C4
330
3C3
330
3C2
330
3AA
330
3AB
330
3C1
330
3AC
330
3C0
330
3BF
330
3BE
330
3A8
330
3A9
 75
     1
 76
     0
 52
45.0
 41
0.1
 77
     0
 78
     1
 53
45.0
 43
0.0
 44
0.0
 45
-0.0707106781186548
 46
0.0707106781186548
 79
     0
 98
        1
 10
0.0
 20
0.0
  0
HATCH
  5
4AD
330
71
100
AcDbEntity
  8
1
  6
Continuous
 62
     2
100
AcDbHatch
 10
0.0
 20
0.0
 30
0.0
210
0.0
220
0.0
230
1.0
  2
_USER
 70
     0
 71
     1
 91
        1
 92
        1
 93
       12
 72
     1
 10
77.28479585131615
 20
315.9191847631546
 11
77.28479585131615
 21
312.8653752393434
 72
     1
 10
77.28479585131615
 20
312.8653752393434
 11
76.09200314914975
 21
312.8653752393434
 72
     1
 10
76.09200314914975
 20
312.8653752393434
 11
76.09200314914975
 21
313.9996473481872
 72
     1
 10
76.09200314914975
 20
313.9996473481872
 11
75.04234557124227
 21
313.9996473481872
 72
     1
 10
75.04234557124227
 20
313.9996473481872
 11
75.04234557124227
 21
312.8653752393434
 72
     1
 10
75.04234557124227
 20
312.8653752393434
 11
73.84955286907567
 21
312.8653752393434
 72
     1
 10
73.84955286907567
 20
312.8653752393434
 11
73.84955286907567
 21
315.9191847631546
 72
     1
 10
73.84955286907567
 20
315.9191847631546
 11
75.04234557124227
 21
315.9191847631546
 72
     1
 10
75.04234557124227
 20
315.9191847631546
 11
75.04234557124227
 21
314.85035142982
 72
     1
 10
75.04234557124227
 20
314.85035142982
 11
76.09200314914975
 21
314.85035142982
 72
     1
 10
76.09200314914975
 20
314.85035142982
 11
76.09200314914975
 21
315.9191847631546
 72
     1
 10
76.09200314914975
 20
315.9191847631546
 11
77.28479585131615
 21
315.9191847631546
 97
       12
330
3C4
330
3C3
330
3C2
330
3AA
330
3AB
330
3C1
330
3AC
330
3C0
330
3BF
330
3BE
330
3A8
330
3A9
 75
     1
 76
     0
 52
45.0
 41
0.1
 77
     0
 78
     1
 53
45.0
 43
0.0
 44
0.0
 45
-0.0707106781186548
 46
0.0707106781186548
 79
     0
 98
        1
 10
0.0
 20
0.0
  0
ENDBLK
  5
73
330
71
100
AcDbEntity
  8
0
100
AcDbBlockEnd
  0
BLOCK
  5
75
330
74
100
AcDbEntity
  8
0
100
AcDbBlockBegin
  2
_punkt
 70
     0
 10
189.1620996651051
 20
302.2126847631528
 30
0.0
  3
_punkt
  1

  0
LINE
  5
4AE
330
74
100
AcDbEntity
  8
1
  6
Continuous
 62
     2
100
AcDbLine
 10
189.1620996651051
 20
302.2126847631528
 30
0.0
 11
189.1620996651051
 21
297.2126847631527
 31
0.0
  0
LINE
  5
4AF
330
74
100
AcDbEntity
  8
1
  6
Continuous
 62
     2
100
AcDbLine
 10
189.1620996651051
 20
302.2126847631528
 30
0.0
 11
194.1620996651041
 21
302.2126847631528
 31
0.0
  0
ENDBLK
  5
76
330
74
100
AcDbEntity
  8
0
100
AcDbBlockEnd
  0
BLOCK
  5
7A
330
77
100
AcDbEntity
  8
0
100
AcDbBlockBegin
  2
A4I_CS
 70
     0
 10
189.1620996651051
 20
297.2126847631527
 30
0.0
  3
A4I_CS
  1

  0
INSERT
  5
78
330
77
100
AcDbEntity
  8
1
100
AcDbBlockReference
  2
_rahmen
 10
189.1620996651051
 20
297.2126847631527
 30
0.0
  0
INSERT
  5
79
330
77
100
AcDbEntity
  8
1
100
AcDbBlockReference
  2
_punkt
 10
189.1620996651051
 20
302.2126847631528
 30
0.0
  0
ENDBLK
  5
7B
330
77
100
AcDbEntity
  8
0
100
AcDbBlockEnd
  0
BLOCK
  5
84
330
7C
100
AcDbEntity
  8
0
100
AcDbBlockBegin
  2
1
 70
     0
 10
0.0
 20
0.0
 30
0.0
  3
1
  1

  0
INSERT
  5
7D
330
7C
100
AcDbEntity
  8
0
100
AcDbBlockReference
  2
AllgSicht1
 10
129.661891999998
 20
368.0
 30
0.0
  0
INSERT
  5
7E
330
7C
100
AcDbEntity
  8
0
100
AcDbBlockReference
  2
Drfsicht1
 10
2.0
 20
367.0
 30
0.0
  0
INSERT
  5
7F
330
7C
100
AcDbEntity
  8
0
100
AcDbBlockReference
  2
Rckans1
 10
136.661892
 20
447.311488
 30
0.0
  0
INSERT
  5
80
330
7C
100
AcDbEntity
  8
0
100
AcDbBlockReference
  2
SA_Links1
 10
65.3309459999987
 20
447.3114880000003
 30
0.0
  0
INSERT
  5
81
330
7C
100
AcDbEntity
  8
0
100
AcDbBlockReference
  2
SA_Rechts1
 10
-82.51269199999801
 20
447.311488
 30
0.0
  0
INSERT
  5
82
330
7C
100
AcDbEntity
  8
0
100
AcDbBlockReference
  2
Vordans1
 10
1.9999999999995
 20
447.3114880000003
 30
0.0
  0
INSERT
  5
83
330
7C
100
AcDbEntity
  8
0
100
AcDbBlockReference
  2
A4I_CS
 10
189.1620996651051
 20
297.2126847631527
 30
0.0
  0
ENDBLK
  5
85
330
7C
100
AcDbEntity
  8
0
100
AcDbBlockEnd
  0
BLOCK
  5
23F
330
236
100
AcDbEntity
  8
0
100
AcDbBlockBegin
  2
*D17
 70
     1
 10
0.0
 20
0.0
 30
0.0
  3
*D17
  1

  0
LINE
  5
237
330
236
100
AcDbEntity
  8
1
  6
Continuous
 62
     2
100
AcDbLine
 10
-50.9351105043933
 20
378.0750001907349
 30
0.0
 11
-50.9351105043933
 21
371.0750001907349
 31
0.0
  0
LINE
  5
238
330
236
100
AcDbEntity
  8
1
  6
Continuous
 62
     2
100
AcDbLine
 10
-50.9351105043933
 20
371.0750001907349
 30
0.0
 11
-50.9351105043933
 21
362.9250001907348
 31
0.0
  0
LINE
  5
239
330
236
100
AcDbEntity
  8
1
  6
Continuous
 62
     2
100
AcDbLine
 10
-50.9351105043933
 20
362.9250001907348
 30
0.0
 11
-50.9351105043933
 21
355.9250001907348
 31
0.0
  0
LINE
  5
23A
330
236
100
AcDbEntity
  8
1
  6
Continuous
 62
     2
100
AcDbLine
 10
-39.28980491012766
 20
371.0750001907349
 30
0.0
 11
-52.4351105043933
 21
371.0750001907349
 31
0.0
  0
LINE
  5
23B
330
236
100
AcDbEntity
  8
1
  6
Continuous
 62
     2
100
AcDbLine
 10
-39.28980491012766
 20
362.9250001907348
 30
0.0
 11
-52.4351105043933
 21
362.9250001907348
 31
0.0
  0
SOLID
  5
23C
330
236
100
AcDbEntity
  8
1
 62
     2
100
AcDbTrace
 10
-51.39589424594919
 20
374.5750001907349
 30
0.0
 11
-50.47432676283741
 21
374.5750001907349
 31
0.0
 12
-50.9351105043933
 22
371.0750001907349
 32
0.0
 13
-50.9351105043933
 23
371.0750001907349
 33
0.0
  0
SOLID
  5
23D
330
236
100
AcDbEntity
  8
1
 62
     2
100
AcDbTrace
 10
-50.47432676283741
 20
359.4250001907348
 30
0.0
 11
-51.39589424594919
 21
359.4250001907348
 31
0.0
 12
-50.9351105043933
 22
362.9250001907348
 32
0.0
 13
-50.9351105043933
 23
362.9250001907348
 33
0.0
  0
MTEXT
  5
23E
330
236
100
AcDbEntity
  8
1
 62
     3
100
AcDbMText
 10
-52.78511050439329
 20
362.543869080957
 30
0.0
 40
3.5
 41
0.0
 71
     7
 72
     1
  1
8,15
  7
CONVERTER_11
 11
0.0
 21
1.0
 31
0.0
 73
     1
 44
0.60024009603842
  0
ENDBLK
  5
240
330
236
100
AcDbEntity
  8
0
100
AcDbBlockEnd
  0
BLOCK
  5
2BE
330
2B5
100
AcDbEntity
  8
0
100
AcDbBlockBegin
  2
*D18
 70
     1
 10
0.0
 20
0.0
 30
0.0
  3
*D18
  1

  0
LINE
  5
2B6
330
2B5
100
AcDbEntity
  8
1
  6
Continuous
 62
     2
100
AcDbLine
 10
54.25594580926392
 20
413.7473149363725
 30
0.0
 11
61.25594580926392
 21
413.7473149363725
 31
0.0
  0
LINE
  5
2B7
330
2B5
100
AcDbEntity
  8
1
  6
Continuous
 62
     2
100
AcDbLine
 10
61.25594580926392
 20
413.7473149363725
 30
0.0
 11
69.40594580926393
 21
413.7473149363725
 31
0.0
  0
LINE
  5
2B8
330
2B5
100
AcDbEntity
  8
1
  6
Continuous
 62
     2
100
AcDbLine
 10
69.40594580926393
 20
413.7473149363725
 30
0.0
 11
85.16379403616122
 21
413.7473149363725
 31
0.0
  0
LINE
  5
2B9
330
2B5
100
AcDbEntity
  8
1
  6
Continuous
 62
     2
100
AcDbLine
 10
61.25594580926392
 20
425.2864874815683
 30
0.0
 11
61.25594580926392
 21
411.7473149363725
 31
0.0
  0
LINE
  5
2BA
330
2B5
100
AcDbEntity
  8
1
  6
Continuous
 62
     2
100
AcDbLine
 10
69.40594580926393
 20
425.2864874815683
 30
0.0
 11
69.40594580926393
 21
411.7473149363725
 31
0.0
  0
SOLID
  5
2BB
330
2B5
100
AcDbEntity
  8
1
 62
     2
100
AcDbTrace
 10
57.75594580926392
 20
413.2865311948166
 30
0.0
 11
57.75594580926392
 21
414.2080986779284
 31
0.0
 12
61.25594580926392
 22
413.7473149363725
 32
0.0
 13
61.25594580926392
 23
413.7473149363725
 33
0.0
  0
SOLID
  5
2BC
330
2B5
100
AcDbEntity
  8
1
 62
     2
100
AcDbTrace
 10
72.90594580926393
 20
414.2080986779284
 30
0.0
 11
72.90594580926393
 21
413.2865311948166
 31
0.0
 12
69.40594580926393
 22
413.7473149363725
 32
0.0
 13
69.40594580926393
 23
413.7473149363725
 33
0.0
  0
MTEXT
  5
2BD
330
2B5
100
AcDbEntity
  8
1
 62
     3
100
AcDbMText
 10
76.58879403616123
 20
416.0973149363725
 30
0.0
 40
3.5
 41
0.0
 71
     7
 72
     1
  1
8,15
  7
CONVERTER_11
 11
0.9999999999970619
 21
2.424068405545306E-6
 31
0.0
 73
     1
 44
0.60024009603842
  0
ENDBLK
  5
2BF
330
2B5
100
AcDbEntity
  8
0
100
AcDbBlockEnd
  0
BLOCK
  5
33C
330
335
100
AcDbEntity
  8
0
100
AcDbBlockBegin
  2
*D19
 70
     1
 10
0.0
 20
0.0
 30
0.0
  3
*D19
  1

  0
LINE
  5
336
330
335
100
AcDbEntity
  8
1
  6
Continuous
 62
     2
100
AcDbLine
 10
-47.9339596996316
 20
467.4864874815696
 30
0.0
 11
-47.9339596996316
 21
431.2864874815681
 31
0.0
  0
LINE
  5
337
330
335
100
AcDbEntity
  8
1
  6
Continuous
 62
     2
100
AcDbLine
 10
-20.94999913947452
 20
467.4864874815696
 30
0.0
 11
-49.4339596996316
 21
467.4864874815696
 31
0.0
  0
LINE
  5
338
330
335
100
AcDbEntity
  8
1
  6
Continuous
 62
     2
100
AcDbLine
 10
-22.44999913947423
 20
431.2864874815681
 30
0.0
 11
-49.4339596996316
 21
431.2864874815681
 31
0.0
  0
SOLID
  5
339
330
335
100
AcDbEntity
  8
1
 62
     2
100
AcDbTrace
 10
-47.47317595807571
 20
463.9864874815696
 30
0.0
 11
-48.39474344118749
 21
463.9864874815696
 31
0.0
 12
-47.9339596996316
 22
467.4864874815696
 32
0.0
 13
-47.9339596996316
 23
467.4864874815696
 33
0.0
  0
SOLID
  5
33A
330
335
100
AcDbEntity
  8
1
 62
     2
100
AcDbTrace
 10
-48.39474344118749
 20
434.7864874815681
 30
0.0
 11
-47.47317595807571
 21
434.7864874815681
 31
0.0
 12
-47.9339596996316
 22
431.2864874815681
 32
0.0
 13
-47.9339596996316
 23
431.2864874815681
 33
0.0
  0
MTEXT
  5
33B
330
335
100
AcDbEntity
  8
1
 62
     3
100
AcDbMText
 10
-49.78395969963159
 20
443.933220001269
 30
0.0
 40
3.5
 41
0.0
 71
     7
 72
     1
  1
36,2
  7
CONVERTER_11
 11
0.0
 21
1.0
 31
0.0
 73
     1
 44
0.60024009603842
  0
ENDBLK
  5
33D
330
335
100
AcDbEntity
  8
0
100
AcDbBlockEnd
  0
BLOCK
  5
347
330
340
100
AcDbEntity
  8
0
100
AcDbBlockBegin
  2
*D20
 70
     1
 10
0.0
 20
0.0
 30
0.0
  3
*D20
  1

  0
LINE
  5
341
330
340
100
AcDbEntity
  8
1
  6
Continuous
 62
     2
100
AcDbLine
 10
-57.6985725765184
 20
467.4864874815696
 30
0.0
 11
-57.6985725765184
 21
425.2864874815686
 31
0.0
  0
LINE
  5
342
330
340
100
AcDbEntity
  8
1
  6
Continuous
 62
     2
100
AcDbLine
 10
-39.28980491012817
 20
467.4864874815696
 30
0.0
 11
-59.1985725765184
 21
467.4864874815696
 31
0.0
  0
LINE
  5
343
330
340
100
AcDbEntity
  8
1
  6
Continuous
 62
     2
100
AcDbLine
 10
-24.40894279260634
 20
425.2864874815686
 30
0.0
 11
-59.1985725765184
 21
425.2864874815686
 31
0.0
  0
SOLID
  5
344
330
340
100
AcDbEntity
  8
1
 62
     2
100
AcDbTrace
 10
-57.23778883496252
 20
463.9864874815696
 30
0.0
 11
-58.15935631807429
 21
463.9864874815696
 31
0.0
 12
-57.6985725765184
 22
467.4864874815696
 32
0.0
 13
-57.6985725765184
 23
467.4864874815696
 33
0.0
  0
SOLID
  5
345
330
340
100
AcDbEntity
  8
1
 62
     2
100
AcDbTrace
 10
-58.15935631807429
 20
428.7864874815686
 30
0.0
 11
-57.23778883496252
 21
428.7864874815686
 31
0.0
 12
-57.6985725765184
 22
425.2864874815686
 32
0.0
 13
-57.6985725765184
 23
425.2864874815686
 33
0.0
  0
MTEXT
  5
346
330
340
100
AcDbEntity
  8
1
 62
     3
100
AcDbMText
 10
-59.5485725765184
 20
443.9332200012691
 30
0.0
 40
3.5
 41
0.0
 71
     7
 72
     1
  1
42,2
  7
CONVERTER_11
 11
0.0
 21
1.0
 31
0.0
 73
     1
 44
0.60024009603842
  0
ENDBLK
  5
348
330
340
100
AcDbEntity
  8
0
100
AcDbBlockEnd
  0
BLOCK
  5
352
330
34B
100
AcDbEntity
  8
0
100
AcDbBlockBegin
  2
*D21
 70
     1
 10
0.0
 20
0.0
 30
0.0
  3
*D21
  1

  0
LINE
  5
34C
330
34B
100
AcDbEntity
  8
1
  6
Continuous
 62
     2
100
AcDbLine
 10
-65.6985725765184
 20
468.9364874815697
 30
0.0
 11
-65.6985725765184
 21
425.2864874815687
 31
0.0
  0
LINE
  5
34D
330
34B
100
AcDbEntity
  8
1
  6
Continuous
 62
     2
100
AcDbLine
 10
-19.4999991394745
 20
468.9364874815697
 30
0.0
 11
-67.1985725765184
 21
468.9364874815697
 31
0.0
  0
LINE
  5
34E
330
34B
100
AcDbEntity
  8
1
  6
Continuous
 62
     2
100
AcDbLine
 10
-24.40894279260634
 20
425.2864874815687
 30
0.0
 11
-67.1985725765184
 21
425.2864874815687
 31
0.0
  0
SOLID
  5
34F
330
34B
100
AcDbEntity
  8
1
 62
     2
100
AcDbTrace
 10
-65.23778883496252
 20
465.4364874815697
 30
0.0
 11
-66.15935631807429
 21
465.4364874815697
 31
0.0
 12
-65.6985725765184
 22
468.9364874815697
 32
0.0
 13
-65.6985725765184
 23
468.9364874815697
 33
0.0
  0
SOLID
  5
350
330
34B
100
AcDbEntity
  8
1
 62
     2
100
AcDbTrace
 10
-66.15935631807429
 20
428.7864874815687
 30
0.0
 11
-65.23778883496252
 21
428.7864874815687
 31
0.0
 12
-65.6985725765184
 22
425.2864874815687
 32
0.0
 13
-65.6985725765184
 23
425.2864874815687
 33
0.0
  0
MTEXT
  5
351
330
34B
100
AcDbEntity
  8
1
 62
     3
100
AcDbMText
 10
-67.5485725765184
 20
443.9332200012692
 30
0.0
 40
3.5
 41
0.0
 71
     7
 72
     1
  1
43,7
  7
CONVERTER_11
 11
0.0
 21
1.0
 31
0.0
 73
     1
 44
0.60024009603842
  0
ENDBLK
  5
353
330
34B
100
AcDbEntity
  8
0
100
AcDbBlockEnd
  0
BLOCK
  5
35D
330
356
100
AcDbEntity
  8
0
100
AcDbBlockBegin
  2
*D22
 70
     1
 10
0.0
 20
0.0
 30
0.0
  3
*D22
  1

  0
LINE
  5
357
330
356
100
AcDbEntity
  8
1
  6
Continuous
 62
     2
100
AcDbLine
 10
45.25000086052629
 20
393.0264863615814
 30
0.0
 11
-41.2499991394743
 21
393.0264863615814
 31
0.0
  0
LINE
  5
358
330
356
100
AcDbEntity
  8
1
  6
Continuous
 62
     2
100
AcDbLine
 10
45.25000086052629
 20
452.4864874815674
 30
0.0
 11
45.25000086052629
 21
391.0264863615814
 31
0.0
  0
LINE
  5
359
330
356
100
AcDbEntity
  8
1
  6
Continuous
 62
     2
100
AcDbLine
 10
-41.2499991394743
 20
452.4864874815696
 30
0.0
 11
-41.2499991394743
 21
391.0264863615814
 31
0.0
  0
SOLID
  5
35A
330
356
100
AcDbEntity
  8
1
 62
     2
100
AcDbTrace
 10
41.75000086052629
 20
392.5657026200255
 30
0.0
 11
41.75000086052629
 21
393.4872701031372
 31
0.0
 12
45.25000086052629
 22
393.0264863615814
 32
0.0
 13
45.25000086052629
 23
393.0264863615814
 33
0.0
  0
SOLID
  5
35B
330
356
100
AcDbEntity
  8
1
 62
     2
100
AcDbTrace
 10
-37.7499991394743
 20
393.4872701031372
 30
0.0
 11
-37.7499991394743
 21
392.5657026200255
 31
0.0
 12
-41.2499991394743
 22
393.0264863615814
 32
0.0
 13
-41.2499991394743
 23
393.0264863615814
 33
0.0
  0
MTEXT
  5
35C
330
356
100
AcDbEntity
  8
1
 62
     3
100
AcDbMText
 10
-6.93973711029919
 20
395.3764863615814
 30
0.0
 40
3.5
 41
0.0
 71
     7
 72
     1
  1
86,5
  7
CONVERTER_11
 11
0.9999999999970619
 21
2.424068405545306E-6
 31
0.0
 73
     1
 44
0.60024009603842
  0
ENDBLK
  5
35E
330
356
100
AcDbEntity
  8
0
100
AcDbBlockEnd
  0
BLOCK
  5
368
330
361
100
AcDbEntity
  8
0
100
AcDbBlockBegin
  2
*D23
 70
     1
 10
0.0
 20
0.0
 30
0.0
  3
*D23
  1

  0
LINE
  5
362
330
361
100
AcDbEntity
  8
1
  6
Continuous
 62
     2
100
AcDbLine
 10
-6.8499991394734
 20
403.938551100226
 30
0.0
 11
45.25000086052628
 21
403.938551100226
 31
0.0
  0
LINE
  5
363
330
361
100
AcDbEntity
  8
1
  6
Continuous
 62
     2
100
AcDbLine
 10
-6.8499991394734
 20
428.146870078971
 30
0.0
 11
-6.8499991394734
 21
401.938551100226
 31
0.0
  0
LINE
  5
364
330
361
100
AcDbEntity
  8
1
  6
Continuous
 62
     2
100
AcDbLine
 10
45.25000086052628
 20
452.4864874815675
 30
0.0
 11
45.25000086052628
 21
401.938551100226
 31
0.0
  0
SOLID
  5
365
330
361
100
AcDbEntity
  8
1
 62
     2
100
AcDbTrace
 10
-3.3499991394734
 20
404.3993348417819
 30
0.0
 11
-3.3499991394734
 21
403.4777673586701
 31
0.0
 12
-6.8499991394734
 22
403.938551100226
 32
0.0
 13
-6.8499991394734
 23
403.938551100226
 33
0.0
  0
SOLID
  5
366
330
361
100
AcDbEntity
  8
1
 62
     2
100
AcDbTrace
 10
41.75000086052628
 20
403.4777673586701
 30
0.0
 11
41.75000086052628
 21
404.3993348417819
 31
0.0
 12
45.25000086052628
 22
403.938551100226
 32
0.0
 13
45.25000086052628
 23
403.938551100226
 33
0.0
  0
MTEXT
  5
367
330
361
100
AcDbEntity
  8
1
 62
     3
100
AcDbMText
 10
12.11292791353151
 20
406.288551100226
 30
0.0
 40
3.5
 41
0.0
 71
     7
 72
     1
  1
52,1
  7
CONVERTER_11
 11
0.9999999999970619
 21
2.424068405545306E-6
 31
0.0
 73
     1
 44
0.60024009603842
  0
ENDBLK
  5
369
330
361
100
AcDbEntity
  8
0
100
AcDbBlockEnd
  0
BLOCK
  5
373
330
36C
100
AcDbEntity
  8
0
100
AcDbBlockBegin
  2
*D24
 70
     1
 10
0.0
 20
0.0
 30
0.0
  3
*D24
  1

  0
LINE
  5
36D
330
36C
100
AcDbEntity
  8
1
  6
Continuous
 62
     2
100
AcDbLine
 10
-6.8499991394734
 20
414.728191319986
 30
0.0
 11
10.65000086052621
 21
414.728191319986
 31
0.0
  0
LINE
  5
36E
330
36C
100
AcDbEntity
  8
1
  6
Continuous
 62
     2
100
AcDbLine
 10
-6.8499991394734
 20
428.1468700789709
 30
0.0
 11
-6.8499991394734
 21
412.728191319986
 31
0.0
  0
LINE
  5
36F
330
36C
100
AcDbEntity
  8
1
  6
Continuous
 62
     2
100
AcDbLine
 10
10.65000086052621
 20
430.1864874815683
 30
0.0
 11
10.65000086052621
 21
412.728191319986
 31
0.0
  0
SOLID
  5
370
330
36C
100
AcDbEntity
  8
1
 62
     2
100
AcDbTrace
 10
-3.3499991394734
 20
415.1889750615418
 30
0.0
 11
-3.3499991394734
 21
414.2674075784301
 31
0.0
 12
-6.8499991394734
 22
414.728191319986
 32
0.0
 13
-6.8499991394734
 23
414.728191319986
 33
0.0
  0
SOLID
  5
371
330
36C
100
AcDbEntity
  8
1
 62
     2
100
AcDbTrace
 10
7.15000086052621
 20
414.2674075784301
 30
0.0
 11
7.15000086052621
 21
415.1889750615418
 31
0.0
 12
10.65000086052621
 22
414.728191319986
 32
0.0
 13
10.65000086052621
 23
414.728191319986
 33
0.0
  0
MTEXT
  5
372
330
36C
100
AcDbEntity
  8
1
 62
     3
100
AcDbMText
 10
-0.96542386799594
 20
417.078191319986
 30
0.0
 40
3.5
 41
0.0
 71
     7
 72
     1
  1
17,5
  7
CONVERTER_11
 11
0.9999999999970619
 21
2.424068405545306E-6
 31
0.0
 73
     1
 44
0.60024009603842
  0
ENDBLK
  5
374
330
36C
100
AcDbEntity
  8
0
100
AcDbBlockEnd
  0
ENDSEC
  0
SECTION
  2
ENTITIES
  0
INSERT
  5
86
330
1F
100
AcDbEntity
  8
1
100
AcDbBlockReference
  2
1
 10
0.0
 20
0.0
 30
0.0
  0
ENDSEC
  0
SECTION
  2
OBJECTS
  0
DICTIONARY
  5
C
330
0
100
AcDbDictionary
281
     1
  3
ACAD_GROUP
350
D
  3
ACAD_LAYOUT
350
1A
  3
ACAD_MATERIAL
350
3B
  3
ACAD_MLEADERSTYLE
350
4D7
  3
ACAD_MLINESTYLE
350
17
  3
ACAD_PLOTSETTINGS
350
19
  3
ACAD_PLOTSTYLENAME
350
E
  3
ACAD_TABLESTYLE
350
4D6
  3
ACAD_VISUALSTYLE
350
2A
  0
DICTIONARY
  5
D
102
{ACAD_REACTORS
330
C
102
}
330
C
100
AcDbDictionary
281
     1
  0
DICTIONARY
  5
1A
102
{ACAD_REACTORS
330
C
102
}
330
C
100
AcDbDictionary
281
     1
  3
Layout1
350
1E
  3
Layout2
350
26
  3
Model
350
22
  0
DICTIONARY
  5
3B
102
{ACAD_REACTORS
330
C
102
}
330
C
100
AcDbDictionary
281
     1
  3
ByBlock
350
3D
  3
ByLayer
350
3C
  3
Global
350
3E
  0
DICTIONARY
  5
4D7
102
{ACAD_REACTORS
330
C
102
}
330
C
100
AcDbDictionary
281
     1
  0
DICTIONARY
  5
17
102
{ACAD_REACTORS
330
C
102
}
330
C
100
AcDbDictionary
281
     1
  3
Standard
350
18
  0
DICTIONARY
  5
19
102
{ACAD_REACTORS
330
C
102
}
330
C
100
AcDbDictionary
281
     1
  0
ACDBDICTIONARYWDFLT
  5
E
102
{ACAD_REACTORS
330
C
102
}
330
C
100
AcDbDictionary
281
     1
  3
Normal
350
F
100
AcDbDictionaryWithDefault
340
F
  0
DICTIONARY
  5
4D6
102
{ACAD_REACTORS
330
C
102
}
330
C
100
AcDbDictionary
281
     1
  0
DICTIONARY
  5
2A
102
{ACAD_REACTORS
330
C
102
}
330
C
100
AcDbDictionary
281
     1
  3
2dWireframe
350
2F
  3
3D Hidden
350
31
  3
3dWireframe
350
30
  3
Basic
350
32
  3
Brighten
350
36
  3
ColorChange
350
3A
  3
Conceptual
350
34
  3
Dim
350
35
  3
Facepattern
350
39
  3
Flat
350
2B
  3
FlatWithEdges
350
2C
  3
Gouraud
350
2D
  3
GouraudWithEdges
350
2E
  3
Linepattern
350
38
  3
Realistic
350
33
  3
Thicken
350
37
  0
LAYOUT
  5
1E
102
{ACAD_REACTORS
330
1A
102
}
330
1A
100
AcDbPlotSettings
  1

  2
none_device
  4

  6

 40
0.0
 41
0.0
 42
0.0
 43
0.0
 44
0.0
 45
0.0
 46
0.0
 47
0.0
 48
0.0
 49
0.0
140
0.0
141
0.0
142
1.0
143
1.0
 70
   688
 72
     0
 73
     0
 74
     5
  7

 75
    16
 76
     0
 77
     2
 78
   300
147
1.0
148
0.0
149
0.0
100
AcDbLayout
  1
Layout1
 70
     1
 71
     1
 10
0.0
 20
0.0
 11
12.0
 21
9.0
 12
0.0
 22
0.0
 32
0.0
 14
1.00000000000000E+20
 24
1.00000000000000E+20
 34
1.00000000000000E+20
 15
-1.00000000000000E+20
 25
-1.00000000000000E+20
 35
-1.00000000000000E+20
146
0.0
 13
0.0
 23
0.0
 33
0.0
 16
1.0
 26
0.0
 36
0.0
 17
0.0
 27
1.0
 37
0.0
 76
     0
330
1B
  0
LAYOUT
  5
26
102
{ACAD_REACTORS
330
1A
102
}
330
1A
100
AcDbPlotSettings
  1

  2
none_device
  4

  6

 40
0.0
 41
0.0
 42
0.0
 43
0.0
 44
0.0
 45
0.0
 46
0.0
 47
0.0
 48
0.0
 49
0.0
140
0.0
141
0.0
142
1.0
143
1.0
 70
   688
 72
     0
 73
     0
 74
     5
  7

 75
    16
 76
     0
 77
     2
 78
   300
147
1.0
148
0.0
149
0.0
100
AcDbLayout
  1
Layout2
 70
     1
 71
     2
 10
0.0
 20
0.0
 11
0.0
 21
0.0
 12
0.0
 22
0.0
 32
0.0
 14
0.0
 24
0.0
 34
0.0
 15
0.0
 25
0.0
 35
0.0
146
0.0
 13
0.0
 23
0.0
 33
0.0
 16
1.0
 26
0.0
 36
0.0
 17
0.0
 27
1.0
 37
0.0
 76
     0
330
23
  0
LAYOUT
  5
22
102
{ACAD_REACTORS
330
1A
102
}
330
1A
100
AcDbPlotSettings
  1

  2
none_device
  4

  6

 40
0.0
 41
0.0
 42
0.0
 43
0.0
 44
0.0
 45
0.0
 46
0.0
 47
0.0
 48
0.0
 49
0.0
140
0.0
141
0.0
142
1.0
143
1.0
 70
  1712
 72
     0
 73
     0
 74
     0
  7

 75
     0
 76
     0
 77
     2
 78
   300
147
1.0
148
0.0
149
0.0
100
AcDbLayout
  1
Model
 70
     1
 71
     0
 10
0.0
 20
0.0
 11
12.0
 21
9.0
 12
0.0
 22
0.0
 32
0.0
 14
-102.837900334894
 24
297.2126847631527
 34
0.0
 15
194.1620996651041
 25
507.2126847631528
 35
0.0
146
0.0
 13
0.0
 23
0.0
 33
0.0
 16
1.0
 26
0.0
 36
0.0
 17
0.0
 27
1.0
 37
0.0
 76
     0
330
1F
331
29
  0
MATERIAL
  5
3D
102
{ACAD_REACTORS
330
3B
102
}
102
{ACAD_XDICTIONARY
360
4D2
102
}
330
3B
100
AcDbMaterial
  1
ByBlock
  0
MATERIAL
  5
3C
102
{ACAD_REACTORS
330
3B
102
}
102
{ACAD_XDICTIONARY
360
4D0
102
}
330
3B
100
AcDbMaterial
  1
ByLayer
  0
MATERIAL
  5
3E
102
{ACAD_REACTORS
330
3B
102
}
102
{ACAD_XDICTIONARY
360
4D4
102
}
330
3B
100
AcDbMaterial
  1
Global
  0
MLINESTYLE
  5
18
102
{ACAD_REACTORS
330
17
102
}
330
17
100
AcDbMlineStyle
  2
Standard
 70
     0
  3

 62
   256
 51
90.0
 52
90.0
 71
     2
 49
0.5
 62
   256
  6
BYLAYER
 49
-0.5
 62
   256
  6
BYLAYER
  0
ACDBPLACEHOLDER
  5
F
102
{ACAD_REACTORS
330
E
102
}
330
E
  0
VISUALSTYLE
  5
2F
102
{ACAD_REACTORS
330
2A
102
}
102
{ACAD_XDICTIONARY
360
4B8
102
}
330
2A
100
AcDbVisualStyle
  2
2dWireframe
 70
     4
 71
     0
 72
     2
 73
     0
 90
        0
 40
-0.6
 41
-30.0
 62
     5
 63
     7
421
 16777215
 74
     1
 91
        4
 64
     7
 65
   257
 75
     1
175
     1
 42
1.0
 92
        0
 66
   257
 43
1.0
 76
     1
 77
     6
 78
     2
 67
     7
 79
     5
170
     0
171
     0
290
     0
174
     0
 93
        1
 44
0.0
173
     0
291
     0
 45
0.0
1001
ACAD
1000
AcDbSavedByObjectVersion
1070
     0
  0
VISUALSTYLE
  5
31
102
{ACAD_REACTORS
330
2A
102
}
102
{ACAD_XDICTIONARY
360
4BC
102
}
330
2A
100
AcDbVisualStyle
  2
3D Hidden
 70
     6
 71
     1
 72
     2
 73
     2
 90
        0
 40
-0.6
 41
-30.0
 62
     5
 63
     7
421
 16777215
 74
     2
 91
        2
 64
     7
 65
   257
 75
     2
175
     1
 42
40.0
 92
        0
 66
   257
 43
1.0
 76
     1
 77
     6
 78
     2
 67
     7
 79
     3
170
     0
171
     0
290
     0
174
     0
 93
        1
 44
0.0
173
     0
291
     0
 45
0.0
1001
ACAD
1000
AcDbSavedByObjectVersion
1070
     0
  0
VISUALSTYLE
  5
30
102
{ACAD_REACTORS
330
2A
102
}
102
{ACAD_XDICTIONARY
360
4BA
102
}
330
2A
100
AcDbVisualStyle
  2
3dWireframe
 70
     5
 71
     0
 72
     2
 73
     0
 90
        0
 40
-0.6
 41
-30.0
 62
     5
 63
     7
421
 16777215
 74
     1
 91
        4
 64
     7
 65
   257
 75
     1
175
     1
 42
1.0
 92
        0
 66
   257
 43
1.0
 76
     1
 77
     6
 78
     2
 67
     7
 79
     5
170
     0
171
     0
290
     0
174
     0
 93
        1
 44
0.0
173
     0
291
     0
 45
0.0
1001
ACAD
1000
AcDbSavedByObjectVersion
1070
     0
  0
VISUALSTYLE
  5
32
102
{ACAD_REACTORS
330
2A
102
}
102
{ACAD_XDICTIONARY
360
4BE
102
}
330
2A
100
AcDbVisualStyle
  2
Basic
 70
     7
 71
     1
 72
     0
 73
     1
 90
        0
 40
-0.6
 41
-30.0
 62
     5
 63
     7
421
 16777215
 74
     0
 91
        4
 64
     7
 65
   257
 75
     1
175
     1
 42
1.0
 92
        8
 66
     7
 43
1.0
 76
     1
 77
     6
 78
     2
 67
     7
 79
     5
170
     0
171
     0
290
     0
174
     0
 93
        1
 44
0.0
173
     0
291
     1
 45
0.0
1001
ACAD
1000
AcDbSavedByObjectVersion
1070
     0
  0
VISUALSTYLE
  5
36
102
{ACAD_REACTORS
330
2A
102
}
102
{ACAD_XDICTIONARY
360
4C6
102
}
330
2A
100
AcDbVisualStyle
  2
Brighten
 70
    12
 71
     2
 72
     2
 73
     0
 90
        0
 40
-0.6
 41
-30.0
 62
     5
 63
     7
421
 16777215
 74
     1
 91
        4
 64
     7
 65
   257
 75
     1
175
     1
 42
1.0
 92
        8
 66
     7
 43
1.0
 76
     1
 77
     6
 78
     2
 67
     7
 79
     5
170
     0
171
     0
290
     0
174
     0
 93
        1
 44
50.0
173
     0
291
     1
 45
0.0
1001
ACAD
1000
AcDbSavedByObjectVersion
1070
     0
  0
VISUALSTYLE
  5
3A
102
{ACAD_REACTORS
330
2A
102
}
102
{ACAD_XDICTIONARY
360
4CE
102
}
330
2A
100
AcDbVisualStyle
  2
ColorChange
 70
    16
 71
     2
 72
     2
 73
     3
 90
        0
 40
-0.6
 41
-30.0
 62
     5
 63
     8
421
  8421504
 74
     1
 91
        4
 64
     7
 65
   257
 75
     1
175
     1
 42
1.0
 92
        8
 66
     8
424
  8421504
 43
1.0
 76
     1
 77
     6
 78
     2
 67
     7
 79
     5
170
     0
171
     0
290
     0
174
     0
 93
        1
 44
0.0
173
     0
291
     1
 45
0.0
1001
ACAD
1000
AcDbSavedByObjectVersion
1070
     0
  0
VISUALSTYLE
  5
34
102
{ACAD_REACTORS
330
2A
102
}
102
{ACAD_XDICTIONARY
360
4C2
102
}
330
2A
100
AcDbVisualStyle
  2
Conceptual
 70
     9
 71
     3
 72
     2
 73
     0
 90
        0
 40
-0.6
 41
-30.0
 62
     5
 63
     7
421
 16777215
 74
     2
 91
        2
 64
     7
 65
   257
 75
     1
175
     1
 42
40.0
 92
        8
 66
     7
 43
1.0
 76
     1
 77
     6
 78
     2
 67
     7
 79
     3
170
     0
171
     0
290
     0
174
     0
 93
        1
 44
0.0
173
     0
291
     0
 45
0.0
1001
ACAD
1000
AcDbSavedByObjectVersion
1070
     0
  0
VISUALSTYLE
  5
35
102
{ACAD_REACTORS
330
2A
102
}
102
{ACAD_XDICTIONARY
360
4C4
102
}
330
2A
100
AcDbVisualStyle
  2
Dim
 70
    11
 71
     2
 72
     2
 73
     0
 90
        0
 40
-0.6
 41
-30.0
 62
     5
 63
     7
421
 16777215
 74
     1
 91
        4
 64
     7
 65
   257
 75
     1
175
     1
 42
1.0
 92
        8
 66
     7
 43
1.0
 76
     1
 77
     6
 78
     2
 67
     7
 79
     5
170
     0
171
     0
290
     0
174
     0
 93
        1
 44
-50.0
173
     0
291
     1
 45
0.0
1001
ACAD
1000
AcDbSavedByObjectVersion
1070
     0
  0
VISUALSTYLE
  5
39
102
{ACAD_REACTORS
330
2A
102
}
102
{ACAD_XDICTIONARY
360
4CC
102
}
330
2A
100
AcDbVisualStyle
  2
Facepattern
 70
    15
 71
     2
 72
     2
 73
     0
 90
        0
 40
-0.6
 41
-30.0
 62
     5
 63
     7
421
 16777215
 74
     1
 91
        4
 64
     7
 65
   257
 75
     1
175
     1
 42
1.0
 92
        8
 66
     7
 43
1.0
 76
     1
 77
     6
 78
     2
 67
     7
 79
     5
170
     0
171
     0
290
     0
174
     0
 93
        1
 44
0.0
173
     0
291
     1
 45
0.0
1001
ACAD
1000
AcDbSavedByObjectVersion
1070
     0
  0
VISUALSTYLE
  5
2B
102
{ACAD_REACTORS
330
2A
102
}
102
{ACAD_XDICTIONARY
360
4B0
102
}
330
2A
100
AcDbVisualStyle
  2
Flat
 70
     0
 71
     2
 72
     1
 73
     1
 90
        2
 40
-0.6
 41
30.0
 62
     5
 63
     7
421
 16777215
 74
     0
 91
        4
 64
     7
 65
   257
 75
     1
175
     1
 42
1.0
 92
        8
 66
     7
 43
1.0
 76
     1
 77
     6
 78
     2
 67
     7
 79
     5
170
     0
171
     0
290
     0
174
     0
 93
       13
 44
0.0
173
     0
291
     1
 45
0.0
1001
ACAD
1000
AcDbSavedByObjectVersion
1070
     0
  0
VISUALSTYLE
  5
2C
102
{ACAD_REACTORS
330
2A
102
}
102
{ACAD_XDICTIONARY
360
4B2
102
}
330
2A
100
AcDbVisualStyle
  2
FlatWithEdges
 70
     1
 71
     2
 72
     1
 73
     1
 90
        2
 40
-0.6
 41
30.0
 62
     5
 63
     7
421
 16777215
 74
     1
 91
        4
 64
     7
 65
   257
 75
     1
175
     1
 42
1.0
 92
        0
 66
   257
 43
1.0
 76
     1
 77
     6
 78
     2
 67
     7
 79
     5
170
     0
171
     0
290
     0
174
     0
 93
       13
 44
0.0
173
     0
291
     1
 45
0.0
1001
ACAD
1000
AcDbSavedByObjectVersion
1070
     0
  0
VISUALSTYLE
  5
2D
102
{ACAD_REACTORS
330
2A
102
}
102
{ACAD_XDICTIONARY
360
4B4
102
}
330
2A
100
AcDbVisualStyle
  2
Gouraud
 70
     2
 71
     2
 72
     2
 73
     1
 90
        2
 40
-0.6
 41
30.0
 62
     5
 63
     7
421
 16777215
 74
     0
 91
        4
 64
     7
 65
   257
 75
     1
175
     1
 42
1.0
 92
        0
 66
     7
 43
1.0
 76
     1
 77
     6
 78
     2
 67
     7
 79
     5
170
     0
171
     0
290
     0
174
     0
 93
       13
 44
0.0
173
     0
291
     1
 45
0.0
1001
ACAD
1000
AcDbSavedByObjectVersion
1070
     0
  0
VISUALSTYLE
  5
2E
102
{ACAD_REACTORS
330
2A
102
}
102
{ACAD_XDICTIONARY
360
4B6
102
}
330
2A
100
AcDbVisualStyle
  2
GouraudWithEdges
 70
     3
 71
     2
 72
     2
 73
     1
 90
        2
 40
-0.6
 41
30.0
 62
     5
 63
     7
421
 16777215
 74
     1
 91
        4
 64
     7
 65
   257
 75
     1
175
     1
 42
1.0
 92
        0
 66
   257
 43
1.0
 76
     1
 77
     6
 78
     2
 67
     7
 79
     5
170
     0
171
     0
290
     0
174
     0
 93
       13
 44
0.0
173
     0
291
     1
 45
0.0
1001
ACAD
1000
AcDbSavedByObjectVersion
1070
     0
  0
VISUALSTYLE
  5
38
102
{ACAD_REACTORS
330
2A
102
}
102
{ACAD_XDICTIONARY
360
4CA
102
}
330
2A
100
AcDbVisualStyle
  2
Linepattern
 70
    14
 71
     2
 72
     2
 73
     0
 90
        0
 40
-0.6
 41
-30.0
 62
     5
 63
     7
421
 16777215
 74
     1
 91
        4
 64
     7
 65
   257
 75
     7
175
     7
 42
1.0
 92
        8
 66
     7
 43
1.0
 76
     1
 77
     6
 78
     2
 67
     7
 79
     5
170
     0
171
     0
290
     0
174
     0
 93
        1
 44
0.0
173
     0
291
     1
 45
0.0
1001
ACAD
1000
AcDbSavedByObjectVersion
1070
     0
  0
VISUALSTYLE
  5
33
102
{ACAD_REACTORS
330
2A
102
}
102
{ACAD_XDICTIONARY
360
4C0
102
}
330
2A
100
AcDbVisualStyle
  2
Realistic
 70
     8
 71
     2
 72
     2
 73
     0
 90
        0
 40
-0.6
 41
-30.0
 62
     5
 63
     7
421
 16777215
 74
     1
 91
        0
 64
     7
 65
   257
 75
     1
175
     1
 42
1.0
 92
        8
 66
     8
424
  7895160
 43
1.0
 76
     1
 77
     6
 78
     2
 67
     7
 79
     5
170
     0
171
     0
290
     0
174
     0
 93
       13
 44
0.0
173
     0
291
     0
 45
0.0
1001
ACAD
1000
AcDbSavedByObjectVersion
1070
     0
  0
VISUALSTYLE
  5
37
102
{ACAD_REACTORS
330
2A
102
}
102
{ACAD_XDICTIONARY
360
4C8
102
}
330
2A
100
AcDbVisualStyle
  2
Thicken
 70
    13
 71
     2
 72
     2
 73
     0
 90
        0
 40
-0.6
 41
-30.0
 62
     5
 63
     7
421
 16777215
 74
     1
 91
        4
 64
     7
 65
   257
 75
     1
175
     1
 42
1.0
 92
       12
 66
     7
 43
1.0
 76
     1
 77
     6
 78
     2
 67
     7
 79
     5
170
     0
171
     0
290
     0
174
     0
 93
        1
 44
0.0
173
     0
291
     1
 45
0.0
1001
ACAD
1000
AcDbSavedByObjectVersion
1070
     0
  0
DICTIONARY
  5
4D2
330
3D
100
AcDbDictionary
280
     1
281
     1
  3
ACAD_XREC_ROUNDTRIP
360
4D3
  0
DICTIONARY
  5
4D0
330
3C
100
AcDbDictionary
280
     1
281
     1
  3
ACAD_XREC_ROUNDTRIP
360
4D1
  0
DICTIONARY
  5
4D4
330
3E
100
AcDbDictionary
280
     1
281
     1
  3
ACAD_XREC_ROUNDTRIP
360
4D5
  0
DICTIONARY
  5
4B8
330
2F
100
AcDbDictionary
280
     1
281
     1
  3
ACAD_XREC_ROUNDTRIP
360
4B9
  0
DICTIONARY
  5
4BC
330
31
100
AcDbDictionary
280
     1
281
     1
  3
ACAD_XREC_ROUNDTRIP
360
4BD
  0
DICTIONARY
  5
4BA
330
30
100
AcDbDictionary
280
     1
281
     1
  3
ACAD_XREC_ROUNDTRIP
360
4BB
  0
DICTIONARY
  5
4BE
330
32
100
AcDbDictionary
280
     1
281
     1
  3
ACAD_XREC_ROUNDTRIP
360
4BF
  0
DICTIONARY
  5
4C6
330
36
100
AcDbDictionary
280
     1
281
     1
  3
ACAD_XREC_ROUNDTRIP
360
4C7
  0
DICTIONARY
  5
4CE
330
3A
100
AcDbDictionary
280
     1
281
     1
  3
ACAD_XREC_ROUNDTRIP
360
4CF
  0
DICTIONARY
  5
4C2
330
34
100
AcDbDictionary
280
     1
281
     1
  3
ACAD_XREC_ROUNDTRIP
360
4C3
  0
DICTIONARY
  5
4C4
330
35
100
AcDbDictionary
280
     1
281
     1
  3
ACAD_XREC_ROUNDTRIP
360
4C5
  0
DICTIONARY
  5
4CC
330
39
100
AcDbDictionary
280
     1
281
     1
  3
ACAD_XREC_ROUNDTRIP
360
4CD
  0
DICTIONARY
  5
4B0
330
2B
100
AcDbDictionary
280
     1
281
     1
  3
ACAD_XREC_ROUNDTRIP
360
4B1
  0
DICTIONARY
  5
4B2
330
2C
100
AcDbDictionary
280
     1
281
     1
  3
ACAD_XREC_ROUNDTRIP
360
4B3
  0
DICTIONARY
  5
4B4
330
2D
100
AcDbDictionary
280
     1
281
     1
  3
ACAD_XREC_ROUNDTRIP
360
4B5
  0
DICTIONARY
  5
4B6
330
2E
100
AcDbDictionary
280
     1
281
     1
  3
ACAD_XREC_ROUNDTRIP
360
4B7
  0
DICTIONARY
  5
4CA
330
38
100
AcDbDictionary
280
     1
281
     1
  3
ACAD_XREC_ROUNDTRIP
360
4CB
  0
DICTIONARY
  5
4C0
330
33
100
AcDbDictionary
280
     1
281
     1
  3
ACAD_XREC_ROUNDTRIP
360
4C1
  0
DICTIONARY
  5
4C8
330
37
100
AcDbDictionary
280
     1
281
     1
  3
ACAD_XREC_ROUNDTRIP
360
4C9
  0
XRECORD
  5
4D3
102
{ACAD_REACTORS
330
4D2
102
}
330
4D2
100
AcDbXrecord
280
     1
102
MATERIAL
148
0.0
149
0.0
149
0.0
 93
        0
 94
      127
282
     0
 72
     1
 77
     1
171
     1
175
     1
179
     1
273
     0
  0
XRECORD
  5
4D1
102
{ACAD_REACTORS
330
4D0
102
}
330
4D0
100
AcDbXrecord
280
     1
102
MATERIAL
148
0.0
149
0.0
149
0.0
 93
        0
 94
      127
282
     0
 72
     1
 77
     1
171
     1
175
     1
179
     1
273
     0
  0
XRECORD
  5
4D5
102
{ACAD_REACTORS
330
4D4
102
}
330
4D4
100
AcDbXrecord
280
     1
102
MATERIAL
148
0.0
149
0.0
149
0.0
 93
        0
 94
      127
282
     0
 72
     1
 77
     1
171
     1
175
     1
179
     1
273
     0
  0
XRECORD
  5
4B9
102
{ACAD_REACTORS
330
4B8
102
}
330
4B8
100
AcDbXrecord
280
     1
102
RTVSPropertyOp0
 70
     1
102
RTVSPropertyOp1
 70
     1
102
RTVSPropertyOp2
 70
     1
102
RTVSPropertyOp3
 70
     1
102
RTVSPropertyOp4
 70
     1
102
RTVSPropertyOp5
 70
     1
102
RTVSPropertyOp6
 70
     1
102
RTVSPropertyOp7
 70
     1
102
RTVSPropertyOp8
 70
     1
102
RTVSPropertyOp9
 70
     1
102
RTVSPropertyOp10
 70
     1
102
RTVSPropertyOp11
 70
     1
102
RTVSPropertyOp12
 70
     1
102
RTVSPropertyOp13
 70
     1
102
RTVSPropertyOp14
 70
     1
102
RTVSPropertyOp15
 70
     1
102
RTVSPropertyOp16
 70
     1
102
RTVSPropertyOp17
 70
     1
102
RTVSPropertyOp18
 70
     1
102
RTVSPropertyOp19
 70
     1
102
RTVSPropertyOp20
 70
     1
102
RTVSPropertyOp21
 70
     1
102
RTVSPropertyOp22
 70
     1
102
RTVSPropertyOp23
 70
     1
102
RTVSPropertyOp24
 70
     1
102
RTVSPropertyOp25
 70
     1
102
RTVSPropertyOp26
 70
     1
102
RTVSPropertyOp27
 70
     1
102
RTVSPropertyOp28
 70
     1
102
RTVSPropertyOp29
 70
     1
102
RTVSPropertyOp30
 70
     1
102
RTVSPropertyOp31
 70
     1
102
RTVSPropertyOp32
 70
     1
  0
XRECORD
  5
4BD
102
{ACAD_REACTORS
330
4BC
102
}
330
4BC
100
AcDbXrecord
280
     1
102
RTVSPropertyOp0
 70
     1
102
RTVSPropertyOp1
 70
     1
102
RTVSPropertyOp2
 70
     1
102
RTVSPropertyOp3
 70
     1
102
RTVSPropertyOp4
 70
     1
102
RTVSPropertyOp5
 70
     1
102
RTVSPropertyOp6
 70
     1
102
RTVSPropertyOp7
 70
     1
102
RTVSPropertyOp8
 70
     1
102
RTVSPropertyOp9
 70
     1
102
RTVSPropertyOp10
 70
     1
102
RTVSPropertyOp11
 70
     1
102
RTVSPropertyOp12
 70
     1
102
RTVSPropertyOp13
 70
     1
102
RTVSPropertyOp14
 70
     1
102
RTVSPropertyOp15
 70
     1
102
RTVSPropertyOp16
 70
     1
102
RTVSPropertyOp17
 70
     1
102
RTVSPropertyOp18
 70
     1
102
RTVSPropertyOp19
 70
     1
102
RTVSPropertyOp20
 70
     1
102
RTVSPropertyOp21
 70
     1
102
RTVSPropertyOp22
 70
     1
102
RTVSPropertyOp23
 70
     1
102
RTVSPropertyOp24
 70
     1
102
RTVSPropertyOp25
 70
     1
102
RTVSPropertyOp26
 70
     1
102
RTVSPropertyOp27
 70
     1
102
RTVSPropertyOp28
 70
     1
102
RTVSPropertyOp29
 70
     1
102
RTVSPropertyOp30
 70
     1
102
RTVSPropertyOp31
 70
     1
102
RTVSPropertyOp32
 70
     1
  0
XRECORD
  5
4BB
102
{ACAD_REACTORS
330
4BA
102
}
330
4BA
100
AcDbXrecord
280
     1
102
RTVSPropertyOp0
 70
     1
102
RTVSPropertyOp1
 70
     1
102
RTVSPropertyOp2
 70
     1
102
RTVSPropertyOp3
 70
     1
102
RTVSPropertyOp4
 70
     1
102
RTVSPropertyOp5
 70
     1
102
RTVSPropertyOp6
 70
     1
102
RTVSPropertyOp7
 70
     1
102
RTVSPropertyOp8
 70
     1
102
RTVSPropertyOp9
 70
     1
102
RTVSPropertyOp10
 70
     1
102
RTVSPropertyOp11
 70
     1
102
RTVSPropertyOp12
 70
     1
102
RTVSPropertyOp13
 70
     1
102
RTVSPropertyOp14
 70
     1
102
RTVSPropertyOp15
 70
     1
102
RTVSPropertyOp16
 70
     1
102
RTVSPropertyOp17
 70
     1
102
RTVSPropertyOp18
 70
     1
102
RTVSPropertyOp19
 70
     1
102
RTVSPropertyOp20
 70
     1
102
RTVSPropertyOp21
 70
     1
102
RTVSPropertyOp22
 70
     1
102
RTVSPropertyOp23
 70
     1
102
RTVSPropertyOp24
 70
     1
102
RTVSPropertyOp25
 70
     1
102
RTVSPropertyOp26
 70
     1
102
RTVSPropertyOp27
 70
     1
102
RTVSPropertyOp28
 70
     1
102
RTVSPropertyOp29
 70
     1
102
RTVSPropertyOp30
 70
     1
102
RTVSPropertyOp31
 70
     1
102
RTVSPropertyOp32
 70
     1
  0
XRECORD
  5
4BF
102
{ACAD_REACTORS
330
4BE
102
}
330
4BE
100
AcDbXrecord
280
     1
102
RTVSPropertyOp0
 70
     1
102
RTVSPropertyOp1
 70
     1
102
RTVSPropertyOp2
 70
     1
102
RTVSPropertyOp3
 70
     1
102
RTVSPropertyOp4
 70
     1
102
RTVSPropertyOp5
 70
     1
102
RTVSPropertyOp6
 70
     1
102
RTVSPropertyOp7
 70
     1
102
RTVSPropertyOp8
 70
     1
102
RTVSPropertyOp9
 70
     1
102
RTVSPropertyOp10
 70
     1
102
RTVSPropertyOp11
 70
     1
102
RTVSPropertyOp12
 70
     1
102
RTVSPropertyOp13
 70
     1
102
RTVSPropertyOp14
 70
     1
102
RTVSPropertyOp15
 70
     1
102
RTVSPropertyOp16
 70
     1
102
RTVSPropertyOp17
 70
     1
102
RTVSPropertyOp18
 70
     1
102
RTVSPropertyOp19
 70
     1
102
RTVSPropertyOp20
 70
     1
102
RTVSPropertyOp21
 70
     1
102
RTVSPropertyOp22
 70
     1
102
RTVSPropertyOp23
 70
     1
102
RTVSPropertyOp24
 70
     1
102
RTVSPropertyOp25
 70
     1
102
RTVSPropertyOp26
 70
     1
102
RTVSPropertyOp27
 70
     1
102
RTVSPropertyOp28
 70
     1
102
RTVSPropertyOp29
 70
     1
102
RTVSPropertyOp30
 70
     1
102
RTVSPropertyOp31
 70
     1
102
RTVSPropertyOp32
 70
     1
  0
XRECORD
  5
4C7
102
{ACAD_REACTORS
330
4C6
102
}
330
4C6
100
AcDbXrecord
280
     1
102
RTVSPropertyOp0
 70
     1
102
RTVSPropertyOp1
 70
     1
102
RTVSPropertyOp2
 70
     1
102
RTVSPropertyOp3
 70
     1
102
RTVSPropertyOp4
 70
     1
102
RTVSPropertyOp5
 70
     1
102
RTVSPropertyOp6
 70
     1
102
RTVSPropertyOp7
 70
     1
102
RTVSPropertyOp8
 70
     1
102
RTVSPropertyOp9
 70
     1
102
RTVSPropertyOp10
 70
     1
102
RTVSPropertyOp11
 70
     1
102
RTVSPropertyOp12
 70
     1
102
RTVSPropertyOp13
 70
     1
102
RTVSPropertyOp14
 70
     1
102
RTVSPropertyOp15
 70
     1
102
RTVSPropertyOp16
 70
     1
102
RTVSPropertyOp17
 70
     1
102
RTVSPropertyOp18
 70
     1
102
RTVSPropertyOp19
 70
     1
102
RTVSPropertyOp20
 70
     1
102
RTVSPropertyOp21
 70
     1
102
RTVSPropertyOp22
 70
     1
102
RTVSPropertyOp23
 70
     1
102
RTVSPropertyOp24
 70
     1
102
RTVSPropertyOp25
 70
     1
102
RTVSPropertyOp26
 70
     1
102
RTVSPropertyOp27
 70
     1
102
RTVSPropertyOp28
 70
     1
102
RTVSPropertyOp29
 70
     1
102
RTVSPropertyOp30
 70
     1
102
RTVSPropertyOp31
 70
     1
102
RTVSPropertyOp32
 70
     1
  0
XRECORD
  5
4CF
102
{ACAD_REACTORS
330
4CE
102
}
330
4CE
100
AcDbXrecord
280
     1
102
RTVSPropertyOp0
 70
     1
102
RTVSPropertyOp1
 70
     1
102
RTVSPropertyOp2
 70
     1
102
RTVSPropertyOp3
 70
     1
102
RTVSPropertyOp4
 70
     1
102
RTVSPropertyOp5
 70
     1
102
RTVSPropertyOp6
 70
     1
102
RTVSPropertyOp7
 70
     1
102
RTVSPropertyOp8
 70
     1
102
RTVSPropertyOp9
 70
     1
102
RTVSPropertyOp10
 70
     1
102
RTVSPropertyOp11
 70
     1
102
RTVSPropertyOp12
 70
     1
102
RTVSPropertyOp13
 70
     1
102
RTVSPropertyOp14
 70
     1
102
RTVSPropertyOp15
 70
     1
102
RTVSPropertyOp16
 70
     1
102
RTVSPropertyOp17
 70
     1
102
RTVSPropertyOp18
 70
     1
102
RTVSPropertyOp19
 70
     1
102
RTVSPropertyOp20
 70
     1
102
RTVSPropertyOp21
 70
     1
102
RTVSPropertyOp22
 70
     1
102
RTVSPropertyOp23
 70
     1
102
RTVSPropertyOp24
 70
     1
102
RTVSPropertyOp25
 70
     1
102
RTVSPropertyOp26
 70
     1
102
RTVSPropertyOp27
 70
     1
102
RTVSPropertyOp28
 70
     1
102
RTVSPropertyOp29
 70
     1
102
RTVSPropertyOp30
 70
     1
102
RTVSPropertyOp31
 70
     1
102
RTVSPropertyOp32
 70
     1
  0
XRECORD
  5
4C3
102
{ACAD_REACTORS
330
4C2
102
}
330
4C2
100
AcDbXrecord
280
     1
102
RTVSPropertyOp0
 70
     1
102
RTVSPropertyOp1
 70
     1
102
RTVSPropertyOp2
 70
     1
102
RTVSPropertyOp3
 70
     1
102
RTVSPropertyOp4
 70
     1
102
RTVSPropertyOp5
 70
     1
102
RTVSPropertyOp6
 70
     1
102
RTVSPropertyOp7
 70
     1
102
RTVSPropertyOp8
 70
     1
102
RTVSPropertyOp9
 70
     1
102
RTVSPropertyOp10
 70
     1
102
RTVSPropertyOp11
 70
     1
102
RTVSPropertyOp12
 70
     1
102
RTVSPropertyOp13
 70
     1
102
RTVSPropertyOp14
 70
     1
102
RTVSPropertyOp15
 70
     1
102
RTVSPropertyOp16
 70
     1
102
RTVSPropertyOp17
 70
     1
102
RTVSPropertyOp18
 70
     1
102
RTVSPropertyOp19
 70
     1
102
RTVSPropertyOp20
 70
     1
102
RTVSPropertyOp21
 70
     1
102
RTVSPropertyOp22
 70
     1
102
RTVSPropertyOp23
 70
     1
102
RTVSPropertyOp24
 70
     1
102
RTVSPropertyOp25
 70
     1
102
RTVSPropertyOp26
 70
     1
102
RTVSPropertyOp27
 70
     1
102
RTVSPropertyOp28
 70
     1
102
RTVSPropertyOp29
 70
     1
102
RTVSPropertyOp30
 70
     1
102
RTVSPropertyOp31
 70
     1
102
RTVSPropertyOp32
 70
     1
  0
XRECORD
  5
4C5
102
{ACAD_REACTORS
330
4C4
102
}
330
4C4
100
AcDbXrecord
280
     1
102
RTVSPropertyOp0
 70
     1
102
RTVSPropertyOp1
 70
     1
102
RTVSPropertyOp2
 70
     1
102
RTVSPropertyOp3
 70
     1
102
RTVSPropertyOp4
 70
     1
102
RTVSPropertyOp5
 70
     1
102
RTVSPropertyOp6
 70
     1
102
RTVSPropertyOp7
 70
     1
102
RTVSPropertyOp8
 70
     1
102
RTVSPropertyOp9
 70
     1
102
RTVSPropertyOp10
 70
     1
102
RTVSPropertyOp11
 70
     1
102
RTVSPropertyOp12
 70
     1
102
RTVSPropertyOp13
 70
     1
102
RTVSPropertyOp14
 70
     1
102
RTVSPropertyOp15
 70
     1
102
RTVSPropertyOp16
 70
     1
102
RTVSPropertyOp17
 70
     1
102
RTVSPropertyOp18
 70
     1
102
RTVSPropertyOp19
 70
     1
102
RTVSPropertyOp20
 70
     1
102
RTVSPropertyOp21
 70
     1
102
RTVSPropertyOp22
 70
     1
102
RTVSPropertyOp23
 70
     1
102
RTVSPropertyOp24
 70
     1
102
RTVSPropertyOp25
 70
     1
102
RTVSPropertyOp26
 70
     1
102
RTVSPropertyOp27
 70
     1
102
RTVSPropertyOp28
 70
     1
102
RTVSPropertyOp29
 70
     1
102
RTVSPropertyOp30
 70
     1
102
RTVSPropertyOp31
 70
     1
102
RTVSPropertyOp32
 70
     1
  0
XRECORD
  5
4CD
102
{ACAD_REACTORS
330
4CC
102
}
330
4CC
100
AcDbXrecord
280
     1
102
RTVSPropertyOp0
 70
     1
102
RTVSPropertyOp1
 70
     1
102
RTVSPropertyOp2
 70
     1
102
RTVSPropertyOp3
 70
     1
102
RTVSPropertyOp4
 70
     1
102
RTVSPropertyOp5
 70
     1
102
RTVSPropertyOp6
 70
     1
102
RTVSPropertyOp7
 70
     1
102
RTVSPropertyOp8
 70
     1
102
RTVSPropertyOp9
 70
     1
102
RTVSPropertyOp10
 70
     1
102
RTVSPropertyOp11
 70
     1
102
RTVSPropertyOp12
 70
     1
102
RTVSPropertyOp13
 70
     1
102
RTVSPropertyOp14
 70
     1
102
RTVSPropertyOp15
 70
     1
102
RTVSPropertyOp16
 70
     1
102
RTVSPropertyOp17
 70
     1
102
RTVSPropertyOp18
 70
     1
102
RTVSPropertyOp19
 70
     1
102
RTVSPropertyOp20
 70
     1
102
RTVSPropertyOp21
 70
     1
102
RTVSPropertyOp22
 70
     1
102
RTVSPropertyOp23
 70
     1
102
RTVSPropertyOp24
 70
     1
102
RTVSPropertyOp25
 70
     1
102
RTVSPropertyOp26
 70
     1
102
RTVSPropertyOp27
 70
     1
102
RTVSPropertyOp28
 70
     1
102
RTVSPropertyOp29
 70
     1
102
RTVSPropertyOp30
 70
     1
102
RTVSPropertyOp31
 70
     1
102
RTVSPropertyOp32
 70
     1
  0
XRECORD
  5
4B1
102
{ACAD_REACTORS
330
4B0
102
}
330
4B0
100
AcDbXrecord
280
     1
102
RTVSPropertyOp0
 70
     1
102
RTVSPropertyOp1
 70
     1
102
RTVSPropertyOp2
 70
     1
102
RTVSPropertyOp3
 70
     1
102
RTVSPropertyOp4
 70
     1
102
RTVSPropertyOp5
 70
     1
102
RTVSPropertyOp6
 70
     1
102
RTVSPropertyOp7
 70
     1
102
RTVSPropertyOp8
 70
     1
102
RTVSPropertyOp9
 70
     1
102
RTVSPropertyOp10
 70
     1
102
RTVSPropertyOp11
 70
     1
102
RTVSPropertyOp12
 70
     1
102
RTVSPropertyOp13
 70
     1
102
RTVSPropertyOp14
 70
     1
102
RTVSPropertyOp15
 70
     1
102
RTVSPropertyOp16
 70
     1
102
RTVSPropertyOp17
 70
     1
102
RTVSPropertyOp18
 70
     1
102
RTVSPropertyOp19
 70
     1
102
RTVSPropertyOp20
 70
     1
102
RTVSPropertyOp21
 70
     1
102
RTVSPropertyOp22
 70
     1
102
RTVSPropertyOp23
 70
     1
102
RTVSPropertyOp24
 70
     1
102
RTVSPropertyOp25
 70
     1
102
RTVSPropertyOp26
 70
     1
102
RTVSPropertyOp27
 70
     1
102
RTVSPropertyOp28
 70
     1
102
RTVSPropertyOp29
 70
     1
102
RTVSPropertyOp30
 70
     1
102
RTVSPropertyOp31
 70
     1
102
RTVSPropertyOp32
 70
     1
  0
XRECORD
  5
4B3
102
{ACAD_REACTORS
330
4B2
102
}
330
4B2
100
AcDbXrecord
280
     1
102
RTVSPropertyOp0
 70
     1
102
RTVSPropertyOp1
 70
     1
102
RTVSPropertyOp2
 70
     1
102
RTVSPropertyOp3
 70
     1
102
RTVSPropertyOp4
 70
     1
102
RTVSPropertyOp5
 70
     1
102
RTVSPropertyOp6
 70
     1
102
RTVSPropertyOp7
 70
     1
102
RTVSPropertyOp8
 70
     1
102
RTVSPropertyOp9
 70
     1
102
RTVSPropertyOp10
 70
     1
102
RTVSPropertyOp11
 70
     1
102
RTVSPropertyOp12
 70
     1
102
RTVSPropertyOp13
 70
     1
102
RTVSPropertyOp14
 70
     1
102
RTVSPropertyOp15
 70
     1
102
RTVSPropertyOp16
 70
     1
102
RTVSPropertyOp17
 70
     1
102
RTVSPropertyOp18
 70
     1
102
RTVSPropertyOp19
 70
     1
102
RTVSPropertyOp20
 70
     1
102
RTVSPropertyOp21
 70
     1
102
RTVSPropertyOp22
 70
     1
102
RTVSPropertyOp23
 70
     1
102
RTVSPropertyOp24
 70
     1
102
RTVSPropertyOp25
 70
     1
102
RTVSPropertyOp26
 70
     1
102
RTVSPropertyOp27
 70
     1
102
RTVSPropertyOp28
 70
     1
102
RTVSPropertyOp29
 70
     1
102
RTVSPropertyOp30
 70
     1
102
RTVSPropertyOp31
 70
     1
102
RTVSPropertyOp32
 70
     1
  0
XRECORD
  5
4B5
102
{ACAD_REACTORS
330
4B4
102
}
330
4B4
100
AcDbXrecord
280
     1
102
RTVSPropertyOp0
 70
     1
102
RTVSPropertyOp1
 70
     1
102
RTVSPropertyOp2
 70
     1
102
RTVSPropertyOp3
 70
     1
102
RTVSPropertyOp4
 70
     1
102
RTVSPropertyOp5
 70
     1
102
RTVSPropertyOp6
 70
     1
102
RTVSPropertyOp7
 70
     1
102
RTVSPropertyOp8
 70
     1
102
RTVSPropertyOp9
 70
     1
102
RTVSPropertyOp10
 70
     1
102
RTVSPropertyOp11
 70
     1
102
RTVSPropertyOp12
 70
     1
102
RTVSPropertyOp13
 70
     1
102
RTVSPropertyOp14
 70
     1
102
RTVSPropertyOp15
 70
     1
102
RTVSPropertyOp16
 70
     1
102
RTVSPropertyOp17
 70
     1
102
RTVSPropertyOp18
 70
     1
102
RTVSPropertyOp19
 70
     1
102
RTVSPropertyOp20
 70
     1
102
RTVSPropertyOp21
 70
     1
102
RTVSPropertyOp22
 70
     1
102
RTVSPropertyOp23
 70
     1
102
RTVSPropertyOp24
 70
     1
102
RTVSPropertyOp25
 70
     1
102
RTVSPropertyOp26
 70
     1
102
RTVSPropertyOp27
 70
     1
102
RTVSPropertyOp28
 70
     1
102
RTVSPropertyOp29
 70
     1
102
RTVSPropertyOp30
 70
     1
102
RTVSPropertyOp31
 70
     1
102
RTVSPropertyOp32
 70
     1
  0
XRECORD
  5
4B7
102
{ACAD_REACTORS
330
4B6
102
}
330
4B6
100
AcDbXrecord
280
     1
102
RTVSPropertyOp0
 70
     1
102
RTVSPropertyOp1
 70
     1
102
RTVSPropertyOp2
 70
     1
102
RTVSPropertyOp3
 70
     1
102
RTVSPropertyOp4
 70
     1
102
RTVSPropertyOp5
 70
     1
102
RTVSPropertyOp6
 70
     1
102
RTVSPropertyOp7
 70
     1
102
RTVSPropertyOp8
 70
     1
102
RTVSPropertyOp9
 70
     1
102
RTVSPropertyOp10
 70
     1
102
RTVSPropertyOp11
 70
     1
102
RTVSPropertyOp12
 70
     1
102
RTVSPropertyOp13
 70
     1
102
RTVSPropertyOp14
 70
     1
102
RTVSPropertyOp15
 70
     1
102
RTVSPropertyOp16
 70
     1
102
RTVSPropertyOp17
 70
     1
102
RTVSPropertyOp18
 70
     1
102
RTVSPropertyOp19
 70
     1
102
RTVSPropertyOp20
 70
     1
102
RTVSPropertyOp21
 70
     1
102
RTVSPropertyOp22
 70
     1
102
RTVSPropertyOp23
 70
     1
102
RTVSPropertyOp24
 70
     1
102
RTVSPropertyOp25
 70
     1
102
RTVSPropertyOp26
 70
     1
102
RTVSPropertyOp27
 70
     1
102
RTVSPropertyOp28
 70
     1
102
RTVSPropertyOp29
 70
     1
102
RTVSPropertyOp30
 70
     1
102
RTVSPropertyOp31
 70
     1
102
RTVSPropertyOp32
 70
     1
  0
XRECORD
  5
4CB
102
{ACAD_REACTORS
330
4CA
102
}
330
4CA
100
AcDbXrecord
280
     1
102
RTVSPropertyOp0
 70
     1
102
RTVSPropertyOp1
 70
     1
102
RTVSPropertyOp2
 70
     1
102
RTVSPropertyOp3
 70
     1
102
RTVSPropertyOp4
 70
     1
102
RTVSPropertyOp5
 70
     1
102
RTVSPropertyOp6
 70
     1
102
RTVSPropertyOp7
 70
     1
102
RTVSPropertyOp8
 70
     1
102
RTVSPropertyOp9
 70
     1
102
RTVSPropertyOp10
 70
     1
102
RTVSPropertyOp11
 70
     1
102
RTVSPropertyOp12
 70
     1
102
RTVSPropertyOp13
 70
     1
102
RTVSPropertyOp14
 70
     1
102
RTVSPropertyOp15
 70
     1
102
RTVSPropertyOp16
 70
     1
102
RTVSPropertyOp17
 70
     1
102
RTVSPropertyOp18
 70
     1
102
RTVSPropertyOp19
 70
     1
102
RTVSPropertyOp20
 70
     1
102
RTVSPropertyOp21
 70
     1
102
RTVSPropertyOp22
 70
     1
102
RTVSPropertyOp23
 70
     1
102
RTVSPropertyOp24
 70
     1
102
RTVSPropertyOp25
 70
     1
102
RTVSPropertyOp26
 70
     1
102
RTVSPropertyOp27
 70
     1
102
RTVSPropertyOp28
 70
     1
102
RTVSPropertyOp29
 70
     1
102
RTVSPropertyOp30
 70
     1
102
RTVSPropertyOp31
 70
     1
102
RTVSPropertyOp32
 70
     1
  0
XRECORD
  5
4C1
102
{ACAD_REACTORS
330
4C0
102
}
330
4C0
100
AcDbXrecord
280
     1
102
RTVSPropertyOp0
 70
     1
102
RTVSPropertyOp1
 70
     1
102
RTVSPropertyOp2
 70
     1
102
RTVSPropertyOp3
 70
     1
102
RTVSPropertyOp4
 70
     1
102
RTVSPropertyOp5
 70
     1
102
RTVSPropertyOp6
 70
     1
102
RTVSPropertyOp7
 70
     1
102
RTVSPropertyOp8
 70
     1
102
RTVSPropertyOp9
 70
     1
102
RTVSPropertyOp10
 70
     1
102
RTVSPropertyOp11
 70
     1
102
RTVSPropertyOp12
 70
     1
102
RTVSPropertyOp13
 70
     1
102
RTVSPropertyOp14
 70
     1
102
RTVSPropertyOp15
 70
     1
102
RTVSPropertyOp16
 70
     1
102
RTVSPropertyOp17
 70
     1
102
RTVSPropertyOp18
 70
     1
102
RTVSPropertyOp19
 70
     1
102
RTVSPropertyOp20
 70
     1
102
RTVSPropertyOp21
 70
     1
102
RTVSPropertyOp22
 70
     1
102
RTVSPropertyOp23
 70
     1
102
RTVSPropertyOp24
 70
     1
102
RTVSPropertyOp25
 70
     1
102
RTVSPropertyOp26
 70
     1
102
RTVSPropertyOp27
 70
     1
102
RTVSPropertyOp28
 70
     1
102
RTVSPropertyOp29
 70
     1
102
RTVSPropertyOp30
 70
     1
102
RTVSPropertyOp31
 70
     1
102
RTVSPropertyOp32
 70
     1
  0
XRECORD
  5
4C9
102
{ACAD_REACTORS
330
4C8
102
}
330
4C8
100
AcDbXrecord
280
     1
102
RTVSPropertyOp0
 70
     1
102
RTVSPropertyOp1
 70
     1
102
RTVSPropertyOp2
 70
     1
102
RTVSPropertyOp3
 70
     1
102
RTVSPropertyOp4
 70
     1
102
RTVSPropertyOp5
 70
     1
102
RTVSPropertyOp6
 70
     1
102
RTVSPropertyOp7
 70
     1
102
RTVSPropertyOp8
 70
     1
102
RTVSPropertyOp9
 70
     1
102
RTVSPropertyOp10
 70
     1
102
RTVSPropertyOp11
 70
     1
102
RTVSPropertyOp12
 70
     1
102
RTVSPropertyOp13
 70
     1
102
RTVSPropertyOp14
 70
     1
102
RTVSPropertyOp15
 70
     1
102
RTVSPropertyOp16
 70
     1
102
RTVSPropertyOp17
 70
     1
102
RTVSPropertyOp18
 70
     1
102
RTVSPropertyOp19
 70
     1
102
RTVSPropertyOp20
 70
     1
102
RTVSPropertyOp21
 70
     1
102
RTVSPropertyOp22
 70
     1
102
RTVSPropertyOp23
 70
     1
102
RTVSPropertyOp24
 70
     1
102
RTVSPropertyOp25
 70
     1
102
RTVSPropertyOp26
 70
     1
102
RTVSPropertyOp27
 70
     1
102
RTVSPropertyOp28
 70
     1
102
RTVSPropertyOp29
 70
     1
102
RTVSPropertyOp30
 70
     1
102
RTVSPropertyOp31
 70
     1
102
RTVSPropertyOp32
 70
     1
  0
ENDSEC
  0
EOF
