  0
SECTION
  2
HEADER
  9
$ACADVER
  1
AC1018
  9
$ACADMAINTVER
 70
     0
  9
$DWGCODEPAGE
  3
ANSI_1252
  9
$INSBASE
 10
0.0
 20
0.0
 30
0.0
  9
$EXTMIN
 10
-91.54999961853122
 20
317.1584958667871
 30
0.0
  9
$EXTMAX
 10
205.4500003814669
 20
527.1584958667872
 30
0.0
  9
$LIMMIN
 10
0.0
 20
0.0
  9
$LIMMAX
 10
12.0
 20
9.0
  9
$ORTHOMODE
 70
     0
  9
$REGENMODE
 70
     1
  9
$FILLMODE
 70
     1
  9
$QTEXTMODE
 70
     0
  9
$MIRRTEXT
 70
     1
  9
$LTSCALE
 40
1.0
  9
$ATTMODE
 70
     1
  9
$TEXTSIZE
 40
0.2
  9
$TRACEWID
 40
0.05
  9
$TEXTSTYLE
  7
Standard
  9
$CLAYER
  8
0
  9
$CELTYPE
  6
ByLayer
  9
$CECOLOR
 62
   256
  9
$CELTSCALE
 40
1.0
  9
$DISPSILH
 70
     0
  9
$DIMSCALE
 40
1.0
  9
$DIMASZ
 40
0.18
  9
$DIMEXO
 40
0.0625
  9
$DIMDLI
 40
0.38
  9
$DIMRND
 40
0.0
  9
$DIMDLE
 40
0.0
  9
$DIMEXE
 40
0.18
  9
$DIMTP
 40
0.0
  9
$DIMTM
 40
0.0
  9
$DIMTXT
 40
0.18
  9
$DIMCEN
 40
0.09
  9
$DIMTSZ
 40
0.0
  9
$DIMTOL
 70
     0
  9
$DIMLIM
 70
     0
  9
$DIMTIH
 70
     1
  9
$DIMTOH
 70
     1
  9
$DIMSE1
 70
     0
  9
$DIMSE2
 70
     0
  9
$DIMTAD
 70
     0
  9
$DIMZIN
 70
     0
  9
$DIMBLK
  1

  9
$DIMASO
 70
     1
  9
$DIMSHO
 70
     1
  9
$DIMPOST
  1

  9
$DIMAPOST
  1

  9
$DIMALT
 70
     0
  9
$DIMALTD
 70
     2
  9
$DIMALTF
 40
25.4
  9
$DIMLFAC
 40
1.0
  9
$DIMTOFL
 70
     0
  9
$DIMTVP
 40
0.0
  9
$DIMTIX
 70
     0
  9
$DIMSOXD
 70
     0
  9
$DIMSAH
 70
     0
  9
$DIMBLK1
  1

  9
$DIMBLK2
  1

  9
$DIMSTYLE
  2
Standard
  9
$DIMCLRD
 70
     0
  9
$DIMCLRE
 70
     0
  9
$DIMCLRT
 70
     0
  9
$DIMTFAC
 40
1.0
  9
$DIMGAP
 40
0.09
  9
$DIMJUST
 70
     0
  9
$DIMSD1
 70
     0
  9
$DIMSD2
 70
     0
  9
$DIMTOLJ
 70
     1
  9
$DIMTZIN
 70
     0
  9
$DIMALTZ
 70
     0
  9
$DIMALTTZ
 70
     0
  9
$DIMUPT
 70
     0
  9
$DIMDEC
 70
     4
  9
$DIMTDEC
 70
     4
  9
$DIMALTU
 70
     2
  9
$DIMALTTD
 70
     2
  9
$DIMTXSTY
  7
Standard
  9
$DIMAUNIT
 70
     0
  9
$DIMADEC
 70
     0
  9
$DIMALTRND
 40
0.0
  9
$DIMAZIN
 70
     0
  9
$DIMDSEP
 70
    46
  9
$DIMATFIT
 70
     3
  9
$DIMFRAC
 70
     0
  9
$DIMLDRBLK
  1

  9
$DIMLUNIT
 70
     2
  9
$DIMLWD
 70
    -2
  9
$DIMLWE
 70
    -2
  9
$DIMTMOVE
 70
     0
  9
$LUNITS
 70
     2
  9
$LUPREC
 70
     4
  9
$SKETCHINC
 40
0.1
  9
$FILLETRAD
 40
0.5
  9
$AUNITS
 70
     0
  9
$AUPREC
 70
     0
  9
$MENU
  1
.
  9
$ELEVATION
 40
0.0
  9
$PELEVATION
 40
0.0
  9
$THICKNESS
 40
0.0
  9
$LIMCHECK
 70
     0
  9
$CHAMFERA
 40
0.5
  9
$CHAMFERB
 40
0.5
  9
$CHAMFERC
 40
1.0
  9
$CHAMFERD
 40
0.0
  9
$SKPOLY
 70
     0
  9
$TDCREATE
 40
2458209.589740857
  9
$TDUCREATE
 40
2458209.506407523
  9
$TDUPDATE
 40
2458209.5897414
  9
$TDUUPDATE
 40
2458209.506408067
  9
$TDINDWG
 40
0.0000000116
  9
$TDUSRTIMER
 40
0.0000000116
  9
$USRTIMER
 70
     1
  9
$ANGBASE
 50
0.0
  9
$ANGDIR
 70
     0
  9
$PDMODE
 70
     0
  9
$PDSIZE
 40
0.0
  9
$PLINEWID
 40
0.0
  9
$SPLFRAME
 70
     0
  9
$SPLINETYPE
 70
     6
  9
$SPLINESEGS
 70
     8
  9
$HANDSEED
  5
2B8
  9
$SURFTAB1
 70
     6
  9
$SURFTAB2
 70
     6
  9
$SURFTYPE
 70
     6
  9
$SURFU
 70
     6
  9
$SURFV
 70
     6
  9
$UCSBASE
  2

  9
$UCSNAME
  2

  9
$UCSORG
 10
0.0
 20
0.0
 30
0.0
  9
$UCSXDIR
 10
1.0
 20
0.0
 30
0.0
  9
$UCSYDIR
 10
0.0
 20
1.0
 30
0.0
  9
$UCSORTHOREF
  2

  9
$UCSORTHOVIEW
 70
     0
  9
$UCSORGTOP
 10
0.0
 20
0.0
 30
0.0
  9
$UCSORGBOTTOM
 10
0.0
 20
0.0
 30
0.0
  9
$UCSORGLEFT
 10
0.0
 20
0.0
 30
0.0
  9
$UCSORGRIGHT
 10
0.0
 20
0.0
 30
0.0
  9
$UCSORGFRONT
 10
0.0
 20
0.0
 30
0.0
  9
$UCSORGBACK
 10
0.0
 20
0.0
 30
0.0
  9
$PUCSBASE
  2

  9
$PUCSNAME
  2

  9
$PUCSORG
 10
0.0
 20
0.0
 30
0.0
  9
$PUCSXDIR
 10
1.0
 20
0.0
 30
0.0
  9
$PUCSYDIR
 10
0.0
 20
1.0
 30
0.0
  9
$PUCSORTHOREF
  2

  9
$PUCSORTHOVIEW
 70
     0
  9
$PUCSORGTOP
 10
0.0
 20
0.0
 30
0.0
  9
$PUCSORGBOTTOM
 10
0.0
 20
0.0
 30
0.0
  9
$PUCSORGLEFT
 10
0.0
 20
0.0
 30
0.0
  9
$PUCSORGRIGHT
 10
0.0
 20
0.0
 30
0.0
  9
$PUCSORGFRONT
 10
0.0
 20
0.0
 30
0.0
  9
$PUCSORGBACK
 10
0.0
 20
0.0
 30
0.0
  9
$USERI1
 70
     0
  9
$USERI2
 70
     0
  9
$USERI3
 70
     0
  9
$USERI4
 70
     0
  9
$USERI5
 70
     0
  9
$USERR1
 40
18.1
  9
$USERR2
 40
0.0
  9
$USERR3
 40
0.0
  9
$USERR4
 40
0.0
  9
$USERR5
 40
0.0
  9
$WORLDVIEW
 70
     1
  9
$SHADEDGE
 70
     3
  9
$SHADEDIF
 70
    70
  9
$TILEMODE
 70
     1
  9
$MAXACTVP
 70
    64
  9
$PINSBASE
 10
0.0
 20
0.0
 30
0.0
  9
$PLIMCHECK
 70
     0
  9
$PEXTMIN
 10
1.00000000000000E+20
 20
1.00000000000000E+20
 30
1.00000000000000E+20
  9
$PEXTMAX
 10
-1.00000000000000E+20
 20
-1.00000000000000E+20
 30
-1.00000000000000E+20
  9
$PLIMMIN
 10
0.0
 20
0.0
  9
$PLIMMAX
 10
12.0
 20
9.0
  9
$UNITMODE
 70
     0
  9
$VISRETAIN
 70
     1
  9
$PLINEGEN
 70
     0
  9
$PSLTSCALE
 70
     1
  9
$TREEDEPTH
 70
  3020
  9
$CMLSTYLE
  2
Standard
  9
$CMLJUST
 70
     0
  9
$CMLSCALE
 40
1.0
  9
$PROXYGRAPHICS
 70
     1
  9
$MEASUREMENT
 70
     1
  9
$CELWEIGHT
370
    -1
  9
$ENDCAPS
280
     0
  9
$JOINSTYLE
280
     0
  9
$LWDISPLAY
290
     0
  9
$INSUNITS
 70
     4
  9
$HYPERLINKBASE
  1

  9
$STYLESHEET
  1

  9
$XEDIT
290
     1
  9
$CEPSNTYPE
380
     0
  9
$PSTYLEMODE
290
     1
  9
$FINGERPRINTGUID
  2
{0930BBFD-B7A5-4CFD-8A8A-D8404590F511}
  9
$VERSIONGUID
  2
{FAEB1C32-E019-11D5-929B-00C0DF256EC4}
  9
$EXTNAMES
290
     1
  9
$PSVPSCALE
 40
0.0
  9
$OLESTARTUP
290
     0
  9
$SORTENTS
280
   127
  9
$INDEXCTL
280
     0
  9
$HIDETEXT
280
     1
  9
$XCLIPFRAME
290
     0
  9
$HALOGAP
280
     0
  9
$OBSCOLOR
 70
   257
  9
$OBSLTYPE
280
     0
  9
$INTERSECTIONDISPLAY
280
     0
  9
$INTERSECTIONCOLOR
 70
   257
  9
$DIMASSOC
280
     2
  9
$PROJECTNAME
  1

  0
ENDSEC
  0
SECTION
  2
CLASSES
  0
CLASS
  1
ACDBDICTIONARYWDFLT
  2
AcDbDictionaryWithDefault
  3
ObjectDBX Classes
 90
        0
 91
        4
280
     0
281
     0
  0
CLASS
  1
VISUALSTYLE
  2
AcDbVisualStyle
  3
ObjectDBX Classes
 90
     4095
 91
        4
280
     0
281
     0
  0
CLASS
  1
MATERIAL
  2
AcDbMaterial
  3
ObjectDBX Classes
 90
     1153
 91
        4
280
     0
281
     0
  0
ENDSEC
  0
SECTION
  2
TABLES
  0
TABLE
  2
VPORT
  5
8
330
0
100
AcDbSymbolTable
 70
     1
  0
VPORT
  5
29
330
8
100
AcDbSymbolTableRecord
100
AcDbViewportTableRecord
  2
*Active
 70
     0
 10
0.0
 20
0.0
 11
1.0
 21
1.0
 12
56.95000038146785
 22
422.1584958667872
 13
0.0
 23
0.0
 14
0.5
 24
0.5
 15
0.5
 25
0.5
 16
0.0
 26
0.0
 36
1.0
 17
0.0
 27
0.0
 37
0.0
 40
231.0000000000001
 41
1.60267857142857
 42
50.0
 43
0.0
 44
0.0
 50
0.0
 51
0.0
 71
     0
 72
   100
 73
     1
 74
     3
 75
     0
 76
     0
 77
     0
 78
     0
281
     0
 65
     1
110
0.0
120
0.0
130
0.0
111
1.0
121
0.0
131
0.0
112
0.0
122
1.0
132
0.0
 79
     0
146
0.0
  0
ENDTAB
  0
TABLE
  2
LTYPE
  5
5
330
0
100
AcDbSymbolTable
 70
     8
  0
LTYPE
  5
14
330
5
100
AcDbSymbolTableRecord
100
AcDbLinetypeTableRecord
  2
ByBlock
 70
     0
  3

 72
    65
 73
     0
 40
0.0
  0
LTYPE
  5
15
330
5
100
AcDbSymbolTableRecord
100
AcDbLinetypeTableRecord
  2
ByLayer
 70
     0
  3

 72
    65
 73
     0
 40
0.0
  0
LTYPE
  5
16
330
5
100
AcDbSymbolTableRecord
100
AcDbLinetypeTableRecord
  2
Continuous
 70
     0
  3
Solid line
 72
    65
 73
     0
 40
0.0
  0
LTYPE
  5
3F
330
5
100
AcDbSymbolTableRecord
100
AcDbLinetypeTableRecord
  2
DASHED
 70
     0
  3
Dashed
 72
    65
 73
     2
 40
15.0
 49
7.0
 74
     0
 49
-8.0
 74
     0
  0
LTYPE
  5
40
330
5
100
AcDbSymbolTableRecord
100
AcDbLinetypeTableRecord
  2
DOTTED
 70
     0
  3
Dotted
 72
    65
 73
     2
 40
1.0
 49
0.0
 74
     0
 49
-1.0
 74
     0
  0
LTYPE
  5
41
330
5
100
AcDbSymbolTableRecord
100
AcDbLinetypeTableRecord
  2
DOT_CENTER
 70
     0
  3
Dot_Center
 72
    65
 73
     4
 40
14.0
 49
12.0
 74
     0
 49
-1.0
 74
     0
 49
0.0
 74
     0
 49
-1.0
 74
     0
  0
LTYPE
  5
42
330
5
100
AcDbSymbolTableRecord
100
AcDbLinetypeTableRecord
  2
LONG_DASHED
 70
     0
  3
Long_Dashed
 72
    65
 73
     2
 40
15.0
 49
10.0
 74
     0
 49
-5.0
 74
     0
  0
LTYPE
  5
43
330
5
100
AcDbSymbolTableRecord
100
AcDbLinetypeTableRecord
  2
DASH_CENTER
 70
     0
  3
Dash_Center
 72
    65
 73
     4
 40
14.0
 49
11.0
 74
     0
 49
-1.0
 74
     0
 49
1.0
 74
     0
 49
-1.0
 74
     0
  0
LTYPE
  5
44
330
5
100
AcDbSymbolTableRecord
100
AcDbLinetypeTableRecord
  2
PHANTOM
 70
     0
  3
Phantom
 72
    65
 73
     6
 40
13.0
 49
10.0
 74
     0
 49
-1.0
 74
     0
 49
0.0
 74
     0
 49
-1.0
 74
     0
 49
0.0
 74
     0
 49
-1.0
 74
     0
  0
LTYPE
  5
45
330
5
100
AcDbSymbolTableRecord
100
AcDbLinetypeTableRecord
  2
CENTER_DASH_DASH
 70
     0
  3
Center_Dash_Dash
 72
    65
 73
     6
 40
14.0
 49
9.0
 74
     0
 49
-1.0
 74
     0
 49
1.0
 74
     0
 49
-1.0
 74
     0
 49
1.0
 74
     0
 49
-1.0
 74
     0
  0
ENDTAB
  0
TABLE
  2
LAYER
  5
2
330
0
100
AcDbSymbolTable
 70
     2
  0
LAYER
  5
10
330
2
100
AcDbSymbolTableRecord
100
AcDbLayerTableRecord
  2
0
 70
     0
 62
     7
  6
Continuous
370
    -3
390
F
  0
LAYER
  5
46
330
2
100
AcDbSymbolTableRecord
100
AcDbLayerTableRecord
  2
1
 70
     0
 62
     7
  6
Continuous
370
    -3
390
F
  0
ENDTAB
  0
TABLE
  2
STYLE
  5
3
330
0
100
AcDbSymbolTable
 70
     5
  0
STYLE
  5
11
330
3
100
AcDbSymbolTableRecord
100
AcDbTextStyleTableRecord
  2
Standard
 70
     0
 40
0.0
 41
1.0
 50
0.0
 71
     0
 42
0.2
  3
txt
  4

  0
STYLE
  5
B9
330
3
100
AcDbSymbolTableRecord
100
AcDbTextStyleTableRecord
  2
CONVERTER_11
 70
     0
 40
0.0
 41
0.9
 50
0.0
 71
     0
 42
0.2
  3
txt.shx
  4

  0
STYLE
  5
24E
330
3
100
AcDbSymbolTableRecord
100
AcDbTextStyleTableRecord
  2
CONVERTER_12
 70
     0
 40
0.0
 41
0.81
 50
0.0
 71
     0
 42
0.2
  3
txt.shx
  4

  0
STYLE
  5
254
330
3
100
AcDbSymbolTableRecord
100
AcDbTextStyleTableRecord
  2
CONVERTER_13
 70
     0
 40
0.0
 41
0.855
 50
0.0
 71
     0
 42
0.2
  3
txt.shx
  4

  0
STYLE
  5
257
330
3
100
AcDbSymbolTableRecord
100
AcDbTextStyleTableRecord
  2
CONVERTER_14
 70
     0
 40
0.0
 41
0.72
 50
0.0
 71
     0
 42
0.2
  3
txt.shx
  4

  0
ENDTAB
  0
TABLE
  2
VIEW
  5
6
330
0
100
AcDbSymbolTable
 70
     0
  0
ENDTAB
  0
TABLE
  2
UCS
  5
7
330
0
100
AcDbSymbolTable
 70
     0
  0
ENDTAB
  0
TABLE
  2
APPID
  5
9
330
0
100
AcDbSymbolTable
 70
     1
  0
APPID
  5
12
330
9
100
AcDbSymbolTableRecord
100
AcDbRegAppTableRecord
  2
ACAD
 70
     0
  0
ENDTAB
  0
TABLE
  2
DIMSTYLE
  5
A
330
0
100
AcDbSymbolTable
 70
     7
100
AcDbDimStyleTable
  0
DIMSTYLE
105
27
330
A
100
AcDbSymbolTableRecord
100
AcDbDimStyleTableRecord
  2
Standard
 70
     0
178
     0
340
11
  0
DIMSTYLE
105
D1
102
{ACAD_REACTORS
330
D2
102
}
330
A
100
AcDbSymbolTableRecord
100
AcDbDimStyleTableRecord
  2
ME10_DIM_10
 70
     0
 41
3.5
 42
0.5
 44
1.5
 73
     0
 74
     0
 77
     1
 78
     8
140
3.5
147
2.0
172
     1
173
     1
174
     1
175
     1
176
     2
177
     2
178
     3
340
B9
  0
DIMSTYLE
105
129
102
{ACAD_REACTORS
330
12A
102
}
330
A
100
AcDbSymbolTableRecord
100
AcDbDimStyleTableRecord
  2
ME10_DIM_11
 70
     0
 41
3.5
 42
0.0
 44
2.0
 73
     0
 74
     0
 77
     1
 78
     8
140
3.5
147
2.0
172
     1
173
     1
174
     1
175
     1
176
     2
177
     2
178
     3
340
B9
  0
DIMSTYLE
105
134
102
{ACAD_REACTORS
330
135
102
}
330
A
100
AcDbSymbolTableRecord
100
AcDbDimStyleTableRecord
  2
ME10_DIM_12
 70
     0
 41
3.5
 42
0.0
 44
2.0
 73
     0
 74
     0
 77
     1
 78
     8
140
3.5
147
2.0
172
     1
173
     1
174
     1
175
     1
176
     2
177
     2
178
     3
340
B9
  0
DIMSTYLE
105
13F
102
{ACAD_REACTORS
330
140
102
}
330
A
100
AcDbSymbolTableRecord
100
AcDbDimStyleTableRecord
  2
ME10_DIM_13
 70
     0
 41
3.5
 42
0.0
 44
2.0
 73
     0
 74
     0
 77
     1
 78
     8
140
3.5
147
2.0
172
     1
173
     1
174
     1
175
     1
176
     2
177
     2
178
     3
340
B9
  0
DIMSTYLE
105
14A
102
{ACAD_REACTORS
330
14B
102
}
330
A
100
AcDbSymbolTableRecord
100
AcDbDimStyleTableRecord
  2
ME10_DIM_14
 70
     0
 41
3.5
 42
0.5
 44
1.5
 73
     0
 74
     0
 77
     1
 78
     8
140
3.5
147
2.0
172
     1
173
     1
174
     1
175
     1
176
     2
177
     2
178
     3
340
B9
  0
DIMSTYLE
105
155
102
{ACAD_REACTORS
330
156
102
}
330
A
100
AcDbSymbolTableRecord
100
AcDbDimStyleTableRecord
  2
ME10_DIM_15
 70
     0
 41
3.5
 42
0.5
 44
1.5
 73
     0
 74
     0
 77
     1
 78
     8
140
3.5
147
2.0
172
     1
173
     1
174
     1
175
     1
176
     2
177
     2
178
     3
340
B9
  0
ENDTAB
  0
TABLE
  2
BLOCK_RECORD
  5
1
330
0
100
AcDbSymbolTable
 70
    23
  0
BLOCK_RECORD
  5
1F
330
1
100
AcDbSymbolTableRecord
100
AcDbBlockTableRecord
  2
*Model_Space
340
22
  0
BLOCK_RECORD
  5
1B
330
1
100
AcDbSymbolTableRecord
100
AcDbBlockTableRecord
  2
*Paper_Space
340
1E
  0
BLOCK_RECORD
  5
23
330
1
100
AcDbSymbolTableRecord
100
AcDbBlockTableRecord
  2
*Paper_Space0
340
26
  0
BLOCK_RECORD
  5
47
330
1
100
AcDbSymbolTableRecord
100
AcDbBlockTableRecord
  2
ATP-ST-QUATTRO-select__1
340
0
102
{BLKREFS
331
4B
102
}
  0
BLOCK_RECORD
  5
4A
330
1
100
AcDbSymbolTableRecord
100
AcDbBlockTableRecord
  2
AllgSicht1
340
0
102
{BLKREFS
331
7D
102
}
  0
BLOCK_RECORD
  5
4E
330
1
100
AcDbSymbolTableRecord
100
AcDbBlockTableRecord
  2
ATP-ST-QUATTRO-select__2
340
0
102
{BLKREFS
331
52
102
}
  0
BLOCK_RECORD
  5
51
330
1
100
AcDbSymbolTableRecord
100
AcDbBlockTableRecord
  2
Drfsicht1
340
0
102
{BLKREFS
331
7E
102
}
  0
BLOCK_RECORD
  5
55
330
1
100
AcDbSymbolTableRecord
100
AcDbBlockTableRecord
  2
ATP-ST-QUATTRO-select__3
340
0
102
{BLKREFS
331
59
102
}
  0
BLOCK_RECORD
  5
58
330
1
100
AcDbSymbolTableRecord
100
AcDbBlockTableRecord
  2
Rckans1
340
0
102
{BLKREFS
331
7F
102
}
  0
BLOCK_RECORD
  5
5C
330
1
100
AcDbSymbolTableRecord
100
AcDbBlockTableRecord
  2
ATP-ST-QUATTRO-select__4
340
0
102
{BLKREFS
331
60
102
}
  0
BLOCK_RECORD
  5
5F
330
1
100
AcDbSymbolTableRecord
100
AcDbBlockTableRecord
  2
SA_Links1
340
0
102
{BLKREFS
331
80
102
}
  0
BLOCK_RECORD
  5
63
330
1
100
AcDbSymbolTableRecord
100
AcDbBlockTableRecord
  2
ATP-ST-QUATTRO-select__5
340
0
102
{BLKREFS
331
67
102
}
  0
BLOCK_RECORD
  5
66
330
1
100
AcDbSymbolTableRecord
100
AcDbBlockTableRecord
  2
SA_Rechts1
340
0
102
{BLKREFS
331
81
102
}
  0
BLOCK_RECORD
  5
6A
330
1
100
AcDbSymbolTableRecord
100
AcDbBlockTableRecord
  2
ATP-ST-QUATTRO-select__6
340
0
102
{BLKREFS
331
6E
102
}
  0
BLOCK_RECORD
  5
6D
330
1
100
AcDbSymbolTableRecord
100
AcDbBlockTableRecord
  2
Vordans1
340
0
102
{BLKREFS
331
82
102
}
  0
BLOCK_RECORD
  5
71
330
1
100
AcDbSymbolTableRecord
100
AcDbBlockTableRecord
  2
_rahmen
340
0
102
{BLKREFS
331
78
102
}
  0
BLOCK_RECORD
  5
74
330
1
100
AcDbSymbolTableRecord
100
AcDbBlockTableRecord
  2
_punkt
340
0
102
{BLKREFS
331
79
102
}
  0
BLOCK_RECORD
  5
77
330
1
100
AcDbSymbolTableRecord
100
AcDbBlockTableRecord
  2
A4I_CS
340
0
102
{BLKREFS
331
83
102
}
  0
BLOCK_RECORD
  5
7C
330
1
100
AcDbSymbolTableRecord
100
AcDbBlockTableRecord
  2
1
340
0
102
{BLKREFS
331
86
102
}
  0
BLOCK_RECORD
  5
C6
330
1
100
AcDbSymbolTableRecord
100
AcDbBlockTableRecord
  2
*D17
340
0
  0
BLOCK_RECORD
  5
120
330
1
100
AcDbSymbolTableRecord
100
AcDbBlockTableRecord
  2
*D18
340
0
  0
BLOCK_RECORD
  5
12B
330
1
100
AcDbSymbolTableRecord
100
AcDbBlockTableRecord
  2
*D19
340
0
  0
BLOCK_RECORD
  5
136
330
1
100
AcDbSymbolTableRecord
100
AcDbBlockTableRecord
  2
*D20
340
0
  0
BLOCK_RECORD
  5
141
330
1
100
AcDbSymbolTableRecord
100
AcDbBlockTableRecord
  2
*D21
340
0
  0
BLOCK_RECORD
  5
14C
330
1
100
AcDbSymbolTableRecord
100
AcDbBlockTableRecord
  2
*D22
340
0
  0
ENDTAB
  0
ENDSEC
  0
SECTION
  2
BLOCKS
  0
BLOCK
  5
20
330
1F
100
AcDbEntity
  8
0
100
AcDbBlockBegin
  2
*Model_Space
 70
     0
 10
0.0
 20
0.0
 30
0.0
  3
*Model_Space
  1

  0
ENDBLK
  5
21
330
1F
100
AcDbEntity
  8
0
100
AcDbBlockEnd
  0
BLOCK
  5
1C
330
1B
100
AcDbEntity
 67
     1
  8
0
100
AcDbBlockBegin
  2
*Paper_Space
 70
     0
 10
0.0
 20
0.0
 30
0.0
  3
*Paper_Space
  1

  0
ENDBLK
  5
1D
330
1B
100
AcDbEntity
 67
     1
  8
0
100
AcDbBlockEnd
  0
BLOCK
  5
24
330
23
100
AcDbEntity
  8
0
100
AcDbBlockBegin
  2
*Paper_Space0
 70
     0
 10
0.0
 20
0.0
 30
0.0
  3
*Paper_Space0
  1

  0
ENDBLK
  5
25
330
23
100
AcDbEntity
  8
0
100
AcDbBlockEnd
  0
BLOCK
  5
48
330
47
100
AcDbEntity
  8
0
100
AcDbBlockBegin
  2
ATP-ST-QUATTRO-select__1
 70
     0
 10
101.0391473979902
 20
379.7618249315734
 30
0.0
  3
ATP-ST-QUATTRO-select__1
  1

  0
LINE
  5
87
330
47
100
AcDbEntity
  8
0
  6
Continuous
 62
     7
100
AcDbLine
 10
127.8396555339957
 20
399.5400746000987
 30
0.0
 11
127.8777014014165
 21
399.5188973447495
 31
0.0
  0
LINE
  5
88
330
47
100
AcDbEntity
  8
0
  6
Continuous
 62
     7
100
AcDbLine
 10
128.3063621064036
 20
398.652691537796
 30
0.0
 11
126.8900057009557
 21
393.7756443470158
 31
0.0
  0
LINE
  5
89
330
47
100
AcDbEntity
  8
0
  6
Continuous
 62
     7
100
AcDbLine
 10
127.879213291683
 20
399.518053696449
 30
0.0
 11
126.6043650549006
 21
395.1282722911786
 31
0.0
  0
LINE
  5
8A
330
47
100
AcDbEntity
  8
0
  6
Continuous
 62
     2
100
AcDbLine
 10
127.387262659636
 20
399.6381888269688
 30
0.0
 11
126.9911273965718
 21
399.2951256258204
 31
0.0
  0
LINE
  5
8B
330
47
100
AcDbEntity
  8
0
  6
Continuous
 62
     7
100
AcDbLine
 10
126.6043650549006
 20
395.1282722911786
 30
0.0
 11
126.6043650549006
 21
394.1756443470158
 31
0.0
  0
LINE
  5
8C
330
47
100
AcDbEntity
  8
0
  6
Continuous
 62
     7
100
AcDbLine
 10
126.6043650549006
 20
395.1282722911786
 30
0.0
 11
125.5043650549006
 21
394.1756443470158
 31
0.0
  0
LINE
  5
8D
330
47
100
AcDbEntity
  8
0
  6
Continuous
 62
     7
100
AcDbLine
 10
126.6043650549006
 20
394.1756443470158
 30
0.0
 11
126.9502570678602
 21
393.9831124380784
 31
0.0
  0
LINE
  5
8E
330
47
100
AcDbEntity
  8
0
  6
Continuous
 62
     7
100
AcDbLine
 10
125.5043650549006
 20
393.2230164028529
 30
0.0
 11
125.5043650549006
 21
394.1756443470158
 31
0.0
  0
LINE
  5
8F
330
47
100
AcDbEntity
  8
0
  6
Continuous
 62
     7
100
AcDbLine
 10
125.5043650549006
 20
394.1756443470158
 30
0.0
 11
126.9911273965718
 21
399.2951256258204
 31
0.0
  0
LINE
  5
90
330
47
100
AcDbEntity
  8
0
  6
Continuous
 62
     2
100
AcDbLine
 10
122.7825709287209
 20
401.0146539125796
 30
0.0
 11
122.0402634397628
 21
400.3717967697224
 31
0.0
  0
LINE
  5
91
330
47
100
AcDbEntity
  8
0
  6
Continuous
 62
     7
100
AcDbLine
 10
103.507319798776
 20
429.1044826719022
 30
0.0
 11
101.0391473979902
 21
420.605637870316
 31
0.0
  0
LINE
  5
92
330
47
100
AcDbEntity
  8
0
  6
Continuous
 62
     7
100
AcDbLine
 10
103.507319798776
 20
429.1044826719022
 30
0.0
 11
104.607319798776
 21
430.0571106160651
 31
0.0
  0
LINE
  5
93
330
47
100
AcDbEntity
  8
0
  6
Continuous
 62
     7
100
AcDbLine
 10
104.607319798776
 20
430.0571106160651
 30
0.0
 11
178.4792867415886
 21
408.7321106160651
 31
0.0
  0
LINE
  5
94
330
47
100
AcDbEntity
  8
0
  6
Continuous
 62
     7
100
AcDbLine
 10
180.8608566019956
 20
399.1564708952672
 30
0.0
 11
180.8608566019956
 21
382.8530283129561
 31
0.0
  0
LINE
  5
95
330
47
100
AcDbEntity
  8
0
  6
Continuous
 62
     7
100
AcDbLine
 10
179.7608566019956
 20
381.9004003687932
 30
0.0
 11
179.7608566019956
 21
398.2038429511043
 31
0.0
  0
LINE
  5
96
330
47
100
AcDbEntity
  8
0
  6
Continuous
 62
     7
100
AcDbLine
 10
155.5554465662206
 20
385.5006443470157
 30
0.0
 11
155.5554465662206
 21
384.5480164028529
 31
0.0
  0
LINE
  5
97
330
47
100
AcDbEntity
  8
0
  6
Continuous
 62
     7
100
AcDbLine
 10
155.5554465662206
 20
384.5480164028529
 30
0.0
 11
154.4296135413011
 21
384.5713503530141
 31
0.0
  0
LINE
  5
98
330
47
100
AcDbEntity
  8
0
  6
Continuous
 62
     7
100
AcDbLine
 10
154.4296135413011
 20
384.5713503530141
 30
0.0
 11
154.4296135413005
 21
384.1801960798252
 31
0.0
  0
LINE
  5
99
330
47
100
AcDbEntity
  8
0
  6
Continuous
 62
     7
100
AcDbLine
 10
155.8663008883604
 20
380.2147560110265
 30
0.0
 11
157.4353001722397
 21
379.7618249315734
 31
0.0
  0
LINE
  5
9A
330
47
100
AcDbEntity
  8
0
  6
Continuous
 62
     7
100
AcDbLine
 10
157.4353001722397
 20
379.7618249315734
 30
0.0
 11
179.7608566019956
 21
381.9004003687932
 31
0.0
  0
LINE
  5
9B
330
47
100
AcDbEntity
  8
0
  6
Continuous
 62
     7
100
AcDbLine
 10
179.7608566019956
 20
381.9004003687932
 30
0.0
 11
180.8608566019956
 21
382.8530283129561
 31
0.0
  0
LINE
  5
9C
330
47
100
AcDbEntity
  8
0
  6
Continuous
 62
     7
100
AcDbLine
 10
154.4296135413011
 20
384.5713503530141
 30
0.0
 11
155.5158640039208
 21
385.5120708485153
 31
0.0
  0
LINE
  5
9D
330
47
100
AcDbEntity
  8
0
  6
Continuous
 62
     7
100
AcDbLine
 10
101.0391473979902
 20
420.605637870316
 30
0.0
 11
101.0391473979902
 21
398.8132732164193
 31
0.0
  0
LINE
  5
9E
330
47
100
AcDbEntity
  8
0
  6
Continuous
 62
     7
100
AcDbLine
 10
122.0402634397628
 20
392.7507732164193
 30
0.0
 11
122.0402634397628
 21
400.3717967697224
 31
0.0
  0
LINE
  5
9F
330
47
100
AcDbEntity
  8
0
  6
Continuous
 62
     7
100
AcDbLine
 10
101.0391473979902
 20
398.8132732164193
 30
0.0
 11
122.0402634397628
 21
392.7507732164193
 31
0.0
  0
LINE
  5
A0
330
47
100
AcDbEntity
  8
0
  6
Continuous
 62
     7
100
AcDbLine
 10
126.6301980798204
 20
392.2051960798252
 30
0.0
 11
126.6301980798204
 21
392.5963503530133
 31
0.0
  0
LINE
  5
A1
330
47
100
AcDbEntity
  8
0
  6
Continuous
 62
     7
100
AcDbLine
 10
125.1935107327606
 20
389.0692278375923
 30
0.0
 11
126.2935107327606
 21
390.0218557817552
 31
0.0
  0
LINE
  5
A2
330
47
100
AcDbEntity
  8
0
  6
Continuous
 62
     7
100
AcDbLine
 10
126.6043650549006
 20
394.1756443470158
 30
0.0
 11
125.5043650549006
 21
393.2230164028529
 31
0.0
  0
LINE
  5
A3
330
47
100
AcDbEntity
  8
0
  6
Continuous
 62
     7
100
AcDbLine
 10
127.7301980798204
 20
393.5331016989615
 30
0.0
 11
127.7301980798204
 21
393.1578240239879
 31
0.0
  0
LINE
  5
A4
330
47
100
AcDbEntity
  8
0
  6
Continuous
 62
     7
100
AcDbLine
 10
127.7301980798204
 20
393.1578240239879
 30
0.0
 11
126.6301980798204
 21
392.2051960798252
 31
0.0
  0
LINE
  5
A5
330
47
100
AcDbEntity
  8
0
  6
Continuous
 62
     7
100
AcDbLine
 10
127.7164485424408
 20
393.5370708485152
 30
0.0
 11
126.6301980798204
 21
392.5963503530133
 31
0.0
  0
LINE
  5
A6
330
47
100
AcDbEntity
  8
0
  6
Continuous
 62
     7
100
AcDbLine
 10
126.6301980798204
 20
392.5963503530133
 30
0.0
 11
125.5043650549006
 21
393.2230164028529
 31
0.0
  0
LINE
  5
A7
330
47
100
AcDbEntity
  8
0
  6
Continuous
 62
     7
100
AcDbLine
 10
126.8900057009557
 20
393.7756443470158
 30
0.0
 11
155.5554465662206
 21
385.5006443470157
 31
0.0
  0
LINE
  5
A8
330
47
100
AcDbEntity
  8
0
  6
Continuous
 62
     7
100
AcDbLine
 10
179.7608566019956
 20
398.2038429511043
 30
0.0
 11
180.8608566019956
 21
399.1564708952672
 31
0.0
  0
LINE
  5
A9
330
47
100
AcDbEntity
  8
0
  6
Continuous
 62
     7
100
AcDbLine
 10
179.7608566019956
 20
398.2038429511043
 30
0.0
 11
177.3792867415886
 21
407.7794826719022
 31
0.0
  0
LINE
  5
AA
330
47
100
AcDbEntity
  8
0
  6
Continuous
 62
     7
100
AcDbLine
 10
178.4792867415886
 20
408.7321106160651
 30
0.0
 11
180.8608566019956
 21
399.1564708952672
 31
0.0
  0
LINE
  5
AB
330
47
100
AcDbEntity
  8
0
  6
Continuous
 62
     7
100
AcDbLine
 10
177.3792867415886
 20
407.7794826719022
 30
0.0
 11
178.4792867415886
 21
408.7321106160651
 31
0.0
  0
LINE
  5
AC
330
47
100
AcDbEntity
  8
0
  6
Continuous
 62
     7
100
AcDbLine
 10
123.7723142473317
 20
399.8717967697224
 30
0.0
 11
123.7723142473317
 21
389.4794919243091
 31
0.0
  0
LINE
  5
AD
330
47
100
AcDbEntity
  8
0
  6
Continuous
 62
     7
100
AcDbLine
 10
123.1402634397628
 20
400.88807417919
 30
0.0
 11
123.1402634397628
 21
393.7034011605822
 31
0.0
  0
LINE
  5
AE
330
47
100
AcDbEntity
  8
0
  6
Continuous
 62
     7
100
AcDbLine
 10
123.7723142473317
 20
389.4794919243091
 30
0.0
 11
125.1935107327606
 21
389.0692278375923
 31
0.0
  0
LINE
  5
AF
330
47
100
AcDbEntity
  8
0
  6
Continuous
 62
     7
100
AcDbLine
 10
122.0402634397628
 20
392.7507732164193
 30
0.0
 11
123.1402634397628
 21
393.7034011605822
 31
0.0
  0
LINE
  5
B0
330
47
100
AcDbEntity
  8
0
  6
Continuous
 62
     7
100
AcDbLine
 10
177.3792867415886
 20
407.7794826719022
 30
0.0
 11
103.507319798776
 21
429.1044826719022
 31
0.0
  0
SPLINE
  5
B1
330
47
100
AcDbEntity
  8
0
  6
Continuous
 62
     7
100
AcDbSpline
210
0.0
220
0.0
230
1.0
 70
     8
 71
     3
 72
    13
 73
     9
 74
     7
 42
0.000000001
 43
0.0000000001
 44
0.00000001
 40
0.0
 40
0.0
 40
0.0
 40
0.0
 40
0.1523446414402367
 40
0.3165129798452357
 40
0.4910476512613595
 40
0.6721590073887828
 40
0.8547555411483762
 40
1.033467912954406
 40
1.033467912954406
 40
1.033467912954406
 40
1.033467912954406
 10
128.3063621064036
 20
398.652691537796
 30
0.0
 10
128.3160563294454
 20
398.7028646591035
 30
0.0
 10
128.3361971442008
 20
398.8071049151365
 30
0.0
 10
128.311014757335
 20
398.9716282943721
 30
0.0
 10
128.2504901337985
 20
399.1349316037973
 30
0.0
 10
128.1535387279696
 20
399.2871717824828
 30
0.0
 10
128.0297028249792
 20
399.4213146532503
 30
0.0
 10
127.9280041164621
 20
399.4866037429337
 30
0.0
 10
127.8777014014165
 20
399.5188973447495
 30
0.0
 11
128.3063621064036
 21
398.652691537796
 31
0.0
 11
128.3270183148151
 21
398.803629311682
 31
0.0
 11
128.3063621064036
 21
398.9664929530549
 31
0.0
 11
128.2458005538191
 21
399.130183670283
 31
0.0
 11
128.1494613987742
 21
399.2835462833054
 31
0.0
 11
128.0239095043011
 21
399.4161291483859
 31
0.0
 11
127.8777014014165
 21
399.5188973447495
 31
0.0
  0
SPLINE
  5
B2
330
47
100
AcDbEntity
  8
0
  6
Continuous
 62
     7
100
AcDbSpline
210
0.0
220
0.0
230
1.0
 70
     8
 71
     3
 72
     9
 73
     5
 74
     3
 42
0.000000001
 43
0.0000000001
 44
0.00000001
 40
0.0
 40
0.0
 40
0.0
 40
0.0
 40
0.1359563309104465
 40
0.2769419554987812
 40
0.2769419554987812
 40
0.2769419554987812
 40
0.2769419554987812
 10
127.1366175029957
 20
399.5273685229437
 30
0.0
 10
127.104470177694
 20
399.4946192914514
 30
0.0
 10
127.0389863497106
 20
399.4279093579015
 30
0.0
 10
127.0072723515402
 20
399.3399195078302
 30
0.0
 10
126.9911273965718
 20
399.2951256258204
 30
0.0
 11
127.1366175029957
 21
399.5273685229437
 31
0.0
 11
127.0483141440691
 21
399.4239923114209
 31
0.0
 11
126.9911273965718
 21
399.2951256258204
 31
0.0
  0
SPLINE
  5
B3
330
47
100
AcDbEntity
  8
0
  6
Continuous
 62
     7
100
AcDbSpline
210
0.0
220
0.0
230
1.0
 70
     8
 71
     3
 72
    11
 73
     7
 74
     5
 42
0.000000001
 43
0.0000000001
 44
0.00000001
 40
0.0
 40
0.0
 40
0.0
 40
0.0
 40
0.134057810304126
 40
0.2712905770933406
 40
0.414283504239607
 40
0.564651490433885
 40
0.564651490433885
 40
0.564651490433885
 40
0.564651490433885
 10
122.2516351728393
 20
400.8777257157408
 30
0.0
 10
122.219807129687
 20
400.846040395864
 30
0.0
 10
122.1553972554035
 20
400.7819193273949
 30
0.0
 10
122.0898885996016
 20
400.6584261630716
 30
0.0
 10
122.0475939656475
 20
400.5200547515057
 30
0.0
 10
122.0427475561317
 20
400.4220374784511
 30
0.0
 10
122.0402634397628
 20
400.3717967697224
 30
0.0
 11
122.2516351728393
 21
400.8777257157408
 31
0.0
 11
122.1614039037802
 21
400.7785802921971
 31
0.0
 11
122.0948251322472
 21
400.6585798750682
 31
0.0
 11
122.0540130341313
 21
400.5215348079091
 31
0.0
 11
122.0402634397628
 21
400.3717967697224
 31
0.0
  0
SPLINE
  5
B4
330
47
100
AcDbEntity
  8
0
  6
Continuous
 62
     7
100
AcDbSpline
210
0.0
220
0.0
230
1.0
 70
     8
 71
     3
 72
    15
 73
    11
 74
     9
 42
0.000000001
 43
0.0000000001
 44
0.00000001
 40
0.0
 40
0.0
 40
0.0
 40
0.0
 40
0.2731159352344166
 40
0.5651442448903616
 40
0.8668259370218273
 40
1.166389878383843
 40
1.45259867821874
 40
1.717811132973417
 40
1.960999480119322
 40
2.189745537809354
 40
2.189745537809354
 40
2.189745537809354
 40
2.189745537809354
 10
123.7723142473317
 20
399.8717967697224
 30
0.0
 10
123.7639701765623
 20
399.9630029961344
 30
0.0
 10
123.7467042209817
 20
400.1517311760447
 30
0.0
 10
123.6247004171091
 20
400.4189711317559
 30
0.0
 10
123.4465316286845
 20
400.6596571787373
 30
0.0
 10
123.2190485243545
 20
400.8529924300474
 30
0.0
 10
122.9631260936989
 20
400.9829710356225
 30
0.0
 10
122.7010631090099
 20
401.0351862251905
 30
0.0
 10
122.4480580744002
 20
401.0096713181995
 30
0.0
 10
122.3157599277
 20
400.9208010415027
 30
0.0
 10
122.2516351728393
 20
400.8777257157408
 30
0.0
 11
123.7723142473317
 21
399.8717967697224
 31
0.0
 11
123.732737425336
 21
400.1420299813173
 31
0.0
 11
123.617626273227
 21
400.4104139525389
 31
0.0
 11
123.4374997654244
 21
400.6524186724837
 31
0.0
 11
123.2088225528147
 21
400.8459265217803
 31
0.0
 11
122.952494135732
 21
400.9732498130401
 31
0.0
 11
122.6919427265966
 21
401.0227534592947
 31
0.0
 11
122.4509822857606
 21
400.9899107855147
 31
0.0
 11
122.2516351728393
 21
400.8777257157408
 31
0.0
  0
SPLINE
  5
B5
330
47
100
AcDbEntity
  8
0
  6
Continuous
 62
     7
100
AcDbSpline
210
0.0
220
0.0
230
1.0
 70
     8
 71
     3
 72
    11
 73
     7
 74
     5
 42
0.000000001
 43
0.0000000001
 44
0.00000001
 40
0.0
 40
0.0
 40
0.0
 40
0.0
 40
1.022376801599794
 40
2.073201022470012
 40
3.148344887405428
 40
4.242658325227337
 40
4.242658325227337
 40
4.242658325227337
 40
4.242658325227337
 10
154.4296135413005
 20
384.1801960798252
 30
0.0
 10
154.4889601954031
 20
383.8442692201423
 30
0.0
 10
154.6093048265138
 20
383.1630684096605
 30
0.0
 10
154.9274674615035
 20
382.1604618064069
 30
0.0
 10
155.3361800965285
 20
381.1658054315333
 30
0.0
 10
155.6885560751504
 20
380.5336344605445
 30
0.0
 10
155.8663008883604
 20
380.2147560110265
 30
0.0
 11
154.4296135413005
 21
384.1801960798252
 31
0.0
 11
154.6293377208231
 21
383.177517378651
 31
0.0
 11
154.9384421231819
 21
382.1731837618471
 31
0.0
 11
155.3526663292793
 21
381.1810382889239
 31
0.0
 11
155.8663008883604
 21
380.2147560110265
 31
0.0
  0
SPLINE
  5
B6
330
47
100
AcDbEntity
  8
0
  6
Continuous
 62
     7
100
AcDbSpline
210
0.0
220
0.0
230
1.0
 70
     8
 71
     3
 72
    11
 73
     7
 74
     5
 42
0.000000001
 43
0.0000000001
 44
0.00000001
 40
0.0
 40
0.0
 40
0.0
 40
0.0
 40
0.8440176141074051
 40
1.703424486574056
 40
2.585246614932821
 40
3.4948132828833
 40
3.4948132828833
 40
3.4948132828833
 40
3.4948132828833
 10
125.1935107327606
 20
389.0692278375923
 30
0.0
 10
125.3722217976957
 20
389.2872986339567
 30
0.0
 10
125.7329024148535
 20
389.7274163941959
 30
0.0
 10
126.1412145106316
 20
390.4913331758366
 30
0.0
 10
126.4579852370625
 20
391.3199044346039
 30
0.0
 10
126.5722041400752
 20
391.9070675894934
 30
0.0
 10
126.6301980798204
 20
392.2051960798252
 30
0.0
 11
125.1935107327606
 21
389.0692278375923
 31
0.0
 11
125.7071452918417
 21
389.7389630645393
 31
0.0
 11
126.121369497939
 21
390.4919560805674
 31
0.0
 11
126.4304739002978
 21
391.3178281874618
 31
0.0
 11
126.6301980798204
 21
392.2051960798252
 31
0.0
  0
SPLINE
  5
B7
330
47
100
AcDbEntity
  8
0
  6
Continuous
 62
     7
100
AcDbSpline
210
0.0
220
0.0
230
1.0
 70
     8
 71
     3
 72
    11
 73
     7
 74
     5
 42
0.000000001
 43
0.0000000001
 44
0.00000001
 40
0.0
 40
0.0
 40
0.0
 40
0.0
 40
0.8440176141073513
 40
1.703424486573966
 40
2.585246614932609
 40
3.494813282883095
 40
3.494813282883095
 40
3.494813282883095
 40
3.494813282883095
 10
126.2935107327606
 20
390.0218557817552
 30
0.0
 10
126.4722217976957
 20
390.2399265781198
 30
0.0
 10
126.8329024148534
 20
390.6800443383588
 30
0.0
 10
127.2412145106317
 20
391.4439611199994
 30
0.0
 10
127.5579852370625
 20
392.2725323787668
 30
0.0
 10
127.6722041400752
 20
392.8596955336561
 30
0.0
 10
127.7301980798204
 20
393.1578240239879
 30
0.0
 11
126.2935107327606
 21
390.0218557817552
 31
0.0
 11
126.8071452918417
 21
390.6915910087022
 31
0.0
 11
127.2213694979391
 21
391.4445840247303
 31
0.0
 11
127.5304739002977
 21
392.2704561316245
 31
0.0
 11
127.7301980798204
 21
393.1578240239879
 31
0.0
  0
SPLINE
  5
B8
330
47
100
AcDbEntity
  8
0
  6
Continuous
 62
     7
100
AcDbSpline
210
0.0
220
0.0
230
1.0
 70
     8
 71
     3
 72
    11
 73
     7
 74
     5
 42
0.000000001
 43
0.0000000001
 44
0.00000001
 40
0.0
 40
0.0
 40
0.0
 40
0.0
 40
0.2073068334071663
 40
0.3996653899663554
 40
0.5774179169887133
 40
0.745961489866316
 40
0.745961489866316
 40
0.745961489866316
 40
0.745961489866316
 10
127.8396555339957
 20
399.5400746000987
 30
0.0
 10
127.7769042121134
 20
399.5700176114386
 30
0.0
 10
127.6559263736686
 20
399.6277445195092
 30
0.0
 10
127.4624846114901
 20
399.6521531765101
 30
0.0
 10
127.2797212179119
 20
399.6257082088339
 30
0.0
 10
127.1834655053457
 20
399.5595620873402
 30
0.0
 10
127.1366175029957
 20
399.5273685229437
 30
0.0
 11
127.8396555339957
 21
399.5400746000987
 31
0.0
 11
127.6479268451607
 21
399.6189176912283
 31
0.0
 11
127.4571630958166
 21
399.6436362524309
 31
0.0
 11
127.2821931353369
 21
399.6123077490483
 31
0.0
 11
127.1366175029957
 21
399.5273685229437
 31
0.0
  0
ENDBLK
  5
49
330
47
100
AcDbEntity
  8
0
100
AcDbBlockEnd
  0
BLOCK
  5
4C
330
4A
100
AcDbEntity
  8
0
100
AcDbBlockBegin
  2
AllgSicht1
 70
     0
 10
140.9000019999955
 20
402.0
 30
0.0
  3
AllgSicht1
  1

  0
INSERT
  5
4B
330
4A
100
AcDbEntity
  8
0
100
AcDbBlockReference
  2
ATP-ST-QUATTRO-select__1
 10
101.0391473979902
 20
379.7618249315734
 30
0.0
  0
MTEXT
  5
BA
330
4A
100
AcDbEntity
  8
1
 62
     6
100
AcDbMText
 10
140.900001999991
 20
368.3169917335742
 30
0.0
 40
5.0
 41
0.0
 71
     2
 72
     1
  1
 
  7
CONVERTER_11
 73
     1
 44
1.32052821128451
  0
ENDBLK
  5
4D
330
4A
100
AcDbEntity
  8
0
100
AcDbBlockEnd
  0
BLOCK
  5
4F
330
4E
100
AcDbEntity
  8
0
100
AcDbBlockBegin
  2
ATP-ST-QUATTRO-select__2
 70
     0
 10
-28.45000000000007
 20
384.99999999999
 30
0.0
  3
ATP-ST-QUATTRO-select__2
  1

  0
LINE
  5
BB
330
4E
100
AcDbEntity
  8
0
  6
Continuous
 62
     7
100
AcDbLine
 10
59.70000000000005
 20
384.99999999999
 30
0.0
 11
-25.5999999999999
 21
384.99999999999
 31
0.0
  0
LINE
  5
BC
330
4E
100
AcDbEntity
  8
0
  6
Continuous
 62
     7
100
AcDbLine
 10
59.70000000000005
 20
384.99999999999
 30
0.0
 11
59.70000000000005
 21
387.19999999999
 31
0.0
  0
LINE
  5
BD
330
4E
100
AcDbEntity
  8
0
  6
Continuous
 62
     7
100
AcDbLine
 10
-25.5999999999999
 20
384.99999999999
 30
0.0
 11
-28.45000000000007
 21
384.99999999999
 31
0.0
  0
LINE
  5
BE
330
4E
100
AcDbEntity
  8
0
  6
Continuous
 62
     7
100
AcDbLine
 10
62.44999999999986
 20
384.99999999999
 30
0.0
 11
59.70000000000005
 21
384.99999999999
 31
0.0
  0
LINE
  5
BF
330
4E
100
AcDbEntity
  8
0
  6
Continuous
 62
     7
100
AcDbLine
 10
62.44999999999986
 20
384.99999999999
 30
0.0
 11
62.44999999999986
 21
387.19999999999
 31
0.0
  0
LINE
  5
C0
330
4E
100
AcDbEntity
  8
0
  6
Continuous
 62
     7
100
AcDbLine
 10
-25.5999999999999
 20
384.99999999999
 30
0.0
 11
-25.5999999999999
 21
387.19999999999
 31
0.0
  0
LINE
  5
C1
330
4E
100
AcDbEntity
  8
0
  6
Continuous
 62
     7
100
AcDbLine
 10
-25.5999999999999
 20
387.19999999999
 30
0.0
 11
59.70000000000005
 21
387.19999999999
 31
0.0
  0
LINE
  5
C2
330
4E
100
AcDbEntity
  8
0
  6
Continuous
 62
     7
100
AcDbLine
 10
59.70000000000005
 20
387.19999999999
 30
0.0
 11
62.44999999999986
 21
387.19999999999
 31
0.0
  0
LINE
  5
C3
330
4E
100
AcDbEntity
  8
0
  6
Continuous
 62
     7
100
AcDbLine
 10
-28.45000000000007
 20
387.19999999999
 30
0.0
 11
-25.5999999999999
 21
387.19999999999
 31
0.0
  0
LINE
  5
C4
330
4E
100
AcDbEntity
  8
0
  6
Continuous
 62
     7
100
AcDbLine
 10
-28.45000000000007
 20
384.99999999999
 30
0.0
 11
-28.45000000000007
 21
387.19999999999
 31
0.0
  0
ENDBLK
  5
50
330
4E
100
AcDbEntity
  8
0
100
AcDbBlockEnd
  0
BLOCK
  5
53
330
51
100
AcDbEntity
  8
0
100
AcDbBlockBegin
  2
Drfsicht1
 70
     0
 10
17.0
 20
385.999999999995
 30
0.0
  3
Drfsicht1
  1

  0
INSERT
  5
52
330
51
100
AcDbEntity
  8
0
100
AcDbBlockReference
  2
ATP-ST-QUATTRO-select__2
 10
-28.45000000000007
 20
384.99999999999
 30
0.0
  0
MTEXT
  5
C5
330
51
100
AcDbEntity
  8
1
 62
     6
100
AcDbMText
 10
17.0
 20
379.999999999995
 30
0.0
 40
5.0
 41
0.0
 71
     2
 72
     1
  1
 
  7
CONVERTER_11
 73
     1
 44
1.32052821128451
  0
DIMENSION
  5
D2
330
51
100
AcDbEntity
  8
1
100
AcDbDimension
  2
*D17
 10
-40.6385832606272
 20
384.99999999999
 30
0.0
 11
-44.5635832606272
 21
386.175588141312
 31
0.0
 70
    32
  1
<>
 71
     5
 42
-1.0
 53
90.0
  3
ME10_DIM_10
100
AcDbAlignedDimension
 13
-28.45000000000007
 23
387.19999999999
 33
0.0
 14
-28.45000000000007
 24
384.99999999999
 34
0.0
 50
90.0
100
AcDbRotatedDimension
  0
ENDBLK
  5
54
330
51
100
AcDbEntity
  8
0
100
AcDbBlockEnd
  0
BLOCK
  5
56
330
55
100
AcDbEntity
  8
0
100
AcDbBlockBegin
  2
ATP-ST-QUATTRO-select__3
 70
     0
 10
95.45000152588037
 20
442.0000000000001
 30
0.0
  3
ATP-ST-QUATTRO-select__3
  1

  0
LINE
  5
D3
330
55
100
AcDbEntity
  8
0
  6
Continuous
 62
     7
100
AcDbLine
 10
124.7000015258801
 20
446.5516660498406
 30
0.0
 11
123.4000015258804
 21
446.9000000000001
 31
0.0
  0
LINE
  5
D4
330
55
100
AcDbEntity
  8
0
  6
Continuous
 62
     7
100
AcDbLine
 10
123.4000015258804
 20
446.9000000000001
 30
0.0
 11
123.4000015258804
 21
448.0000000000001
 31
0.0
  0
LINE
  5
D5
330
55
100
AcDbEntity
  8
0
  6
Continuous
 62
     7
100
AcDbLine
 10
123.4000015258804
 20
448.0000000000001
 30
0.0
 11
156.5000015258804
 21
448.0000000000001
 31
0.0
  0
LINE
  5
D6
330
55
100
AcDbEntity
  8
0
  6
Continuous
 62
     7
100
AcDbLine
 10
156.5000015258804
 20
448.0000000000001
 30
0.0
 11
154.8645340219728
 21
454.103647818711
 31
0.0
  0
LINE
  5
D7
330
55
100
AcDbEntity
  8
0
  6
Continuous
 62
     7
100
AcDbLine
 10
124.7000015258808
 20
446.0999999999999
 30
0.0
 11
124.7000015258801
 21
446.5516660498406
 31
0.0
  0
LINE
  5
D8
330
55
100
AcDbEntity
  8
0
  6
Continuous
 62
     7
100
AcDbLine
 10
155.3595087688034
 20
454.960969228685
 30
0.0
 11
155.4034403523973
 21
454.9727406610314
 31
0.0
  0
LINE
  5
D9
330
55
100
AcDbEntity
  8
0
  6
Continuous
 62
     7
100
AcDbLine
 10
121.229333554936
 20
442.0000000000006
 30
0.0
 11
123.0410578727481
 21
442.0000000000006
 31
0.0
  0
LINE
  5
DA
330
55
100
AcDbEntity
  8
0
  6
Continuous
 62
     7
100
AcDbLine
 10
158.4589451790129
 20
442.0000000000001
 30
0.0
 11
160.1000015258804
 21
442.0000000000001
 31
0.0
  0
LINE
  5
DB
330
55
100
AcDbEntity
  8
0
  6
Continuous
 62
     7
100
AcDbLine
 10
186.3500015258804
 20
470.3636551984115
 30
0.0
 11
183.5000015258802
 21
481.0000000000001
 31
0.0
  0
LINE
  5
DC
330
55
100
AcDbEntity
  8
0
  6
Continuous
 62
     7
100
AcDbLine
 10
95.45000152588037
 20
470.7368602792046
 30
0.0
 11
95.45000152588037
 21
451.9112663519749
 31
0.0
  0
LINE
  5
DD
330
55
100
AcDbEntity
  8
0
  6
Continuous
 62
     7
100
AcDbLine
 10
98.20000152588028
 20
481.0000000000001
 30
0.0
 11
95.45000152588037
 21
470.7368602792046
 31
0.0
  0
LINE
  5
DE
330
55
100
AcDbEntity
  8
0
  6
Continuous
 62
     7
100
AcDbLine
 10
183.5000015258802
 20
481.0000000000001
 30
0.0
 11
98.20000152588028
 21
481.0000000000001
 31
0.0
  0
LINE
  5
DF
330
55
100
AcDbEntity
  8
0
  6
Continuous
 62
     7
100
AcDbLine
 10
186.3500015258804
 20
445.2000000000001
 30
0.0
 11
186.3500015258804
 21
470.3636551984115
 31
0.0
  0
LINE
  5
E0
330
55
100
AcDbEntity
  8
0
  6
Continuous
 62
     7
100
AcDbLine
 10
162.1000015258804
 20
454.0000000000001
 30
0.0
 11
162.1000015258804
 21
445.2000000000001
 31
0.0
  0
LINE
  5
E1
330
55
100
AcDbEntity
  8
0
  6
Continuous
 62
     7
100
AcDbLine
 10
156.8000015258804
 20
446.5516660498396
 30
0.0
 11
156.8000015258804
 21
446.0999999999998
 31
0.0
  0
LINE
  5
E2
330
55
100
AcDbEntity
  8
0
  6
Continuous
 62
     7
100
AcDbLine
 10
158.1000015258804
 20
446.9000000000001
 30
0.0
 11
156.8000015258804
 21
446.5516660498396
 31
0.0
  0
LINE
  5
E3
330
55
100
AcDbEntity
  8
0
  6
Continuous
 62
     7
100
AcDbLine
 10
158.1000015258804
 20
448.0000000000001
 30
0.0
 11
158.1000015258804
 21
446.9000000000001
 31
0.0
  0
LINE
  5
E4
330
55
100
AcDbEntity
  8
0
  6
Continuous
 62
     7
100
AcDbLine
 10
162.1000015258804
 20
445.2000000000001
 30
0.0
 11
186.3500015258804
 21
445.2000000000001
 31
0.0
  0
LINE
  5
E5
330
55
100
AcDbEntity
  8
0
  6
Continuous
 62
     7
100
AcDbLine
 10
156.3832362495106
 20
454.4070552360821
 30
0.0
 11
158.1000015258804
 21
448.0000000000001
 31
0.0
  0
LINE
  5
E6
330
55
100
AcDbEntity
  8
0
  6
Continuous
 62
     7
100
AcDbLine
 10
160.1000015258804
 20
442.0000000000001
 30
0.0
 11
160.1000015258804
 21
454.0000000000001
 31
0.0
  0
LINE
  5
E7
330
55
100
AcDbEntity
  8
0
  6
Continuous
 62
     7
100
AcDbLine
 10
95.45000152588037
 20
451.9112663519749
 30
0.0
 11
121.229333554936
 21
442.0000000000006
 31
0.0
  0
ARC
  5
E8
330
55
100
AcDbEntity
  8
0
  6
Continuous
 62
     7
100
AcDbCircle
 10
155.6104955884793
 20
454.2000000000001
 30
0.0
 40
0.800000000000032
100
AcDbArc
 50
14.99999999999807
 51
104.9999999999976
  0
ARC
  5
E9
330
55
100
AcDbEntity
  8
0
  6
Continuous
 62
     7
100
AcDbCircle
 10
161.1000015258804
 20
454.0000000000001
 30
0.0
 40
1.0
100
AcDbArc
 50
0.0
 51
180.0
  0
ARC
  5
EA
330
55
100
AcDbEntity
  8
0
  6
Continuous
 62
     7
100
AcDbCircle
 10
155.5406821003751
 20
454.2848211502828
 30
0.0
 40
0.6999999999997921
100
AcDbArc
 50
104.999999999999
 51
195.0000000000044
  0
ARC
  5
EB
330
55
100
AcDbEntity
  8
0
  6
Continuous
 62
     7
100
AcDbCircle
 10
115.3060288465043
 20
447.5153717882981
 30
0.0
 40
9.499999999999051
100
AcDbArc
 50
324.5096766884218
 51
351.4318024382557
  0
ARC
  5
EC
330
55
100
AcDbEntity
  8
0
  6
Continuous
 62
     7
100
AcDbCircle
 10
166.1939742052579
 20
447.5153717882977
 30
0.0
 40
9.500000000000028
100
AcDbArc
 50
188.5681975617418
 51
215.4903233115746
  0
ENDBLK
  5
57
330
55
100
AcDbEntity
  8
0
100
AcDbBlockEnd
  0
BLOCK
  5
5A
330
58
100
AcDbEntity
  8
0
100
AcDbBlockBegin
  2
Rckans1
 70
     0
 10
140.9000015258803
 20
461.5
 30
0.0
  3
Rckans1
  1

  0
INSERT
  5
59
330
58
100
AcDbEntity
  8
0
100
AcDbBlockReference
  2
ATP-ST-QUATTRO-select__3
 10
95.45000152588037
 20
442.0000000000001
 30
0.0
  0
MTEXT
  5
ED
330
58
100
AcDbEntity
  8
1
 62
     6
100
AcDbMText
 10
140.900001525879
 20
437.0
 30
0.0
 40
5.0
 41
0.0
 71
     2
 72
     1
  1
 
  7
CONVERTER_11
 73
     1
 44
1.32052821128451
  0
ENDBLK
  5
5B
330
58
100
AcDbEntity
  8
0
100
AcDbBlockEnd
  0
BLOCK
  5
5D
330
5C
100
AcDbEntity
  8
0
100
AcDbBlockBegin
  2
ATP-ST-QUATTRO-select__4
 70
     0
 10
78.25000076295446
 20
442.0000000000001
 30
0.0
  3
ATP-ST-QUATTRO-select__4
  1

  0
LINE
  5
EE
330
5C
100
AcDbEntity
  8
0
  6
Continuous
 62
     7
100
AcDbLine
 10
80.45000076295446
 20
470.3636551984114
 30
0.0
 11
80.45000076295446
 21
445.2000000000001
 31
0.0
  0
LINE
  5
EF
330
5C
100
AcDbEntity
  8
0
  6
Continuous
 62
     7
100
AcDbLine
 10
80.45000076295446
 20
445.2000000000001
 30
0.0
 11
78.25000076295446
 21
445.2000000000001
 31
0.0
  0
LINE
  5
F0
330
5C
100
AcDbEntity
  8
0
  6
Continuous
 62
     7
100
AcDbLine
 10
80.45000076295446
 20
445.2000000000001
 30
0.0
 11
80.45000076295446
 21
442.0000000000001
 31
0.0
  0
LINE
  5
F1
330
5C
100
AcDbEntity
  8
0
  6
Continuous
 62
     7
100
AcDbLine
 10
80.45000076295446
 20
442.0000000000001
 30
0.0
 11
78.25000076295446
 21
442.0000000000001
 31
0.0
  0
LINE
  5
F2
330
5C
100
AcDbEntity
  8
0
  6
Continuous
 62
     7
100
AcDbLine
 10
78.25000076295446
 20
445.2000000000001
 30
0.0
 11
78.25000076295446
 21
470.3636551984115
 31
0.0
  0
LINE
  5
F3
330
5C
100
AcDbEntity
  8
0
  6
Continuous
 62
     7
100
AcDbLine
 10
78.25000076295446
 20
470.3636551984115
 30
0.0
 11
78.25000076295446
 21
481.0000000000001
 31
0.0
  0
LINE
  5
F4
330
5C
100
AcDbEntity
  8
0
  6
Continuous
 62
     7
100
AcDbLine
 10
80.45000076295446
 20
481.0000000000001
 30
0.0
 11
80.45000076295446
 21
470.3636551984114
 31
0.0
  0
LINE
  5
F5
330
5C
100
AcDbEntity
  8
0
  6
Continuous
 62
     7
100
AcDbLine
 10
80.45000076295446
 20
481.0000000000001
 30
0.0
 11
78.25000076295446
 21
481.0000000000001
 31
0.0
  0
LINE
  5
F6
330
5C
100
AcDbEntity
  8
0
  6
Continuous
 62
     7
100
AcDbLine
 10
78.25000076295446
 20
442.0000000000001
 30
0.0
 11
78.25000076295446
 21
445.2000000000001
 31
0.0
  0
LINE
  5
F7
330
5C
100
AcDbEntity
  8
0
  6
Continuous
 62
     7
100
AcDbLine
 10
80.45000076295446
 20
470.3636551984114
 30
0.0
 11
78.25000076295446
 21
470.3636551984115
 31
0.0
  0
ENDBLK
  5
5E
330
5C
100
AcDbEntity
  8
0
100
AcDbBlockEnd
  0
BLOCK
  5
61
330
5F
100
AcDbEntity
  8
0
100
AcDbBlockBegin
  2
SA_Links1
 70
     0
 10
79.45000076294946
 20
461.5
 30
0.0
  3
SA_Links1
  1

  0
INSERT
  5
60
330
5F
100
AcDbEntity
  8
0
100
AcDbBlockReference
  2
ATP-ST-QUATTRO-select__4
 10
78.25000076295446
 20
442.0000000000001
 30
0.0
  0
MTEXT
  5
F8
330
5F
100
AcDbEntity
  8
1
 62
     6
100
AcDbMText
 10
79.45000076294946
 20
437.0
 30
0.0
 40
5.0
 41
0.0
 71
     2
 72
     1
  1
 
  7
CONVERTER_11
 73
     1
 44
1.32052821128451
  0
ENDBLK
  5
62
330
5F
100
AcDbEntity
  8
0
100
AcDbBlockEnd
  0
BLOCK
  5
64
330
63
100
AcDbEntity
  8
0
100
AcDbBlockBegin
  2
ATP-ST-QUATTRO-select__5
 70
     0
 10
-71.45000076295064
 20
442.0000000000005
 30
0.0
  3
ATP-ST-QUATTRO-select__5
  1

  0
LINE
  5
F9
330
63
100
AcDbEntity
  8
0
  6
Continuous
 62
     7
100
AcDbLine
 10
-71.45000076295064
 20
451.9112663519748
 30
0.0
 11
-69.25000076295063
 21
451.9112663519748
 31
0.0
  0
LINE
  5
FA
330
63
100
AcDbEntity
  8
0
  6
Continuous
 62
     7
100
AcDbLine
 10
-69.25000076295063
 20
470.7368602792046
 30
0.0
 11
-69.25000076295063
 21
451.9112663519748
 31
0.0
  0
LINE
  5
FB
330
63
100
AcDbEntity
  8
0
  6
Continuous
 62
     7
100
AcDbLine
 10
-71.45000076295064
 20
470.7368602792046
 30
0.0
 11
-69.25000076295063
 21
470.7368602792046
 31
0.0
  0
LINE
  5
FC
330
63
100
AcDbEntity
  8
0
  6
Continuous
 62
     7
100
AcDbLine
 10
-69.25000076295063
 20
481.0000000000001
 30
0.0
 11
-69.25000076295063
 21
470.7368602792046
 31
0.0
  0
LINE
  5
FD
330
63
100
AcDbEntity
  8
0
  6
Continuous
 62
     7
100
AcDbLine
 10
-71.45000076295064
 20
481.0000000000001
 30
0.0
 11
-69.25000076295063
 21
481.0000000000001
 31
0.0
  0
LINE
  5
FE
330
63
100
AcDbEntity
  8
0
  6
Continuous
 62
     7
100
AcDbLine
 10
-71.45000076295064
 20
442.0000000000005
 30
0.0
 11
-71.45000076295064
 21
451.9112663519748
 31
0.0
  0
LINE
  5
FF
330
63
100
AcDbEntity
  8
0
  6
Continuous
 62
     7
100
AcDbLine
 10
-69.25000076295063
 20
451.9112663519748
 30
0.0
 11
-69.25000076295063
 21
442.0000000000005
 31
0.0
  0
LINE
  5
100
330
63
100
AcDbEntity
  8
0
  6
Continuous
 62
     7
100
AcDbLine
 10
-71.45000076295064
 20
470.7368602792046
 30
0.0
 11
-71.45000076295064
 21
451.9112663519748
 31
0.0
  0
LINE
  5
101
330
63
100
AcDbEntity
  8
0
  6
Continuous
 62
     7
100
AcDbLine
 10
-71.45000076295064
 20
470.7368602792046
 30
0.0
 11
-71.45000076295064
 21
481.0000000000001
 31
0.0
  0
LINE
  5
102
330
63
100
AcDbEntity
  8
0
  6
Continuous
 62
     7
100
AcDbLine
 10
-71.45000076295064
 20
442.0000000000005
 30
0.0
 11
-69.25000076295063
 21
442.0000000000005
 31
0.0
  0
ENDBLK
  5
65
330
63
100
AcDbEntity
  8
0
100
AcDbBlockEnd
  0
BLOCK
  5
68
330
66
100
AcDbEntity
  8
0
100
AcDbBlockBegin
  2
SA_Rechts1
 70
     0
 10
-70.45000076294563
 20
461.5
 30
0.0
  3
SA_Rechts1
  1

  0
INSERT
  5
67
330
66
100
AcDbEntity
  8
0
100
AcDbBlockReference
  2
ATP-ST-QUATTRO-select__5
 10
-71.45000076295064
 20
442.0000000000005
 30
0.0
  0
MTEXT
  5
103
330
66
100
AcDbEntity
  8
1
 62
     6
100
AcDbMText
 10
-70.45000076294446
 20
437.0
 30
0.0
 40
5.0
 41
0.0
 71
     2
 72
     1
  1
 
  7
CONVERTER_11
 73
     1
 44
1.32052821128451
  0
ENDBLK
  5
69
330
66
100
AcDbEntity
  8
0
100
AcDbBlockEnd
  0
BLOCK
  5
6B
330
6A
100
AcDbEntity
  8
0
100
AcDbBlockBegin
  2
ATP-ST-QUATTRO-select__6
 70
     0
 10
-28.45000000000091
 20
442.0000000000001
 30
0.0
  3
ATP-ST-QUATTRO-select__6
  1

  0
LINE
  5
104
330
6A
100
AcDbEntity
  8
0
  6
Continuous
 62
     7
100
AcDbLine
 10
-28.45000000000091
 20
445.2000000000001
 30
0.0
 11
-4.2000000000009
 21
445.2000000000001
 31
0.0
  0
LINE
  5
105
330
6A
100
AcDbEntity
  8
0
  6
Continuous
 62
     7
100
AcDbLine
 10
-28.45000000000091
 20
470.3636551984115
 30
0.0
 11
-28.45000000000091
 21
445.2000000000001
 31
0.0
  0
LINE
  5
106
330
6A
100
AcDbEntity
  8
0
  6
Continuous
 62
     7
100
AcDbLine
 10
-4.2000000000009
 20
445.2000000000001
 30
0.0
 11
-4.2000000000009
 21
454.0000000000001
 31
0.0
  0
LINE
  5
107
330
6A
100
AcDbEntity
  8
0
  6
Continuous
 62
     7
100
AcDbLine
 10
-25.60000000000073
 20
481.0000000000001
 30
0.0
 11
-28.45000000000091
 21
470.3636551984115
 31
0.0
  0
LINE
  5
108
330
6A
100
AcDbEntity
  8
0
  6
Continuous
 62
     7
100
AcDbLine
 10
2.49656117348215
 20
454.9727406610314
 30
0.0
 11
2.5404927570761
 21
454.960969228685
 31
0.0
  0
LINE
  5
109
330
6A
100
AcDbEntity
  8
0
  6
Continuous
 62
     7
100
AcDbLine
 10
3.03546750390669
 20
454.103647818711
 30
0.0
 11
1.3999999999991
 21
448.0000000000001
 31
0.0
  0
LINE
  5
10A
330
6A
100
AcDbEntity
  8
0
  6
Continuous
 62
     7
100
AcDbLine
 10
-0.2000000000009
 20
446.9000000000001
 30
0.0
 11
-0.2000000000009
 21
448.0000000000001
 31
0.0
  0
LINE
  5
10B
330
6A
100
AcDbEntity
  8
0
  6
Continuous
 62
     7
100
AcDbLine
 10
-0.2000000000009
 20
448.0000000000001
 30
0.0
 11
1.51676527636892
 21
454.4070552360821
 31
0.0
  0
LINE
  5
10C
330
6A
100
AcDbEntity
  8
0
  6
Continuous
 62
     7
100
AcDbLine
 10
1.09999999999913
 20
446.0999999999999
 30
0.0
 11
1.09999999999911
 21
446.5516660498396
 31
0.0
  0
LINE
  5
10D
330
6A
100
AcDbEntity
  8
0
  6
Continuous
 62
     7
100
AcDbLine
 10
1.3999999999991
 20
448.0000000000001
 30
0.0
 11
34.49999999999911
 21
448.0000000000001
 31
0.0
  0
LINE
  5
10E
330
6A
100
AcDbEntity
  8
0
  6
Continuous
 62
     7
100
AcDbLine
 10
34.49999999999911
 20
448.0000000000001
 30
0.0
 11
34.49999999999911
 21
446.9000000000001
 31
0.0
  0
LINE
  5
10F
330
6A
100
AcDbEntity
  8
0
  6
Continuous
 62
     7
100
AcDbLine
 10
-2.2000000000009
 20
442.0000000000001
 30
0.0
 11
-0.55894365313347
 21
442.0000000000001
 31
0.0
  0
LINE
  5
110
330
6A
100
AcDbEntity
  8
0
  6
Continuous
 62
     7
100
AcDbLine
 10
34.85894365313141
 20
442.0000000000006
 30
0.0
 11
36.6706679709435
 21
442.0000000000006
 31
0.0
  0
LINE
  5
111
330
6A
100
AcDbEntity
  8
0
  6
Continuous
 62
     7
100
AcDbLine
 10
62.44999999999899
 20
451.9112663519749
 30
0.0
 11
62.44999999999899
 21
470.7368602792046
 31
0.0
  0
LINE
  5
112
330
6A
100
AcDbEntity
  8
0
  6
Continuous
 62
     7
100
AcDbLine
 10
62.44999999999899
 20
470.7368602792046
 30
0.0
 11
59.69999999999919
 21
481.0000000000001
 31
0.0
  0
LINE
  5
113
330
6A
100
AcDbEntity
  8
0
  6
Continuous
 62
     7
100
AcDbLine
 10
1.09999999999911
 20
446.5516660498396
 30
0.0
 11
-0.2000000000009
 21
446.9000000000001
 31
0.0
  0
LINE
  5
114
330
6A
100
AcDbEntity
  8
0
  6
Continuous
 62
     7
100
AcDbLine
 10
34.49999999999911
 20
446.9000000000001
 30
0.0
 11
33.19999999999941
 21
446.5516660498406
 31
0.0
  0
LINE
  5
115
330
6A
100
AcDbEntity
  8
0
  6
Continuous
 62
     7
100
AcDbLine
 10
33.19999999999941
 20
446.5516660498406
 30
0.0
 11
33.19999999999871
 21
446.0999999999999
 31
0.0
  0
LINE
  5
116
330
6A
100
AcDbEntity
  8
0
  6
Continuous
 62
     7
100
AcDbLine
 10
-2.2000000000009
 20
454.0000000000001
 30
0.0
 11
-2.2000000000009
 21
442.0000000000001
 31
0.0
  0
LINE
  5
117
330
6A
100
AcDbEntity
  8
0
  6
Continuous
 62
     7
100
AcDbLine
 10
59.69999999999919
 20
481.0000000000001
 30
0.0
 11
-25.60000000000073
 21
481.0000000000001
 31
0.0
  0
LINE
  5
118
330
6A
100
AcDbEntity
  8
0
  6
Continuous
 62
     7
100
AcDbLine
 10
36.6706679709435
 20
442.0000000000006
 30
0.0
 11
62.44999999999899
 21
451.9112663519749
 31
0.0
  0
ARC
  5
119
330
6A
100
AcDbEntity
  8
0
  6
Continuous
 62
     7
100
AcDbCircle
 10
2.35931942550434
 20
454.2848211502828
 30
0.0
 40
0.7000000000000137
100
AcDbArc
 50
344.9999999999962
 51
74.99999999999648
  0
ARC
  5
11A
330
6A
100
AcDbEntity
  8
0
  6
Continuous
 62
     7
100
AcDbCircle
 10
-8.29397267937841
 20
447.5153717882977
 30
0.0
 40
9.500000000000055
100
AcDbArc
 50
324.5096766884253
 51
351.431802438259
  0
ARC
  5
11B
330
6A
100
AcDbEntity
  8
0
  6
Continuous
 62
     7
100
AcDbCircle
 10
42.59397267937521
 20
447.5153717882981
 30
0.0
 40
9.499999999999087
100
AcDbArc
 50
188.5681975617443
 51
215.4903233115782
  0
ARC
  5
11C
330
6A
100
AcDbEntity
  8
0
  6
Continuous
 62
     7
100
AcDbCircle
 10
2.28950593740012
 20
454.2000000000001
 30
0.0
 40
0.8000000000000667
100
AcDbArc
 50
75.00000000000053
 51
165.0000000000003
  0
ARC
  5
11D
330
6A
100
AcDbEntity
  8
0
  6
Continuous
 62
     7
100
AcDbCircle
 10
-3.2000000000009
 20
454.0000000000001
 30
0.0
 40
1.0
100
AcDbArc
 50
0.0
 51
180.0
  0
ENDBLK
  5
6C
330
6A
100
AcDbEntity
  8
0
100
AcDbBlockEnd
  0
BLOCK
  5
6F
330
6D
100
AcDbEntity
  8
0
100
AcDbBlockBegin
  2
Vordans1
 70
     0
 10
16.9999999999992
 20
461.5
 30
0.0
  3
Vordans1
  1

  0
INSERT
  5
6E
330
6D
100
AcDbEntity
  8
0
100
AcDbBlockReference
  2
ATP-ST-QUATTRO-select__6
 10
-28.45000000000091
 20
442.0000000000001
 30
0.0
  0
LINE
  5
11E
330
6D
100
AcDbEntity
  8
1
  6
Continuous
 62
     2
100
AcDbLine
 10
16.9999999999997
 20
450.236603760608
 30
0.0
 11
16.9999999999997
 21
445.236603760608
 31
0.0
  0
MTEXT
  5
11F
330
6D
100
AcDbEntity
  8
1
 62
     6
100
AcDbMText
 10
17.0
 20
437.0
 30
0.0
 40
5.0
 41
0.0
 71
     2
 72
     1
  1
 
  7
CONVERTER_11
 73
     1
 44
1.32052821128451
  0
DIMENSION
  5
12A
330
6D
100
AcDbEntity
  8
1
100
AcDbDimension
  2
*D18
 10
62.44999999999898
 20
404.9392842485331
 30
0.0
 11
16.2387935569102
 21
408.8642842485331
 31
0.0
 70
    32
  1
<>
 71
     5
 42
-1.0
 53
0.00013888888889
  3
ME10_DIM_11
100
AcDbAlignedDimension
 13
-28.45000000000091
 23
445.2000000000001
 33
0.0
 14
62.44999999999899
 24
451.9112663519749
 34
0.0
100
AcDbRotatedDimension
  0
DIMENSION
  5
135
330
6D
100
AcDbEntity
  8
1
100
AcDbDimension
  2
*D19
 10
16.9999999999997
 20
416.002088302513
 30
0.0
 11
40.4613280791482
 21
419.927088302513
 31
0.0
 70
    32
  1
<>
 71
     5
 42
-1.0
 53
0.00013888888889
  3
ME10_DIM_12
100
AcDbAlignedDimension
 13
62.44999999999899
 23
451.9112663519749
 33
0.0
 14
16.9999999999997
 24
445.236603760608
 34
0.0
100
AcDbRotatedDimension
  0
DIMENSION
  5
140
330
6D
100
AcDbEntity
  8
1
100
AcDbDimension
  2
*D20
 10
16.9999999999997
 20
426.767659201285
 30
0.0
 11
24.95890598491609
 21
430.692659201285
 31
0.0
 70
    32
  1
<>
 71
     5
 42
-1.0
 53
0.00013888888889
  3
ME10_DIM_13
100
AcDbAlignedDimension
 13
34.49999999999911
 23
446.9000000000001
 33
0.0
 14
16.9999999999997
 24
445.236603760608
 34
0.0
100
AcDbRotatedDimension
  0
DIMENSION
  5
14B
330
6D
100
AcDbEntity
  8
1
100
AcDbDimension
  2
*D21
 10
-45.55955816551661
 20
481.0000000000001
 30
0.0
 11
-49.30955816551661
 21
461.200665560627
 31
0.0
 70
    32
  1
<>
 71
     5
 42
-1.0
 53
90.0
  3
ME10_DIM_14
100
AcDbAlignedDimension
 13
-2.2000000000009
 23
442.0000000000001
 33
0.0
 14
-25.60000000000073
 24
481.0000000000001
 34
0.0
 50
90.0
100
AcDbRotatedDimension
  0
DIMENSION
  5
156
330
6D
100
AcDbEntity
  8
1
100
AcDbDimension
  2
*D22
 10
-37.1689513761151
 20
481.0000000000001
 30
0.0
 11
-40.9189513761151
 21
461.736236206759
 31
0.0
 70
    32
  1
<>
 71
     5
 42
-1.0
 53
90.0
  3
ME10_DIM_15
100
AcDbAlignedDimension
 13
1.3999999999991
 23
448.0000000000001
 33
0.0
 14
-25.60000000000073
 24
481.0000000000001
 34
0.0
 50
90.0
100
AcDbRotatedDimension
  0
ENDBLK
  5
70
330
6D
100
AcDbEntity
  8
0
100
AcDbBlockEnd
  0
BLOCK
  5
72
330
71
100
AcDbEntity
  8
0
100
AcDbBlockBegin
  2
_rahmen
 70
     0
 10
200.4500003814679
 20
317.1584958667871
 30
0.0
  3
_rahmen
  1

  0
LINE
  5
157
330
71
100
AcDbEntity
  8
1
  6
DOT_CENTER
 62
     2
100
AcDbLine
 10
74.89185074128045
 20
343.2834958667871
 30
0.0
 11
80.39185074128045
 21
343.2834958667871
 31
0.0
  0
LINE
  5
158
330
71
100
AcDbEntity
  8
1
  6
PHANTOM
 62
     2
100
AcDbLine
 10
83.64185074128045
 20
346.0334958667871
 30
0.0
 11
83.64185074128045
 21
340.5334958667871
 31
0.0
  0
LINE
  5
159
330
71
100
AcDbEntity
  8
1
  6
PHANTOM
 62
     2
100
AcDbLine
 10
86.39185074128045
 20
343.2834958667871
 30
0.0
 11
80.89185074128045
 21
343.2834958667871
 31
0.0
  0
LINE
  5
15A
330
71
100
AcDbEntity
  8
1
  6
Continuous
 62
     7
100
AcDbLine
 10
135.2051958547179
 20
330.6584958667871
 30
0.0
 11
135.2051958547179
 21
339.1584958667872
 31
0.0
  0
LINE
  5
15B
330
71
100
AcDbEntity
  8
1
  6
Continuous
 62
     6
100
AcDbLine
 10
107.3051958547178
 20
339.1584958667872
 30
0.0
 11
200.4500003814696
 21
339.1584958667872
 31
0.0
  0
LINE
  5
15C
330
71
100
AcDbEntity
  8
1
  6
Continuous
 62
     7
100
AcDbLine
 10
70.90519585471785
 20
339.1584958667872
 30
0.0
 11
70.90519585471785
 21
347.6584958667872
 31
0.0
  0
LINE
  5
15D
330
71
100
AcDbEntity
  8
1
  6
Continuous
 62
     7
100
AcDbLine
 10
107.3051958547178
 20
339.1584958667872
 30
0.0
 11
107.3051958547178
 21
347.6584958667872
 31
0.0
  0
LINE
  5
15E
330
71
100
AcDbEntity
  8
1
  6
Continuous
 62
     7
100
AcDbLine
 10
165.0315920997907
 20
347.6584958667872
 30
0.0
 11
165.0315920997907
 21
339.1584958667872
 31
0.0
  0
LINE
  5
15F
330
71
100
AcDbEntity
  8
1
  6
Continuous
 62
     7
100
AcDbLine
 10
191.5315920997903
 20
347.6584958667872
 30
0.0
 11
191.5315920997903
 21
339.1584958667872
 31
0.0
  0
LINE
  5
160
330
71
100
AcDbEntity
  8
1
  6
Continuous
 62
     6
100
AcDbLine
 10
1.90519585471787
 20
322.1584958667872
 30
0.0
 11
-43.04999961853213
 21
322.1584958667872
 31
0.0
  0
LINE
  5
161
330
71
100
AcDbEntity
  8
1
  6
Continuous
 62
     7
100
AcDbLine
 10
200.4500003814692
 20
330.6584958667872
 30
0.0
 11
107.3051958547178
 21
330.6584958667872
 31
0.0
  0
LINE
  5
162
102
{ACAD_REACTORS
330
274
330
275
102
}
330
71
100
AcDbEntity
  8
0
  6
Continuous
 62
     2
100
AcDbLine
 10
84.61262479648525
 20
331.4587849824505
 30
0.0
 11
84.61262479648525
 21
332.3313019892538
 31
0.0
  0
LINE
  5
163
102
{ACAD_REACTORS
330
274
330
275
102
}
330
71
100
AcDbEntity
  8
0
  6
Continuous
 62
     2
100
AcDbLine
 10
84.61262479648525
 20
330.4990162749676
 30
0.0
 11
84.61262479648525
 21
329.6264992681644
 31
0.0
  0
LINE
  5
164
102
{ACAD_REACTORS
330
276
330
277
102
}
330
71
100
AcDbEntity
  8
0
  6
Continuous
 62
     2
100
AcDbLine
 10
99.94566893277576
 20
331.7205400844911
 30
0.0
 11
101.0493082323439
 21
331.7205400844911
 31
0.0
  0
LINE
  5
165
102
{ACAD_REACTORS
330
276
330
277
102
}
330
71
100
AcDbEntity
  8
0
  6
Continuous
 62
     2
100
AcDbLine
 10
100.7153262757372
 20
330.4990162749672
 30
0.0
 11
100.7153262757372
 21
329.6264992681638
 31
0.0
  0
LINE
  5
166
102
{ACAD_REACTORS
330
280
330
281
102
}
330
71
100
AcDbEntity
  8
0
  6
Continuous
 62
     2
100
AcDbLine
 10
98.85456966035724
 20
332.8111863429779
 30
0.0
 11
100.2525227072975
 21
334.3920453367529
 31
0.0
  0
LINE
  5
167
102
{ACAD_REACTORS
330
280
330
281
102
}
330
71
100
AcDbEntity
  8
0
  6
Continuous
 62
     2
100
AcDbLine
 10
98.94999307653006
 20
335.8649958667891
 30
0.0
 11
100.2525227072975
 21
334.3920453367529
 31
0.0
  0
LINE
  5
168
102
{ACAD_REACTORS
330
280
330
281
102
}
330
71
100
AcDbEntity
  8
0
  6
Continuous
 62
     2
100
AcDbLine
 10
101.5550523380639
 20
335.8649958667891
 30
0.0
 11
102.9577765558112
 21
335.8649958667891
 31
0.0
  0
LINE
  5
169
102
{ACAD_REACTORS
330
280
330
281
102
}
330
71
100
AcDbEntity
  8
0
  6
Continuous
 62
     2
100
AcDbLine
 10
100.2572938781055
 20
332.8111863429779
 30
0.0
 11
100.9538848161712
 21
333.5989181282715
 31
0.0
  0
LINE
  5
16A
102
{ACAD_REACTORS
330
280
330
281
102
}
330
71
100
AcDbEntity
  8
0
  6
Continuous
 62
     2
100
AcDbLine
 10
100.2572938781055
 20
332.8111863429779
 30
0.0
 11
98.85456966035724
 21
332.8111863429779
 31
0.0
  0
LINE
  5
16B
102
{ACAD_REACTORS
330
282
330
283
102
}
330
71
100
AcDbEntity
  8
0
  6
Continuous
 62
     2
100
AcDbLine
 10
98.73529039014036
 20
332.8111863429779
 30
0.0
 11
97.49478597988747
 21
332.8111863429779
 31
0.0
  0
LINE
  5
16C
102
{ACAD_REACTORS
330
284
330
285
102
}
330
71
100
AcDbEntity
  8
0
  6
Continuous
 62
     2
100
AcDbLine
 10
96.62680637173236
 20
330.6735196763281
 30
0.0
 11
96.32664113454226
 21
331.4413346423147
 31
0.0
  0
LINE
  5
16D
102
{ACAD_REACTORS
330
284
330
285
102
}
330
71
100
AcDbEntity
  8
0
  6
Continuous
 62
     2
100
AcDbLine
 10
96.02647589734985
 20
330.6735196763281
 30
0.0
 11
96.62680637173236
 21
330.6735196763281
 31
0.0
  0
LINE
  5
16E
102
{ACAD_REACTORS
330
284
330
285
102
}
330
71
100
AcDbEntity
  8
0
  6
Continuous
 62
     2
100
AcDbLine
 10
94.30843588247606
 20
329.4519958668035
 30
0.0
 11
95.54894029272904
 21
329.4519958668035
 31
0.0
  0
LINE
  5
16F
102
{ACAD_REACTORS
330
284
330
285
102
}
330
71
100
AcDbEntity
  8
0
  6
Continuous
 62
     2
100
AcDbLine
 10
95.70638892941537
 20
332.5058053906146
 30
0.0
 11
96.94689333966807
 21
332.5058053906146
 31
0.0
  0
LINE
  5
170
102
{ACAD_REACTORS
330
284
330
285
102
}
330
71
100
AcDbEntity
  8
0
  6
Continuous
 62
     2
100
AcDbLine
 10
96.94689333966807
 20
332.5058053906146
 30
0.0
 11
98.34484638660837
 21
329.4519958668035
 31
0.0
  0
LINE
  5
171
102
{ACAD_REACTORS
330
284
330
285
102
}
330
71
100
AcDbEntity
  8
0
  6
Continuous
 62
     2
100
AcDbLine
 10
97.10434197635445
 20
329.4519958668035
 30
0.0
 11
96.89286192287867
 21
329.9929564110214
 31
0.0
  0
LINE
  5
172
102
{ACAD_REACTORS
330
286
330
287
102
}
330
71
100
AcDbEntity
  8
0
  6
Continuous
 62
     2
100
AcDbLine
 10
92.96202278076845
 20
329.4519958668035
 30
0.0
 11
94.15481548293496
 21
329.4519958668035
 31
0.0
  0
LINE
  5
173
102
{ACAD_REACTORS
330
286
330
287
102
}
330
71
100
AcDbEntity
  8
0
  6
Continuous
 62
     2
100
AcDbLine
 10
92.96202278076845
 20
331.7205400844911
 30
0.0
 11
92.96202278076845
 21
329.4519958668035
 31
0.0
  0
LINE
  5
174
102
{ACAD_REACTORS
330
286
330
287
102
}
330
71
100
AcDbEntity
  8
0
  6
Continuous
 62
     2
100
AcDbLine
 10
92.15092374329384
 20
332.5058053906146
 30
0.0
 11
92.15092374329384
 21
331.7205400844911
 31
0.0
  0
LINE
  5
175
102
{ACAD_REACTORS
330
288
330
289
102
}
330
71
100
AcDbEntity
  8
0
  6
Continuous
 62
     2
100
AcDbLine
 10
93.63013762486645
 20
332.8111863429779
 30
0.0
 11
94.82293032703296
 21
332.8111863429779
 31
0.0
  0
LINE
  5
176
102
{ACAD_REACTORS
330
288
330
289
102
}
330
71
100
AcDbEntity
  8
0
  6
Continuous
 62
     2
100
AcDbLine
 10
96.06343473728697
 20
334.5562203565838
 30
0.0
 11
94.82293032703296
 21
335.8649958667891
 31
0.0
  0
LINE
  5
177
102
{ACAD_REACTORS
330
288
330
289
102
}
330
71
100
AcDbEntity
  8
0
  6
Continuous
 62
     2
100
AcDbLine
 10
97.25622743945357
 20
335.8649958667891
 30
0.0
 11
96.06343473728697
 21
335.8649958667891
 31
0.0
  0
LINE
  5
178
102
{ACAD_REACTORS
330
288
330
289
102
}
330
71
100
AcDbEntity
  8
0
  6
Continuous
 62
     2
100
AcDbLine
 10
97.25622743945357
 20
332.8111863429779
 30
0.0
 11
97.25622743945357
 21
335.8649958667891
 31
0.0
  0
LINE
  5
179
102
{ACAD_REACTORS
330
288
330
289
102
}
330
71
100
AcDbEntity
  8
0
  6
Continuous
 62
     2
100
AcDbLine
 10
96.06343473728697
 20
332.8111863429779
 30
0.0
 11
97.25622743945357
 21
332.8111863429779
 31
0.0
  0
LINE
  5
17A
102
{ACAD_REACTORS
330
288
330
289
102
}
330
71
100
AcDbEntity
  8
0
  6
Continuous
 62
     2
100
AcDbLine
 10
94.82293032703296
 20
334.1199618531825
 30
0.0
 11
96.06343473728697
 21
332.8111863429779
 31
0.0
  0
LINE
  5
17B
102
{ACAD_REACTORS
330
28A
330
28B
102
}
330
71
100
AcDbEntity
  8
0
  6
Continuous
 62
     2
100
AcDbLine
 10
90.81499591686725
 20
331.1970298804096
 30
0.0
 11
89.57449150661435
 21
332.5058053906146
 31
0.0
  0
LINE
  5
17C
102
{ACAD_REACTORS
330
28A
330
28B
102
}
330
71
100
AcDbEntity
  8
0
  6
Continuous
 62
     2
100
AcDbLine
 10
90.81499591686725
 20
332.5058053906146
 30
0.0
 11
90.81499591686725
 21
331.1970298804096
 31
0.0
  0
LINE
  5
17D
102
{ACAD_REACTORS
330
28A
330
28B
102
}
330
71
100
AcDbEntity
  8
0
  6
Continuous
 62
     2
100
AcDbLine
 10
92.00778861903365
 20
332.5058053906146
 30
0.0
 11
90.81499591686725
 21
332.5058053906146
 31
0.0
  0
LINE
  5
17E
102
{ACAD_REACTORS
330
28A
330
28B
102
}
330
71
100
AcDbEntity
  8
0
  6
Continuous
 62
     2
100
AcDbLine
 10
92.00778861903365
 20
329.4519958668035
 30
0.0
 11
92.00778861903365
 21
332.5058053906146
 31
0.0
  0
LINE
  5
17F
102
{ACAD_REACTORS
330
28A
330
28B
102
}
330
71
100
AcDbEntity
  8
0
  6
Continuous
 62
     2
100
AcDbLine
 10
89.57449150661435
 20
330.7607713770082
 30
0.0
 11
90.81499591686725
 21
329.4519958668035
 31
0.0
  0
LINE
  5
180
102
{ACAD_REACTORS
330
28A
330
28B
102
}
330
71
100
AcDbEntity
  8
0
  6
Continuous
 62
     2
100
AcDbLine
 10
89.57449150661435
 20
329.4519958668035
 30
0.0
 11
89.57449150661435
 21
330.7607713770082
 31
0.0
  0
LINE
  5
181
102
{ACAD_REACTORS
330
27A
330
27B
102
}
330
71
100
AcDbEntity
  8
0
  6
Continuous
 62
     2
100
AcDbLine
 10
92.05565125800587
 20
335.1669822613461
 30
0.0
 11
93.39157908443354
 21
335.1669822613461
 31
0.0
  0
LINE
  5
182
102
{ACAD_REACTORS
330
27A
330
27B
102
}
330
71
100
AcDbEntity
  8
0
  6
Continuous
 62
     2
100
AcDbLine
 10
92.05565125800587
 20
333.5091999484204
 30
0.0
 11
92.05565125800587
 21
333.989084302162
 31
0.0
  0
LINE
  5
183
102
{ACAD_REACTORS
330
27A
330
27B
102
}
330
71
100
AcDbEntity
  8
0
  6
Continuous
 62
     2
100
AcDbLine
 10
93.39157908443354
 20
333.5091999484204
 30
0.0
 11
92.05565125800587
 21
333.5091999484204
 31
0.0
  0
LINE
  5
184
102
{ACAD_REACTORS
330
27A
330
27B
102
}
330
71
100
AcDbEntity
  8
0
  6
Continuous
 62
     2
100
AcDbLine
 10
93.39157908443354
 20
332.8111863429779
 30
0.0
 11
93.39157908443354
 21
333.5091999484204
 31
0.0
  0
LINE
  5
185
102
{ACAD_REACTORS
330
27A
330
27B
102
}
330
71
100
AcDbEntity
  8
0
  6
Continuous
 62
     2
100
AcDbLine
 10
90.24125936065255
 20
332.8111863429779
 30
0.0
 11
93.39157908443354
 21
332.8111863429779
 31
0.0
  0
LINE
  5
186
102
{ACAD_REACTORS
330
27A
330
27B
102
}
330
71
100
AcDbEntity
  8
0
  6
Continuous
 62
     2
100
AcDbLine
 10
90.24125936065255
 20
335.8649958667891
 30
0.0
 11
93.39157908443354
 21
335.8649958667891
 31
0.0
  0
LINE
  5
187
102
{ACAD_REACTORS
330
27A
330
27B
102
}
330
71
100
AcDbEntity
  8
0
  6
Continuous
 62
     2
100
AcDbLine
 10
93.39157908443354
 20
335.1669822613461
 30
0.0
 11
93.39157908443354
 21
335.8649958667891
 31
0.0
  0
LINE
  5
188
102
{ACAD_REACTORS
330
28C
330
28D
102
}
330
71
100
AcDbEntity
  8
0
  6
Continuous
 62
     2
100
AcDbLine
 10
87.37990386551255
 20
334.7961625334544
 30
0.0
 11
87.37990386551255
 21
335.8649958667891
 31
0.0
  0
LINE
  5
189
102
{ACAD_REACTORS
330
28C
330
28D
102
}
330
71
100
AcDbEntity
  8
0
  6
Continuous
 62
     2
100
AcDbLine
 10
87.37990386551255
 20
335.8649958667891
 30
0.0
 11
88.57269656767895
 21
335.8649958667891
 31
0.0
  0
LINE
  5
18A
102
{ACAD_REACTORS
330
28C
330
28D
102
}
330
71
100
AcDbEntity
  8
0
  6
Continuous
 62
     2
100
AcDbLine
 10
87.37990386551255
 20
333.9454584518217
 30
0.0
 11
86.33024628760506
 21
333.9454584518217
 31
0.0
  0
LINE
  5
18B
102
{ACAD_REACTORS
330
28C
330
28D
102
}
330
71
100
AcDbEntity
  8
0
  6
Continuous
 62
     2
100
AcDbLine
 10
86.33024628760506
 20
333.9454584518217
 30
0.0
 11
86.33024628760506
 21
332.8111863429779
 31
0.0
  0
LINE
  5
18C
102
{ACAD_REACTORS
330
28C
330
28D
102
}
330
71
100
AcDbEntity
  8
0
  6
Continuous
 62
     2
100
AcDbLine
 10
85.13745358543846
 20
335.8649958667891
 30
0.0
 11
85.13745358543846
 21
332.8111863429779
 31
0.0
  0
LINE
  5
18D
102
{ACAD_REACTORS
330
27E
330
27F
102
}
330
71
100
AcDbEntity
  8
0
  6
Continuous
 62
     2
100
AcDbLine
 10
83.18127355388486
 20
334.4961623720067
 30
0.0
 11
83.18127355388486
 21
335.201890021349
 31
0.0
  0
LINE
  5
18E
102
{ACAD_REACTORS
330
27E
330
27F
102
}
330
71
100
AcDbEntity
  8
0
  6
Continuous
 62
     2
100
AcDbLine
 10
81.94076914363075
 20
332.8111863429779
 30
0.0
 11
83.18127355388486
 21
332.8111863429779
 31
0.0
  0
LINE
  5
18F
102
{ACAD_REACTORS
330
27E
330
27F
102
}
330
71
100
AcDbEntity
  8
0
  6
Continuous
 62
     2
100
AcDbLine
 10
83.18127355388486
 20
332.8111863429779
 30
0.0
 11
83.18127355388486
 21
333.7542645841216
 31
0.0
  0
LINE
  5
190
102
{ACAD_REACTORS
330
278
330
279
102
}
330
71
100
AcDbEntity
  8
0
  6
Continuous
 62
     2
100
AcDbLine
 10
77.63582329441937
 20
330.1645514223604
 30
0.0
 11
76.15999003340974
 21
330.1645514223604
 31
0.0
  0
LINE
  5
191
102
{ACAD_REACTORS
330
278
330
279
102
}
330
71
100
AcDbEntity
  8
0
  6
Continuous
 62
     2
100
AcDbLine
 10
75.14185074128045
 20
335.440751251387
 30
0.0
 11
75.14185074128045
 21
329.8762404821869
 31
0.0
  0
LINE
  5
192
102
{ACAD_REACTORS
330
278
330
279
102
}
330
71
100
AcDbEntity
  8
0
  6
Continuous
 62
     2
100
AcDbLine
 10
75.56609535666325
 20
335.8649958667709
 30
0.0
 11
81.03940744738006
 21
335.8649958667709
 31
0.0
  0
LINE
  5
193
102
{ACAD_REACTORS
330
278
330
279
102
}
330
71
100
AcDbEntity
  8
0
  6
Continuous
 62
     2
100
AcDbLine
 10
81.46365206276394
 20
335.440751251387
 30
0.0
 11
81.46365206276394
 21
329.8762404821869
 31
0.0
  0
LINE
  5
194
102
{ACAD_REACTORS
330
278
330
279
102
}
330
71
100
AcDbEntity
  8
0
  6
Continuous
 62
     2
100
AcDbLine
 10
81.03940744738006
 20
329.4519958668035
 30
0.0
 11
75.56609535666325
 21
329.4519958668035
 31
0.0
  0
LINE
  5
195
102
{ACAD_REACTORS
330
278
330
279
102
}
330
71
100
AcDbEntity
  8
0
  6
Continuous
 62
     2
100
AcDbLine
 10
77.95154021749596
 20
330.4802683454371
 30
0.0
 11
77.95154021749596
 21
332.0110392769688
 31
0.0
  0
LINE
  5
196
102
{ACAD_REACTORS
330
278
330
279
102
}
330
71
100
AcDbEntity
  8
0
  6
Continuous
 62
     2
100
AcDbLine
 10
77.95154021749596
 20
334.2326987690938
 30
0.0
 11
77.95154021749596
 21
334.8367233881543
 31
0.0
  0
LINE
  5
197
102
{ACAD_REACTORS
330
278
330
279
102
}
330
71
100
AcDbEntity
  8
0
  6
Continuous
 62
     2
100
AcDbLine
 10
76.15999003340974
 20
335.1524403112304
 30
0.0
 11
77.63582329441937
 21
335.1524403112304
 31
0.0
  0
LINE
  5
198
102
{ACAD_REACTORS
330
278
330
279
102
}
330
71
100
AcDbEntity
  8
0
  6
Continuous
 62
     2
100
AcDbLine
 10
75.84427311033406
 20
334.8367233881543
 30
0.0
 11
75.84427311033406
 21
330.4802683454371
 31
0.0
  0
LINE
  5
199
102
{ACAD_REACTORS
330
27E
330
27F
102
}
330
71
100
AcDbEntity
  8
0
  6
Continuous
 62
     2
100
AcDbLine
 10
83.18127355388486
 20
333.7542645841216
 30
0.0
 11
83.94004114166515
 21
333.7542645841216
 31
0.0
  0
LINE
  5
19A
102
{ACAD_REACTORS
330
27E
330
27F
102
}
330
71
100
AcDbEntity
  8
0
  6
Continuous
 62
     2
100
AcDbLine
 10
81.94076914363075
 20
335.8649958667891
 30
0.0
 11
83.94004114166515
 21
335.8649958667891
 31
0.0
  0
LINE
  5
19B
102
{ACAD_REACTORS
330
27E
330
27F
102
}
330
71
100
AcDbEntity
  8
0
  6
Continuous
 62
     2
100
AcDbLine
 10
81.94076914363075
 20
335.8649958667891
 30
0.0
 11
81.94076914363075
 21
332.8111863429779
 31
0.0
  0
LINE
  5
19C
102
{ACAD_REACTORS
330
27E
330
27F
102
}
330
71
100
AcDbEntity
  8
0
  6
Continuous
 62
     2
100
AcDbLine
 10
83.18127355388486
 20
334.4961623720067
 30
0.0
 11
83.49856861542676
 21
334.4961623720067
 31
0.0
  0
LINE
  5
19D
102
{ACAD_REACTORS
330
27E
330
27F
102
}
330
71
100
AcDbEntity
  8
0
  6
Continuous
 62
     2
100
AcDbLine
 10
83.18127355388486
 20
335.201890021349
 30
0.0
 11
83.49856861542676
 21
335.201890021349
 31
0.0
  0
LINE
  5
19E
102
{ACAD_REACTORS
330
28C
330
28D
102
}
330
71
100
AcDbEntity
  8
0
  6
Continuous
 62
     2
100
AcDbLine
 10
86.33024628760506
 20
334.7961625334544
 30
0.0
 11
87.37990386551255
 21
334.7961625334544
 31
0.0
  0
LINE
  5
19F
102
{ACAD_REACTORS
330
28C
330
28D
102
}
330
71
100
AcDbEntity
  8
0
  6
Continuous
 62
     2
100
AcDbLine
 10
86.33024628760506
 20
335.8649958667891
 30
0.0
 11
86.33024628760506
 21
334.7961625334544
 31
0.0
  0
LINE
  5
1A0
102
{ACAD_REACTORS
330
28C
330
28D
102
}
330
71
100
AcDbEntity
  8
0
  6
Continuous
 62
     2
100
AcDbLine
 10
85.13745358543846
 20
335.8649958667891
 30
0.0
 11
86.33024628760506
 21
335.8649958667891
 31
0.0
  0
LINE
  5
1A1
102
{ACAD_REACTORS
330
28C
330
28D
102
}
330
71
100
AcDbEntity
  8
0
  6
Continuous
 62
     2
100
AcDbLine
 10
86.33024628760506
 20
332.8111863429779
 30
0.0
 11
85.13745358543846
 21
332.8111863429779
 31
0.0
  0
LINE
  5
1A2
102
{ACAD_REACTORS
330
28C
330
28D
102
}
330
71
100
AcDbEntity
  8
0
  6
Continuous
 62
     2
100
AcDbLine
 10
87.37990386551255
 20
332.8111863429779
 30
0.0
 11
87.37990386551255
 21
333.9454584518217
 31
0.0
  0
LINE
  5
1A3
102
{ACAD_REACTORS
330
28C
330
28D
102
}
330
71
100
AcDbEntity
  8
0
  6
Continuous
 62
     2
100
AcDbLine
 10
88.57269656767895
 20
332.8111863429779
 30
0.0
 11
87.37990386551255
 21
332.8111863429779
 31
0.0
  0
LINE
  5
1A4
102
{ACAD_REACTORS
330
28C
330
28D
102
}
330
71
100
AcDbEntity
  8
0
  6
Continuous
 62
     2
100
AcDbLine
 10
88.57269656767895
 20
335.8649958667891
 30
0.0
 11
88.57269656767895
 21
332.8111863429779
 31
0.0
  0
LINE
  5
1A5
102
{ACAD_REACTORS
330
27A
330
27B
102
}
330
71
100
AcDbEntity
  8
0
  6
Continuous
 62
     2
100
AcDbLine
 10
92.05565125800587
 20
333.989084302162
 30
0.0
 11
93.39157908443354
 21
333.989084302162
 31
0.0
  0
LINE
  5
1A6
102
{ACAD_REACTORS
330
27A
330
27B
102
}
330
71
100
AcDbEntity
  8
0
  6
Continuous
 62
     2
100
AcDbLine
 10
93.39157908443354
 20
333.989084302162
 30
0.0
 11
93.39157908443354
 21
334.6870979076043
 31
0.0
  0
LINE
  5
1A7
102
{ACAD_REACTORS
330
27A
330
27B
102
}
330
71
100
AcDbEntity
  8
0
  6
Continuous
 62
     2
100
AcDbLine
 10
93.39157908443354
 20
334.6870979076043
 30
0.0
 11
92.05565125800587
 21
334.6870979076043
 31
0.0
  0
LINE
  5
1A8
102
{ACAD_REACTORS
330
27A
330
27B
102
}
330
71
100
AcDbEntity
  8
0
  6
Continuous
 62
     2
100
AcDbLine
 10
92.05565125800587
 20
334.6870979076043
 30
0.0
 11
92.05565125800587
 21
335.1669822613461
 31
0.0
  0
LINE
  5
1A9
102
{ACAD_REACTORS
330
28A
330
28B
102
}
330
71
100
AcDbEntity
  8
0
  6
Continuous
 62
     2
100
AcDbLine
 10
88.38169880444676
 20
329.4519958668035
 30
0.0
 11
89.57449150661435
 21
329.4519958668035
 31
0.0
  0
LINE
  5
1AA
102
{ACAD_REACTORS
330
28A
330
28B
102
}
330
71
100
AcDbEntity
  8
0
  6
Continuous
 62
     2
100
AcDbLine
 10
90.81499591686725
 20
329.4519958668035
 30
0.0
 11
92.00778861903365
 21
329.4519958668035
 31
0.0
  0
LINE
  5
1AB
102
{ACAD_REACTORS
330
28A
330
28B
102
}
330
71
100
AcDbEntity
  8
0
  6
Continuous
 62
     2
100
AcDbLine
 10
89.57449150661435
 20
332.5058053906146
 30
0.0
 11
88.38169880444676
 21
332.5058053906146
 31
0.0
  0
LINE
  5
1AC
102
{ACAD_REACTORS
330
28A
330
28B
102
}
330
71
100
AcDbEntity
  8
0
  6
Continuous
 62
     2
100
AcDbLine
 10
88.38169880444676
 20
332.5058053906146
 30
0.0
 11
88.38169880444676
 21
329.4519958668035
 31
0.0
  0
LINE
  5
1AD
102
{ACAD_REACTORS
330
288
330
289
102
}
330
71
100
AcDbEntity
  8
0
  6
Continuous
 62
     2
100
AcDbLine
 10
96.06343473728697
 20
335.8649958667891
 30
0.0
 11
96.06343473728697
 21
334.5562203565838
 31
0.0
  0
LINE
  5
1AE
102
{ACAD_REACTORS
330
288
330
289
102
}
330
71
100
AcDbEntity
  8
0
  6
Continuous
 62
     2
100
AcDbLine
 10
94.82293032703296
 20
335.8649958667891
 30
0.0
 11
93.63013762486645
 21
335.8649958667891
 31
0.0
  0
LINE
  5
1AF
102
{ACAD_REACTORS
330
288
330
289
102
}
330
71
100
AcDbEntity
  8
0
  6
Continuous
 62
     2
100
AcDbLine
 10
93.63013762486645
 20
335.8649958667891
 30
0.0
 11
93.63013762486645
 21
332.8111863429779
 31
0.0
  0
LINE
  5
1B0
102
{ACAD_REACTORS
330
288
330
289
102
}
330
71
100
AcDbEntity
  8
0
  6
Continuous
 62
     2
100
AcDbLine
 10
94.82293032703296
 20
332.8111863429779
 30
0.0
 11
94.82293032703296
 21
334.1199618531825
 31
0.0
  0
LINE
  5
1B1
102
{ACAD_REACTORS
330
286
330
287
102
}
330
71
100
AcDbEntity
  8
0
  6
Continuous
 62
     2
100
AcDbLine
 10
94.15481548293496
 20
329.4519958668035
 30
0.0
 11
94.15481548293496
 21
331.7205400844911
 31
0.0
  0
LINE
  5
1B2
102
{ACAD_REACTORS
330
286
330
287
102
}
330
71
100
AcDbEntity
  8
0
  6
Continuous
 62
     2
100
AcDbLine
 10
94.15481548293496
 20
331.7205400844911
 30
0.0
 11
94.96591452040747
 21
331.7205400844911
 31
0.0
  0
LINE
  5
1B3
102
{ACAD_REACTORS
330
286
330
287
102
}
330
71
100
AcDbEntity
  8
0
  6
Continuous
 62
     2
100
AcDbLine
 10
94.96591452040747
 20
331.7205400844911
 30
0.0
 11
94.96591452040747
 21
332.5058053906146
 31
0.0
  0
LINE
  5
1B4
102
{ACAD_REACTORS
330
286
330
287
102
}
330
71
100
AcDbEntity
  8
0
  6
Continuous
 62
     2
100
AcDbLine
 10
94.96591452040747
 20
332.5058053906146
 30
0.0
 11
92.15092374329384
 21
332.5058053906146
 31
0.0
  0
LINE
  5
1B5
102
{ACAD_REACTORS
330
286
330
287
102
}
330
71
100
AcDbEntity
  8
0
  6
Continuous
 62
     2
100
AcDbLine
 10
92.15092374329384
 20
331.7205400844911
 30
0.0
 11
92.96202278076845
 21
331.7205400844911
 31
0.0
  0
LINE
  5
1B6
102
{ACAD_REACTORS
330
284
330
285
102
}
330
71
100
AcDbEntity
  8
0
  6
Continuous
 62
     2
100
AcDbLine
 10
95.76042034620485
 20
329.9929564110214
 30
0.0
 11
96.89286192287867
 21
329.9929564110214
 31
0.0
  0
LINE
  5
1B7
102
{ACAD_REACTORS
330
284
330
285
102
}
330
71
100
AcDbEntity
  8
0
  6
Continuous
 62
     2
100
AcDbLine
 10
98.34484638660837
 20
329.4519958668035
 30
0.0
 11
97.10434197635445
 21
329.4519958668035
 31
0.0
  0
LINE
  5
1B8
102
{ACAD_REACTORS
330
284
330
285
102
}
330
71
100
AcDbEntity
  8
0
  6
Continuous
 62
     2
100
AcDbLine
 10
95.70638892941537
 20
332.5058053906146
 30
0.0
 11
94.30843588247606
 21
329.4519958668035
 31
0.0
  0
LINE
  5
1B9
102
{ACAD_REACTORS
330
284
330
285
102
}
330
71
100
AcDbEntity
  8
0
  6
Continuous
 62
     2
100
AcDbLine
 10
95.54894029272904
 20
329.4519958668035
 30
0.0
 11
95.76042034620485
 21
329.9929564110214
 31
0.0
  0
LINE
  5
1BA
102
{ACAD_REACTORS
330
284
330
285
102
}
330
71
100
AcDbEntity
  8
0
  6
Continuous
 62
     2
100
AcDbLine
 10
96.02647589734985
 20
330.6735196763281
 30
0.0
 11
96.32664113454226
 21
331.4413346423147
 31
0.0
  0
LINE
  5
1BB
102
{ACAD_REACTORS
330
282
330
283
102
}
330
71
100
AcDbEntity
  8
0
  6
Continuous
 62
     2
100
AcDbLine
 10
97.49478597988747
 20
332.8111863429779
 30
0.0
 11
97.49478597988747
 21
335.8649958667891
 31
0.0
  0
LINE
  5
1BC
102
{ACAD_REACTORS
330
282
330
283
102
}
330
71
100
AcDbEntity
  8
0
  6
Continuous
 62
     2
100
AcDbLine
 10
98.73529039014036
 20
335.8649958667891
 30
0.0
 11
98.73529039014036
 21
332.8111863429779
 31
0.0
  0
LINE
  5
1BD
102
{ACAD_REACTORS
330
282
330
283
102
}
330
71
100
AcDbEntity
  8
0
  6
Continuous
 62
     2
100
AcDbLine
 10
97.49478597988747
 20
335.8649958667891
 30
0.0
 11
98.73529039014036
 21
335.8649958667891
 31
0.0
  0
LINE
  5
1BE
102
{ACAD_REACTORS
330
280
330
281
102
}
330
71
100
AcDbEntity
  8
0
  6
Continuous
 62
     2
100
AcDbLine
 10
100.9538848161712
 20
333.5989181282715
 30
0.0
 11
101.6504757542367
 21
332.8111863429779
 31
0.0
  0
LINE
  5
1BF
102
{ACAD_REACTORS
330
280
330
281
102
}
330
71
100
AcDbEntity
  8
0
  6
Continuous
 62
     2
100
AcDbLine
 10
101.6504757542367
 20
332.8111863429779
 30
0.0
 11
103.053199971985
 21
332.8111863429779
 31
0.0
  0
LINE
  5
1C0
102
{ACAD_REACTORS
330
280
330
281
102
}
330
71
100
AcDbEntity
  8
0
  6
Continuous
 62
     2
100
AcDbLine
 10
101.6552469250447
 20
334.3920453367529
 30
0.0
 11
103.053199971985
 21
332.8111863429779
 31
0.0
  0
LINE
  5
1C1
102
{ACAD_REACTORS
330
280
330
281
102
}
330
71
100
AcDbEntity
  8
0
  6
Continuous
 62
     2
100
AcDbLine
 10
101.6552469250447
 20
334.3920453367529
 30
0.0
 11
102.9577765558112
 21
335.8649958667891
 31
0.0
  0
LINE
  5
1C2
102
{ACAD_REACTORS
330
280
330
281
102
}
330
71
100
AcDbEntity
  8
0
  6
Continuous
 62
     2
100
AcDbLine
 10
100.9538848161712
 20
335.1851725452335
 30
0.0
 11
101.5550523380639
 21
335.8649958667891
 31
0.0
  0
LINE
  5
1C3
102
{ACAD_REACTORS
330
280
330
281
102
}
330
71
100
AcDbEntity
  8
0
  6
Continuous
 62
     2
100
AcDbLine
 10
100.3527172942794
 20
335.8649958667891
 30
0.0
 11
100.9538848161712
 21
335.1851725452335
 31
0.0
  0
LINE
  5
1C4
102
{ACAD_REACTORS
330
280
330
281
102
}
330
71
100
AcDbEntity
  8
0
  6
Continuous
 62
     2
100
AcDbLine
 10
100.3527172942794
 20
335.8649958667891
 30
0.0
 11
98.94999307653006
 21
335.8649958667891
 31
0.0
  0
LINE
  5
1C5
102
{ACAD_REACTORS
330
276
330
277
102
}
330
71
100
AcDbEntity
  8
0
  6
Continuous
 62
     2
100
AcDbLine
 10
101.0493082323439
 20
329.4519958668035
 30
0.0
 11
102.2421009345116
 21
329.4519958668035
 31
0.0
  0
LINE
  5
1C6
102
{ACAD_REACTORS
330
276
330
277
102
}
330
71
100
AcDbEntity
  8
0
  6
Continuous
 62
     2
100
AcDbLine
 10
102.2421009345116
 20
329.4519958668035
 30
0.0
 11
102.2421009345116
 21
331.7205400844911
 31
0.0
  0
LINE
  5
1C7
102
{ACAD_REACTORS
330
276
330
277
102
}
330
71
100
AcDbEntity
  8
0
  6
Continuous
 62
     2
100
AcDbLine
 10
102.2421009345116
 20
331.7205400844911
 30
0.0
 11
103.053199971985
 21
331.7205400844911
 31
0.0
  0
LINE
  5
1C8
102
{ACAD_REACTORS
330
276
330
277
102
}
330
71
100
AcDbEntity
  8
0
  6
Continuous
 62
     2
100
AcDbLine
 10
103.053199971985
 20
331.7205400844911
 30
0.0
 11
103.053199971985
 21
332.5058053906146
 31
0.0
  0
LINE
  5
1C9
102
{ACAD_REACTORS
330
276
330
277
102
}
330
71
100
AcDbEntity
  8
0
  6
Continuous
 62
     2
100
AcDbLine
 10
99.66825445335627
 20
332.5058053906141
 30
0.0
 11
103.053199971985
 21
332.5058053906146
 31
0.0
  0
LINE
  5
1CA
102
{ACAD_REACTORS
330
276
330
277
102
}
330
71
100
AcDbEntity
  8
0
  6
Continuous
 62
     2
100
AcDbLine
 10
101.0493082323439
 20
331.7205400844911
 30
0.0
 11
101.0493082323439
 21
329.4519958668035
 31
0.0
  0
LINE
  5
1CB
102
{ACAD_REACTORS
330
278
330
279
102
}
330
71
100
AcDbEntity
  8
0
  6
Continuous
 62
     2
100
AcDbLine
 10
78.41982179686465
 20
331.4308760163681
 30
0.0
 11
78.41982179686465
 21
332.0127274230631
 31
0.0
  0
LINE
  5
1CC
102
{ACAD_REACTORS
330
278
330
279
102
}
330
71
100
AcDbEntity
  8
0
  6
Continuous
 62
     2
100
AcDbLine
 10
78.41982179686465
 20
334.2310106229994
 30
0.0
 11
78.41982179686465
 21
334.8365459115062
 31
0.0
  0
LINE
  5
1CD
330
71
100
AcDbEntity
  8
1
  6
Continuous
 62
     6
100
AcDbLine
 10
56.95000038146787
 20
322.1584958667872
 30
0.0
 11
70.90519585471785
 21
322.1584958667871
 31
0.0
  0
LINE
  5
1CE
330
71
100
AcDbEntity
  8
1
  6
Continuous
 62
     6
100
AcDbLine
 10
6.95000038146765
 20
322.1584958667872
 30
0.0
 11
1.90519585471787
 21
322.1584958667872
 31
0.0
  0
LINE
  5
1CF
330
71
100
AcDbEntity
  8
1
  6
Continuous
 62
     6
100
AcDbLine
 10
156.9500003814679
 20
322.1584958667872
 30
0.0
 11
200.4500003814679
 21
322.1584958667872
 31
0.0
  0
LINE
  5
1D0
330
71
100
AcDbEntity
  8
1
  6
Continuous
 62
     6
100
AcDbLine
 10
106.9500003814679
 20
322.1584958667872
 30
0.0
 11
89.10519585471786
 21
322.1584958667872
 31
0.0
  0
LINE
  5
1D1
330
71
100
AcDbEntity
  8
1
  6
Continuous
 62
     2
100
AcDbLine
 10
200.4500003814679
 20
322.1584958667872
 30
0.0
 11
205.4500003814669
 21
322.1584958667872
 31
0.0
  0
LINE
  5
1D2
330
71
100
AcDbEntity
  8
1
  6
Continuous
 62
     2
100
AcDbLine
 10
200.4500003814679
 20
322.1584958667872
 30
0.0
 11
200.4500003814679
 21
317.1584958667871
 31
0.0
  0
LINE
  5
1D3
330
71
100
AcDbEntity
  8
1
  6
Continuous
 62
     6
100
AcDbLine
 10
70.90519585471785
 20
339.1584958667872
 30
0.0
 11
107.3051958547178
 21
339.1584958667872
 31
0.0
  0
LINE
  5
1D4
330
71
100
AcDbEntity
  8
1
  6
Continuous
 62
     2
100
AcDbLine
 10
205.4500003814669
 20
317.1584958667871
 30
0.0
 11
205.4500003814669
 21
322.1584958667872
 31
0.0
  0
LINE
  5
1D5
330
71
100
AcDbEntity
  8
1
  6
Continuous
 62
     2
100
AcDbLine
 10
205.4500003814669
 20
317.1584958667871
 30
0.0
 11
200.4500003814679
 21
317.1584958667871
 31
0.0
  0
LINE
  5
1D6
330
71
100
AcDbEntity
  8
1
  6
Continuous
 62
     2
100
AcDbLine
 10
200.4500003814679
 20
317.1584958667871
 30
0.0
 11
156.9500003814679
 21
317.1584958667871
 31
0.0
  0
LINE
  5
1D7
330
71
100
AcDbEntity
  8
1
  6
Continuous
 62
     6
100
AcDbLine
 10
200.4500003814696
 20
339.1584958667872
 30
0.0
 11
200.4500003814688
 21
372.1584958667874
 31
0.0
  0
LINE
  5
1D8
330
71
100
AcDbEntity
  8
1
  6
Continuous
 62
     2
100
AcDbLine
 10
205.4500003814669
 20
527.1584958667872
 30
0.0
 11
56.95000038146787
 21
527.1584958667872
 31
0.0
  0
LINE
  5
1D9
330
71
100
AcDbEntity
  8
1
  6
Continuous
 62
     6
100
AcDbLine
 10
200.4500003814669
 20
507.1584958667872
 30
0.0
 11
-86.54999961853122
 21
507.1584958667872
 31
0.0
  0
LINE
  5
1DA
330
71
100
AcDbEntity
  8
1
  6
Continuous
 62
     2
100
AcDbLine
 10
200.4500003814688
 20
372.1584958667874
 30
0.0
 11
205.4500003814669
 21
372.1584958667874
 31
0.0
  0
LINE
  5
1DB
330
71
100
AcDbEntity
  8
1
  6
Continuous
 62
     6
100
AcDbLine
 10
200.4500003814688
 20
372.1584958667874
 30
0.0
 11
200.4500003814683
 21
422.1584958667871
 31
0.0
  0
LINE
  5
1DC
330
71
100
AcDbEntity
  8
1
  6
Continuous
 62
     2
100
AcDbLine
 10
205.4500003814669
 20
372.1584958667874
 30
0.0
 11
205.4500003814669
 21
422.1584958667871
 31
0.0
  0
LINE
  5
1DD
330
71
100
AcDbEntity
  8
1
  6
Continuous
 62
     2
100
AcDbLine
 10
200.4500003814683
 20
422.1584958667871
 30
0.0
 11
205.4500003814669
 21
422.1584958667871
 31
0.0
  0
LINE
  5
1DE
330
71
100
AcDbEntity
  8
1
  6
Continuous
 62
     6
100
AcDbLine
 10
200.4500003814683
 20
422.1584958667871
 30
0.0
 11
200.4500003814671
 21
472.1584958667872
 31
0.0
  0
LINE
  5
1DF
330
71
100
AcDbEntity
  8
1
  6
Continuous
 62
     2
100
AcDbLine
 10
205.4500003814669
 20
422.1584958667871
 30
0.0
 11
205.4500003814669
 21
472.1584958667872
 31
0.0
  0
LINE
  5
1E0
330
71
100
AcDbEntity
  8
1
  6
Continuous
 62
     2
100
AcDbLine
 10
200.4500003814671
 20
472.1584958667872
 30
0.0
 11
205.4500003814669
 21
472.1584958667872
 31
0.0
  0
LINE
  5
1E1
330
71
100
AcDbEntity
  8
1
  6
Continuous
 62
     6
100
AcDbLine
 10
200.4500003814671
 20
472.1584958667872
 30
0.0
 11
200.4500003814669
 21
507.1584958667872
 31
0.0
  0
LINE
  5
1E2
330
71
100
AcDbEntity
  8
1
  6
Continuous
 62
     2
100
AcDbLine
 10
205.4500003814669
 20
472.1584958667872
 30
0.0
 11
205.4500003814669
 21
527.1584958667872
 31
0.0
  0
LINE
  5
1E3
330
71
100
AcDbEntity
  8
1
  6
Continuous
 62
     2
100
AcDbLine
 10
205.4500003814669
 20
322.1584958667872
 30
0.0
 11
205.4500003814669
 21
372.1584958667874
 31
0.0
  0
LINE
  5
1E4
330
71
100
AcDbEntity
  8
1
  6
Continuous
 62
     2
100
AcDbLine
 10
56.95000038146787
 20
527.1584958667872
 30
0.0
 11
-91.54999961853122
 21
527.1584958667872
 31
0.0
  0
LINE
  5
1E5
330
71
100
AcDbEntity
  8
1
  6
Continuous
 62
     2
100
AcDbLine
 10
56.95000038146787
 20
527.1584958667872
 30
0.0
 11
56.95000038146787
 21
517.9498040220859
 31
0.0
  0
LINE
  5
1E6
330
71
100
AcDbEntity
  8
1
  6
Continuous
 62
     2
100
AcDbLine
 10
-91.54999961853122
 20
317.1584958667871
 30
0.0
 11
-86.54999961853025
 21
317.1584958667871
 31
0.0
  0
LINE
  5
1E7
330
71
100
AcDbEntity
  8
1
  6
Continuous
 62
     2
100
AcDbLine
 10
-91.54999961853122
 20
527.1584958667872
 30
0.0
 11
-91.54999961853122
 21
472.1584958667872
 31
0.0
  0
LINE
  5
1E8
330
71
100
AcDbEntity
  8
1
  6
Continuous
 62
     6
100
AcDbLine
 10
-86.54999961853122
 20
507.1584958667872
 30
0.0
 11
-86.54999961853116
 21
472.1584958667872
 31
0.0
  0
LINE
  5
1E9
330
71
100
AcDbEntity
  8
1
  6
Continuous
 62
     2
100
AcDbLine
 10
-91.54999961853122
 20
472.1584958667872
 30
0.0
 11
-86.54999961853116
 21
472.1584958667872
 31
0.0
  0
LINE
  5
1EA
330
71
100
AcDbEntity
  8
1
  6
Continuous
 62
     2
100
AcDbLine
 10
-91.54999961853122
 20
472.1584958667872
 30
0.0
 11
-91.54999961853122
 21
422.1584958667871
 31
0.0
  0
LINE
  5
1EB
330
71
100
AcDbEntity
  8
1
  6
Continuous
 62
     6
100
AcDbLine
 10
-86.54999961853116
 20
472.1584958667872
 30
0.0
 11
-86.54999961853065
 21
422.1584958667871
 31
0.0
  0
LINE
  5
1EC
330
71
100
AcDbEntity
  8
1
  6
Continuous
 62
     2
100
AcDbLine
 10
-91.54999961853122
 20
422.1584958667871
 30
0.0
 11
-86.54999961853065
 21
422.1584958667871
 31
0.0
  0
LINE
  5
1ED
330
71
100
AcDbEntity
  8
1
  6
Continuous
 62
     2
100
AcDbLine
 10
-91.54999961853122
 20
422.1584958667871
 30
0.0
 11
-91.54999961853122
 21
372.1584958667874
 31
0.0
  0
LINE
  5
1EE
330
71
100
AcDbEntity
  8
1
  6
Continuous
 62
     6
100
AcDbLine
 10
-86.54999961853065
 20
422.1584958667871
 30
0.0
 11
-86.54999961853042
 21
372.1584958667874
 31
0.0
  0
LINE
  5
1EF
330
71
100
AcDbEntity
  8
1
  6
Continuous
 62
     2
100
AcDbLine
 10
-91.54999961853122
 20
372.1584958667874
 30
0.0
 11
-86.54999961853042
 21
372.1584958667874
 31
0.0
  0
LINE
  5
1F0
330
71
100
AcDbEntity
  8
1
  6
Continuous
 62
     2
100
AcDbLine
 10
-91.54999961853122
 20
372.1584958667874
 30
0.0
 11
-91.54999961853122
 21
322.1584958667872
 31
0.0
  0
LINE
  5
1F1
330
71
100
AcDbEntity
  8
1
  6
Continuous
 62
     6
100
AcDbLine
 10
-86.54999961853042
 20
372.1584958667874
 30
0.0
 11
-86.54999961853025
 21
322.1584958667872
 31
0.0
  0
LINE
  5
1F2
330
71
100
AcDbEntity
  8
1
  6
Continuous
 62
     2
100
AcDbLine
 10
-43.04999961853213
 20
317.1584958667871
 30
0.0
 11
-43.04999961853213
 21
322.1584958667872
 31
0.0
  0
LINE
  5
1F3
330
71
100
AcDbEntity
  8
1
  6
Continuous
 62
     2
100
AcDbLine
 10
-43.04999961853213
 20
317.1584958667871
 30
0.0
 11
6.95000038146765
 21
317.1584958667871
 31
0.0
  0
LINE
  5
1F4
330
71
100
AcDbEntity
  8
1
  6
Continuous
 62
     2
100
AcDbLine
 10
6.95000038146765
 20
317.1584958667871
 30
0.0
 11
6.95000038146765
 21
322.1584958667872
 31
0.0
  0
LINE
  5
1F5
330
71
100
AcDbEntity
  8
1
  6
Continuous
 62
     2
100
AcDbLine
 10
6.95000038146765
 20
317.1584958667871
 30
0.0
 11
56.95000038146787
 21
317.1584958667871
 31
0.0
  0
LINE
  5
1F6
330
71
100
AcDbEntity
  8
1
  6
Continuous
 62
     2
100
AcDbLine
 10
56.95000038146787
 20
317.1584958667871
 30
0.0
 11
56.95000038146787
 21
322.1584958667872
 31
0.0
  0
LINE
  5
1F7
330
71
100
AcDbEntity
  8
1
  6
Continuous
 62
     2
100
AcDbLine
 10
56.95000038146787
 20
317.1584958667871
 30
0.0
 11
106.9500003814679
 21
317.1584958667871
 31
0.0
  0
LINE
  5
1F8
330
71
100
AcDbEntity
  8
1
  6
Continuous
 62
     2
100
AcDbLine
 10
106.9500003814679
 20
317.1584958667871
 30
0.0
 11
106.9500003814679
 21
322.1584958667872
 31
0.0
  0
LINE
  5
1F9
330
71
100
AcDbEntity
  8
1
  6
Continuous
 62
     2
100
AcDbLine
 10
156.9500003814679
 20
317.1584958667871
 30
0.0
 11
156.9500003814679
 21
322.1584958667872
 31
0.0
  0
LINE
  5
1FA
330
71
100
AcDbEntity
  8
1
  6
Continuous
 62
     2
100
AcDbLine
 10
156.9500003814679
 20
317.1584958667871
 30
0.0
 11
106.9500003814679
 21
317.1584958667871
 31
0.0
  0
LINE
  5
1FB
330
71
100
AcDbEntity
  8
1
  6
Continuous
 62
     2
100
AcDbLine
 10
-86.54999961853025
 20
322.1584958667872
 30
0.0
 11
-86.54999961853025
 21
317.1584958667871
 31
0.0
  0
LINE
  5
1FC
330
71
100
AcDbEntity
  8
1
  6
Continuous
 62
     2
100
AcDbLine
 10
-86.54999961853025
 20
317.1584958667871
 30
0.0
 11
-43.04999961853213
 21
317.1584958667871
 31
0.0
  0
LINE
  5
1FD
330
71
100
AcDbEntity
  8
1
  6
Continuous
 62
     2
100
AcDbLine
 10
-86.54999961853025
 20
322.1584958667872
 30
0.0
 11
-91.54999961853122
 21
322.1584958667872
 31
0.0
  0
LINE
  5
1FE
330
71
100
AcDbEntity
  8
1
  6
Continuous
 62
     2
100
AcDbLine
 10
-91.54999961853122
 20
322.1584958667872
 30
0.0
 11
-91.54999961853122
 21
317.1584958667871
 31
0.0
  0
LINE
  5
1FF
330
71
100
AcDbEntity
  8
1
  6
Continuous
 62
     6
100
AcDbLine
 10
200.4500003814679
 20
322.1584958667872
 30
0.0
 11
200.4500003814692
 21
330.6584958667872
 31
0.0
  0
LINE
  5
200
330
71
100
AcDbEntity
  8
1
  6
Continuous
 62
     6
100
AcDbLine
 10
107.3051958547178
 20
322.1584958667871
 30
0.0
 11
156.9500003814679
 21
322.1584958667872
 31
0.0
  0
LINE
  5
201
330
71
100
AcDbEntity
  8
1
  6
Continuous
 62
     6
100
AcDbLine
 10
-45.34999961853237
 20
322.1584958667871
 30
0.0
 11
-43.04999961853213
 21
322.1584958667872
 31
0.0
  0
LINE
  5
202
330
71
100
AcDbEntity
  8
1
  6
Continuous
 62
     6
100
AcDbLine
 10
56.95000038146787
 20
322.1584958667872
 30
0.0
 11
6.95000038146765
 21
322.1584958667872
 31
0.0
  0
LINE
  5
203
330
71
100
AcDbEntity
  8
1
  6
Continuous
 62
     7
100
AcDbLine
 10
70.90519585471785
 20
339.1584958667872
 30
0.0
 11
70.90519585471785
 21
326.4084958667871
 31
0.0
  0
LINE
  5
204
330
71
100
AcDbEntity
  8
1
  6
Continuous
 62
     7
100
AcDbLine
 10
107.3051958547178
 20
339.1584958667872
 30
0.0
 11
107.3051958547178
 21
326.4084958667872
 31
0.0
  0
LINE
  5
205
330
71
100
AcDbEntity
  8
1
  6
Continuous
 62
     6
100
AcDbLine
 10
-45.34999961853237
 20
322.1584958667871
 30
0.0
 11
-51.54999961853036
 21
322.1584958667872
 31
0.0
  0
LINE
  5
206
330
71
100
AcDbEntity
  8
1
  6
Continuous
 62
     6
100
AcDbLine
 10
107.3051958547178
 20
322.1584958667871
 30
0.0
 11
106.9500003814679
 21
322.1584958667872
 31
0.0
  0
LINE
  5
207
330
71
100
AcDbEntity
  8
1
  6
Continuous
 62
     6
100
AcDbLine
 10
200.4500003814696
 20
339.1584958667872
 30
0.0
 11
200.4500003814692
 21
330.6584958667872
 31
0.0
  0
LINE
  5
208
330
71
100
AcDbEntity
  8
1
  6
Continuous
 62
     6
100
AcDbLine
 10
-51.54999961853036
 20
322.1584958667872
 30
0.0
 11
-86.54999961853025
 21
322.1584958667872
 31
0.0
  0
LINE
  5
209
330
71
100
AcDbEntity
  8
1
  6
Continuous
 62
     2
100
AcDbLine
 10
75.14185074128045
 20
344.5334958667871
 30
0.0
 11
80.14185074128045
 21
345.7834958667871
 31
0.0
  0
LINE
  5
20A
330
71
100
AcDbEntity
  8
1
  6
Continuous
 62
     2
100
AcDbLine
 10
75.14185074128045
 20
342.0334958667871
 30
0.0
 11
75.14185074128045
 21
344.5334958667871
 31
0.0
  0
LINE
  5
20B
330
71
100
AcDbEntity
  8
1
  6
Continuous
 62
     2
100
AcDbLine
 10
80.14185074128045
 20
340.7834958667871
 30
0.0
 11
75.14185074128045
 21
342.0334958667871
 31
0.0
  0
LINE
  5
20C
330
71
100
AcDbEntity
  8
1
  6
Continuous
 62
     2
100
AcDbLine
 10
80.14185074128045
 20
345.7834958667871
 30
0.0
 11
80.14185074128045
 21
340.7834958667871
 31
0.0
  0
LINE
  5
20D
330
71
100
AcDbEntity
  8
1
  6
Continuous
 62
     7
100
AcDbLine
 10
70.90519585471785
 20
326.4084958667871
 30
0.0
 11
89.10519585471786
 21
326.4084958667872
 31
0.0
  0
LINE
  5
20E
330
71
100
AcDbEntity
  8
1
  6
Continuous
 62
     7
100
AcDbLine
 10
70.90519585471785
 20
326.4084958667871
 30
0.0
 11
70.90519585471785
 21
322.1584958667871
 31
0.0
  0
LINE
  5
20F
330
71
100
AcDbEntity
  8
1
  6
Continuous
 62
     7
100
AcDbLine
 10
107.3051958547178
 20
326.4084958667872
 30
0.0
 11
107.3051958547178
 21
322.1584958667871
 31
0.0
  0
LINE
  5
210
330
71
100
AcDbEntity
  8
1
  6
Continuous
 62
     7
100
AcDbLine
 10
89.10519585471786
 20
326.4084958667872
 30
0.0
 11
89.10519585471786
 21
322.1584958667872
 31
0.0
  0
LINE
  5
211
330
71
100
AcDbEntity
  8
1
  6
Continuous
 62
     6
100
AcDbLine
 10
89.10519585471786
 20
322.1584958667872
 30
0.0
 11
70.90519585471785
 21
322.1584958667871
 31
0.0
  0
LINE
  5
212
330
71
100
AcDbEntity
  8
1
  6
Continuous
 62
     7
100
AcDbLine
 10
89.10519585471786
 20
326.4084958667872
 30
0.0
 11
107.3051958547178
 21
326.4084958667872
 31
0.0
  0
LINE
  5
213
330
71
100
AcDbEntity
  8
1
  6
Continuous
 62
     6
100
AcDbLine
 10
70.90519585471785
 20
347.6584958667872
 30
0.0
 11
200.4500003814696
 21
347.6584958667872
 31
0.0
  0
ARC
  5
214
102
{ACAD_REACTORS
330
27C
330
27D
102
}
330
71
100
AcDbEntity
  8
0
  6
Continuous
 62
     2
100
AcDbCircle
 10
86.29684385367784
 20
330.9789006287089
 30
0.0
 40
0.7717997786797649
100
AcDbArc
 50
321.8795802028351
 51
38.12041979714831
  0
ARC
  5
215
102
{ACAD_REACTORS
330
27C
330
27D
102
}
330
71
100
AcDbEntity
  8
0
  6
Continuous
 62
     2
100
AcDbCircle
 10
86.49658389002425
 20
330.8221694505888
 30
0.0
 40
0.5179085730137178
100
AcDbArc
 50
218.1204197971907
 51
321.8795802028035
  0
ARC
  5
216
102
{ACAD_REACTORS
330
27C
330
27D
102
}
330
71
100
AcDbEntity
  8
0
  6
Continuous
 62
     2
100
AcDbCircle
 10
86.69632392637035
 20
330.9789006287089
 30
0.0
 40
0.7717997786794106
100
AcDbArc
 50
141.8795802028413
 51
218.1204197971753
  0
ARC
  5
217
102
{ACAD_REACTORS
330
27C
330
27D
102
}
330
71
100
AcDbEntity
  8
0
  6
Continuous
 62
     2
100
AcDbCircle
 10
86.49658389002425
 20
331.1356318068293
 30
0.0
 40
0.5179085730133349
100
AcDbArc
 50
38.12041979715197
 51
141.8795802028538
  0
ARC
  5
218
102
{ACAD_REACTORS
330
274
330
275
102
}
330
71
100
AcDbEntity
  8
0
  6
Continuous
 62
     2
100
AcDbCircle
 10
83.43456975446037
 20
329.5684342633007
 30
0.0
 40
2.227384008973405
100
AcDbArc
 50
58.06909105003957
 51
71.55192388186698
  0
ARC
  5
219
102
{ACAD_REACTORS
330
274
330
275
102
}
330
71
100
AcDbEntity
  8
0
  6
Continuous
 62
     2
100
AcDbCircle
 10
83.69629745541914
 20
331.1839720580479
 30
0.0
 40
0.5115800601947474
100
AcDbArc
 50
113.3722778882055
 51
151.4785267423044
  0
ARC
  5
21A
102
{ACAD_REACTORS
330
274
330
275
102
}
330
71
100
AcDbEntity
  8
0
  6
Continuous
 62
     2
100
AcDbCircle
 10
84.07365471349945
 20
330.9789006287089
 30
0.0
 40
0.9410597353332545
100
AcDbArc
 50
151.4785267422669
 51
208.5214732577118
  0
ARC
  5
21B
102
{ACAD_REACTORS
330
274
330
275
102
}
330
71
100
AcDbEntity
  8
0
  6
Continuous
 62
     2
100
AcDbCircle
 10
83.27669687936745
 20
334.2915815739652
 30
0.0
 40
4.85259686349811
100
AcDbArc
 50
275.158144769625
 51
285.979991258353
  0
ARC
  5
21C
102
{ACAD_REACTORS
330
274
330
275
102
}
330
71
100
AcDbEntity
  8
0
  6
Continuous
 62
     2
100
AcDbCircle
 10
83.56555297410335
 20
331.0916909907436
 30
0.0
 40
1.63969512393935
100
AcDbArc
 50
195.0618917770848
 51
275.1581447696396
  0
ARC
  5
21D
102
{ACAD_REACTORS
330
274
330
275
102
}
330
71
100
AcDbEntity
  8
0
  6
Continuous
 62
     2
100
AcDbCircle
 10
83.14642513064055
 20
330.9789006287089
 30
0.0
 40
1.205656168390914
100
AcDbArc
 50
164.9381082228817
 51
195.0618917770948
  0
ARC
  5
21E
102
{ACAD_REACTORS
330
274
330
275
102
}
330
71
100
AcDbEntity
  8
0
  6
Continuous
 62
     2
100
AcDbCircle
 10
83.56555297410335
 20
330.8661102666739
 30
0.0
 40
1.63969512394062
100
AcDbArc
 50
84.84185523036271
 51
164.9381082228864
  0
ARC
  5
21F
102
{ACAD_REACTORS
330
278
330
279
102
}
330
71
100
AcDbEntity
  8
0
  6
Continuous
 62
     2
100
AcDbCircle
 10
78.73553871994145
 20
332.0127274230631
 30
0.0
 40
0.3157169230765842
100
AcDbArc
 50
115.3740086783474
 51
180.0
  0
ARC
  5
220
102
{ACAD_REACTORS
330
278
330
279
102
}
330
71
100
AcDbEntity
  8
0
  6
Continuous
 62
     2
100
AcDbCircle
 10
78.73553871994145
 20
334.2310106229994
 30
0.0
 40
0.315716923076792
100
AcDbArc
 50
180.0
 51
244.625991321657
  0
ARC
  5
221
102
{ACAD_REACTORS
330
278
330
279
102
}
330
71
100
AcDbEntity
  8
0
  6
Continuous
 62
     2
100
AcDbCircle
 10
78.74115485525147
 20
333.133710963937
 30
0.0
 40
2.018561131933266
100
AcDbArc
 50
269.8110329575858
 51
90.18896704241416
  0
ARC
  5
222
102
{ACAD_REACTORS
330
278
330
279
102
}
330
71
100
AcDbEntity
  8
0
  6
Continuous
 62
     2
100
AcDbCircle
 10
78.73553871994145
 20
331.4308760163681
 30
0.0
 40
0.315716923076792
100
AcDbArc
 50
180.0
 51
269.8110329574542
  0
ARC
  5
223
102
{ACAD_REACTORS
330
276
330
277
102
}
330
71
100
AcDbEntity
  8
0
  6
Continuous
 62
     2
100
AcDbCircle
 10
99.79899893467206
 20
331.1839720580479
 30
0.0
 40
0.5115800601944143
100
AcDbArc
 50
109.3371432194853
 51
151.4785267424365
  0
ARC
  5
224
102
{ACAD_REACTORS
330
276
330
277
102
}
330
71
100
AcDbEntity
  8
0
  6
Continuous
 62
     2
100
AcDbCircle
 10
99.79899893467206
 20
330.7738291993703
 30
0.0
 40
0.5115800601959674
100
AcDbArc
 50
208.5214732576754
 51
246.6277221118399
  0
ARC
  5
225
102
{ACAD_REACTORS
330
276
330
277
102
}
330
71
100
AcDbEntity
  8
0
  6
Continuous
 62
     2
100
AcDbCircle
 10
99.24912660989466
 20
330.9789006287089
 30
0.0
 40
1.205656168392973
100
AcDbArc
 50
164.938108222908
 51
195.0618917771024
  0
ARC
  5
226
102
{ACAD_REACTORS
330
276
330
277
102
}
330
71
100
AcDbEntity
  8
0
  6
Continuous
 62
     2
100
AcDbCircle
 10
99.66825445335627
 20
330.8661102666739
 30
0.0
 40
1.639695123940214
100
AcDbArc
 50
90.0
 51
164.938108222895
  0
ARC
  5
227
102
{ACAD_REACTORS
330
27A
330
27B
102
}
330
71
100
AcDbEntity
  8
0
  6
Continuous
 62
     2
100
AcDbCircle
 10
90.24125936065255
 20
334.3380911048831
 30
0.0
 40
1.526904761905996
100
AcDbArc
 50
90.0
 51
270.0
  0
ARC
  5
228
102
{ACAD_REACTORS
330
27E
330
27F
102
}
330
71
100
AcDbEntity
  8
0
  6
Continuous
 62
     2
100
AcDbCircle
 10
83.49856861542676
 20
334.8490261966779
 30
0.0
 40
0.3528638246712035
100
AcDbArc
 50
270.0
 51
90.0
  0
ARC
  5
229
102
{ACAD_REACTORS
330
278
330
279
102
}
330
71
100
AcDbEntity
  8
0
  6
Continuous
 62
     2
100
AcDbCircle
 10
76.15999003340974
 20
334.8367233881543
 30
0.0
 40
0.3157169230760815
100
AcDbArc
 50
90.0
 51
180.0
  0
ARC
  5
22A
102
{ACAD_REACTORS
330
278
330
279
102
}
330
71
100
AcDbEntity
  8
0
  6
Continuous
 62
     2
100
AcDbCircle
 10
78.15840774199435
 20
333.1218690230315
 30
0.0
 40
0.9118975235576403
100
AcDbArc
 50
115.1944106485275
 51
244.8055893514862
  0
ARC
  5
22B
102
{ACAD_REACTORS
330
278
330
279
102
}
330
71
100
AcDbEntity
  8
0
  6
Continuous
 62
     2
100
AcDbCircle
 10
77.63582329441937
 20
332.0110392769688
 30
0.0
 40
0.315716923076593
100
AcDbArc
 50
0.0
 51
64.8055893514559
  0
ARC
  5
22C
102
{ACAD_REACTORS
330
278
330
279
102
}
330
71
100
AcDbEntity
  8
0
  6
Continuous
 62
     2
100
AcDbCircle
 10
75.56609535666325
 20
329.8762404821869
 30
0.0
 40
0.4242446153828041
100
AcDbArc
 50
180.0
 51
270.0
  0
ARC
  5
22D
102
{ACAD_REACTORS
330
27A
330
27B
102
}
330
71
100
AcDbEntity
  8
0
  6
Continuous
 62
     2
100
AcDbCircle
 10
90.45753137081775
 20
334.4948222830036
 30
0.0
 40
0.5179085730135967
100
AcDbArc
 50
38.12041979715324
 51
141.879580202839
  0
ARC
  5
22E
102
{ACAD_REACTORS
330
27A
330
27B
102
}
330
71
100
AcDbEntity
  8
0
  6
Continuous
 62
     2
100
AcDbCircle
 10
90.65727140716405
 20
334.3380911048831
 30
0.0
 40
0.7717997786797426
100
AcDbArc
 50
141.8795802028338
 51
218.1204197971562
  0
ARC
  5
22F
102
{ACAD_REACTORS
330
27C
330
27D
102
}
330
71
100
AcDbEntity
  8
0
  6
Continuous
 62
     2
100
AcDbCircle
 10
86.49658389002425
 20
331.5174756390121
 30
0.0
 40
2.065479772208534
100
AcDbArc
 50
242.4518518243405
 51
297.5481481756867
  0
ARC
  5
230
102
{ACAD_REACTORS
330
27C
330
27D
102
}
330
71
100
AcDbEntity
  8
0
  6
Continuous
 62
     2
100
AcDbCircle
 10
86.49658389002425
 20
330.4403256184061
 30
0.0
 40
2.065479772208492
100
AcDbArc
 50
62.45185182430527
 51
117.5481481756675
  0
ARC
  5
231
102
{ACAD_REACTORS
330
27C
330
27D
102
}
330
71
100
AcDbEntity
  8
0
  6
Continuous
 62
     2
100
AcDbCircle
 10
86.21564399819096
 20
330.9789006287089
 30
0.0
 40
1.458034083651415
100
AcDbArc
 50
117.548148175664
 51
242.4518518243402
  0
ARC
  5
232
102
{ACAD_REACTORS
330
27C
330
27D
102
}
330
71
100
AcDbEntity
  8
0
  6
Continuous
 62
     2
100
AcDbCircle
 10
86.77752378185755
 20
330.9789006287089
 30
0.0
 40
1.458034083652129
100
AcDbArc
 50
297.5481481756985
 51
62.45185182429739
  0
ARC
  5
233
102
{ACAD_REACTORS
330
27A
330
27B
102
}
330
71
100
AcDbEntity
  8
0
  6
Continuous
 62
     2
100
AcDbCircle
 10
90.45753137081775
 20
334.1813599267628
 30
0.0
 40
0.5179085730135072
100
AcDbArc
 50
218.120419797161
 51
321.8795802028467
  0
ARC
  5
234
102
{ACAD_REACTORS
330
27A
330
27B
102
}
330
71
100
AcDbEntity
  8
0
  6
Continuous
 62
     2
100
AcDbCircle
 10
90.25779133447156
 20
334.3380911048831
 30
0.0
 40
0.7717997786796373
100
AcDbArc
 50
321.8795802028437
 51
38.12041979716621
  0
ARC
  5
235
102
{ACAD_REACTORS
330
278
330
279
102
}
330
71
100
AcDbEntity
  8
0
  6
Continuous
 62
     2
100
AcDbCircle
 10
81.03940744738006
 20
329.8762404821869
 30
0.0
 40
0.4242446153834294
100
AcDbArc
 50
270.0
 51
0.0
  0
ARC
  5
236
102
{ACAD_REACTORS
330
278
330
279
102
}
330
71
100
AcDbEntity
  8
0
  6
Continuous
 62
     2
100
AcDbCircle
 10
81.03940744738006
 20
335.440751251387
 30
0.0
 40
0.4242446153838841
100
AcDbArc
 50
0.0
 51
90.0
  0
ARC
  5
237
102
{ACAD_REACTORS
330
278
330
279
102
}
330
71
100
AcDbEntity
  8
0
  6
Continuous
 62
     2
100
AcDbCircle
 10
75.56609535666325
 20
335.440751251387
 30
0.0
 40
0.424244615383941
100
AcDbArc
 50
90.0
 51
180.0
  0
ARC
  5
238
102
{ACAD_REACTORS
330
278
330
279
102
}
330
71
100
AcDbEntity
  8
0
  6
Continuous
 62
     2
100
AcDbCircle
 10
77.63582329441937
 20
330.4802683454371
 30
0.0
 40
0.3157169230767067
100
AcDbArc
 50
270.0
 51
0.0
  0
ARC
  5
239
102
{ACAD_REACTORS
330
278
330
279
102
}
330
71
100
AcDbEntity
  8
0
  6
Continuous
 62
     2
100
AcDbCircle
 10
77.63582329441937
 20
334.2326987690938
 30
0.0
 40
0.3157169230762231
100
AcDbArc
 50
295.1944106485309
 51
0.0
  0
ARC
  5
23A
102
{ACAD_REACTORS
330
278
330
279
102
}
330
71
100
AcDbEntity
  8
0
  6
Continuous
 62
     2
100
AcDbCircle
 10
77.63582329441937
 20
334.8367233881543
 30
0.0
 40
0.315716923076593
100
AcDbArc
 50
0.0
 51
90.0
  0
ARC
  5
23B
102
{ACAD_REACTORS
330
278
330
279
102
}
330
71
100
AcDbEntity
  8
0
  6
Continuous
 62
     2
100
AcDbCircle
 10
76.15999003340974
 20
330.4802683454371
 30
0.0
 40
0.3157169230756836
100
AcDbArc
 50
180.0
 51
270.0
  0
ARC
  5
23C
102
{ACAD_REACTORS
330
27E
330
27F
102
}
330
71
100
AcDbEntity
  8
0
  6
Continuous
 62
     2
100
AcDbCircle
 10
83.94004114166515
 20
334.8096302254554
 30
0.0
 40
1.055365641333822
100
AcDbArc
 50
270.0
 51
90.0
  0
ARC
  5
23D
102
{ACAD_REACTORS
330
276
330
277
102
}
330
71
100
AcDbEntity
  8
0
  6
Continuous
 62
     2
100
AcDbCircle
 10
99.66825445335627
 20
331.0916909907436
 30
0.0
 40
1.639695123940448
100
AcDbArc
 50
195.0618917771012
 51
275.1581447696762
  0
ARC
  5
23E
102
{ACAD_REACTORS
330
276
330
277
102
}
330
71
100
AcDbEntity
  8
0
  6
Continuous
 62
     2
100
AcDbCircle
 10
99.37939835862045
 20
334.2915815739652
 30
0.0
 40
4.852596863498825
100
AcDbArc
 50
275.1581447696364
 51
285.9799912583391
  0
ARC
  5
23F
102
{ACAD_REACTORS
330
276
330
277
102
}
330
71
100
AcDbEntity
  8
0
  6
Continuous
 62
     2
100
AcDbCircle
 10
99.53727123371326
 20
332.3893669941169
 30
0.0
 40
2.227384008972732
100
AcDbArc
 50
288.4480761181347
 51
301.9309089499407
  0
ARC
  5
240
102
{ACAD_REACTORS
330
276
330
277
102
}
330
71
100
AcDbEntity
  8
0
  6
Continuous
 62
     2
100
AcDbCircle
 10
99.95543896737516
 20
331.1358212180803
 30
0.0
 40
0.9059297849851757
100
AcDbArc
 50
246.6277221118154
 51
288.4480761180855
  0
ARC
  5
241
102
{ACAD_REACTORS
330
276
330
277
102
}
330
71
100
AcDbEntity
  8
0
  6
Continuous
 62
     2
100
AcDbCircle
 10
100.1763561927535
 20
330.9789006287089
 30
0.0
 40
0.9410597353348745
100
AcDbArc
 50
151.4785267423717
 51
208.5214732576679
  0
ARC
  5
242
102
{ACAD_REACTORS
330
276
330
277
102
}
330
71
100
AcDbEntity
  8
0
  6
Continuous
 62
     2
100
AcDbCircle
 10
99.94566893277576
 20
330.766017077665
 30
0.0
 40
0.9545230068260935
100
AcDbArc
 50
90.0
 51
109.337143219432
  0
ARC
  5
243
102
{ACAD_REACTORS
330
278
330
279
102
}
330
71
100
AcDbEntity
  8
0
  6
Continuous
 62
     2
100
AcDbCircle
 10
78.73553871994145
 20
334.8365459115062
 30
0.0
 40
0.3157169230759573
100
AcDbArc
 50
90.188967042546
 51
180.0
  0
ARC
  5
244
102
{ACAD_REACTORS
330
278
330
279
102
}
330
71
100
AcDbEntity
  8
0
  6
Continuous
 62
     2
100
AcDbCircle
 10
78.20949602185357
 20
333.1218690230315
 30
0.0
 40
0.9118481501443819
100
AcDbArc
 50
295.3740086781787
 51
64.62599132180748
  0
ARC
  5
245
102
{ACAD_REACTORS
330
274
330
275
102
}
330
71
100
AcDbEntity
  8
0
  6
Continuous
 62
     2
100
AcDbCircle
 10
83.43456975446037
 20
332.3893669941175
 30
0.0
 40
2.227384008972764
100
AcDbArc
 50
288.4480761181326
 51
301.9309089499589
  0
ARC
  5
246
102
{ACAD_REACTORS
330
274
330
275
102
}
330
71
100
AcDbEntity
  8
0
  6
Continuous
 62
     2
100
AcDbCircle
 10
83.85273748812116
 20
331.1358212180803
 30
0.0
 40
0.9059297849848149
100
AcDbArc
 50
246.6277221118682
 51
288.4480761181579
  0
ARC
  5
247
102
{ACAD_REACTORS
330
274
330
275
102
}
330
71
100
AcDbEntity
  8
0
  6
Continuous
 62
     2
100
AcDbCircle
 10
83.69629745541914
 20
330.7738291993703
 30
0.0
 40
0.5115800601948034
100
AcDbArc
 50
208.5214732576956
 51
246.6277221118223
  0
ARC
  5
248
102
{ACAD_REACTORS
330
274
330
275
102
}
330
71
100
AcDbEntity
  8
0
  6
Continuous
 62
     2
100
AcDbCircle
 10
83.85273748812116
 20
330.8219800393372
 30
0.0
 40
0.9059297849853768
100
AcDbArc
 50
71.55192388185462
 51
113.372277888129
  0
ARC
  5
249
102
{ACAD_REACTORS
330
274
330
275
102
}
330
71
100
AcDbEntity
  8
0
  6
Continuous
 62
     2
100
AcDbCircle
 10
83.27669687936745
 20
327.6662196834529
 30
0.0
 40
4.852596863498095
100
AcDbArc
 50
74.02000874164747
 51
84.8418552303752
  0
CIRCLE
  5
24A
102
{ACAD_REACTORS
330
278
330
279
102
}
330
71
100
AcDbEntity
  8
0
  6
Continuous
 62
     2
100
AcDbCircle
 10
78.18568100718076
 20
333.1218690230315
 30
0.0
 40
0.4709789327785074
  0
CIRCLE
  5
24B
330
71
100
AcDbEntity
  8
1
  6
Continuous
 62
     2
100
AcDbCircle
 10
83.64185074128045
 20
343.2834958667871
 30
0.0
 40
1.249999999999915
  0
CIRCLE
  5
24C
330
71
100
AcDbEntity
  8
1
  6
Continuous
 62
     2
100
AcDbCircle
 10
83.64185074128045
 20
343.2834958667871
 30
0.0
 40
2.5
  0
TEXT
  5
24D
330
71
100
AcDbEntity
  8
1
 62
     7
100
AcDbText
 10
126.2787435767316
 20
340.4584958667871
 30
0.0
 40
2.5
  1
/
 41
0.9
  7
CONVERTER_11
100
AcDbText
  0
TEXT
  5
24F
330
71
100
AcDbEntity
  8
1
 62
     7
100
AcDbText
 10
128.4351080737737
 20
340.4584958667871
 30
0.0
 40
2.5
  1
01
 41
0.81
  7
CONVERTER_12
100
AcDbText
  0
TEXT
  5
250
330
71
100
AcDbEntity
  8
1
 62
     3
100
AcDbText
 10
166.0315920997907
 20
340.4584958667871
 30
0.0
 40
2.5
  1
31.03.2018
 41
0.81
  7
CONVERTER_12
100
AcDbText
  0
MTEXT
  5
251
330
71
100
AcDbEntity
  8
1
 62
     2
100
AcDbMText
 10
166.0315920997907
 20
346.6584958667871
 30
0.0
 40
1.8
 41
0.0
 71
     1
 72
     1
  1
date
  7
CONVERTER_11
 73
     1
 44
1.32052821128451
  0
MTEXT
  5
252
330
71
100
AcDbEntity
  8
1
 62
     2
100
AcDbMText
 10
136.2051958547179
 20
338.1584958667871
 30
0.0
 40
1.8
 41
0.0
 71
     1
 72
     1
  1
document-type
  7
CONVERTER_11
 73
     1
 44
1.20048019207683
  0
TEXT
  5
253
330
71
100
AcDbEntity
  8
1
 62
     3
100
AcDbText
 10
136.2051958547179
 20
331.9584958667871
 30
0.0
 40
2.5
  1
TECDOC 2D_Productdrawing
 41
0.81
  7
CONVERTER_12
100
AcDbText
  0
MTEXT
  5
255
330
71
100
AcDbEntity
  8
1
 62
     2
100
AcDbMText
 10
108.4051958547179
 20
346.6584958667872
 30
0.0
 40
1.8
 41
0.0
 71
     1
 72
     1
  1
document-No. / RI
  7
CONVERTER_13
 73
     1
 44
1.32052821128451
  0
TEXT
  5
256
330
71
100
AcDbEntity
  8
1
 62
     7
100
AcDbText
 10
108.4051958547179
 20
340.4584958667871
 30
0.0
 40
2.5
  1
00345749
 41
0.81
  7
CONVERTER_12
100
AcDbText
  0
MTEXT
  5
258
330
71
100
AcDbEntity
  8
1
 62
     3
100
AcDbMText
 10
195.9907962406302
 20
340.4584958667873
 30
0.0
 40
2.5
 41
0.0
 71
     8
 72
     1
  1
1:1
  7
CONVERTER_14
 73
     1
 44
1.32052821128451
  0
MTEXT
  5
259
330
71
100
AcDbEntity
  8
1
 62
     2
100
AcDbMText
 10
192.6315920997906
 20
346.6584958667872
 30
0.0
 40
1.8
 41
0.0
 71
     1
 72
     1
  1
scale
  7
CONVERTER_11
 73
     1
 44
1.20048019207683
  0
MTEXT
  5
25A
330
71
100
AcDbEntity
  8
1
 62
     2
100
AcDbMText
 10
108.4051958547179
 20
338.1584958667872
 30
0.0
 40
1.8
 41
0.0
 71
     1
 72
     1
  1
ident.-No.
  7
CONVERTER_11
 73
     1
 44
1.20048019207683
  0
TEXT
  5
25B
330
71
100
AcDbEntity
  8
1
 62
     7
100
AcDbText
 10
108.8051958547176
 20
331.9584958667871
 30
0.0
 40
2.5
  1
3030815
 41
0.81
  7
CONVERTER_12
100
AcDbText
  0
MTEXT
  5
25C
330
71
100
AcDbEntity
  8
1
 62
     2
100
AcDbMText
 10
36.46718112967034
 20
334.9084958667871
 30
0.0
 40
2.0
 41
0.0
 71
     5
 72
     1
  1
General Information\P- Simplified representation\P- Document excluded from change process\P- Linear dimensions [mm]
  7
CONVERTER_11
 73
     1
 44
1.20048019207683
  0
MTEXT
  5
25D
330
71
100
AcDbEntity
  8
1
 62
     7
100
AcDbMText
 10
202.9500003814669
 20
397.1584958667892
 30
0.0
 40
3.5
 41
0.0
 71
     5
 72
     1
  1
C
  7
CONVERTER_11
 73
     1
 44
1.20048019207683
  0
MTEXT
  5
25E
330
71
100
AcDbEntity
  8
1
 62
     7
100
AcDbMText
 10
202.9500003814669
 20
499.6584958667872
 30
0.0
 40
3.5
 41
0.0
 71
     5
 72
     1
  1
A
  7
CONVERTER_11
 73
     1
 44
1.20048019207683
  0
MTEXT
  5
25F
330
71
100
AcDbEntity
  8
1
 62
     7
100
AcDbMText
 10
202.9500003814669
 20
447.1584958667892
 30
0.0
 40
3.5
 41
0.0
 71
     5
 72
     1
  1
B
  7
CONVERTER_11
 73
     1
 44
1.20048019207683
  0
MTEXT
  5
260
330
71
100
AcDbEntity
  8
1
 62
     7
100
AcDbMText
 10
202.9500003814669
 20
344.6584958667872
 30
0.0
 40
3.5
 41
0.0
 71
     5
 72
     1
  1
D
  7
CONVERTER_11
 73
     1
 44
1.20048019207683
  0
MTEXT
  5
261
330
71
100
AcDbEntity
  8
1
 62
     7
100
AcDbMText
 10
-67.29999961853173
 20
319.6584958667871
 30
0.0
 40
3.5
 41
0.0
 71
     5
 72
     1
  1
1
  7
CONVERTER_11
 73
     1
 44
1.20048019207683
  0
MTEXT
  5
262
330
71
100
AcDbEntity
  8
1
 62
     7
100
AcDbMText
 10
-18.04999961853213
 20
319.6584958667871
 30
0.0
 40
3.5
 41
0.0
 71
     5
 72
     1
  1
2
  7
CONVERTER_11
 73
     1
 44
1.20048019207683
  0
MTEXT
  5
263
330
71
100
AcDbEntity
  8
1
 62
     7
100
AcDbMText
 10
31.95000038146787
 20
319.6584958667871
 30
0.0
 40
3.5
 41
0.0
 71
     5
 72
     1
  1
3
  7
CONVERTER_11
 73
     1
 44
1.20048019207683
  0
MTEXT
  5
264
330
71
100
AcDbEntity
  8
1
 62
     7
100
AcDbMText
 10
81.95000038146776
 20
319.6584958667871
 30
0.0
 40
3.5
 41
0.0
 71
     5
 72
     1
  1
4
  7
CONVERTER_11
 73
     1
 44
1.20048019207683
  0
MTEXT
  5
265
330
71
100
AcDbEntity
  8
1
 62
     7
100
AcDbMText
 10
131.9500003814679
 20
319.6584958667871
 30
0.0
 40
3.5
 41
0.0
 71
     5
 72
     1
  1
5
  7
CONVERTER_11
 73
     1
 44
1.20048019207683
  0
MTEXT
  5
266
330
71
100
AcDbEntity
  8
1
 62
     7
100
AcDbMText
 10
181.2000003814671
 20
319.6584958667871
 30
0.0
 40
3.5
 41
0.0
 71
     5
 72
     1
  1
6
  7
CONVERTER_11
 73
     1
 44
1.20048019207683
  0
MTEXT
  5
267
330
71
100
AcDbEntity
  8
1
 62
     7
100
AcDbMText
 10
-89.04999961853122
 20
499.6584958667872
 30
0.0
 40
3.5
 41
0.0
 71
     5
 72
     1
  1
A
  7
CONVERTER_11
 73
     1
 44
1.20048019207683
  0
MTEXT
  5
268
330
71
100
AcDbEntity
  8
1
 62
     7
100
AcDbMText
 10
-89.04999961853122
 20
447.1584958667872
 30
0.0
 40
3.5
 41
0.0
 71
     5
 72
     1
  1
B
  7
CONVERTER_11
 73
     1
 44
1.20048019207683
  0
MTEXT
  5
269
330
71
100
AcDbEntity
  8
1
 62
     7
100
AcDbMText
 10
-89.04999961853122
 20
397.1584958667872
 30
0.0
 40
3.5
 41
0.0
 71
     5
 72
     1
  1
C
  7
CONVERTER_11
 73
     1
 44
1.20048019207683
  0
MTEXT
  5
26A
330
71
100
AcDbEntity
  8
1
 62
     7
100
AcDbMText
 10
-89.04999961853122
 20
344.6584958667872
 30
0.0
 40
3.5
 41
0.0
 71
     5
 72
     1
  1
D
  7
CONVERTER_11
 73
     1
 44
1.20048019207683
  0
MTEXT
  5
26B
330
71
100
AcDbEntity
  8
1
 62
     3
100
AcDbMText
 10
97.10519585471775
 20
343.2834958667872
 30
0.0
 40
2.5
 41
0.0
 71
     5
 72
     1
  1
DIN A4
  7
CONVERTER_11
 73
     1
 44
1.20048019207683
  0
MTEXT
  5
26C
330
71
100
AcDbEntity
  8
1
 62
     2
100
AcDbMText
 10
108.3051958547178
 20
329.6584958667872
 30
0.0
 40
1.8
 41
0.0
 71
     1
 72
     1
  1
description
  7
CONVERTER_11
 73
     1
 44
1.20048019207683
  0
MTEXT
  5
26D
330
71
100
AcDbEntity
  8
1
 62
     7
100
AcDbMText
 10
153.8775981180934
 20
325.4084958667875
 30
0.0
 40
3.0
 41
0.0
 71
     5
 72
     1
  1
ATP-ST QUATTRO
  7
CONVERTER_12
 73
     1
 44
1.20048019207683
  0
TEXT
  5
26E
330
71
100
AcDbEntity
  8
1
 62
     2
100
AcDbText
 10
95.34050466453135
 20
323.4084958667871
 30
0.0
 40
1.8
  1
1
 41
0.9
  7
CONVERTER_11
100
AcDbText
  0
TEXT
  5
26F
330
71
100
AcDbEntity
  8
1
 62
     2
100
AcDbText
 10
80.55146082505985
 20
323.3592472129852
 30
0.0
 40
1.8
  1
1
 41
0.9
  7
CONVERTER_11
100
AcDbText
  0
TEXT
  5
270
330
71
100
AcDbEntity
  8
1
 62
     2
100
AcDbText
 10
71.90519585471785
 20
323.3994786517956
 30
0.0
 40
1.8
  1
page
 41
0.9
  7
CONVERTER_11
100
AcDbText
  0
TEXT
  5
271
330
71
100
AcDbEntity
  8
1
 62
     2
100
AcDbText
 10
90.10519585471766
 20
323.3994786517956
 30
0.0
 40
1.8
  1
of
 41
0.9
  7
CONVERTER_11
100
AcDbText
  0
MTEXT
  5
272
330
71
100
AcDbEntity
  8
1
 62
     3
100
AcDbMText
 10
96.30817800632775
 20
508.949804022086
 30
0.0
 40
1.8
 41
0.0
 71
     7
 72
     1
  3
Transfer or duplication of this document as well as the utilisation or\Pcommunication of its content are not permitted unless express consent\Pis granted. Violations give rise to claims for damages. All rights reserved\Pin case of patent, utility mo
  1
del or design patent registrations.
  7
CONVERTER_11
 73
     1
 44
0.99639855942377
  0
MTEXT
  5
273
330
71
100
AcDbEntity
  8
1
 62
     3
100
AcDbMText
 10
-86.54493183246035
 20
508.949804022086
 30
0.0
 40
1.8
 41
0.0
 71
     7
 72
     1
  3
Weitergabe sowie Vervielf\U+00e4ltigung dieses Dokuments, Verwertung und \PMitteilung seines Inhalts sind verboten, soweit nicht ausdr\U+00fccklich gestattet. \PZuwiderhandlungen verpflichten zu Schadenersatz. Alle Rechte f\U+00fcr den Fall\Pder Pat
  1
ent-, Gebrauchsmuster- oder Designeintragung vorbehalten.
  7
CONVERTER_11
 73
     1
 44
0.99639855942377
  0
HATCH
  5
274
330
71
100
AcDbEntity
  8
1
  6
Continuous
 62
     2
100
AcDbHatch
 10
0.0
 20
0.0
 30
0.0
210
0.0
220
0.0
230
1.0
  2
_USER
 70
     0
 71
     1
 91
        1
 92
        1
 93
       14
 72
     2
 10
83.14642513064055
 20
330.9789006287089
 40
1.205656168390914
 50
164.9381082228817
 51
195.0618917770948
 73
     1
 72
     2
 10
83.56555297410335
 20
331.0916909907436
 40
1.63969512393935
 50
195.0618917770848
 51
275.1581447696396
 73
     1
 72
     2
 10
83.27669687936745
 20
334.2915815739652
 40
4.85259686349811
 50
275.158144769625
 51
285.979991258353
 73
     1
 72
     1
 10
84.61262479648525
 20
329.6264992681644
 11
84.61262479648525
 21
330.4990162749676
 72
     2
 10
83.43456975446037
 20
332.3893669941175
 40
2.227384008972764
 50
58.06909105004111
 51
71.55192388186742
 73
     0
 72
     2
 10
83.85273748812116
 20
331.1358212180803
 40
0.9059297849848149
 50
71.55192388184209
 51
113.3722778881318
 73
     0
 72
     2
 10
83.69629745541914
 20
330.7738291993703
 40
0.5115800601948034
 50
113.3722778881777
 51
151.4785267423044
 73
     0
 72
     2
 10
84.07365471349945
 20
330.9789006287089
 40
0.9410597353332545
 50
151.4785267422882
 51
208.5214732577331
 73
     0
 72
     2
 10
83.69629745541914
 20
331.1839720580479
 40
0.5115800601947474
 50
208.5214732576956
 51
246.6277221117946
 73
     0
 72
     2
 10
83.85273748812116
 20
330.8219800393372
 40
0.9059297849853768
 50
246.627722111871
 51
288.4480761181454
 73
     0
 72
     2
 10
83.43456975446037
 20
329.5684342633007
 40
2.227384008973405
 50
288.448076118133
 51
301.9309089499604
 73
     0
 72
     1
 10
84.61262479648525
 20
331.4587849824505
 11
84.61262479648525
 21
332.3313019892538
 72
     2
 10
83.27669687936745
 20
327.6662196834529
 40
4.852596863498095
 50
74.02000874164747
 51
84.8418552303752
 73
     1
 72
     2
 10
83.56555297410335
 20
330.8661102666739
 40
1.63969512394062
 50
84.84185523036271
 51
164.9381082228864
 73
     1
 97
       14
330
249
330
162
330
218
330
248
330
219
330
21A
330
247
330
246
330
245
330
163
330
21B
330
21C
330
21D
330
21E
 75
     1
 76
     0
 52
45.0
 41
0.1
 77
     0
 78
     1
 53
45.0
 43
0.0
 44
0.0
 45
-0.0707106781186548
 46
0.0707106781186548
 79
     0
 98
        1
 10
0.0
 20
0.0
  0
HATCH
  5
275
330
71
100
AcDbEntity
  8
1
  6
Continuous
 62
     2
100
AcDbHatch
 10
0.0
 20
0.0
 30
0.0
210
0.0
220
0.0
230
1.0
  2
_USER
 70
     0
 71
     1
 91
        1
 92
        1
 93
       14
 72
     2
 10
83.14642513064055
 20
330.9789006287089
 40
1.205656168390914
 50
164.9381082228817
 51
195.0618917770948
 73
     1
 72
     2
 10
83.56555297410335
 20
331.0916909907436
 40
1.63969512393935
 50
195.0618917770848
 51
275.1581447696396
 73
     1
 72
     2
 10
83.27669687936745
 20
334.2915815739652
 40
4.85259686349811
 50
275.158144769625
 51
285.979991258353
 73
     1
 72
     1
 10
84.61262479648525
 20
329.6264992681644
 11
84.61262479648525
 21
330.4990162749676
 72
     2
 10
83.43456975446037
 20
332.3893669941175
 40
2.227384008972764
 50
58.06909105004111
 51
71.55192388186742
 73
     0
 72
     2
 10
83.85273748812116
 20
331.1358212180803
 40
0.9059297849848149
 50
71.55192388184209
 51
113.3722778881318
 73
     0
 72
     2
 10
83.69629745541914
 20
330.7738291993703
 40
0.5115800601948034
 50
113.3722778881777
 51
151.4785267423044
 73
     0
 72
     2
 10
84.07365471349945
 20
330.9789006287089
 40
0.9410597353332545
 50
151.4785267422882
 51
208.5214732577331
 73
     0
 72
     2
 10
83.69629745541914
 20
331.1839720580479
 40
0.5115800601947474
 50
208.5214732576956
 51
246.6277221117946
 73
     0
 72
     2
 10
83.85273748812116
 20
330.8219800393372
 40
0.9059297849853768
 50
246.627722111871
 51
288.4480761181454
 73
     0
 72
     2
 10
83.43456975446037
 20
329.5684342633007
 40
2.227384008973405
 50
288.448076118133
 51
301.9309089499604
 73
     0
 72
     1
 10
84.61262479648525
 20
331.4587849824505
 11
84.61262479648525
 21
332.3313019892538
 72
     2
 10
83.27669687936745
 20
327.6662196834529
 40
4.852596863498095
 50
74.02000874164747
 51
84.8418552303752
 73
     1
 72
     2
 10
83.56555297410335
 20
330.8661102666739
 40
1.63969512394062
 50
84.84185523036271
 51
164.9381082228864
 73
     1
 97
       14
330
249
330
162
330
218
330
248
330
219
330
21A
330
247
330
246
330
245
330
163
330
21B
330
21C
330
21D
330
21E
 75
     1
 76
     0
 52
45.0
 41
0.1
 77
     0
 78
     1
 53
45.0
 43
0.0
 44
0.0
 45
-0.0707106781186548
 46
0.0707106781186548
 79
     0
 98
        1
 10
0.0
 20
0.0
  0
HATCH
  5
276
330
71
100
AcDbEntity
  8
1
  6
Continuous
 62
     2
100
AcDbHatch
 10
0.0
 20
0.0
 30
0.0
210
0.0
220
0.0
230
1.0
  2
_USER
 70
     0
 71
     1
 91
        1
 92
        1
 93
       18
 72
     2
 10
99.66825445335627
 20
330.8661102666739
 40
1.639695123940214
 50
90.0
 51
164.938108222895
 73
     1
 72
     2
 10
99.24912660989466
 20
330.9789006287089
 40
1.205656168392973
 50
164.938108222908
 51
195.0618917771024
 73
     1
 72
     2
 10
99.66825445335627
 20
331.0916909907436
 40
1.639695123940448
 50
195.0618917771012
 51
275.1581447696762
 73
     1
 72
     2
 10
99.37939835862045
 20
334.2915815739652
 40
4.852596863498825
 50
275.1581447696364
 51
285.9799912583391
 73
     1
 72
     1
 10
100.7153262757372
 20
329.6264992681638
 11
100.7153262757372
 21
330.4990162749672
 72
     2
 10
99.53727123371326
 20
332.3893669941169
 40
2.227384008972732
 50
58.06909105005928
 51
71.55192388186524
 73
     0
 72
     2
 10
99.95543896737516
 20
331.1358212180803
 40
0.9059297849851757
 50
71.55192388191455
 51
113.3722778881846
 73
     0
 72
     2
 10
99.79899893467206
 20
330.7738291993703
 40
0.5115800601959674
 50
113.3722778881601
 51
151.4785267423246
 73
     0
 72
     2
 10
100.1763561927535
 20
330.9789006287089
 40
0.9410597353348745
 50
151.4785267423321
 51
208.5214732576283
 73
     0
 72
     2
 10
99.79899893467206
 20
331.1839720580479
 40
0.5115800601944143
 50
208.5214732575636
 51
250.6628567805147
 73
     0
 72
     2
 10
99.94566893277576
 20
330.766017077665
 40
0.9545230068260935
 50
250.662856780568
 51
270.0
 73
     0
 72
     1
 10
99.94566893277576
 20
331.7205400844911
 11
101.0493082323439
 21
331.7205400844911
 72
     1
 10
101.0493082323439
 20
331.7205400844911
 11
101.0493082323439
 21
329.4519958668035
 72
     1
 10
101.0493082323439
 20
329.4519958668035
 11
102.2421009345116
 21
329.4519958668035
 72
     1
 10
102.2421009345116
 20
329.4519958668035
 11
102.2421009345116
 21
331.7205400844911
 72
     1
 10
102.2421009345116
 20
331.7205400844911
 11
103.053199971985
 21
331.7205400844911
 72
     1
 10
103.053199971985
 20
331.7205400844911
 11
103.053199971985
 21
332.5058053906146
 72
     1
 10
103.053199971985
 20
332.5058053906146
 11
99.66825445335627
 21
332.5058053906141
 97
       18
330
1C8
330
1C7
330
1C6
330
1C5
330
1CA
330
164
330
242
330
223
330
241
330
224
330
240
330
23F
330
165
330
23E
330
23D
330
225
330
226
330
1C9
 75
     1
 76
     0
 52
45.0
 41
0.1
 77
     0
 78
     1
 53
45.0
 43
0.0
 44
0.0
 45
-0.0707106781186548
 46
0.0707106781186548
 79
     0
 98
        1
 10
0.0
 20
0.0
  0
HATCH
  5
277
330
71
100
AcDbEntity
  8
1
  6
Continuous
 62
     2
100
AcDbHatch
 10
0.0
 20
0.0
 30
0.0
210
0.0
220
0.0
230
1.0
  2
_USER
 70
     0
 71
     1
 91
        1
 92
        1
 93
       18
 72
     2
 10
99.66825445335627
 20
330.8661102666739
 40
1.639695123940214
 50
90.0
 51
164.938108222895
 73
     1
 72
     2
 10
99.24912660989466
 20
330.9789006287089
 40
1.205656168392973
 50
164.938108222908
 51
195.0618917771024
 73
     1
 72
     2
 10
99.66825445335627
 20
331.0916909907436
 40
1.639695123940448
 50
195.0618917771012
 51
275.1581447696762
 73
     1
 72
     2
 10
99.37939835862045
 20
334.2915815739652
 40
4.852596863498825
 50
275.1581447696364
 51
285.9799912583391
 73
     1
 72
     1
 10
100.7153262757372
 20
329.6264992681638
 11
100.7153262757372
 21
330.4990162749672
 72
     2
 10
99.53727123371326
 20
332.3893669941169
 40
2.227384008972732
 50
58.06909105005928
 51
71.55192388186524
 73
     0
 72
     2
 10
99.95543896737516
 20
331.1358212180803
 40
0.9059297849851757
 50
71.55192388191455
 51
113.3722778881846
 73
     0
 72
     2
 10
99.79899893467206
 20
330.7738291993703
 40
0.5115800601959674
 50
113.3722778881601
 51
151.4785267423246
 73
     0
 72
     2
 10
100.1763561927535
 20
330.9789006287089
 40
0.9410597353348745
 50
151.4785267423321
 51
208.5214732576283
 73
     0
 72
     2
 10
99.79899893467206
 20
331.1839720580479
 40
0.5115800601944143
 50
208.5214732575636
 51
250.6628567805147
 73
     0
 72
     2
 10
99.94566893277576
 20
330.766017077665
 40
0.9545230068260935
 50
250.662856780568
 51
270.0
 73
     0
 72
     1
 10
99.94566893277576
 20
331.7205400844911
 11
101.0493082323439
 21
331.7205400844911
 72
     1
 10
101.0493082323439
 20
331.7205400844911
 11
101.0493082323439
 21
329.4519958668035
 72
     1
 10
101.0493082323439
 20
329.4519958668035
 11
102.2421009345116
 21
329.4519958668035
 72
     1
 10
102.2421009345116
 20
329.4519958668035
 11
102.2421009345116
 21
331.7205400844911
 72
     1
 10
102.2421009345116
 20
331.7205400844911
 11
103.053199971985
 21
331.7205400844911
 72
     1
 10
103.053199971985
 20
331.7205400844911
 11
103.053199971985
 21
332.5058053906146
 72
     1
 10
103.053199971985
 20
332.5058053906146
 11
99.66825445335627
 21
332.5058053906141
 97
       18
330
1C8
330
1C7
330
1C6
330
1C5
330
1CA
330
164
330
242
330
223
330
241
330
224
330
240
330
23F
330
165
330
23E
330
23D
330
225
330
226
330
1C9
 75
     1
 76
     0
 52
45.0
 41
0.1
 77
     0
 78
     1
 53
45.0
 43
0.0
 44
0.0
 45
-0.0707106781186548
 46
0.0707106781186548
 79
     0
 98
        1
 10
0.0
 20
0.0
  0
HATCH
  5
278
330
71
100
AcDbEntity
  8
1
  6
Continuous
 62
     2
100
AcDbHatch
 10
0.0
 20
0.0
 30
0.0
210
0.0
220
0.0
230
1.0
  2
_USER
 70
     0
 71
     1
 91
        4
 92
        1
 93
        8
 72
     2
 10
75.56609535666325
 20
335.440751251387
 40
0.424244615383941
 50
90.0
 51
180.0
 73
     1
 72
     1
 10
75.14185074128045
 20
335.440751251387
 11
75.14185074128045
 21
329.8762404821869
 72
     2
 10
75.56609535666325
 20
329.8762404821869
 40
0.4242446153828041
 50
180.0
 51
270.0
 73
     1
 72
     1
 10
75.56609535666325
 20
329.4519958668035
 11
81.03940744738006
 21
329.4519958668035
 72
     2
 10
81.03940744738006
 20
329.8762404821869
 40
0.4242446153834294
 50
270.0
 51
360.0
 73
     1
 72
     1
 10
81.46365206276394
 20
329.8762404821869
 11
81.46365206276394
 21
335.440751251387
 72
     2
 10
81.03940744738006
 20
335.440751251387
 40
0.4242446153838841
 50
0.0
 51
90.0
 73
     1
 72
     1
 10
81.03940744738006
 20
335.8649958667709
 11
75.56609535666325
 21
335.8649958667709
 97
        8
330
236
330
193
330
235
330
194
330
22C
330
191
330
237
330
192
 92
       16
 93
        1
 72
     2
 10
78.18568100718076
 20
333.1218690230315
 40
0.4709789327785074
 50
0.0
 51
360.0
 73
     1
 97
        1
330
24A
 92
       16
 93
        8
 72
     2
 10
78.20949602185357
 20
333.1218690230315
 40
0.9118481501443819
 50
295.3740086781787
 51
424.6259913218075
 73
     1
 72
     2
 10
78.73553871994145
 20
334.2310106229994
 40
0.315716923076792
 50
115.374008678343
 51
180.0
 73
     0
 72
     1
 10
78.41982179686465
 20
334.2310106229994
 11
78.41982179686465
 21
334.8365459115062
 72
     2
 10
78.73553871994145
 20
334.8365459115062
 40
0.3157169230759573
 50
180.0
 51
269.811032957454
 73
     0
 72
     2
 10
78.74115485525147
 20
333.133710963937
 40
2.018561131933266
 50
269.8110329575858
 51
450.1889670424142
 73
     0
 72
     2
 10
78.73553871994145
 20
331.4308760163681
 40
0.315716923076792
 50
90.1889670425458
 51
180.0
 73
     0
 72
     1
 10
78.41982179686465
 20
331.4308760163681
 11
78.41982179686465
 21
332.0127274230631
 72
     2
 10
78.73553871994145
 20
332.0127274230631
 40
0.3157169230765842
 50
180.0
 51
244.6259913216525
 73
     0
 97
        8
330
244
330
220
330
1CC
330
243
330
221
330
222
330
1CB
330
21F
 92
       16
 93
       12
 72
     1
 10
76.15999003340974
 20
330.1645514223604
 11
77.63582329441937
 21
330.1645514223604
 72
     2
 10
77.63582329441937
 20
330.4802683454371
 40
0.3157169230767067
 50
270.0
 51
360.0
 73
     1
 72
     1
 10
77.95154021749596
 20
330.4802683454371
 11
77.95154021749596
 21
332.0110392769688
 72
     2
 10
77.63582329441937
 20
332.0110392769688
 40
0.315716923076593
 50
0.0
 51
64.8055893514559
 73
     1
 72
     2
 10
78.15840774199435
 20
333.1218690230315
 40
0.9118975235576403
 50
115.1944106485138
 51
244.8055893514725
 73
     0
 72
     2
 10
77.63582329441937
 20
334.2326987690938
 40
0.3157169230762231
 50
295.1944106485309
 51
360.0
 73
     1
 72
     1
 10
77.95154021749596
 20
334.2326987690938
 11
77.95154021749596
 21
334.8367233881543
 72
     2
 10
77.63582329441937
 20
334.8367233881543
 40
0.315716923076593
 50
0.0
 51
90.0
 73
     1
 72
     1
 10
77.63582329441937
 20
335.1524403112304
 11
76.15999003340974
 21
335.1524403112304
 72
     2
 10
76.15999003340974
 20
334.8367233881543
 40
0.3157169230760815
 50
90.0
 51
180.0
 73
     1
 72
     1
 10
75.84427311033406
 20
334.8367233881543
 11
75.84427311033406
 21
330.4802683454371
 72
     2
 10
76.15999003340974
 20
330.4802683454371
 40
0.3157169230756836
 50
180.0
 51
270.0
 73
     1
 97
       12
330
198
330
229
330
197
330
23A
330
196
330
239
330
22A
330
22B
330
195
330
238
330
190
330
23B
 75
     1
 76
     0
 52
45.0
 41
0.1
 77
     0
 78
     1
 53
45.0
 43
0.0
 44
0.0
 45
-0.0707106781186548
 46
0.0707106781186548
 79
     0
 98
        1
 10
0.0
 20
0.0
  0
HATCH
  5
279
330
71
100
AcDbEntity
  8
1
  6
Continuous
 62
     2
100
AcDbHatch
 10
0.0
 20
0.0
 30
0.0
210
0.0
220
0.0
230
1.0
  2
_USER
 70
     0
 71
     1
 91
        4
 92
        1
 93
        8
 72
     2
 10
75.56609535666325
 20
335.440751251387
 40
0.424244615383941
 50
90.0
 51
180.0
 73
     1
 72
     1
 10
75.14185074128045
 20
335.440751251387
 11
75.14185074128045
 21
329.8762404821869
 72
     2
 10
75.56609535666325
 20
329.8762404821869
 40
0.4242446153828041
 50
180.0
 51
270.0
 73
     1
 72
     1
 10
75.56609535666325
 20
329.4519958668035
 11
81.03940744738006
 21
329.4519958668035
 72
     2
 10
81.03940744738006
 20
329.8762404821869
 40
0.4242446153834294
 50
270.0
 51
360.0
 73
     1
 72
     1
 10
81.46365206276394
 20
329.8762404821869
 11
81.46365206276394
 21
335.440751251387
 72
     2
 10
81.03940744738006
 20
335.440751251387
 40
0.4242446153838841
 50
0.0
 51
90.0
 73
     1
 72
     1
 10
81.03940744738006
 20
335.8649958667709
 11
75.56609535666325
 21
335.8649958667709
 97
        8
330
236
330
193
330
235
330
194
330
22C
330
191
330
237
330
192
 92
       16
 93
        1
 72
     2
 10
78.18568100718076
 20
333.1218690230315
 40
0.4709789327785074
 50
0.0
 51
360.0
 73
     1
 97
        1
330
24A
 92
       16
 93
        8
 72
     2
 10
78.20949602185357
 20
333.1218690230315
 40
0.9118481501443819
 50
295.3740086781787
 51
424.6259913218075
 73
     1
 72
     2
 10
78.73553871994145
 20
334.2310106229994
 40
0.315716923076792
 50
115.374008678343
 51
180.0
 73
     0
 72
     1
 10
78.41982179686465
 20
334.2310106229994
 11
78.41982179686465
 21
334.8365459115062
 72
     2
 10
78.73553871994145
 20
334.8365459115062
 40
0.3157169230759573
 50
180.0
 51
269.811032957454
 73
     0
 72
     2
 10
78.74115485525147
 20
333.133710963937
 40
2.018561131933266
 50
269.8110329575858
 51
450.1889670424142
 73
     0
 72
     2
 10
78.73553871994145
 20
331.4308760163681
 40
0.315716923076792
 50
90.1889670425458
 51
180.0
 73
     0
 72
     1
 10
78.41982179686465
 20
331.4308760163681
 11
78.41982179686465
 21
332.0127274230631
 72
     2
 10
78.73553871994145
 20
332.0127274230631
 40
0.3157169230765842
 50
180.0
 51
244.6259913216525
 73
     0
 97
        8
330
244
330
220
330
1CC
330
243
330
221
330
222
330
1CB
330
21F
 92
       16
 93
       12
 72
     1
 10
76.15999003340974
 20
330.1645514223604
 11
77.63582329441937
 21
330.1645514223604
 72
     2
 10
77.63582329441937
 20
330.4802683454371
 40
0.3157169230767067
 50
270.0
 51
360.0
 73
     1
 72
     1
 10
77.95154021749596
 20
330.4802683454371
 11
77.95154021749596
 21
332.0110392769688
 72
     2
 10
77.63582329441937
 20
332.0110392769688
 40
0.315716923076593
 50
0.0
 51
64.8055893514559
 73
     1
 72
     2
 10
78.15840774199435
 20
333.1218690230315
 40
0.9118975235576403
 50
115.1944106485138
 51
244.8055893514725
 73
     0
 72
     2
 10
77.63582329441937
 20
334.2326987690938
 40
0.3157169230762231
 50
295.1944106485309
 51
360.0
 73
     1
 72
     1
 10
77.95154021749596
 20
334.2326987690938
 11
77.95154021749596
 21
334.8367233881543
 72
     2
 10
77.63582329441937
 20
334.8367233881543
 40
0.315716923076593
 50
0.0
 51
90.0
 73
     1
 72
     1
 10
77.63582329441937
 20
335.1524403112304
 11
76.15999003340974
 21
335.1524403112304
 72
     2
 10
76.15999003340974
 20
334.8367233881543
 40
0.3157169230760815
 50
90.0
 51
180.0
 73
     1
 72
     1
 10
75.84427311033406
 20
334.8367233881543
 11
75.84427311033406
 21
330.4802683454371
 72
     2
 10
76.15999003340974
 20
330.4802683454371
 40
0.3157169230756836
 50
180.0
 51
270.0
 73
     1
 97
       12
330
198
330
229
330
197
330
23A
330
196
330
239
330
22A
330
22B
330
195
330
238
330
190
330
23B
 75
     1
 76
     0
 52
45.0
 41
0.1
 77
     0
 78
     1
 53
45.0
 43
0.0
 44
0.0
 45
-0.0707106781186548
 46
0.0707106781186548
 79
     0
 98
        1
 10
0.0
 20
0.0
  0
HATCH
  5
27A
330
71
100
AcDbEntity
  8
1
  6
Continuous
 62
     2
100
AcDbHatch
 10
0.0
 20
0.0
 30
0.0
210
0.0
220
0.0
230
1.0
  2
_USER
 70
     0
 71
     1
 91
        2
 92
        1
 93
       12
 72
     2
 10
90.24125936065255
 20
334.3380911048831
 40
1.526904761905996
 50
90.0
 51
270.0
 73
     1
 72
     1
 10
90.24125936065255
 20
332.8111863429779
 11
93.39157908443354
 21
332.8111863429779
 72
     1
 10
93.39157908443354
 20
332.8111863429779
 11
93.39157908443354
 21
333.5091999484204
 72
     1
 10
93.39157908443354
 20
333.5091999484204
 11
92.05565125800587
 21
333.5091999484204
 72
     1
 10
92.05565125800587
 20
333.5091999484204
 11
92.05565125800587
 21
333.989084302162
 72
     1
 10
92.05565125800587
 20
333.989084302162
 11
93.39157908443354
 21
333.989084302162
 72
     1
 10
93.39157908443354
 20
333.989084302162
 11
93.39157908443354
 21
334.6870979076043
 72
     1
 10
93.39157908443354
 20
334.6870979076043
 11
92.05565125800587
 21
334.6870979076043
 72
     1
 10
92.05565125800587
 20
334.6870979076043
 11
92.05565125800587
 21
335.1669822613461
 72
     1
 10
92.05565125800587
 20
335.1669822613461
 11
93.39157908443354
 21
335.1669822613461
 72
     1
 10
93.39157908443354
 20
335.1669822613461
 11
93.39157908443354
 21
335.8649958667891
 72
     1
 10
93.39157908443354
 20
335.8649958667891
 11
90.24125936065255
 21
335.8649958667891
 97
       12
330
187
330
181
330
1A8
330
1A7
330
1A6
330
1A5
330
182
330
183
330
184
330
185
330
227
330
186
 92
       16
 93
        4
 72
     2
 10
90.65727140716405
 20
334.3380911048831
 40
0.7717997786797426
 50
141.8795802028338
 51
218.1204197971562
 73
     1
 72
     2
 10
90.45753137081775
 20
334.1813599267628
 40
0.5179085730135072
 50
218.120419797161
 51
321.8795802028467
 73
     1
 72
     2
 10
90.25779133447156
 20
334.3380911048831
 40
0.7717997786796373
 50
321.8795802028437
 51
398.1204197971662
 73
     1
 72
     2
 10
90.45753137081775
 20
334.4948222830036
 40
0.5179085730135967
 50
38.12041979715324
 51
141.879580202839
 73
     1
 97
        4
330
234
330
233
330
22E
330
22D
 75
     1
 76
     0
 52
45.0
 41
0.1
 77
     0
 78
     1
 53
45.0
 43
0.0
 44
0.0
 45
-0.0707106781186548
 46
0.0707106781186548
 79
     0
 98
        1
 10
0.0
 20
0.0
  0
HATCH
  5
27B
330
71
100
AcDbEntity
  8
1
  6
Continuous
 62
     2
100
AcDbHatch
 10
0.0
 20
0.0
 30
0.0
210
0.0
220
0.0
230
1.0
  2
_USER
 70
     0
 71
     1
 91
        2
 92
        1
 93
       12
 72
     2
 10
90.24125936065255
 20
334.3380911048831
 40
1.526904761905996
 50
90.0
 51
270.0
 73
     1
 72
     1
 10
90.24125936065255
 20
332.8111863429779
 11
93.39157908443354
 21
332.8111863429779
 72
     1
 10
93.39157908443354
 20
332.8111863429779
 11
93.39157908443354
 21
333.5091999484204
 72
     1
 10
93.39157908443354
 20
333.5091999484204
 11
92.05565125800587
 21
333.5091999484204
 72
     1
 10
92.05565125800587
 20
333.5091999484204
 11
92.05565125800587
 21
333.989084302162
 72
     1
 10
92.05565125800587
 20
333.989084302162
 11
93.39157908443354
 21
333.989084302162
 72
     1
 10
93.39157908443354
 20
333.989084302162
 11
93.39157908443354
 21
334.6870979076043
 72
     1
 10
93.39157908443354
 20
334.6870979076043
 11
92.05565125800587
 21
334.6870979076043
 72
     1
 10
92.05565125800587
 20
334.6870979076043
 11
92.05565125800587
 21
335.1669822613461
 72
     1
 10
92.05565125800587
 20
335.1669822613461
 11
93.39157908443354
 21
335.1669822613461
 72
     1
 10
93.39157908443354
 20
335.1669822613461
 11
93.39157908443354
 21
335.8649958667891
 72
     1
 10
93.39157908443354
 20
335.8649958667891
 11
90.24125936065255
 21
335.8649958667891
 97
       12
330
187
330
181
330
1A8
330
1A7
330
1A6
330
1A5
330
182
330
183
330
184
330
185
330
227
330
186
 92
       16
 93
        4
 72
     2
 10
90.65727140716405
 20
334.3380911048831
 40
0.7717997786797426
 50
141.8795802028338
 51
218.1204197971562
 73
     1
 72
     2
 10
90.45753137081775
 20
334.1813599267628
 40
0.5179085730135072
 50
218.120419797161
 51
321.8795802028467
 73
     1
 72
     2
 10
90.25779133447156
 20
334.3380911048831
 40
0.7717997786796373
 50
321.8795802028437
 51
398.1204197971662
 73
     1
 72
     2
 10
90.45753137081775
 20
334.4948222830036
 40
0.5179085730135967
 50
38.12041979715324
 51
141.879580202839
 73
     1
 97
        4
330
234
330
233
330
22E
330
22D
 75
     1
 76
     0
 52
45.0
 41
0.1
 77
     0
 78
     1
 53
45.0
 43
0.0
 44
0.0
 45
-0.0707106781186548
 46
0.0707106781186548
 79
     0
 98
        1
 10
0.0
 20
0.0
  0
HATCH
  5
27C
330
71
100
AcDbEntity
  8
1
  6
Continuous
 62
     2
100
AcDbHatch
 10
0.0
 20
0.0
 30
0.0
210
0.0
220
0.0
230
1.0
  2
_USER
 70
     0
 71
     1
 91
        2
 92
        1
 93
        4
 72
     2
 10
86.21564399819096
 20
330.9789006287089
 40
1.458034083651415
 50
117.548148175664
 51
242.4518518243402
 73
     1
 72
     2
 10
86.49658389002425
 20
331.5174756390121
 40
2.065479772208534
 50
242.4518518243405
 51
297.5481481756867
 73
     1
 72
     2
 10
86.77752378185755
 20
330.9789006287089
 40
1.458034083652129
 50
297.5481481756985
 51
422.4518518242974
 73
     1
 72
     2
 10
86.49658389002425
 20
330.4403256184061
 40
2.065479772208492
 50
62.45185182430527
 51
117.5481481756675
 73
     1
 97
        4
330
232
330
22F
330
231
330
230
 92
       16
 93
        4
 72
     2
 10
86.49658389002425
 20
331.1356318068293
 40
0.5179085730133349
 50
38.12041979715197
 51
141.8795802028538
 73
     1
 72
     2
 10
86.69632392637035
 20
330.9789006287089
 40
0.7717997786794106
 50
141.8795802028413
 51
218.1204197971753
 73
     1
 72
     2
 10
86.49658389002425
 20
330.8221694505888
 40
0.5179085730137178
 50
218.1204197971907
 51
321.8795802028035
 73
     1
 72
     2
 10
86.29684385367784
 20
330.9789006287089
 40
0.7717997786797649
 50
321.8795802028351
 51
398.1204197971483
 73
     1
 97
        4
330
215
330
216
330
217
330
214
 75
     1
 76
     0
 52
45.0
 41
0.1
 77
     0
 78
     1
 53
45.0
 43
0.0
 44
0.0
 45
-0.0707106781186548
 46
0.0707106781186548
 79
     0
 98
        1
 10
0.0
 20
0.0
  0
HATCH
  5
27D
330
71
100
AcDbEntity
  8
1
  6
Continuous
 62
     2
100
AcDbHatch
 10
0.0
 20
0.0
 30
0.0
210
0.0
220
0.0
230
1.0
  2
_USER
 70
     0
 71
     1
 91
        2
 92
        1
 93
        4
 72
     2
 10
86.21564399819096
 20
330.9789006287089
 40
1.458034083651415
 50
117.548148175664
 51
242.4518518243402
 73
     1
 72
     2
 10
86.49658389002425
 20
331.5174756390121
 40
2.065479772208534
 50
242.4518518243405
 51
297.5481481756867
 73
     1
 72
     2
 10
86.77752378185755
 20
330.9789006287089
 40
1.458034083652129
 50
297.5481481756985
 51
422.4518518242974
 73
     1
 72
     2
 10
86.49658389002425
 20
330.4403256184061
 40
2.065479772208492
 50
62.45185182430527
 51
117.5481481756675
 73
     1
 97
        4
330
232
330
22F
330
231
330
230
 92
       16
 93
        4
 72
     2
 10
86.49658389002425
 20
331.1356318068293
 40
0.5179085730133349
 50
38.12041979715197
 51
141.8795802028538
 73
     1
 72
     2
 10
86.69632392637035
 20
330.9789006287089
 40
0.7717997786794106
 50
141.8795802028413
 51
218.1204197971753
 73
     1
 72
     2
 10
86.49658389002425
 20
330.8221694505888
 40
0.5179085730137178
 50
218.1204197971907
 51
321.8795802028035
 73
     1
 72
     2
 10
86.29684385367784
 20
330.9789006287089
 40
0.7717997786797649
 50
321.8795802028351
 51
398.1204197971483
 73
     1
 97
        4
330
215
330
216
330
217
330
214
 75
     1
 76
     0
 52
45.0
 41
0.1
 77
     0
 78
     1
 53
45.0
 43
0.0
 44
0.0
 45
-0.0707106781186548
 46
0.0707106781186548
 79
     0
 98
        1
 10
0.0
 20
0.0
  0
HATCH
  5
27E
330
71
100
AcDbEntity
  8
1
  6
Continuous
 62
     2
100
AcDbHatch
 10
0.0
 20
0.0
 30
0.0
210
0.0
220
0.0
230
1.0
  2
_USER
 70
     0
 71
     1
 91
        2
 92
        1
 93
        6
 72
     1
 10
81.94076914363075
 20
335.8649958667891
 11
81.94076914363075
 21
332.8111863429779
 72
     1
 10
81.94076914363075
 20
332.8111863429779
 11
83.18127355388486
 21
332.8111863429779
 72
     1
 10
83.18127355388486
 20
332.8111863429779
 11
83.18127355388486
 21
333.7542645841216
 72
     1
 10
83.18127355388486
 20
333.7542645841216
 11
83.94004114166515
 21
333.7542645841216
 72
     2
 10
83.94004114166515
 20
334.8096302254554
 40
1.055365641333822
 50
270.0
 51
450.0
 73
     1
 72
     1
 10
83.94004114166515
 20
335.8649958667891
 11
81.94076914363075
 21
335.8649958667891
 97
        6
330
23C
330
199
330
18F
330
18E
330
19B
330
19A
 92
       16
 93
        4
 72
     1
 10
83.49856861542676
 20
335.201890021349
 11
83.18127355388486
 21
335.201890021349
 72
     1
 10
83.18127355388486
 20
335.201890021349
 11
83.18127355388486
 21
334.4961623720067
 72
     1
 10
83.18127355388486
 20
334.4961623720067
 11
83.49856861542676
 21
334.4961623720067
 72
     2
 10
83.49856861542676
 20
334.8490261966779
 40
0.3528638246712035
 50
270.0
 51
450.0
 73
     1
 97
        4
330
19C
330
18D
330
19D
330
228
 75
     1
 76
     0
 52
45.0
 41
0.1
 77
     0
 78
     1
 53
45.0
 43
0.0
 44
0.0
 45
-0.0707106781186548
 46
0.0707106781186548
 79
     0
 98
        1
 10
0.0
 20
0.0
  0
HATCH
  5
27F
330
71
100
AcDbEntity
  8
1
  6
Continuous
 62
     2
100
AcDbHatch
 10
0.0
 20
0.0
 30
0.0
210
0.0
220
0.0
230
1.0
  2
_USER
 70
     0
 71
     1
 91
        2
 92
        1
 93
        6
 72
     1
 10
81.94076914363075
 20
335.8649958667891
 11
81.94076914363075
 21
332.8111863429779
 72
     1
 10
81.94076914363075
 20
332.8111863429779
 11
83.18127355388486
 21
332.8111863429779
 72
     1
 10
83.18127355388486
 20
332.8111863429779
 11
83.18127355388486
 21
333.7542645841216
 72
     1
 10
83.18127355388486
 20
333.7542645841216
 11
83.94004114166515
 21
333.7542645841216
 72
     2
 10
83.94004114166515
 20
334.8096302254554
 40
1.055365641333822
 50
270.0
 51
450.0
 73
     1
 72
     1
 10
83.94004114166515
 20
335.8649958667891
 11
81.94076914363075
 21
335.8649958667891
 97
        6
330
23C
330
199
330
18F
330
18E
330
19B
330
19A
 92
       16
 93
        4
 72
     1
 10
83.49856861542676
 20
335.201890021349
 11
83.18127355388486
 21
335.201890021349
 72
     1
 10
83.18127355388486
 20
335.201890021349
 11
83.18127355388486
 21
334.4961623720067
 72
     1
 10
83.18127355388486
 20
334.4961623720067
 11
83.49856861542676
 21
334.4961623720067
 72
     2
 10
83.49856861542676
 20
334.8490261966779
 40
0.3528638246712035
 50
270.0
 51
450.0
 73
     1
 97
        4
330
19C
330
18D
330
19D
330
228
 75
     1
 76
     0
 52
45.0
 41
0.1
 77
     0
 78
     1
 53
45.0
 43
0.0
 44
0.0
 45
-0.0707106781186548
 46
0.0707106781186548
 79
     0
 98
        1
 10
0.0
 20
0.0
  0
HATCH
  5
280
330
71
100
AcDbEntity
  8
1
  6
Continuous
 62
     2
100
AcDbHatch
 10
0.0
 20
0.0
 30
0.0
210
0.0
220
0.0
230
1.0
  2
_USER
 70
     0
 71
     1
 91
        1
 92
        1
 93
       12
 72
     1
 10
101.5550523380639
 20
335.8649958667891
 11
102.9577765558112
 21
335.8649958667891
 72
     1
 10
102.9577765558112
 20
335.8649958667891
 11
101.6552469250447
 21
334.3920453367529
 72
     1
 10
101.6552469250447
 20
334.3920453367529
 11
103.053199971985
 21
332.8111863429779
 72
     1
 10
103.053199971985
 20
332.8111863429779
 11
101.6504757542367
 21
332.8111863429779
 72
     1
 10
101.6504757542367
 20
332.8111863429779
 11
100.9538848161712
 21
333.5989181282715
 72
     1
 10
100.9538848161712
 20
333.5989181282715
 11
100.2572938781055
 21
332.8111863429779
 72
     1
 10
100.2572938781055
 20
332.8111863429779
 11
98.85456966035724
 21
332.8111863429779
 72
     1
 10
98.85456966035724
 20
332.8111863429779
 11
100.2525227072975
 21
334.3920453367529
 72
     1
 10
100.2525227072975
 20
334.3920453367529
 11
98.94999307653006
 21
335.8649958667891
 72
     1
 10
98.94999307653006
 20
335.8649958667891
 11
100.3527172942794
 21
335.8649958667891
 72
     1
 10
100.3527172942794
 20
335.8649958667891
 11
100.9538848161712
 21
335.1851725452335
 72
     1
 10
100.9538848161712
 20
335.1851725452335
 11
101.5550523380639
 21
335.8649958667891
 97
       12
330
168
330
1C1
330
1C0
330
1BF
330
1BE
330
169
330
16A
330
166
330
167
330
1C4
330
1C3
330
1C2
 75
     1
 76
     0
 52
45.0
 41
0.1
 77
     0
 78
     1
 53
45.0
 43
0.0
 44
0.0
 45
-0.0707106781186548
 46
0.0707106781186548
 79
     0
 98
        1
 10
0.0
 20
0.0
  0
HATCH
  5
281
330
71
100
AcDbEntity
  8
1
  6
Continuous
 62
     2
100
AcDbHatch
 10
0.0
 20
0.0
 30
0.0
210
0.0
220
0.0
230
1.0
  2
_USER
 70
     0
 71
     1
 91
        1
 92
        1
 93
       12
 72
     1
 10
101.5550523380639
 20
335.8649958667891
 11
102.9577765558112
 21
335.8649958667891
 72
     1
 10
102.9577765558112
 20
335.8649958667891
 11
101.6552469250447
 21
334.3920453367529
 72
     1
 10
101.6552469250447
 20
334.3920453367529
 11
103.053199971985
 21
332.8111863429779
 72
     1
 10
103.053199971985
 20
332.8111863429779
 11
101.6504757542367
 21
332.8111863429779
 72
     1
 10
101.6504757542367
 20
332.8111863429779
 11
100.9538848161712
 21
333.5989181282715
 72
     1
 10
100.9538848161712
 20
333.5989181282715
 11
100.2572938781055
 21
332.8111863429779
 72
     1
 10
100.2572938781055
 20
332.8111863429779
 11
98.85456966035724
 21
332.8111863429779
 72
     1
 10
98.85456966035724
 20
332.8111863429779
 11
100.2525227072975
 21
334.3920453367529
 72
     1
 10
100.2525227072975
 20
334.3920453367529
 11
98.94999307653006
 21
335.8649958667891
 72
     1
 10
98.94999307653006
 20
335.8649958667891
 11
100.3527172942794
 21
335.8649958667891
 72
     1
 10
100.3527172942794
 20
335.8649958667891
 11
100.9538848161712
 21
335.1851725452335
 72
     1
 10
100.9538848161712
 20
335.1851725452335
 11
101.5550523380639
 21
335.8649958667891
 97
       12
330
168
330
1C1
330
1C0
330
1BF
330
1BE
330
169
330
16A
330
166
330
167
330
1C4
330
1C3
330
1C2
 75
     1
 76
     0
 52
45.0
 41
0.1
 77
     0
 78
     1
 53
45.0
 43
0.0
 44
0.0
 45
-0.0707106781186548
 46
0.0707106781186548
 79
     0
 98
        1
 10
0.0
 20
0.0
  0
HATCH
  5
282
330
71
100
AcDbEntity
  8
1
  6
Continuous
 62
     2
100
AcDbHatch
 10
0.0
 20
0.0
 30
0.0
210
0.0
220
0.0
230
1.0
  2
_USER
 70
     0
 71
     1
 91
        1
 92
        1
 93
        4
 72
     1
 10
98.73529039014036
 20
335.8649958667891
 11
98.73529039014036
 21
332.8111863429779
 72
     1
 10
98.73529039014036
 20
332.8111863429779
 11
97.49478597988747
 21
332.8111863429779
 72
     1
 10
97.49478597988747
 20
332.8111863429779
 11
97.49478597988747
 21
335.8649958667891
 72
     1
 10
97.49478597988747
 20
335.8649958667891
 11
98.73529039014036
 21
335.8649958667891
 97
        4
330
1BC
330
16B
330
1BB
330
1BD
 75
     1
 76
     0
 52
45.0
 41
0.1
 77
     0
 78
     1
 53
45.0
 43
0.0
 44
0.0
 45
-0.0707106781186548
 46
0.0707106781186548
 79
     0
 98
        1
 10
0.0
 20
0.0
  0
HATCH
  5
283
330
71
100
AcDbEntity
  8
1
  6
Continuous
 62
     2
100
AcDbHatch
 10
0.0
 20
0.0
 30
0.0
210
0.0
220
0.0
230
1.0
  2
_USER
 70
     0
 71
     1
 91
        1
 92
        1
 93
        4
 72
     1
 10
98.73529039014036
 20
335.8649958667891
 11
98.73529039014036
 21
332.8111863429779
 72
     1
 10
98.73529039014036
 20
332.8111863429779
 11
97.49478597988747
 21
332.8111863429779
 72
     1
 10
97.49478597988747
 20
332.8111863429779
 11
97.49478597988747
 21
335.8649958667891
 72
     1
 10
97.49478597988747
 20
335.8649958667891
 11
98.73529039014036
 21
335.8649958667891
 97
        4
330
1BC
330
16B
330
1BB
330
1BD
 75
     1
 76
     0
 52
45.0
 41
0.1
 77
     0
 78
     1
 53
45.0
 43
0.0
 44
0.0
 45
-0.0707106781186548
 46
0.0707106781186548
 79
     0
 98
        1
 10
0.0
 20
0.0
  0
HATCH
  5
284
330
71
100
AcDbEntity
  8
1
  6
Continuous
 62
     2
100
AcDbHatch
 10
0.0
 20
0.0
 30
0.0
210
0.0
220
0.0
230
1.0
  2
_USER
 70
     0
 71
     1
 91
        2
 92
        1
 93
        8
 72
     1
 10
98.34484638660837
 20
329.4519958668035
 11
97.10434197635445
 21
329.4519958668035
 72
     1
 10
97.10434197635445
 20
329.4519958668035
 11
96.89286192287867
 21
329.9929564110214
 72
     1
 10
96.89286192287867
 20
329.9929564110214
 11
95.76042034620485
 21
329.9929564110214
 72
     1
 10
95.76042034620485
 20
329.9929564110214
 11
95.54894029272904
 21
329.4519958668035
 72
     1
 10
95.54894029272904
 20
329.4519958668035
 11
94.30843588247606
 21
329.4519958668035
 72
     1
 10
94.30843588247606
 20
329.4519958668035
 11
95.70638892941537
 21
332.5058053906146
 72
     1
 10
95.70638892941537
 20
332.5058053906146
 11
96.94689333966807
 21
332.5058053906146
 72
     1
 10
96.94689333966807
 20
332.5058053906146
 11
98.34484638660837
 21
329.4519958668035
 97
        8
330
1B7
330
171
330
1B6
330
1B9
330
16E
330
1B8
330
16F
330
170
 92
       16
 93
        3
 72
     1
 10
96.02647589734985
 20
330.6735196763281
 11
96.62680637173236
 21
330.6735196763281
 72
     1
 10
96.62680637173236
 20
330.6735196763281
 11
96.32664113454226
 21
331.4413346423147
 72
     1
 10
96.32664113454226
 20
331.4413346423147
 11
96.02647589734985
 21
330.6735196763281
 97
        3
330
16D
330
16C
330
1BA
 75
     1
 76
     0
 52
45.0
 41
0.1
 77
     0
 78
     1
 53
45.0
 43
0.0
 44
0.0
 45
-0.0707106781186548
 46
0.0707106781186548
 79
     0
 98
        1
 10
0.0
 20
0.0
  0
HATCH
  5
285
330
71
100
AcDbEntity
  8
1
  6
Continuous
 62
     2
100
AcDbHatch
 10
0.0
 20
0.0
 30
0.0
210
0.0
220
0.0
230
1.0
  2
_USER
 70
     0
 71
     1
 91
        2
 92
        1
 93
        8
 72
     1
 10
98.34484638660837
 20
329.4519958668035
 11
97.10434197635445
 21
329.4519958668035
 72
     1
 10
97.10434197635445
 20
329.4519958668035
 11
96.89286192287867
 21
329.9929564110214
 72
     1
 10
96.89286192287867
 20
329.9929564110214
 11
95.76042034620485
 21
329.9929564110214
 72
     1
 10
95.76042034620485
 20
329.9929564110214
 11
95.54894029272904
 21
329.4519958668035
 72
     1
 10
95.54894029272904
 20
329.4519958668035
 11
94.30843588247606
 21
329.4519958668035
 72
     1
 10
94.30843588247606
 20
329.4519958668035
 11
95.70638892941537
 21
332.5058053906146
 72
     1
 10
95.70638892941537
 20
332.5058053906146
 11
96.94689333966807
 21
332.5058053906146
 72
     1
 10
96.94689333966807
 20
332.5058053906146
 11
98.34484638660837
 21
329.4519958668035
 97
        8
330
1B7
330
171
330
1B6
330
1B9
330
16E
330
1B8
330
16F
330
170
 92
       16
 93
        3
 72
     1
 10
96.02647589734985
 20
330.6735196763281
 11
96.62680637173236
 21
330.6735196763281
 72
     1
 10
96.62680637173236
 20
330.6735196763281
 11
96.32664113454226
 21
331.4413346423147
 72
     1
 10
96.32664113454226
 20
331.4413346423147
 11
96.02647589734985
 21
330.6735196763281
 97
        3
330
16D
330
16C
330
1BA
 75
     1
 76
     0
 52
45.0
 41
0.1
 77
     0
 78
     1
 53
45.0
 43
0.0
 44
0.0
 45
-0.0707106781186548
 46
0.0707106781186548
 79
     0
 98
        1
 10
0.0
 20
0.0
  0
HATCH
  5
286
330
71
100
AcDbEntity
  8
1
  6
Continuous
 62
     2
100
AcDbHatch
 10
0.0
 20
0.0
 30
0.0
210
0.0
220
0.0
230
1.0
  2
_USER
 70
     0
 71
     1
 91
        1
 92
        1
 93
        8
 72
     1
 10
92.15092374329384
 20
332.5058053906146
 11
92.15092374329384
 21
331.7205400844911
 72
     1
 10
92.15092374329384
 20
331.7205400844911
 11
92.96202278076845
 21
331.7205400844911
 72
     1
 10
92.96202278076845
 20
331.7205400844911
 11
92.96202278076845
 21
329.4519958668035
 72
     1
 10
92.96202278076845
 20
329.4519958668035
 11
94.15481548293496
 21
329.4519958668035
 72
     1
 10
94.15481548293496
 20
329.4519958668035
 11
94.15481548293496
 21
331.7205400844911
 72
     1
 10
94.15481548293496
 20
331.7205400844911
 11
94.96591452040747
 21
331.7205400844911
 72
     1
 10
94.96591452040747
 20
331.7205400844911
 11
94.96591452040747
 21
332.5058053906146
 72
     1
 10
94.96591452040747
 20
332.5058053906146
 11
92.15092374329384
 21
332.5058053906146
 97
        8
330
1B3
330
1B2
330
1B1
330
172
330
173
330
1B5
330
174
330
1B4
 75
     1
 76
     0
 52
45.0
 41
0.1
 77
     0
 78
     1
 53
45.0
 43
0.0
 44
0.0
 45
-0.0707106781186548
 46
0.0707106781186548
 79
     0
 98
        1
 10
0.0
 20
0.0
  0
HATCH
  5
287
330
71
100
AcDbEntity
  8
1
  6
Continuous
 62
     2
100
AcDbHatch
 10
0.0
 20
0.0
 30
0.0
210
0.0
220
0.0
230
1.0
  2
_USER
 70
     0
 71
     1
 91
        1
 92
        1
 93
        8
 72
     1
 10
92.15092374329384
 20
332.5058053906146
 11
92.15092374329384
 21
331.7205400844911
 72
     1
 10
92.15092374329384
 20
331.7205400844911
 11
92.96202278076845
 21
331.7205400844911
 72
     1
 10
92.96202278076845
 20
331.7205400844911
 11
92.96202278076845
 21
329.4519958668035
 72
     1
 10
92.96202278076845
 20
329.4519958668035
 11
94.15481548293496
 21
329.4519958668035
 72
     1
 10
94.15481548293496
 20
329.4519958668035
 11
94.15481548293496
 21
331.7205400844911
 72
     1
 10
94.15481548293496
 20
331.7205400844911
 11
94.96591452040747
 21
331.7205400844911
 72
     1
 10
94.96591452040747
 20
331.7205400844911
 11
94.96591452040747
 21
332.5058053906146
 72
     1
 10
94.96591452040747
 20
332.5058053906146
 11
92.15092374329384
 21
332.5058053906146
 97
        8
330
1B3
330
1B2
330
1B1
330
172
330
173
330
1B5
330
174
330
1B4
 75
     1
 76
     0
 52
45.0
 41
0.1
 77
     0
 78
     1
 53
45.0
 43
0.0
 44
0.0
 45
-0.0707106781186548
 46
0.0707106781186548
 79
     0
 98
        1
 10
0.0
 20
0.0
  0
HATCH
  5
288
330
71
100
AcDbEntity
  8
1
  6
Continuous
 62
     2
100
AcDbHatch
 10
0.0
 20
0.0
 30
0.0
210
0.0
220
0.0
230
1.0
  2
_USER
 70
     0
 71
     1
 91
        1
 92
        1
 93
       10
 72
     1
 10
94.82293032703296
 20
335.8649958667891
 11
93.63013762486645
 21
335.8649958667891
 72
     1
 10
93.63013762486645
 20
335.8649958667891
 11
93.63013762486645
 21
332.8111863429779
 72
     1
 10
93.63013762486645
 20
332.8111863429779
 11
94.82293032703296
 21
332.8111863429779
 72
     1
 10
94.82293032703296
 20
332.8111863429779
 11
94.82293032703296
 21
334.1199618531825
 72
     1
 10
94.82293032703296
 20
334.1199618531825
 11
96.06343473728697
 21
332.8111863429779
 72
     1
 10
96.06343473728697
 20
332.8111863429779
 11
97.25622743945357
 21
332.8111863429779
 72
     1
 10
97.25622743945357
 20
332.8111863429779
 11
97.25622743945357
 21
335.8649958667891
 72
     1
 10
97.25622743945357
 20
335.8649958667891
 11
96.06343473728697
 21
335.8649958667891
 72
     1
 10
96.06343473728697
 20
335.8649958667891
 11
96.06343473728697
 21
334.5562203565838
 72
     1
 10
96.06343473728697
 20
334.5562203565838
 11
94.82293032703296
 21
335.8649958667891
 97
       10
330
1AD
330
177
330
178
330
179
330
17A
330
1B0
330
175
330
1AF
330
1AE
330
176
 75
     1
 76
     0
 52
45.0
 41
0.1
 77
     0
 78
     1
 53
45.0
 43
0.0
 44
0.0
 45
-0.0707106781186548
 46
0.0707106781186548
 79
     0
 98
        1
 10
0.0
 20
0.0
  0
HATCH
  5
289
330
71
100
AcDbEntity
  8
1
  6
Continuous
 62
     2
100
AcDbHatch
 10
0.0
 20
0.0
 30
0.0
210
0.0
220
0.0
230
1.0
  2
_USER
 70
     0
 71
     1
 91
        1
 92
        1
 93
       10
 72
     1
 10
94.82293032703296
 20
335.8649958667891
 11
93.63013762486645
 21
335.8649958667891
 72
     1
 10
93.63013762486645
 20
335.8649958667891
 11
93.63013762486645
 21
332.8111863429779
 72
     1
 10
93.63013762486645
 20
332.8111863429779
 11
94.82293032703296
 21
332.8111863429779
 72
     1
 10
94.82293032703296
 20
332.8111863429779
 11
94.82293032703296
 21
334.1199618531825
 72
     1
 10
94.82293032703296
 20
334.1199618531825
 11
96.06343473728697
 21
332.8111863429779
 72
     1
 10
96.06343473728697
 20
332.8111863429779
 11
97.25622743945357
 21
332.8111863429779
 72
     1
 10
97.25622743945357
 20
332.8111863429779
 11
97.25622743945357
 21
335.8649958667891
 72
     1
 10
97.25622743945357
 20
335.8649958667891
 11
96.06343473728697
 21
335.8649958667891
 72
     1
 10
96.06343473728697
 20
335.8649958667891
 11
96.06343473728697
 21
334.5562203565838
 72
     1
 10
96.06343473728697
 20
334.5562203565838
 11
94.82293032703296
 21
335.8649958667891
 97
       10
330
1AD
330
177
330
178
330
179
330
17A
330
1B0
330
175
330
1AF
330
1AE
330
176
 75
     1
 76
     0
 52
45.0
 41
0.1
 77
     0
 78
     1
 53
45.0
 43
0.0
 44
0.0
 45
-0.0707106781186548
 46
0.0707106781186548
 79
     0
 98
        1
 10
0.0
 20
0.0
  0
HATCH
  5
28A
330
71
100
AcDbEntity
  8
1
  6
Continuous
 62
     2
100
AcDbHatch
 10
0.0
 20
0.0
 30
0.0
210
0.0
220
0.0
230
1.0
  2
_USER
 70
     0
 71
     1
 91
        1
 92
        1
 93
       10
 72
     1
 10
89.57449150661435
 20
332.5058053906146
 11
88.38169880444676
 21
332.5058053906146
 72
     1
 10
88.38169880444676
 20
332.5058053906146
 11
88.38169880444676
 21
329.4519958668035
 72
     1
 10
88.38169880444676
 20
329.4519958668035
 11
89.57449150661435
 21
329.4519958668035
 72
     1
 10
89.57449150661435
 20
329.4519958668035
 11
89.57449150661435
 21
330.7607713770082
 72
     1
 10
89.57449150661435
 20
330.7607713770082
 11
90.81499591686725
 21
329.4519958668035
 72
     1
 10
90.81499591686725
 20
329.4519958668035
 11
92.00778861903365
 21
329.4519958668035
 72
     1
 10
92.00778861903365
 20
329.4519958668035
 11
92.00778861903365
 21
332.5058053906146
 72
     1
 10
92.00778861903365
 20
332.5058053906146
 11
90.81499591686725
 21
332.5058053906146
 72
     1
 10
90.81499591686725
 20
332.5058053906146
 11
90.81499591686725
 21
331.1970298804096
 72
     1
 10
90.81499591686725
 20
331.1970298804096
 11
89.57449150661435
 21
332.5058053906146
 97
       10
330
17C
330
17D
330
17E
330
1AA
330
17F
330
180
330
1A9
330
1AC
330
1AB
330
17B
 75
     1
 76
     0
 52
45.0
 41
0.1
 77
     0
 78
     1
 53
45.0
 43
0.0
 44
0.0
 45
-0.0707106781186548
 46
0.0707106781186548
 79
     0
 98
        1
 10
0.0
 20
0.0
  0
HATCH
  5
28B
330
71
100
AcDbEntity
  8
1
  6
Continuous
 62
     2
100
AcDbHatch
 10
0.0
 20
0.0
 30
0.0
210
0.0
220
0.0
230
1.0
  2
_USER
 70
     0
 71
     1
 91
        1
 92
        1
 93
       10
 72
     1
 10
89.57449150661435
 20
332.5058053906146
 11
88.38169880444676
 21
332.5058053906146
 72
     1
 10
88.38169880444676
 20
332.5058053906146
 11
88.38169880444676
 21
329.4519958668035
 72
     1
 10
88.38169880444676
 20
329.4519958668035
 11
89.57449150661435
 21
329.4519958668035
 72
     1
 10
89.57449150661435
 20
329.4519958668035
 11
89.57449150661435
 21
330.7607713770082
 72
     1
 10
89.57449150661435
 20
330.7607713770082
 11
90.81499591686725
 21
329.4519958668035
 72
     1
 10
90.81499591686725
 20
329.4519958668035
 11
92.00778861903365
 21
329.4519958668035
 72
     1
 10
92.00778861903365
 20
329.4519958668035
 11
92.00778861903365
 21
332.5058053906146
 72
     1
 10
92.00778861903365
 20
332.5058053906146
 11
90.81499591686725
 21
332.5058053906146
 72
     1
 10
90.81499591686725
 20
332.5058053906146
 11
90.81499591686725
 21
331.1970298804096
 72
     1
 10
90.81499591686725
 20
331.1970298804096
 11
89.57449150661435
 21
332.5058053906146
 97
       10
330
17C
330
17D
330
17E
330
1AA
330
17F
330
180
330
1A9
330
1AC
330
1AB
330
17B
 75
     1
 76
     0
 52
45.0
 41
0.1
 77
     0
 78
     1
 53
45.0
 43
0.0
 44
0.0
 45
-0.0707106781186548
 46
0.0707106781186548
 79
     0
 98
        1
 10
0.0
 20
0.0
  0
HATCH
  5
28C
330
71
100
AcDbEntity
  8
1
  6
Continuous
 62
     2
100
AcDbHatch
 10
0.0
 20
0.0
 30
0.0
210
0.0
220
0.0
230
1.0
  2
_USER
 70
     0
 71
     1
 91
        1
 92
        1
 93
       12
 72
     1
 10
88.57269656767895
 20
335.8649958667891
 11
88.57269656767895
 21
332.8111863429779
 72
     1
 10
88.57269656767895
 20
332.8111863429779
 11
87.37990386551255
 21
332.8111863429779
 72
     1
 10
87.37990386551255
 20
332.8111863429779
 11
87.37990386551255
 21
333.9454584518217
 72
     1
 10
87.37990386551255
 20
333.9454584518217
 11
86.33024628760506
 21
333.9454584518217
 72
     1
 10
86.33024628760506
 20
333.9454584518217
 11
86.33024628760506
 21
332.8111863429779
 72
     1
 10
86.33024628760506
 20
332.8111863429779
 11
85.13745358543846
 21
332.8111863429779
 72
     1
 10
85.13745358543846
 20
332.8111863429779
 11
85.13745358543846
 21
335.8649958667891
 72
     1
 10
85.13745358543846
 20
335.8649958667891
 11
86.33024628760506
 21
335.8649958667891
 72
     1
 10
86.33024628760506
 20
335.8649958667891
 11
86.33024628760506
 21
334.7961625334544
 72
     1
 10
86.33024628760506
 20
334.7961625334544
 11
87.37990386551255
 21
334.7961625334544
 72
     1
 10
87.37990386551255
 20
334.7961625334544
 11
87.37990386551255
 21
335.8649958667891
 72
     1
 10
87.37990386551255
 20
335.8649958667891
 11
88.57269656767895
 21
335.8649958667891
 97
       12
330
1A4
330
1A3
330
1A2
330
18A
330
18B
330
1A1
330
18C
330
1A0
330
19F
330
19E
330
188
330
189
 75
     1
 76
     0
 52
45.0
 41
0.1
 77
     0
 78
     1
 53
45.0
 43
0.0
 44
0.0
 45
-0.0707106781186548
 46
0.0707106781186548
 79
     0
 98
        1
 10
0.0
 20
0.0
  0
HATCH
  5
28D
330
71
100
AcDbEntity
  8
1
  6
Continuous
 62
     2
100
AcDbHatch
 10
0.0
 20
0.0
 30
0.0
210
0.0
220
0.0
230
1.0
  2
_USER
 70
     0
 71
     1
 91
        1
 92
        1
 93
       12
 72
     1
 10
88.57269656767895
 20
335.8649958667891
 11
88.57269656767895
 21
332.8111863429779
 72
     1
 10
88.57269656767895
 20
332.8111863429779
 11
87.37990386551255
 21
332.8111863429779
 72
     1
 10
87.37990386551255
 20
332.8111863429779
 11
87.37990386551255
 21
333.9454584518217
 72
     1
 10
87.37990386551255
 20
333.9454584518217
 11
86.33024628760506
 21
333.9454584518217
 72
     1
 10
86.33024628760506
 20
333.9454584518217
 11
86.33024628760506
 21
332.8111863429779
 72
     1
 10
86.33024628760506
 20
332.8111863429779
 11
85.13745358543846
 21
332.8111863429779
 72
     1
 10
85.13745358543846
 20
332.8111863429779
 11
85.13745358543846
 21
335.8649958667891
 72
     1
 10
85.13745358543846
 20
335.8649958667891
 11
86.33024628760506
 21
335.8649958667891
 72
     1
 10
86.33024628760506
 20
335.8649958667891
 11
86.33024628760506
 21
334.7961625334544
 72
     1
 10
86.33024628760506
 20
334.7961625334544
 11
87.37990386551255
 21
334.7961625334544
 72
     1
 10
87.37990386551255
 20
334.7961625334544
 11
87.37990386551255
 21
335.8649958667891
 72
     1
 10
87.37990386551255
 20
335.8649958667891
 11
88.57269656767895
 21
335.8649958667891
 97
       12
330
1A4
330
1A3
330
1A2
330
18A
330
18B
330
1A1
330
18C
330
1A0
330
19F
330
19E
330
188
330
189
 75
     1
 76
     0
 52
45.0
 41
0.1
 77
     0
 78
     1
 53
45.0
 43
0.0
 44
0.0
 45
-0.0707106781186548
 46
0.0707106781186548
 79
     0
 98
        1
 10
0.0
 20
0.0
  0
ENDBLK
  5
73
330
71
100
AcDbEntity
  8
0
100
AcDbBlockEnd
  0
BLOCK
  5
75
330
74
100
AcDbEntity
  8
0
100
AcDbBlockBegin
  2
_punkt
 70
     0
 10
200.4500003814679
 20
322.1584958667872
 30
0.0
  3
_punkt
  1

  0
LINE
  5
28E
330
74
100
AcDbEntity
  8
1
  6
Continuous
 62
     2
100
AcDbLine
 10
200.4500003814679
 20
322.1584958667872
 30
0.0
 11
200.4500003814679
 21
317.1584958667871
 31
0.0
  0
LINE
  5
28F
330
74
100
AcDbEntity
  8
1
  6
Continuous
 62
     2
100
AcDbLine
 10
200.4500003814679
 20
322.1584958667872
 30
0.0
 11
205.4500003814669
 21
322.1584958667872
 31
0.0
  0
ENDBLK
  5
76
330
74
100
AcDbEntity
  8
0
100
AcDbBlockEnd
  0
BLOCK
  5
7A
330
77
100
AcDbEntity
  8
0
100
AcDbBlockBegin
  2
A4I_CS
 70
     0
 10
200.4500003814679
 20
317.1584958667871
 30
0.0
  3
A4I_CS
  1

  0
INSERT
  5
78
330
77
100
AcDbEntity
  8
1
100
AcDbBlockReference
  2
_rahmen
 10
200.4500003814679
 20
317.1584958667871
 30
0.0
  0
INSERT
  5
79
330
77
100
AcDbEntity
  8
1
100
AcDbBlockReference
  2
_punkt
 10
200.4500003814679
 20
322.1584958667872
 30
0.0
  0
ENDBLK
  5
7B
330
77
100
AcDbEntity
  8
0
100
AcDbBlockEnd
  0
BLOCK
  5
84
330
7C
100
AcDbEntity
  8
0
100
AcDbBlockBegin
  2
1
 70
     0
 10
0.0
 20
0.0
 30
0.0
  3
1
  1

  0
INSERT
  5
7D
330
7C
100
AcDbEntity
  8
0
100
AcDbBlockReference
  2
AllgSicht1
 10
140.9000019999955
 20
402.0
 30
0.0
  0
INSERT
  5
7E
330
7C
100
AcDbEntity
  8
0
100
AcDbBlockReference
  2
Drfsicht1
 10
17.0
 20
385.999999999995
 30
0.0
  0
INSERT
  5
7F
330
7C
100
AcDbEntity
  8
0
100
AcDbBlockReference
  2
Rckans1
 10
140.9000015258803
 20
461.5
 30
0.0
  0
INSERT
  5
80
330
7C
100
AcDbEntity
  8
0
100
AcDbBlockReference
  2
SA_Links1
 10
79.45000076294946
 20
461.5
 30
0.0
  0
INSERT
  5
81
330
7C
100
AcDbEntity
  8
0
100
AcDbBlockReference
  2
SA_Rechts1
 10
-70.45000076294563
 20
461.5
 30
0.0
  0
INSERT
  5
82
330
7C
100
AcDbEntity
  8
0
100
AcDbBlockReference
  2
Vordans1
 10
16.9999999999992
 20
461.5
 30
0.0
  0
INSERT
  5
83
330
7C
100
AcDbEntity
  8
0
100
AcDbBlockReference
  2
A4I_CS
 10
200.4500003814679
 20
317.1584958667871
 30
0.0
  0
ENDBLK
  5
85
330
7C
100
AcDbEntity
  8
0
100
AcDbBlockEnd
  0
BLOCK
  5
CF
330
C6
100
AcDbEntity
  8
0
100
AcDbBlockBegin
  2
*D17
 70
     1
 10
0.0
 20
0.0
 30
0.0
  3
*D17
  1

  0
LINE
  5
C7
330
C6
100
AcDbEntity
  8
1
  6
Continuous
 62
     2
100
AcDbLine
 10
-40.6385832606272
 20
377.99999999999
 30
0.0
 11
-40.6385832606272
 21
384.99999999999
 31
0.0
  0
LINE
  5
C8
330
C6
100
AcDbEntity
  8
1
  6
Continuous
 62
     2
100
AcDbLine
 10
-40.6385832606272
 20
384.99999999999
 30
0.0
 11
-40.6385832606272
 21
387.19999999999
 31
0.0
  0
LINE
  5
C9
330
C6
100
AcDbEntity
  8
1
  6
Continuous
 62
     2
100
AcDbLine
 10
-40.6385832606272
 20
387.19999999999
 30
0.0
 11
-40.6385832606272
 21
394.19999999999
 31
0.0
  0
LINE
  5
CA
330
C6
100
AcDbEntity
  8
1
  6
Continuous
 62
     2
100
AcDbLine
 10
-28.95000000000008
 20
384.99999999999
 30
0.0
 11
-42.1385832606272
 21
384.99999999999
 31
0.0
  0
LINE
  5
CB
330
C6
100
AcDbEntity
  8
1
  6
Continuous
 62
     2
100
AcDbLine
 10
-28.95000000000008
 20
387.19999999999
 30
0.0
 11
-42.1385832606272
 21
387.19999999999
 31
0.0
  0
SOLID
  5
CC
330
C6
100
AcDbEntity
  8
1
 62
     2
100
AcDbTrace
 10
-40.17779951907131
 20
381.49999999999
 30
0.0
 11
-41.09936700218309
 21
381.49999999999
 31
0.0
 12
-40.6385832606272
 22
384.99999999999
 32
0.0
 13
-40.6385832606272
 23
384.99999999999
 33
0.0
  0
SOLID
  5
CD
330
C6
100
AcDbEntity
  8
1
 62
     2
100
AcDbTrace
 10
-41.09936700218309
 20
390.69999999999
 30
0.0
 11
-40.17779951907131
 21
390.69999999999
 31
0.0
 12
-40.6385832606272
 22
387.19999999999
 32
0.0
 13
-40.6385832606272
 23
387.19999999999
 33
0.0
  0
MTEXT
  5
CE
330
C6
100
AcDbEntity
  8
1
 62
     3
100
AcDbMText
 10
-42.98858326062719
 20
382.938088141312
 30
0.0
 40
3.5
 41
0.0
 71
     7
 72
     1
  1
2,2
  7
CONVERTER_11
 11
0.0
 21
1.0
 31
0.0
 73
     1
 44
0.60024009603842
  0
ENDBLK
  5
D0
330
C6
100
AcDbEntity
  8
0
100
AcDbBlockEnd
  0
BLOCK
  5
127
330
120
100
AcDbEntity
  8
0
100
AcDbBlockBegin
  2
*D18
 70
     1
 10
0.0
 20
0.0
 30
0.0
  3
*D18
  1

  0
LINE
  5
121
330
120
100
AcDbEntity
  8
1
  6
Continuous
 62
     2
100
AcDbLine
 10
62.44999999999898
 20
404.9392842485331
 30
0.0
 11
-28.45000000000091
 21
404.9392842485331
 31
0.0
  0
LINE
  5
122
330
120
100
AcDbEntity
  8
1
  6
Continuous
 62
     2
100
AcDbLine
 10
62.44999999999899
 20
451.911266351975
 30
0.0
 11
62.44999999999899
 21
402.9392842485331
 31
0.0
  0
LINE
  5
123
330
120
100
AcDbEntity
  8
1
  6
Continuous
 62
     2
100
AcDbLine
 10
-28.45000000000091
 20
445.2000000000001
 30
0.0
 11
-28.45000000000091
 21
402.9392842485331
 31
0.0
  0
SOLID
  5
124
330
120
100
AcDbEntity
  8
1
 62
     2
100
AcDbTrace
 10
58.94999999999898
 20
404.4785005069772
 30
0.0
 11
58.94999999999898
 21
405.400067990089
 31
0.0
 12
62.44999999999898
 22
404.9392842485331
 32
0.0
 13
62.44999999999898
 23
404.9392842485331
 33
0.0
  0
SOLID
  5
125
330
120
100
AcDbEntity
  8
1
 62
     2
100
AcDbTrace
 10
-24.95000000000091
 20
405.400067990089
 30
0.0
 11
-24.95000000000091
 21
404.4785005069772
 31
0.0
 12
-28.45000000000091
 22
404.9392842485331
 32
0.0
 13
-28.45000000000091
 23
404.9392842485331
 33
0.0
  0
MTEXT
  5
126
330
120
100
AcDbEntity
  8
1
 62
     3
100
AcDbMText
 10
11.4262935569102
 20
407.2892842485331
 30
0.0
 40
3.5
 41
0.0
 71
     7
 72
     1
  1
90,9
  7
CONVERTER_11
 11
0.9999999999970619
 21
2.424068405545306E-6
 31
0.0
 73
     1
 44
0.60024009603842
  0
ENDBLK
  5
128
330
120
100
AcDbEntity
  8
0
100
AcDbBlockEnd
  0
BLOCK
  5
132
330
12B
100
AcDbEntity
  8
0
100
AcDbBlockBegin
  2
*D19
 70
     1
 10
0.0
 20
0.0
 30
0.0
  3
*D19
  1

  0
LINE
  5
12C
330
12B
100
AcDbEntity
  8
1
  6
Continuous
 62
     2
100
AcDbLine
 10
16.9999999999997
 20
416.002088302513
 30
0.0
 11
62.44999999999899
 21
416.002088302513
 31
0.0
  0
LINE
  5
12D
330
12B
100
AcDbEntity
  8
1
  6
Continuous
 62
     2
100
AcDbLine
 10
16.9999999999997
 20
445.236603760608
 30
0.0
 11
16.9999999999997
 21
414.002088302513
 31
0.0
  0
LINE
  5
12E
330
12B
100
AcDbEntity
  8
1
  6
Continuous
 62
     2
100
AcDbLine
 10
62.44999999999899
 20
451.9112663519748
 30
0.0
 11
62.44999999999899
 21
414.002088302513
 31
0.0
  0
SOLID
  5
12F
330
12B
100
AcDbEntity
  8
1
 62
     2
100
AcDbTrace
 10
20.4999999999997
 20
416.4628720440689
 30
0.0
 11
20.4999999999997
 21
415.5413045609571
 31
0.0
 12
16.9999999999997
 22
416.002088302513
 32
0.0
 13
16.9999999999997
 23
416.002088302513
 33
0.0
  0
SOLID
  5
130
330
12B
100
AcDbEntity
  8
1
 62
     2
100
AcDbTrace
 10
58.94999999999899
 20
415.5413045609571
 30
0.0
 11
58.94999999999899
 21
416.4628720440689
 31
0.0
 12
62.44999999999899
 22
416.002088302513
 32
0.0
 13
62.44999999999899
 23
416.002088302513
 33
0.0
  0
MTEXT
  5
131
330
12B
100
AcDbEntity
  8
1
 62
     3
100
AcDbMText
 10
34.0738280791482
 20
418.352088302513
 30
0.0
 40
3.5
 41
0.0
 71
     7
 72
     1
  1
45,45
  7
CONVERTER_11
 11
0.9999999999970619
 21
2.424068405545306E-6
 31
0.0
 73
     1
 44
0.60024009603842
  0
ENDBLK
  5
133
330
12B
100
AcDbEntity
  8
0
100
AcDbBlockEnd
  0
BLOCK
  5
13D
330
136
100
AcDbEntity
  8
0
100
AcDbBlockBegin
  2
*D20
 70
     1
 10
0.0
 20
0.0
 30
0.0
  3
*D20
  1

  0
LINE
  5
137
330
136
100
AcDbEntity
  8
1
  6
Continuous
 62
     2
100
AcDbLine
 10
16.9999999999997
 20
426.767659201285
 30
0.0
 11
34.4999999999991
 21
426.767659201285
 31
0.0
  0
LINE
  5
138
330
136
100
AcDbEntity
  8
1
  6
Continuous
 62
     2
100
AcDbLine
 10
16.9999999999997
 20
445.2366037606079
 30
0.0
 11
16.9999999999997
 21
424.767659201285
 31
0.0
  0
LINE
  5
139
330
136
100
AcDbEntity
  8
1
  6
Continuous
 62
     2
100
AcDbLine
 10
34.4999999999991
 20
446.9
 30
0.0
 11
34.4999999999991
 21
424.767659201285
 31
0.0
  0
SOLID
  5
13A
330
136
100
AcDbEntity
  8
1
 62
     2
100
AcDbTrace
 10
20.4999999999997
 20
427.2284429428408
 30
0.0
 11
20.4999999999997
 21
426.3068754597291
 31
0.0
 12
16.9999999999997
 22
426.767659201285
 32
0.0
 13
16.9999999999997
 23
426.767659201285
 33
0.0
  0
SOLID
  5
13B
330
136
100
AcDbEntity
  8
1
 62
     2
100
AcDbTrace
 10
30.9999999999991
 20
426.3068754597291
 30
0.0
 11
30.9999999999991
 21
427.2284429428408
 31
0.0
 12
34.4999999999991
 22
426.767659201285
 32
0.0
 13
34.4999999999991
 23
426.767659201285
 33
0.0
  0
MTEXT
  5
13C
330
136
100
AcDbEntity
  8
1
 62
     3
100
AcDbMText
 10
20.67140598491609
 20
429.117659201285
 30
0.0
 40
3.5
 41
0.0
 71
     7
 72
     1
  1
17,5
  7
CONVERTER_11
 11
0.9999999999970619
 21
2.424068405545306E-6
 31
0.0
 73
     1
 44
0.60024009603842
  0
ENDBLK
  5
13E
330
136
100
AcDbEntity
  8
0
100
AcDbBlockEnd
  0
BLOCK
  5
148
330
141
100
AcDbEntity
  8
0
100
AcDbBlockBegin
  2
*D21
 70
     1
 10
0.0
 20
0.0
 30
0.0
  3
*D21
  1

  0
LINE
  5
142
330
141
100
AcDbEntity
  8
1
  6
Continuous
 62
     2
100
AcDbLine
 10
-45.55955816551661
 20
481.0000000000001
 30
0.0
 11
-45.55955816551661
 21
442.0000000000001
 31
0.0
  0
LINE
  5
143
330
141
100
AcDbEntity
  8
1
  6
Continuous
 62
     2
100
AcDbLine
 10
-26.10000000000074
 20
481.0000000000001
 30
0.0
 11
-47.05955816551661
 21
481.0000000000001
 31
0.0
  0
LINE
  5
144
330
141
100
AcDbEntity
  8
1
  6
Continuous
 62
     2
100
AcDbLine
 10
-2.70000000000091
 20
442.0000000000001
 30
0.0
 11
-47.05955816551661
 21
442.0000000000001
 31
0.0
  0
SOLID
  5
145
330
141
100
AcDbEntity
  8
1
 62
     2
100
AcDbTrace
 10
-45.09877442396073
 20
477.5000000000001
 30
0.0
 11
-46.0203419070725
 21
477.5000000000001
 31
0.0
 12
-45.55955816551661
 22
481.0000000000001
 32
0.0
 13
-45.55955816551661
 23
481.0000000000001
 33
0.0
  0
SOLID
  5
146
330
141
100
AcDbEntity
  8
1
 62
     2
100
AcDbTrace
 10
-46.0203419070725
 20
445.5000000000001
 30
0.0
 11
-45.09877442396073
 21
445.5000000000001
 31
0.0
 12
-45.55955816551661
 22
442.0000000000001
 32
0.0
 13
-45.55955816551661
 23
442.0000000000001
 33
0.0
  0
MTEXT
  5
147
330
141
100
AcDbEntity
  8
1
 62
     3
100
AcDbMText
 10
-47.55955816551661
 20
458.575665560627
 30
0.0
 40
3.5
 41
0.0
 71
     7
 72
     1
  1
39
  7
CONVERTER_11
 11
0.0
 21
1.0
 31
0.0
 73
     1
 44
0.60024009603842
  0
ENDBLK
  5
149
330
141
100
AcDbEntity
  8
0
100
AcDbBlockEnd
  0
BLOCK
  5
153
330
14C
100
AcDbEntity
  8
0
100
AcDbBlockBegin
  2
*D22
 70
     1
 10
0.0
 20
0.0
 30
0.0
  3
*D22
  1

  0
LINE
  5
14D
330
14C
100
AcDbEntity
  8
1
  6
Continuous
 62
     2
100
AcDbLine
 10
-37.1689513761151
 20
481.0000000000001
 30
0.0
 11
-37.1689513761151
 21
448.0000000000001
 31
0.0
  0
LINE
  5
14E
330
14C
100
AcDbEntity
  8
1
  6
Continuous
 62
     2
100
AcDbLine
 10
-26.10000000000074
 20
481.0000000000001
 30
0.0
 11
-38.6689513761151
 21
481.0000000000001
 31
0.0
  0
LINE
  5
14F
330
14C
100
AcDbEntity
  8
1
  6
Continuous
 62
     2
100
AcDbLine
 10
0.8999999999991
 20
448.0000000000001
 30
0.0
 11
-38.6689513761151
 21
448.0000000000001
 31
0.0
  0
SOLID
  5
150
330
14C
100
AcDbEntity
  8
1
 62
     2
100
AcDbTrace
 10
-36.70816763455922
 20
477.5000000000001
 30
0.0
 11
-37.62973511767099
 21
477.5000000000001
 31
0.0
 12
-37.1689513761151
 22
481.0000000000001
 32
0.0
 13
-37.1689513761151
 23
481.0000000000001
 33
0.0
  0
SOLID
  5
151
330
14C
100
AcDbEntity
  8
1
 62
     2
100
AcDbTrace
 10
-37.62973511767099
 20
451.5000000000001
 30
0.0
 11
-36.70816763455922
 21
451.5000000000001
 31
0.0
 12
-37.1689513761151
 22
448.0000000000001
 32
0.0
 13
-37.1689513761151
 23
448.0000000000001
 33
0.0
  0
MTEXT
  5
152
330
14C
100
AcDbEntity
  8
1
 62
     3
100
AcDbMText
 10
-39.1689513761151
 20
459.111236206759
 30
0.0
 40
3.5
 41
0.0
 71
     7
 72
     1
  1
33
  7
CONVERTER_11
 11
0.0
 21
1.0
 31
0.0
 73
     1
 44
0.60024009603842
  0
ENDBLK
  5
154
330
14C
100
AcDbEntity
  8
0
100
AcDbBlockEnd
  0
ENDSEC
  0
SECTION
  2
ENTITIES
  0
INSERT
  5
86
330
1F
100
AcDbEntity
  8
1
100
AcDbBlockReference
  2
1
 10
0.0
 20
0.0
 30
0.0
  0
ENDSEC
  0
SECTION
  2
OBJECTS
  0
DICTIONARY
  5
C
330
0
100
AcDbDictionary
281
     1
  3
ACAD_GROUP
350
D
  3
ACAD_LAYOUT
350
1A
  3
ACAD_MATERIAL
350
3B
  3
ACAD_MLEADERSTYLE
350
2B7
  3
ACAD_MLINESTYLE
350
17
  3
ACAD_PLOTSETTINGS
350
19
  3
ACAD_PLOTSTYLENAME
350
E
  3
ACAD_TABLESTYLE
350
2B6
  3
ACAD_VISUALSTYLE
350
2A
  0
DICTIONARY
  5
D
102
{ACAD_REACTORS
330
C
102
}
330
C
100
AcDbDictionary
281
     1
  0
DICTIONARY
  5
1A
102
{ACAD_REACTORS
330
C
102
}
330
C
100
AcDbDictionary
281
     1
  3
Layout1
350
1E
  3
Layout2
350
26
  3
Model
350
22
  0
DICTIONARY
  5
3B
102
{ACAD_REACTORS
330
C
102
}
330
C
100
AcDbDictionary
281
     1
  3
ByBlock
350
3D
  3
ByLayer
350
3C
  3
Global
350
3E
  0
DICTIONARY
  5
2B7
102
{ACAD_REACTORS
330
C
102
}
330
C
100
AcDbDictionary
281
     1
  0
DICTIONARY
  5
17
102
{ACAD_REACTORS
330
C
102
}
330
C
100
AcDbDictionary
281
     1
  3
Standard
350
18
  0
DICTIONARY
  5
19
102
{ACAD_REACTORS
330
C
102
}
330
C
100
AcDbDictionary
281
     1
  0
ACDBDICTIONARYWDFLT
  5
E
102
{ACAD_REACTORS
330
C
102
}
330
C
100
AcDbDictionary
281
     1
  3
Normal
350
F
100
AcDbDictionaryWithDefault
340
F
  0
DICTIONARY
  5
2B6
102
{ACAD_REACTORS
330
C
102
}
330
C
100
AcDbDictionary
281
     1
  0
DICTIONARY
  5
2A
102
{ACAD_REACTORS
330
C
102
}
330
C
100
AcDbDictionary
281
     1
  3
2dWireframe
350
2F
  3
3D Hidden
350
31
  3
3dWireframe
350
30
  3
Basic
350
32
  3
Brighten
350
36
  3
ColorChange
350
3A
  3
Conceptual
350
34
  3
Dim
350
35
  3
Facepattern
350
39
  3
Flat
350
2B
  3
FlatWithEdges
350
2C
  3
Gouraud
350
2D
  3
GouraudWithEdges
350
2E
  3
Linepattern
350
38
  3
Realistic
350
33
  3
Thicken
350
37
  0
LAYOUT
  5
1E
102
{ACAD_REACTORS
330
1A
102
}
330
1A
100
AcDbPlotSettings
  1

  2
none_device
  4

  6

 40
0.0
 41
0.0
 42
0.0
 43
0.0
 44
0.0
 45
0.0
 46
0.0
 47
0.0
 48
0.0
 49
0.0
140
0.0
141
0.0
142
1.0
143
1.0
 70
   688
 72
     0
 73
     0
 74
     5
  7

 75
    16
 76
     0
 77
     2
 78
   300
147
1.0
148
0.0
149
0.0
100
AcDbLayout
  1
Layout1
 70
     1
 71
     1
 10
0.0
 20
0.0
 11
12.0
 21
9.0
 12
0.0
 22
0.0
 32
0.0
 14
1.00000000000000E+20
 24
1.00000000000000E+20
 34
1.00000000000000E+20
 15
-1.00000000000000E+20
 25
-1.00000000000000E+20
 35
-1.00000000000000E+20
146
0.0
 13
0.0
 23
0.0
 33
0.0
 16
1.0
 26
0.0
 36
0.0
 17
0.0
 27
1.0
 37
0.0
 76
     0
330
1B
  0
LAYOUT
  5
26
102
{ACAD_REACTORS
330
1A
102
}
330
1A
100
AcDbPlotSettings
  1

  2
none_device
  4

  6

 40
0.0
 41
0.0
 42
0.0
 43
0.0
 44
0.0
 45
0.0
 46
0.0
 47
0.0
 48
0.0
 49
0.0
140
0.0
141
0.0
142
1.0
143
1.0
 70
   688
 72
     0
 73
     0
 74
     5
  7

 75
    16
 76
     0
 77
     2
 78
   300
147
1.0
148
0.0
149
0.0
100
AcDbLayout
  1
Layout2
 70
     1
 71
     2
 10
0.0
 20
0.0
 11
0.0
 21
0.0
 12
0.0
 22
0.0
 32
0.0
 14
0.0
 24
0.0
 34
0.0
 15
0.0
 25
0.0
 35
0.0
146
0.0
 13
0.0
 23
0.0
 33
0.0
 16
1.0
 26
0.0
 36
0.0
 17
0.0
 27
1.0
 37
0.0
 76
     0
330
23
  0
LAYOUT
  5
22
102
{ACAD_REACTORS
330
1A
102
}
330
1A
100
AcDbPlotSettings
  1

  2
none_device
  4

  6

 40
0.0
 41
0.0
 42
0.0
 43
0.0
 44
0.0
 45
0.0
 46
0.0
 47
0.0
 48
0.0
 49
0.0
140
0.0
141
0.0
142
1.0
143
1.0
 70
  1712
 72
     0
 73
     0
 74
     0
  7

 75
     0
 76
     0
 77
     2
 78
   300
147
1.0
148
0.0
149
0.0
100
AcDbLayout
  1
Model
 70
     1
 71
     0
 10
0.0
 20
0.0
 11
12.0
 21
9.0
 12
0.0
 22
0.0
 32
0.0
 14
-91.54999961853122
 24
317.1584958667871
 34
0.0
 15
205.4500003814669
 25
527.1584958667872
 35
0.0
146
0.0
 13
0.0
 23
0.0
 33
0.0
 16
1.0
 26
0.0
 36
0.0
 17
0.0
 27
1.0
 37
0.0
 76
     0
330
1F
331
29
  0
MATERIAL
  5
3D
102
{ACAD_REACTORS
330
3B
102
}
102
{ACAD_XDICTIONARY
360
2B2
102
}
330
3B
100
AcDbMaterial
  1
ByBlock
  0
MATERIAL
  5
3C
102
{ACAD_REACTORS
330
3B
102
}
102
{ACAD_XDICTIONARY
360
2B0
102
}
330
3B
100
AcDbMaterial
  1
ByLayer
  0
MATERIAL
  5
3E
102
{ACAD_REACTORS
330
3B
102
}
102
{ACAD_XDICTIONARY
360
2B4
102
}
330
3B
100
AcDbMaterial
  1
Global
  0
MLINESTYLE
  5
18
102
{ACAD_REACTORS
330
17
102
}
330
17
100
AcDbMlineStyle
  2
Standard
 70
     0
  3

 62
   256
 51
90.0
 52
90.0
 71
     2
 49
0.5
 62
   256
  6
BYLAYER
 49
-0.5
 62
   256
  6
BYLAYER
  0
ACDBPLACEHOLDER
  5
F
102
{ACAD_REACTORS
330
E
102
}
330
E
  0
VISUALSTYLE
  5
2F
102
{ACAD_REACTORS
330
2A
102
}
102
{ACAD_XDICTIONARY
360
298
102
}
330
2A
100
AcDbVisualStyle
  2
2dWireframe
 70
     4
 71
     0
 72
     2
 73
     0
 90
        0
 40
-0.6
 41
-30.0
 62
     5
 63
     7
421
 16777215
 74
     1
 91
        4
 64
     7
 65
   257
 75
     1
175
     1
 42
1.0
 92
        0
 66
   257
 43
1.0
 76
     1
 77
     6
 78
     2
 67
     7
 79
     5
170
     0
171
     0
290
     0
174
     0
 93
        1
 44
0.0
173
     0
291
     0
 45
0.0
1001
ACAD
1000
AcDbSavedByObjectVersion
1070
     0
  0
VISUALSTYLE
  5
31
102
{ACAD_REACTORS
330
2A
102
}
102
{ACAD_XDICTIONARY
360
29C
102
}
330
2A
100
AcDbVisualStyle
  2
3D Hidden
 70
     6
 71
     1
 72
     2
 73
     2
 90
        0
 40
-0.6
 41
-30.0
 62
     5
 63
     7
421
 16777215
 74
     2
 91
        2
 64
     7
 65
   257
 75
     2
175
     1
 42
40.0
 92
        0
 66
   257
 43
1.0
 76
     1
 77
     6
 78
     2
 67
     7
 79
     3
170
     0
171
     0
290
     0
174
     0
 93
        1
 44
0.0
173
     0
291
     0
 45
0.0
1001
ACAD
1000
AcDbSavedByObjectVersion
1070
     0
  0
VISUALSTYLE
  5
30
102
{ACAD_REACTORS
330
2A
102
}
102
{ACAD_XDICTIONARY
360
29A
102
}
330
2A
100
AcDbVisualStyle
  2
3dWireframe
 70
     5
 71
     0
 72
     2
 73
     0
 90
        0
 40
-0.6
 41
-30.0
 62
     5
 63
     7
421
 16777215
 74
     1
 91
        4
 64
     7
 65
   257
 75
     1
175
     1
 42
1.0
 92
        0
 66
   257
 43
1.0
 76
     1
 77
     6
 78
     2
 67
     7
 79
     5
170
     0
171
     0
290
     0
174
     0
 93
        1
 44
0.0
173
     0
291
     0
 45
0.0
1001
ACAD
1000
AcDbSavedByObjectVersion
1070
     0
  0
VISUALSTYLE
  5
32
102
{ACAD_REACTORS
330
2A
102
}
102
{ACAD_XDICTIONARY
360
29E
102
}
330
2A
100
AcDbVisualStyle
  2
Basic
 70
     7
 71
     1
 72
     0
 73
     1
 90
        0
 40
-0.6
 41
-30.0
 62
     5
 63
     7
421
 16777215
 74
     0
 91
        4
 64
     7
 65
   257
 75
     1
175
     1
 42
1.0
 92
        8
 66
     7
 43
1.0
 76
     1
 77
     6
 78
     2
 67
     7
 79
     5
170
     0
171
     0
290
     0
174
     0
 93
        1
 44
0.0
173
     0
291
     1
 45
0.0
1001
ACAD
1000
AcDbSavedByObjectVersion
1070
     0
  0
VISUALSTYLE
  5
36
102
{ACAD_REACTORS
330
2A
102
}
102
{ACAD_XDICTIONARY
360
2A6
102
}
330
2A
100
AcDbVisualStyle
  2
Brighten
 70
    12
 71
     2
 72
     2
 73
     0
 90
        0
 40
-0.6
 41
-30.0
 62
     5
 63
     7
421
 16777215
 74
     1
 91
        4
 64
     7
 65
   257
 75
     1
175
     1
 42
1.0
 92
        8
 66
     7
 43
1.0
 76
     1
 77
     6
 78
     2
 67
     7
 79
     5
170
     0
171
     0
290
     0
174
     0
 93
        1
 44
50.0
173
     0
291
     1
 45
0.0
1001
ACAD
1000
AcDbSavedByObjectVersion
1070
     0
  0
VISUALSTYLE
  5
3A
102
{ACAD_REACTORS
330
2A
102
}
102
{ACAD_XDICTIONARY
360
2AE
102
}
330
2A
100
AcDbVisualStyle
  2
ColorChange
 70
    16
 71
     2
 72
     2
 73
     3
 90
        0
 40
-0.6
 41
-30.0
 62
     5
 63
     8
421
  8421504
 74
     1
 91
        4
 64
     7
 65
   257
 75
     1
175
     1
 42
1.0
 92
        8
 66
     8
424
  8421504
 43
1.0
 76
     1
 77
     6
 78
     2
 67
     7
 79
     5
170
     0
171
     0
290
     0
174
     0
 93
        1
 44
0.0
173
     0
291
     1
 45
0.0
1001
ACAD
1000
AcDbSavedByObjectVersion
1070
     0
  0
VISUALSTYLE
  5
34
102
{ACAD_REACTORS
330
2A
102
}
102
{ACAD_XDICTIONARY
360
2A2
102
}
330
2A
100
AcDbVisualStyle
  2
Conceptual
 70
     9
 71
     3
 72
     2
 73
     0
 90
        0
 40
-0.6
 41
-30.0
 62
     5
 63
     7
421
 16777215
 74
     2
 91
        2
 64
     7
 65
   257
 75
     1
175
     1
 42
40.0
 92
        8
 66
     7
 43
1.0
 76
     1
 77
     6
 78
     2
 67
     7
 79
     3
170
     0
171
     0
290
     0
174
     0
 93
        1
 44
0.0
173
     0
291
     0
 45
0.0
1001
ACAD
1000
AcDbSavedByObjectVersion
1070
     0
  0
VISUALSTYLE
  5
35
102
{ACAD_REACTORS
330
2A
102
}
102
{ACAD_XDICTIONARY
360
2A4
102
}
330
2A
100
AcDbVisualStyle
  2
Dim
 70
    11
 71
     2
 72
     2
 73
     0
 90
        0
 40
-0.6
 41
-30.0
 62
     5
 63
     7
421
 16777215
 74
     1
 91
        4
 64
     7
 65
   257
 75
     1
175
     1
 42
1.0
 92
        8
 66
     7
 43
1.0
 76
     1
 77
     6
 78
     2
 67
     7
 79
     5
170
     0
171
     0
290
     0
174
     0
 93
        1
 44
-50.0
173
     0
291
     1
 45
0.0
1001
ACAD
1000
AcDbSavedByObjectVersion
1070
     0
  0
VISUALSTYLE
  5
39
102
{ACAD_REACTORS
330
2A
102
}
102
{ACAD_XDICTIONARY
360
2AC
102
}
330
2A
100
AcDbVisualStyle
  2
Facepattern
 70
    15
 71
     2
 72
     2
 73
     0
 90
        0
 40
-0.6
 41
-30.0
 62
     5
 63
     7
421
 16777215
 74
     1
 91
        4
 64
     7
 65
   257
 75
     1
175
     1
 42
1.0
 92
        8
 66
     7
 43
1.0
 76
     1
 77
     6
 78
     2
 67
     7
 79
     5
170
     0
171
     0
290
     0
174
     0
 93
        1
 44
0.0
173
     0
291
     1
 45
0.0
1001
ACAD
1000
AcDbSavedByObjectVersion
1070
     0
  0
VISUALSTYLE
  5
2B
102
{ACAD_REACTORS
330
2A
102
}
102
{ACAD_XDICTIONARY
360
290
102
}
330
2A
100
AcDbVisualStyle
  2
Flat
 70
     0
 71
     2
 72
     1
 73
     1
 90
        2
 40
-0.6
 41
30.0
 62
     5
 63
     7
421
 16777215
 74
     0
 91
        4
 64
     7
 65
   257
 75
     1
175
     1
 42
1.0
 92
        8
 66
     7
 43
1.0
 76
     1
 77
     6
 78
     2
 67
     7
 79
     5
170
     0
171
     0
290
     0
174
     0
 93
       13
 44
0.0
173
     0
291
     1
 45
0.0
1001
ACAD
1000
AcDbSavedByObjectVersion
1070
     0
  0
VISUALSTYLE
  5
2C
102
{ACAD_REACTORS
330
2A
102
}
102
{ACAD_XDICTIONARY
360
292
102
}
330
2A
100
AcDbVisualStyle
  2
FlatWithEdges
 70
     1
 71
     2
 72
     1
 73
     1
 90
        2
 40
-0.6
 41
30.0
 62
     5
 63
     7
421
 16777215
 74
     1
 91
        4
 64
     7
 65
   257
 75
     1
175
     1
 42
1.0
 92
        0
 66
   257
 43
1.0
 76
     1
 77
     6
 78
     2
 67
     7
 79
     5
170
     0
171
     0
290
     0
174
     0
 93
       13
 44
0.0
173
     0
291
     1
 45
0.0
1001
ACAD
1000
AcDbSavedByObjectVersion
1070
     0
  0
VISUALSTYLE
  5
2D
102
{ACAD_REACTORS
330
2A
102
}
102
{ACAD_XDICTIONARY
360
294
102
}
330
2A
100
AcDbVisualStyle
  2
Gouraud
 70
     2
 71
     2
 72
     2
 73
     1
 90
        2
 40
-0.6
 41
30.0
 62
     5
 63
     7
421
 16777215
 74
     0
 91
        4
 64
     7
 65
   257
 75
     1
175
     1
 42
1.0
 92
        0
 66
     7
 43
1.0
 76
     1
 77
     6
 78
     2
 67
     7
 79
     5
170
     0
171
     0
290
     0
174
     0
 93
       13
 44
0.0
173
     0
291
     1
 45
0.0
1001
ACAD
1000
AcDbSavedByObjectVersion
1070
     0
  0
VISUALSTYLE
  5
2E
102
{ACAD_REACTORS
330
2A
102
}
102
{ACAD_XDICTIONARY
360
296
102
}
330
2A
100
AcDbVisualStyle
  2
GouraudWithEdges
 70
     3
 71
     2
 72
     2
 73
     1
 90
        2
 40
-0.6
 41
30.0
 62
     5
 63
     7
421
 16777215
 74
     1
 91
        4
 64
     7
 65
   257
 75
     1
175
     1
 42
1.0
 92
        0
 66
   257
 43
1.0
 76
     1
 77
     6
 78
     2
 67
     7
 79
     5
170
     0
171
     0
290
     0
174
     0
 93
       13
 44
0.0
173
     0
291
     1
 45
0.0
1001
ACAD
1000
AcDbSavedByObjectVersion
1070
     0
  0
VISUALSTYLE
  5
38
102
{ACAD_REACTORS
330
2A
102
}
102
{ACAD_XDICTIONARY
360
2AA
102
}
330
2A
100
AcDbVisualStyle
  2
Linepattern
 70
    14
 71
     2
 72
     2
 73
     0
 90
        0
 40
-0.6
 41
-30.0
 62
     5
 63
     7
421
 16777215
 74
     1
 91
        4
 64
     7
 65
   257
 75
     7
175
     7
 42
1.0
 92
        8
 66
     7
 43
1.0
 76
     1
 77
     6
 78
     2
 67
     7
 79
     5
170
     0
171
     0
290
     0
174
     0
 93
        1
 44
0.0
173
     0
291
     1
 45
0.0
1001
ACAD
1000
AcDbSavedByObjectVersion
1070
     0
  0
VISUALSTYLE
  5
33
102
{ACAD_REACTORS
330
2A
102
}
102
{ACAD_XDICTIONARY
360
2A0
102
}
330
2A
100
AcDbVisualStyle
  2
Realistic
 70
     8
 71
     2
 72
     2
 73
     0
 90
        0
 40
-0.6
 41
-30.0
 62
     5
 63
     7
421
 16777215
 74
     1
 91
        0
 64
     7
 65
   257
 75
     1
175
     1
 42
1.0
 92
        8
 66
     8
424
  7895160
 43
1.0
 76
     1
 77
     6
 78
     2
 67
     7
 79
     5
170
     0
171
     0
290
     0
174
     0
 93
       13
 44
0.0
173
     0
291
     0
 45
0.0
1001
ACAD
1000
AcDbSavedByObjectVersion
1070
     0
  0
VISUALSTYLE
  5
37
102
{ACAD_REACTORS
330
2A
102
}
102
{ACAD_XDICTIONARY
360
2A8
102
}
330
2A
100
AcDbVisualStyle
  2
Thicken
 70
    13
 71
     2
 72
     2
 73
     0
 90
        0
 40
-0.6
 41
-30.0
 62
     5
 63
     7
421
 16777215
 74
     1
 91
        4
 64
     7
 65
   257
 75
     1
175
     1
 42
1.0
 92
       12
 66
     7
 43
1.0
 76
     1
 77
     6
 78
     2
 67
     7
 79
     5
170
     0
171
     0
290
     0
174
     0
 93
        1
 44
0.0
173
     0
291
     1
 45
0.0
1001
ACAD
1000
AcDbSavedByObjectVersion
1070
     0
  0
DICTIONARY
  5
2B2
330
3D
100
AcDbDictionary
280
     1
281
     1
  3
ACAD_XREC_ROUNDTRIP
360
2B3
  0
DICTIONARY
  5
2B0
330
3C
100
AcDbDictionary
280
     1
281
     1
  3
ACAD_XREC_ROUNDTRIP
360
2B1
  0
DICTIONARY
  5
2B4
330
3E
100
AcDbDictionary
280
     1
281
     1
  3
ACAD_XREC_ROUNDTRIP
360
2B5
  0
DICTIONARY
  5
298
330
2F
100
AcDbDictionary
280
     1
281
     1
  3
ACAD_XREC_ROUNDTRIP
360
299
  0
DICTIONARY
  5
29C
330
31
100
AcDbDictionary
280
     1
281
     1
  3
ACAD_XREC_ROUNDTRIP
360
29D
  0
DICTIONARY
  5
29A
330
30
100
AcDbDictionary
280
     1
281
     1
  3
ACAD_XREC_ROUNDTRIP
360
29B
  0
DICTIONARY
  5
29E
330
32
100
AcDbDictionary
280
     1
281
     1
  3
ACAD_XREC_ROUNDTRIP
360
29F
  0
DICTIONARY
  5
2A6
330
36
100
AcDbDictionary
280
     1
281
     1
  3
ACAD_XREC_ROUNDTRIP
360
2A7
  0
DICTIONARY
  5
2AE
330
3A
100
AcDbDictionary
280
     1
281
     1
  3
ACAD_XREC_ROUNDTRIP
360
2AF
  0
DICTIONARY
  5
2A2
330
34
100
AcDbDictionary
280
     1
281
     1
  3
ACAD_XREC_ROUNDTRIP
360
2A3
  0
DICTIONARY
  5
2A4
330
35
100
AcDbDictionary
280
     1
281
     1
  3
ACAD_XREC_ROUNDTRIP
360
2A5
  0
DICTIONARY
  5
2AC
330
39
100
AcDbDictionary
280
     1
281
     1
  3
ACAD_XREC_ROUNDTRIP
360
2AD
  0
DICTIONARY
  5
290
330
2B
100
AcDbDictionary
280
     1
281
     1
  3
ACAD_XREC_ROUNDTRIP
360
291
  0
DICTIONARY
  5
292
330
2C
100
AcDbDictionary
280
     1
281
     1
  3
ACAD_XREC_ROUNDTRIP
360
293
  0
DICTIONARY
  5
294
330
2D
100
AcDbDictionary
280
     1
281
     1
  3
ACAD_XREC_ROUNDTRIP
360
295
  0
DICTIONARY
  5
296
330
2E
100
AcDbDictionary
280
     1
281
     1
  3
ACAD_XREC_ROUNDTRIP
360
297
  0
DICTIONARY
  5
2AA
330
38
100
AcDbDictionary
280
     1
281
     1
  3
ACAD_XREC_ROUNDTRIP
360
2AB
  0
DICTIONARY
  5
2A0
330
33
100
AcDbDictionary
280
     1
281
     1
  3
ACAD_XREC_ROUNDTRIP
360
2A1
  0
DICTIONARY
  5
2A8
330
37
100
AcDbDictionary
280
     1
281
     1
  3
ACAD_XREC_ROUNDTRIP
360
2A9
  0
XRECORD
  5
2B3
102
{ACAD_REACTORS
330
2B2
102
}
330
2B2
100
AcDbXrecord
280
     1
102
MATERIAL
148
0.0
149
0.0
149
0.0
 93
        0
 94
      127
282
     0
 72
     1
 77
     1
171
     1
175
     1
179
     1
273
     0
  0
XRECORD
  5
2B1
102
{ACAD_REACTORS
330
2B0
102
}
330
2B0
100
AcDbXrecord
280
     1
102
MATERIAL
148
0.0
149
0.0
149
0.0
 93
        0
 94
      127
282
     0
 72
     1
 77
     1
171
     1
175
     1
179
     1
273
     0
  0
XRECORD
  5
2B5
102
{ACAD_REACTORS
330
2B4
102
}
330
2B4
100
AcDbXrecord
280
     1
102
MATERIAL
148
0.0
149
0.0
149
0.0
 93
        0
 94
      127
282
     0
 72
     1
 77
     1
171
     1
175
     1
179
     1
273
     0
  0
XRECORD
  5
299
102
{ACAD_REACTORS
330
298
102
}
330
298
100
AcDbXrecord
280
     1
102
RTVSPropertyOp0
 70
     1
102
RTVSPropertyOp1
 70
     1
102
RTVSPropertyOp2
 70
     1
102
RTVSPropertyOp3
 70
     1
102
RTVSPropertyOp4
 70
     1
102
RTVSPropertyOp5
 70
     1
102
RTVSPropertyOp6
 70
     1
102
RTVSPropertyOp7
 70
     1
102
RTVSPropertyOp8
 70
     1
102
RTVSPropertyOp9
 70
     1
102
RTVSPropertyOp10
 70
     1
102
RTVSPropertyOp11
 70
     1
102
RTVSPropertyOp12
 70
     1
102
RTVSPropertyOp13
 70
     1
102
RTVSPropertyOp14
 70
     1
102
RTVSPropertyOp15
 70
     1
102
RTVSPropertyOp16
 70
     1
102
RTVSPropertyOp17
 70
     1
102
RTVSPropertyOp18
 70
     1
102
RTVSPropertyOp19
 70
     1
102
RTVSPropertyOp20
 70
     1
102
RTVSPropertyOp21
 70
     1
102
RTVSPropertyOp22
 70
     1
102
RTVSPropertyOp23
 70
     1
102
RTVSPropertyOp24
 70
     1
102
RTVSPropertyOp25
 70
     1
102
RTVSPropertyOp26
 70
     1
102
RTVSPropertyOp27
 70
     1
102
RTVSPropertyOp28
 70
     1
102
RTVSPropertyOp29
 70
     1
102
RTVSPropertyOp30
 70
     1
102
RTVSPropertyOp31
 70
     1
102
RTVSPropertyOp32
 70
     1
  0
XRECORD
  5
29D
102
{ACAD_REACTORS
330
29C
102
}
330
29C
100
AcDbXrecord
280
     1
102
RTVSPropertyOp0
 70
     1
102
RTVSPropertyOp1
 70
     1
102
RTVSPropertyOp2
 70
     1
102
RTVSPropertyOp3
 70
     1
102
RTVSPropertyOp4
 70
     1
102
RTVSPropertyOp5
 70
     1
102
RTVSPropertyOp6
 70
     1
102
RTVSPropertyOp7
 70
     1
102
RTVSPropertyOp8
 70
     1
102
RTVSPropertyOp9
 70
     1
102
RTVSPropertyOp10
 70
     1
102
RTVSPropertyOp11
 70
     1
102
RTVSPropertyOp12
 70
     1
102
RTVSPropertyOp13
 70
     1
102
RTVSPropertyOp14
 70
     1
102
RTVSPropertyOp15
 70
     1
102
RTVSPropertyOp16
 70
     1
102
RTVSPropertyOp17
 70
     1
102
RTVSPropertyOp18
 70
     1
102
RTVSPropertyOp19
 70
     1
102
RTVSPropertyOp20
 70
     1
102
RTVSPropertyOp21
 70
     1
102
RTVSPropertyOp22
 70
     1
102
RTVSPropertyOp23
 70
     1
102
RTVSPropertyOp24
 70
     1
102
RTVSPropertyOp25
 70
     1
102
RTVSPropertyOp26
 70
     1
102
RTVSPropertyOp27
 70
     1
102
RTVSPropertyOp28
 70
     1
102
RTVSPropertyOp29
 70
     1
102
RTVSPropertyOp30
 70
     1
102
RTVSPropertyOp31
 70
     1
102
RTVSPropertyOp32
 70
     1
  0
XRECORD
  5
29B
102
{ACAD_REACTORS
330
29A
102
}
330
29A
100
AcDbXrecord
280
     1
102
RTVSPropertyOp0
 70
     1
102
RTVSPropertyOp1
 70
     1
102
RTVSPropertyOp2
 70
     1
102
RTVSPropertyOp3
 70
     1
102
RTVSPropertyOp4
 70
     1
102
RTVSPropertyOp5
 70
     1
102
RTVSPropertyOp6
 70
     1
102
RTVSPropertyOp7
 70
     1
102
RTVSPropertyOp8
 70
     1
102
RTVSPropertyOp9
 70
     1
102
RTVSPropertyOp10
 70
     1
102
RTVSPropertyOp11
 70
     1
102
RTVSPropertyOp12
 70
     1
102
RTVSPropertyOp13
 70
     1
102
RTVSPropertyOp14
 70
     1
102
RTVSPropertyOp15
 70
     1
102
RTVSPropertyOp16
 70
     1
102
RTVSPropertyOp17
 70
     1
102
RTVSPropertyOp18
 70
     1
102
RTVSPropertyOp19
 70
     1
102
RTVSPropertyOp20
 70
     1
102
RTVSPropertyOp21
 70
     1
102
RTVSPropertyOp22
 70
     1
102
RTVSPropertyOp23
 70
     1
102
RTVSPropertyOp24
 70
     1
102
RTVSPropertyOp25
 70
     1
102
RTVSPropertyOp26
 70
     1
102
RTVSPropertyOp27
 70
     1
102
RTVSPropertyOp28
 70
     1
102
RTVSPropertyOp29
 70
     1
102
RTVSPropertyOp30
 70
     1
102
RTVSPropertyOp31
 70
     1
102
RTVSPropertyOp32
 70
     1
  0
XRECORD
  5
29F
102
{ACAD_REACTORS
330
29E
102
}
330
29E
100
AcDbXrecord
280
     1
102
RTVSPropertyOp0
 70
     1
102
RTVSPropertyOp1
 70
     1
102
RTVSPropertyOp2
 70
     1
102
RTVSPropertyOp3
 70
     1
102
RTVSPropertyOp4
 70
     1
102
RTVSPropertyOp5
 70
     1
102
RTVSPropertyOp6
 70
     1
102
RTVSPropertyOp7
 70
     1
102
RTVSPropertyOp8
 70
     1
102
RTVSPropertyOp9
 70
     1
102
RTVSPropertyOp10
 70
     1
102
RTVSPropertyOp11
 70
     1
102
RTVSPropertyOp12
 70
     1
102
RTVSPropertyOp13
 70
     1
102
RTVSPropertyOp14
 70
     1
102
RTVSPropertyOp15
 70
     1
102
RTVSPropertyOp16
 70
     1
102
RTVSPropertyOp17
 70
     1
102
RTVSPropertyOp18
 70
     1
102
RTVSPropertyOp19
 70
     1
102
RTVSPropertyOp20
 70
     1
102
RTVSPropertyOp21
 70
     1
102
RTVSPropertyOp22
 70
     1
102
RTVSPropertyOp23
 70
     1
102
RTVSPropertyOp24
 70
     1
102
RTVSPropertyOp25
 70
     1
102
RTVSPropertyOp26
 70
     1
102
RTVSPropertyOp27
 70
     1
102
RTVSPropertyOp28
 70
     1
102
RTVSPropertyOp29
 70
     1
102
RTVSPropertyOp30
 70
     1
102
RTVSPropertyOp31
 70
     1
102
RTVSPropertyOp32
 70
     1
  0
XRECORD
  5
2A7
102
{ACAD_REACTORS
330
2A6
102
}
330
2A6
100
AcDbXrecord
280
     1
102
RTVSPropertyOp0
 70
     1
102
RTVSPropertyOp1
 70
     1
102
RTVSPropertyOp2
 70
     1
102
RTVSPropertyOp3
 70
     1
102
RTVSPropertyOp4
 70
     1
102
RTVSPropertyOp5
 70
     1
102
RTVSPropertyOp6
 70
     1
102
RTVSPropertyOp7
 70
     1
102
RTVSPropertyOp8
 70
     1
102
RTVSPropertyOp9
 70
     1
102
RTVSPropertyOp10
 70
     1
102
RTVSPropertyOp11
 70
     1
102
RTVSPropertyOp12
 70
     1
102
RTVSPropertyOp13
 70
     1
102
RTVSPropertyOp14
 70
     1
102
RTVSPropertyOp15
 70
     1
102
RTVSPropertyOp16
 70
     1
102
RTVSPropertyOp17
 70
     1
102
RTVSPropertyOp18
 70
     1
102
RTVSPropertyOp19
 70
     1
102
RTVSPropertyOp20
 70
     1
102
RTVSPropertyOp21
 70
     1
102
RTVSPropertyOp22
 70
     1
102
RTVSPropertyOp23
 70
     1
102
RTVSPropertyOp24
 70
     1
102
RTVSPropertyOp25
 70
     1
102
RTVSPropertyOp26
 70
     1
102
RTVSPropertyOp27
 70
     1
102
RTVSPropertyOp28
 70
     1
102
RTVSPropertyOp29
 70
     1
102
RTVSPropertyOp30
 70
     1
102
RTVSPropertyOp31
 70
     1
102
RTVSPropertyOp32
 70
     1
  0
XRECORD
  5
2AF
102
{ACAD_REACTORS
330
2AE
102
}
330
2AE
100
AcDbXrecord
280
     1
102
RTVSPropertyOp0
 70
     1
102
RTVSPropertyOp1
 70
     1
102
RTVSPropertyOp2
 70
     1
102
RTVSPropertyOp3
 70
     1
102
RTVSPropertyOp4
 70
     1
102
RTVSPropertyOp5
 70
     1
102
RTVSPropertyOp6
 70
     1
102
RTVSPropertyOp7
 70
     1
102
RTVSPropertyOp8
 70
     1
102
RTVSPropertyOp9
 70
     1
102
RTVSPropertyOp10
 70
     1
102
RTVSPropertyOp11
 70
     1
102
RTVSPropertyOp12
 70
     1
102
RTVSPropertyOp13
 70
     1
102
RTVSPropertyOp14
 70
     1
102
RTVSPropertyOp15
 70
     1
102
RTVSPropertyOp16
 70
     1
102
RTVSPropertyOp17
 70
     1
102
RTVSPropertyOp18
 70
     1
102
RTVSPropertyOp19
 70
     1
102
RTVSPropertyOp20
 70
     1
102
RTVSPropertyOp21
 70
     1
102
RTVSPropertyOp22
 70
     1
102
RTVSPropertyOp23
 70
     1
102
RTVSPropertyOp24
 70
     1
102
RTVSPropertyOp25
 70
     1
102
RTVSPropertyOp26
 70
     1
102
RTVSPropertyOp27
 70
     1
102
RTVSPropertyOp28
 70
     1
102
RTVSPropertyOp29
 70
     1
102
RTVSPropertyOp30
 70
     1
102
RTVSPropertyOp31
 70
     1
102
RTVSPropertyOp32
 70
     1
  0
XRECORD
  5
2A3
102
{ACAD_REACTORS
330
2A2
102
}
330
2A2
100
AcDbXrecord
280
     1
102
RTVSPropertyOp0
 70
     1
102
RTVSPropertyOp1
 70
     1
102
RTVSPropertyOp2
 70
     1
102
RTVSPropertyOp3
 70
     1
102
RTVSPropertyOp4
 70
     1
102
RTVSPropertyOp5
 70
     1
102
RTVSPropertyOp6
 70
     1
102
RTVSPropertyOp7
 70
     1
102
RTVSPropertyOp8
 70
     1
102
RTVSPropertyOp9
 70
     1
102
RTVSPropertyOp10
 70
     1
102
RTVSPropertyOp11
 70
     1
102
RTVSPropertyOp12
 70
     1
102
RTVSPropertyOp13
 70
     1
102
RTVSPropertyOp14
 70
     1
102
RTVSPropertyOp15
 70
     1
102
RTVSPropertyOp16
 70
     1
102
RTVSPropertyOp17
 70
     1
102
RTVSPropertyOp18
 70
     1
102
RTVSPropertyOp19
 70
     1
102
RTVSPropertyOp20
 70
     1
102
RTVSPropertyOp21
 70
     1
102
RTVSPropertyOp22
 70
     1
102
RTVSPropertyOp23
 70
     1
102
RTVSPropertyOp24
 70
     1
102
RTVSPropertyOp25
 70
     1
102
RTVSPropertyOp26
 70
     1
102
RTVSPropertyOp27
 70
     1
102
RTVSPropertyOp28
 70
     1
102
RTVSPropertyOp29
 70
     1
102
RTVSPropertyOp30
 70
     1
102
RTVSPropertyOp31
 70
     1
102
RTVSPropertyOp32
 70
     1
  0
XRECORD
  5
2A5
102
{ACAD_REACTORS
330
2A4
102
}
330
2A4
100
AcDbXrecord
280
     1
102
RTVSPropertyOp0
 70
     1
102
RTVSPropertyOp1
 70
     1
102
RTVSPropertyOp2
 70
     1
102
RTVSPropertyOp3
 70
     1
102
RTVSPropertyOp4
 70
     1
102
RTVSPropertyOp5
 70
     1
102
RTVSPropertyOp6
 70
     1
102
RTVSPropertyOp7
 70
     1
102
RTVSPropertyOp8
 70
     1
102
RTVSPropertyOp9
 70
     1
102
RTVSPropertyOp10
 70
     1
102
RTVSPropertyOp11
 70
     1
102
RTVSPropertyOp12
 70
     1
102
RTVSPropertyOp13
 70
     1
102
RTVSPropertyOp14
 70
     1
102
RTVSPropertyOp15
 70
     1
102
RTVSPropertyOp16
 70
     1
102
RTVSPropertyOp17
 70
     1
102
RTVSPropertyOp18
 70
     1
102
RTVSPropertyOp19
 70
     1
102
RTVSPropertyOp20
 70
     1
102
RTVSPropertyOp21
 70
     1
102
RTVSPropertyOp22
 70
     1
102
RTVSPropertyOp23
 70
     1
102
RTVSPropertyOp24
 70
     1
102
RTVSPropertyOp25
 70
     1
102
RTVSPropertyOp26
 70
     1
102
RTVSPropertyOp27
 70
     1
102
RTVSPropertyOp28
 70
     1
102
RTVSPropertyOp29
 70
     1
102
RTVSPropertyOp30
 70
     1
102
RTVSPropertyOp31
 70
     1
102
RTVSPropertyOp32
 70
     1
  0
XRECORD
  5
2AD
102
{ACAD_REACTORS
330
2AC
102
}
330
2AC
100
AcDbXrecord
280
     1
102
RTVSPropertyOp0
 70
     1
102
RTVSPropertyOp1
 70
     1
102
RTVSPropertyOp2
 70
     1
102
RTVSPropertyOp3
 70
     1
102
RTVSPropertyOp4
 70
     1
102
RTVSPropertyOp5
 70
     1
102
RTVSPropertyOp6
 70
     1
102
RTVSPropertyOp7
 70
     1
102
RTVSPropertyOp8
 70
     1
102
RTVSPropertyOp9
 70
     1
102
RTVSPropertyOp10
 70
     1
102
RTVSPropertyOp11
 70
     1
102
RTVSPropertyOp12
 70
     1
102
RTVSPropertyOp13
 70
     1
102
RTVSPropertyOp14
 70
     1
102
RTVSPropertyOp15
 70
     1
102
RTVSPropertyOp16
 70
     1
102
RTVSPropertyOp17
 70
     1
102
RTVSPropertyOp18
 70
     1
102
RTVSPropertyOp19
 70
     1
102
RTVSPropertyOp20
 70
     1
102
RTVSPropertyOp21
 70
     1
102
RTVSPropertyOp22
 70
     1
102
RTVSPropertyOp23
 70
     1
102
RTVSPropertyOp24
 70
     1
102
RTVSPropertyOp25
 70
     1
102
RTVSPropertyOp26
 70
     1
102
RTVSPropertyOp27
 70
     1
102
RTVSPropertyOp28
 70
     1
102
RTVSPropertyOp29
 70
     1
102
RTVSPropertyOp30
 70
     1
102
RTVSPropertyOp31
 70
     1
102
RTVSPropertyOp32
 70
     1
  0
XRECORD
  5
291
102
{ACAD_REACTORS
330
290
102
}
330
290
100
AcDbXrecord
280
     1
102
RTVSPropertyOp0
 70
     1
102
RTVSPropertyOp1
 70
     1
102
RTVSPropertyOp2
 70
     1
102
RTVSPropertyOp3
 70
     1
102
RTVSPropertyOp4
 70
     1
102
RTVSPropertyOp5
 70
     1
102
RTVSPropertyOp6
 70
     1
102
RTVSPropertyOp7
 70
     1
102
RTVSPropertyOp8
 70
     1
102
RTVSPropertyOp9
 70
     1
102
RTVSPropertyOp10
 70
     1
102
RTVSPropertyOp11
 70
     1
102
RTVSPropertyOp12
 70
     1
102
RTVSPropertyOp13
 70
     1
102
RTVSPropertyOp14
 70
     1
102
RTVSPropertyOp15
 70
     1
102
RTVSPropertyOp16
 70
     1
102
RTVSPropertyOp17
 70
     1
102
RTVSPropertyOp18
 70
     1
102
RTVSPropertyOp19
 70
     1
102
RTVSPropertyOp20
 70
     1
102
RTVSPropertyOp21
 70
     1
102
RTVSPropertyOp22
 70
     1
102
RTVSPropertyOp23
 70
     1
102
RTVSPropertyOp24
 70
     1
102
RTVSPropertyOp25
 70
     1
102
RTVSPropertyOp26
 70
     1
102
RTVSPropertyOp27
 70
     1
102
RTVSPropertyOp28
 70
     1
102
RTVSPropertyOp29
 70
     1
102
RTVSPropertyOp30
 70
     1
102
RTVSPropertyOp31
 70
     1
102
RTVSPropertyOp32
 70
     1
  0
XRECORD
  5
293
102
{ACAD_REACTORS
330
292
102
}
330
292
100
AcDbXrecord
280
     1
102
RTVSPropertyOp0
 70
     1
102
RTVSPropertyOp1
 70
     1
102
RTVSPropertyOp2
 70
     1
102
RTVSPropertyOp3
 70
     1
102
RTVSPropertyOp4
 70
     1
102
RTVSPropertyOp5
 70
     1
102
RTVSPropertyOp6
 70
     1
102
RTVSPropertyOp7
 70
     1
102
RTVSPropertyOp8
 70
     1
102
RTVSPropertyOp9
 70
     1
102
RTVSPropertyOp10
 70
     1
102
RTVSPropertyOp11
 70
     1
102
RTVSPropertyOp12
 70
     1
102
RTVSPropertyOp13
 70
     1
102
RTVSPropertyOp14
 70
     1
102
RTVSPropertyOp15
 70
     1
102
RTVSPropertyOp16
 70
     1
102
RTVSPropertyOp17
 70
     1
102
RTVSPropertyOp18
 70
     1
102
RTVSPropertyOp19
 70
     1
102
RTVSPropertyOp20
 70
     1
102
RTVSPropertyOp21
 70
     1
102
RTVSPropertyOp22
 70
     1
102
RTVSPropertyOp23
 70
     1
102
RTVSPropertyOp24
 70
     1
102
RTVSPropertyOp25
 70
     1
102
RTVSPropertyOp26
 70
     1
102
RTVSPropertyOp27
 70
     1
102
RTVSPropertyOp28
 70
     1
102
RTVSPropertyOp29
 70
     1
102
RTVSPropertyOp30
 70
     1
102
RTVSPropertyOp31
 70
     1
102
RTVSPropertyOp32
 70
     1
  0
XRECORD
  5
295
102
{ACAD_REACTORS
330
294
102
}
330
294
100
AcDbXrecord
280
     1
102
RTVSPropertyOp0
 70
     1
102
RTVSPropertyOp1
 70
     1
102
RTVSPropertyOp2
 70
     1
102
RTVSPropertyOp3
 70
     1
102
RTVSPropertyOp4
 70
     1
102
RTVSPropertyOp5
 70
     1
102
RTVSPropertyOp6
 70
     1
102
RTVSPropertyOp7
 70
     1
102
RTVSPropertyOp8
 70
     1
102
RTVSPropertyOp9
 70
     1
102
RTVSPropertyOp10
 70
     1
102
RTVSPropertyOp11
 70
     1
102
RTVSPropertyOp12
 70
     1
102
RTVSPropertyOp13
 70
     1
102
RTVSPropertyOp14
 70
     1
102
RTVSPropertyOp15
 70
     1
102
RTVSPropertyOp16
 70
     1
102
RTVSPropertyOp17
 70
     1
102
RTVSPropertyOp18
 70
     1
102
RTVSPropertyOp19
 70
     1
102
RTVSPropertyOp20
 70
     1
102
RTVSPropertyOp21
 70
     1
102
RTVSPropertyOp22
 70
     1
102
RTVSPropertyOp23
 70
     1
102
RTVSPropertyOp24
 70
     1
102
RTVSPropertyOp25
 70
     1
102
RTVSPropertyOp26
 70
     1
102
RTVSPropertyOp27
 70
     1
102
RTVSPropertyOp28
 70
     1
102
RTVSPropertyOp29
 70
     1
102
RTVSPropertyOp30
 70
     1
102
RTVSPropertyOp31
 70
     1
102
RTVSPropertyOp32
 70
     1
  0
XRECORD
  5
297
102
{ACAD_REACTORS
330
296
102
}
330
296
100
AcDbXrecord
280
     1
102
RTVSPropertyOp0
 70
     1
102
RTVSPropertyOp1
 70
     1
102
RTVSPropertyOp2
 70
     1
102
RTVSPropertyOp3
 70
     1
102
RTVSPropertyOp4
 70
     1
102
RTVSPropertyOp5
 70
     1
102
RTVSPropertyOp6
 70
     1
102
RTVSPropertyOp7
 70
     1
102
RTVSPropertyOp8
 70
     1
102
RTVSPropertyOp9
 70
     1
102
RTVSPropertyOp10
 70
     1
102
RTVSPropertyOp11
 70
     1
102
RTVSPropertyOp12
 70
     1
102
RTVSPropertyOp13
 70
     1
102
RTVSPropertyOp14
 70
     1
102
RTVSPropertyOp15
 70
     1
102
RTVSPropertyOp16
 70
     1
102
RTVSPropertyOp17
 70
     1
102
RTVSPropertyOp18
 70
     1
102
RTVSPropertyOp19
 70
     1
102
RTVSPropertyOp20
 70
     1
102
RTVSPropertyOp21
 70
     1
102
RTVSPropertyOp22
 70
     1
102
RTVSPropertyOp23
 70
     1
102
RTVSPropertyOp24
 70
     1
102
RTVSPropertyOp25
 70
     1
102
RTVSPropertyOp26
 70
     1
102
RTVSPropertyOp27
 70
     1
102
RTVSPropertyOp28
 70
     1
102
RTVSPropertyOp29
 70
     1
102
RTVSPropertyOp30
 70
     1
102
RTVSPropertyOp31
 70
     1
102
RTVSPropertyOp32
 70
     1
  0
XRECORD
  5
2AB
102
{ACAD_REACTORS
330
2AA
102
}
330
2AA
100
AcDbXrecord
280
     1
102
RTVSPropertyOp0
 70
     1
102
RTVSPropertyOp1
 70
     1
102
RTVSPropertyOp2
 70
     1
102
RTVSPropertyOp3
 70
     1
102
RTVSPropertyOp4
 70
     1
102
RTVSPropertyOp5
 70
     1
102
RTVSPropertyOp6
 70
     1
102
RTVSPropertyOp7
 70
     1
102
RTVSPropertyOp8
 70
     1
102
RTVSPropertyOp9
 70
     1
102
RTVSPropertyOp10
 70
     1
102
RTVSPropertyOp11
 70
     1
102
RTVSPropertyOp12
 70
     1
102
RTVSPropertyOp13
 70
     1
102
RTVSPropertyOp14
 70
     1
102
RTVSPropertyOp15
 70
     1
102
RTVSPropertyOp16
 70
     1
102
RTVSPropertyOp17
 70
     1
102
RTVSPropertyOp18
 70
     1
102
RTVSPropertyOp19
 70
     1
102
RTVSPropertyOp20
 70
     1
102
RTVSPropertyOp21
 70
     1
102
RTVSPropertyOp22
 70
     1
102
RTVSPropertyOp23
 70
     1
102
RTVSPropertyOp24
 70
     1
102
RTVSPropertyOp25
 70
     1
102
RTVSPropertyOp26
 70
     1
102
RTVSPropertyOp27
 70
     1
102
RTVSPropertyOp28
 70
     1
102
RTVSPropertyOp29
 70
     1
102
RTVSPropertyOp30
 70
     1
102
RTVSPropertyOp31
 70
     1
102
RTVSPropertyOp32
 70
     1
  0
XRECORD
  5
2A1
102
{ACAD_REACTORS
330
2A0
102
}
330
2A0
100
AcDbXrecord
280
     1
102
RTVSPropertyOp0
 70
     1
102
RTVSPropertyOp1
 70
     1
102
RTVSPropertyOp2
 70
     1
102
RTVSPropertyOp3
 70
     1
102
RTVSPropertyOp4
 70
     1
102
RTVSPropertyOp5
 70
     1
102
RTVSPropertyOp6
 70
     1
102
RTVSPropertyOp7
 70
     1
102
RTVSPropertyOp8
 70
     1
102
RTVSPropertyOp9
 70
     1
102
RTVSPropertyOp10
 70
     1
102
RTVSPropertyOp11
 70
     1
102
RTVSPropertyOp12
 70
     1
102
RTVSPropertyOp13
 70
     1
102
RTVSPropertyOp14
 70
     1
102
RTVSPropertyOp15
 70
     1
102
RTVSPropertyOp16
 70
     1
102
RTVSPropertyOp17
 70
     1
102
RTVSPropertyOp18
 70
     1
102
RTVSPropertyOp19
 70
     1
102
RTVSPropertyOp20
 70
     1
102
RTVSPropertyOp21
 70
     1
102
RTVSPropertyOp22
 70
     1
102
RTVSPropertyOp23
 70
     1
102
RTVSPropertyOp24
 70
     1
102
RTVSPropertyOp25
 70
     1
102
RTVSPropertyOp26
 70
     1
102
RTVSPropertyOp27
 70
     1
102
RTVSPropertyOp28
 70
     1
102
RTVSPropertyOp29
 70
     1
102
RTVSPropertyOp30
 70
     1
102
RTVSPropertyOp31
 70
     1
102
RTVSPropertyOp32
 70
     1
  0
XRECORD
  5
2A9
102
{ACAD_REACTORS
330
2A8
102
}
330
2A8
100
AcDbXrecord
280
     1
102
RTVSPropertyOp0
 70
     1
102
RTVSPropertyOp1
 70
     1
102
RTVSPropertyOp2
 70
     1
102
RTVSPropertyOp3
 70
     1
102
RTVSPropertyOp4
 70
     1
102
RTVSPropertyOp5
 70
     1
102
RTVSPropertyOp6
 70
     1
102
RTVSPropertyOp7
 70
     1
102
RTVSPropertyOp8
 70
     1
102
RTVSPropertyOp9
 70
     1
102
RTVSPropertyOp10
 70
     1
102
RTVSPropertyOp11
 70
     1
102
RTVSPropertyOp12
 70
     1
102
RTVSPropertyOp13
 70
     1
102
RTVSPropertyOp14
 70
     1
102
RTVSPropertyOp15
 70
     1
102
RTVSPropertyOp16
 70
     1
102
RTVSPropertyOp17
 70
     1
102
RTVSPropertyOp18
 70
     1
102
RTVSPropertyOp19
 70
     1
102
RTVSPropertyOp20
 70
     1
102
RTVSPropertyOp21
 70
     1
102
RTVSPropertyOp22
 70
     1
102
RTVSPropertyOp23
 70
     1
102
RTVSPropertyOp24
 70
     1
102
RTVSPropertyOp25
 70
     1
102
RTVSPropertyOp26
 70
     1
102
RTVSPropertyOp27
 70
     1
102
RTVSPropertyOp28
 70
     1
102
RTVSPropertyOp29
 70
     1
102
RTVSPropertyOp30
 70
     1
102
RTVSPropertyOp31
 70
     1
102
RTVSPropertyOp32
 70
     1
  0
ENDSEC
  0
EOF
