  0
SECTION
  2
HEADER
  9
$ACADVER
  1
AC1018
  9
$ACADMAINTVER
 70
     0
  9
$DWGCODEPAGE
  3
ANSI_1252
  9
$INSBASE
 10
0.0
 20
0.0
 30
0.0
  9
$EXTMIN
 10
-77.89999961852436
 20
329.6397459007427
 30
0.0
  9
$EXTMAX
 10
219.1000003814737
 20
539.6397459007428
 30
0.0
  9
$LIMMIN
 10
0.0
 20
0.0
  9
$LIMMAX
 10
12.0
 20
9.0
  9
$ORTHOMODE
 70
     0
  9
$REGENMODE
 70
     1
  9
$FILLMODE
 70
     1
  9
$QTEXTMODE
 70
     0
  9
$MIRRTEXT
 70
     1
  9
$LTSCALE
 40
1.0
  9
$ATTMODE
 70
     1
  9
$TEXTSIZE
 40
0.2
  9
$TRACEWID
 40
0.05
  9
$TEXTSTYLE
  7
Standard
  9
$CLAYER
  8
0
  9
$CELTYPE
  6
ByLayer
  9
$CECOLOR
 62
   256
  9
$CELTSCALE
 40
1.0
  9
$DISPSILH
 70
     0
  9
$DIMSCALE
 40
1.0
  9
$DIMASZ
 40
0.18
  9
$DIMEXO
 40
0.0625
  9
$DIMDLI
 40
0.38
  9
$DIMRND
 40
0.0
  9
$DIMDLE
 40
0.0
  9
$DIMEXE
 40
0.18
  9
$DIMTP
 40
0.0
  9
$DIMTM
 40
0.0
  9
$DIMTXT
 40
0.18
  9
$DIMCEN
 40
0.09
  9
$DIMTSZ
 40
0.0
  9
$DIMTOL
 70
     0
  9
$DIMLIM
 70
     0
  9
$DIMTIH
 70
     1
  9
$DIMTOH
 70
     1
  9
$DIMSE1
 70
     0
  9
$DIMSE2
 70
     0
  9
$DIMTAD
 70
     0
  9
$DIMZIN
 70
     0
  9
$DIMBLK
  1

  9
$DIMASO
 70
     1
  9
$DIMSHO
 70
     1
  9
$DIMPOST
  1

  9
$DIMAPOST
  1

  9
$DIMALT
 70
     0
  9
$DIMALTD
 70
     2
  9
$DIMALTF
 40
25.4
  9
$DIMLFAC
 40
1.0
  9
$DIMTOFL
 70
     0
  9
$DIMTVP
 40
0.0
  9
$DIMTIX
 70
     0
  9
$DIMSOXD
 70
     0
  9
$DIMSAH
 70
     0
  9
$DIMBLK1
  1

  9
$DIMBLK2
  1

  9
$DIMSTYLE
  2
Standard
  9
$DIMCLRD
 70
     0
  9
$DIMCLRE
 70
     0
  9
$DIMCLRT
 70
     0
  9
$DIMTFAC
 40
1.0
  9
$DIMGAP
 40
0.09
  9
$DIMJUST
 70
     0
  9
$DIMSD1
 70
     0
  9
$DIMSD2
 70
     0
  9
$DIMTOLJ
 70
     1
  9
$DIMTZIN
 70
     0
  9
$DIMALTZ
 70
     0
  9
$DIMALTTZ
 70
     0
  9
$DIMUPT
 70
     0
  9
$DIMDEC
 70
     4
  9
$DIMTDEC
 70
     4
  9
$DIMALTU
 70
     2
  9
$DIMALTTD
 70
     2
  9
$DIMTXSTY
  7
Standard
  9
$DIMAUNIT
 70
     0
  9
$DIMADEC
 70
     0
  9
$DIMALTRND
 40
0.0
  9
$DIMAZIN
 70
     0
  9
$DIMDSEP
 70
    46
  9
$DIMATFIT
 70
     3
  9
$DIMFRAC
 70
     0
  9
$DIMLDRBLK
  1

  9
$DIMLUNIT
 70
     2
  9
$DIMLWD
 70
    -2
  9
$DIMLWE
 70
    -2
  9
$DIMTMOVE
 70
     0
  9
$LUNITS
 70
     2
  9
$LUPREC
 70
     4
  9
$SKETCHINC
 40
0.1
  9
$FILLETRAD
 40
0.5
  9
$AUNITS
 70
     0
  9
$AUPREC
 70
     0
  9
$MENU
  1
.
  9
$ELEVATION
 40
0.0
  9
$PELEVATION
 40
0.0
  9
$THICKNESS
 40
0.0
  9
$LIMCHECK
 70
     0
  9
$CHAMFERA
 40
0.5
  9
$CHAMFERB
 40
0.5
  9
$CHAMFERC
 40
1.0
  9
$CHAMFERD
 40
0.0
  9
$SKPOLY
 70
     0
  9
$TDCREATE
 40
2458225.380993113
  9
$TDUCREATE
 40
2458225.29765978
  9
$TDUPDATE
 40
2458225.380993472
  9
$TDUUPDATE
 40
2458225.297660139
  9
$TDINDWG
 40
0.0000000116
  9
$TDUSRTIMER
 40
0.0000000116
  9
$USRTIMER
 70
     1
  9
$ANGBASE
 50
0.0
  9
$ANGDIR
 70
     0
  9
$PDMODE
 70
     0
  9
$PDSIZE
 40
0.0
  9
$PLINEWID
 40
0.0
  9
$SPLFRAME
 70
     0
  9
$SPLINETYPE
 70
     6
  9
$SPLINESEGS
 70
     8
  9
$HANDSEED
  5
2C5
  9
$SURFTAB1
 70
     6
  9
$SURFTAB2
 70
     6
  9
$SURFTYPE
 70
     6
  9
$SURFU
 70
     6
  9
$SURFV
 70
     6
  9
$UCSBASE
  2

  9
$UCSNAME
  2

  9
$UCSORG
 10
0.0
 20
0.0
 30
0.0
  9
$UCSXDIR
 10
1.0
 20
0.0
 30
0.0
  9
$UCSYDIR
 10
0.0
 20
1.0
 30
0.0
  9
$UCSORTHOREF
  2

  9
$UCSORTHOVIEW
 70
     0
  9
$UCSORGTOP
 10
0.0
 20
0.0
 30
0.0
  9
$UCSORGBOTTOM
 10
0.0
 20
0.0
 30
0.0
  9
$UCSORGLEFT
 10
0.0
 20
0.0
 30
0.0
  9
$UCSORGRIGHT
 10
0.0
 20
0.0
 30
0.0
  9
$UCSORGFRONT
 10
0.0
 20
0.0
 30
0.0
  9
$UCSORGBACK
 10
0.0
 20
0.0
 30
0.0
  9
$PUCSBASE
  2

  9
$PUCSNAME
  2

  9
$PUCSORG
 10
0.0
 20
0.0
 30
0.0
  9
$PUCSXDIR
 10
1.0
 20
0.0
 30
0.0
  9
$PUCSYDIR
 10
0.0
 20
1.0
 30
0.0
  9
$PUCSORTHOREF
  2

  9
$PUCSORTHOVIEW
 70
     0
  9
$PUCSORGTOP
 10
0.0
 20
0.0
 30
0.0
  9
$PUCSORGBOTTOM
 10
0.0
 20
0.0
 30
0.0
  9
$PUCSORGLEFT
 10
0.0
 20
0.0
 30
0.0
  9
$PUCSORGRIGHT
 10
0.0
 20
0.0
 30
0.0
  9
$PUCSORGFRONT
 10
0.0
 20
0.0
 30
0.0
  9
$PUCSORGBACK
 10
0.0
 20
0.0
 30
0.0
  9
$USERI1
 70
     0
  9
$USERI2
 70
     0
  9
$USERI3
 70
     0
  9
$USERI4
 70
     0
  9
$USERI5
 70
     0
  9
$USERR1
 40
18.1
  9
$USERR2
 40
0.0
  9
$USERR3
 40
0.0
  9
$USERR4
 40
0.0
  9
$USERR5
 40
0.0
  9
$WORLDVIEW
 70
     1
  9
$SHADEDGE
 70
     3
  9
$SHADEDIF
 70
    70
  9
$TILEMODE
 70
     1
  9
$MAXACTVP
 70
    64
  9
$PINSBASE
 10
0.0
 20
0.0
 30
0.0
  9
$PLIMCHECK
 70
     0
  9
$PEXTMIN
 10
1.00000000000000E+20
 20
1.00000000000000E+20
 30
1.00000000000000E+20
  9
$PEXTMAX
 10
-1.00000000000000E+20
 20
-1.00000000000000E+20
 30
-1.00000000000000E+20
  9
$PLIMMIN
 10
0.0
 20
0.0
  9
$PLIMMAX
 10
12.0
 20
9.0
  9
$UNITMODE
 70
     0
  9
$VISRETAIN
 70
     1
  9
$PLINEGEN
 70
     0
  9
$PSLTSCALE
 70
     1
  9
$TREEDEPTH
 70
  3020
  9
$CMLSTYLE
  2
Standard
  9
$CMLJUST
 70
     0
  9
$CMLSCALE
 40
1.0
  9
$PROXYGRAPHICS
 70
     1
  9
$MEASUREMENT
 70
     1
  9
$CELWEIGHT
370
    -1
  9
$ENDCAPS
280
     0
  9
$JOINSTYLE
280
     0
  9
$LWDISPLAY
290
     0
  9
$INSUNITS
 70
     4
  9
$HYPERLINKBASE
  1

  9
$STYLESHEET
  1

  9
$XEDIT
290
     1
  9
$CEPSNTYPE
380
     0
  9
$PSTYLEMODE
290
     1
  9
$FINGERPRINTGUID
  2
{DC7E3701-0620-4980-85F8-42BDC37F3D0A}
  9
$VERSIONGUID
  2
{FAEB1C32-E019-11D5-929B-00C0DF256EC4}
  9
$EXTNAMES
290
     1
  9
$PSVPSCALE
 40
0.0
  9
$OLESTARTUP
290
     0
  9
$SORTENTS
280
   127
  9
$INDEXCTL
280
     0
  9
$HIDETEXT
280
     1
  9
$XCLIPFRAME
290
     0
  9
$HALOGAP
280
     0
  9
$OBSCOLOR
 70
   257
  9
$OBSLTYPE
280
     0
  9
$INTERSECTIONDISPLAY
280
     0
  9
$INTERSECTIONCOLOR
 70
   257
  9
$DIMASSOC
280
     2
  9
$PROJECTNAME
  1

  0
ENDSEC
  0
SECTION
  2
CLASSES
  0
CLASS
  1
ACDBDICTIONARYWDFLT
  2
AcDbDictionaryWithDefault
  3
ObjectDBX Classes
 90
        0
 91
        4
280
     0
281
     0
  0
CLASS
  1
VISUALSTYLE
  2
AcDbVisualStyle
  3
ObjectDBX Classes
 90
     4095
 91
        4
280
     0
281
     0
  0
CLASS
  1
MATERIAL
  2
AcDbMaterial
  3
ObjectDBX Classes
 90
     1153
 91
        4
280
     0
281
     0
  0
ENDSEC
  0
SECTION
  2
TABLES
  0
TABLE
  2
VPORT
  5
8
330
0
100
AcDbSymbolTable
 70
     1
  0
VPORT
  5
29
330
8
100
AcDbSymbolTableRecord
100
AcDbViewportTableRecord
  2
*Active
 70
     0
 10
0.0
 20
0.0
 11
1.0
 21
1.0
 12
70.60000038147467
 22
434.6397459007428
 13
0.0
 23
0.0
 14
0.5
 24
0.5
 15
0.5
 25
0.5
 16
0.0
 26
0.0
 36
1.0
 17
0.0
 27
0.0
 37
0.0
 40
231.0000000000001
 41
1.60267857142857
 42
50.0
 43
0.0
 44
0.0
 50
0.0
 51
0.0
 71
     0
 72
   100
 73
     1
 74
     3
 75
     0
 76
     0
 77
     0
 78
     0
281
     0
 65
     1
110
0.0
120
0.0
130
0.0
111
1.0
121
0.0
131
0.0
112
0.0
122
1.0
132
0.0
 79
     0
146
0.0
  0
ENDTAB
  0
TABLE
  2
LTYPE
  5
5
330
0
100
AcDbSymbolTable
 70
     8
  0
LTYPE
  5
14
330
5
100
AcDbSymbolTableRecord
100
AcDbLinetypeTableRecord
  2
ByBlock
 70
     0
  3

 72
    65
 73
     0
 40
0.0
  0
LTYPE
  5
15
330
5
100
AcDbSymbolTableRecord
100
AcDbLinetypeTableRecord
  2
ByLayer
 70
     0
  3

 72
    65
 73
     0
 40
0.0
  0
LTYPE
  5
16
330
5
100
AcDbSymbolTableRecord
100
AcDbLinetypeTableRecord
  2
Continuous
 70
     0
  3
Solid line
 72
    65
 73
     0
 40
0.0
  0
LTYPE
  5
3F
330
5
100
AcDbSymbolTableRecord
100
AcDbLinetypeTableRecord
  2
DASHED
 70
     0
  3
Dashed
 72
    65
 73
     2
 40
15.0
 49
7.0
 74
     0
 49
-8.0
 74
     0
  0
LTYPE
  5
40
330
5
100
AcDbSymbolTableRecord
100
AcDbLinetypeTableRecord
  2
DOTTED
 70
     0
  3
Dotted
 72
    65
 73
     2
 40
1.0
 49
0.0
 74
     0
 49
-1.0
 74
     0
  0
LTYPE
  5
41
330
5
100
AcDbSymbolTableRecord
100
AcDbLinetypeTableRecord
  2
DOT_CENTER
 70
     0
  3
Dot_Center
 72
    65
 73
     4
 40
14.0
 49
12.0
 74
     0
 49
-1.0
 74
     0
 49
0.0
 74
     0
 49
-1.0
 74
     0
  0
LTYPE
  5
42
330
5
100
AcDbSymbolTableRecord
100
AcDbLinetypeTableRecord
  2
LONG_DASHED
 70
     0
  3
Long_Dashed
 72
    65
 73
     2
 40
15.0
 49
10.0
 74
     0
 49
-5.0
 74
     0
  0
LTYPE
  5
43
330
5
100
AcDbSymbolTableRecord
100
AcDbLinetypeTableRecord
  2
DASH_CENTER
 70
     0
  3
Dash_Center
 72
    65
 73
     4
 40
14.0
 49
11.0
 74
     0
 49
-1.0
 74
     0
 49
1.0
 74
     0
 49
-1.0
 74
     0
  0
LTYPE
  5
44
330
5
100
AcDbSymbolTableRecord
100
AcDbLinetypeTableRecord
  2
PHANTOM
 70
     0
  3
Phantom
 72
    65
 73
     6
 40
13.0
 49
10.0
 74
     0
 49
-1.0
 74
     0
 49
0.0
 74
     0
 49
-1.0
 74
     0
 49
0.0
 74
     0
 49
-1.0
 74
     0
  0
LTYPE
  5
45
330
5
100
AcDbSymbolTableRecord
100
AcDbLinetypeTableRecord
  2
CENTER_DASH_DASH
 70
     0
  3
Center_Dash_Dash
 72
    65
 73
     6
 40
14.0
 49
9.0
 74
     0
 49
-1.0
 74
     0
 49
1.0
 74
     0
 49
-1.0
 74
     0
 49
1.0
 74
     0
 49
-1.0
 74
     0
  0
ENDTAB
  0
TABLE
  2
LAYER
  5
2
330
0
100
AcDbSymbolTable
 70
     2
  0
LAYER
  5
10
330
2
100
AcDbSymbolTableRecord
100
AcDbLayerTableRecord
  2
0
 70
     0
 62
     7
  6
Continuous
370
    -3
390
F
  0
LAYER
  5
46
330
2
100
AcDbSymbolTableRecord
100
AcDbLayerTableRecord
  2
1
 70
     0
 62
     7
  6
Continuous
370
    -3
390
F
  0
ENDTAB
  0
TABLE
  2
STYLE
  5
3
330
0
100
AcDbSymbolTable
 70
     5
  0
STYLE
  5
11
330
3
100
AcDbSymbolTableRecord
100
AcDbTextStyleTableRecord
  2
Standard
 70
     0
 40
0.0
 41
1.0
 50
0.0
 71
     0
 42
0.2
  3
txt
  4

  0
STYLE
  5
BC
330
3
100
AcDbSymbolTableRecord
100
AcDbTextStyleTableRecord
  2
CONVERTER_11
 70
     0
 40
0.0
 41
0.9
 50
0.0
 71
     0
 42
0.2
  3
txt.shx
  4

  0
STYLE
  5
260
330
3
100
AcDbSymbolTableRecord
100
AcDbTextStyleTableRecord
  2
CONVERTER_12
 70
     0
 40
0.0
 41
0.81
 50
0.0
 71
     0
 42
0.2
  3
txt.shx
  4

  0
STYLE
  5
276
330
3
100
AcDbSymbolTableRecord
100
AcDbTextStyleTableRecord
  2
CONVERTER_13
 70
     0
 40
0.0
 41
0.72
 50
0.0
 71
     0
 42
0.2
  3
txt.shx
  4

  0
STYLE
  5
279
330
3
100
AcDbSymbolTableRecord
100
AcDbTextStyleTableRecord
  2
CONVERTER_14
 70
     0
 40
0.0
 41
0.855
 50
0.0
 71
     0
 42
0.2
  3
txt.shx
  4

  0
ENDTAB
  0
TABLE
  2
VIEW
  5
6
330
0
100
AcDbSymbolTable
 70
     0
  0
ENDTAB
  0
TABLE
  2
UCS
  5
7
330
0
100
AcDbSymbolTable
 70
     0
  0
ENDTAB
  0
TABLE
  2
APPID
  5
9
330
0
100
AcDbSymbolTable
 70
     1
  0
APPID
  5
12
330
9
100
AcDbSymbolTableRecord
100
AcDbRegAppTableRecord
  2
ACAD
 70
     0
  0
ENDTAB
  0
TABLE
  2
DIMSTYLE
  5
A
330
0
100
AcDbSymbolTable
 70
     7
100
AcDbDimStyleTable
  0
DIMSTYLE
105
27
330
A
100
AcDbSymbolTableRecord
100
AcDbDimStyleTableRecord
  2
Standard
 70
     0
178
     0
340
11
  0
DIMSTYLE
105
D4
102
{ACAD_REACTORS
330
D5
102
}
330
A
100
AcDbSymbolTableRecord
100
AcDbDimStyleTableRecord
  2
ME10_DIM_10
 70
     0
 41
3.5
 42
0.5
 44
1.5
 73
     0
 74
     0
 77
     1
 78
     8
140
3.5
147
2.0
172
     1
173
     1
174
     1
175
     1
176
     2
177
     2
178
     3
340
BC
  0
DIMSTYLE
105
136
102
{ACAD_REACTORS
330
137
102
}
330
A
100
AcDbSymbolTableRecord
100
AcDbDimStyleTableRecord
  2
ME10_DIM_11
 70
     0
 41
3.5
 42
0.0
 44
2.0
 73
     0
 74
     0
 77
     1
 78
     8
140
3.5
147
2.0
172
     1
173
     1
174
     1
175
     1
176
     2
177
     2
178
     3
340
BC
  0
DIMSTYLE
105
141
102
{ACAD_REACTORS
330
142
102
}
330
A
100
AcDbSymbolTableRecord
100
AcDbDimStyleTableRecord
  2
ME10_DIM_12
 70
     0
 41
3.5
 42
0.0
 44
2.0
 73
     0
 74
     0
 77
     1
 78
     8
140
3.5
147
2.0
172
     1
173
     1
174
     1
175
     1
176
     2
177
     2
178
     3
340
BC
  0
DIMSTYLE
105
14C
102
{ACAD_REACTORS
330
14D
102
}
330
A
100
AcDbSymbolTableRecord
100
AcDbDimStyleTableRecord
  2
ME10_DIM_13
 70
     0
 41
3.5
 42
0.0
 44
2.0
 73
     0
 74
     0
 77
     1
 78
     8
140
3.5
147
2.0
172
     1
173
     1
174
     1
175
     1
176
     2
177
     2
178
     3
340
BC
  0
DIMSTYLE
105
157
102
{ACAD_REACTORS
330
158
102
}
330
A
100
AcDbSymbolTableRecord
100
AcDbDimStyleTableRecord
  2
ME10_DIM_14
 70
     0
 41
3.5
 42
0.5
 44
1.5
 73
     0
 74
     0
 77
     1
 78
     8
140
3.5
147
2.0
172
     1
173
     1
174
     1
175
     1
176
     2
177
     2
178
     3
340
BC
  0
DIMSTYLE
105
162
102
{ACAD_REACTORS
330
163
102
}
330
A
100
AcDbSymbolTableRecord
100
AcDbDimStyleTableRecord
  2
ME10_DIM_15
 70
     0
 41
3.5
 42
0.5
 44
1.5
 73
     0
 74
     0
 77
     1
 78
     8
140
3.5
147
2.0
172
     1
173
     1
174
     1
175
     1
176
     2
177
     2
178
     3
340
BC
  0
ENDTAB
  0
TABLE
  2
BLOCK_RECORD
  5
1
330
0
100
AcDbSymbolTable
 70
    23
  0
BLOCK_RECORD
  5
1F
330
1
100
AcDbSymbolTableRecord
100
AcDbBlockTableRecord
  2
*Model_Space
340
22
  0
BLOCK_RECORD
  5
1B
330
1
100
AcDbSymbolTableRecord
100
AcDbBlockTableRecord
  2
*Paper_Space
340
1E
  0
BLOCK_RECORD
  5
23
330
1
100
AcDbSymbolTableRecord
100
AcDbBlockTableRecord
  2
*Paper_Space0
340
26
  0
BLOCK_RECORD
  5
47
330
1
100
AcDbSymbolTableRecord
100
AcDbBlockTableRecord
  2
ATP-ST-TWIN-select__1
340
0
102
{BLKREFS
331
4B
102
}
  0
BLOCK_RECORD
  5
4A
330
1
100
AcDbSymbolTableRecord
100
AcDbBlockTableRecord
  2
AllgSicht1
340
0
102
{BLKREFS
331
7D
102
}
  0
BLOCK_RECORD
  5
4E
330
1
100
AcDbSymbolTableRecord
100
AcDbBlockTableRecord
  2
ATP-ST-TWIN-select__2
340
0
102
{BLKREFS
331
52
102
}
  0
BLOCK_RECORD
  5
51
330
1
100
AcDbSymbolTableRecord
100
AcDbBlockTableRecord
  2
Drfsicht1
340
0
102
{BLKREFS
331
7E
102
}
  0
BLOCK_RECORD
  5
55
330
1
100
AcDbSymbolTableRecord
100
AcDbBlockTableRecord
  2
ATP-ST-TWIN-select__3
340
0
102
{BLKREFS
331
59
102
}
  0
BLOCK_RECORD
  5
58
330
1
100
AcDbSymbolTableRecord
100
AcDbBlockTableRecord
  2
Rckans1
340
0
102
{BLKREFS
331
7F
102
}
  0
BLOCK_RECORD
  5
5C
330
1
100
AcDbSymbolTableRecord
100
AcDbBlockTableRecord
  2
ATP-ST-TWIN-select__4
340
0
102
{BLKREFS
331
60
102
}
  0
BLOCK_RECORD
  5
5F
330
1
100
AcDbSymbolTableRecord
100
AcDbBlockTableRecord
  2
SA_Links1
340
0
102
{BLKREFS
331
80
102
}
  0
BLOCK_RECORD
  5
63
330
1
100
AcDbSymbolTableRecord
100
AcDbBlockTableRecord
  2
ATP-ST-TWIN-select__5
340
0
102
{BLKREFS
331
67
102
}
  0
BLOCK_RECORD
  5
66
330
1
100
AcDbSymbolTableRecord
100
AcDbBlockTableRecord
  2
SA_Rechts1
340
0
102
{BLKREFS
331
81
102
}
  0
BLOCK_RECORD
  5
6A
330
1
100
AcDbSymbolTableRecord
100
AcDbBlockTableRecord
  2
ATP-ST-TWIN-select__6
340
0
102
{BLKREFS
331
6E
102
}
  0
BLOCK_RECORD
  5
6D
330
1
100
AcDbSymbolTableRecord
100
AcDbBlockTableRecord
  2
Vordans1
340
0
102
{BLKREFS
331
82
102
}
  0
BLOCK_RECORD
  5
71
330
1
100
AcDbSymbolTableRecord
100
AcDbBlockTableRecord
  2
_rahmen
340
0
102
{BLKREFS
331
78
102
}
  0
BLOCK_RECORD
  5
74
330
1
100
AcDbSymbolTableRecord
100
AcDbBlockTableRecord
  2
_punkt
340
0
102
{BLKREFS
331
79
102
}
  0
BLOCK_RECORD
  5
77
330
1
100
AcDbSymbolTableRecord
100
AcDbBlockTableRecord
  2
A4I_CS
340
0
102
{BLKREFS
331
83
102
}
  0
BLOCK_RECORD
  5
7C
330
1
100
AcDbSymbolTableRecord
100
AcDbBlockTableRecord
  2
1
340
0
102
{BLKREFS
331
86
102
}
  0
BLOCK_RECORD
  5
C9
330
1
100
AcDbSymbolTableRecord
100
AcDbBlockTableRecord
  2
*D17
340
0
  0
BLOCK_RECORD
  5
12D
330
1
100
AcDbSymbolTableRecord
100
AcDbBlockTableRecord
  2
*D18
340
0
  0
BLOCK_RECORD
  5
138
330
1
100
AcDbSymbolTableRecord
100
AcDbBlockTableRecord
  2
*D19
340
0
  0
BLOCK_RECORD
  5
143
330
1
100
AcDbSymbolTableRecord
100
AcDbBlockTableRecord
  2
*D20
340
0
  0
BLOCK_RECORD
  5
14E
330
1
100
AcDbSymbolTableRecord
100
AcDbBlockTableRecord
  2
*D21
340
0
  0
BLOCK_RECORD
  5
159
330
1
100
AcDbSymbolTableRecord
100
AcDbBlockTableRecord
  2
*D22
340
0
  0
ENDTAB
  0
ENDSEC
  0
SECTION
  2
BLOCKS
  0
BLOCK
  5
20
330
1F
100
AcDbEntity
  8
0
100
AcDbBlockBegin
  2
*Model_Space
 70
     0
 10
0.0
 20
0.0
 30
0.0
  3
*Model_Space
  1

  0
ENDBLK
  5
21
330
1F
100
AcDbEntity
  8
0
100
AcDbBlockEnd
  0
BLOCK
  5
1C
330
1B
100
AcDbEntity
 67
     1
  8
0
100
AcDbBlockBegin
  2
*Paper_Space
 70
     0
 10
0.0
 20
0.0
 30
0.0
  3
*Paper_Space
  1

  0
ENDBLK
  5
1D
330
1B
100
AcDbEntity
 67
     1
  8
0
100
AcDbBlockEnd
  0
BLOCK
  5
24
330
23
100
AcDbEntity
  8
0
100
AcDbBlockBegin
  2
*Paper_Space0
 70
     0
 10
0.0
 20
0.0
 30
0.0
  3
*Paper_Space0
  1

  0
ENDBLK
  5
25
330
23
100
AcDbEntity
  8
0
100
AcDbBlockEnd
  0
BLOCK
  5
48
330
47
100
AcDbEntity
  8
0
100
AcDbBlockBegin
  2
ATP-ST-TWIN-select__1
 70
     0
 10
120.1374455108142
 20
391.7270591523109
 30
0.0
  3
ATP-ST-TWIN-select__1
  1

  0
LINE
  5
87
330
47
100
AcDbEntity
  8
0
  6
Continuous
 62
     7
100
AcDbLine
 10
123.6190153712215
 20
438.119610731762
 30
0.0
 11
122.5190153712215
 21
437.1669827875991
 31
0.0
  0
LINE
  5
88
330
47
100
AcDbEntity
  8
0
  6
Continuous
 62
     7
100
AcDbLine
 10
122.5190153712215
 20
437.1669827875991
 30
0.0
 11
120.1374455108142
 21
428.9663430667805
 31
0.0
  0
LINE
  5
89
330
47
100
AcDbEntity
  8
0
  6
Continuous
 62
     7
100
AcDbLine
 10
123.6190153712215
 20
438.119610731762
 30
0.0
 11
183.9809860149968
 21
420.6946107317619
 31
0.0
  0
LINE
  5
8A
330
47
100
AcDbEntity
  8
0
  6
Continuous
 62
     7
100
AcDbLine
 10
161.3680001617685
 20
392.1772561267233
 30
0.0
 11
162.9275282279588
 21
391.7270591523109
 31
0.0
  0
LINE
  5
8B
330
47
100
AcDbEntity
  8
0
  6
Continuous
 62
     7
100
AcDbLine
 10
120.1374455108142
 20
428.9663430667805
 30
0.0
 11
120.1374455108142
 21
406.8507733321162
 31
0.0
  0
LINE
  5
8C
330
47
100
AcDbEntity
  8
0
  6
Continuous
 62
     7
100
AcDbLine
 10
162.9275282279588
 20
391.7270591523109
 30
0.0
 11
163.2376014693683
 21
391.7528211028997
 31
0.0
  0
LINE
  5
8D
330
47
100
AcDbEntity
  8
0
  6
Continuous
 62
     7
100
AcDbLine
 10
163.2376014693683
 20
391.7528211028997
 30
0.0
 11
163.2377505716464
 21
391.7529502292603
 31
0.0
  0
LINE
  5
8E
330
47
100
AcDbEntity
  8
0
  6
Continuous
 62
     7
100
AcDbLine
 10
163.2376014693683
 20
391.7528211028997
 30
0.0
 11
163.2375630016916
 21
391.7529322601977
 31
0.0
  0
LINE
  5
8F
330
47
100
AcDbEntity
  8
0
  6
Continuous
 62
     7
100
AcDbLine
 10
163.2375630016916
 20
391.7529322601977
 30
0.0
 11
185.262555875404
 21
393.8629102493927
 31
0.0
  0
LINE
  5
90
330
47
100
AcDbEntity
  8
0
  6
Continuous
 62
     7
100
AcDbLine
 10
133.3809125650914
 20
411.4805538121458
 30
0.0
 11
132.106064328309
 21
407.0907724068754
 31
0.0
  0
LINE
  5
91
330
47
100
AcDbEntity
  8
0
  6
Continuous
 62
     7
100
AcDbLine
 10
133.3413548074054
 20
411.5025747157949
 30
0.0
 11
133.379400674826
 21
411.4813974604456
 31
0.0
  0
LINE
  5
92
330
47
100
AcDbEntity
  8
0
  6
Continuous
 62
     7
100
AcDbLine
 10
132.106064328309
 20
407.0907724068754
 30
0.0
 11
132.106064328309
 21
406.1381444627126
 31
0.0
  0
LINE
  5
93
330
47
100
AcDbEntity
  8
0
  6
Continuous
 62
     7
100
AcDbLine
 10
131.006064328309
 20
405.1855165185497
 30
0.0
 11
131.006064328309
 21
406.1381444627126
 31
0.0
  0
LINE
  5
94
330
47
100
AcDbEntity
  8
0
  6
Continuous
 62
     7
100
AcDbLine
 10
132.1318973532288
 20
404.1676961955219
 30
0.0
 11
132.1318973532288
 21
404.5588504687101
 31
0.0
  0
LINE
  5
95
330
47
100
AcDbEntity
  8
0
  6
Continuous
 62
     7
100
AcDbLine
 10
128.6419627131712
 20
412.8505742948868
 30
0.0
 11
128.6419627131712
 21
405.665901276279
 31
0.0
  0
LINE
  5
96
330
47
100
AcDbEntity
  8
0
  6
Continuous
 62
     7
100
AcDbLine
 10
127.5419627131712
 20
404.7132733321161
 30
0.0
 11
127.5419627131712
 21
412.3342968854192
 31
0.0
  0
LINE
  5
97
330
47
100
AcDbEntity
  8
0
  6
Continuous
 62
     7
100
AcDbLine
 10
129.2740135207401
 20
411.8342968854192
 30
0.0
 11
129.2740135207401
 21
401.4419920400059
 31
0.0
  0
LINE
  5
98
330
47
100
AcDbEntity
  8
0
  6
Continuous
 62
     7
100
AcDbLine
 10
129.2740135207401
 20
401.4419920400059
 30
0.0
 11
130.695210006169
 21
401.0317279532891
 31
0.0
  0
LINE
  5
99
330
47
100
AcDbEntity
  8
0
  6
Continuous
 62
     7
100
AcDbLine
 10
131.006064328309
 20
406.1381444627126
 30
0.0
 11
132.4928266699802
 21
411.2576257415172
 31
0.0
  0
LINE
  5
9A
330
47
100
AcDbEntity
  8
0
  6
Continuous
 62
     2
100
AcDbLine
 10
132.4928266699802
 20
411.2576257415172
 30
0.0
 11
132.8889619330445
 21
411.6006889426657
 31
0.0
  0
LINE
  5
9B
330
47
100
AcDbEntity
  8
0
  6
Continuous
 62
     7
100
AcDbLine
 10
132.106064328309
 20
407.0907724068754
 30
0.0
 11
131.006064328309
 21
406.1381444627126
 31
0.0
  0
LINE
  5
9C
330
47
100
AcDbEntity
  8
0
  6
Continuous
 62
     7
100
AcDbLine
 10
133.8080613798118
 20
410.6151916534928
 30
0.0
 11
132.3917049743641
 21
405.7381444627126
 31
0.0
  0
LINE
  5
9D
330
47
100
AcDbEntity
  8
0
  6
Continuous
 62
     2
100
AcDbLine
 10
127.5419627131712
 20
412.3342968854192
 30
0.0
 11
128.2842702021293
 21
412.9771540282764
 31
0.0
  0
LINE
  5
9E
330
47
100
AcDbEntity
  8
0
  6
Continuous
 62
     7
100
AcDbLine
 10
133.2318973532288
 20
405.4956018146582
 30
0.0
 11
133.2318973532288
 21
405.1203241396847
 31
0.0
  0
LINE
  5
9F
330
47
100
AcDbEntity
  8
0
  6
Continuous
 62
     7
100
AcDbLine
 10
133.2318973532288
 20
405.1203241396847
 30
0.0
 11
132.1318973532288
 21
404.1676961955219
 31
0.0
  0
LINE
  5
A0
330
47
100
AcDbEntity
  8
0
  6
Continuous
 62
     7
100
AcDbLine
 10
132.1318973532288
 20
404.5588504687101
 30
0.0
 11
133.2181478158492
 21
405.499570964212
 31
0.0
  0
LINE
  5
A1
330
47
100
AcDbEntity
  8
0
  6
Continuous
 62
     7
100
AcDbLine
 10
132.106064328309
 20
406.1381444627126
 30
0.0
 11
132.4519563412687
 21
405.9456125537752
 31
0.0
  0
LINE
  5
A2
330
47
100
AcDbEntity
  8
0
  6
Continuous
 62
     7
100
AcDbLine
 10
131.795210006169
 20
401.984355897452
 30
0.0
 11
130.695210006169
 21
401.0317279532891
 31
0.0
  0
LINE
  5
A3
330
47
100
AcDbEntity
  8
0
  6
Continuous
 62
     7
100
AcDbLine
 10
132.106064328309
 20
406.1381444627126
 30
0.0
 11
131.006064328309
 21
405.1855165185497
 31
0.0
  0
LINE
  5
A4
330
47
100
AcDbEntity
  8
0
  6
Continuous
 62
     7
100
AcDbLine
 10
132.1318973532288
 20
404.5588504687101
 30
0.0
 11
131.006064328309
 21
405.1855165185497
 31
0.0
  0
LINE
  5
A5
330
47
100
AcDbEntity
  8
0
  6
Continuous
 62
     7
100
AcDbLine
 10
120.1374455108142
 20
406.8507733321162
 30
0.0
 11
127.5419627131712
 21
404.7132733321161
 31
0.0
  0
LINE
  5
A6
330
47
100
AcDbEntity
  8
0
  6
Continuous
 62
     7
100
AcDbLine
 10
128.6419627131712
 20
405.665901276279
 30
0.0
 11
127.5419627131712
 21
404.7132733321161
 31
0.0
  0
LINE
  5
A7
330
47
100
AcDbEntity
  8
0
  6
Continuous
 62
     7
100
AcDbLine
 10
132.3917049743641
 20
405.7381444627126
 30
0.0
 11
161.057145839629
 21
397.4631444627125
 31
0.0
  0
LINE
  5
A8
330
47
100
AcDbEntity
  8
0
  6
Continuous
 62
     7
100
AcDbLine
 10
161.057145839629
 20
397.4631444627125
 30
0.0
 11
161.057145839629
 21
396.5105165185497
 31
0.0
  0
LINE
  5
A9
330
47
100
AcDbEntity
  8
0
  6
Continuous
 62
     7
100
AcDbLine
 10
159.9313128147095
 20
396.5338504687103
 30
0.0
 11
159.9313128147088
 21
396.1426961955217
 31
0.0
  0
LINE
  5
AA
330
47
100
AcDbEntity
  8
0
  6
Continuous
 62
     7
100
AcDbLine
 10
161.057145839629
 20
396.5105165185497
 30
0.0
 11
159.9313128147095
 21
396.5338504687103
 31
0.0
  0
LINE
  5
AB
330
47
100
AcDbEntity
  8
0
  6
Continuous
 62
     7
100
AcDbLine
 10
161.0175632773296
 20
397.4745709642119
 30
0.0
 11
159.9313128147095
 21
396.5338504687103
 31
0.0
  0
LINE
  5
AC
330
47
100
AcDbEntity
  8
0
  6
Continuous
 62
     7
100
AcDbLine
 10
183.9809860149968
 20
420.6946107317619
 30
0.0
 11
182.8809860149968
 21
419.7419827875991
 31
0.0
  0
LINE
  5
AD
330
47
100
AcDbEntity
  8
0
  6
Continuous
 62
     7
100
AcDbLine
 10
185.262555875404
 20
410.1663430667976
 30
0.0
 11
182.8809860149968
 21
419.7419827875991
 31
0.0
  0
LINE
  5
AE
330
47
100
AcDbEntity
  8
0
  6
Continuous
 62
     7
100
AcDbLine
 10
183.9809860149968
 20
420.6946107317619
 30
0.0
 11
186.362555875404
 21
411.1189710109605
 31
0.0
  0
LINE
  5
AF
330
47
100
AcDbEntity
  8
0
  6
Continuous
 62
     7
100
AcDbLine
 10
185.262555875404
 20
393.8629102493927
 30
0.0
 11
185.262555875404
 21
410.1663430667976
 31
0.0
  0
LINE
  5
B0
330
47
100
AcDbEntity
  8
0
  6
Continuous
 62
     7
100
AcDbLine
 10
186.362555875404
 20
394.8155381935555
 30
0.0
 11
185.262555875404
 21
393.8629102493927
 31
0.0
  0
LINE
  5
B1
330
47
100
AcDbEntity
  8
0
  6
Continuous
 62
     7
100
AcDbLine
 10
186.362555875404
 20
411.1189710109605
 30
0.0
 11
186.362555875404
 21
394.8155381935555
 31
0.0
  0
LINE
  5
B2
330
47
100
AcDbEntity
  8
0
  6
Continuous
 62
     7
100
AcDbLine
 10
186.362555875404
 20
411.1189710109605
 30
0.0
 11
185.262555875404
 21
410.1663430667976
 31
0.0
  0
LINE
  5
B3
330
47
100
AcDbEntity
  8
0
  6
Continuous
 62
     7
100
AcDbLine
 10
182.8809860149968
 20
419.7419827875991
 30
0.0
 11
122.5190153712215
 21
437.1669827875991
 31
0.0
  0
SPLINE
  5
B4
330
47
100
AcDbEntity
  8
0
  6
Continuous
 62
     7
100
AcDbSpline
210
0.0
220
0.0
230
1.0
 70
     8
 71
     3
 72
    13
 73
     9
 74
     7
 42
0.000000001
 43
0.0000000001
 44
0.00000001
 40
0.0
 40
0.0
 40
0.0
 40
0.0
 40
0.1523446414400947
 40
0.3165129798447974
 40
0.491047651260799
 40
0.6721590073878634
 40
0.8547555411473418
 40
1.033467912953118
 40
1.033467912953118
 40
1.033467912953118
 40
1.033467912953118
 10
133.8080613798118
 20
410.6151916534928
 30
0.0
 10
133.8177556028536
 20
410.6653647748001
 30
0.0
 10
133.8378964176092
 20
410.769605030833
 30
0.0
 10
133.8127140307435
 20
410.9341284100686
 30
0.0
 10
133.7521894072072
 20
411.0974317194935
 30
0.0
 10
133.6552380013785
 20
411.2496718981789
 30
0.0
 10
133.5314020983885
 20
411.3838147689463
 30
0.0
 10
133.4297033898716
 20
411.4491038586298
 30
0.0
 10
133.379400674826
 20
411.4813974604456
 30
0.0
 11
133.8080613798118
 21
410.6151916534928
 31
0.0
 11
133.8287175882235
 21
410.7661294273786
 31
0.0
 11
133.8080613798121
 21
410.9289930687512
 31
0.0
 11
133.7474998272278
 21
411.0926837859793
 31
0.0
 11
133.6511606721832
 21
411.2460463990015
 31
0.0
 11
133.5256087777103
 21
411.3786292640821
 31
0.0
 11
133.379400674826
 21
411.4813974604456
 31
0.0
  0
SPLINE
  5
B5
330
47
100
AcDbEntity
  8
0
  6
Continuous
 62
     7
100
AcDbSpline
210
0.0
220
0.0
230
1.0
 70
     8
 71
     3
 72
    11
 73
     7
 74
     5
 42
0.000000001
 43
0.0000000001
 44
0.00000001
 40
0.0
 40
0.0
 40
0.0
 40
0.0
 40
0.2073068334076199
 40
0.3996653899672261
 40
0.5774179169899276
 40
0.7459614898678414
 40
0.7459614898678414
 40
0.7459614898678414
 40
0.7459614898678414
 10
133.3413548074054
 20
411.5025747157949
 30
0.0
 10
133.278603485523
 20
411.5325177271348
 30
0.0
 10
133.157625647078
 20
411.590244635206
 30
0.0
 10
132.9641838848991
 20
411.6146532922068
 30
0.0
 10
132.7814204913205
 20
411.5882083245309
 30
0.0
 10
132.6851647787541
 20
411.5220622030372
 30
0.0
 10
132.638316776404
 20
411.4898686386406
 30
0.0
 11
133.3413548074054
 21
411.5025747157949
 31
0.0
 11
133.1496261185701
 21
411.5814178069248
 31
0.0
 11
132.9588623692256
 21
411.6061363681277
 31
0.0
 11
132.7838924087455
 21
411.5748078647453
 31
0.0
 11
132.638316776404
 21
411.4898686386406
 31
0.0
  0
SPLINE
  5
B6
330
47
100
AcDbEntity
  8
0
  6
Continuous
 62
     7
100
AcDbSpline
210
0.0
220
0.0
230
1.0
 70
     8
 71
     3
 72
    11
 73
     7
 74
     5
 42
0.000000001
 43
0.0000000001
 44
0.00000001
 40
0.0
 40
0.0
 40
0.0
 40
0.0
 40
0.134057810304084
 40
0.2712905770933552
 40
0.4142835042396176
 40
0.5646514904338955
 40
0.5646514904338955
 40
0.5646514904338955
 40
0.5646514904338955
 10
127.7533344462477
 20
412.8402258314376
 30
0.0
 10
127.7215064030953
 20
412.8085405115608
 30
0.0
 10
127.6570965288119
 20
412.7444194430918
 30
0.0
 10
127.5915878730099
 20
412.6209262787682
 30
0.0
 10
127.5492932390559
 20
412.4825548672026
 30
0.0
 10
127.54444682954
 20
412.3845375941478
 30
0.0
 10
127.5419627131712
 20
412.3342968854192
 30
0.0
 11
127.7533344462477
 21
412.8402258314376
 31
0.0
 11
127.6631031771886
 21
412.7410804078939
 31
0.0
 11
127.5965244056555
 21
412.621079990765
 31
0.0
 11
127.5557123075397
 21
412.4840349236059
 31
0.0
 11
127.5419627131712
 21
412.3342968854192
 31
0.0
  0
SPLINE
  5
B7
330
47
100
AcDbEntity
  8
0
  6
Continuous
 62
     7
100
AcDbSpline
210
0.0
220
0.0
230
1.0
 70
     8
 71
     3
 72
    15
 73
    11
 74
     9
 42
0.000000001
 43
0.0000000001
 44
0.00000001
 40
0.0
 40
0.0
 40
0.0
 40
0.0
 40
0.2731159352343562
 40
0.5651442448903647
 40
0.8668259370218304
 40
1.166389878383868
 40
1.452598678218739
 40
1.717811132973399
 40
1.960999480119318
 40
2.189745537809338
 40
2.189745537809338
 40
2.189745537809338
 40
2.189745537809338
 10
129.2740135207401
 20
411.8342968854192
 30
0.0
 10
129.2656694499707
 20
411.9255031118311
 30
0.0
 10
129.2484034943901
 20
412.1142312917414
 30
0.0
 10
129.1263996905174
 20
412.3814712474528
 30
0.0
 10
128.948230902093
 20
412.6221572944341
 30
0.0
 10
128.7207477977629
 20
412.8154925457443
 30
0.0
 10
128.4648253671072
 20
412.9454711513191
 30
0.0
 10
128.2027623824183
 20
412.9976863408874
 30
0.0
 10
127.9497573478086
 20
412.9721714338961
 30
0.0
 10
127.8174592011084
 20
412.8833011571997
 30
0.0
 10
127.7533344462477
 20
412.8402258314376
 30
0.0
 11
129.2740135207401
 21
411.8342968854192
 31
0.0
 11
129.2344366987444
 21
412.104530097014
 31
0.0
 11
129.1193255466354
 21
412.3729140682357
 31
0.0
 11
128.9391990388328
 21
412.6149187881805
 31
0.0
 11
128.710521826223
 21
412.8084266374771
 31
0.0
 11
128.4541934091403
 21
412.9357499287369
 31
0.0
 11
128.193642000005
 21
412.9852535749915
 31
0.0
 11
127.952681559169
 21
412.9524109012115
 31
0.0
 11
127.7533344462477
 21
412.8402258314376
 31
0.0
  0
SPLINE
  5
B8
330
47
100
AcDbEntity
  8
0
  6
Continuous
 62
     7
100
AcDbSpline
210
0.0
220
0.0
230
1.0
 70
     8
 71
     3
 72
    11
 73
     7
 74
     5
 42
0.000000001
 43
0.0000000001
 44
0.00000001
 40
0.0
 40
0.0
 40
0.0
 40
0.0
 40
0.8440176141074588
 40
1.703424486574067
 40
2.585246614932764
 40
3.49481328288319
 40
3.49481328288319
 40
3.49481328288319
 40
3.49481328288319
 10
130.695210006169
 20
401.0317279532891
 30
0.0
 10
130.8739210711041
 20
401.2497987496536
 30
0.0
 10
131.2346016882619
 20
401.6899165098928
 30
0.0
 10
131.64291378404
 20
402.4538332915332
 30
0.0
 10
131.9596845104709
 20
403.2824045503008
 30
0.0
 10
132.0739034134836
 20
403.8695677051901
 30
0.0
 10
132.1318973532288
 20
404.1676961955219
 30
0.0
 11
130.695210006169
 21
401.0317279532891
 31
0.0
 11
131.2088445652501
 21
401.7014631802361
 31
0.0
 11
131.6230687713474
 21
402.4544561962642
 31
0.0
 11
131.9321731737062
 21
403.2803283031586
 31
0.0
 11
132.1318973532288
 21
404.1676961955219
 31
0.0
  0
SPLINE
  5
B9
330
47
100
AcDbEntity
  8
0
  6
Continuous
 62
     7
100
AcDbSpline
210
0.0
220
0.0
230
1.0
 70
     8
 71
     3
 72
     9
 73
     5
 74
     3
 42
0.000000001
 43
0.0000000001
 44
0.00000001
 40
0.0
 40
0.0
 40
0.0
 40
0.0
 40
0.1359563309104003
 40
0.2769419554988275
 40
0.2769419554988275
 40
0.2769419554988275
 40
0.2769419554988275
 10
132.638316776404
 20
411.4898686386406
 30
0.0
 10
132.6061694511023
 20
411.4571194071482
 30
0.0
 10
132.5406856231189
 20
411.3904094735984
 30
0.0
 10
132.5089716249485
 20
411.302419623527
 30
0.0
 10
132.4928266699802
 20
411.2576257415172
 30
0.0
 11
132.638316776404
 21
411.4898686386406
 31
0.0
 11
132.5500134174775
 21
411.3864924271178
 31
0.0
 11
132.4928266699802
 21
411.2576257415172
 31
0.0
  0
SPLINE
  5
BA
330
47
100
AcDbEntity
  8
0
  6
Continuous
 62
     7
100
AcDbSpline
210
0.0
220
0.0
230
1.0
 70
     8
 71
     3
 72
    11
 73
     7
 74
     5
 42
0.000000001
 43
0.0000000001
 44
0.00000001
 40
0.0
 40
0.0
 40
0.0
 40
0.0
 40
0.8440176141073685
 40
1.70342448657399
 40
2.585246614932624
 40
3.494813282883106
 40
3.494813282883106
 40
3.494813282883106
 40
3.494813282883106
 10
131.795210006169
 20
401.984355897452
 30
0.0
 10
131.9739210711041
 20
402.2024266938165
 30
0.0
 10
132.3346016882619
 20
402.6425444540556
 30
0.0
 10
132.74291378404
 20
403.4064612356962
 30
0.0
 10
133.0596845104709
 20
404.2350324944636
 30
0.0
 10
133.1739034134836
 20
404.8221956493531
 30
0.0
 10
133.2318973532288
 20
405.1203241396847
 30
0.0
 11
131.795210006169
 21
401.984355897452
 31
0.0
 11
132.3088445652501
 21
402.654091124399
 31
0.0
 11
132.7230687713475
 21
403.4070841404271
 31
0.0
 11
133.0321731737062
 21
404.2329562473213
 31
0.0
 11
133.2318973532288
 21
405.1203241396847
 31
0.0
  0
SPLINE
  5
BB
330
47
100
AcDbEntity
  8
0
  6
Continuous
 62
     7
100
AcDbSpline
210
0.0
220
0.0
230
1.0
 70
     8
 71
     3
 72
    11
 73
     7
 74
     5
 42
0.000000001
 43
0.0000000001
 44
0.00000001
 40
0.0
 40
0.0
 40
0.0
 40
0.0
 40
1.02237680159985
 40
2.073201022469779
 40
3.148344887405131
 40
4.242658325226987
 40
4.242658325226987
 40
4.242658325226987
 40
4.242658325226987
 10
159.9313128147088
 20
396.1426961955217
 30
0.0
 10
159.9906594688114
 20
395.806769335839
 30
0.0
 10
160.1110040999221
 20
395.1255685253569
 30
0.0
 10
160.4291667349117
 20
394.1229619221036
 30
0.0
 10
160.8378793699367
 20
393.12830554723
 30
0.0
 10
161.1902553485585
 20
392.4961345762414
 30
0.0
 10
161.3680001617685
 20
392.1772561267233
 30
0.0
 11
159.9313128147088
 21
396.1426961955217
 31
0.0
 11
160.1310369942314
 21
395.1400174943474
 31
0.0
 11
160.4401413965901
 21
394.1356838775438
 31
0.0
 11
160.8543656026875
 21
393.1435384046207
 31
0.0
 11
161.3680001617685
 21
392.1772561267233
 31
0.0
  0
ENDBLK
  5
49
330
47
100
AcDbEntity
  8
0
100
AcDbBlockEnd
  0
BLOCK
  5
4C
330
4A
100
AcDbEntity
  8
0
100
AcDbBlockBegin
  2
AllgSicht1
 70
     0
 10
153.2000009999999
 20
412.0
 30
0.0
  3
AllgSicht1
  1

  0
INSERT
  5
4B
330
4A
100
AcDbEntity
  8
0
100
AcDbBlockReference
  2
ATP-ST-TWIN-select__1
 10
120.1374455108142
 20
391.7270591523109
 30
0.0
  0
MTEXT
  5
BD
330
4A
100
AcDbEntity
  8
1
 62
     6
100
AcDbMText
 10
153.2000009999999
 20
380.2794918499142
 30
0.0
 40
5.0
 41
0.0
 71
     2
 72
     1
  1
 
  7
CONVERTER_11
 73
     1
 44
1.32052821128451
  0
ENDBLK
  5
4D
330
4A
100
AcDbEntity
  8
0
100
AcDbBlockEnd
  0
BLOCK
  5
4F
330
4E
100
AcDbEntity
  8
0
100
AcDbBlockBegin
  2
ATP-ST-TWIN-select__2
 70
     0
 10
-2.1000003814698
 20
397.0000000469536
 30
0.0
  3
ATP-ST-TWIN-select__2
  1

  0
LINE
  5
BE
330
4E
100
AcDbEntity
  8
0
  6
Continuous
 62
     7
100
AcDbLine
 10
0.64999961853022
 20
399.2000000469536
 30
0.0
 11
70.3499996185302
 21
399.2000000469536
 31
0.0
  0
LINE
  5
BF
330
4E
100
AcDbEntity
  8
0
  6
Continuous
 62
     7
100
AcDbLine
 10
0.64999961853022
 20
399.2000000469536
 30
0.0
 11
0.64999961853022
 21
397.0000000469536
 31
0.0
  0
LINE
  5
C0
330
4E
100
AcDbEntity
  8
0
  6
Continuous
 62
     7
100
AcDbLine
 10
70.3499996185302
 20
397.0000000469536
 30
0.0
 11
0.64999961853022
 21
397.0000000469536
 31
0.0
  0
LINE
  5
C1
330
4E
100
AcDbEntity
  8
0
  6
Continuous
 62
     7
100
AcDbLine
 10
73.09999961853015
 20
397.0000000469536
 30
0.0
 11
70.3499996185302
 21
397.0000000469536
 31
0.0
  0
LINE
  5
C2
330
4E
100
AcDbEntity
  8
0
  6
Continuous
 62
     7
100
AcDbLine
 10
70.3499996185302
 20
399.2000000469536
 30
0.0
 11
70.3499996185302
 21
397.0000000469536
 31
0.0
  0
LINE
  5
C3
330
4E
100
AcDbEntity
  8
0
  6
Continuous
 62
     7
100
AcDbLine
 10
73.09999961853015
 20
399.2000000469536
 30
0.0
 11
73.09999961853015
 21
397.0000000469536
 31
0.0
  0
LINE
  5
C4
330
4E
100
AcDbEntity
  8
0
  6
Continuous
 62
     7
100
AcDbLine
 10
70.3499996185302
 20
399.2000000469536
 30
0.0
 11
73.09999961853015
 21
399.2000000469536
 31
0.0
  0
LINE
  5
C5
330
4E
100
AcDbEntity
  8
0
  6
Continuous
 62
     7
100
AcDbLine
 10
-2.1000003814698
 20
399.2000000469536
 30
0.0
 11
-2.1000003814698
 21
397.0000000469536
 31
0.0
  0
LINE
  5
C6
330
4E
100
AcDbEntity
  8
0
  6
Continuous
 62
     7
100
AcDbLine
 10
-2.1000003814698
 20
399.2000000469536
 30
0.0
 11
0.64999961853022
 21
399.2000000469536
 31
0.0
  0
LINE
  5
C7
330
4E
100
AcDbEntity
  8
0
  6
Continuous
 62
     7
100
AcDbLine
 10
0.64999961853022
 20
397.0000000469536
 30
0.0
 11
-2.1000003814698
 21
397.0000000469536
 31
0.0
  0
ENDBLK
  5
50
330
4E
100
AcDbEntity
  8
0
100
AcDbBlockEnd
  0
BLOCK
  5
53
330
51
100
AcDbEntity
  8
0
100
AcDbBlockBegin
  2
Drfsicht1
 70
     0
 10
35.5
 20
398.00000000001
 30
0.0
  3
Drfsicht1
  1

  0
INSERT
  5
52
330
51
100
AcDbEntity
  8
0
100
AcDbBlockReference
  2
ATP-ST-TWIN-select__2
 10
-2.1000003814698
 20
397.0000000469536
 30
0.0
  0
MTEXT
  5
C8
330
51
100
AcDbEntity
  8
1
 62
     6
100
AcDbMText
 10
35.5
 20
392.0000000484388
 30
0.0
 40
5.0
 41
0.0
 71
     2
 72
     1
  1
 
  7
CONVERTER_11
 73
     1
 44
1.32052821128451
  0
DIMENSION
  5
D5
330
51
100
AcDbEntity
  8
1
100
AcDbDimension
  2
*D17
 10
-9.361203861605
 20
397.0000000469536
 30
0.0
 11
-13.286203861605
 21
398.00470482603
 31
0.0
 70
    33
  1
<>
 71
     5
 42
-1.0
 53
90.0
  3
ME10_DIM_10
100
AcDbAlignedDimension
 13
-2.1000003814698
 23
399.2000000469536
 33
0.0
 14
-2.1000003814698
 24
397.0000000469536
 34
0.0
  0
ENDBLK
  5
54
330
51
100
AcDbEntity
  8
0
100
AcDbBlockEnd
  0
BLOCK
  5
56
330
55
100
AcDbEntity
  8
0
100
AcDbBlockBegin
  2
ATP-ST-TWIN-select__3
 70
     0
 10
115.6000011444092
 20
454.9999999515711
 30
0.0
  3
ATP-ST-TWIN-select__3
  1

  0
LINE
  5
D6
330
55
100
AcDbEntity
  8
0
  6
Continuous
 62
     7
100
AcDbLine
 10
144.8500011444096
 20
459.0999999515706
 30
0.0
 11
144.8500011444089
 21
459.5516660014111
 31
0.0
  0
LINE
  5
D7
330
55
100
AcDbEntity
  8
0
  6
Continuous
 62
     7
100
AcDbLine
 10
144.8500011444089
 20
459.5516660014111
 30
0.0
 11
143.5500011444091
 21
459.8999999515713
 31
0.0
  0
LINE
  5
D8
330
55
100
AcDbEntity
  8
0
  6
Continuous
 62
     7
100
AcDbLine
 10
180.2500011444091
 20
454.9999999515713
 30
0.0
 11
180.2500011444091
 21
466.9999999515713
 31
0.0
  0
LINE
  5
D9
330
55
100
AcDbEntity
  8
0
  6
Continuous
 62
     7
100
AcDbLine
 10
182.2500011444091
 20
466.9999999515713
 30
0.0
 11
182.2500011444091
 21
458.1999999515713
 31
0.0
  0
LINE
  5
DA
330
55
100
AcDbEntity
  8
0
  6
Continuous
 62
     7
100
AcDbLine
 10
190.8000011444091
 20
458.1999999515713
 30
0.0
 11
190.8000011444091
 21
483.7368602307521
 31
0.0
  0
LINE
  5
DB
330
55
100
AcDbEntity
  8
0
  6
Continuous
 62
     7
100
AcDbLine
 10
190.8000011444091
 20
483.7368602307521
 30
0.0
 11
188.0500011444091
 21
493.9999999515713
 31
0.0
  0
LINE
  5
DC
330
55
100
AcDbEntity
  8
0
  6
Continuous
 62
     7
100
AcDbLine
 10
176.9500011444091
 20
459.5516660014108
 30
0.0
 11
176.9500011444091
 21
459.099999951571
 31
0.0
  0
LINE
  5
DD
330
55
100
AcDbEntity
  8
0
  6
Continuous
 62
     7
100
AcDbLine
 10
178.2500011444091
 20
459.8999999515713
 30
0.0
 11
176.9500011444091
 21
459.5516660014108
 31
0.0
  0
LINE
  5
DE
330
55
100
AcDbEntity
  8
0
  6
Continuous
 62
     7
100
AcDbLine
 10
182.2500011444091
 20
458.1999999515713
 30
0.0
 11
190.8000011444091
 21
458.1999999515713
 31
0.0
  0
LINE
  5
DF
330
55
100
AcDbEntity
  8
0
  6
Continuous
 62
     7
100
AcDbLine
 10
115.6000011444092
 20
483.7368602307718
 30
0.0
 11
115.6000011444092
 21
464.9112775790844
 31
0.0
  0
LINE
  5
E0
330
55
100
AcDbEntity
  8
0
  6
Continuous
 62
     7
100
AcDbLine
 10
143.5500011444091
 20
459.8999999515713
 30
0.0
 11
143.5500011444091
 21
460.9999999515713
 31
0.0
  0
LINE
  5
E1
330
55
100
AcDbEntity
  8
0
  6
Continuous
 62
     7
100
AcDbLine
 10
118.3500011444091
 20
493.9999999515713
 30
0.0
 11
115.6000011444092
 21
483.7368602307718
 31
0.0
  0
LINE
  5
E2
330
55
100
AcDbEntity
  8
0
  6
Continuous
 62
     7
100
AcDbLine
 10
176.6500011444091
 20
460.9999999515713
 30
0.0
 11
175.0145336405017
 21
467.1036477702822
 31
0.0
  0
LINE
  5
E3
330
55
100
AcDbEntity
  8
0
  6
Continuous
 62
     7
100
AcDbLine
 10
178.2500011444091
 20
460.9999999515713
 30
0.0
 11
178.2500011444091
 21
459.8999999515713
 31
0.0
  0
LINE
  5
E4
330
55
100
AcDbEntity
  8
0
  6
Continuous
 62
     7
100
AcDbLine
 10
176.5332358680393
 20
467.4070551876533
 30
0.0
 11
178.2500011444091
 21
460.9999999515713
 31
0.0
  0
LINE
  5
E5
330
55
100
AcDbEntity
  8
0
  6
Continuous
 62
     7
100
AcDbLine
 10
178.6089447975417
 20
454.9999999515713
 30
0.0
 11
180.2500011444091
 21
454.9999999515713
 31
0.0
  0
LINE
  5
E6
330
55
100
AcDbEntity
  8
0
  6
Continuous
 62
     7
100
AcDbLine
 10
141.0322722734841
 20
455.1332205677551
 30
0.0
 11
141.0322278548371
 21
455.1331050369221
 31
0.0
  0
LINE
  5
E7
330
55
100
AcDbEntity
  8
0
  6
Continuous
 62
     7
100
AcDbLine
 10
141.0322278548371
 20
455.1331050369221
 30
0.0
 11
141.3902695936297
 21
454.9999999515711
 31
0.0
  0
LINE
  5
E8
330
55
100
AcDbEntity
  8
0
  6
Continuous
 62
     7
100
AcDbLine
 10
141.3902695936297
 20
454.9999999515711
 30
0.0
 11
143.1910574912772
 21
454.9999999515717
 31
0.0
  0
LINE
  5
E9
330
55
100
AcDbEntity
  8
0
  6
Continuous
 62
     7
100
AcDbLine
 10
143.5500011444091
 20
460.9999999515713
 30
0.0
 11
176.6500011444091
 21
460.9999999515713
 31
0.0
  0
LINE
  5
EA
330
55
100
AcDbEntity
  8
0
  6
Continuous
 62
     7
100
AcDbLine
 10
175.5095083873321
 20
467.9609691802563
 30
0.0
 11
175.5534399709261
 21
467.9727406126025
 31
0.0
  0
LINE
  5
EB
330
55
100
AcDbEntity
  8
0
  6
Continuous
 62
     7
100
AcDbLine
 10
188.0500011444091
 20
493.9999999515713
 30
0.0
 11
118.3500011444091
 21
493.9999999515713
 31
0.0
  0
LINE
  5
EC
330
55
100
AcDbEntity
  8
0
  6
Continuous
 62
     7
100
AcDbLine
 10
115.6000011444092
 20
464.9112775790844
 30
0.0
 11
141.0322722734841
 21
455.1332205677551
 31
0.0
  0
ARC
  5
ED
330
55
100
AcDbEntity
  8
0
  6
Continuous
 62
     7
100
AcDbCircle
 10
135.4560284650331
 20
460.5153717398688
 30
0.0
 40
9.499999999999064
100
AcDbArc
 50
324.5096766884247
 51
351.431802438256
  0
ARC
  5
EE
330
55
100
AcDbEntity
  8
0
  6
Continuous
 62
     7
100
AcDbCircle
 10
186.3439738237866
 20
460.5153717398688
 30
0.0
 40
9.500000000000002
100
AcDbArc
 50
188.5681975617407
 51
215.4903233115744
  0
ARC
  5
EF
330
55
100
AcDbEntity
  8
0
  6
Continuous
 62
     7
100
AcDbCircle
 10
175.6906817189039
 20
467.2848211018539
 30
0.0
 40
0.7000000000000961
100
AcDbArc
 50
105.000000000002
 51
194.9999999999978
  0
ARC
  5
F0
330
55
100
AcDbEntity
  8
0
  6
Continuous
 62
     7
100
AcDbCircle
 10
175.7604952070081
 20
467.1999999515713
 30
0.0
 40
0.7999999999999644
100
AcDbArc
 50
15.00000000000358
 51
104.9999999999996
  0
ARC
  5
F1
330
55
100
AcDbEntity
  8
0
  6
Continuous
 62
     7
100
AcDbCircle
 10
181.2500011444091
 20
466.9999999515713
 30
0.0
 40
1.0
100
AcDbArc
 50
0.0
 51
180.0
  0
ENDBLK
  5
57
330
55
100
AcDbEntity
  8
0
100
AcDbBlockEnd
  0
BLOCK
  5
5A
330
58
100
AcDbEntity
  8
0
100
AcDbBlockBegin
  2
Rckans1
 70
     0
 10
153.2000007629393
 20
474.4999999515712
 30
0.0
  3
Rckans1
  1

  0
INSERT
  5
59
330
58
100
AcDbEntity
  8
0
100
AcDbBlockReference
  2
ATP-ST-TWIN-select__3
 10
115.6000011444092
 20
454.9999999515711
 30
0.0
  0
MTEXT
  5
F2
330
58
100
AcDbEntity
  8
1
 62
     6
100
AcDbMText
 10
153.2000007629393
 20
449.9999999515712
 30
0.0
 40
5.0
 41
0.0
 71
     2
 72
     1
  1
 
  7
CONVERTER_11
 73
     1
 44
1.32052821128451
  0
ENDBLK
  5
5B
330
58
100
AcDbEntity
  8
0
100
AcDbBlockEnd
  0
BLOCK
  5
5D
330
5C
100
AcDbEntity
  8
0
100
AcDbBlockBegin
  2
ATP-ST-TWIN-select__4
 70
     0
 10
92.40000033452122
 20
454.9999999515718
 30
0.0
  3
ATP-ST-TWIN-select__4
  1

  0
LINE
  5
F3
330
5C
100
AcDbEntity
  8
0
  6
Continuous
 62
     7
100
AcDbLine
 10
92.40000033452122
 20
483.7368602307523
 30
0.0
 11
94.60000033452124
 21
483.7368602307523
 31
0.0
  0
LINE
  5
F4
330
5C
100
AcDbEntity
  8
0
  6
Continuous
 62
     7
100
AcDbLine
 10
92.40000033452122
 20
493.9999999515714
 30
0.0
 11
94.60000033452124
 21
493.9999999515715
 31
0.0
  0
LINE
  5
F5
330
5C
100
AcDbEntity
  8
0
  6
Continuous
 62
     7
100
AcDbLine
 10
94.60000033452124
 20
483.7368602307523
 30
0.0
 11
94.60000033452124
 21
458.1999999515714
 31
0.0
  0
LINE
  5
F6
330
5C
100
AcDbEntity
  8
0
  6
Continuous
 62
     7
100
AcDbLine
 10
92.40000033452122
 20
458.1999999515714
 30
0.0
 11
92.40000033452122
 21
483.7368602307523
 31
0.0
  0
LINE
  5
F7
330
5C
100
AcDbEntity
  8
0
  6
Continuous
 62
     7
100
AcDbLine
 10
94.60000033452124
 20
493.9999999515715
 30
0.0
 11
94.60000033452124
 21
483.7368602307523
 31
0.0
  0
LINE
  5
F8
330
5C
100
AcDbEntity
  8
0
  6
Continuous
 62
     7
100
AcDbLine
 10
92.40000033452122
 20
483.7368602307523
 30
0.0
 11
92.40000033452122
 21
493.9999999515714
 31
0.0
  0
LINE
  5
F9
330
5C
100
AcDbEntity
  8
0
  6
Continuous
 62
     7
100
AcDbLine
 10
92.40000033452122
 20
458.1999999515714
 30
0.0
 11
92.40000033452122
 21
454.9999999515718
 31
0.0
  0
LINE
  5
FA
330
5C
100
AcDbEntity
  8
0
  6
Continuous
 62
     7
100
AcDbLine
 10
92.40000033452122
 20
454.9999999515718
 30
0.0
 11
94.60000033452124
 21
454.9999999515718
 31
0.0
  0
LINE
  5
FB
330
5C
100
AcDbEntity
  8
0
  6
Continuous
 62
     7
100
AcDbLine
 10
92.40000033452122
 20
458.1999999515714
 30
0.0
 11
94.60000033452124
 21
458.1999999515714
 31
0.0
  0
LINE
  5
FC
330
5C
100
AcDbEntity
  8
0
  6
Continuous
 62
     7
100
AcDbLine
 10
94.60000033452124
 20
458.1999999515714
 30
0.0
 11
94.60000033452124
 21
454.9999999515718
 31
0.0
  0
ENDBLK
  5
5E
330
5C
100
AcDbEntity
  8
0
100
AcDbBlockEnd
  0
BLOCK
  5
61
330
5F
100
AcDbEntity
  8
0
100
AcDbBlockBegin
  2
SA_Links1
 70
     0
 10
93.60000038146492
 20
474.4999999515713
 30
0.0
  3
SA_Links1
  1

  0
INSERT
  5
60
330
5F
100
AcDbEntity
  8
0
100
AcDbBlockReference
  2
ATP-ST-TWIN-select__4
 10
92.40000033452122
 20
454.9999999515718
 30
0.0
  0
MTEXT
  5
FD
330
5F
100
AcDbEntity
  8
1
 62
     6
100
AcDbMText
 10
93.60000038146461
 20
449.9999999515712
 30
0.0
 40
5.0
 41
0.0
 71
     2
 72
     1
  1
 
  7
CONVERTER_11
 73
     1
 44
1.32052821128451
  0
ENDBLK
  5
62
330
5F
100
AcDbEntity
  8
0
100
AcDbBlockEnd
  0
BLOCK
  5
64
330
63
100
AcDbEntity
  8
0
100
AcDbBlockBegin
  2
ATP-ST-TWIN-select__5
 70
     0
 10
-48.60000033451583
 20
454.9999999515711
 30
0.0
  3
ATP-ST-TWIN-select__5
  1

  0
LINE
  5
FE
330
63
100
AcDbEntity
  8
0
  6
Continuous
 62
     7
100
AcDbLine
 10
-48.60000033451583
 20
464.9112775790844
 30
0.0
 11
-48.60000033451583
 21
483.7368602307718
 31
0.0
  0
LINE
  5
FF
330
63
100
AcDbEntity
  8
0
  6
Continuous
 62
     7
100
AcDbLine
 10
-48.60000033451583
 20
455.1332205677551
 30
0.0
 11
-48.60000033451583
 21
464.9112775790844
 31
0.0
  0
LINE
  5
100
330
63
100
AcDbEntity
  8
0
  6
Continuous
 62
     7
100
AcDbLine
 10
-48.60000033451583
 20
483.7368602307718
 30
0.0
 11
-48.60000033451583
 21
493.9999999515713
 31
0.0
  0
LINE
  5
101
330
63
100
AcDbEntity
  8
0
  6
Continuous
 62
     7
100
AcDbLine
 10
-46.40000033451582
 20
483.7368602307718
 30
0.0
 11
-48.60000033451583
 21
483.7368602307718
 31
0.0
  0
LINE
  5
102
330
63
100
AcDbEntity
  8
0
  6
Continuous
 62
     7
100
AcDbLine
 10
-46.40000033451582
 20
493.9999999515713
 30
0.0
 11
-48.60000033451583
 21
493.9999999515713
 31
0.0
  0
LINE
  5
103
330
63
100
AcDbEntity
  8
0
  6
Continuous
 62
     7
100
AcDbLine
 10
-48.60000033451583
 20
454.9999999515711
 30
0.0
 11
-48.60000033451583
 21
455.1331050369221
 31
0.0
  0
LINE
  5
104
330
63
100
AcDbEntity
  8
0
  6
Continuous
 62
     7
100
AcDbLine
 10
-46.40000033451582
 20
464.9112775790844
 30
0.0
 11
-46.40000033451582
 21
455.1332205677551
 31
0.0
  0
LINE
  5
105
330
63
100
AcDbEntity
  8
0
  6
Continuous
 62
     7
100
AcDbLine
 10
-46.40000033451582
 20
455.1331050369221
 30
0.0
 11
-46.40000033451582
 21
454.9999999515711
 31
0.0
  0
LINE
  5
106
330
63
100
AcDbEntity
  8
0
  6
Continuous
 62
     7
100
AcDbLine
 10
-46.40000033451582
 20
455.1332205677551
 30
0.0
 11
-46.40000033451582
 21
455.1331050369221
 31
0.0
  0
LINE
  5
107
330
63
100
AcDbEntity
  8
0
  6
Continuous
 62
     7
100
AcDbLine
 10
-48.60000033451583
 20
455.1331050369221
 30
0.0
 11
-48.60000033451583
 21
455.1332205677551
 31
0.0
  0
LINE
  5
108
330
63
100
AcDbEntity
  8
0
  6
Continuous
 62
     7
100
AcDbLine
 10
-48.60000033451583
 20
455.1331050369221
 30
0.0
 11
-46.40000033451582
 21
455.1331050369221
 31
0.0
  0
LINE
  5
109
330
63
100
AcDbEntity
  8
0
  6
Continuous
 62
     7
100
AcDbLine
 10
-48.60000033451583
 20
455.1332205677551
 30
0.0
 11
-46.40000033451582
 21
455.1332205677551
 31
0.0
  0
LINE
  5
10A
330
63
100
AcDbEntity
  8
0
  6
Continuous
 62
     7
100
AcDbLine
 10
-46.40000033451582
 20
454.9999999515711
 30
0.0
 11
-48.60000033451583
 21
454.9999999515711
 31
0.0
  0
LINE
  5
10B
330
63
100
AcDbEntity
  8
0
  6
Continuous
 62
     7
100
AcDbLine
 10
-46.40000033451582
 20
464.9112775790844
 30
0.0
 11
-48.60000033451583
 21
464.9112775790844
 31
0.0
  0
LINE
  5
10C
330
63
100
AcDbEntity
  8
0
  6
Continuous
 62
     7
100
AcDbLine
 10
-46.40000033451582
 20
483.7368602307718
 30
0.0
 11
-46.40000033451582
 21
464.9112775790844
 31
0.0
  0
LINE
  5
10D
330
63
100
AcDbEntity
  8
0
  6
Continuous
 62
     7
100
AcDbLine
 10
-46.40000033451582
 20
493.9999999515713
 30
0.0
 11
-46.40000033451582
 21
483.7368602307718
 31
0.0
  0
ENDBLK
  5
65
330
63
100
AcDbEntity
  8
0
100
AcDbBlockEnd
  0
BLOCK
  5
68
330
66
100
AcDbEntity
  8
0
100
AcDbBlockBegin
  2
SA_Rechts1
 70
     0
 10
-47.60000038145948
 20
474.4999999515712
 30
0.0
  3
SA_Rechts1
  1

  0
INSERT
  5
67
330
66
100
AcDbEntity
  8
0
100
AcDbBlockReference
  2
ATP-ST-TWIN-select__5
 10
-48.60000033451583
 20
454.9999999515711
 30
0.0
  0
MTEXT
  5
10E
330
66
100
AcDbEntity
  8
1
 62
     6
100
AcDbMText
 10
-47.60000038145972
 20
449.9999999515712
 30
0.0
 40
5.0
 41
0.0
 71
     2
 72
     1
  1
 
  7
CONVERTER_11
 73
     1
 44
1.32052821128451
  0
ENDBLK
  5
69
330
66
100
AcDbEntity
  8
0
100
AcDbBlockEnd
  0
BLOCK
  5
6B
330
6A
100
AcDbEntity
  8
0
100
AcDbBlockBegin
  2
ATP-ST-TWIN-select__6
 70
     0
 10
-2.10000038146973
 20
454.9999999515712
 30
0.0
  3
ATP-ST-TWIN-select__6
  1

  0
LINE
  5
10F
330
6A
100
AcDbEntity
  8
0
  6
Continuous
 62
     7
100
AcDbLine
 10
12.04999961853031
 20
460.9999999515714
 30
0.0
 11
45.14999961853026
 21
460.9999999515714
 31
0.0
  0
LINE
  5
110
330
6A
100
AcDbEntity
  8
0
  6
Continuous
 62
     7
100
AcDbLine
 10
45.14999961853026
 20
460.9999999515714
 30
0.0
 11
45.14999961853026
 21
459.8999999515714
 31
0.0
  0
LINE
  5
111
330
6A
100
AcDbEntity
  8
0
  6
Continuous
 62
     7
100
AcDbLine
 10
43.84999961853056
 20
459.5516660014113
 30
0.0
 11
43.84999961852979
 21
459.0999999515707
 31
0.0
  0
LINE
  5
112
330
6A
100
AcDbEntity
  8
0
  6
Continuous
 62
     7
100
AcDbLine
 10
11.74999961853028
 20
459.0999999515711
 30
0.0
 11
11.74999961853028
 21
459.5516660014109
 31
0.0
  0
LINE
  5
113
330
6A
100
AcDbEntity
  8
0
  6
Continuous
 62
     7
100
AcDbLine
 10
11.74999961853028
 20
459.5516660014109
 30
0.0
 11
10.44999961853027
 21
459.8999999515714
 31
0.0
  0
LINE
  5
114
330
6A
100
AcDbEntity
  8
0
  6
Continuous
 62
     7
100
AcDbLine
 10
45.14999961853026
 20
459.8999999515714
 30
0.0
 11
43.84999961853056
 21
459.5516660014113
 31
0.0
  0
LINE
  5
115
330
6A
100
AcDbEntity
  8
0
  6
Continuous
 62
     7
100
AcDbLine
 10
-2.10000038146973
 20
483.7368602307522
 30
0.0
 11
-2.10000038146973
 21
458.1999999515714
 31
0.0
  0
LINE
  5
116
330
6A
100
AcDbEntity
  8
0
  6
Continuous
 62
     7
100
AcDbLine
 10
0.64999961853028
 20
493.9999999515714
 30
0.0
 11
-2.10000038146973
 21
483.7368602307522
 31
0.0
  0
LINE
  5
117
330
6A
100
AcDbEntity
  8
0
  6
Continuous
 62
     7
100
AcDbLine
 10
70.34999961853025
 20
493.9999999515714
 30
0.0
 11
0.64999961853028
 21
493.9999999515714
 31
0.0
  0
LINE
  5
118
330
6A
100
AcDbEntity
  8
0
  6
Continuous
 62
     7
100
AcDbLine
 10
73.09999961853015
 20
483.7368602307719
 30
0.0
 11
70.34999961853025
 21
493.9999999515714
 31
0.0
  0
LINE
  5
119
330
6A
100
AcDbEntity
  8
0
  6
Continuous
 62
     7
100
AcDbLine
 10
73.09999961853015
 20
464.9112775790845
 30
0.0
 11
73.09999961853015
 21
483.7368602307719
 31
0.0
  0
LINE
  5
11A
330
6A
100
AcDbEntity
  8
0
  6
Continuous
 62
     7
100
AcDbLine
 10
47.66777290810225
 20
455.1331050369223
 30
0.0
 11
47.66772848945536
 21
455.1332205677553
 31
0.0
  0
LINE
  5
11B
330
6A
100
AcDbEntity
  8
0
  6
Continuous
 62
     7
100
AcDbLine
 10
47.30973116930976
 20
454.9999999515712
 30
0.0
 11
47.66777290810225
 21
455.1331050369223
 31
0.0
  0
LINE
  5
11C
330
6A
100
AcDbEntity
  8
0
  6
Continuous
 62
     7
100
AcDbLine
 10
-2.10000038146973
 20
458.1999999515714
 30
0.0
 11
6.44999961853027
 21
458.1999999515714
 31
0.0
  0
LINE
  5
11D
330
6A
100
AcDbEntity
  8
0
  6
Continuous
 62
     7
100
AcDbLine
 10
6.44999961853027
 20
458.1999999515714
 30
0.0
 11
6.44999961853027
 21
466.9999999515714
 31
0.0
  0
LINE
  5
11E
330
6A
100
AcDbEntity
  8
0
  6
Continuous
 62
     7
100
AcDbLine
 10
8.44999961853027
 20
466.9999999515714
 30
0.0
 11
8.44999961853027
 21
454.9999999515714
 31
0.0
  0
LINE
  5
11F
330
6A
100
AcDbEntity
  8
0
  6
Continuous
 62
     7
100
AcDbLine
 10
10.44999961853027
 20
459.8999999515714
 30
0.0
 11
10.44999961853027
 21
460.9999999515714
 31
0.0
  0
LINE
  5
120
330
6A
100
AcDbEntity
  8
0
  6
Continuous
 62
     7
100
AcDbLine
 10
10.44999961853027
 20
460.9999999515714
 30
0.0
 11
12.16676489490008
 21
467.4070551876534
 31
0.0
  0
LINE
  5
121
330
6A
100
AcDbEntity
  8
0
  6
Continuous
 62
     7
100
AcDbLine
 10
13.14656079201332
 20
467.9727406126027
 30
0.0
 11
13.19049237560857
 21
467.960969180256
 31
0.0
  0
LINE
  5
122
330
6A
100
AcDbEntity
  8
0
  6
Continuous
 62
     7
100
AcDbLine
 10
13.68546712243771
 20
467.1036477702824
 30
0.0
 11
12.04999961853031
 21
460.9999999515714
 31
0.0
  0
LINE
  5
123
330
6A
100
AcDbEntity
  8
0
  6
Continuous
 62
     7
100
AcDbLine
 10
45.50894327166225
 20
454.9999999515718
 30
0.0
 11
47.30973116930976
 21
454.9999999515712
 31
0.0
  0
LINE
  5
124
330
6A
100
AcDbEntity
  8
0
  6
Continuous
 62
     7
100
AcDbLine
 10
8.44999961853027
 20
454.9999999515714
 30
0.0
 11
10.09105596539772
 21
454.9999999515714
 31
0.0
  0
LINE
  5
125
330
6A
100
AcDbEntity
  8
0
  6
Continuous
 62
     7
100
AcDbLine
 10
47.66772848945536
 20
455.1332205677553
 30
0.0
 11
73.09999961853015
 21
464.9112775790845
 31
0.0
  0
ARC
  5
126
330
6A
100
AcDbEntity
  8
0
  6
Continuous
 62
     7
100
AcDbCircle
 10
53.24397229790625
 20
460.515371739869
 30
0.0
 40
9.499999999999055
100
AcDbArc
 50
188.568197561745
 51
215.4903233115761
  0
ARC
  5
127
330
6A
100
AcDbEntity
  8
0
  6
Continuous
 62
     7
100
AcDbCircle
 10
2.35602693915278
 20
460.515371739869
 30
0.0
 40
9.500000000000053
100
AcDbArc
 50
324.5096766884253
 51
351.4318024382583
  0
ARC
  5
128
330
6A
100
AcDbEntity
  8
0
  6
Continuous
 62
     7
100
AcDbCircle
 10
13.00931904403551
 20
467.2848211018541
 30
0.0
 40
0.6999999999998402
100
AcDbArc
 50
345.000000000002
 51
74.99999999988738
  0
ARC
  5
129
330
6A
100
AcDbEntity
  8
0
  6
Continuous
 62
     7
100
AcDbCircle
 10
7.44999961853027
 20
466.9999999515714
 30
0.0
 40
1.0
100
AcDbArc
 50
0.0
 51
180.0
  0
ARC
  5
12A
330
6A
100
AcDbEntity
  8
0
  6
Continuous
 62
     7
100
AcDbCircle
 10
12.93950555593129
 20
467.1999999515714
 30
0.0
 40
0.8000000000000673
100
AcDbArc
 50
75.00000000000037
 51
165.0000000000004
  0
ENDBLK
  5
6C
330
6A
100
AcDbEntity
  8
0
100
AcDbBlockEnd
  0
BLOCK
  5
6F
330
6D
100
AcDbEntity
  8
0
100
AcDbBlockBegin
  2
Vordans1
 70
     0
 10
35.50000000000007
 20
474.4999999515713
 30
0.0
  3
Vordans1
  1

  0
INSERT
  5
6E
330
6D
100
AcDbEntity
  8
0
100
AcDbBlockReference
  2
ATP-ST-TWIN-select__6
 10
-2.10000038146973
 20
454.9999999515712
 30
0.0
  0
LINE
  5
12B
330
6D
100
AcDbEntity
  8
1
  6
Continuous
 62
     2
100
AcDbLine
 10
27.64999961853022
 20
463.635579375763
 30
0.0
 11
27.64999961853022
 21
457.635579375763
 31
0.0
  0
MTEXT
  5
12C
330
6D
100
AcDbEntity
  8
1
 62
     6
100
AcDbMText
 10
35.5
 20
449.9999999515712
 30
0.0
 40
5.0
 41
0.0
 71
     2
 72
     1
  1
 
  7
CONVERTER_11
 73
     1
 44
1.32052821128451
  0
DIMENSION
  5
137
330
6D
100
AcDbEntity
  8
1
100
AcDbDimension
  2
*D18
 10
73.09999961853015
 20
418.7789427831143
 30
0.0
 11
35.50000000000004
 21
422.7039427831143
 31
0.0
 70
    32
  1
<>
 71
     5
 42
-1.0
 53
0.00013888888889
  3
ME10_DIM_11
100
AcDbAlignedDimension
 13
-2.10000038146973
 23
458.1999999515714
 33
0.0
 14
73.09999961853015
 24
464.9112775790845
 34
0.0
100
AcDbRotatedDimension
  0
DIMENSION
  5
142
330
6D
100
AcDbEntity
  8
1
100
AcDbDimension
  2
*D19
 10
27.64999961853022
 20
431.344020229336
 30
0.0
 11
50.79790509891893
 21
435.269020229336
 31
0.0
 70
    32
  1
<>
 71
     5
 42
-1.0
 53
0.00013888888889
  3
ME10_DIM_12
100
AcDbAlignedDimension
 13
73.09999961853015
 23
464.9112775790845
 33
0.0
 14
27.64999961853022
 24
457.635579375763
 34
0.0
100
AcDbRotatedDimension
  0
DIMENSION
  5
14D
330
6D
100
AcDbEntity
  8
1
100
AcDbDimension
  2
*D20
 10
27.6499996185302
 20
442.185590628678
 30
0.0
 11
35.50000000000001
 21
446.110590628678
 31
0.0
 70
    32
  1
<>
 71
     5
 42
-1.0
 53
0.00013888888889
  3
ME10_DIM_13
100
AcDbAlignedDimension
 13
45.14999961853026
 23
459.8999999515714
 33
0.0
 14
27.64999961853022
 24
457.635579375763
 34
0.0
100
AcDbRotatedDimension
  0
DIMENSION
  5
158
330
6D
100
AcDbEntity
  8
1
100
AcDbDimension
  2
*D21
 10
-13.52192227921657
 20
493.9999999515714
 30
0.0
 11
-17.27192227921657
 21
474.449650715832
 31
0.0
 70
    32
  1
<>
 71
     5
 42
-1.0
 53
90.0
  3
ME10_DIM_14
100
AcDbAlignedDimension
 13
8.44999961853027
 23
454.9999999515714
 33
0.0
 14
0.64999961853028
 24
493.9999999515714
 34
0.0
 50
90.0
100
AcDbRotatedDimension
  0
DIMENSION
  5
163
330
6D
100
AcDbEntity
  8
1
100
AcDbDimension
  2
*D22
 10
-6.36928122945837
 20
493.9999999515714
 30
0.0
 11
-10.11928122945837
 21
474.714198636757
 31
0.0
 70
    32
  1
<>
 71
     5
 42
-1.0
 53
90.0
  3
ME10_DIM_15
100
AcDbAlignedDimension
 13
12.04999961853031
 23
460.9999999515714
 33
0.0
 14
0.64999961853028
 24
493.9999999515714
 34
0.0
 50
90.0
100
AcDbRotatedDimension
  0
ENDBLK
  5
70
330
6D
100
AcDbEntity
  8
0
100
AcDbBlockEnd
  0
BLOCK
  5
72
330
71
100
AcDbEntity
  8
0
100
AcDbBlockBegin
  2
_rahmen
 70
     0
 10
214.1000003814747
 20
329.6397459007427
 30
0.0
  3
_rahmen
  1

  0
LINE
  5
164
330
71
100
AcDbEntity
  8
1
  6
Continuous
 62
     6
100
AcDbLine
 10
84.5551958547247
 20
360.1397459007428
 30
0.0
 11
214.1000003814764
 21
360.1397459007428
 31
0.0
  0
LINE
  5
165
330
71
100
AcDbEntity
  8
1
  6
Continuous
 62
     7
100
AcDbLine
 10
102.7551958547247
 20
338.8897459007428
 30
0.0
 11
120.9551958547246
 21
338.8897459007428
 31
0.0
  0
LINE
  5
166
330
71
100
AcDbEntity
  8
1
  6
Continuous
 62
     6
100
AcDbLine
 10
102.7551958547247
 20
334.6397459007428
 30
0.0
 11
84.5551958547247
 21
334.6397459007427
 31
0.0
  0
LINE
  5
167
330
71
100
AcDbEntity
  8
1
  6
Continuous
 62
     7
100
AcDbLine
 10
102.7551958547247
 20
338.8897459007428
 30
0.0
 11
102.7551958547247
 21
334.6397459007428
 31
0.0
  0
LINE
  5
168
330
71
100
AcDbEntity
  8
1
  6
Continuous
 62
     7
100
AcDbLine
 10
120.9551958547246
 20
338.8897459007428
 30
0.0
 11
120.9551958547246
 21
334.6397459007427
 31
0.0
  0
LINE
  5
169
330
71
100
AcDbEntity
  8
1
  6
Continuous
 62
     7
100
AcDbLine
 10
84.5551958547247
 20
338.8897459007427
 30
0.0
 11
84.5551958547247
 21
334.6397459007427
 31
0.0
  0
LINE
  5
16A
330
71
100
AcDbEntity
  8
1
  6
Continuous
 62
     7
100
AcDbLine
 10
84.5551958547247
 20
338.8897459007427
 30
0.0
 11
102.7551958547247
 21
338.8897459007428
 31
0.0
  0
LINE
  5
16B
330
71
100
AcDbEntity
  8
1
  6
Continuous
 62
     2
100
AcDbLine
 10
93.7918507412873
 20
358.2647459007427
 30
0.0
 11
93.7918507412873
 21
353.2647459007427
 31
0.0
  0
LINE
  5
16C
330
71
100
AcDbEntity
  8
1
  6
Continuous
 62
     2
100
AcDbLine
 10
93.7918507412873
 20
353.2647459007427
 30
0.0
 11
88.7918507412873
 21
354.5147459007427
 31
0.0
  0
LINE
  5
16D
330
71
100
AcDbEntity
  8
1
  6
Continuous
 62
     2
100
AcDbLine
 10
88.7918507412873
 20
354.5147459007427
 30
0.0
 11
88.7918507412873
 21
357.0147459007427
 31
0.0
  0
LINE
  5
16E
330
71
100
AcDbEntity
  8
1
  6
Continuous
 62
     2
100
AcDbLine
 10
88.7918507412873
 20
357.0147459007427
 30
0.0
 11
93.7918507412873
 21
358.2647459007427
 31
0.0
  0
LINE
  5
16F
330
71
100
AcDbEntity
  8
1
  6
Continuous
 62
     6
100
AcDbLine
 10
-37.89999961852351
 20
334.6397459007428
 30
0.0
 11
-72.8999996185234
 21
334.6397459007428
 31
0.0
  0
LINE
  5
170
330
71
100
AcDbEntity
  8
1
  6
Continuous
 62
     6
100
AcDbLine
 10
214.1000003814764
 20
351.6397459007428
 30
0.0
 11
214.100000381476
 21
343.1397459007428
 31
0.0
  0
LINE
  5
171
330
71
100
AcDbEntity
  8
1
  6
Continuous
 62
     6
100
AcDbLine
 10
120.9551958547246
 20
334.6397459007427
 30
0.0
 11
120.6000003814747
 21
334.6397459007428
 31
0.0
  0
LINE
  5
172
330
71
100
AcDbEntity
  8
1
  6
Continuous
 62
     6
100
AcDbLine
 10
-31.69999961852551
 20
334.6397459007427
 30
0.0
 11
-37.89999961852351
 21
334.6397459007428
 31
0.0
  0
LINE
  5
173
330
71
100
AcDbEntity
  8
1
  6
Continuous
 62
     7
100
AcDbLine
 10
120.9551958547246
 20
351.6397459007428
 30
0.0
 11
120.9551958547246
 21
338.8897459007428
 31
0.0
  0
LINE
  5
174
330
71
100
AcDbEntity
  8
1
  6
Continuous
 62
     7
100
AcDbLine
 10
84.5551958547247
 20
351.6397459007428
 30
0.0
 11
84.5551958547247
 21
338.8897459007427
 31
0.0
  0
LINE
  5
175
330
71
100
AcDbEntity
  8
1
  6
Continuous
 62
     6
100
AcDbLine
 10
70.60000038147473
 20
334.6397459007428
 30
0.0
 11
20.6000003814745
 21
334.6397459007428
 31
0.0
  0
LINE
  5
176
330
71
100
AcDbEntity
  8
1
  6
Continuous
 62
     6
100
AcDbLine
 10
-31.69999961852551
 20
334.6397459007427
 30
0.0
 11
-29.39999961852527
 21
334.6397459007428
 31
0.0
  0
LINE
  5
177
330
71
100
AcDbEntity
  8
1
  6
Continuous
 62
     6
100
AcDbLine
 10
120.9551958547246
 20
334.6397459007427
 30
0.0
 11
170.6000003814747
 21
334.6397459007428
 31
0.0
  0
LINE
  5
178
330
71
100
AcDbEntity
  8
1
  6
Continuous
 62
     6
100
AcDbLine
 10
214.1000003814747
 20
334.6397459007428
 30
0.0
 11
214.100000381476
 21
343.1397459007428
 31
0.0
  0
LINE
  5
179
330
71
100
AcDbEntity
  8
1
  6
Continuous
 62
     2
100
AcDbLine
 10
-77.89999961852436
 20
334.6397459007428
 30
0.0
 11
-77.89999961852436
 21
329.6397459007427
 31
0.0
  0
LINE
  5
17A
330
71
100
AcDbEntity
  8
1
  6
Continuous
 62
     2
100
AcDbLine
 10
-72.8999996185234
 20
334.6397459007428
 30
0.0
 11
-77.89999961852436
 21
334.6397459007428
 31
0.0
  0
LINE
  5
17B
330
71
100
AcDbEntity
  8
1
  6
Continuous
 62
     2
100
AcDbLine
 10
-72.8999996185234
 20
329.6397459007427
 30
0.0
 11
-29.39999961852527
 21
329.6397459007427
 31
0.0
  0
LINE
  5
17C
330
71
100
AcDbEntity
  8
1
  6
Continuous
 62
     2
100
AcDbLine
 10
-72.8999996185234
 20
334.6397459007428
 30
0.0
 11
-72.8999996185234
 21
329.6397459007427
 31
0.0
  0
LINE
  5
17D
330
71
100
AcDbEntity
  8
1
  6
Continuous
 62
     2
100
AcDbLine
 10
170.6000003814747
 20
329.6397459007427
 30
0.0
 11
120.6000003814747
 21
329.6397459007427
 31
0.0
  0
LINE
  5
17E
330
71
100
AcDbEntity
  8
1
  6
Continuous
 62
     2
100
AcDbLine
 10
170.6000003814747
 20
329.6397459007427
 30
0.0
 11
170.6000003814747
 21
334.6397459007428
 31
0.0
  0
LINE
  5
17F
330
71
100
AcDbEntity
  8
1
  6
Continuous
 62
     2
100
AcDbLine
 10
120.6000003814747
 20
329.6397459007427
 30
0.0
 11
120.6000003814747
 21
334.6397459007428
 31
0.0
  0
LINE
  5
180
330
71
100
AcDbEntity
  8
1
  6
Continuous
 62
     2
100
AcDbLine
 10
70.60000038147473
 20
329.6397459007427
 30
0.0
 11
120.6000003814747
 21
329.6397459007427
 31
0.0
  0
LINE
  5
181
330
71
100
AcDbEntity
  8
1
  6
Continuous
 62
     2
100
AcDbLine
 10
70.60000038147473
 20
329.6397459007427
 30
0.0
 11
70.60000038147473
 21
334.6397459007428
 31
0.0
  0
LINE
  5
182
330
71
100
AcDbEntity
  8
1
  6
Continuous
 62
     2
100
AcDbLine
 10
20.6000003814745
 20
329.6397459007427
 30
0.0
 11
70.60000038147473
 21
329.6397459007427
 31
0.0
  0
LINE
  5
183
330
71
100
AcDbEntity
  8
1
  6
Continuous
 62
     2
100
AcDbLine
 10
20.6000003814745
 20
329.6397459007427
 30
0.0
 11
20.6000003814745
 21
334.6397459007428
 31
0.0
  0
LINE
  5
184
330
71
100
AcDbEntity
  8
1
  6
Continuous
 62
     2
100
AcDbLine
 10
-29.39999961852527
 20
329.6397459007427
 30
0.0
 11
20.6000003814745
 21
329.6397459007427
 31
0.0
  0
LINE
  5
185
330
71
100
AcDbEntity
  8
1
  6
Continuous
 62
     2
100
AcDbLine
 10
-29.39999961852527
 20
329.6397459007427
 30
0.0
 11
-29.39999961852527
 21
334.6397459007428
 31
0.0
  0
LINE
  5
186
330
71
100
AcDbEntity
  8
1
  6
Continuous
 62
     6
100
AcDbLine
 10
-72.89999961852357
 20
384.6397459007429
 30
0.0
 11
-72.8999996185234
 21
334.6397459007428
 31
0.0
  0
LINE
  5
187
330
71
100
AcDbEntity
  8
1
  6
Continuous
 62
     2
100
AcDbLine
 10
-77.89999961852436
 20
384.6397459007429
 30
0.0
 11
-77.89999961852436
 21
334.6397459007428
 31
0.0
  0
LINE
  5
188
330
71
100
AcDbEntity
  8
1
  6
Continuous
 62
     2
100
AcDbLine
 10
-77.89999961852436
 20
384.6397459007429
 30
0.0
 11
-72.89999961852357
 21
384.6397459007429
 31
0.0
  0
LINE
  5
189
330
71
100
AcDbEntity
  8
1
  6
Continuous
 62
     6
100
AcDbLine
 10
-72.8999996185238
 20
434.6397459007427
 30
0.0
 11
-72.89999961852357
 21
384.6397459007429
 31
0.0
  0
LINE
  5
18A
330
71
100
AcDbEntity
  8
1
  6
Continuous
 62
     2
100
AcDbLine
 10
-77.89999961852436
 20
434.6397459007427
 30
0.0
 11
-77.89999961852436
 21
384.6397459007429
 31
0.0
  0
LINE
  5
18B
330
71
100
AcDbEntity
  8
1
  6
Continuous
 62
     2
100
AcDbLine
 10
-77.89999961852436
 20
434.6397459007427
 30
0.0
 11
-72.8999996185238
 21
434.6397459007427
 31
0.0
  0
LINE
  5
18C
330
71
100
AcDbEntity
  8
1
  6
Continuous
 62
     6
100
AcDbLine
 10
-72.8999996185243
 20
484.6397459007428
 30
0.0
 11
-72.8999996185238
 21
434.6397459007427
 31
0.0
  0
LINE
  5
18D
330
71
100
AcDbEntity
  8
1
  6
Continuous
 62
     2
100
AcDbLine
 10
-77.89999961852436
 20
484.6397459007428
 30
0.0
 11
-77.89999961852436
 21
434.6397459007427
 31
0.0
  0
LINE
  5
18E
330
71
100
AcDbEntity
  8
1
  6
Continuous
 62
     2
100
AcDbLine
 10
-77.89999961852436
 20
484.6397459007428
 30
0.0
 11
-72.8999996185243
 21
484.6397459007428
 31
0.0
  0
LINE
  5
18F
330
71
100
AcDbEntity
  8
1
  6
Continuous
 62
     6
100
AcDbLine
 10
-72.89999961852436
 20
519.6397459007428
 30
0.0
 11
-72.8999996185243
 21
484.6397459007428
 31
0.0
  0
LINE
  5
190
330
71
100
AcDbEntity
  8
1
  6
Continuous
 62
     2
100
AcDbLine
 10
-77.89999961852436
 20
539.6397459007428
 30
0.0
 11
-77.89999961852436
 21
484.6397459007428
 31
0.0
  0
LINE
  5
191
330
71
100
AcDbEntity
  8
1
  6
Continuous
 62
     2
100
AcDbLine
 10
-77.89999961852436
 20
329.6397459007427
 30
0.0
 11
-72.8999996185234
 21
329.6397459007427
 31
0.0
  0
LINE
  5
192
330
71
100
AcDbEntity
  8
1
  6
Continuous
 62
     2
100
AcDbLine
 10
70.60000038147473
 20
539.6397459007428
 30
0.0
 11
70.60000038147473
 21
530.4310540560415
 31
0.0
  0
LINE
  5
193
330
71
100
AcDbEntity
  8
1
  6
Continuous
 62
     2
100
AcDbLine
 10
70.60000038147473
 20
539.6397459007428
 30
0.0
 11
-77.89999961852436
 21
539.6397459007428
 31
0.0
  0
LINE
  5
194
330
71
100
AcDbEntity
  8
1
  6
Continuous
 62
     2
100
AcDbLine
 10
219.1000003814737
 20
334.6397459007428
 30
0.0
 11
219.1000003814737
 21
384.6397459007429
 31
0.0
  0
LINE
  5
195
330
71
100
AcDbEntity
  8
1
  6
Continuous
 62
     2
100
AcDbLine
 10
219.1000003814737
 20
484.6397459007428
 30
0.0
 11
219.1000003814737
 21
539.6397459007428
 31
0.0
  0
LINE
  5
196
330
71
100
AcDbEntity
  8
1
  6
Continuous
 62
     6
100
AcDbLine
 10
214.1000003814739
 20
484.6397459007428
 30
0.0
 11
214.1000003814737
 21
519.6397459007428
 31
0.0
  0
LINE
  5
197
330
71
100
AcDbEntity
  8
1
  6
Continuous
 62
     2
100
AcDbLine
 10
214.1000003814739
 20
484.6397459007428
 30
0.0
 11
219.1000003814737
 21
484.6397459007428
 31
0.0
  0
LINE
  5
198
330
71
100
AcDbEntity
  8
1
  6
Continuous
 62
     2
100
AcDbLine
 10
219.1000003814737
 20
434.6397459007427
 30
0.0
 11
219.1000003814737
 21
484.6397459007428
 31
0.0
  0
LINE
  5
199
330
71
100
AcDbEntity
  8
1
  6
Continuous
 62
     6
100
AcDbLine
 10
214.1000003814751
 20
434.6397459007427
 30
0.0
 11
214.1000003814739
 21
484.6397459007428
 31
0.0
  0
LINE
  5
19A
330
71
100
AcDbEntity
  8
1
  6
Continuous
 62
     2
100
AcDbLine
 10
214.1000003814751
 20
434.6397459007427
 30
0.0
 11
219.1000003814737
 21
434.6397459007427
 31
0.0
  0
LINE
  5
19B
330
71
100
AcDbEntity
  8
1
  6
Continuous
 62
     2
100
AcDbLine
 10
219.1000003814737
 20
384.6397459007429
 30
0.0
 11
219.1000003814737
 21
434.6397459007427
 31
0.0
  0
LINE
  5
19C
330
71
100
AcDbEntity
  8
1
  6
Continuous
 62
     6
100
AcDbLine
 10
214.1000003814756
 20
384.6397459007429
 30
0.0
 11
214.1000003814751
 21
434.6397459007427
 31
0.0
  0
LINE
  5
19D
330
71
100
AcDbEntity
  8
1
  6
Continuous
 62
     2
100
AcDbLine
 10
214.1000003814756
 20
384.6397459007429
 30
0.0
 11
219.1000003814737
 21
384.6397459007429
 31
0.0
  0
LINE
  5
19E
330
71
100
AcDbEntity
  8
1
  6
Continuous
 62
     6
100
AcDbLine
 10
214.1000003814737
 20
519.6397459007428
 30
0.0
 11
-72.89999961852436
 21
519.6397459007428
 31
0.0
  0
LINE
  5
19F
330
71
100
AcDbEntity
  8
1
  6
Continuous
 62
     2
100
AcDbLine
 10
219.1000003814737
 20
539.6397459007428
 30
0.0
 11
70.60000038147473
 21
539.6397459007428
 31
0.0
  0
LINE
  5
1A0
330
71
100
AcDbEntity
  8
1
  6
Continuous
 62
     6
100
AcDbLine
 10
214.1000003814764
 20
351.6397459007428
 30
0.0
 11
214.1000003814756
 21
384.6397459007429
 31
0.0
  0
LINE
  5
1A1
330
71
100
AcDbEntity
  8
1
  6
Continuous
 62
     2
100
AcDbLine
 10
214.1000003814747
 20
329.6397459007427
 30
0.0
 11
170.6000003814747
 21
329.6397459007427
 31
0.0
  0
LINE
  5
1A2
330
71
100
AcDbEntity
  8
1
  6
Continuous
 62
     2
100
AcDbLine
 10
219.1000003814737
 20
329.6397459007427
 30
0.0
 11
214.1000003814747
 21
329.6397459007427
 31
0.0
  0
LINE
  5
1A3
330
71
100
AcDbEntity
  8
1
  6
Continuous
 62
     2
100
AcDbLine
 10
219.1000003814737
 20
329.6397459007427
 30
0.0
 11
219.1000003814737
 21
334.6397459007428
 31
0.0
  0
LINE
  5
1A4
330
71
100
AcDbEntity
  8
1
  6
Continuous
 62
     6
100
AcDbLine
 10
84.5551958547247
 20
351.6397459007428
 30
0.0
 11
120.9551958547246
 21
351.6397459007428
 31
0.0
  0
LINE
  5
1A5
330
71
100
AcDbEntity
  8
1
  6
Continuous
 62
     2
100
AcDbLine
 10
214.1000003814747
 20
334.6397459007428
 30
0.0
 11
214.1000003814747
 21
329.6397459007427
 31
0.0
  0
LINE
  5
1A6
330
71
100
AcDbEntity
  8
1
  6
Continuous
 62
     2
100
AcDbLine
 10
214.1000003814747
 20
334.6397459007428
 30
0.0
 11
219.1000003814737
 21
334.6397459007428
 31
0.0
  0
LINE
  5
1A7
330
71
100
AcDbEntity
  8
1
  6
Continuous
 62
     6
100
AcDbLine
 10
120.6000003814747
 20
334.6397459007428
 30
0.0
 11
102.7551958547247
 21
334.6397459007428
 31
0.0
  0
LINE
  5
1A8
330
71
100
AcDbEntity
  8
1
  6
Continuous
 62
     6
100
AcDbLine
 10
170.6000003814747
 20
334.6397459007428
 30
0.0
 11
214.1000003814747
 21
334.6397459007428
 31
0.0
  0
LINE
  5
1A9
330
71
100
AcDbEntity
  8
1
  6
Continuous
 62
     6
100
AcDbLine
 10
20.6000003814745
 20
334.6397459007428
 30
0.0
 11
15.55519585472473
 21
334.6397459007428
 31
0.0
  0
LINE
  5
1AA
330
71
100
AcDbEntity
  8
1
  6
Continuous
 62
     6
100
AcDbLine
 10
70.60000038147473
 20
334.6397459007428
 30
0.0
 11
84.5551958547247
 21
334.6397459007427
 31
0.0
  0
LINE
  5
1AB
102
{ACAD_REACTORS
330
295
330
296
102
}
330
71
100
AcDbEntity
  8
0
  6
Continuous
 62
     2
100
AcDbLine
 10
92.06982179687151
 20
346.7122606569549
 30
0.0
 11
92.06982179687151
 21
347.3177959454617
 31
0.0
  0
LINE
  5
1AC
102
{ACAD_REACTORS
330
295
330
296
102
}
330
71
100
AcDbEntity
  8
0
  6
Continuous
 62
     2
100
AcDbLine
 10
92.06982179687151
 20
343.9121260503237
 30
0.0
 11
92.06982179687151
 21
344.4939774570187
 31
0.0
  0
LINE
  5
1AD
102
{ACAD_REACTORS
330
297
330
298
102
}
330
71
100
AcDbEntity
  8
0
  6
Continuous
 62
     2
100
AcDbLine
 10
114.6993082323507
 20
344.2017901184466
 30
0.0
 11
114.6993082323507
 21
341.9332459007591
 31
0.0
  0
LINE
  5
1AE
102
{ACAD_REACTORS
330
297
330
298
102
}
330
71
100
AcDbEntity
  8
0
  6
Continuous
 62
     2
100
AcDbLine
 10
113.3182544533631
 20
344.9870554245697
 30
0.0
 11
116.7031999719918
 21
344.9870554245702
 31
0.0
  0
LINE
  5
1AF
102
{ACAD_REACTORS
330
297
330
298
102
}
330
71
100
AcDbEntity
  8
0
  6
Continuous
 62
     2
100
AcDbLine
 10
116.7031999719918
 20
344.2017901184466
 30
0.0
 11
116.7031999719918
 21
344.9870554245702
 31
0.0
  0
LINE
  5
1B0
102
{ACAD_REACTORS
330
297
330
298
102
}
330
71
100
AcDbEntity
  8
0
  6
Continuous
 62
     2
100
AcDbLine
 10
115.8921009345184
 20
344.2017901184466
 30
0.0
 11
116.7031999719918
 21
344.2017901184466
 31
0.0
  0
LINE
  5
1B1
102
{ACAD_REACTORS
330
297
330
298
102
}
330
71
100
AcDbEntity
  8
0
  6
Continuous
 62
     2
100
AcDbLine
 10
115.8921009345184
 20
341.9332459007591
 30
0.0
 11
115.8921009345184
 21
344.2017901184466
 31
0.0
  0
LINE
  5
1B2
102
{ACAD_REACTORS
330
297
330
298
102
}
330
71
100
AcDbEntity
  8
0
  6
Continuous
 62
     2
100
AcDbLine
 10
114.6993082323507
 20
341.9332459007591
 30
0.0
 11
115.8921009345184
 21
341.9332459007591
 31
0.0
  0
LINE
  5
1B3
102
{ACAD_REACTORS
330
28D
330
28E
102
}
330
71
100
AcDbEntity
  8
0
  6
Continuous
 62
     2
100
AcDbLine
 10
114.0027172942862
 20
348.3462459007446
 30
0.0
 11
112.5999930765369
 21
348.3462459007446
 31
0.0
  0
LINE
  5
1B4
102
{ACAD_REACTORS
330
28D
330
28E
102
}
330
71
100
AcDbEntity
  8
0
  6
Continuous
 62
     2
100
AcDbLine
 10
114.0027172942862
 20
348.3462459007446
 30
0.0
 11
114.603884816178
 21
347.6664225791891
 31
0.0
  0
LINE
  5
1B5
102
{ACAD_REACTORS
330
28D
330
28E
102
}
330
71
100
AcDbEntity
  8
0
  6
Continuous
 62
     2
100
AcDbLine
 10
114.603884816178
 20
347.6664225791891
 30
0.0
 11
115.2050523380708
 21
348.3462459007446
 31
0.0
  0
LINE
  5
1B6
102
{ACAD_REACTORS
330
28D
330
28E
102
}
330
71
100
AcDbEntity
  8
0
  6
Continuous
 62
     2
100
AcDbLine
 10
115.3052469250515
 20
346.8732953707084
 30
0.0
 11
116.607776555818
 21
348.3462459007446
 31
0.0
  0
LINE
  5
1B7
102
{ACAD_REACTORS
330
28D
330
28E
102
}
330
71
100
AcDbEntity
  8
0
  6
Continuous
 62
     2
100
AcDbLine
 10
115.3052469250515
 20
346.8732953707084
 30
0.0
 11
116.7031999719918
 21
345.2924363769334
 31
0.0
  0
LINE
  5
1B8
102
{ACAD_REACTORS
330
28D
330
28E
102
}
330
71
100
AcDbEntity
  8
0
  6
Continuous
 62
     2
100
AcDbLine
 10
115.3004757542435
 20
345.2924363769334
 30
0.0
 11
116.7031999719918
 21
345.2924363769334
 31
0.0
  0
LINE
  5
1B9
102
{ACAD_REACTORS
330
28D
330
28E
102
}
330
71
100
AcDbEntity
  8
0
  6
Continuous
 62
     2
100
AcDbLine
 10
114.603884816178
 20
346.0801681622271
 30
0.0
 11
115.3004757542435
 21
345.2924363769334
 31
0.0
  0
LINE
  5
1BA
102
{ACAD_REACTORS
330
28B
330
28C
102
}
330
71
100
AcDbEntity
  8
0
  6
Continuous
 62
     2
100
AcDbLine
 10
111.1447859798943
 20
348.3462459007446
 30
0.0
 11
112.3852903901472
 21
348.3462459007446
 31
0.0
  0
LINE
  5
1BB
102
{ACAD_REACTORS
330
28B
330
28C
102
}
330
71
100
AcDbEntity
  8
0
  6
Continuous
 62
     2
100
AcDbLine
 10
112.3852903901472
 20
348.3462459007446
 30
0.0
 11
112.3852903901472
 21
345.2924363769334
 31
0.0
  0
LINE
  5
1BC
102
{ACAD_REACTORS
330
28B
330
28C
102
}
330
71
100
AcDbEntity
  8
0
  6
Continuous
 62
     2
100
AcDbLine
 10
111.1447859798943
 20
345.2924363769334
 30
0.0
 11
111.1447859798943
 21
348.3462459007446
 31
0.0
  0
LINE
  5
1BD
102
{ACAD_REACTORS
330
289
330
28A
102
}
330
71
100
AcDbEntity
  8
0
  6
Continuous
 62
     2
100
AcDbLine
 10
109.6764758973567
 20
343.1547697102836
 30
0.0
 11
109.9766411345491
 21
343.9225846762703
 31
0.0
  0
LINE
  5
1BE
102
{ACAD_REACTORS
330
289
330
28A
102
}
330
71
100
AcDbEntity
  8
0
  6
Continuous
 62
     2
100
AcDbLine
 10
109.1989402927359
 20
341.9332459007591
 30
0.0
 11
109.4104203462117
 21
342.474206444977
 31
0.0
  0
LINE
  5
1BF
102
{ACAD_REACTORS
330
289
330
28A
102
}
330
71
100
AcDbEntity
  8
0
  6
Continuous
 62
     2
100
AcDbLine
 10
109.3563889294222
 20
344.9870554245702
 30
0.0
 11
107.9584358824829
 21
341.9332459007591
 31
0.0
  0
LINE
  5
1C0
102
{ACAD_REACTORS
330
289
330
28A
102
}
330
71
100
AcDbEntity
  8
0
  6
Continuous
 62
     2
100
AcDbLine
 10
111.9948463866152
 20
341.9332459007591
 30
0.0
 11
110.7543419763613
 21
341.9332459007591
 31
0.0
  0
LINE
  5
1C1
102
{ACAD_REACTORS
330
289
330
28A
102
}
330
71
100
AcDbEntity
  8
0
  6
Continuous
 62
     2
100
AcDbLine
 10
109.4104203462117
 20
342.474206444977
 30
0.0
 11
110.5428619228855
 21
342.474206444977
 31
0.0
  0
LINE
  5
1C2
102
{ACAD_REACTORS
330
287
330
288
102
}
330
71
100
AcDbEntity
  8
0
  6
Continuous
 62
     2
100
AcDbLine
 10
105.8009237433007
 20
344.2017901184466
 30
0.0
 11
106.6120227807753
 21
344.2017901184466
 31
0.0
  0
LINE
  5
1C3
102
{ACAD_REACTORS
330
287
330
288
102
}
330
71
100
AcDbEntity
  8
0
  6
Continuous
 62
     2
100
AcDbLine
 10
108.6159145204143
 20
344.9870554245702
 30
0.0
 11
105.8009237433007
 21
344.9870554245702
 31
0.0
  0
LINE
  5
1C4
102
{ACAD_REACTORS
330
287
330
288
102
}
330
71
100
AcDbEntity
  8
0
  6
Continuous
 62
     2
100
AcDbLine
 10
108.6159145204143
 20
344.2017901184466
 30
0.0
 11
108.6159145204143
 21
344.9870554245702
 31
0.0
  0
LINE
  5
1C5
102
{ACAD_REACTORS
330
287
330
288
102
}
330
71
100
AcDbEntity
  8
0
  6
Continuous
 62
     2
100
AcDbLine
 10
107.8048154829418
 20
344.2017901184466
 30
0.0
 11
108.6159145204143
 21
344.2017901184466
 31
0.0
  0
LINE
  5
1C6
102
{ACAD_REACTORS
330
287
330
288
102
}
330
71
100
AcDbEntity
  8
0
  6
Continuous
 62
     2
100
AcDbLine
 10
107.8048154829418
 20
341.9332459007591
 30
0.0
 11
107.8048154829418
 21
344.2017901184466
 31
0.0
  0
LINE
  5
1C7
102
{ACAD_REACTORS
330
285
330
286
102
}
330
71
100
AcDbEntity
  8
0
  6
Continuous
 62
     2
100
AcDbLine
 10
108.4729303270398
 20
345.2924363769334
 30
0.0
 11
108.4729303270398
 21
346.6012118871381
 31
0.0
  0
LINE
  5
1C8
102
{ACAD_REACTORS
330
285
330
286
102
}
330
71
100
AcDbEntity
  8
0
  6
Continuous
 62
     2
100
AcDbLine
 10
107.2801376248733
 20
348.3462459007446
 30
0.0
 11
107.2801376248733
 21
345.2924363769334
 31
0.0
  0
LINE
  5
1C9
102
{ACAD_REACTORS
330
285
330
286
102
}
330
71
100
AcDbEntity
  8
0
  6
Continuous
 62
     2
100
AcDbLine
 10
108.4729303270398
 20
348.3462459007446
 30
0.0
 11
107.2801376248733
 21
348.3462459007446
 31
0.0
  0
LINE
  5
1CA
102
{ACAD_REACTORS
330
285
330
286
102
}
330
71
100
AcDbEntity
  8
0
  6
Continuous
 62
     2
100
AcDbLine
 10
109.7134347372938
 20
348.3462459007446
 30
0.0
 11
109.7134347372938
 21
347.0374703905394
 31
0.0
  0
LINE
  5
1CB
102
{ACAD_REACTORS
330
283
330
284
102
}
330
71
100
AcDbEntity
  8
0
  6
Continuous
 62
     2
100
AcDbLine
 10
102.0316988044536
 20
344.9870554245702
 30
0.0
 11
102.0316988044536
 21
341.9332459007591
 31
0.0
  0
LINE
  5
1CC
102
{ACAD_REACTORS
330
283
330
284
102
}
330
71
100
AcDbEntity
  8
0
  6
Continuous
 62
     2
100
AcDbLine
 10
103.2244915066212
 20
344.9870554245702
 30
0.0
 11
102.0316988044536
 21
344.9870554245702
 31
0.0
  0
LINE
  5
1CD
102
{ACAD_REACTORS
330
283
330
284
102
}
330
71
100
AcDbEntity
  8
0
  6
Continuous
 62
     2
100
AcDbLine
 10
104.4649959168741
 20
341.9332459007591
 30
0.0
 11
105.6577886190405
 21
341.9332459007591
 31
0.0
  0
LINE
  5
1CE
102
{ACAD_REACTORS
330
283
330
284
102
}
330
71
100
AcDbEntity
  8
0
  6
Continuous
 62
     2
100
AcDbLine
 10
102.0316988044536
 20
341.9332459007591
 30
0.0
 11
103.2244915066212
 21
341.9332459007591
 31
0.0
  0
LINE
  5
1CF
102
{ACAD_REACTORS
330
293
330
294
102
}
330
71
100
AcDbEntity
  8
0
  6
Continuous
 62
     2
100
AcDbLine
 10
105.7056512580127
 20
347.1683479415599
 30
0.0
 11
105.7056512580127
 21
347.6482322953016
 31
0.0
  0
LINE
  5
1D0
102
{ACAD_REACTORS
330
293
330
294
102
}
330
71
100
AcDbEntity
  8
0
  6
Continuous
 62
     2
100
AcDbLine
 10
107.0415790844404
 20
347.1683479415599
 30
0.0
 11
105.7056512580127
 21
347.1683479415599
 31
0.0
  0
LINE
  5
1D1
102
{ACAD_REACTORS
330
293
330
294
102
}
330
71
100
AcDbEntity
  8
0
  6
Continuous
 62
     2
100
AcDbLine
 10
107.0415790844404
 20
346.4703343361176
 30
0.0
 11
107.0415790844404
 21
347.1683479415599
 31
0.0
  0
LINE
  5
1D2
102
{ACAD_REACTORS
330
293
330
294
102
}
330
71
100
AcDbEntity
  8
0
  6
Continuous
 62
     2
100
AcDbLine
 10
105.7056512580127
 20
346.4703343361176
 30
0.0
 11
107.0415790844404
 21
346.4703343361176
 31
0.0
  0
LINE
  5
1D3
102
{ACAD_REACTORS
330
281
330
282
102
}
330
71
100
AcDbEntity
  8
0
  6
Continuous
 62
     2
100
AcDbLine
 10
102.2226965676858
 20
348.3462459007446
 30
0.0
 11
102.2226965676858
 21
345.2924363769334
 31
0.0
  0
LINE
  5
1D4
102
{ACAD_REACTORS
330
281
330
282
102
}
330
71
100
AcDbEntity
  8
0
  6
Continuous
 62
     2
100
AcDbLine
 10
102.2226965676858
 20
345.2924363769334
 30
0.0
 11
101.0299038655194
 21
345.2924363769334
 31
0.0
  0
LINE
  5
1D5
102
{ACAD_REACTORS
330
281
330
282
102
}
330
71
100
AcDbEntity
  8
0
  6
Continuous
 62
     2
100
AcDbLine
 10
101.0299038655194
 20
345.2924363769334
 30
0.0
 11
101.0299038655194
 21
346.4267084857772
 31
0.0
  0
LINE
  5
1D6
102
{ACAD_REACTORS
330
281
330
282
102
}
330
71
100
AcDbEntity
  8
0
  6
Continuous
 62
     2
100
AcDbLine
 10
99.98024628761192
 20
345.2924363769334
 30
0.0
 11
98.78745358544532
 21
345.2924363769334
 31
0.0
  0
LINE
  5
1D7
102
{ACAD_REACTORS
330
281
330
282
102
}
330
71
100
AcDbEntity
  8
0
  6
Continuous
 62
     2
100
AcDbLine
 10
98.78745358544532
 20
348.3462459007446
 30
0.0
 11
99.98024628761192
 21
348.3462459007446
 31
0.0
  0
LINE
  5
1D8
102
{ACAD_REACTORS
330
281
330
282
102
}
330
71
100
AcDbEntity
  8
0
  6
Continuous
 62
     2
100
AcDbLine
 10
99.98024628761192
 20
348.3462459007446
 30
0.0
 11
99.98024628761192
 21
347.27741256741
 31
0.0
  0
LINE
  5
1D9
102
{ACAD_REACTORS
330
281
330
282
102
}
330
71
100
AcDbEntity
  8
0
  6
Continuous
 62
     2
100
AcDbLine
 10
99.98024628761192
 20
347.27741256741
 30
0.0
 11
101.0299038655194
 21
347.27741256741
 31
0.0
  0
LINE
  5
1DA
102
{ACAD_REACTORS
330
28F
330
290
102
}
330
71
100
AcDbEntity
  8
0
  6
Continuous
 62
     2
100
AcDbLine
 10
96.83127355389172
 20
347.6831400553045
 30
0.0
 11
97.14856861543362
 21
347.6831400553045
 31
0.0
  0
LINE
  5
1DB
102
{ACAD_REACTORS
330
28F
330
290
102
}
330
71
100
AcDbEntity
  8
0
  6
Continuous
 62
     2
100
AcDbLine
 10
96.83127355389172
 20
346.9774124059623
 30
0.0
 11
97.14856861543362
 21
346.9774124059623
 31
0.0
  0
LINE
  5
1DC
102
{ACAD_REACTORS
330
28F
330
290
102
}
330
71
100
AcDbEntity
  8
0
  6
Continuous
 62
     2
100
AcDbLine
 10
95.5907691436376
 20
348.3462459007446
 30
0.0
 11
95.5907691436376
 21
345.2924363769334
 31
0.0
  0
LINE
  5
1DD
102
{ACAD_REACTORS
330
28F
330
290
102
}
330
71
100
AcDbEntity
  8
0
  6
Continuous
 62
     2
100
AcDbLine
 10
95.5907691436376
 20
348.3462459007446
 30
0.0
 11
97.590041141672
 21
348.3462459007446
 31
0.0
  0
LINE
  5
1DE
102
{ACAD_REACTORS
330
28F
330
290
102
}
330
71
100
AcDbEntity
  8
0
  6
Continuous
 62
     2
100
AcDbLine
 10
96.83127355389172
 20
346.2355146180772
 30
0.0
 11
97.590041141672
 21
346.2355146180772
 31
0.0
  0
LINE
  5
1DF
102
{ACAD_REACTORS
330
295
330
296
102
}
330
71
100
AcDbEntity
  8
0
  6
Continuous
 62
     2
100
AcDbLine
 10
89.49427311034091
 20
347.3179734221098
 30
0.0
 11
89.49427311034091
 21
342.9615183793927
 31
0.0
  0
LINE
  5
1E0
102
{ACAD_REACTORS
330
295
330
296
102
}
330
71
100
AcDbEntity
  8
0
  6
Continuous
 62
     2
100
AcDbLine
 10
89.8099900334166
 20
347.633690345186
 30
0.0
 11
91.28582329442622
 21
347.633690345186
 31
0.0
  0
LINE
  5
1E1
102
{ACAD_REACTORS
330
295
330
296
102
}
330
71
100
AcDbEntity
  8
0
  6
Continuous
 62
     2
100
AcDbLine
 10
91.60154021750282
 20
346.7139488030493
 30
0.0
 11
91.60154021750282
 21
347.3179734221098
 31
0.0
  0
LINE
  5
1E2
102
{ACAD_REACTORS
330
295
330
296
102
}
330
71
100
AcDbEntity
  8
0
  6
Continuous
 62
     2
100
AcDbLine
 10
91.60154021750282
 20
342.9615183793927
 30
0.0
 11
91.60154021750282
 21
344.4922893109243
 31
0.0
  0
LINE
  5
1E3
102
{ACAD_REACTORS
330
295
330
296
102
}
330
71
100
AcDbEntity
  8
0
  6
Continuous
 62
     2
100
AcDbLine
 10
94.68940744738691
 20
341.9332459007591
 30
0.0
 11
89.21609535667011
 21
341.9332459007591
 31
0.0
  0
LINE
  5
1E4
102
{ACAD_REACTORS
330
295
330
296
102
}
330
71
100
AcDbEntity
  8
0
  6
Continuous
 62
     2
100
AcDbLine
 10
95.1136520627708
 20
347.9220012853426
 30
0.0
 11
95.1136520627708
 21
342.3574905161424
 31
0.0
  0
LINE
  5
1E5
102
{ACAD_REACTORS
330
295
330
296
102
}
330
71
100
AcDbEntity
  8
0
  6
Continuous
 62
     2
100
AcDbLine
 10
89.21609535667011
 20
348.3462459007264
 30
0.0
 11
94.68940744738691
 21
348.3462459007264
 31
0.0
  0
LINE
  5
1E6
102
{ACAD_REACTORS
330
295
330
296
102
}
330
71
100
AcDbEntity
  8
0
  6
Continuous
 62
     2
100
AcDbLine
 10
88.7918507412873
 20
347.9220012853426
 30
0.0
 11
88.7918507412873
 21
342.3574905161424
 31
0.0
  0
LINE
  5
1E7
102
{ACAD_REACTORS
330
295
330
296
102
}
330
71
100
AcDbEntity
  8
0
  6
Continuous
 62
     2
100
AcDbLine
 10
91.28582329442622
 20
342.645801456316
 30
0.0
 11
89.8099900334166
 21
342.645801456316
 31
0.0
  0
LINE
  5
1E8
102
{ACAD_REACTORS
330
28F
330
290
102
}
330
71
100
AcDbEntity
  8
0
  6
Continuous
 62
     2
100
AcDbLine
 10
96.83127355389172
 20
345.2924363769334
 30
0.0
 11
96.83127355389172
 21
346.2355146180772
 31
0.0
  0
LINE
  5
1E9
102
{ACAD_REACTORS
330
28F
330
290
102
}
330
71
100
AcDbEntity
  8
0
  6
Continuous
 62
     2
100
AcDbLine
 10
95.5907691436376
 20
345.2924363769334
 30
0.0
 11
96.83127355389172
 21
345.2924363769334
 31
0.0
  0
LINE
  5
1EA
102
{ACAD_REACTORS
330
28F
330
290
102
}
330
71
100
AcDbEntity
  8
0
  6
Continuous
 62
     2
100
AcDbLine
 10
96.83127355389172
 20
346.9774124059623
 30
0.0
 11
96.83127355389172
 21
347.6831400553045
 31
0.0
  0
LINE
  5
1EB
102
{ACAD_REACTORS
330
281
330
282
102
}
330
71
100
AcDbEntity
  8
0
  6
Continuous
 62
     2
100
AcDbLine
 10
98.78745358544532
 20
348.3462459007446
 30
0.0
 11
98.78745358544532
 21
345.2924363769334
 31
0.0
  0
LINE
  5
1EC
102
{ACAD_REACTORS
330
281
330
282
102
}
330
71
100
AcDbEntity
  8
0
  6
Continuous
 62
     2
100
AcDbLine
 10
99.98024628761192
 20
346.4267084857772
 30
0.0
 11
99.98024628761192
 21
345.2924363769334
 31
0.0
  0
LINE
  5
1ED
102
{ACAD_REACTORS
330
281
330
282
102
}
330
71
100
AcDbEntity
  8
0
  6
Continuous
 62
     2
100
AcDbLine
 10
101.0299038655194
 20
346.4267084857772
 30
0.0
 11
99.98024628761192
 21
346.4267084857772
 31
0.0
  0
LINE
  5
1EE
102
{ACAD_REACTORS
330
281
330
282
102
}
330
71
100
AcDbEntity
  8
0
  6
Continuous
 62
     2
100
AcDbLine
 10
101.0299038655194
 20
348.3462459007446
 30
0.0
 11
102.2226965676858
 21
348.3462459007446
 31
0.0
  0
LINE
  5
1EF
102
{ACAD_REACTORS
330
281
330
282
102
}
330
71
100
AcDbEntity
  8
0
  6
Continuous
 62
     2
100
AcDbLine
 10
101.0299038655194
 20
347.27741256741
 30
0.0
 11
101.0299038655194
 21
348.3462459007446
 31
0.0
  0
LINE
  5
1F0
102
{ACAD_REACTORS
330
293
330
294
102
}
330
71
100
AcDbEntity
  8
0
  6
Continuous
 62
     2
100
AcDbLine
 10
107.0415790844404
 20
347.6482322953016
 30
0.0
 11
107.0415790844404
 21
348.3462459007446
 31
0.0
  0
LINE
  5
1F1
102
{ACAD_REACTORS
330
293
330
294
102
}
330
71
100
AcDbEntity
  8
0
  6
Continuous
 62
     2
100
AcDbLine
 10
103.8912593606594
 20
348.3462459007446
 30
0.0
 11
107.0415790844404
 21
348.3462459007446
 31
0.0
  0
LINE
  5
1F2
102
{ACAD_REACTORS
330
293
330
294
102
}
330
71
100
AcDbEntity
  8
0
  6
Continuous
 62
     2
100
AcDbLine
 10
103.8912593606594
 20
345.2924363769334
 30
0.0
 11
107.0415790844404
 21
345.2924363769334
 31
0.0
  0
LINE
  5
1F3
102
{ACAD_REACTORS
330
293
330
294
102
}
330
71
100
AcDbEntity
  8
0
  6
Continuous
 62
     2
100
AcDbLine
 10
107.0415790844404
 20
345.2924363769334
 30
0.0
 11
107.0415790844404
 21
345.9904499823759
 31
0.0
  0
LINE
  5
1F4
102
{ACAD_REACTORS
330
293
330
294
102
}
330
71
100
AcDbEntity
  8
0
  6
Continuous
 62
     2
100
AcDbLine
 10
107.0415790844404
 20
345.9904499823759
 30
0.0
 11
105.7056512580127
 21
345.9904499823759
 31
0.0
  0
LINE
  5
1F5
102
{ACAD_REACTORS
330
293
330
294
102
}
330
71
100
AcDbEntity
  8
0
  6
Continuous
 62
     2
100
AcDbLine
 10
105.7056512580127
 20
345.9904499823759
 30
0.0
 11
105.7056512580127
 21
346.4703343361176
 31
0.0
  0
LINE
  5
1F6
102
{ACAD_REACTORS
330
293
330
294
102
}
330
71
100
AcDbEntity
  8
0
  6
Continuous
 62
     2
100
AcDbLine
 10
105.7056512580127
 20
347.6482322953016
 30
0.0
 11
107.0415790844404
 21
347.6482322953016
 31
0.0
  0
LINE
  5
1F7
102
{ACAD_REACTORS
330
283
330
284
102
}
330
71
100
AcDbEntity
  8
0
  6
Continuous
 62
     2
100
AcDbLine
 10
103.2244915066212
 20
341.9332459007591
 30
0.0
 11
103.2244915066212
 21
343.2420214109637
 31
0.0
  0
LINE
  5
1F8
102
{ACAD_REACTORS
330
283
330
284
102
}
330
71
100
AcDbEntity
  8
0
  6
Continuous
 62
     2
100
AcDbLine
 10
103.2244915066212
 20
343.2420214109637
 30
0.0
 11
104.4649959168741
 21
341.9332459007591
 31
0.0
  0
LINE
  5
1F9
102
{ACAD_REACTORS
330
283
330
284
102
}
330
71
100
AcDbEntity
  8
0
  6
Continuous
 62
     2
100
AcDbLine
 10
105.6577886190405
 20
341.9332459007591
 30
0.0
 11
105.6577886190405
 21
344.9870554245702
 31
0.0
  0
LINE
  5
1FA
102
{ACAD_REACTORS
330
283
330
284
102
}
330
71
100
AcDbEntity
  8
0
  6
Continuous
 62
     2
100
AcDbLine
 10
105.6577886190405
 20
344.9870554245702
 30
0.0
 11
104.4649959168741
 21
344.9870554245702
 31
0.0
  0
LINE
  5
1FB
102
{ACAD_REACTORS
330
283
330
284
102
}
330
71
100
AcDbEntity
  8
0
  6
Continuous
 62
     2
100
AcDbLine
 10
104.4649959168741
 20
344.9870554245702
 30
0.0
 11
104.4649959168741
 21
343.6782799143651
 31
0.0
  0
LINE
  5
1FC
102
{ACAD_REACTORS
330
283
330
284
102
}
330
71
100
AcDbEntity
  8
0
  6
Continuous
 62
     2
100
AcDbLine
 10
104.4649959168741
 20
343.6782799143651
 30
0.0
 11
103.2244915066212
 21
344.9870554245702
 31
0.0
  0
LINE
  5
1FD
102
{ACAD_REACTORS
330
285
330
286
102
}
330
71
100
AcDbEntity
  8
0
  6
Continuous
 62
     2
100
AcDbLine
 10
108.4729303270398
 20
346.6012118871381
 30
0.0
 11
109.7134347372938
 21
345.2924363769334
 31
0.0
  0
LINE
  5
1FE
102
{ACAD_REACTORS
330
285
330
286
102
}
330
71
100
AcDbEntity
  8
0
  6
Continuous
 62
     2
100
AcDbLine
 10
109.7134347372938
 20
345.2924363769334
 30
0.0
 11
110.9062274394604
 21
345.2924363769334
 31
0.0
  0
LINE
  5
1FF
102
{ACAD_REACTORS
330
285
330
286
102
}
330
71
100
AcDbEntity
  8
0
  6
Continuous
 62
     2
100
AcDbLine
 10
110.9062274394604
 20
345.2924363769334
 30
0.0
 11
110.9062274394604
 21
348.3462459007446
 31
0.0
  0
LINE
  5
200
102
{ACAD_REACTORS
330
285
330
286
102
}
330
71
100
AcDbEntity
  8
0
  6
Continuous
 62
     2
100
AcDbLine
 10
110.9062274394604
 20
348.3462459007446
 30
0.0
 11
109.7134347372938
 21
348.3462459007446
 31
0.0
  0
LINE
  5
201
102
{ACAD_REACTORS
330
285
330
286
102
}
330
71
100
AcDbEntity
  8
0
  6
Continuous
 62
     2
100
AcDbLine
 10
109.7134347372938
 20
347.0374703905394
 30
0.0
 11
108.4729303270398
 21
348.3462459007446
 31
0.0
  0
LINE
  5
202
102
{ACAD_REACTORS
330
285
330
286
102
}
330
71
100
AcDbEntity
  8
0
  6
Continuous
 62
     2
100
AcDbLine
 10
107.2801376248733
 20
345.2924363769334
 30
0.0
 11
108.4729303270398
 21
345.2924363769334
 31
0.0
  0
LINE
  5
203
102
{ACAD_REACTORS
330
287
330
288
102
}
330
71
100
AcDbEntity
  8
0
  6
Continuous
 62
     2
100
AcDbLine
 10
105.8009237433007
 20
344.9870554245702
 30
0.0
 11
105.8009237433007
 21
344.2017901184466
 31
0.0
  0
LINE
  5
204
102
{ACAD_REACTORS
330
287
330
288
102
}
330
71
100
AcDbEntity
  8
0
  6
Continuous
 62
     2
100
AcDbLine
 10
106.6120227807753
 20
344.2017901184466
 30
0.0
 11
106.6120227807753
 21
341.9332459007591
 31
0.0
  0
LINE
  5
205
102
{ACAD_REACTORS
330
287
330
288
102
}
330
71
100
AcDbEntity
  8
0
  6
Continuous
 62
     2
100
AcDbLine
 10
106.6120227807753
 20
341.9332459007591
 30
0.0
 11
107.8048154829418
 21
341.9332459007591
 31
0.0
  0
LINE
  5
206
102
{ACAD_REACTORS
330
289
330
28A
102
}
330
71
100
AcDbEntity
  8
0
  6
Continuous
 62
     2
100
AcDbLine
 10
110.7543419763613
 20
341.9332459007591
 30
0.0
 11
110.5428619228855
 21
342.474206444977
 31
0.0
  0
LINE
  5
207
102
{ACAD_REACTORS
330
289
330
28A
102
}
330
71
100
AcDbEntity
  8
0
  6
Continuous
 62
     2
100
AcDbLine
 10
110.5968933396749
 20
344.9870554245702
 30
0.0
 11
111.9948463866152
 21
341.9332459007591
 31
0.0
  0
LINE
  5
208
102
{ACAD_REACTORS
330
289
330
28A
102
}
330
71
100
AcDbEntity
  8
0
  6
Continuous
 62
     2
100
AcDbLine
 10
109.3563889294222
 20
344.9870554245702
 30
0.0
 11
110.5968933396749
 21
344.9870554245702
 31
0.0
  0
LINE
  5
209
102
{ACAD_REACTORS
330
289
330
28A
102
}
330
71
100
AcDbEntity
  8
0
  6
Continuous
 62
     2
100
AcDbLine
 10
107.9584358824829
 20
341.9332459007591
 30
0.0
 11
109.1989402927359
 21
341.9332459007591
 31
0.0
  0
LINE
  5
20A
102
{ACAD_REACTORS
330
289
330
28A
102
}
330
71
100
AcDbEntity
  8
0
  6
Continuous
 62
     2
100
AcDbLine
 10
109.6764758973567
 20
343.1547697102836
 30
0.0
 11
110.2768063717392
 21
343.1547697102836
 31
0.0
  0
LINE
  5
20B
102
{ACAD_REACTORS
330
289
330
28A
102
}
330
71
100
AcDbEntity
  8
0
  6
Continuous
 62
     2
100
AcDbLine
 10
110.2768063717392
 20
343.1547697102836
 30
0.0
 11
109.9766411345491
 21
343.9225846762703
 31
0.0
  0
LINE
  5
20C
102
{ACAD_REACTORS
330
28B
330
28C
102
}
330
71
100
AcDbEntity
  8
0
  6
Continuous
 62
     2
100
AcDbLine
 10
112.3852903901472
 20
345.2924363769334
 30
0.0
 11
111.1447859798943
 21
345.2924363769334
 31
0.0
  0
LINE
  5
20D
102
{ACAD_REACTORS
330
28D
330
28E
102
}
330
71
100
AcDbEntity
  8
0
  6
Continuous
 62
     2
100
AcDbLine
 10
113.9072938781123
 20
345.2924363769334
 30
0.0
 11
112.5045696603641
 21
345.2924363769334
 31
0.0
  0
LINE
  5
20E
102
{ACAD_REACTORS
330
28D
330
28E
102
}
330
71
100
AcDbEntity
  8
0
  6
Continuous
 62
     2
100
AcDbLine
 10
113.9072938781123
 20
345.2924363769334
 30
0.0
 11
114.603884816178
 21
346.0801681622271
 31
0.0
  0
LINE
  5
20F
102
{ACAD_REACTORS
330
28D
330
28E
102
}
330
71
100
AcDbEntity
  8
0
  6
Continuous
 62
     2
100
AcDbLine
 10
115.2050523380708
 20
348.3462459007446
 30
0.0
 11
116.607776555818
 21
348.3462459007446
 31
0.0
  0
LINE
  5
210
102
{ACAD_REACTORS
330
28D
330
28E
102
}
330
71
100
AcDbEntity
  8
0
  6
Continuous
 62
     2
100
AcDbLine
 10
112.5999930765369
 20
348.3462459007446
 30
0.0
 11
113.9025227073044
 21
346.8732953707084
 31
0.0
  0
LINE
  5
211
102
{ACAD_REACTORS
330
28D
330
28E
102
}
330
71
100
AcDbEntity
  8
0
  6
Continuous
 62
     2
100
AcDbLine
 10
112.5045696603641
 20
345.2924363769334
 30
0.0
 11
113.9025227073044
 21
346.8732953707084
 31
0.0
  0
LINE
  5
212
102
{ACAD_REACTORS
330
297
330
298
102
}
330
71
100
AcDbEntity
  8
0
  6
Continuous
 62
     2
100
AcDbLine
 10
114.365326275744
 20
342.9802663089228
 30
0.0
 11
114.365326275744
 21
342.1077493021194
 31
0.0
  0
LINE
  5
213
102
{ACAD_REACTORS
330
297
330
298
102
}
330
71
100
AcDbEntity
  8
0
  6
Continuous
 62
     2
100
AcDbLine
 10
113.5956689327826
 20
344.2017901184466
 30
0.0
 11
114.6993082323507
 21
344.2017901184466
 31
0.0
  0
LINE
  5
214
102
{ACAD_REACTORS
330
299
330
29A
102
}
330
71
100
AcDbEntity
  8
0
  6
Continuous
 62
     2
100
AcDbLine
 10
98.2626247964921
 20
342.9802663089232
 30
0.0
 11
98.2626247964921
 21
342.10774930212
 31
0.0
  0
LINE
  5
215
102
{ACAD_REACTORS
330
299
330
29A
102
}
330
71
100
AcDbEntity
  8
0
  6
Continuous
 62
     2
100
AcDbLine
 10
98.2626247964921
 20
343.9400350164061
 30
0.0
 11
98.2626247964921
 21
344.8125520232094
 31
0.0
  0
LINE
  5
216
330
71
100
AcDbEntity
  8
1
  6
Continuous
 62
     7
100
AcDbLine
 10
214.100000381476
 20
343.1397459007428
 30
0.0
 11
120.9551958547246
 21
343.1397459007428
 31
0.0
  0
LINE
  5
217
330
71
100
AcDbEntity
  8
1
  6
Continuous
 62
     6
100
AcDbLine
 10
15.55519585472473
 20
334.6397459007428
 30
0.0
 11
-29.39999961852527
 21
334.6397459007428
 31
0.0
  0
LINE
  5
218
330
71
100
AcDbEntity
  8
1
  6
Continuous
 62
     7
100
AcDbLine
 10
205.1815920997972
 20
360.1397459007428
 30
0.0
 11
205.1815920997972
 21
351.6397459007428
 31
0.0
  0
LINE
  5
219
330
71
100
AcDbEntity
  8
1
  6
Continuous
 62
     7
100
AcDbLine
 10
178.6815920997976
 20
360.1397459007428
 30
0.0
 11
178.6815920997976
 21
351.6397459007428
 31
0.0
  0
LINE
  5
21A
330
71
100
AcDbEntity
  8
1
  6
Continuous
 62
     7
100
AcDbLine
 10
120.9551958547246
 20
351.6397459007428
 30
0.0
 11
120.9551958547246
 21
360.1397459007428
 31
0.0
  0
LINE
  5
21B
330
71
100
AcDbEntity
  8
1
  6
Continuous
 62
     7
100
AcDbLine
 10
84.5551958547247
 20
351.6397459007428
 30
0.0
 11
84.5551958547247
 21
360.1397459007428
 31
0.0
  0
LINE
  5
21C
330
71
100
AcDbEntity
  8
1
  6
Continuous
 62
     6
100
AcDbLine
 10
120.9551958547246
 20
351.6397459007428
 30
0.0
 11
214.1000003814764
 21
351.6397459007428
 31
0.0
  0
LINE
  5
21D
330
71
100
AcDbEntity
  8
1
  6
Continuous
 62
     7
100
AcDbLine
 10
148.8551958547247
 20
343.1397459007427
 30
0.0
 11
148.8551958547247
 21
351.6397459007428
 31
0.0
  0
LINE
  5
21E
330
71
100
AcDbEntity
  8
1
  6
PHANTOM
 62
     2
100
AcDbLine
 10
100.0418507412873
 20
355.7647459007427
 30
0.0
 11
94.5418507412873
 21
355.7647459007427
 31
0.0
  0
LINE
  5
21F
330
71
100
AcDbEntity
  8
1
  6
PHANTOM
 62
     2
100
AcDbLine
 10
97.2918507412873
 20
358.5147459007427
 30
0.0
 11
97.2918507412873
 21
353.0147459007427
 31
0.0
  0
LINE
  5
220
330
71
100
AcDbEntity
  8
1
  6
DOT_CENTER
 62
     2
100
AcDbLine
 10
88.5418507412873
 20
355.7647459007427
 30
0.0
 11
94.0418507412873
 21
355.7647459007427
 31
0.0
  0
ARC
  5
221
102
{ACAD_REACTORS
330
299
330
29A
102
}
330
71
100
AcDbEntity
  8
0
  6
Continuous
 62
     2
100
AcDbCircle
 10
96.9266968793743
 20
340.1474697174085
 30
0.0
 40
4.85259686349804
100
AcDbArc
 50
74.02000874164729
 51
84.84185523037502
  0
ARC
  5
222
102
{ACAD_REACTORS
330
299
330
29A
102
}
330
71
100
AcDbEntity
  8
0
  6
Continuous
 62
     2
100
AcDbCircle
 10
97.50273748812802
 20
343.3032300732928
 30
0.0
 40
0.9059297849853228
100
AcDbArc
 50
71.55192388185348
 51
113.372277888129
  0
ARC
  5
223
102
{ACAD_REACTORS
330
299
330
29A
102
}
330
71
100
AcDbEntity
  8
0
  6
Continuous
 62
     2
100
AcDbCircle
 10
97.346297455426
 20
343.2550792333259
 30
0.0
 40
0.5115800601948034
100
AcDbArc
 50
208.5214732576956
 51
246.6277221118274
  0
ARC
  5
224
102
{ACAD_REACTORS
330
299
330
29A
102
}
330
71
100
AcDbEntity
  8
0
  6
Continuous
 62
     2
100
AcDbCircle
 10
97.50273748812802
 20
343.6170712520359
 30
0.0
 40
0.9059297849849192
100
AcDbArc
 50
246.627722111871
 51
288.448076118159
  0
ARC
  5
225
102
{ACAD_REACTORS
330
299
330
29A
102
}
330
71
100
AcDbEntity
  8
0
  6
Continuous
 62
     2
100
AcDbCircle
 10
97.08456975446722
 20
344.8706170280731
 30
0.0
 40
2.227384008972764
100
AcDbArc
 50
288.4480761181326
 51
301.9309089499589
  0
ARC
  5
226
102
{ACAD_REACTORS
330
295
330
296
102
}
330
71
100
AcDbEntity
  8
0
  6
Continuous
 62
     2
100
AcDbCircle
 10
91.85949602186042
 20
345.6031190569871
 30
0.0
 40
0.9118481501443819
100
AcDbArc
 50
295.3740086781787
 51
64.62599132180748
  0
ARC
  5
227
102
{ACAD_REACTORS
330
295
330
296
102
}
330
71
100
AcDbEntity
  8
0
  6
Continuous
 62
     2
100
AcDbCircle
 10
92.3855387199483
 20
347.3177959454617
 30
0.0
 40
0.3157169230760711
100
AcDbArc
 50
90.18896704254594
 51
180.0
  0
ARC
  5
228
102
{ACAD_REACTORS
330
297
330
298
102
}
330
71
100
AcDbEntity
  8
0
  6
Continuous
 62
     2
100
AcDbCircle
 10
113.5956689327826
 20
343.2472671116205
 30
0.0
 40
0.9545230068260935
100
AcDbArc
 50
90.0
 51
109.3371432194301
  0
ARC
  5
229
102
{ACAD_REACTORS
330
297
330
298
102
}
330
71
100
AcDbEntity
  8
0
  6
Continuous
 62
     2
100
AcDbCircle
 10
113.8263561927603
 20
343.4601506626644
 30
0.0
 40
0.941059735334906
100
AcDbArc
 50
151.4785267423609
 51
208.5214732576695
  0
ARC
  5
22A
102
{ACAD_REACTORS
330
297
330
298
102
}
330
71
100
AcDbEntity
  8
0
  6
Continuous
 62
     2
100
AcDbCircle
 10
113.605438967382
 20
343.6170712520359
 30
0.0
 40
0.9059297849852801
100
AcDbArc
 50
246.6277221118183
 51
288.448076118084
  0
ARC
  5
22B
102
{ACAD_REACTORS
330
297
330
298
102
}
330
71
100
AcDbEntity
  8
0
  6
Continuous
 62
     2
100
AcDbCircle
 10
113.1872712337201
 20
344.8706170280725
 30
0.0
 40
2.227384008972665
100
AcDbArc
 50
288.4480761181342
 51
301.9309089499406
  0
ARC
  5
22C
102
{ACAD_REACTORS
330
297
330
298
102
}
330
71
100
AcDbEntity
  8
0
  6
Continuous
 62
     2
100
AcDbCircle
 10
113.0293983586273
 20
346.7728316079208
 30
0.0
 40
4.852596863498824
100
AcDbArc
 50
275.1581447696362
 51
285.9799912583383
  0
ARC
  5
22D
102
{ACAD_REACTORS
330
297
330
298
102
}
330
71
100
AcDbEntity
  8
0
  6
Continuous
 62
     2
100
AcDbCircle
 10
113.3182544533631
 20
343.5729410246992
 30
0.0
 40
1.639695123940421
100
AcDbArc
 50
195.0618917771015
 51
275.1581447696767
  0
ARC
  5
22E
102
{ACAD_REACTORS
330
28F
330
290
102
}
330
71
100
AcDbEntity
  8
0
  6
Continuous
 62
     2
100
AcDbCircle
 10
97.590041141672
 20
347.2908802594109
 30
0.0
 40
1.055365641333708
100
AcDbArc
 50
270.0
 51
90.0
  0
ARC
  5
22F
102
{ACAD_REACTORS
330
295
330
296
102
}
330
71
100
AcDbEntity
  8
0
  6
Continuous
 62
     2
100
AcDbCircle
 10
89.8099900334166
 20
342.9615183793927
 30
0.0
 40
0.3157169230756836
100
AcDbArc
 50
180.0
 51
270.0
  0
ARC
  5
230
102
{ACAD_REACTORS
330
295
330
296
102
}
330
71
100
AcDbEntity
  8
0
  6
Continuous
 62
     2
100
AcDbCircle
 10
91.28582329442622
 20
347.3179734221098
 30
0.0
 40
0.315716923076593
100
AcDbArc
 50
0.0
 51
90.0
  0
ARC
  5
231
102
{ACAD_REACTORS
330
295
330
296
102
}
330
71
100
AcDbEntity
  8
0
  6
Continuous
 62
     2
100
AcDbCircle
 10
91.28582329442622
 20
346.7139488030493
 30
0.0
 40
0.3157169230761203
100
AcDbArc
 50
295.1944106485397
 51
0.0
  0
ARC
  5
232
102
{ACAD_REACTORS
330
295
330
296
102
}
330
71
100
AcDbEntity
  8
0
  6
Continuous
 62
     2
100
AcDbCircle
 10
91.28582329442622
 20
342.9615183793927
 30
0.0
 40
0.3157169230767067
100
AcDbArc
 50
270.0
 51
0.0
  0
ARC
  5
233
102
{ACAD_REACTORS
330
295
330
296
102
}
330
71
100
AcDbEntity
  8
0
  6
Continuous
 62
     2
100
AcDbCircle
 10
89.21609535667011
 20
347.9220012853426
 30
0.0
 40
0.4242446153837705
100
AcDbArc
 50
90.0
 51
180.0
  0
ARC
  5
234
102
{ACAD_REACTORS
330
295
330
296
102
}
330
71
100
AcDbEntity
  8
0
  6
Continuous
 62
     2
100
AcDbCircle
 10
94.68940744738691
 20
347.9220012853426
 30
0.0
 40
0.4242446153838841
100
AcDbArc
 50
0.0
 51
90.0
  0
ARC
  5
235
102
{ACAD_REACTORS
330
295
330
296
102
}
330
71
100
AcDbEntity
  8
0
  6
Continuous
 62
     2
100
AcDbCircle
 10
94.68940744738691
 20
342.3574905161424
 30
0.0
 40
0.4242446153832589
100
AcDbArc
 50
270.0
 51
0.0
  0
ARC
  5
236
102
{ACAD_REACTORS
330
293
330
294
102
}
330
71
100
AcDbEntity
  8
0
  6
Continuous
 62
     2
100
AcDbCircle
 10
103.9077913344784
 20
346.8193411388387
 30
0.0
 40
0.7717997786796373
100
AcDbArc
 50
321.8795802028437
 51
38.12041979715956
  0
ARC
  5
237
102
{ACAD_REACTORS
330
293
330
294
102
}
330
71
100
AcDbEntity
  8
0
  6
Continuous
 62
     2
100
AcDbCircle
 10
104.1075313708246
 20
346.6626099607183
 30
0.0
 40
0.5179085730134834
100
AcDbArc
 50
218.1204197971551
 51
321.8795802028507
  0
ARC
  5
238
102
{ACAD_REACTORS
330
291
330
292
102
}
330
71
100
AcDbEntity
  8
0
  6
Continuous
 62
     2
100
AcDbCircle
 10
100.4275237818644
 20
343.4601506626644
 30
0.0
 40
1.458034083651984
100
AcDbArc
 50
297.5481481757021
 51
62.45185182429898
  0
ARC
  5
239
102
{ACAD_REACTORS
330
291
330
292
102
}
330
71
100
AcDbEntity
  8
0
  6
Continuous
 62
     2
100
AcDbCircle
 10
99.86564399819781
 20
343.4601506626644
 30
0.0
 40
1.458034083651515
100
AcDbArc
 50
117.5481481756619
 51
242.451851824337
  0
ARC
  5
23A
102
{ACAD_REACTORS
330
291
330
292
102
}
330
71
100
AcDbEntity
  8
0
  6
Continuous
 62
     2
100
AcDbCircle
 10
100.1465838900311
 20
342.9215756523616
 30
0.0
 40
2.0654797722086
100
AcDbArc
 50
62.45185182430638
 51
117.5481481756657
  0
ARC
  5
23B
102
{ACAD_REACTORS
330
291
330
292
102
}
330
71
100
AcDbEntity
  8
0
  6
Continuous
 62
     2
100
AcDbCircle
 10
100.1465838900311
 20
343.9987256729677
 30
0.0
 40
2.065479772208477
100
AcDbArc
 50
242.4518518243402
 51
297.5481481756878
  0
ARC
  5
23C
102
{ACAD_REACTORS
330
293
330
294
102
}
330
71
100
AcDbEntity
  8
0
  6
Continuous
 62
     2
100
AcDbCircle
 10
104.3072714071709
 20
346.8193411388387
 30
0.0
 40
0.7717997786796835
100
AcDbArc
 50
141.8795802028411
 51
218.1204197971556
  0
ARC
  5
23D
102
{ACAD_REACTORS
330
293
330
294
102
}
330
71
100
AcDbEntity
  8
0
  6
Continuous
 62
     2
100
AcDbCircle
 10
104.1075313708246
 20
346.9760723169592
 30
0.0
 40
0.5179085730135153
100
AcDbArc
 50
38.12041979714432
 51
141.8795802028499
  0
ARC
  5
23E
102
{ACAD_REACTORS
330
295
330
296
102
}
330
71
100
AcDbEntity
  8
0
  6
Continuous
 62
     2
100
AcDbCircle
 10
89.21609535667011
 20
342.3574905161424
 30
0.0
 40
0.4242446153828041
100
AcDbArc
 50
180.0
 51
270.0
  0
ARC
  5
23F
102
{ACAD_REACTORS
330
295
330
296
102
}
330
71
100
AcDbEntity
  8
0
  6
Continuous
 62
     2
100
AcDbCircle
 10
91.28582329442622
 20
344.4922893109243
 30
0.0
 40
0.315716923076593
100
AcDbArc
 50
0.0
 51
64.80558935146027
  0
ARC
  5
240
102
{ACAD_REACTORS
330
295
330
296
102
}
330
71
100
AcDbEntity
  8
0
  6
Continuous
 62
     2
100
AcDbCircle
 10
91.80840774200121
 20
345.6031190569871
 30
0.0
 40
0.9118975235575889
100
AcDbArc
 50
115.194410648529
 51
244.8055893514878
  0
ARC
  5
241
102
{ACAD_REACTORS
330
295
330
296
102
}
330
71
100
AcDbEntity
  8
0
  6
Continuous
 62
     2
100
AcDbCircle
 10
89.8099900334166
 20
347.3179734221098
 30
0.0
 40
0.3157169230761951
100
AcDbArc
 50
90.0
 51
180.0
  0
ARC
  5
242
102
{ACAD_REACTORS
330
28F
330
290
102
}
330
71
100
AcDbEntity
  8
0
  6
Continuous
 62
     2
100
AcDbCircle
 10
97.14856861543362
 20
347.3302762306334
 30
0.0
 40
0.3528638246710898
100
AcDbArc
 50
270.0
 51
90.0
  0
ARC
  5
243
102
{ACAD_REACTORS
330
293
330
294
102
}
330
71
100
AcDbEntity
  8
0
  6
Continuous
 62
     2
100
AcDbCircle
 10
103.8912593606594
 20
346.8193411388387
 30
0.0
 40
1.526904761905882
100
AcDbArc
 50
90.0
 51
270.0
  0
ARC
  5
244
102
{ACAD_REACTORS
330
297
330
298
102
}
330
71
100
AcDbEntity
  8
0
  6
Continuous
 62
     2
100
AcDbCircle
 10
113.3182544533631
 20
343.3473603006295
 30
0.0
 40
1.639695123940214
100
AcDbArc
 50
90.0
 51
164.9381082228947
  0
ARC
  5
245
102
{ACAD_REACTORS
330
297
330
298
102
}
330
71
100
AcDbEntity
  8
0
  6
Continuous
 62
     2
100
AcDbCircle
 10
112.8991266099015
 20
343.4601506626644
 30
0.0
 40
1.205656168392989
100
AcDbArc
 50
164.9381082229026
 51
195.0618917770948
  0
ARC
  5
246
102
{ACAD_REACTORS
330
297
330
298
102
}
330
71
100
AcDbEntity
  8
0
  6
Continuous
 62
     2
100
AcDbCircle
 10
113.4489989346789
 20
343.2550792333259
 30
0.0
 40
0.5115800601960091
100
AcDbArc
 50
208.5214732576873
 51
246.6277221118449
  0
ARC
  5
247
102
{ACAD_REACTORS
330
297
330
298
102
}
330
71
100
AcDbEntity
  8
0
  6
Continuous
 62
     2
100
AcDbCircle
 10
113.4489989346789
 20
343.6652220920034
 30
0.0
 40
0.5115800601944632
100
AcDbArc
 50
109.3371432194817
 51
151.4785267424189
  0
ARC
  5
248
102
{ACAD_REACTORS
330
295
330
296
102
}
330
71
100
AcDbEntity
  8
0
  6
Continuous
 62
     2
100
AcDbCircle
 10
92.3855387199483
 20
343.9121260503237
 30
0.0
 40
0.315716923076792
100
AcDbArc
 50
180.0
 51
269.8110329574542
  0
ARC
  5
249
102
{ACAD_REACTORS
330
295
330
296
102
}
330
71
100
AcDbEntity
  8
0
  6
Continuous
 62
     2
100
AcDbCircle
 10
92.39115485525832
 20
345.6149609978926
 30
0.0
 40
2.018561131933266
100
AcDbArc
 50
269.8110329575858
 51
90.18896704241416
  0
ARC
  5
24A
102
{ACAD_REACTORS
330
295
330
296
102
}
330
71
100
AcDbEntity
  8
0
  6
Continuous
 62
     2
100
AcDbCircle
 10
92.3855387199483
 20
346.7122606569549
 30
0.0
 40
0.315716923076792
100
AcDbArc
 50
180.0
 51
244.6259913216482
  0
ARC
  5
24B
102
{ACAD_REACTORS
330
295
330
296
102
}
330
71
100
AcDbEntity
  8
0
  6
Continuous
 62
     2
100
AcDbCircle
 10
92.3855387199483
 20
344.4939774570187
 30
0.0
 40
0.3157169230766355
100
AcDbArc
 50
115.374008678343
 51
180.0
  0
ARC
  5
24C
102
{ACAD_REACTORS
330
299
330
29A
102
}
330
71
100
AcDbEntity
  8
0
  6
Continuous
 62
     2
100
AcDbCircle
 10
97.21555297411021
 20
343.3473603006295
 30
0.0
 40
1.639695123940507
100
AcDbArc
 50
84.84185523036236
 51
164.9381082228864
  0
ARC
  5
24D
102
{ACAD_REACTORS
330
299
330
29A
102
}
330
71
100
AcDbEntity
  8
0
  6
Continuous
 62
     2
100
AcDbCircle
 10
96.7964251306474
 20
343.4601506626644
 30
0.0
 40
1.205656168390944
100
AcDbArc
 50
164.9381082228765
 51
195.0618917770948
  0
ARC
  5
24E
102
{ACAD_REACTORS
330
299
330
29A
102
}
330
71
100
AcDbEntity
  8
0
  6
Continuous
 62
     2
100
AcDbCircle
 10
97.21555297411021
 20
343.5729410246992
 30
0.0
 40
1.639695123939395
100
AcDbArc
 50
195.0618917770906
 51
275.1581447696395
  0
ARC
  5
24F
102
{ACAD_REACTORS
330
299
330
29A
102
}
330
71
100
AcDbEntity
  8
0
  6
Continuous
 62
     2
100
AcDbCircle
 10
96.9266968793743
 20
346.7728316079208
 30
0.0
 40
4.852596863498166
100
AcDbArc
 50
275.1581447696249
 51
285.9799912583529
  0
ARC
  5
250
102
{ACAD_REACTORS
330
299
330
29A
102
}
330
71
100
AcDbEntity
  8
0
  6
Continuous
 62
     2
100
AcDbCircle
 10
97.7236547135063
 20
343.4601506626644
 30
0.0
 40
0.9410597353332545
100
AcDbArc
 50
151.4785267422669
 51
208.5214732577057
  0
ARC
  5
251
102
{ACAD_REACTORS
330
299
330
29A
102
}
330
71
100
AcDbEntity
  8
0
  6
Continuous
 62
     2
100
AcDbCircle
 10
97.346297455426
 20
343.6652220920034
 30
0.0
 40
0.511580060194904
100
AcDbArc
 50
113.3722778881979
 51
151.4785267423044
  0
ARC
  5
252
102
{ACAD_REACTORS
330
299
330
29A
102
}
330
71
100
AcDbEntity
  8
0
  6
Continuous
 62
     2
100
AcDbCircle
 10
97.08456975446722
 20
342.0496842972563
 30
0.0
 40
2.227384008973405
100
AcDbArc
 50
58.06909105003957
 51
71.55192388186653
  0
ARC
  5
253
102
{ACAD_REACTORS
330
291
330
292
102
}
330
71
100
AcDbEntity
  8
0
  6
Continuous
 62
     2
100
AcDbCircle
 10
100.1465838900311
 20
343.6168818407849
 30
0.0
 40
0.5179085730132998
100
AcDbArc
 50
38.12041979714704
 51
141.8795802028579
  0
ARC
  5
254
102
{ACAD_REACTORS
330
291
330
292
102
}
330
71
100
AcDbEntity
  8
0
  6
Continuous
 62
     2
100
AcDbCircle
 10
100.3463239263772
 20
343.4601506626644
 30
0.0
 40
0.7717997786794696
100
AcDbArc
 50
141.879580202834
 51
218.1204197971693
  0
ARC
  5
255
102
{ACAD_REACTORS
330
291
330
292
102
}
330
71
100
AcDbEntity
  8
0
  6
Continuous
 62
     2
100
AcDbCircle
 10
100.1465838900311
 20
343.3034194845444
 30
0.0
 40
0.5179085730137417
100
AcDbArc
 50
218.1204197971966
 51
321.8795802027985
  0
ARC
  5
256
102
{ACAD_REACTORS
330
291
330
292
102
}
330
71
100
AcDbEntity
  8
0
  6
Continuous
 62
     2
100
AcDbCircle
 10
99.9468438536847
 20
343.4601506626644
 30
0.0
 40
0.7717997786796835
100
AcDbArc
 50
321.8795802028411
 51
38.1204197971556
  0
CIRCLE
  5
257
330
71
100
AcDbEntity
  8
1
  6
Continuous
 62
     2
100
AcDbCircle
 10
97.2918507412873
 20
355.7647459007427
 30
0.0
 40
2.5
  0
CIRCLE
  5
258
330
71
100
AcDbEntity
  8
1
  6
Continuous
 62
     2
100
AcDbCircle
 10
97.2918507412873
 20
355.7647459007427
 30
0.0
 40
1.249999999999915
  0
CIRCLE
  5
259
102
{ACAD_REACTORS
330
295
330
296
102
}
330
71
100
AcDbEntity
  8
0
  6
Continuous
 62
     2
100
AcDbCircle
 10
91.83568100718762
 20
345.6031190569871
 30
0.0
 40
0.4709789327785074
  0
MTEXT
  5
25A
330
71
100
AcDbEntity
  8
1
 62
     3
100
AcDbMText
 10
-72.8949318324535
 20
521.4310540560416
 30
0.0
 40
1.8
 41
0.0
 71
     7
 72
     1
  3
Weitergabe sowie Vervielf\U+00e4ltigung dieses Dokuments, Verwertung und \PMitteilung seines Inhalts sind verboten, soweit nicht ausdr\U+00fccklich gestattet. \PZuwiderhandlungen verpflichten zu Schadenersatz. Alle Rechte f\U+00fcr den Fall\Pder Pat
  1
ent-, Gebrauchsmuster- oder Designeintragung vorbehalten.
  7
CONVERTER_11
 73
     1
 44
0.99639855942377
  0
MTEXT
  5
25B
330
71
100
AcDbEntity
  8
1
 62
     3
100
AcDbMText
 10
109.9581780063346
 20
521.4310540560416
 30
0.0
 40
1.8
 41
0.0
 71
     7
 72
     1
  3
Transfer or duplication of this document as well as the utilisation or\Pcommunication of its content are not permitted unless express consent\Pis granted. Violations give rise to claims for damages. All rights reserved\Pin case of patent, utility mo
  1
del or design patent registrations.
  7
CONVERTER_11
 73
     1
 44
0.99639855942377
  0
TEXT
  5
25C
330
71
100
AcDbEntity
  8
1
 62
     2
100
AcDbText
 10
103.7551958547245
 20
335.8807286857512
 30
0.0
 40
1.8
  1
of
 41
0.9
  7
CONVERTER_11
100
AcDbText
  0
TEXT
  5
25D
330
71
100
AcDbEntity
  8
1
 62
     2
100
AcDbText
 10
85.5551958547247
 20
335.8807286857511
 30
0.0
 40
1.8
  1
page
 41
0.9
  7
CONVERTER_11
100
AcDbText
  0
TEXT
  5
25E
330
71
100
AcDbEntity
  8
1
 62
     2
100
AcDbText
 10
94.2014608250667
 20
335.8404972469408
 30
0.0
 40
1.8
  1
1
 41
0.9
  7
CONVERTER_11
100
AcDbText
  0
TEXT
  5
25F
330
71
100
AcDbEntity
  8
1
 62
     2
100
AcDbText
 10
108.9905046645382
 20
335.8897459007427
 30
0.0
 40
1.8
  1
1
 41
0.9
  7
CONVERTER_11
100
AcDbText
  0
MTEXT
  5
261
330
71
100
AcDbEntity
  8
1
 62
     7
100
AcDbMText
 10
167.5275981181002
 20
337.889745900743
 30
0.0
 40
3.0
 41
0.0
 71
     5
 72
     1
  1
ATP-ST-TWIN
  7
CONVERTER_12
 73
     1
 44
1.20048019207683
  0
MTEXT
  5
262
330
71
100
AcDbEntity
  8
1
 62
     2
100
AcDbMText
 10
121.9551958547246
 20
342.1397459007428
 30
0.0
 40
1.8
 41
0.0
 71
     1
 72
     1
  1
description
  7
CONVERTER_11
 73
     1
 44
1.20048019207683
  0
MTEXT
  5
263
330
71
100
AcDbEntity
  8
1
 62
     3
100
AcDbMText
 10
110.7551958547246
 20
355.7647459007428
 30
0.0
 40
2.5
 41
0.0
 71
     5
 72
     1
  1
DIN A4
  7
CONVERTER_11
 73
     1
 44
1.20048019207683
  0
MTEXT
  5
264
330
71
100
AcDbEntity
  8
1
 62
     7
100
AcDbMText
 10
-75.39999961852436
 20
357.1397459007428
 30
0.0
 40
3.5
 41
0.0
 71
     5
 72
     1
  1
D
  7
CONVERTER_11
 73
     1
 44
1.20048019207683
  0
MTEXT
  5
265
330
71
100
AcDbEntity
  8
1
 62
     7
100
AcDbMText
 10
-75.39999961852436
 20
409.6397459007428
 30
0.0
 40
3.5
 41
0.0
 71
     5
 72
     1
  1
C
  7
CONVERTER_11
 73
     1
 44
1.20048019207683
  0
MTEXT
  5
266
330
71
100
AcDbEntity
  8
1
 62
     7
100
AcDbMText
 10
-75.39999961852436
 20
459.6397459007428
 30
0.0
 40
3.5
 41
0.0
 71
     5
 72
     1
  1
B
  7
CONVERTER_11
 73
     1
 44
1.20048019207683
  0
MTEXT
  5
267
330
71
100
AcDbEntity
  8
1
 62
     7
100
AcDbMText
 10
-75.39999961852436
 20
512.1397459007428
 30
0.0
 40
3.5
 41
0.0
 71
     5
 72
     1
  1
A
  7
CONVERTER_11
 73
     1
 44
1.20048019207683
  0
MTEXT
  5
268
330
71
100
AcDbEntity
  8
1
 62
     7
100
AcDbMText
 10
194.8500003814739
 20
332.1397459007427
 30
0.0
 40
3.5
 41
0.0
 71
     5
 72
     1
  1
6
  7
CONVERTER_11
 73
     1
 44
1.20048019207683
  0
MTEXT
  5
269
330
71
100
AcDbEntity
  8
1
 62
     7
100
AcDbMText
 10
145.6000003814747
 20
332.1397459007427
 30
0.0
 40
3.5
 41
0.0
 71
     5
 72
     1
  1
5
  7
CONVERTER_11
 73
     1
 44
1.20048019207683
  0
MTEXT
  5
26A
330
71
100
AcDbEntity
  8
1
 62
     7
100
AcDbMText
 10
95.60000038147462
 20
332.1397459007427
 30
0.0
 40
3.5
 41
0.0
 71
     5
 72
     1
  1
4
  7
CONVERTER_11
 73
     1
 44
1.20048019207683
  0
MTEXT
  5
26B
330
71
100
AcDbEntity
  8
1
 62
     7
100
AcDbMText
 10
45.60000038147473
 20
332.1397459007427
 30
0.0
 40
3.5
 41
0.0
 71
     5
 72
     1
  1
3
  7
CONVERTER_11
 73
     1
 44
1.20048019207683
  0
MTEXT
  5
26C
330
71
100
AcDbEntity
  8
1
 62
     7
100
AcDbMText
 10
-4.39999961852527
 20
332.1397459007427
 30
0.0
 40
3.5
 41
0.0
 71
     5
 72
     1
  1
2
  7
CONVERTER_11
 73
     1
 44
1.20048019207683
  0
MTEXT
  5
26D
330
71
100
AcDbEntity
  8
1
 62
     7
100
AcDbMText
 10
-53.64999961852487
 20
332.1397459007427
 30
0.0
 40
3.5
 41
0.0
 71
     5
 72
     1
  1
1
  7
CONVERTER_11
 73
     1
 44
1.20048019207683
  0
MTEXT
  5
26E
330
71
100
AcDbEntity
  8
1
 62
     7
100
AcDbMText
 10
216.6000003814737
 20
357.1397459007428
 30
0.0
 40
3.5
 41
0.0
 71
     5
 72
     1
  1
D
  7
CONVERTER_11
 73
     1
 44
1.20048019207683
  0
MTEXT
  5
26F
330
71
100
AcDbEntity
  8
1
 62
     7
100
AcDbMText
 10
216.6000003814737
 20
459.6397459007447
 30
0.0
 40
3.5
 41
0.0
 71
     5
 72
     1
  1
B
  7
CONVERTER_11
 73
     1
 44
1.20048019207683
  0
MTEXT
  5
270
330
71
100
AcDbEntity
  8
1
 62
     7
100
AcDbMText
 10
216.6000003814737
 20
512.1397459007428
 30
0.0
 40
3.5
 41
0.0
 71
     5
 72
     1
  1
A
  7
CONVERTER_11
 73
     1
 44
1.20048019207683
  0
MTEXT
  5
271
330
71
100
AcDbEntity
  8
1
 62
     7
100
AcDbMText
 10
216.6000003814737
 20
409.6397459007447
 30
0.0
 40
3.5
 41
0.0
 71
     5
 72
     1
  1
C
  7
CONVERTER_11
 73
     1
 44
1.20048019207683
  0
MTEXT
  5
272
330
71
100
AcDbEntity
  8
1
 62
     2
100
AcDbMText
 10
50.11718112967719
 20
347.3897459007427
 30
0.0
 40
2.0
 41
0.0
 71
     5
 72
     1
  1
General Information\P- Simplified representation\P- Document excluded from change process\P- Linear dimensions [mm]
  7
CONVERTER_11
 73
     1
 44
1.20048019207683
  0
TEXT
  5
273
330
71
100
AcDbEntity
  8
1
 62
     7
100
AcDbText
 10
122.4551958547244
 20
344.4397459007427
 30
0.0
 40
2.5
  1
3030789
 41
0.81
  7
CONVERTER_12
100
AcDbText
  0
MTEXT
  5
274
330
71
100
AcDbEntity
  8
1
 62
     2
100
AcDbMText
 10
122.0551958547247
 20
350.6397459007428
 30
0.0
 40
1.8
 41
0.0
 71
     1
 72
     1
  1
ident.-No.
  7
CONVERTER_11
 73
     1
 44
1.20048019207683
  0
MTEXT
  5
275
330
71
100
AcDbEntity
  8
1
 62
     2
100
AcDbMText
 10
206.2815920997974
 20
359.1397459007428
 30
0.0
 40
1.8
 41
0.0
 71
     1
 72
     1
  1
scale
  7
CONVERTER_11
 73
     1
 44
1.20048019207683
  0
MTEXT
  5
277
330
71
100
AcDbEntity
  8
1
 62
     3
100
AcDbMText
 10
209.640796240637
 20
352.9397459007429
 30
0.0
 40
2.5
 41
0.0
 71
     8
 72
     1
  1
1:1
  7
CONVERTER_13
 73
     1
 44
1.32052821128451
  0
TEXT
  5
278
330
71
100
AcDbEntity
  8
1
 62
     7
100
AcDbText
 10
122.0551958547247
 20
352.9397459007427
 30
0.0
 40
2.5
  1
00345765
 41
0.81
  7
CONVERTER_12
100
AcDbText
  0
MTEXT
  5
27A
330
71
100
AcDbEntity
  8
1
 62
     2
100
AcDbMText
 10
122.0551958547247
 20
359.1397459007428
 30
0.0
 40
1.8
 41
0.0
 71
     1
 72
     1
  1
document-No. / RI
  7
CONVERTER_14
 73
     1
 44
1.32052821128451
  0
TEXT
  5
27B
330
71
100
AcDbEntity
  8
1
 62
     3
100
AcDbText
 10
149.8551958547247
 20
344.4397459007427
 30
0.0
 40
2.5
  1
TECDOC 2D_Productdrawing
 41
0.81
  7
CONVERTER_12
100
AcDbText
  0
MTEXT
  5
27C
330
71
100
AcDbEntity
  8
1
 62
     2
100
AcDbMText
 10
149.8551958547247
 20
350.6397459007427
 30
0.0
 40
1.8
 41
0.0
 71
     1
 72
     1
  1
document-type
  7
CONVERTER_11
 73
     1
 44
1.20048019207683
  0
MTEXT
  5
27D
330
71
100
AcDbEntity
  8
1
 62
     2
100
AcDbMText
 10
179.6815920997976
 20
359.1397459007427
 30
0.0
 40
1.8
 41
0.0
 71
     1
 72
     1
  1
date
  7
CONVERTER_11
 73
     1
 44
1.32052821128451
  0
TEXT
  5
27E
330
71
100
AcDbEntity
  8
1
 62
     3
100
AcDbText
 10
179.6815920997976
 20
352.9397459007427
 30
0.0
 40
2.5
  1
16.04.2018
 41
0.81
  7
CONVERTER_12
100
AcDbText
  0
TEXT
  5
27F
330
71
100
AcDbEntity
  8
1
 62
     7
100
AcDbText
 10
142.0851080737805
 20
352.9397459007427
 30
0.0
 40
2.5
  1
02
 41
0.81
  7
CONVERTER_12
100
AcDbText
  0
TEXT
  5
280
330
71
100
AcDbEntity
  8
1
 62
     7
100
AcDbText
 10
139.9287435767385
 20
352.9397459007427
 30
0.0
 40
2.5
  1
/
 41
0.9
  7
CONVERTER_11
100
AcDbText
  0
HATCH
  5
281
330
71
100
AcDbEntity
  8
1
  6
Continuous
 62
     2
100
AcDbHatch
 10
0.0
 20
0.0
 30
0.0
210
0.0
220
0.0
230
1.0
  2
_USER
 70
     0
 71
     1
 91
        1
 92
        1
 93
       12
 72
     1
 10
102.2226965676858
 20
345.2924363769334
 11
101.0299038655194
 21
345.2924363769334
 72
     1
 10
101.0299038655194
 20
345.2924363769334
 11
101.0299038655194
 21
346.4267084857772
 72
     1
 10
101.0299038655194
 20
346.4267084857772
 11
99.98024628761192
 21
346.4267084857772
 72
     1
 10
99.98024628761192
 20
346.4267084857772
 11
99.98024628761192
 21
345.2924363769334
 72
     1
 10
99.98024628761192
 20
345.2924363769334
 11
98.78745358544532
 21
345.2924363769334
 72
     1
 10
98.78745358544532
 20
345.2924363769334
 11
98.78745358544532
 21
348.3462459007446
 72
     1
 10
98.78745358544532
 20
348.3462459007446
 11
99.98024628761192
 21
348.3462459007446
 72
     1
 10
99.98024628761192
 20
348.3462459007446
 11
99.98024628761192
 21
347.27741256741
 72
     1
 10
99.98024628761192
 20
347.27741256741
 11
101.0299038655194
 21
347.27741256741
 72
     1
 10
101.0299038655194
 20
347.27741256741
 11
101.0299038655194
 21
348.3462459007446
 72
     1
 10
101.0299038655194
 20
348.3462459007446
 11
102.2226965676858
 21
348.3462459007446
 72
     1
 10
102.2226965676858
 20
348.3462459007446
 11
102.2226965676858
 21
345.2924363769334
 97
       12
330
1EE
330
1EF
330
1D9
330
1D8
330
1D7
330
1EB
330
1D6
330
1EC
330
1ED
330
1D5
330
1D4
330
1D3
 75
     1
 76
     0
 52
45.0
 41
0.1
 77
     0
 78
     1
 53
45.0
 43
0.0
 44
0.0
 45
-0.0707106781186548
 46
0.0707106781186548
 79
     0
 98
        1
 10
0.0
 20
0.0
  0
HATCH
  5
282
330
71
100
AcDbEntity
  8
1
  6
Continuous
 62
     2
100
AcDbHatch
 10
0.0
 20
0.0
 30
0.0
210
0.0
220
0.0
230
1.0
  2
_USER
 70
     0
 71
     1
 91
        1
 92
        1
 93
       12
 72
     1
 10
102.2226965676858
 20
345.2924363769334
 11
101.0299038655194
 21
345.2924363769334
 72
     1
 10
101.0299038655194
 20
345.2924363769334
 11
101.0299038655194
 21
346.4267084857772
 72
     1
 10
101.0299038655194
 20
346.4267084857772
 11
99.98024628761192
 21
346.4267084857772
 72
     1
 10
99.98024628761192
 20
346.4267084857772
 11
99.98024628761192
 21
345.2924363769334
 72
     1
 10
99.98024628761192
 20
345.2924363769334
 11
98.78745358544532
 21
345.2924363769334
 72
     1
 10
98.78745358544532
 20
345.2924363769334
 11
98.78745358544532
 21
348.3462459007446
 72
     1
 10
98.78745358544532
 20
348.3462459007446
 11
99.98024628761192
 21
348.3462459007446
 72
     1
 10
99.98024628761192
 20
348.3462459007446
 11
99.98024628761192
 21
347.27741256741
 72
     1
 10
99.98024628761192
 20
347.27741256741
 11
101.0299038655194
 21
347.27741256741
 72
     1
 10
101.0299038655194
 20
347.27741256741
 11
101.0299038655194
 21
348.3462459007446
 72
     1
 10
101.0299038655194
 20
348.3462459007446
 11
102.2226965676858
 21
348.3462459007446
 72
     1
 10
102.2226965676858
 20
348.3462459007446
 11
102.2226965676858
 21
345.2924363769334
 97
       12
330
1EE
330
1EF
330
1D9
330
1D8
330
1D7
330
1EB
330
1D6
330
1EC
330
1ED
330
1D5
330
1D4
330
1D3
 75
     1
 76
     0
 52
45.0
 41
0.1
 77
     0
 78
     1
 53
45.0
 43
0.0
 44
0.0
 45
-0.0707106781186548
 46
0.0707106781186548
 79
     0
 98
        1
 10
0.0
 20
0.0
  0
HATCH
  5
283
330
71
100
AcDbEntity
  8
1
  6
Continuous
 62
     2
100
AcDbHatch
 10
0.0
 20
0.0
 30
0.0
210
0.0
220
0.0
230
1.0
  2
_USER
 70
     0
 71
     1
 91
        1
 92
        1
 93
       10
 72
     1
 10
104.4649959168741
 20
343.6782799143651
 11
103.2244915066212
 21
344.9870554245702
 72
     1
 10
103.2244915066212
 20
344.9870554245702
 11
102.0316988044536
 21
344.9870554245702
 72
     1
 10
102.0316988044536
 20
344.9870554245702
 11
102.0316988044536
 21
341.9332459007591
 72
     1
 10
102.0316988044536
 20
341.9332459007591
 11
103.2244915066212
 21
341.9332459007591
 72
     1
 10
103.2244915066212
 20
341.9332459007591
 11
103.2244915066212
 21
343.2420214109637
 72
     1
 10
103.2244915066212
 20
343.2420214109637
 11
104.4649959168741
 21
341.9332459007591
 72
     1
 10
104.4649959168741
 20
341.9332459007591
 11
105.6577886190405
 21
341.9332459007591
 72
     1
 10
105.6577886190405
 20
341.9332459007591
 11
105.6577886190405
 21
344.9870554245702
 72
     1
 10
105.6577886190405
 20
344.9870554245702
 11
104.4649959168741
 21
344.9870554245702
 72
     1
 10
104.4649959168741
 20
344.9870554245702
 11
104.4649959168741
 21
343.6782799143651
 97
       10
330
1FC
330
1CC
330
1CB
330
1CE
330
1F7
330
1F8
330
1CD
330
1F9
330
1FA
330
1FB
 75
     1
 76
     0
 52
45.0
 41
0.1
 77
     0
 78
     1
 53
45.0
 43
0.0
 44
0.0
 45
-0.0707106781186548
 46
0.0707106781186548
 79
     0
 98
        1
 10
0.0
 20
0.0
  0
HATCH
  5
284
330
71
100
AcDbEntity
  8
1
  6
Continuous
 62
     2
100
AcDbHatch
 10
0.0
 20
0.0
 30
0.0
210
0.0
220
0.0
230
1.0
  2
_USER
 70
     0
 71
     1
 91
        1
 92
        1
 93
       10
 72
     1
 10
104.4649959168741
 20
343.6782799143651
 11
103.2244915066212
 21
344.9870554245702
 72
     1
 10
103.2244915066212
 20
344.9870554245702
 11
102.0316988044536
 21
344.9870554245702
 72
     1
 10
102.0316988044536
 20
344.9870554245702
 11
102.0316988044536
 21
341.9332459007591
 72
     1
 10
102.0316988044536
 20
341.9332459007591
 11
103.2244915066212
 21
341.9332459007591
 72
     1
 10
103.2244915066212
 20
341.9332459007591
 11
103.2244915066212
 21
343.2420214109637
 72
     1
 10
103.2244915066212
 20
343.2420214109637
 11
104.4649959168741
 21
341.9332459007591
 72
     1
 10
104.4649959168741
 20
341.9332459007591
 11
105.6577886190405
 21
341.9332459007591
 72
     1
 10
105.6577886190405
 20
341.9332459007591
 11
105.6577886190405
 21
344.9870554245702
 72
     1
 10
105.6577886190405
 20
344.9870554245702
 11
104.4649959168741
 21
344.9870554245702
 72
     1
 10
104.4649959168741
 20
344.9870554245702
 11
104.4649959168741
 21
343.6782799143651
 97
       10
330
1FC
330
1CC
330
1CB
330
1CE
330
1F7
330
1F8
330
1CD
330
1F9
330
1FA
330
1FB
 75
     1
 76
     0
 52
45.0
 41
0.1
 77
     0
 78
     1
 53
45.0
 43
0.0
 44
0.0
 45
-0.0707106781186548
 46
0.0707106781186548
 79
     0
 98
        1
 10
0.0
 20
0.0
  0
HATCH
  5
285
330
71
100
AcDbEntity
  8
1
  6
Continuous
 62
     2
100
AcDbHatch
 10
0.0
 20
0.0
 30
0.0
210
0.0
220
0.0
230
1.0
  2
_USER
 70
     0
 71
     1
 91
        1
 92
        1
 93
       10
 72
     1
 10
109.7134347372938
 20
347.0374703905394
 11
108.4729303270398
 21
348.3462459007446
 72
     1
 10
108.4729303270398
 20
348.3462459007446
 11
107.2801376248733
 21
348.3462459007446
 72
     1
 10
107.2801376248733
 20
348.3462459007446
 11
107.2801376248733
 21
345.2924363769334
 72
     1
 10
107.2801376248733
 20
345.2924363769334
 11
108.4729303270398
 21
345.2924363769334
 72
     1
 10
108.4729303270398
 20
345.2924363769334
 11
108.4729303270398
 21
346.6012118871381
 72
     1
 10
108.4729303270398
 20
346.6012118871381
 11
109.7134347372938
 21
345.2924363769334
 72
     1
 10
109.7134347372938
 20
345.2924363769334
 11
110.9062274394604
 21
345.2924363769334
 72
     1
 10
110.9062274394604
 20
345.2924363769334
 11
110.9062274394604
 21
348.3462459007446
 72
     1
 10
110.9062274394604
 20
348.3462459007446
 11
109.7134347372938
 21
348.3462459007446
 72
     1
 10
109.7134347372938
 20
348.3462459007446
 11
109.7134347372938
 21
347.0374703905394
 97
       10
330
201
330
1C9
330
1C8
330
202
330
1C7
330
1FD
330
1FE
330
1FF
330
200
330
1CA
 75
     1
 76
     0
 52
45.0
 41
0.1
 77
     0
 78
     1
 53
45.0
 43
0.0
 44
0.0
 45
-0.0707106781186548
 46
0.0707106781186548
 79
     0
 98
        1
 10
0.0
 20
0.0
  0
HATCH
  5
286
330
71
100
AcDbEntity
  8
1
  6
Continuous
 62
     2
100
AcDbHatch
 10
0.0
 20
0.0
 30
0.0
210
0.0
220
0.0
230
1.0
  2
_USER
 70
     0
 71
     1
 91
        1
 92
        1
 93
       10
 72
     1
 10
109.7134347372938
 20
347.0374703905394
 11
108.4729303270398
 21
348.3462459007446
 72
     1
 10
108.4729303270398
 20
348.3462459007446
 11
107.2801376248733
 21
348.3462459007446
 72
     1
 10
107.2801376248733
 20
348.3462459007446
 11
107.2801376248733
 21
345.2924363769334
 72
     1
 10
107.2801376248733
 20
345.2924363769334
 11
108.4729303270398
 21
345.2924363769334
 72
     1
 10
108.4729303270398
 20
345.2924363769334
 11
108.4729303270398
 21
346.6012118871381
 72
     1
 10
108.4729303270398
 20
346.6012118871381
 11
109.7134347372938
 21
345.2924363769334
 72
     1
 10
109.7134347372938
 20
345.2924363769334
 11
110.9062274394604
 21
345.2924363769334
 72
     1
 10
110.9062274394604
 20
345.2924363769334
 11
110.9062274394604
 21
348.3462459007446
 72
     1
 10
110.9062274394604
 20
348.3462459007446
 11
109.7134347372938
 21
348.3462459007446
 72
     1
 10
109.7134347372938
 20
348.3462459007446
 11
109.7134347372938
 21
347.0374703905394
 97
       10
330
201
330
1C9
330
1C8
330
202
330
1C7
330
1FD
330
1FE
330
1FF
330
200
330
1CA
 75
     1
 76
     0
 52
45.0
 41
0.1
 77
     0
 78
     1
 53
45.0
 43
0.0
 44
0.0
 45
-0.0707106781186548
 46
0.0707106781186548
 79
     0
 98
        1
 10
0.0
 20
0.0
  0
HATCH
  5
287
330
71
100
AcDbEntity
  8
1
  6
Continuous
 62
     2
100
AcDbHatch
 10
0.0
 20
0.0
 30
0.0
210
0.0
220
0.0
230
1.0
  2
_USER
 70
     0
 71
     1
 91
        1
 92
        1
 93
        8
 72
     1
 10
108.6159145204143
 20
344.9870554245702
 11
105.8009237433007
 21
344.9870554245702
 72
     1
 10
105.8009237433007
 20
344.9870554245702
 11
105.8009237433007
 21
344.2017901184466
 72
     1
 10
105.8009237433007
 20
344.2017901184466
 11
106.6120227807753
 21
344.2017901184466
 72
     1
 10
106.6120227807753
 20
344.2017901184466
 11
106.6120227807753
 21
341.9332459007591
 72
     1
 10
106.6120227807753
 20
341.9332459007591
 11
107.8048154829418
 21
341.9332459007591
 72
     1
 10
107.8048154829418
 20
341.9332459007591
 11
107.8048154829418
 21
344.2017901184466
 72
     1
 10
107.8048154829418
 20
344.2017901184466
 11
108.6159145204143
 21
344.2017901184466
 72
     1
 10
108.6159145204143
 20
344.2017901184466
 11
108.6159145204143
 21
344.9870554245702
 97
        8
330
1C3
330
203
330
1C2
330
204
330
205
330
1C6
330
1C5
330
1C4
 75
     1
 76
     0
 52
45.0
 41
0.1
 77
     0
 78
     1
 53
45.0
 43
0.0
 44
0.0
 45
-0.0707106781186548
 46
0.0707106781186548
 79
     0
 98
        1
 10
0.0
 20
0.0
  0
HATCH
  5
288
330
71
100
AcDbEntity
  8
1
  6
Continuous
 62
     2
100
AcDbHatch
 10
0.0
 20
0.0
 30
0.0
210
0.0
220
0.0
230
1.0
  2
_USER
 70
     0
 71
     1
 91
        1
 92
        1
 93
        8
 72
     1
 10
108.6159145204143
 20
344.9870554245702
 11
105.8009237433007
 21
344.9870554245702
 72
     1
 10
105.8009237433007
 20
344.9870554245702
 11
105.8009237433007
 21
344.2017901184466
 72
     1
 10
105.8009237433007
 20
344.2017901184466
 11
106.6120227807753
 21
344.2017901184466
 72
     1
 10
106.6120227807753
 20
344.2017901184466
 11
106.6120227807753
 21
341.9332459007591
 72
     1
 10
106.6120227807753
 20
341.9332459007591
 11
107.8048154829418
 21
341.9332459007591
 72
     1
 10
107.8048154829418
 20
341.9332459007591
 11
107.8048154829418
 21
344.2017901184466
 72
     1
 10
107.8048154829418
 20
344.2017901184466
 11
108.6159145204143
 21
344.2017901184466
 72
     1
 10
108.6159145204143
 20
344.2017901184466
 11
108.6159145204143
 21
344.9870554245702
 97
        8
330
1C3
330
203
330
1C2
330
204
330
205
330
1C6
330
1C5
330
1C4
 75
     1
 76
     0
 52
45.0
 41
0.1
 77
     0
 78
     1
 53
45.0
 43
0.0
 44
0.0
 45
-0.0707106781186548
 46
0.0707106781186548
 79
     0
 98
        1
 10
0.0
 20
0.0
  0
HATCH
  5
289
330
71
100
AcDbEntity
  8
1
  6
Continuous
 62
     2
100
AcDbHatch
 10
0.0
 20
0.0
 30
0.0
210
0.0
220
0.0
230
1.0
  2
_USER
 70
     0
 71
     1
 91
        2
 92
        1
 93
        8
 72
     1
 10
110.7543419763613
 20
341.9332459007591
 11
110.5428619228855
 21
342.474206444977
 72
     1
 10
110.5428619228855
 20
342.474206444977
 11
109.4104203462117
 21
342.474206444977
 72
     1
 10
109.4104203462117
 20
342.474206444977
 11
109.1989402927359
 21
341.9332459007591
 72
     1
 10
109.1989402927359
 20
341.9332459007591
 11
107.9584358824829
 21
341.9332459007591
 72
     1
 10
107.9584358824829
 20
341.9332459007591
 11
109.3563889294222
 21
344.9870554245702
 72
     1
 10
109.3563889294222
 20
344.9870554245702
 11
110.5968933396749
 21
344.9870554245702
 72
     1
 10
110.5968933396749
 20
344.9870554245702
 11
111.9948463866152
 21
341.9332459007591
 72
     1
 10
111.9948463866152
 20
341.9332459007591
 11
110.7543419763613
 21
341.9332459007591
 97
        8
330
207
330
208
330
1BF
330
209
330
1BE
330
1C1
330
206
330
1C0
 92
       16
 93
        3
 72
     1
 10
109.6764758973567
 20
343.1547697102836
 11
109.9766411345491
 21
343.9225846762703
 72
     1
 10
109.9766411345491
 20
343.9225846762703
 11
110.2768063717392
 21
343.1547697102836
 72
     1
 10
110.2768063717392
 20
343.1547697102836
 11
109.6764758973567
 21
343.1547697102836
 97
        3
330
1BD
330
20B
330
20A
 75
     1
 76
     0
 52
45.0
 41
0.1
 77
     0
 78
     1
 53
45.0
 43
0.0
 44
0.0
 45
-0.0707106781186548
 46
0.0707106781186548
 79
     0
 98
        1
 10
0.0
 20
0.0
  0
HATCH
  5
28A
330
71
100
AcDbEntity
  8
1
  6
Continuous
 62
     2
100
AcDbHatch
 10
0.0
 20
0.0
 30
0.0
210
0.0
220
0.0
230
1.0
  2
_USER
 70
     0
 71
     1
 91
        2
 92
        1
 93
        8
 72
     1
 10
110.7543419763613
 20
341.9332459007591
 11
110.5428619228855
 21
342.474206444977
 72
     1
 10
110.5428619228855
 20
342.474206444977
 11
109.4104203462117
 21
342.474206444977
 72
     1
 10
109.4104203462117
 20
342.474206444977
 11
109.1989402927359
 21
341.9332459007591
 72
     1
 10
109.1989402927359
 20
341.9332459007591
 11
107.9584358824829
 21
341.9332459007591
 72
     1
 10
107.9584358824829
 20
341.9332459007591
 11
109.3563889294222
 21
344.9870554245702
 72
     1
 10
109.3563889294222
 20
344.9870554245702
 11
110.5968933396749
 21
344.9870554245702
 72
     1
 10
110.5968933396749
 20
344.9870554245702
 11
111.9948463866152
 21
341.9332459007591
 72
     1
 10
111.9948463866152
 20
341.9332459007591
 11
110.7543419763613
 21
341.9332459007591
 97
        8
330
207
330
208
330
1BF
330
209
330
1BE
330
1C1
330
206
330
1C0
 92
       16
 93
        3
 72
     1
 10
109.6764758973567
 20
343.1547697102836
 11
109.9766411345491
 21
343.9225846762703
 72
     1
 10
109.9766411345491
 20
343.9225846762703
 11
110.2768063717392
 21
343.1547697102836
 72
     1
 10
110.2768063717392
 20
343.1547697102836
 11
109.6764758973567
 21
343.1547697102836
 97
        3
330
1BD
330
20B
330
20A
 75
     1
 76
     0
 52
45.0
 41
0.1
 77
     0
 78
     1
 53
45.0
 43
0.0
 44
0.0
 45
-0.0707106781186548
 46
0.0707106781186548
 79
     0
 98
        1
 10
0.0
 20
0.0
  0
HATCH
  5
28B
330
71
100
AcDbEntity
  8
1
  6
Continuous
 62
     2
100
AcDbHatch
 10
0.0
 20
0.0
 30
0.0
210
0.0
220
0.0
230
1.0
  2
_USER
 70
     0
 71
     1
 91
        1
 92
        1
 93
        4
 72
     1
 10
112.3852903901472
 20
345.2924363769334
 11
111.1447859798943
 21
345.2924363769334
 72
     1
 10
111.1447859798943
 20
345.2924363769334
 11
111.1447859798943
 21
348.3462459007446
 72
     1
 10
111.1447859798943
 20
348.3462459007446
 11
112.3852903901472
 21
348.3462459007446
 72
     1
 10
112.3852903901472
 20
348.3462459007446
 11
112.3852903901472
 21
345.2924363769334
 97
        4
330
1BA
330
1BC
330
20C
330
1BB
 75
     1
 76
     0
 52
45.0
 41
0.1
 77
     0
 78
     1
 53
45.0
 43
0.0
 44
0.0
 45
-0.0707106781186548
 46
0.0707106781186548
 79
     0
 98
        1
 10
0.0
 20
0.0
  0
HATCH
  5
28C
330
71
100
AcDbEntity
  8
1
  6
Continuous
 62
     2
100
AcDbHatch
 10
0.0
 20
0.0
 30
0.0
210
0.0
220
0.0
230
1.0
  2
_USER
 70
     0
 71
     1
 91
        1
 92
        1
 93
        4
 72
     1
 10
112.3852903901472
 20
345.2924363769334
 11
111.1447859798943
 21
345.2924363769334
 72
     1
 10
111.1447859798943
 20
345.2924363769334
 11
111.1447859798943
 21
348.3462459007446
 72
     1
 10
111.1447859798943
 20
348.3462459007446
 11
112.3852903901472
 21
348.3462459007446
 72
     1
 10
112.3852903901472
 20
348.3462459007446
 11
112.3852903901472
 21
345.2924363769334
 97
        4
330
1BA
330
1BC
330
20C
330
1BB
 75
     1
 76
     0
 52
45.0
 41
0.1
 77
     0
 78
     1
 53
45.0
 43
0.0
 44
0.0
 45
-0.0707106781186548
 46
0.0707106781186548
 79
     0
 98
        1
 10
0.0
 20
0.0
  0
HATCH
  5
28D
330
71
100
AcDbEntity
  8
1
  6
Continuous
 62
     2
100
AcDbHatch
 10
0.0
 20
0.0
 30
0.0
210
0.0
220
0.0
230
1.0
  2
_USER
 70
     0
 71
     1
 91
        1
 92
        1
 93
       12
 72
     1
 10
116.607776555818
 20
348.3462459007446
 11
115.3052469250515
 21
346.8732953707084
 72
     1
 10
115.3052469250515
 20
346.8732953707084
 11
116.7031999719918
 21
345.2924363769334
 72
     1
 10
116.7031999719918
 20
345.2924363769334
 11
115.3004757542435
 21
345.2924363769334
 72
     1
 10
115.3004757542435
 20
345.2924363769334
 11
114.603884816178
 21
346.0801681622271
 72
     1
 10
114.603884816178
 20
346.0801681622271
 11
113.9072938781123
 21
345.2924363769334
 72
     1
 10
113.9072938781123
 20
345.2924363769334
 11
112.5045696603641
 21
345.2924363769334
 72
     1
 10
112.5045696603641
 20
345.2924363769334
 11
113.9025227073044
 21
346.8732953707084
 72
     1
 10
113.9025227073044
 20
346.8732953707084
 11
112.5999930765369
 21
348.3462459007446
 72
     1
 10
112.5999930765369
 20
348.3462459007446
 11
114.0027172942862
 21
348.3462459007446
 72
     1
 10
114.0027172942862
 20
348.3462459007446
 11
114.603884816178
 21
347.6664225791891
 72
     1
 10
114.603884816178
 20
347.6664225791891
 11
115.2050523380708
 21
348.3462459007446
 72
     1
 10
115.2050523380708
 20
348.3462459007446
 11
116.607776555818
 21
348.3462459007446
 97
       12
330
1B5
330
1B4
330
1B3
330
210
330
211
330
20D
330
20E
330
1B9
330
1B8
330
1B7
330
1B6
330
20F
 75
     1
 76
     0
 52
45.0
 41
0.1
 77
     0
 78
     1
 53
45.0
 43
0.0
 44
0.0
 45
-0.0707106781186548
 46
0.0707106781186548
 79
     0
 98
        1
 10
0.0
 20
0.0
  0
HATCH
  5
28E
330
71
100
AcDbEntity
  8
1
  6
Continuous
 62
     2
100
AcDbHatch
 10
0.0
 20
0.0
 30
0.0
210
0.0
220
0.0
230
1.0
  2
_USER
 70
     0
 71
     1
 91
        1
 92
        1
 93
       12
 72
     1
 10
116.607776555818
 20
348.3462459007446
 11
115.3052469250515
 21
346.8732953707084
 72
     1
 10
115.3052469250515
 20
346.8732953707084
 11
116.7031999719918
 21
345.2924363769334
 72
     1
 10
116.7031999719918
 20
345.2924363769334
 11
115.3004757542435
 21
345.2924363769334
 72
     1
 10
115.3004757542435
 20
345.2924363769334
 11
114.603884816178
 21
346.0801681622271
 72
     1
 10
114.603884816178
 20
346.0801681622271
 11
113.9072938781123
 21
345.2924363769334
 72
     1
 10
113.9072938781123
 20
345.2924363769334
 11
112.5045696603641
 21
345.2924363769334
 72
     1
 10
112.5045696603641
 20
345.2924363769334
 11
113.9025227073044
 21
346.8732953707084
 72
     1
 10
113.9025227073044
 20
346.8732953707084
 11
112.5999930765369
 21
348.3462459007446
 72
     1
 10
112.5999930765369
 20
348.3462459007446
 11
114.0027172942862
 21
348.3462459007446
 72
     1
 10
114.0027172942862
 20
348.3462459007446
 11
114.603884816178
 21
347.6664225791891
 72
     1
 10
114.603884816178
 20
347.6664225791891
 11
115.2050523380708
 21
348.3462459007446
 72
     1
 10
115.2050523380708
 20
348.3462459007446
 11
116.607776555818
 21
348.3462459007446
 97
       12
330
1B5
330
1B4
330
1B3
330
210
330
211
330
20D
330
20E
330
1B9
330
1B8
330
1B7
330
1B6
330
20F
 75
     1
 76
     0
 52
45.0
 41
0.1
 77
     0
 78
     1
 53
45.0
 43
0.0
 44
0.0
 45
-0.0707106781186548
 46
0.0707106781186548
 79
     0
 98
        1
 10
0.0
 20
0.0
  0
HATCH
  5
28F
330
71
100
AcDbEntity
  8
1
  6
Continuous
 62
     2
100
AcDbHatch
 10
0.0
 20
0.0
 30
0.0
210
0.0
220
0.0
230
1.0
  2
_USER
 70
     0
 71
     1
 91
        2
 92
        1
 93
        6
 72
     1
 10
97.590041141672
 20
346.2355146180772
 11
96.83127355389172
 21
346.2355146180772
 72
     1
 10
96.83127355389172
 20
346.2355146180772
 11
96.83127355389172
 21
345.2924363769334
 72
     1
 10
96.83127355389172
 20
345.2924363769334
 11
95.5907691436376
 21
345.2924363769334
 72
     1
 10
95.5907691436376
 20
345.2924363769334
 11
95.5907691436376
 21
348.3462459007446
 72
     1
 10
95.5907691436376
 20
348.3462459007446
 11
97.590041141672
 21
348.3462459007446
 72
     2
 10
97.590041141672
 20
347.2908802594109
 40
1.055365641333708
 50
270.0
 51
450.0
 73
     0
 97
        6
330
1DD
330
1DC
330
1E9
330
1E8
330
1DE
330
22E
 92
       16
 93
        4
 72
     2
 10
97.14856861543362
 20
347.3302762306334
 40
0.3528638246710898
 50
270.0
 51
450.0
 73
     1
 72
     1
 10
97.14856861543362
 20
347.6831400553045
 11
96.83127355389172
 21
347.6831400553045
 72
     1
 10
96.83127355389172
 20
347.6831400553045
 11
96.83127355389172
 21
346.9774124059623
 72
     1
 10
96.83127355389172
 20
346.9774124059623
 11
97.14856861543362
 21
346.9774124059623
 97
        4
330
242
330
1DA
330
1EA
330
1DB
 75
     1
 76
     0
 52
45.0
 41
0.1
 77
     0
 78
     1
 53
45.0
 43
0.0
 44
0.0
 45
-0.0707106781186548
 46
0.0707106781186548
 79
     0
 98
        1
 10
0.0
 20
0.0
  0
HATCH
  5
290
330
71
100
AcDbEntity
  8
1
  6
Continuous
 62
     2
100
AcDbHatch
 10
0.0
 20
0.0
 30
0.0
210
0.0
220
0.0
230
1.0
  2
_USER
 70
     0
 71
     1
 91
        2
 92
        1
 93
        6
 72
     1
 10
97.590041141672
 20
346.2355146180772
 11
96.83127355389172
 21
346.2355146180772
 72
     1
 10
96.83127355389172
 20
346.2355146180772
 11
96.83127355389172
 21
345.2924363769334
 72
     1
 10
96.83127355389172
 20
345.2924363769334
 11
95.5907691436376
 21
345.2924363769334
 72
     1
 10
95.5907691436376
 20
345.2924363769334
 11
95.5907691436376
 21
348.3462459007446
 72
     1
 10
95.5907691436376
 20
348.3462459007446
 11
97.590041141672
 21
348.3462459007446
 72
     2
 10
97.590041141672
 20
347.2908802594109
 40
1.055365641333708
 50
270.0
 51
450.0
 73
     0
 97
        6
330
1DD
330
1DC
330
1E9
330
1E8
330
1DE
330
22E
 92
       16
 93
        4
 72
     2
 10
97.14856861543362
 20
347.3302762306334
 40
0.3528638246710898
 50
270.0
 51
450.0
 73
     1
 72
     1
 10
97.14856861543362
 20
347.6831400553045
 11
96.83127355389172
 21
347.6831400553045
 72
     1
 10
96.83127355389172
 20
347.6831400553045
 11
96.83127355389172
 21
346.9774124059623
 72
     1
 10
96.83127355389172
 20
346.9774124059623
 11
97.14856861543362
 21
346.9774124059623
 97
        4
330
242
330
1DA
330
1EA
330
1DB
 75
     1
 76
     0
 52
45.0
 41
0.1
 77
     0
 78
     1
 53
45.0
 43
0.0
 44
0.0
 45
-0.0707106781186548
 46
0.0707106781186548
 79
     0
 98
        1
 10
0.0
 20
0.0
  0
HATCH
  5
291
330
71
100
AcDbEntity
  8
1
  6
Continuous
 62
     2
100
AcDbHatch
 10
0.0
 20
0.0
 30
0.0
210
0.0
220
0.0
230
1.0
  2
_USER
 70
     0
 71
     1
 91
        2
 92
        1
 93
        4
 72
     2
 10
100.1465838900311
 20
342.9215756523616
 40
2.0654797722086
 50
62.45185182430638
 51
117.5481481756657
 73
     1
 72
     2
 10
99.86564399819781
 20
343.4601506626644
 40
1.458034083651515
 50
117.5481481756619
 51
242.451851824337
 73
     1
 72
     2
 10
100.1465838900311
 20
343.9987256729677
 40
2.065479772208477
 50
242.4518518243402
 51
297.5481481756878
 73
     1
 72
     2
 10
100.4275237818644
 20
343.4601506626644
 40
1.458034083651984
 50
297.5481481757021
 51
422.451851824299
 73
     1
 97
        4
330
23A
330
239
330
23B
330
238
 92
       16
 93
        4
 72
     2
 10
99.9468438536847
 20
343.4601506626644
 40
0.7717997786796835
 50
321.8795802028411
 51
398.1204197971556
 73
     1
 72
     2
 10
100.1465838900311
 20
343.6168818407849
 40
0.5179085730132998
 50
38.12041979714704
 51
141.8795802028579
 73
     1
 72
     2
 10
100.3463239263772
 20
343.4601506626644
 40
0.7717997786794696
 50
141.879580202834
 51
218.1204197971693
 73
     1
 72
     2
 10
100.1465838900311
 20
343.3034194845444
 40
0.5179085730137417
 50
218.1204197971966
 51
321.8795802027985
 73
     1
 97
        4
330
256
330
253
330
254
330
255
 75
     1
 76
     0
 52
45.0
 41
0.1
 77
     0
 78
     1
 53
45.0
 43
0.0
 44
0.0
 45
-0.0707106781186548
 46
0.0707106781186548
 79
     0
 98
        1
 10
0.0
 20
0.0
  0
HATCH
  5
292
330
71
100
AcDbEntity
  8
1
  6
Continuous
 62
     2
100
AcDbHatch
 10
0.0
 20
0.0
 30
0.0
210
0.0
220
0.0
230
1.0
  2
_USER
 70
     0
 71
     1
 91
        2
 92
        1
 93
        4
 72
     2
 10
100.1465838900311
 20
342.9215756523616
 40
2.0654797722086
 50
62.45185182430638
 51
117.5481481756657
 73
     1
 72
     2
 10
99.86564399819781
 20
343.4601506626644
 40
1.458034083651515
 50
117.5481481756619
 51
242.451851824337
 73
     1
 72
     2
 10
100.1465838900311
 20
343.9987256729677
 40
2.065479772208477
 50
242.4518518243402
 51
297.5481481756878
 73
     1
 72
     2
 10
100.4275237818644
 20
343.4601506626644
 40
1.458034083651984
 50
297.5481481757021
 51
422.451851824299
 73
     1
 97
        4
330
23A
330
239
330
23B
330
238
 92
       16
 93
        4
 72
     2
 10
99.9468438536847
 20
343.4601506626644
 40
0.7717997786796835
 50
321.8795802028411
 51
398.1204197971556
 73
     1
 72
     2
 10
100.1465838900311
 20
343.6168818407849
 40
0.5179085730132998
 50
38.12041979714704
 51
141.8795802028579
 73
     1
 72
     2
 10
100.3463239263772
 20
343.4601506626644
 40
0.7717997786794696
 50
141.879580202834
 51
218.1204197971693
 73
     1
 72
     2
 10
100.1465838900311
 20
343.3034194845444
 40
0.5179085730137417
 50
218.1204197971966
 51
321.8795802027985
 73
     1
 97
        4
330
256
330
253
330
254
330
255
 75
     1
 76
     0
 52
45.0
 41
0.1
 77
     0
 78
     1
 53
45.0
 43
0.0
 44
0.0
 45
-0.0707106781186548
 46
0.0707106781186548
 79
     0
 98
        1
 10
0.0
 20
0.0
  0
HATCH
  5
293
330
71
100
AcDbEntity
  8
1
  6
Continuous
 62
     2
100
AcDbHatch
 10
0.0
 20
0.0
 30
0.0
210
0.0
220
0.0
230
1.0
  2
_USER
 70
     0
 71
     1
 91
        2
 92
        1
 93
       12
 72
     1
 10
107.0415790844404
 20
347.6482322953016
 11
105.7056512580127
 21
347.6482322953016
 72
     1
 10
105.7056512580127
 20
347.6482322953016
 11
105.7056512580127
 21
347.1683479415599
 72
     1
 10
105.7056512580127
 20
347.1683479415599
 11
107.0415790844404
 21
347.1683479415599
 72
     1
 10
107.0415790844404
 20
347.1683479415599
 11
107.0415790844404
 21
346.4703343361176
 72
     1
 10
107.0415790844404
 20
346.4703343361176
 11
105.7056512580127
 21
346.4703343361176
 72
     1
 10
105.7056512580127
 20
346.4703343361176
 11
105.7056512580127
 21
345.9904499823759
 72
     1
 10
105.7056512580127
 20
345.9904499823759
 11
107.0415790844404
 21
345.9904499823759
 72
     1
 10
107.0415790844404
 20
345.9904499823759
 11
107.0415790844404
 21
345.2924363769334
 72
     1
 10
107.0415790844404
 20
345.2924363769334
 11
103.8912593606594
 21
345.2924363769334
 72
     2
 10
103.8912593606594
 20
346.8193411388387
 40
1.526904761905882
 50
90.0
 51
270.0
 73
     0
 72
     1
 10
103.8912593606594
 20
348.3462459007446
 11
107.0415790844404
 21
348.3462459007446
 72
     1
 10
107.0415790844404
 20
348.3462459007446
 11
107.0415790844404
 21
347.6482322953016
 97
       12
330
1F1
330
243
330
1F2
330
1F3
330
1F4
330
1F5
330
1D2
330
1D1
330
1D0
330
1CF
330
1F6
330
1F0
 92
       16
 93
        4
 72
     2
 10
104.1075313708246
 20
346.9760723169592
 40
0.5179085730135153
 50
38.12041979714432
 51
141.8795802028499
 73
     1
 72
     2
 10
104.3072714071709
 20
346.8193411388387
 40
0.7717997786796835
 50
141.8795802028411
 51
218.1204197971556
 73
     1
 72
     2
 10
104.1075313708246
 20
346.6626099607183
 40
0.5179085730134834
 50
218.1204197971551
 51
321.8795802028507
 73
     1
 72
     2
 10
103.9077913344784
 20
346.8193411388387
 40
0.7717997786796373
 50
321.8795802028437
 51
398.1204197971596
 73
     1
 97
        4
330
23D
330
23C
330
237
330
236
 75
     1
 76
     0
 52
45.0
 41
0.1
 77
     0
 78
     1
 53
45.0
 43
0.0
 44
0.0
 45
-0.0707106781186548
 46
0.0707106781186548
 79
     0
 98
        1
 10
0.0
 20
0.0
  0
HATCH
  5
294
330
71
100
AcDbEntity
  8
1
  6
Continuous
 62
     2
100
AcDbHatch
 10
0.0
 20
0.0
 30
0.0
210
0.0
220
0.0
230
1.0
  2
_USER
 70
     0
 71
     1
 91
        2
 92
        1
 93
       12
 72
     1
 10
107.0415790844404
 20
347.6482322953016
 11
105.7056512580127
 21
347.6482322953016
 72
     1
 10
105.7056512580127
 20
347.6482322953016
 11
105.7056512580127
 21
347.1683479415599
 72
     1
 10
105.7056512580127
 20
347.1683479415599
 11
107.0415790844404
 21
347.1683479415599
 72
     1
 10
107.0415790844404
 20
347.1683479415599
 11
107.0415790844404
 21
346.4703343361176
 72
     1
 10
107.0415790844404
 20
346.4703343361176
 11
105.7056512580127
 21
346.4703343361176
 72
     1
 10
105.7056512580127
 20
346.4703343361176
 11
105.7056512580127
 21
345.9904499823759
 72
     1
 10
105.7056512580127
 20
345.9904499823759
 11
107.0415790844404
 21
345.9904499823759
 72
     1
 10
107.0415790844404
 20
345.9904499823759
 11
107.0415790844404
 21
345.2924363769334
 72
     1
 10
107.0415790844404
 20
345.2924363769334
 11
103.8912593606594
 21
345.2924363769334
 72
     2
 10
103.8912593606594
 20
346.8193411388387
 40
1.526904761905882
 50
90.0
 51
270.0
 73
     0
 72
     1
 10
103.8912593606594
 20
348.3462459007446
 11
107.0415790844404
 21
348.3462459007446
 72
     1
 10
107.0415790844404
 20
348.3462459007446
 11
107.0415790844404
 21
347.6482322953016
 97
       12
330
1F1
330
243
330
1F2
330
1F3
330
1F4
330
1F5
330
1D2
330
1D1
330
1D0
330
1CF
330
1F6
330
1F0
 92
       16
 93
        4
 72
     2
 10
104.1075313708246
 20
346.9760723169592
 40
0.5179085730135153
 50
38.12041979714432
 51
141.8795802028499
 73
     1
 72
     2
 10
104.3072714071709
 20
346.8193411388387
 40
0.7717997786796835
 50
141.8795802028411
 51
218.1204197971556
 73
     1
 72
     2
 10
104.1075313708246
 20
346.6626099607183
 40
0.5179085730134834
 50
218.1204197971551
 51
321.8795802028507
 73
     1
 72
     2
 10
103.9077913344784
 20
346.8193411388387
 40
0.7717997786796373
 50
321.8795802028437
 51
398.1204197971596
 73
     1
 97
        4
330
23D
330
23C
330
237
330
236
 75
     1
 76
     0
 52
45.0
 41
0.1
 77
     0
 78
     1
 53
45.0
 43
0.0
 44
0.0
 45
-0.0707106781186548
 46
0.0707106781186548
 79
     0
 98
        1
 10
0.0
 20
0.0
  0
HATCH
  5
295
330
71
100
AcDbEntity
  8
1
  6
Continuous
 62
     2
100
AcDbHatch
 10
0.0
 20
0.0
 30
0.0
210
0.0
220
0.0
230
1.0
  2
_USER
 70
     0
 71
     1
 91
        4
 92
        1
 93
        8
 72
     1
 10
95.1136520627708
 20
347.9220012853426
 11
95.1136520627708
 21
342.3574905161424
 72
     2
 10
94.68940744738691
 20
342.3574905161424
 40
0.4242446153832589
 50
0.0
 51
90.0
 73
     0
 72
     1
 10
94.68940744738691
 20
341.9332459007591
 11
89.21609535667011
 21
341.9332459007591
 72
     2
 10
89.21609535667011
 20
342.3574905161424
 40
0.4242446153828041
 50
90.0
 51
180.0
 73
     0
 72
     1
 10
88.7918507412873
 20
342.3574905161424
 11
88.7918507412873
 21
347.9220012853426
 72
     2
 10
89.21609535667011
 20
347.9220012853426
 40
0.4242446153837705
 50
180.0
 51
270.0
 73
     0
 72
     1
 10
89.21609535667011
 20
348.3462459007264
 11
94.68940744738691
 21
348.3462459007264
 72
     2
 10
94.68940744738691
 20
347.9220012853426
 40
0.4242446153838841
 50
270.0
 51
360.0
 73
     0
 97
        8
330
1E5
330
233
330
1E6
330
23E
330
1E3
330
235
330
1E4
330
234
 92
       16
 93
        1
 72
     2
 10
91.83568100718762
 20
345.6031190569871
 40
0.4709789327785074
 50
0.0
 51
360.0
 73
     1
 97
        1
330
259
 92
       16
 93
        8
 72
     2
 10
92.3855387199483
 20
344.4939774570187
 40
0.3157169230766355
 50
115.374008678343
 51
180.0
 73
     1
 72
     1
 10
92.06982179687151
 20
344.4939774570187
 11
92.06982179687151
 21
343.9121260503237
 72
     2
 10
92.3855387199483
 20
343.9121260503237
 40
0.315716923076792
 50
180.0
 51
269.8110329574542
 73
     1
 72
     2
 10
92.39115485525832
 20
345.6149609978926
 40
2.018561131933266
 50
269.8110329575858
 51
450.1889670424142
 73
     1
 72
     2
 10
92.3855387199483
 20
347.3177959454617
 40
0.3157169230760711
 50
90.18896704254594
 51
180.0
 73
     1
 72
     1
 10
92.06982179687151
 20
347.3177959454617
 11
92.06982179687151
 21
346.7122606569549
 72
     2
 10
92.3855387199483
 20
346.7122606569549
 40
0.315716923076792
 50
180.0
 51
244.6259913216482
 73
     1
 72
     2
 10
91.85949602186042
 20
345.6031190569871
 40
0.9118481501443819
 50
295.3740086781925
 51
424.6259913218212
 73
     0
 97
        8
330
24B
330
1AC
330
248
330
249
330
227
330
1AB
330
24A
330
226
 92
       16
 93
       12
 72
     2
 10
89.8099900334166
 20
342.9615183793927
 40
0.3157169230756836
 50
180.0
 51
270.0
 73
     1
 72
     1
 10
89.8099900334166
 20
342.645801456316
 11
91.28582329442622
 21
342.645801456316
 72
     2
 10
91.28582329442622
 20
342.9615183793927
 40
0.3157169230767067
 50
270.0
 51
360.0
 73
     1
 72
     1
 10
91.60154021750282
 20
342.9615183793927
 11
91.60154021750282
 21
344.4922893109243
 72
     2
 10
91.28582329442622
 20
344.4922893109243
 40
0.315716923076593
 50
0.0
 51
64.80558935146027
 73
     1
 72
     2
 10
91.80840774200121
 20
345.6031190569871
 40
0.9118975235575889
 50
115.1944106485122
 51
244.805589351471
 73
     0
 72
     2
 10
91.28582329442622
 20
346.7139488030493
 40
0.3157169230761203
 50
295.1944106485397
 51
360.0
 73
     1
 72
     1
 10
91.60154021750282
 20
346.7139488030493
 11
91.60154021750282
 21
347.3179734221098
 72
     2
 10
91.28582329442622
 20
347.3179734221098
 40
0.315716923076593
 50
0.0
 51
90.0
 73
     1
 72
     1
 10
91.28582329442622
 20
347.633690345186
 11
89.8099900334166
 21
347.633690345186
 72
     2
 10
89.8099900334166
 20
347.3179734221098
 40
0.3157169230761951
 50
90.0
 51
180.0
 73
     1
 72
     1
 10
89.49427311034091
 20
347.3179734221098
 11
89.49427311034091
 21
342.9615183793927
 97
       12
330
22F
330
1E7
330
232
330
1E2
330
23F
330
240
330
231
330
1E1
330
230
330
1E0
330
241
330
1DF
 75
     1
 76
     0
 52
45.0
 41
0.1
 77
     0
 78
     1
 53
45.0
 43
0.0
 44
0.0
 45
-0.0707106781186548
 46
0.0707106781186548
 79
     0
 98
        1
 10
0.0
 20
0.0
  0
HATCH
  5
296
330
71
100
AcDbEntity
  8
1
  6
Continuous
 62
     2
100
AcDbHatch
 10
0.0
 20
0.0
 30
0.0
210
0.0
220
0.0
230
1.0
  2
_USER
 70
     0
 71
     1
 91
        4
 92
        1
 93
        8
 72
     1
 10
95.1136520627708
 20
347.9220012853426
 11
95.1136520627708
 21
342.3574905161424
 72
     2
 10
94.68940744738691
 20
342.3574905161424
 40
0.4242446153832589
 50
0.0
 51
90.0
 73
     0
 72
     1
 10
94.68940744738691
 20
341.9332459007591
 11
89.21609535667011
 21
341.9332459007591
 72
     2
 10
89.21609535667011
 20
342.3574905161424
 40
0.4242446153828041
 50
90.0
 51
180.0
 73
     0
 72
     1
 10
88.7918507412873
 20
342.3574905161424
 11
88.7918507412873
 21
347.9220012853426
 72
     2
 10
89.21609535667011
 20
347.9220012853426
 40
0.4242446153837705
 50
180.0
 51
270.0
 73
     0
 72
     1
 10
89.21609535667011
 20
348.3462459007264
 11
94.68940744738691
 21
348.3462459007264
 72
     2
 10
94.68940744738691
 20
347.9220012853426
 40
0.4242446153838841
 50
270.0
 51
360.0
 73
     0
 97
        8
330
1E5
330
233
330
1E6
330
23E
330
1E3
330
235
330
1E4
330
234
 92
       16
 93
        1
 72
     2
 10
91.83568100718762
 20
345.6031190569871
 40
0.4709789327785074
 50
0.0
 51
360.0
 73
     1
 97
        1
330
259
 92
       16
 93
        8
 72
     2
 10
92.3855387199483
 20
344.4939774570187
 40
0.3157169230766355
 50
115.374008678343
 51
180.0
 73
     1
 72
     1
 10
92.06982179687151
 20
344.4939774570187
 11
92.06982179687151
 21
343.9121260503237
 72
     2
 10
92.3855387199483
 20
343.9121260503237
 40
0.315716923076792
 50
180.0
 51
269.8110329574542
 73
     1
 72
     2
 10
92.39115485525832
 20
345.6149609978926
 40
2.018561131933266
 50
269.8110329575858
 51
450.1889670424142
 73
     1
 72
     2
 10
92.3855387199483
 20
347.3177959454617
 40
0.3157169230760711
 50
90.18896704254594
 51
180.0
 73
     1
 72
     1
 10
92.06982179687151
 20
347.3177959454617
 11
92.06982179687151
 21
346.7122606569549
 72
     2
 10
92.3855387199483
 20
346.7122606569549
 40
0.315716923076792
 50
180.0
 51
244.6259913216482
 73
     1
 72
     2
 10
91.85949602186042
 20
345.6031190569871
 40
0.9118481501443819
 50
295.3740086781925
 51
424.6259913218212
 73
     0
 97
        8
330
24B
330
1AC
330
248
330
249
330
227
330
1AB
330
24A
330
226
 92
       16
 93
       12
 72
     2
 10
89.8099900334166
 20
342.9615183793927
 40
0.3157169230756836
 50
180.0
 51
270.0
 73
     1
 72
     1
 10
89.8099900334166
 20
342.645801456316
 11
91.28582329442622
 21
342.645801456316
 72
     2
 10
91.28582329442622
 20
342.9615183793927
 40
0.3157169230767067
 50
270.0
 51
360.0
 73
     1
 72
     1
 10
91.60154021750282
 20
342.9615183793927
 11
91.60154021750282
 21
344.4922893109243
 72
     2
 10
91.28582329442622
 20
344.4922893109243
 40
0.315716923076593
 50
0.0
 51
64.80558935146027
 73
     1
 72
     2
 10
91.80840774200121
 20
345.6031190569871
 40
0.9118975235575889
 50
115.1944106485122
 51
244.805589351471
 73
     0
 72
     2
 10
91.28582329442622
 20
346.7139488030493
 40
0.3157169230761203
 50
295.1944106485397
 51
360.0
 73
     1
 72
     1
 10
91.60154021750282
 20
346.7139488030493
 11
91.60154021750282
 21
347.3179734221098
 72
     2
 10
91.28582329442622
 20
347.3179734221098
 40
0.315716923076593
 50
0.0
 51
90.0
 73
     1
 72
     1
 10
91.28582329442622
 20
347.633690345186
 11
89.8099900334166
 21
347.633690345186
 72
     2
 10
89.8099900334166
 20
347.3179734221098
 40
0.3157169230761951
 50
90.0
 51
180.0
 73
     1
 72
     1
 10
89.49427311034091
 20
347.3179734221098
 11
89.49427311034091
 21
342.9615183793927
 97
       12
330
22F
330
1E7
330
232
330
1E2
330
23F
330
240
330
231
330
1E1
330
230
330
1E0
330
241
330
1DF
 75
     1
 76
     0
 52
45.0
 41
0.1
 77
     0
 78
     1
 53
45.0
 43
0.0
 44
0.0
 45
-0.0707106781186548
 46
0.0707106781186548
 79
     0
 98
        1
 10
0.0
 20
0.0
  0
HATCH
  5
297
330
71
100
AcDbEntity
  8
1
  6
Continuous
 62
     2
100
AcDbHatch
 10
0.0
 20
0.0
 30
0.0
210
0.0
220
0.0
230
1.0
  2
_USER
 70
     0
 71
     1
 91
        1
 92
        1
 93
       18
 72
     1
 10
116.7031999719918
 20
344.2017901184466
 11
115.8921009345184
 21
344.2017901184466
 72
     1
 10
115.8921009345184
 20
344.2017901184466
 11
115.8921009345184
 21
341.9332459007591
 72
     1
 10
115.8921009345184
 20
341.9332459007591
 11
114.6993082323507
 21
341.9332459007591
 72
     1
 10
114.6993082323507
 20
341.9332459007591
 11
114.6993082323507
 21
344.2017901184466
 72
     1
 10
114.6993082323507
 20
344.2017901184466
 11
113.5956689327826
 21
344.2017901184466
 72
     2
 10
113.5956689327826
 20
343.2472671116205
 40
0.9545230068260935
 50
90.0
 51
109.3371432194301
 73
     1
 72
     2
 10
113.4489989346789
 20
343.6652220920034
 40
0.5115800601944632
 50
109.3371432194817
 51
151.4785267424189
 73
     1
 72
     2
 10
113.8263561927603
 20
343.4601506626644
 40
0.941059735334906
 50
151.4785267423609
 51
208.5214732576695
 73
     1
 72
     2
 10
113.4489989346789
 20
343.2550792333259
 40
0.5115800601960091
 50
208.5214732576873
 51
246.6277221118449
 73
     1
 72
     2
 10
113.605438967382
 20
343.6170712520359
 40
0.9059297849852801
 50
246.6277221118183
 51
288.448076118084
 73
     1
 72
     2
 10
113.1872712337201
 20
344.8706170280725
 40
2.227384008972665
 50
288.4480761181342
 51
301.9309089499406
 73
     1
 72
     1
 10
114.365326275744
 20
342.9802663089228
 11
114.365326275744
 21
342.1077493021194
 72
     2
 10
113.0293983586273
 20
346.7728316079208
 40
4.852596863498824
 50
74.0200087416617
 51
84.8418552303638
 73
     0
 72
     2
 10
113.3182544533631
 20
343.5729410246992
 40
1.639695123940421
 50
84.84185523032329
 51
164.9381082228985
 73
     0
 72
     2
 10
112.8991266099015
 20
343.4601506626644
 40
1.205656168392989
 50
164.9381082229052
 51
195.0618917770974
 73
     0
 72
     2
 10
113.3182544533631
 20
343.3473603006295
 40
1.639695123940214
 50
195.0618917771053
 51
270.0
 73
     0
 72
     1
 10
113.3182544533631
 20
344.9870554245697
 11
116.7031999719918
 21
344.9870554245702
 72
     1
 10
116.7031999719918
 20
344.9870554245702
 11
116.7031999719918
 21
344.2017901184466
 97
       18
330
1AE
330
244
330
245
330
22D
330
22C
330
212
330
22B
330
22A
330
246
330
229
330
247
330
228
330
213
330
1AD
330
1B2
330
1B1
330
1B0
330
1AF
 75
     1
 76
     0
 52
45.0
 41
0.1
 77
     0
 78
     1
 53
45.0
 43
0.0
 44
0.0
 45
-0.0707106781186548
 46
0.0707106781186548
 79
     0
 98
        1
 10
0.0
 20
0.0
  0
HATCH
  5
298
330
71
100
AcDbEntity
  8
1
  6
Continuous
 62
     2
100
AcDbHatch
 10
0.0
 20
0.0
 30
0.0
210
0.0
220
0.0
230
1.0
  2
_USER
 70
     0
 71
     1
 91
        1
 92
        1
 93
       18
 72
     1
 10
116.7031999719918
 20
344.2017901184466
 11
115.8921009345184
 21
344.2017901184466
 72
     1
 10
115.8921009345184
 20
344.2017901184466
 11
115.8921009345184
 21
341.9332459007591
 72
     1
 10
115.8921009345184
 20
341.9332459007591
 11
114.6993082323507
 21
341.9332459007591
 72
     1
 10
114.6993082323507
 20
341.9332459007591
 11
114.6993082323507
 21
344.2017901184466
 72
     1
 10
114.6993082323507
 20
344.2017901184466
 11
113.5956689327826
 21
344.2017901184466
 72
     2
 10
113.5956689327826
 20
343.2472671116205
 40
0.9545230068260935
 50
90.0
 51
109.3371432194301
 73
     1
 72
     2
 10
113.4489989346789
 20
343.6652220920034
 40
0.5115800601944632
 50
109.3371432194817
 51
151.4785267424189
 73
     1
 72
     2
 10
113.8263561927603
 20
343.4601506626644
 40
0.941059735334906
 50
151.4785267423609
 51
208.5214732576695
 73
     1
 72
     2
 10
113.4489989346789
 20
343.2550792333259
 40
0.5115800601960091
 50
208.5214732576873
 51
246.6277221118449
 73
     1
 72
     2
 10
113.605438967382
 20
343.6170712520359
 40
0.9059297849852801
 50
246.6277221118183
 51
288.448076118084
 73
     1
 72
     2
 10
113.1872712337201
 20
344.8706170280725
 40
2.227384008972665
 50
288.4480761181342
 51
301.9309089499406
 73
     1
 72
     1
 10
114.365326275744
 20
342.9802663089228
 11
114.365326275744
 21
342.1077493021194
 72
     2
 10
113.0293983586273
 20
346.7728316079208
 40
4.852596863498824
 50
74.0200087416617
 51
84.8418552303638
 73
     0
 72
     2
 10
113.3182544533631
 20
343.5729410246992
 40
1.639695123940421
 50
84.84185523032329
 51
164.9381082228985
 73
     0
 72
     2
 10
112.8991266099015
 20
343.4601506626644
 40
1.205656168392989
 50
164.9381082229052
 51
195.0618917770974
 73
     0
 72
     2
 10
113.3182544533631
 20
343.3473603006295
 40
1.639695123940214
 50
195.0618917771053
 51
270.0
 73
     0
 72
     1
 10
113.3182544533631
 20
344.9870554245697
 11
116.7031999719918
 21
344.9870554245702
 72
     1
 10
116.7031999719918
 20
344.9870554245702
 11
116.7031999719918
 21
344.2017901184466
 97
       18
330
1AE
330
244
330
245
330
22D
330
22C
330
212
330
22B
330
22A
330
246
330
229
330
247
330
228
330
213
330
1AD
330
1B2
330
1B1
330
1B0
330
1AF
 75
     1
 76
     0
 52
45.0
 41
0.1
 77
     0
 78
     1
 53
45.0
 43
0.0
 44
0.0
 45
-0.0707106781186548
 46
0.0707106781186548
 79
     0
 98
        1
 10
0.0
 20
0.0
  0
HATCH
  5
299
330
71
100
AcDbEntity
  8
1
  6
Continuous
 62
     2
100
AcDbHatch
 10
0.0
 20
0.0
 30
0.0
210
0.0
220
0.0
230
1.0
  2
_USER
 70
     0
 71
     1
 91
        1
 92
        1
 93
       14
 72
     2
 10
97.21555297411021
 20
343.3473603006295
 40
1.639695123940507
 50
84.84185523036236
 51
164.9381082228864
 73
     1
 72
     2
 10
96.7964251306474
 20
343.4601506626644
 40
1.205656168390944
 50
164.9381082228765
 51
195.0618917770948
 73
     1
 72
     2
 10
97.21555297411021
 20
343.5729410246992
 40
1.639695123939395
 50
195.0618917770906
 51
275.1581447696395
 73
     1
 72
     2
 10
96.9266968793743
 20
346.7728316079208
 40
4.852596863498166
 50
275.1581447696249
 51
285.9799912583529
 73
     1
 72
     1
 10
98.2626247964921
 20
342.10774930212
 11
98.2626247964921
 21
342.9802663089232
 72
     2
 10
97.08456975446722
 20
344.8706170280731
 40
2.227384008972764
 50
58.06909105004111
 51
71.55192388186742
 73
     0
 72
     2
 10
97.50273748812802
 20
343.6170712520359
 40
0.9059297849849192
 50
71.55192388184098
 51
113.372277888129
 73
     0
 72
     2
 10
97.346297455426
 20
343.2550792333259
 40
0.5115800601948034
 50
113.3722778881726
 51
151.4785267423044
 73
     0
 72
     2
 10
97.7236547135063
 20
343.4601506626644
 40
0.9410597353332545
 50
151.4785267422943
 51
208.5214732577331
 73
     0
 72
     2
 10
97.346297455426
 20
343.6652220920034
 40
0.511580060194904
 50
208.5214732576956
 51
246.6277221118021
 73
     0
 72
     2
 10
97.50273748812802
 20
343.3032300732928
 40
0.9059297849853228
 50
246.627722111871
 51
288.4480761181465
 73
     0
 72
     2
 10
97.08456975446722
 20
342.0496842972563
 40
2.227384008973405
 50
288.4480761181335
 51
301.9309089499604
 73
     0
 72
     1
 10
98.2626247964921
 20
343.9400350164061
 11
98.2626247964921
 21
344.8125520232094
 72
     2
 10
96.9266968793743
 20
340.1474697174085
 40
4.85259686349804
 50
74.02000874164729
 51
84.84185523037502
 73
     1
 97
       14
330
24C
330
24D
330
24E
330
24F
330
214
330
225
330
224
330
223
330
250
330
251
330
222
330
252
330
215
330
221
 75
     1
 76
     0
 52
45.0
 41
0.1
 77
     0
 78
     1
 53
45.0
 43
0.0
 44
0.0
 45
-0.0707106781186548
 46
0.0707106781186548
 79
     0
 98
        1
 10
0.0
 20
0.0
  0
HATCH
  5
29A
330
71
100
AcDbEntity
  8
1
  6
Continuous
 62
     2
100
AcDbHatch
 10
0.0
 20
0.0
 30
0.0
210
0.0
220
0.0
230
1.0
  2
_USER
 70
     0
 71
     1
 91
        1
 92
        1
 93
       14
 72
     2
 10
97.21555297411021
 20
343.3473603006295
 40
1.639695123940507
 50
84.84185523036236
 51
164.9381082228864
 73
     1
 72
     2
 10
96.7964251306474
 20
343.4601506626644
 40
1.205656168390944
 50
164.9381082228765
 51
195.0618917770948
 73
     1
 72
     2
 10
97.21555297411021
 20
343.5729410246992
 40
1.639695123939395
 50
195.0618917770906
 51
275.1581447696395
 73
     1
 72
     2
 10
96.9266968793743
 20
346.7728316079208
 40
4.852596863498166
 50
275.1581447696249
 51
285.9799912583529
 73
     1
 72
     1
 10
98.2626247964921
 20
342.10774930212
 11
98.2626247964921
 21
342.9802663089232
 72
     2
 10
97.08456975446722
 20
344.8706170280731
 40
2.227384008972764
 50
58.06909105004111
 51
71.55192388186742
 73
     0
 72
     2
 10
97.50273748812802
 20
343.6170712520359
 40
0.9059297849849192
 50
71.55192388184098
 51
113.372277888129
 73
     0
 72
     2
 10
97.346297455426
 20
343.2550792333259
 40
0.5115800601948034
 50
113.3722778881726
 51
151.4785267423044
 73
     0
 72
     2
 10
97.7236547135063
 20
343.4601506626644
 40
0.9410597353332545
 50
151.4785267422943
 51
208.5214732577331
 73
     0
 72
     2
 10
97.346297455426
 20
343.6652220920034
 40
0.511580060194904
 50
208.5214732576956
 51
246.6277221118021
 73
     0
 72
     2
 10
97.50273748812802
 20
343.3032300732928
 40
0.9059297849853228
 50
246.627722111871
 51
288.4480761181465
 73
     0
 72
     2
 10
97.08456975446722
 20
342.0496842972563
 40
2.227384008973405
 50
288.4480761181335
 51
301.9309089499604
 73
     0
 72
     1
 10
98.2626247964921
 20
343.9400350164061
 11
98.2626247964921
 21
344.8125520232094
 72
     2
 10
96.9266968793743
 20
340.1474697174085
 40
4.85259686349804
 50
74.02000874164729
 51
84.84185523037502
 73
     1
 97
       14
330
24C
330
24D
330
24E
330
24F
330
214
330
225
330
224
330
223
330
250
330
251
330
222
330
252
330
215
330
221
 75
     1
 76
     0
 52
45.0
 41
0.1
 77
     0
 78
     1
 53
45.0
 43
0.0
 44
0.0
 45
-0.0707106781186548
 46
0.0707106781186548
 79
     0
 98
        1
 10
0.0
 20
0.0
  0
ENDBLK
  5
73
330
71
100
AcDbEntity
  8
0
100
AcDbBlockEnd
  0
BLOCK
  5
75
330
74
100
AcDbEntity
  8
0
100
AcDbBlockBegin
  2
_punkt
 70
     0
 10
214.1000003814747
 20
334.6397459007428
 30
0.0
  3
_punkt
  1

  0
LINE
  5
29B
330
74
100
AcDbEntity
  8
1
  6
Continuous
 62
     2
100
AcDbLine
 10
214.1000003814747
 20
334.6397459007428
 30
0.0
 11
219.1000003814737
 21
334.6397459007428
 31
0.0
  0
LINE
  5
29C
330
74
100
AcDbEntity
  8
1
  6
Continuous
 62
     2
100
AcDbLine
 10
214.1000003814747
 20
334.6397459007428
 30
0.0
 11
214.1000003814747
 21
329.6397459007427
 31
0.0
  0
ENDBLK
  5
76
330
74
100
AcDbEntity
  8
0
100
AcDbBlockEnd
  0
BLOCK
  5
7A
330
77
100
AcDbEntity
  8
0
100
AcDbBlockBegin
  2
A4I_CS
 70
     0
 10
214.1000003814747
 20
329.6397459007427
 30
0.0
  3
A4I_CS
  1

  0
INSERT
  5
78
330
77
100
AcDbEntity
  8
1
100
AcDbBlockReference
  2
_rahmen
 10
214.1000003814747
 20
329.6397459007427
 30
0.0
  0
INSERT
  5
79
330
77
100
AcDbEntity
  8
1
100
AcDbBlockReference
  2
_punkt
 10
214.1000003814747
 20
334.6397459007428
 30
0.0
  0
ENDBLK
  5
7B
330
77
100
AcDbEntity
  8
0
100
AcDbBlockEnd
  0
BLOCK
  5
84
330
7C
100
AcDbEntity
  8
0
100
AcDbBlockBegin
  2
1
 70
     0
 10
0.0
 20
0.0
 30
0.0
  3
1
  1

  0
INSERT
  5
7D
330
7C
100
AcDbEntity
  8
0
100
AcDbBlockReference
  2
AllgSicht1
 10
153.2000009999999
 20
412.0
 30
0.0
  0
INSERT
  5
7E
330
7C
100
AcDbEntity
  8
0
100
AcDbBlockReference
  2
Drfsicht1
 10
35.5
 20
398.00000000001
 30
0.0
  0
INSERT
  5
7F
330
7C
100
AcDbEntity
  8
0
100
AcDbBlockReference
  2
Rckans1
 10
153.2000007629393
 20
474.4999999515712
 30
0.0
  0
INSERT
  5
80
330
7C
100
AcDbEntity
  8
0
100
AcDbBlockReference
  2
SA_Links1
 10
93.60000038146492
 20
474.4999999515713
 30
0.0
  0
INSERT
  5
81
330
7C
100
AcDbEntity
  8
0
100
AcDbBlockReference
  2
SA_Rechts1
 10
-47.60000038145948
 20
474.4999999515712
 30
0.0
  0
INSERT
  5
82
330
7C
100
AcDbEntity
  8
0
100
AcDbBlockReference
  2
Vordans1
 10
35.50000000000007
 20
474.4999999515713
 30
0.0
  0
INSERT
  5
83
330
7C
100
AcDbEntity
  8
0
100
AcDbBlockReference
  2
A4I_CS
 10
214.1000003814747
 20
329.6397459007427
 30
0.0
  0
ENDBLK
  5
85
330
7C
100
AcDbEntity
  8
0
100
AcDbBlockEnd
  0
BLOCK
  5
D2
330
C9
100
AcDbEntity
  8
0
100
AcDbBlockBegin
  2
*D17
 70
     1
 10
0.0
 20
0.0
 30
0.0
  3
*D17
  1

  0
LINE
  5
CA
330
C9
100
AcDbEntity
  8
1
  6
Continuous
 62
     2
100
AcDbLine
 10
-9.361203861605
 20
390.0000000469536
 30
0.0
 11
-9.361203861605
 21
397.0000000469536
 31
0.0
  0
LINE
  5
CB
330
C9
100
AcDbEntity
  8
1
  6
Continuous
 62
     2
100
AcDbLine
 10
-9.361203861605
 20
397.0000000469536
 30
0.0
 11
-9.361203861605
 21
399.2000000469535
 31
0.0
  0
LINE
  5
CC
330
C9
100
AcDbEntity
  8
1
  6
Continuous
 62
     2
100
AcDbLine
 10
-9.361203861605
 20
399.2000000469535
 30
0.0
 11
-9.361203861605
 21
406.2000000469535
 31
0.0
  0
LINE
  5
CD
330
C9
100
AcDbEntity
  8
1
  6
Continuous
 62
     2
100
AcDbLine
 10
-2.6000003814698
 20
397.0000000469536
 30
0.0
 11
-10.861203861605
 21
397.0000000469536
 31
0.0
  0
LINE
  5
CE
330
C9
100
AcDbEntity
  8
1
  6
Continuous
 62
     2
100
AcDbLine
 10
-2.6000003814698
 20
399.2000000469535
 30
0.0
 11
-10.861203861605
 21
399.2000000469535
 31
0.0
  0
SOLID
  5
CF
330
C9
100
AcDbEntity
  8
1
 62
     2
100
AcDbTrace
 10
-8.90042012004911
 20
393.5000000469536
 30
0.0
 11
-9.82198760316088
 21
393.5000000469536
 31
0.0
 12
-9.361203861605
 22
397.0000000469536
 32
0.0
 13
-9.361203861605
 23
397.0000000469536
 33
0.0
  0
SOLID
  5
D0
330
C9
100
AcDbEntity
  8
1
 62
     2
100
AcDbTrace
 10
-9.82198760316088
 20
402.7000000469535
 30
0.0
 11
-8.90042012004911
 21
402.7000000469535
 31
0.0
 12
-9.361203861605
 22
399.2000000469535
 32
0.0
 13
-9.361203861605
 23
399.2000000469535
 33
0.0
  0
MTEXT
  5
D1
330
C9
100
AcDbEntity
  8
1
 62
     3
100
AcDbMText
 10
-11.711203861605
 20
394.76720482603
 30
0.0
 40
3.5
 41
0.0
 71
     7
 72
     1
  1
2,2
  7
CONVERTER_11
 11
0.0
 21
1.0
 31
0.0
 73
     1
 44
0.60024009603842
  0
ENDBLK
  5
D3
330
C9
100
AcDbEntity
  8
0
100
AcDbBlockEnd
  0
BLOCK
  5
134
330
12D
100
AcDbEntity
  8
0
100
AcDbBlockBegin
  2
*D18
 70
     1
 10
0.0
 20
0.0
 30
0.0
  3
*D18
  1

  0
LINE
  5
12E
330
12D
100
AcDbEntity
  8
1
  6
Continuous
 62
     2
100
AcDbLine
 10
73.09999961853015
 20
418.7789427831143
 30
0.0
 11
-2.10000038146974
 21
418.7789427831143
 31
0.0
  0
LINE
  5
12F
330
12D
100
AcDbEntity
  8
1
  6
Continuous
 62
     2
100
AcDbLine
 10
73.09999961853015
 20
464.9112775790844
 30
0.0
 11
73.09999961853015
 21
416.7789427831143
 31
0.0
  0
LINE
  5
130
330
12D
100
AcDbEntity
  8
1
  6
Continuous
 62
     2
100
AcDbLine
 10
-2.10000038146974
 20
458.1999999515714
 30
0.0
 11
-2.10000038146974
 21
416.7789427831143
 31
0.0
  0
SOLID
  5
131
330
12D
100
AcDbEntity
  8
1
 62
     2
100
AcDbTrace
 10
69.59999961853015
 20
418.3181590415584
 30
0.0
 11
69.59999961853015
 21
419.2397265246702
 31
0.0
 12
73.09999961853015
 22
418.7789427831143
 32
0.0
 13
73.09999961853015
 23
418.7789427831143
 33
0.0
  0
SOLID
  5
132
330
12D
100
AcDbEntity
  8
1
 62
     2
100
AcDbTrace
 10
1.39999961853026
 20
419.2397265246702
 30
0.0
 11
1.39999961853026
 21
418.3181590415584
 31
0.0
 12
-2.10000038146974
 22
418.7789427831143
 32
0.0
 13
-2.10000038146974
 23
418.7789427831143
 33
0.0
  0
MTEXT
  5
133
330
12D
100
AcDbEntity
  8
1
 62
     3
100
AcDbMText
 10
30.68750000000004
 20
421.1289427831143
 30
0.0
 40
3.5
 41
0.0
 71
     7
 72
     1
  1
75,2
  7
CONVERTER_11
 11
0.9999999999970619
 21
2.424068405545306E-6
 31
0.0
 73
     1
 44
0.60024009603842
  0
ENDBLK
  5
135
330
12D
100
AcDbEntity
  8
0
100
AcDbBlockEnd
  0
BLOCK
  5
13F
330
138
100
AcDbEntity
  8
0
100
AcDbBlockBegin
  2
*D19
 70
     1
 10
0.0
 20
0.0
 30
0.0
  3
*D19
  1

  0
LINE
  5
139
330
138
100
AcDbEntity
  8
1
  6
Continuous
 62
     2
100
AcDbLine
 10
27.64999961853022
 20
431.344020229336
 30
0.0
 11
73.09999961853015
 21
431.344020229336
 31
0.0
  0
LINE
  5
13A
330
138
100
AcDbEntity
  8
1
  6
Continuous
 62
     2
100
AcDbLine
 10
27.64999961853022
 20
457.6355793757629
 30
0.0
 11
27.64999961853022
 21
429.344020229336
 31
0.0
  0
LINE
  5
13B
330
138
100
AcDbEntity
  8
1
  6
Continuous
 62
     2
100
AcDbLine
 10
73.09999961853015
 20
464.9112775790842
 30
0.0
 11
73.09999961853015
 21
429.344020229336
 31
0.0
  0
SOLID
  5
13C
330
138
100
AcDbEntity
  8
1
 62
     2
100
AcDbTrace
 10
31.14999961853022
 20
431.8048039708918
 30
0.0
 11
31.14999961853022
 21
430.8832364877801
 31
0.0
 12
27.64999961853022
 22
431.344020229336
 32
0.0
 13
27.64999961853022
 23
431.344020229336
 33
0.0
  0
SOLID
  5
13D
330
138
100
AcDbEntity
  8
1
 62
     2
100
AcDbTrace
 10
69.59999961853015
 20
430.8832364877801
 30
0.0
 11
69.59999961853015
 21
431.8048039708918
 31
0.0
 12
73.09999961853015
 22
431.344020229336
 32
0.0
 13
73.09999961853015
 23
431.344020229336
 33
0.0
  0
MTEXT
  5
13E
330
138
100
AcDbEntity
  8
1
 62
     3
100
AcDbMText
 10
44.41040509891893
 20
433.694020229336
 30
0.0
 40
3.5
 41
0.0
 71
     7
 72
     1
  1
45,45
  7
CONVERTER_11
 11
0.9999999999970619
 21
2.424068405545306E-6
 31
0.0
 73
     1
 44
0.60024009603842
  0
ENDBLK
  5
140
330
138
100
AcDbEntity
  8
0
100
AcDbBlockEnd
  0
BLOCK
  5
14A
330
143
100
AcDbEntity
  8
0
100
AcDbBlockBegin
  2
*D20
 70
     1
 10
0.0
 20
0.0
 30
0.0
  3
*D20
  1

  0
LINE
  5
144
330
143
100
AcDbEntity
  8
1
  6
Continuous
 62
     2
100
AcDbLine
 10
27.6499996185302
 20
442.185590628678
 30
0.0
 11
45.14999961853024
 21
442.185590628678
 31
0.0
  0
LINE
  5
145
330
143
100
AcDbEntity
  8
1
  6
Continuous
 62
     2
100
AcDbLine
 10
27.6499996185302
 20
457.6355793757629
 30
0.0
 11
27.6499996185302
 21
440.185590628678
 31
0.0
  0
LINE
  5
146
330
143
100
AcDbEntity
  8
1
  6
Continuous
 62
     2
100
AcDbLine
 10
45.14999961853024
 20
459.8999999515713
 30
0.0
 11
45.14999961853024
 21
440.185590628678
 31
0.0
  0
SOLID
  5
147
330
143
100
AcDbEntity
  8
1
 62
     2
100
AcDbTrace
 10
31.1499996185302
 20
442.6463743702338
 30
0.0
 11
31.1499996185302
 21
441.7248068871221
 31
0.0
 12
27.6499996185302
 22
442.185590628678
 32
0.0
 13
27.6499996185302
 23
442.185590628678
 33
0.0
  0
SOLID
  5
148
330
143
100
AcDbEntity
  8
1
 62
     2
100
AcDbTrace
 10
41.64999961853024
 20
441.7248068871221
 30
0.0
 11
41.64999961853024
 21
442.6463743702338
 31
0.0
 12
45.14999961853024
 22
442.185590628678
 32
0.0
 13
45.14999961853024
 23
442.185590628678
 33
0.0
  0
MTEXT
  5
149
330
143
100
AcDbEntity
  8
1
 62
     3
100
AcDbMText
 10
31.21250000000001
 20
444.535590628678
 30
0.0
 40
3.5
 41
0.0
 71
     7
 72
     1
  1
17,5
  7
CONVERTER_11
 11
0.9999999999970619
 21
2.424068405545306E-6
 31
0.0
 73
     1
 44
0.60024009603842
  0
ENDBLK
  5
14B
330
143
100
AcDbEntity
  8
0
100
AcDbBlockEnd
  0
BLOCK
  5
155
330
14E
100
AcDbEntity
  8
0
100
AcDbBlockBegin
  2
*D21
 70
     1
 10
0.0
 20
0.0
 30
0.0
  3
*D21
  1

  0
LINE
  5
14F
330
14E
100
AcDbEntity
  8
1
  6
Continuous
 62
     2
100
AcDbLine
 10
-13.52192227921657
 20
493.9999999515714
 30
0.0
 11
-13.52192227921657
 21
454.9999999515714
 31
0.0
  0
LINE
  5
150
330
14E
100
AcDbEntity
  8
1
  6
Continuous
 62
     2
100
AcDbLine
 10
0.14999961853027
 20
493.9999999515714
 30
0.0
 11
-15.02192227921657
 21
493.9999999515714
 31
0.0
  0
LINE
  5
151
330
14E
100
AcDbEntity
  8
1
  6
Continuous
 62
     2
100
AcDbLine
 10
7.94999961853026
 20
454.9999999515714
 30
0.0
 11
-15.02192227921657
 21
454.9999999515714
 31
0.0
  0
SOLID
  5
152
330
14E
100
AcDbEntity
  8
1
 62
     2
100
AcDbTrace
 10
-13.06113853766069
 20
490.4999999515714
 30
0.0
 11
-13.98270602077246
 21
490.4999999515714
 31
0.0
 12
-13.52192227921657
 22
493.9999999515714
 32
0.0
 13
-13.52192227921657
 23
493.9999999515714
 33
0.0
  0
SOLID
  5
153
330
14E
100
AcDbEntity
  8
1
 62
     2
100
AcDbTrace
 10
-13.98270602077246
 20
458.4999999515714
 30
0.0
 11
-13.06113853766069
 21
458.4999999515714
 31
0.0
 12
-13.52192227921657
 22
454.9999999515714
 32
0.0
 13
-13.52192227921657
 23
454.9999999515714
 33
0.0
  0
MTEXT
  5
154
330
14E
100
AcDbEntity
  8
1
 62
     3
100
AcDbMText
 10
-15.52192227921657
 20
471.824650715832
 30
0.0
 40
3.5
 41
0.0
 71
     7
 72
     1
  1
39
  7
CONVERTER_11
 11
0.0
 21
1.0
 31
0.0
 73
     1
 44
0.60024009603842
  0
ENDBLK
  5
156
330
14E
100
AcDbEntity
  8
0
100
AcDbBlockEnd
  0
BLOCK
  5
160
330
159
100
AcDbEntity
  8
0
100
AcDbBlockBegin
  2
*D22
 70
     1
 10
0.0
 20
0.0
 30
0.0
  3
*D22
  1

  0
LINE
  5
15A
330
159
100
AcDbEntity
  8
1
  6
Continuous
 62
     2
100
AcDbLine
 10
-6.36928122945837
 20
493.9999999515714
 30
0.0
 11
-6.36928122945837
 21
460.9999999515714
 31
0.0
  0
LINE
  5
15B
330
159
100
AcDbEntity
  8
1
  6
Continuous
 62
     2
100
AcDbLine
 10
0.14999961853028
 20
493.9999999515714
 30
0.0
 11
-7.86928122945837
 21
493.9999999515714
 31
0.0
  0
LINE
  5
15C
330
159
100
AcDbEntity
  8
1
  6
Continuous
 62
     2
100
AcDbLine
 10
11.54999961853031
 20
460.9999999515714
 30
0.0
 11
-7.86928122945837
 21
460.9999999515714
 31
0.0
  0
SOLID
  5
15D
330
159
100
AcDbEntity
  8
1
 62
     2
100
AcDbTrace
 10
-5.90849748790249
 20
490.4999999515714
 30
0.0
 11
-6.83006497101425
 21
490.4999999515714
 31
0.0
 12
-6.36928122945837
 22
493.9999999515714
 32
0.0
 13
-6.36928122945837
 23
493.9999999515714
 33
0.0
  0
SOLID
  5
15E
330
159
100
AcDbEntity
  8
1
 62
     2
100
AcDbTrace
 10
-6.83006497101425
 20
464.4999999515714
 30
0.0
 11
-5.90849748790248
 21
464.4999999515714
 31
0.0
 12
-6.36928122945837
 22
460.9999999515714
 32
0.0
 13
-6.36928122945837
 23
460.9999999515714
 33
0.0
  0
MTEXT
  5
15F
330
159
100
AcDbEntity
  8
1
 62
     3
100
AcDbMText
 10
-8.36928122945837
 20
472.089198636757
 30
0.0
 40
3.5
 41
0.0
 71
     7
 72
     1
  1
33
  7
CONVERTER_11
 11
0.0
 21
1.0
 31
0.0
 73
     1
 44
0.60024009603842
  0
ENDBLK
  5
161
330
159
100
AcDbEntity
  8
0
100
AcDbBlockEnd
  0
ENDSEC
  0
SECTION
  2
ENTITIES
  0
INSERT
  5
86
330
1F
100
AcDbEntity
  8
1
100
AcDbBlockReference
  2
1
 10
0.0
 20
0.0
 30
0.0
  0
ENDSEC
  0
SECTION
  2
OBJECTS
  0
DICTIONARY
  5
C
330
0
100
AcDbDictionary
281
     1
  3
ACAD_GROUP
350
D
  3
ACAD_LAYOUT
350
1A
  3
ACAD_MATERIAL
350
3B
  3
ACAD_MLEADERSTYLE
350
2C4
  3
ACAD_MLINESTYLE
350
17
  3
ACAD_PLOTSETTINGS
350
19
  3
ACAD_PLOTSTYLENAME
350
E
  3
ACAD_TABLESTYLE
350
2C3
  3
ACAD_VISUALSTYLE
350
2A
  0
DICTIONARY
  5
D
102
{ACAD_REACTORS
330
C
102
}
330
C
100
AcDbDictionary
281
     1
  0
DICTIONARY
  5
1A
102
{ACAD_REACTORS
330
C
102
}
330
C
100
AcDbDictionary
281
     1
  3
Layout1
350
1E
  3
Layout2
350
26
  3
Model
350
22
  0
DICTIONARY
  5
3B
102
{ACAD_REACTORS
330
C
102
}
330
C
100
AcDbDictionary
281
     1
  3
ByBlock
350
3D
  3
ByLayer
350
3C
  3
Global
350
3E
  0
DICTIONARY
  5
2C4
102
{ACAD_REACTORS
330
C
102
}
330
C
100
AcDbDictionary
281
     1
  0
DICTIONARY
  5
17
102
{ACAD_REACTORS
330
C
102
}
330
C
100
AcDbDictionary
281
     1
  3
Standard
350
18
  0
DICTIONARY
  5
19
102
{ACAD_REACTORS
330
C
102
}
330
C
100
AcDbDictionary
281
     1
  0
ACDBDICTIONARYWDFLT
  5
E
102
{ACAD_REACTORS
330
C
102
}
330
C
100
AcDbDictionary
281
     1
  3
Normal
350
F
100
AcDbDictionaryWithDefault
340
F
  0
DICTIONARY
  5
2C3
102
{ACAD_REACTORS
330
C
102
}
330
C
100
AcDbDictionary
281
     1
  0
DICTIONARY
  5
2A
102
{ACAD_REACTORS
330
C
102
}
330
C
100
AcDbDictionary
281
     1
  3
2dWireframe
350
2F
  3
3D Hidden
350
31
  3
3dWireframe
350
30
  3
Basic
350
32
  3
Brighten
350
36
  3
ColorChange
350
3A
  3
Conceptual
350
34
  3
Dim
350
35
  3
Facepattern
350
39
  3
Flat
350
2B
  3
FlatWithEdges
350
2C
  3
Gouraud
350
2D
  3
GouraudWithEdges
350
2E
  3
Linepattern
350
38
  3
Realistic
350
33
  3
Thicken
350
37
  0
LAYOUT
  5
1E
102
{ACAD_REACTORS
330
1A
102
}
330
1A
100
AcDbPlotSettings
  1

  2
none_device
  4

  6

 40
0.0
 41
0.0
 42
0.0
 43
0.0
 44
0.0
 45
0.0
 46
0.0
 47
0.0
 48
0.0
 49
0.0
140
0.0
141
0.0
142
1.0
143
1.0
 70
   688
 72
     0
 73
     0
 74
     5
  7

 75
    16
 76
     0
 77
     2
 78
   300
147
1.0
148
0.0
149
0.0
100
AcDbLayout
  1
Layout1
 70
     1
 71
     1
 10
0.0
 20
0.0
 11
12.0
 21
9.0
 12
0.0
 22
0.0
 32
0.0
 14
1.00000000000000E+20
 24
1.00000000000000E+20
 34
1.00000000000000E+20
 15
-1.00000000000000E+20
 25
-1.00000000000000E+20
 35
-1.00000000000000E+20
146
0.0
 13
0.0
 23
0.0
 33
0.0
 16
1.0
 26
0.0
 36
0.0
 17
0.0
 27
1.0
 37
0.0
 76
     0
330
1B
  0
LAYOUT
  5
26
102
{ACAD_REACTORS
330
1A
102
}
330
1A
100
AcDbPlotSettings
  1

  2
none_device
  4

  6

 40
0.0
 41
0.0
 42
0.0
 43
0.0
 44
0.0
 45
0.0
 46
0.0
 47
0.0
 48
0.0
 49
0.0
140
0.0
141
0.0
142
1.0
143
1.0
 70
   688
 72
     0
 73
     0
 74
     5
  7

 75
    16
 76
     0
 77
     2
 78
   300
147
1.0
148
0.0
149
0.0
100
AcDbLayout
  1
Layout2
 70
     1
 71
     2
 10
0.0
 20
0.0
 11
0.0
 21
0.0
 12
0.0
 22
0.0
 32
0.0
 14
0.0
 24
0.0
 34
0.0
 15
0.0
 25
0.0
 35
0.0
146
0.0
 13
0.0
 23
0.0
 33
0.0
 16
1.0
 26
0.0
 36
0.0
 17
0.0
 27
1.0
 37
0.0
 76
     0
330
23
  0
LAYOUT
  5
22
102
{ACAD_REACTORS
330
1A
102
}
330
1A
100
AcDbPlotSettings
  1

  2
none_device
  4

  6

 40
0.0
 41
0.0
 42
0.0
 43
0.0
 44
0.0
 45
0.0
 46
0.0
 47
0.0
 48
0.0
 49
0.0
140
0.0
141
0.0
142
1.0
143
1.0
 70
  1712
 72
     0
 73
     0
 74
     0
  7

 75
     0
 76
     0
 77
     2
 78
   300
147
1.0
148
0.0
149
0.0
100
AcDbLayout
  1
Model
 70
     1
 71
     0
 10
0.0
 20
0.0
 11
12.0
 21
9.0
 12
0.0
 22
0.0
 32
0.0
 14
-77.89999961852436
 24
329.6397459007427
 34
0.0
 15
219.1000003814737
 25
539.6397459007428
 35
0.0
146
0.0
 13
0.0
 23
0.0
 33
0.0
 16
1.0
 26
0.0
 36
0.0
 17
0.0
 27
1.0
 37
0.0
 76
     0
330
1F
331
29
  0
MATERIAL
  5
3D
102
{ACAD_REACTORS
330
3B
102
}
102
{ACAD_XDICTIONARY
360
2BF
102
}
330
3B
100
AcDbMaterial
  1
ByBlock
  0
MATERIAL
  5
3C
102
{ACAD_REACTORS
330
3B
102
}
102
{ACAD_XDICTIONARY
360
2BD
102
}
330
3B
100
AcDbMaterial
  1
ByLayer
  0
MATERIAL
  5
3E
102
{ACAD_REACTORS
330
3B
102
}
102
{ACAD_XDICTIONARY
360
2C1
102
}
330
3B
100
AcDbMaterial
  1
Global
  0
MLINESTYLE
  5
18
102
{ACAD_REACTORS
330
17
102
}
330
17
100
AcDbMlineStyle
  2
Standard
 70
     0
  3

 62
   256
 51
90.0
 52
90.0
 71
     2
 49
0.5
 62
   256
  6
BYLAYER
 49
-0.5
 62
   256
  6
BYLAYER
  0
ACDBPLACEHOLDER
  5
F
102
{ACAD_REACTORS
330
E
102
}
330
E
  0
VISUALSTYLE
  5
2F
102
{ACAD_REACTORS
330
2A
102
}
102
{ACAD_XDICTIONARY
360
2A5
102
}
330
2A
100
AcDbVisualStyle
  2
2dWireframe
 70
     4
 71
     0
 72
     2
 73
     0
 90
        0
 40
-0.6
 41
-30.0
 62
     5
 63
     7
421
 16777215
 74
     1
 91
        4
 64
     7
 65
   257
 75
     1
175
     1
 42
1.0
 92
        0
 66
   257
 43
1.0
 76
     1
 77
     6
 78
     2
 67
     7
 79
     5
170
     0
171
     0
290
     0
174
     0
 93
        1
 44
0.0
173
     0
291
     0
 45
0.0
1001
ACAD
1000
AcDbSavedByObjectVersion
1070
     0
  0
VISUALSTYLE
  5
31
102
{ACAD_REACTORS
330
2A
102
}
102
{ACAD_XDICTIONARY
360
2A9
102
}
330
2A
100
AcDbVisualStyle
  2
3D Hidden
 70
     6
 71
     1
 72
     2
 73
     2
 90
        0
 40
-0.6
 41
-30.0
 62
     5
 63
     7
421
 16777215
 74
     2
 91
        2
 64
     7
 65
   257
 75
     2
175
     1
 42
40.0
 92
        0
 66
   257
 43
1.0
 76
     1
 77
     6
 78
     2
 67
     7
 79
     3
170
     0
171
     0
290
     0
174
     0
 93
        1
 44
0.0
173
     0
291
     0
 45
0.0
1001
ACAD
1000
AcDbSavedByObjectVersion
1070
     0
  0
VISUALSTYLE
  5
30
102
{ACAD_REACTORS
330
2A
102
}
102
{ACAD_XDICTIONARY
360
2A7
102
}
330
2A
100
AcDbVisualStyle
  2
3dWireframe
 70
     5
 71
     0
 72
     2
 73
     0
 90
        0
 40
-0.6
 41
-30.0
 62
     5
 63
     7
421
 16777215
 74
     1
 91
        4
 64
     7
 65
   257
 75
     1
175
     1
 42
1.0
 92
        0
 66
   257
 43
1.0
 76
     1
 77
     6
 78
     2
 67
     7
 79
     5
170
     0
171
     0
290
     0
174
     0
 93
        1
 44
0.0
173
     0
291
     0
 45
0.0
1001
ACAD
1000
AcDbSavedByObjectVersion
1070
     0
  0
VISUALSTYLE
  5
32
102
{ACAD_REACTORS
330
2A
102
}
102
{ACAD_XDICTIONARY
360
2AB
102
}
330
2A
100
AcDbVisualStyle
  2
Basic
 70
     7
 71
     1
 72
     0
 73
     1
 90
        0
 40
-0.6
 41
-30.0
 62
     5
 63
     7
421
 16777215
 74
     0
 91
        4
 64
     7
 65
   257
 75
     1
175
     1
 42
1.0
 92
        8
 66
     7
 43
1.0
 76
     1
 77
     6
 78
     2
 67
     7
 79
     5
170
     0
171
     0
290
     0
174
     0
 93
        1
 44
0.0
173
     0
291
     1
 45
0.0
1001
ACAD
1000
AcDbSavedByObjectVersion
1070
     0
  0
VISUALSTYLE
  5
36
102
{ACAD_REACTORS
330
2A
102
}
102
{ACAD_XDICTIONARY
360
2B3
102
}
330
2A
100
AcDbVisualStyle
  2
Brighten
 70
    12
 71
     2
 72
     2
 73
     0
 90
        0
 40
-0.6
 41
-30.0
 62
     5
 63
     7
421
 16777215
 74
     1
 91
        4
 64
     7
 65
   257
 75
     1
175
     1
 42
1.0
 92
        8
 66
     7
 43
1.0
 76
     1
 77
     6
 78
     2
 67
     7
 79
     5
170
     0
171
     0
290
     0
174
     0
 93
        1
 44
50.0
173
     0
291
     1
 45
0.0
1001
ACAD
1000
AcDbSavedByObjectVersion
1070
     0
  0
VISUALSTYLE
  5
3A
102
{ACAD_REACTORS
330
2A
102
}
102
{ACAD_XDICTIONARY
360
2BB
102
}
330
2A
100
AcDbVisualStyle
  2
ColorChange
 70
    16
 71
     2
 72
     2
 73
     3
 90
        0
 40
-0.6
 41
-30.0
 62
     5
 63
     8
421
  8421504
 74
     1
 91
        4
 64
     7
 65
   257
 75
     1
175
     1
 42
1.0
 92
        8
 66
     8
424
  8421504
 43
1.0
 76
     1
 77
     6
 78
     2
 67
     7
 79
     5
170
     0
171
     0
290
     0
174
     0
 93
        1
 44
0.0
173
     0
291
     1
 45
0.0
1001
ACAD
1000
AcDbSavedByObjectVersion
1070
     0
  0
VISUALSTYLE
  5
34
102
{ACAD_REACTORS
330
2A
102
}
102
{ACAD_XDICTIONARY
360
2AF
102
}
330
2A
100
AcDbVisualStyle
  2
Conceptual
 70
     9
 71
     3
 72
     2
 73
     0
 90
        0
 40
-0.6
 41
-30.0
 62
     5
 63
     7
421
 16777215
 74
     2
 91
        2
 64
     7
 65
   257
 75
     1
175
     1
 42
40.0
 92
        8
 66
     7
 43
1.0
 76
     1
 77
     6
 78
     2
 67
     7
 79
     3
170
     0
171
     0
290
     0
174
     0
 93
        1
 44
0.0
173
     0
291
     0
 45
0.0
1001
ACAD
1000
AcDbSavedByObjectVersion
1070
     0
  0
VISUALSTYLE
  5
35
102
{ACAD_REACTORS
330
2A
102
}
102
{ACAD_XDICTIONARY
360
2B1
102
}
330
2A
100
AcDbVisualStyle
  2
Dim
 70
    11
 71
     2
 72
     2
 73
     0
 90
        0
 40
-0.6
 41
-30.0
 62
     5
 63
     7
421
 16777215
 74
     1
 91
        4
 64
     7
 65
   257
 75
     1
175
     1
 42
1.0
 92
        8
 66
     7
 43
1.0
 76
     1
 77
     6
 78
     2
 67
     7
 79
     5
170
     0
171
     0
290
     0
174
     0
 93
        1
 44
-50.0
173
     0
291
     1
 45
0.0
1001
ACAD
1000
AcDbSavedByObjectVersion
1070
     0
  0
VISUALSTYLE
  5
39
102
{ACAD_REACTORS
330
2A
102
}
102
{ACAD_XDICTIONARY
360
2B9
102
}
330
2A
100
AcDbVisualStyle
  2
Facepattern
 70
    15
 71
     2
 72
     2
 73
     0
 90
        0
 40
-0.6
 41
-30.0
 62
     5
 63
     7
421
 16777215
 74
     1
 91
        4
 64
     7
 65
   257
 75
     1
175
     1
 42
1.0
 92
        8
 66
     7
 43
1.0
 76
     1
 77
     6
 78
     2
 67
     7
 79
     5
170
     0
171
     0
290
     0
174
     0
 93
        1
 44
0.0
173
     0
291
     1
 45
0.0
1001
ACAD
1000
AcDbSavedByObjectVersion
1070
     0
  0
VISUALSTYLE
  5
2B
102
{ACAD_REACTORS
330
2A
102
}
102
{ACAD_XDICTIONARY
360
29D
102
}
330
2A
100
AcDbVisualStyle
  2
Flat
 70
     0
 71
     2
 72
     1
 73
     1
 90
        2
 40
-0.6
 41
30.0
 62
     5
 63
     7
421
 16777215
 74
     0
 91
        4
 64
     7
 65
   257
 75
     1
175
     1
 42
1.0
 92
        8
 66
     7
 43
1.0
 76
     1
 77
     6
 78
     2
 67
     7
 79
     5
170
     0
171
     0
290
     0
174
     0
 93
       13
 44
0.0
173
     0
291
     1
 45
0.0
1001
ACAD
1000
AcDbSavedByObjectVersion
1070
     0
  0
VISUALSTYLE
  5
2C
102
{ACAD_REACTORS
330
2A
102
}
102
{ACAD_XDICTIONARY
360
29F
102
}
330
2A
100
AcDbVisualStyle
  2
FlatWithEdges
 70
     1
 71
     2
 72
     1
 73
     1
 90
        2
 40
-0.6
 41
30.0
 62
     5
 63
     7
421
 16777215
 74
     1
 91
        4
 64
     7
 65
   257
 75
     1
175
     1
 42
1.0
 92
        0
 66
   257
 43
1.0
 76
     1
 77
     6
 78
     2
 67
     7
 79
     5
170
     0
171
     0
290
     0
174
     0
 93
       13
 44
0.0
173
     0
291
     1
 45
0.0
1001
ACAD
1000
AcDbSavedByObjectVersion
1070
     0
  0
VISUALSTYLE
  5
2D
102
{ACAD_REACTORS
330
2A
102
}
102
{ACAD_XDICTIONARY
360
2A1
102
}
330
2A
100
AcDbVisualStyle
  2
Gouraud
 70
     2
 71
     2
 72
     2
 73
     1
 90
        2
 40
-0.6
 41
30.0
 62
     5
 63
     7
421
 16777215
 74
     0
 91
        4
 64
     7
 65
   257
 75
     1
175
     1
 42
1.0
 92
        0
 66
     7
 43
1.0
 76
     1
 77
     6
 78
     2
 67
     7
 79
     5
170
     0
171
     0
290
     0
174
     0
 93
       13
 44
0.0
173
     0
291
     1
 45
0.0
1001
ACAD
1000
AcDbSavedByObjectVersion
1070
     0
  0
VISUALSTYLE
  5
2E
102
{ACAD_REACTORS
330
2A
102
}
102
{ACAD_XDICTIONARY
360
2A3
102
}
330
2A
100
AcDbVisualStyle
  2
GouraudWithEdges
 70
     3
 71
     2
 72
     2
 73
     1
 90
        2
 40
-0.6
 41
30.0
 62
     5
 63
     7
421
 16777215
 74
     1
 91
        4
 64
     7
 65
   257
 75
     1
175
     1
 42
1.0
 92
        0
 66
   257
 43
1.0
 76
     1
 77
     6
 78
     2
 67
     7
 79
     5
170
     0
171
     0
290
     0
174
     0
 93
       13
 44
0.0
173
     0
291
     1
 45
0.0
1001
ACAD
1000
AcDbSavedByObjectVersion
1070
     0
  0
VISUALSTYLE
  5
38
102
{ACAD_REACTORS
330
2A
102
}
102
{ACAD_XDICTIONARY
360
2B7
102
}
330
2A
100
AcDbVisualStyle
  2
Linepattern
 70
    14
 71
     2
 72
     2
 73
     0
 90
        0
 40
-0.6
 41
-30.0
 62
     5
 63
     7
421
 16777215
 74
     1
 91
        4
 64
     7
 65
   257
 75
     7
175
     7
 42
1.0
 92
        8
 66
     7
 43
1.0
 76
     1
 77
     6
 78
     2
 67
     7
 79
     5
170
     0
171
     0
290
     0
174
     0
 93
        1
 44
0.0
173
     0
291
     1
 45
0.0
1001
ACAD
1000
AcDbSavedByObjectVersion
1070
     0
  0
VISUALSTYLE
  5
33
102
{ACAD_REACTORS
330
2A
102
}
102
{ACAD_XDICTIONARY
360
2AD
102
}
330
2A
100
AcDbVisualStyle
  2
Realistic
 70
     8
 71
     2
 72
     2
 73
     0
 90
        0
 40
-0.6
 41
-30.0
 62
     5
 63
     7
421
 16777215
 74
     1
 91
        0
 64
     7
 65
   257
 75
     1
175
     1
 42
1.0
 92
        8
 66
     8
424
  7895160
 43
1.0
 76
     1
 77
     6
 78
     2
 67
     7
 79
     5
170
     0
171
     0
290
     0
174
     0
 93
       13
 44
0.0
173
     0
291
     0
 45
0.0
1001
ACAD
1000
AcDbSavedByObjectVersion
1070
     0
  0
VISUALSTYLE
  5
37
102
{ACAD_REACTORS
330
2A
102
}
102
{ACAD_XDICTIONARY
360
2B5
102
}
330
2A
100
AcDbVisualStyle
  2
Thicken
 70
    13
 71
     2
 72
     2
 73
     0
 90
        0
 40
-0.6
 41
-30.0
 62
     5
 63
     7
421
 16777215
 74
     1
 91
        4
 64
     7
 65
   257
 75
     1
175
     1
 42
1.0
 92
       12
 66
     7
 43
1.0
 76
     1
 77
     6
 78
     2
 67
     7
 79
     5
170
     0
171
     0
290
     0
174
     0
 93
        1
 44
0.0
173
     0
291
     1
 45
0.0
1001
ACAD
1000
AcDbSavedByObjectVersion
1070
     0
  0
DICTIONARY
  5
2BF
330
3D
100
AcDbDictionary
280
     1
281
     1
  3
ACAD_XREC_ROUNDTRIP
360
2C0
  0
DICTIONARY
  5
2BD
330
3C
100
AcDbDictionary
280
     1
281
     1
  3
ACAD_XREC_ROUNDTRIP
360
2BE
  0
DICTIONARY
  5
2C1
330
3E
100
AcDbDictionary
280
     1
281
     1
  3
ACAD_XREC_ROUNDTRIP
360
2C2
  0
DICTIONARY
  5
2A5
330
2F
100
AcDbDictionary
280
     1
281
     1
  3
ACAD_XREC_ROUNDTRIP
360
2A6
  0
DICTIONARY
  5
2A9
330
31
100
AcDbDictionary
280
     1
281
     1
  3
ACAD_XREC_ROUNDTRIP
360
2AA
  0
DICTIONARY
  5
2A7
330
30
100
AcDbDictionary
280
     1
281
     1
  3
ACAD_XREC_ROUNDTRIP
360
2A8
  0
DICTIONARY
  5
2AB
330
32
100
AcDbDictionary
280
     1
281
     1
  3
ACAD_XREC_ROUNDTRIP
360
2AC
  0
DICTIONARY
  5
2B3
330
36
100
AcDbDictionary
280
     1
281
     1
  3
ACAD_XREC_ROUNDTRIP
360
2B4
  0
DICTIONARY
  5
2BB
330
3A
100
AcDbDictionary
280
     1
281
     1
  3
ACAD_XREC_ROUNDTRIP
360
2BC
  0
DICTIONARY
  5
2AF
330
34
100
AcDbDictionary
280
     1
281
     1
  3
ACAD_XREC_ROUNDTRIP
360
2B0
  0
DICTIONARY
  5
2B1
330
35
100
AcDbDictionary
280
     1
281
     1
  3
ACAD_XREC_ROUNDTRIP
360
2B2
  0
DICTIONARY
  5
2B9
330
39
100
AcDbDictionary
280
     1
281
     1
  3
ACAD_XREC_ROUNDTRIP
360
2BA
  0
DICTIONARY
  5
29D
330
2B
100
AcDbDictionary
280
     1
281
     1
  3
ACAD_XREC_ROUNDTRIP
360
29E
  0
DICTIONARY
  5
29F
330
2C
100
AcDbDictionary
280
     1
281
     1
  3
ACAD_XREC_ROUNDTRIP
360
2A0
  0
DICTIONARY
  5
2A1
330
2D
100
AcDbDictionary
280
     1
281
     1
  3
ACAD_XREC_ROUNDTRIP
360
2A2
  0
DICTIONARY
  5
2A3
330
2E
100
AcDbDictionary
280
     1
281
     1
  3
ACAD_XREC_ROUNDTRIP
360
2A4
  0
DICTIONARY
  5
2B7
330
38
100
AcDbDictionary
280
     1
281
     1
  3
ACAD_XREC_ROUNDTRIP
360
2B8
  0
DICTIONARY
  5
2AD
330
33
100
AcDbDictionary
280
     1
281
     1
  3
ACAD_XREC_ROUNDTRIP
360
2AE
  0
DICTIONARY
  5
2B5
330
37
100
AcDbDictionary
280
     1
281
     1
  3
ACAD_XREC_ROUNDTRIP
360
2B6
  0
XRECORD
  5
2C0
102
{ACAD_REACTORS
330
2BF
102
}
330
2BF
100
AcDbXrecord
280
     1
102
MATERIAL
148
0.0
149
0.0
149
0.0
 93
        0
 94
      127
282
     0
 72
     1
 77
     1
171
     1
175
     1
179
     1
273
     0
  0
XRECORD
  5
2BE
102
{ACAD_REACTORS
330
2BD
102
}
330
2BD
100
AcDbXrecord
280
     1
102
MATERIAL
148
0.0
149
0.0
149
0.0
 93
        0
 94
      127
282
     0
 72
     1
 77
     1
171
     1
175
     1
179
     1
273
     0
  0
XRECORD
  5
2C2
102
{ACAD_REACTORS
330
2C1
102
}
330
2C1
100
AcDbXrecord
280
     1
102
MATERIAL
148
0.0
149
0.0
149
0.0
 93
        0
 94
      127
282
     0
 72
     1
 77
     1
171
     1
175
     1
179
     1
273
     0
  0
XRECORD
  5
2A6
102
{ACAD_REACTORS
330
2A5
102
}
330
2A5
100
AcDbXrecord
280
     1
102
RTVSPropertyOp0
 70
     1
102
RTVSPropertyOp1
 70
     1
102
RTVSPropertyOp2
 70
     1
102
RTVSPropertyOp3
 70
     1
102
RTVSPropertyOp4
 70
     1
102
RTVSPropertyOp5
 70
     1
102
RTVSPropertyOp6
 70
     1
102
RTVSPropertyOp7
 70
     1
102
RTVSPropertyOp8
 70
     1
102
RTVSPropertyOp9
 70
     1
102
RTVSPropertyOp10
 70
     1
102
RTVSPropertyOp11
 70
     1
102
RTVSPropertyOp12
 70
     1
102
RTVSPropertyOp13
 70
     1
102
RTVSPropertyOp14
 70
     1
102
RTVSPropertyOp15
 70
     1
102
RTVSPropertyOp16
 70
     1
102
RTVSPropertyOp17
 70
     1
102
RTVSPropertyOp18
 70
     1
102
RTVSPropertyOp19
 70
     1
102
RTVSPropertyOp20
 70
     1
102
RTVSPropertyOp21
 70
     1
102
RTVSPropertyOp22
 70
     1
102
RTVSPropertyOp23
 70
     1
102
RTVSPropertyOp24
 70
     1
102
RTVSPropertyOp25
 70
     1
102
RTVSPropertyOp26
 70
     1
102
RTVSPropertyOp27
 70
     1
102
RTVSPropertyOp28
 70
     1
102
RTVSPropertyOp29
 70
     1
102
RTVSPropertyOp30
 70
     1
102
RTVSPropertyOp31
 70
     1
102
RTVSPropertyOp32
 70
     1
  0
XRECORD
  5
2AA
102
{ACAD_REACTORS
330
2A9
102
}
330
2A9
100
AcDbXrecord
280
     1
102
RTVSPropertyOp0
 70
     1
102
RTVSPropertyOp1
 70
     1
102
RTVSPropertyOp2
 70
     1
102
RTVSPropertyOp3
 70
     1
102
RTVSPropertyOp4
 70
     1
102
RTVSPropertyOp5
 70
     1
102
RTVSPropertyOp6
 70
     1
102
RTVSPropertyOp7
 70
     1
102
RTVSPropertyOp8
 70
     1
102
RTVSPropertyOp9
 70
     1
102
RTVSPropertyOp10
 70
     1
102
RTVSPropertyOp11
 70
     1
102
RTVSPropertyOp12
 70
     1
102
RTVSPropertyOp13
 70
     1
102
RTVSPropertyOp14
 70
     1
102
RTVSPropertyOp15
 70
     1
102
RTVSPropertyOp16
 70
     1
102
RTVSPropertyOp17
 70
     1
102
RTVSPropertyOp18
 70
     1
102
RTVSPropertyOp19
 70
     1
102
RTVSPropertyOp20
 70
     1
102
RTVSPropertyOp21
 70
     1
102
RTVSPropertyOp22
 70
     1
102
RTVSPropertyOp23
 70
     1
102
RTVSPropertyOp24
 70
     1
102
RTVSPropertyOp25
 70
     1
102
RTVSPropertyOp26
 70
     1
102
RTVSPropertyOp27
 70
     1
102
RTVSPropertyOp28
 70
     1
102
RTVSPropertyOp29
 70
     1
102
RTVSPropertyOp30
 70
     1
102
RTVSPropertyOp31
 70
     1
102
RTVSPropertyOp32
 70
     1
  0
XRECORD
  5
2A8
102
{ACAD_REACTORS
330
2A7
102
}
330
2A7
100
AcDbXrecord
280
     1
102
RTVSPropertyOp0
 70
     1
102
RTVSPropertyOp1
 70
     1
102
RTVSPropertyOp2
 70
     1
102
RTVSPropertyOp3
 70
     1
102
RTVSPropertyOp4
 70
     1
102
RTVSPropertyOp5
 70
     1
102
RTVSPropertyOp6
 70
     1
102
RTVSPropertyOp7
 70
     1
102
RTVSPropertyOp8
 70
     1
102
RTVSPropertyOp9
 70
     1
102
RTVSPropertyOp10
 70
     1
102
RTVSPropertyOp11
 70
     1
102
RTVSPropertyOp12
 70
     1
102
RTVSPropertyOp13
 70
     1
102
RTVSPropertyOp14
 70
     1
102
RTVSPropertyOp15
 70
     1
102
RTVSPropertyOp16
 70
     1
102
RTVSPropertyOp17
 70
     1
102
RTVSPropertyOp18
 70
     1
102
RTVSPropertyOp19
 70
     1
102
RTVSPropertyOp20
 70
     1
102
RTVSPropertyOp21
 70
     1
102
RTVSPropertyOp22
 70
     1
102
RTVSPropertyOp23
 70
     1
102
RTVSPropertyOp24
 70
     1
102
RTVSPropertyOp25
 70
     1
102
RTVSPropertyOp26
 70
     1
102
RTVSPropertyOp27
 70
     1
102
RTVSPropertyOp28
 70
     1
102
RTVSPropertyOp29
 70
     1
102
RTVSPropertyOp30
 70
     1
102
RTVSPropertyOp31
 70
     1
102
RTVSPropertyOp32
 70
     1
  0
XRECORD
  5
2AC
102
{ACAD_REACTORS
330
2AB
102
}
330
2AB
100
AcDbXrecord
280
     1
102
RTVSPropertyOp0
 70
     1
102
RTVSPropertyOp1
 70
     1
102
RTVSPropertyOp2
 70
     1
102
RTVSPropertyOp3
 70
     1
102
RTVSPropertyOp4
 70
     1
102
RTVSPropertyOp5
 70
     1
102
RTVSPropertyOp6
 70
     1
102
RTVSPropertyOp7
 70
     1
102
RTVSPropertyOp8
 70
     1
102
RTVSPropertyOp9
 70
     1
102
RTVSPropertyOp10
 70
     1
102
RTVSPropertyOp11
 70
     1
102
RTVSPropertyOp12
 70
     1
102
RTVSPropertyOp13
 70
     1
102
RTVSPropertyOp14
 70
     1
102
RTVSPropertyOp15
 70
     1
102
RTVSPropertyOp16
 70
     1
102
RTVSPropertyOp17
 70
     1
102
RTVSPropertyOp18
 70
     1
102
RTVSPropertyOp19
 70
     1
102
RTVSPropertyOp20
 70
     1
102
RTVSPropertyOp21
 70
     1
102
RTVSPropertyOp22
 70
     1
102
RTVSPropertyOp23
 70
     1
102
RTVSPropertyOp24
 70
     1
102
RTVSPropertyOp25
 70
     1
102
RTVSPropertyOp26
 70
     1
102
RTVSPropertyOp27
 70
     1
102
RTVSPropertyOp28
 70
     1
102
RTVSPropertyOp29
 70
     1
102
RTVSPropertyOp30
 70
     1
102
RTVSPropertyOp31
 70
     1
102
RTVSPropertyOp32
 70
     1
  0
XRECORD
  5
2B4
102
{ACAD_REACTORS
330
2B3
102
}
330
2B3
100
AcDbXrecord
280
     1
102
RTVSPropertyOp0
 70
     1
102
RTVSPropertyOp1
 70
     1
102
RTVSPropertyOp2
 70
     1
102
RTVSPropertyOp3
 70
     1
102
RTVSPropertyOp4
 70
     1
102
RTVSPropertyOp5
 70
     1
102
RTVSPropertyOp6
 70
     1
102
RTVSPropertyOp7
 70
     1
102
RTVSPropertyOp8
 70
     1
102
RTVSPropertyOp9
 70
     1
102
RTVSPropertyOp10
 70
     1
102
RTVSPropertyOp11
 70
     1
102
RTVSPropertyOp12
 70
     1
102
RTVSPropertyOp13
 70
     1
102
RTVSPropertyOp14
 70
     1
102
RTVSPropertyOp15
 70
     1
102
RTVSPropertyOp16
 70
     1
102
RTVSPropertyOp17
 70
     1
102
RTVSPropertyOp18
 70
     1
102
RTVSPropertyOp19
 70
     1
102
RTVSPropertyOp20
 70
     1
102
RTVSPropertyOp21
 70
     1
102
RTVSPropertyOp22
 70
     1
102
RTVSPropertyOp23
 70
     1
102
RTVSPropertyOp24
 70
     1
102
RTVSPropertyOp25
 70
     1
102
RTVSPropertyOp26
 70
     1
102
RTVSPropertyOp27
 70
     1
102
RTVSPropertyOp28
 70
     1
102
RTVSPropertyOp29
 70
     1
102
RTVSPropertyOp30
 70
     1
102
RTVSPropertyOp31
 70
     1
102
RTVSPropertyOp32
 70
     1
  0
XRECORD
  5
2BC
102
{ACAD_REACTORS
330
2BB
102
}
330
2BB
100
AcDbXrecord
280
     1
102
RTVSPropertyOp0
 70
     1
102
RTVSPropertyOp1
 70
     1
102
RTVSPropertyOp2
 70
     1
102
RTVSPropertyOp3
 70
     1
102
RTVSPropertyOp4
 70
     1
102
RTVSPropertyOp5
 70
     1
102
RTVSPropertyOp6
 70
     1
102
RTVSPropertyOp7
 70
     1
102
RTVSPropertyOp8
 70
     1
102
RTVSPropertyOp9
 70
     1
102
RTVSPropertyOp10
 70
     1
102
RTVSPropertyOp11
 70
     1
102
RTVSPropertyOp12
 70
     1
102
RTVSPropertyOp13
 70
     1
102
RTVSPropertyOp14
 70
     1
102
RTVSPropertyOp15
 70
     1
102
RTVSPropertyOp16
 70
     1
102
RTVSPropertyOp17
 70
     1
102
RTVSPropertyOp18
 70
     1
102
RTVSPropertyOp19
 70
     1
102
RTVSPropertyOp20
 70
     1
102
RTVSPropertyOp21
 70
     1
102
RTVSPropertyOp22
 70
     1
102
RTVSPropertyOp23
 70
     1
102
RTVSPropertyOp24
 70
     1
102
RTVSPropertyOp25
 70
     1
102
RTVSPropertyOp26
 70
     1
102
RTVSPropertyOp27
 70
     1
102
RTVSPropertyOp28
 70
     1
102
RTVSPropertyOp29
 70
     1
102
RTVSPropertyOp30
 70
     1
102
RTVSPropertyOp31
 70
     1
102
RTVSPropertyOp32
 70
     1
  0
XRECORD
  5
2B0
102
{ACAD_REACTORS
330
2AF
102
}
330
2AF
100
AcDbXrecord
280
     1
102
RTVSPropertyOp0
 70
     1
102
RTVSPropertyOp1
 70
     1
102
RTVSPropertyOp2
 70
     1
102
RTVSPropertyOp3
 70
     1
102
RTVSPropertyOp4
 70
     1
102
RTVSPropertyOp5
 70
     1
102
RTVSPropertyOp6
 70
     1
102
RTVSPropertyOp7
 70
     1
102
RTVSPropertyOp8
 70
     1
102
RTVSPropertyOp9
 70
     1
102
RTVSPropertyOp10
 70
     1
102
RTVSPropertyOp11
 70
     1
102
RTVSPropertyOp12
 70
     1
102
RTVSPropertyOp13
 70
     1
102
RTVSPropertyOp14
 70
     1
102
RTVSPropertyOp15
 70
     1
102
RTVSPropertyOp16
 70
     1
102
RTVSPropertyOp17
 70
     1
102
RTVSPropertyOp18
 70
     1
102
RTVSPropertyOp19
 70
     1
102
RTVSPropertyOp20
 70
     1
102
RTVSPropertyOp21
 70
     1
102
RTVSPropertyOp22
 70
     1
102
RTVSPropertyOp23
 70
     1
102
RTVSPropertyOp24
 70
     1
102
RTVSPropertyOp25
 70
     1
102
RTVSPropertyOp26
 70
     1
102
RTVSPropertyOp27
 70
     1
102
RTVSPropertyOp28
 70
     1
102
RTVSPropertyOp29
 70
     1
102
RTVSPropertyOp30
 70
     1
102
RTVSPropertyOp31
 70
     1
102
RTVSPropertyOp32
 70
     1
  0
XRECORD
  5
2B2
102
{ACAD_REACTORS
330
2B1
102
}
330
2B1
100
AcDbXrecord
280
     1
102
RTVSPropertyOp0
 70
     1
102
RTVSPropertyOp1
 70
     1
102
RTVSPropertyOp2
 70
     1
102
RTVSPropertyOp3
 70
     1
102
RTVSPropertyOp4
 70
     1
102
RTVSPropertyOp5
 70
     1
102
RTVSPropertyOp6
 70
     1
102
RTVSPropertyOp7
 70
     1
102
RTVSPropertyOp8
 70
     1
102
RTVSPropertyOp9
 70
     1
102
RTVSPropertyOp10
 70
     1
102
RTVSPropertyOp11
 70
     1
102
RTVSPropertyOp12
 70
     1
102
RTVSPropertyOp13
 70
     1
102
RTVSPropertyOp14
 70
     1
102
RTVSPropertyOp15
 70
     1
102
RTVSPropertyOp16
 70
     1
102
RTVSPropertyOp17
 70
     1
102
RTVSPropertyOp18
 70
     1
102
RTVSPropertyOp19
 70
     1
102
RTVSPropertyOp20
 70
     1
102
RTVSPropertyOp21
 70
     1
102
RTVSPropertyOp22
 70
     1
102
RTVSPropertyOp23
 70
     1
102
RTVSPropertyOp24
 70
     1
102
RTVSPropertyOp25
 70
     1
102
RTVSPropertyOp26
 70
     1
102
RTVSPropertyOp27
 70
     1
102
RTVSPropertyOp28
 70
     1
102
RTVSPropertyOp29
 70
     1
102
RTVSPropertyOp30
 70
     1
102
RTVSPropertyOp31
 70
     1
102
RTVSPropertyOp32
 70
     1
  0
XRECORD
  5
2BA
102
{ACAD_REACTORS
330
2B9
102
}
330
2B9
100
AcDbXrecord
280
     1
102
RTVSPropertyOp0
 70
     1
102
RTVSPropertyOp1
 70
     1
102
RTVSPropertyOp2
 70
     1
102
RTVSPropertyOp3
 70
     1
102
RTVSPropertyOp4
 70
     1
102
RTVSPropertyOp5
 70
     1
102
RTVSPropertyOp6
 70
     1
102
RTVSPropertyOp7
 70
     1
102
RTVSPropertyOp8
 70
     1
102
RTVSPropertyOp9
 70
     1
102
RTVSPropertyOp10
 70
     1
102
RTVSPropertyOp11
 70
     1
102
RTVSPropertyOp12
 70
     1
102
RTVSPropertyOp13
 70
     1
102
RTVSPropertyOp14
 70
     1
102
RTVSPropertyOp15
 70
     1
102
RTVSPropertyOp16
 70
     1
102
RTVSPropertyOp17
 70
     1
102
RTVSPropertyOp18
 70
     1
102
RTVSPropertyOp19
 70
     1
102
RTVSPropertyOp20
 70
     1
102
RTVSPropertyOp21
 70
     1
102
RTVSPropertyOp22
 70
     1
102
RTVSPropertyOp23
 70
     1
102
RTVSPropertyOp24
 70
     1
102
RTVSPropertyOp25
 70
     1
102
RTVSPropertyOp26
 70
     1
102
RTVSPropertyOp27
 70
     1
102
RTVSPropertyOp28
 70
     1
102
RTVSPropertyOp29
 70
     1
102
RTVSPropertyOp30
 70
     1
102
RTVSPropertyOp31
 70
     1
102
RTVSPropertyOp32
 70
     1
  0
XRECORD
  5
29E
102
{ACAD_REACTORS
330
29D
102
}
330
29D
100
AcDbXrecord
280
     1
102
RTVSPropertyOp0
 70
     1
102
RTVSPropertyOp1
 70
     1
102
RTVSPropertyOp2
 70
     1
102
RTVSPropertyOp3
 70
     1
102
RTVSPropertyOp4
 70
     1
102
RTVSPropertyOp5
 70
     1
102
RTVSPropertyOp6
 70
     1
102
RTVSPropertyOp7
 70
     1
102
RTVSPropertyOp8
 70
     1
102
RTVSPropertyOp9
 70
     1
102
RTVSPropertyOp10
 70
     1
102
RTVSPropertyOp11
 70
     1
102
RTVSPropertyOp12
 70
     1
102
RTVSPropertyOp13
 70
     1
102
RTVSPropertyOp14
 70
     1
102
RTVSPropertyOp15
 70
     1
102
RTVSPropertyOp16
 70
     1
102
RTVSPropertyOp17
 70
     1
102
RTVSPropertyOp18
 70
     1
102
RTVSPropertyOp19
 70
     1
102
RTVSPropertyOp20
 70
     1
102
RTVSPropertyOp21
 70
     1
102
RTVSPropertyOp22
 70
     1
102
RTVSPropertyOp23
 70
     1
102
RTVSPropertyOp24
 70
     1
102
RTVSPropertyOp25
 70
     1
102
RTVSPropertyOp26
 70
     1
102
RTVSPropertyOp27
 70
     1
102
RTVSPropertyOp28
 70
     1
102
RTVSPropertyOp29
 70
     1
102
RTVSPropertyOp30
 70
     1
102
RTVSPropertyOp31
 70
     1
102
RTVSPropertyOp32
 70
     1
  0
XRECORD
  5
2A0
102
{ACAD_REACTORS
330
29F
102
}
330
29F
100
AcDbXrecord
280
     1
102
RTVSPropertyOp0
 70
     1
102
RTVSPropertyOp1
 70
     1
102
RTVSPropertyOp2
 70
     1
102
RTVSPropertyOp3
 70
     1
102
RTVSPropertyOp4
 70
     1
102
RTVSPropertyOp5
 70
     1
102
RTVSPropertyOp6
 70
     1
102
RTVSPropertyOp7
 70
     1
102
RTVSPropertyOp8
 70
     1
102
RTVSPropertyOp9
 70
     1
102
RTVSPropertyOp10
 70
     1
102
RTVSPropertyOp11
 70
     1
102
RTVSPropertyOp12
 70
     1
102
RTVSPropertyOp13
 70
     1
102
RTVSPropertyOp14
 70
     1
102
RTVSPropertyOp15
 70
     1
102
RTVSPropertyOp16
 70
     1
102
RTVSPropertyOp17
 70
     1
102
RTVSPropertyOp18
 70
     1
102
RTVSPropertyOp19
 70
     1
102
RTVSPropertyOp20
 70
     1
102
RTVSPropertyOp21
 70
     1
102
RTVSPropertyOp22
 70
     1
102
RTVSPropertyOp23
 70
     1
102
RTVSPropertyOp24
 70
     1
102
RTVSPropertyOp25
 70
     1
102
RTVSPropertyOp26
 70
     1
102
RTVSPropertyOp27
 70
     1
102
RTVSPropertyOp28
 70
     1
102
RTVSPropertyOp29
 70
     1
102
RTVSPropertyOp30
 70
     1
102
RTVSPropertyOp31
 70
     1
102
RTVSPropertyOp32
 70
     1
  0
XRECORD
  5
2A2
102
{ACAD_REACTORS
330
2A1
102
}
330
2A1
100
AcDbXrecord
280
     1
102
RTVSPropertyOp0
 70
     1
102
RTVSPropertyOp1
 70
     1
102
RTVSPropertyOp2
 70
     1
102
RTVSPropertyOp3
 70
     1
102
RTVSPropertyOp4
 70
     1
102
RTVSPropertyOp5
 70
     1
102
RTVSPropertyOp6
 70
     1
102
RTVSPropertyOp7
 70
     1
102
RTVSPropertyOp8
 70
     1
102
RTVSPropertyOp9
 70
     1
102
RTVSPropertyOp10
 70
     1
102
RTVSPropertyOp11
 70
     1
102
RTVSPropertyOp12
 70
     1
102
RTVSPropertyOp13
 70
     1
102
RTVSPropertyOp14
 70
     1
102
RTVSPropertyOp15
 70
     1
102
RTVSPropertyOp16
 70
     1
102
RTVSPropertyOp17
 70
     1
102
RTVSPropertyOp18
 70
     1
102
RTVSPropertyOp19
 70
     1
102
RTVSPropertyOp20
 70
     1
102
RTVSPropertyOp21
 70
     1
102
RTVSPropertyOp22
 70
     1
102
RTVSPropertyOp23
 70
     1
102
RTVSPropertyOp24
 70
     1
102
RTVSPropertyOp25
 70
     1
102
RTVSPropertyOp26
 70
     1
102
RTVSPropertyOp27
 70
     1
102
RTVSPropertyOp28
 70
     1
102
RTVSPropertyOp29
 70
     1
102
RTVSPropertyOp30
 70
     1
102
RTVSPropertyOp31
 70
     1
102
RTVSPropertyOp32
 70
     1
  0
XRECORD
  5
2A4
102
{ACAD_REACTORS
330
2A3
102
}
330
2A3
100
AcDbXrecord
280
     1
102
RTVSPropertyOp0
 70
     1
102
RTVSPropertyOp1
 70
     1
102
RTVSPropertyOp2
 70
     1
102
RTVSPropertyOp3
 70
     1
102
RTVSPropertyOp4
 70
     1
102
RTVSPropertyOp5
 70
     1
102
RTVSPropertyOp6
 70
     1
102
RTVSPropertyOp7
 70
     1
102
RTVSPropertyOp8
 70
     1
102
RTVSPropertyOp9
 70
     1
102
RTVSPropertyOp10
 70
     1
102
RTVSPropertyOp11
 70
     1
102
RTVSPropertyOp12
 70
     1
102
RTVSPropertyOp13
 70
     1
102
RTVSPropertyOp14
 70
     1
102
RTVSPropertyOp15
 70
     1
102
RTVSPropertyOp16
 70
     1
102
RTVSPropertyOp17
 70
     1
102
RTVSPropertyOp18
 70
     1
102
RTVSPropertyOp19
 70
     1
102
RTVSPropertyOp20
 70
     1
102
RTVSPropertyOp21
 70
     1
102
RTVSPropertyOp22
 70
     1
102
RTVSPropertyOp23
 70
     1
102
RTVSPropertyOp24
 70
     1
102
RTVSPropertyOp25
 70
     1
102
RTVSPropertyOp26
 70
     1
102
RTVSPropertyOp27
 70
     1
102
RTVSPropertyOp28
 70
     1
102
RTVSPropertyOp29
 70
     1
102
RTVSPropertyOp30
 70
     1
102
RTVSPropertyOp31
 70
     1
102
RTVSPropertyOp32
 70
     1
  0
XRECORD
  5
2B8
102
{ACAD_REACTORS
330
2B7
102
}
330
2B7
100
AcDbXrecord
280
     1
102
RTVSPropertyOp0
 70
     1
102
RTVSPropertyOp1
 70
     1
102
RTVSPropertyOp2
 70
     1
102
RTVSPropertyOp3
 70
     1
102
RTVSPropertyOp4
 70
     1
102
RTVSPropertyOp5
 70
     1
102
RTVSPropertyOp6
 70
     1
102
RTVSPropertyOp7
 70
     1
102
RTVSPropertyOp8
 70
     1
102
RTVSPropertyOp9
 70
     1
102
RTVSPropertyOp10
 70
     1
102
RTVSPropertyOp11
 70
     1
102
RTVSPropertyOp12
 70
     1
102
RTVSPropertyOp13
 70
     1
102
RTVSPropertyOp14
 70
     1
102
RTVSPropertyOp15
 70
     1
102
RTVSPropertyOp16
 70
     1
102
RTVSPropertyOp17
 70
     1
102
RTVSPropertyOp18
 70
     1
102
RTVSPropertyOp19
 70
     1
102
RTVSPropertyOp20
 70
     1
102
RTVSPropertyOp21
 70
     1
102
RTVSPropertyOp22
 70
     1
102
RTVSPropertyOp23
 70
     1
102
RTVSPropertyOp24
 70
     1
102
RTVSPropertyOp25
 70
     1
102
RTVSPropertyOp26
 70
     1
102
RTVSPropertyOp27
 70
     1
102
RTVSPropertyOp28
 70
     1
102
RTVSPropertyOp29
 70
     1
102
RTVSPropertyOp30
 70
     1
102
RTVSPropertyOp31
 70
     1
102
RTVSPropertyOp32
 70
     1
  0
XRECORD
  5
2AE
102
{ACAD_REACTORS
330
2AD
102
}
330
2AD
100
AcDbXrecord
280
     1
102
RTVSPropertyOp0
 70
     1
102
RTVSPropertyOp1
 70
     1
102
RTVSPropertyOp2
 70
     1
102
RTVSPropertyOp3
 70
     1
102
RTVSPropertyOp4
 70
     1
102
RTVSPropertyOp5
 70
     1
102
RTVSPropertyOp6
 70
     1
102
RTVSPropertyOp7
 70
     1
102
RTVSPropertyOp8
 70
     1
102
RTVSPropertyOp9
 70
     1
102
RTVSPropertyOp10
 70
     1
102
RTVSPropertyOp11
 70
     1
102
RTVSPropertyOp12
 70
     1
102
RTVSPropertyOp13
 70
     1
102
RTVSPropertyOp14
 70
     1
102
RTVSPropertyOp15
 70
     1
102
RTVSPropertyOp16
 70
     1
102
RTVSPropertyOp17
 70
     1
102
RTVSPropertyOp18
 70
     1
102
RTVSPropertyOp19
 70
     1
102
RTVSPropertyOp20
 70
     1
102
RTVSPropertyOp21
 70
     1
102
RTVSPropertyOp22
 70
     1
102
RTVSPropertyOp23
 70
     1
102
RTVSPropertyOp24
 70
     1
102
RTVSPropertyOp25
 70
     1
102
RTVSPropertyOp26
 70
     1
102
RTVSPropertyOp27
 70
     1
102
RTVSPropertyOp28
 70
     1
102
RTVSPropertyOp29
 70
     1
102
RTVSPropertyOp30
 70
     1
102
RTVSPropertyOp31
 70
     1
102
RTVSPropertyOp32
 70
     1
  0
XRECORD
  5
2B6
102
{ACAD_REACTORS
330
2B5
102
}
330
2B5
100
AcDbXrecord
280
     1
102
RTVSPropertyOp0
 70
     1
102
RTVSPropertyOp1
 70
     1
102
RTVSPropertyOp2
 70
     1
102
RTVSPropertyOp3
 70
     1
102
RTVSPropertyOp4
 70
     1
102
RTVSPropertyOp5
 70
     1
102
RTVSPropertyOp6
 70
     1
102
RTVSPropertyOp7
 70
     1
102
RTVSPropertyOp8
 70
     1
102
RTVSPropertyOp9
 70
     1
102
RTVSPropertyOp10
 70
     1
102
RTVSPropertyOp11
 70
     1
102
RTVSPropertyOp12
 70
     1
102
RTVSPropertyOp13
 70
     1
102
RTVSPropertyOp14
 70
     1
102
RTVSPropertyOp15
 70
     1
102
RTVSPropertyOp16
 70
     1
102
RTVSPropertyOp17
 70
     1
102
RTVSPropertyOp18
 70
     1
102
RTVSPropertyOp19
 70
     1
102
RTVSPropertyOp20
 70
     1
102
RTVSPropertyOp21
 70
     1
102
RTVSPropertyOp22
 70
     1
102
RTVSPropertyOp23
 70
     1
102
RTVSPropertyOp24
 70
     1
102
RTVSPropertyOp25
 70
     1
102
RTVSPropertyOp26
 70
     1
102
RTVSPropertyOp27
 70
     1
102
RTVSPropertyOp28
 70
     1
102
RTVSPropertyOp29
 70
     1
102
RTVSPropertyOp30
 70
     1
102
RTVSPropertyOp31
 70
     1
102
RTVSPropertyOp32
 70
     1
  0
ENDSEC
  0
EOF
