  0
SECTION
  2
HEADER
  9
$ACADVER
  1
AC1018
  9
$ACADMAINTVER
 70
     0
  9
$DWGCODEPAGE
  3
ANSI_1252
  9
$INSBASE
 10
0.0
 20
0.0
 30
0.0
  9
$EXTMIN
 10
-1164.650002948338
 20
-1131.150000947684
 30
0.0
  9
$EXTMAX
 10
-867.65000294834
 20
-921.150000947684
 30
0.0
  9
$LIMMIN
 10
0.0
 20
0.0
  9
$LIMMAX
 10
12.0
 20
9.0
  9
$ORTHOMODE
 70
     0
  9
$REGENMODE
 70
     1
  9
$FILLMODE
 70
     1
  9
$QTEXTMODE
 70
     0
  9
$MIRRTEXT
 70
     1
  9
$LTSCALE
 40
1.0
  9
$ATTMODE
 70
     1
  9
$TEXTSIZE
 40
0.2
  9
$TRACEWID
 40
0.05
  9
$TEXTSTYLE
  7
Standard
  9
$CLAYER
  8
0
  9
$CELTYPE
  6
ByLayer
  9
$CECOLOR
 62
   256
  9
$CELTSCALE
 40
1.0
  9
$DISPSILH
 70
     0
  9
$DIMSCALE
 40
1.0
  9
$DIMASZ
 40
0.18
  9
$DIMEXO
 40
0.0625
  9
$DIMDLI
 40
0.38
  9
$DIMRND
 40
0.0
  9
$DIMDLE
 40
0.0
  9
$DIMEXE
 40
0.18
  9
$DIMTP
 40
0.0
  9
$DIMTM
 40
0.0
  9
$DIMTXT
 40
0.18
  9
$DIMCEN
 40
0.09
  9
$DIMTSZ
 40
0.0
  9
$DIMTOL
 70
     0
  9
$DIMLIM
 70
     0
  9
$DIMTIH
 70
     1
  9
$DIMTOH
 70
     1
  9
$DIMSE1
 70
     0
  9
$DIMSE2
 70
     0
  9
$DIMTAD
 70
     0
  9
$DIMZIN
 70
     0
  9
$DIMBLK
  1

  9
$DIMASO
 70
     1
  9
$DIMSHO
 70
     1
  9
$DIMPOST
  1

  9
$DIMAPOST
  1

  9
$DIMALT
 70
     0
  9
$DIMALTD
 70
     2
  9
$DIMALTF
 40
25.4
  9
$DIMLFAC
 40
1.0
  9
$DIMTOFL
 70
     0
  9
$DIMTVP
 40
0.0
  9
$DIMTIX
 70
     0
  9
$DIMSOXD
 70
     0
  9
$DIMSAH
 70
     0
  9
$DIMBLK1
  1

  9
$DIMBLK2
  1

  9
$DIMSTYLE
  2
Standard
  9
$DIMCLRD
 70
     0
  9
$DIMCLRE
 70
     0
  9
$DIMCLRT
 70
     0
  9
$DIMTFAC
 40
1.0
  9
$DIMGAP
 40
0.09
  9
$DIMJUST
 70
     0
  9
$DIMSD1
 70
     0
  9
$DIMSD2
 70
     0
  9
$DIMTOLJ
 70
     1
  9
$DIMTZIN
 70
     0
  9
$DIMALTZ
 70
     0
  9
$DIMALTTZ
 70
     0
  9
$DIMUPT
 70
     0
  9
$DIMDEC
 70
     4
  9
$DIMTDEC
 70
     4
  9
$DIMALTU
 70
     2
  9
$DIMALTTD
 70
     2
  9
$DIMTXSTY
  7
Standard
  9
$DIMAUNIT
 70
     0
  9
$DIMADEC
 70
     0
  9
$DIMALTRND
 40
0.0
  9
$DIMAZIN
 70
     0
  9
$DIMDSEP
 70
    46
  9
$DIMATFIT
 70
     3
  9
$DIMFRAC
 70
     0
  9
$DIMLDRBLK
  1

  9
$DIMLUNIT
 70
     2
  9
$DIMLWD
 70
    -2
  9
$DIMLWE
 70
    -2
  9
$DIMTMOVE
 70
     0
  9
$LUNITS
 70
     2
  9
$LUPREC
 70
     4
  9
$SKETCHINC
 40
0.1
  9
$FILLETRAD
 40
0.5
  9
$AUNITS
 70
     0
  9
$AUPREC
 70
     0
  9
$MENU
  1
.
  9
$ELEVATION
 40
0.0
  9
$PELEVATION
 40
0.0
  9
$THICKNESS
 40
0.0
  9
$LIMCHECK
 70
     0
  9
$CHAMFERA
 40
0.5
  9
$CHAMFERB
 40
0.5
  9
$CHAMFERC
 40
1.0
  9
$CHAMFERD
 40
0.0
  9
$SKPOLY
 70
     0
  9
$TDCREATE
 40
2458508.005449907
  9
$TDUCREATE
 40
2458507.963783241
  9
$TDUPDATE
 40
2458508.00545081
  9
$TDUUPDATE
 40
2458507.963784143
  9
$TDINDWG
 40
0.0000000116
  9
$TDUSRTIMER
 40
0.0000000116
  9
$USRTIMER
 70
     1
  9
$ANGBASE
 50
0.0
  9
$ANGDIR
 70
     0
  9
$PDMODE
 70
     0
  9
$PDSIZE
 40
0.0
  9
$PLINEWID
 40
0.0
  9
$SPLFRAME
 70
     0
  9
$SPLINETYPE
 70
     6
  9
$SPLINESEGS
 70
     8
  9
$HANDSEED
  5
4D7
  9
$SURFTAB1
 70
     6
  9
$SURFTAB2
 70
     6
  9
$SURFTYPE
 70
     6
  9
$SURFU
 70
     6
  9
$SURFV
 70
     6
  9
$UCSBASE
  2

  9
$UCSNAME
  2

  9
$UCSORG
 10
0.0
 20
0.0
 30
0.0
  9
$UCSXDIR
 10
1.0
 20
0.0
 30
0.0
  9
$UCSYDIR
 10
0.0
 20
1.0
 30
0.0
  9
$UCSORTHOREF
  2

  9
$UCSORTHOVIEW
 70
     0
  9
$UCSORGTOP
 10
0.0
 20
0.0
 30
0.0
  9
$UCSORGBOTTOM
 10
0.0
 20
0.0
 30
0.0
  9
$UCSORGLEFT
 10
0.0
 20
0.0
 30
0.0
  9
$UCSORGRIGHT
 10
0.0
 20
0.0
 30
0.0
  9
$UCSORGFRONT
 10
0.0
 20
0.0
 30
0.0
  9
$UCSORGBACK
 10
0.0
 20
0.0
 30
0.0
  9
$PUCSBASE
  2

  9
$PUCSNAME
  2

  9
$PUCSORG
 10
0.0
 20
0.0
 30
0.0
  9
$PUCSXDIR
 10
1.0
 20
0.0
 30
0.0
  9
$PUCSYDIR
 10
0.0
 20
1.0
 30
0.0
  9
$PUCSORTHOREF
  2

  9
$PUCSORTHOVIEW
 70
     0
  9
$PUCSORGTOP
 10
0.0
 20
0.0
 30
0.0
  9
$PUCSORGBOTTOM
 10
0.0
 20
0.0
 30
0.0
  9
$PUCSORGLEFT
 10
0.0
 20
0.0
 30
0.0
  9
$PUCSORGRIGHT
 10
0.0
 20
0.0
 30
0.0
  9
$PUCSORGFRONT
 10
0.0
 20
0.0
 30
0.0
  9
$PUCSORGBACK
 10
0.0
 20
0.0
 30
0.0
  9
$USERI1
 70
     0
  9
$USERI2
 70
     0
  9
$USERI3
 70
     0
  9
$USERI4
 70
     0
  9
$USERI5
 70
     0
  9
$USERR1
 40
18.1
  9
$USERR2
 40
0.0
  9
$USERR3
 40
0.0
  9
$USERR4
 40
0.0
  9
$USERR5
 40
0.0
  9
$WORLDVIEW
 70
     1
  9
$SHADEDGE
 70
     3
  9
$SHADEDIF
 70
    70
  9
$TILEMODE
 70
     1
  9
$MAXACTVP
 70
    64
  9
$PINSBASE
 10
0.0
 20
0.0
 30
0.0
  9
$PLIMCHECK
 70
     0
  9
$PEXTMIN
 10
1.00000000000000E+20
 20
1.00000000000000E+20
 30
1.00000000000000E+20
  9
$PEXTMAX
 10
-1.00000000000000E+20
 20
-1.00000000000000E+20
 30
-1.00000000000000E+20
  9
$PLIMMIN
 10
0.0
 20
0.0
  9
$PLIMMAX
 10
12.0
 20
9.0
  9
$UNITMODE
 70
     0
  9
$VISRETAIN
 70
     1
  9
$PLINEGEN
 70
     0
  9
$PSLTSCALE
 70
     1
  9
$TREEDEPTH
 70
  3020
  9
$CMLSTYLE
  2
Standard
  9
$CMLJUST
 70
     0
  9
$CMLSCALE
 40
1.0
  9
$PROXYGRAPHICS
 70
     1
  9
$MEASUREMENT
 70
     1
  9
$CELWEIGHT
370
    -1
  9
$ENDCAPS
280
     0
  9
$JOINSTYLE
280
     0
  9
$LWDISPLAY
290
     0
  9
$INSUNITS
 70
     4
  9
$HYPERLINKBASE
  1

  9
$STYLESHEET
  1

  9
$XEDIT
290
     1
  9
$CEPSNTYPE
380
     0
  9
$PSTYLEMODE
290
     1
  9
$FINGERPRINTGUID
  2
{285C983F-9D12-4627-A013-0DE369A713A2}
  9
$VERSIONGUID
  2
{FAEB1C32-E019-11D5-929B-00C0DF256EC4}
  9
$EXTNAMES
290
     1
  9
$PSVPSCALE
 40
0.0
  9
$OLESTARTUP
290
     0
  9
$SORTENTS
280
   127
  9
$INDEXCTL
280
     0
  9
$HIDETEXT
280
     1
  9
$XCLIPFRAME
290
     0
  9
$HALOGAP
280
     0
  9
$OBSCOLOR
 70
   257
  9
$OBSLTYPE
280
     0
  9
$INTERSECTIONDISPLAY
280
     0
  9
$INTERSECTIONCOLOR
 70
   257
  9
$DIMASSOC
280
     2
  9
$PROJECTNAME
  1

  0
ENDSEC
  0
SECTION
  2
CLASSES
  0
CLASS
  1
ACDBDICTIONARYWDFLT
  2
AcDbDictionaryWithDefault
  3
ObjectDBX Classes
 90
        0
 91
        4
280
     0
281
     0
  0
CLASS
  1
VISUALSTYLE
  2
AcDbVisualStyle
  3
ObjectDBX Classes
 90
     4095
 91
        4
280
     0
281
     0
  0
CLASS
  1
MATERIAL
  2
AcDbMaterial
  3
ObjectDBX Classes
 90
     1153
 91
        4
280
     0
281
     0
  0
ENDSEC
  0
SECTION
  2
TABLES
  0
TABLE
  2
VPORT
  5
8
330
0
100
AcDbSymbolTable
 70
     1
  0
VPORT
  5
29
330
8
100
AcDbSymbolTableRecord
100
AcDbViewportTableRecord
  2
*Active
 70
     0
 10
0.0
 20
0.0
 11
1.0
 21
1.0
 12
-1016.150002948339
 22
-1026.150000947684
 13
0.0
 23
0.0
 14
0.5
 24
0.5
 15
0.5
 25
0.5
 16
0.0
 26
0.0
 36
1.0
 17
0.0
 27
0.0
 37
0.0
 40
231.0
 41
1.60267857142857
 42
50.0
 43
0.0
 44
0.0
 50
0.0
 51
0.0
 71
     0
 72
   100
 73
     1
 74
     3
 75
     0
 76
     0
 77
     0
 78
     0
281
     0
 65
     1
110
0.0
120
0.0
130
0.0
111
1.0
121
0.0
131
0.0
112
0.0
122
1.0
132
0.0
 79
     0
146
0.0
  0
ENDTAB
  0
TABLE
  2
LTYPE
  5
5
330
0
100
AcDbSymbolTable
 70
     8
  0
LTYPE
  5
14
330
5
100
AcDbSymbolTableRecord
100
AcDbLinetypeTableRecord
  2
ByBlock
 70
     0
  3

 72
    65
 73
     0
 40
0.0
  0
LTYPE
  5
15
330
5
100
AcDbSymbolTableRecord
100
AcDbLinetypeTableRecord
  2
ByLayer
 70
     0
  3

 72
    65
 73
     0
 40
0.0
  0
LTYPE
  5
16
330
5
100
AcDbSymbolTableRecord
100
AcDbLinetypeTableRecord
  2
Continuous
 70
     0
  3
Solid line
 72
    65
 73
     0
 40
0.0
  0
LTYPE
  5
3F
330
5
100
AcDbSymbolTableRecord
100
AcDbLinetypeTableRecord
  2
DASHED
 70
     0
  3
Dashed
 72
    65
 73
     2
 40
15.0
 49
7.0
 74
     0
 49
-8.0
 74
     0
  0
LTYPE
  5
40
330
5
100
AcDbSymbolTableRecord
100
AcDbLinetypeTableRecord
  2
DOTTED
 70
     0
  3
Dotted
 72
    65
 73
     2
 40
1.0
 49
0.0
 74
     0
 49
-1.0
 74
     0
  0
LTYPE
  5
41
330
5
100
AcDbSymbolTableRecord
100
AcDbLinetypeTableRecord
  2
DOT_CENTER
 70
     0
  3
Dot_Center
 72
    65
 73
     4
 40
14.0
 49
12.0
 74
     0
 49
-1.0
 74
     0
 49
0.0
 74
     0
 49
-1.0
 74
     0
  0
LTYPE
  5
42
330
5
100
AcDbSymbolTableRecord
100
AcDbLinetypeTableRecord
  2
LONG_DASHED
 70
     0
  3
Long_Dashed
 72
    65
 73
     2
 40
15.0
 49
10.0
 74
     0
 49
-5.0
 74
     0
  0
LTYPE
  5
43
330
5
100
AcDbSymbolTableRecord
100
AcDbLinetypeTableRecord
  2
DASH_CENTER
 70
     0
  3
Dash_Center
 72
    65
 73
     4
 40
14.0
 49
11.0
 74
     0
 49
-1.0
 74
     0
 49
1.0
 74
     0
 49
-1.0
 74
     0
  0
LTYPE
  5
44
330
5
100
AcDbSymbolTableRecord
100
AcDbLinetypeTableRecord
  2
PHANTOM
 70
     0
  3
Phantom
 72
    65
 73
     6
 40
13.0
 49
10.0
 74
     0
 49
-1.0
 74
     0
 49
0.0
 74
     0
 49
-1.0
 74
     0
 49
0.0
 74
     0
 49
-1.0
 74
     0
  0
LTYPE
  5
45
330
5
100
AcDbSymbolTableRecord
100
AcDbLinetypeTableRecord
  2
CENTER_DASH_DASH
 70
     0
  3
Center_Dash_Dash
 72
    65
 73
     6
 40
14.0
 49
9.0
 74
     0
 49
-1.0
 74
     0
 49
1.0
 74
     0
 49
-1.0
 74
     0
 49
1.0
 74
     0
 49
-1.0
 74
     0
  0
ENDTAB
  0
TABLE
  2
LAYER
  5
2
330
0
100
AcDbSymbolTable
 70
     2
  0
LAYER
  5
10
330
2
100
AcDbSymbolTableRecord
100
AcDbLayerTableRecord
  2
0
 70
     0
 62
     7
  6
Continuous
370
    -3
390
F
  0
LAYER
  5
46
330
2
100
AcDbSymbolTableRecord
100
AcDbLayerTableRecord
  2
1
 70
     0
 62
     7
  6
Continuous
370
    -3
390
F
  0
ENDTAB
  0
TABLE
  2
STYLE
  5
3
330
0
100
AcDbSymbolTable
 70
     5
  0
STYLE
  5
11
330
3
100
AcDbSymbolTableRecord
100
AcDbTextStyleTableRecord
  2
Standard
 70
     0
 40
0.0
 41
1.0
 50
0.0
 71
     0
 42
0.2
  3
txt
  4

  0
STYLE
  5
163
330
3
100
AcDbSymbolTableRecord
100
AcDbTextStyleTableRecord
  2
CONVERTER_11
 70
     0
 40
0.0
 41
0.9
 50
0.0
 71
     0
 42
0.2
  3
txt.shx
  4

  0
STYLE
  5
472
330
3
100
AcDbSymbolTableRecord
100
AcDbTextStyleTableRecord
  2
CONVERTER_12
 70
     0
 40
0.0
 41
0.81
 50
0.0
 71
     0
 42
0.2
  3
txt.shx
  4

  0
STYLE
  5
488
330
3
100
AcDbSymbolTableRecord
100
AcDbTextStyleTableRecord
  2
CONVERTER_13
 70
     0
 40
0.0
 41
0.72
 50
0.0
 71
     0
 42
0.2
  3
txt.shx
  4

  0
STYLE
  5
48B
330
3
100
AcDbSymbolTableRecord
100
AcDbTextStyleTableRecord
  2
CONVERTER_14
 70
     0
 40
0.0
 41
0.855
 50
0.0
 71
     0
 42
0.2
  3
txt.shx
  4

  0
ENDTAB
  0
TABLE
  2
VIEW
  5
6
330
0
100
AcDbSymbolTable
 70
     0
  0
ENDTAB
  0
TABLE
  2
UCS
  5
7
330
0
100
AcDbSymbolTable
 70
     0
  0
ENDTAB
  0
TABLE
  2
APPID
  5
9
330
0
100
AcDbSymbolTable
 70
     1
  0
APPID
  5
12
330
9
100
AcDbSymbolTableRecord
100
AcDbRegAppTableRecord
  2
ACAD
 70
     0
  0
ENDTAB
  0
TABLE
  2
DIMSTYLE
  5
A
330
0
100
AcDbSymbolTable
 70
     8
100
AcDbDimStyleTable
  0
DIMSTYLE
105
27
330
A
100
AcDbSymbolTableRecord
100
AcDbDimStyleTableRecord
  2
Standard
 70
     0
178
     0
340
11
  0
DIMSTYLE
105
1C0
102
{ACAD_REACTORS
330
1C1
102
}
330
A
100
AcDbSymbolTableRecord
100
AcDbDimStyleTableRecord
  2
ME10_DIM_10
 70
     0
 41
3.5
 42
0.0
 44
1.5
 73
     0
 74
     0
 77
     1
 78
     8
140
3.5
147
1.5
172
     1
173
     1
174
     1
175
     1
176
     2
177
     2
271
     2
178
     3
271
     2
340
163
  0
DIMSTYLE
105
33D
102
{ACAD_REACTORS
330
33E
102
}
330
A
100
AcDbSymbolTableRecord
100
AcDbDimStyleTableRecord
  2
ME10_DIM_11
 70
     0
 41
3.5
 42
0.0
 44
1.5
 73
     0
 74
     0
 77
     1
 78
     8
140
3.5
147
1.5
172
     1
173
     1
174
     1
175
     1
176
     2
177
     2
178
     3
340
163
  0
DIMSTYLE
105
348
102
{ACAD_REACTORS
330
349
102
}
330
A
100
AcDbSymbolTableRecord
100
AcDbDimStyleTableRecord
  2
ME10_DIM_12
 70
     0
 41
3.5
 42
0.0
 44
1.5
 73
     0
 74
     0
 77
     1
 78
     8
140
3.5
147
1.5
172
     1
173
     1
174
     1
175
     1
176
     2
177
     2
178
     3
340
163
  0
DIMSTYLE
105
353
102
{ACAD_REACTORS
330
354
102
}
330
A
100
AcDbSymbolTableRecord
100
AcDbDimStyleTableRecord
  2
ME10_DIM_13
 70
     0
 41
3.5
 42
0.0
 44
1.5
 73
     0
 74
     0
 77
     1
 78
     8
140
3.5
147
1.5
172
     1
173
     1
174
     1
175
     1
176
     2
177
     2
271
     2
178
     3
271
     2
340
163
  0
DIMSTYLE
105
35E
102
{ACAD_REACTORS
330
35F
102
}
330
A
100
AcDbSymbolTableRecord
100
AcDbDimStyleTableRecord
  2
ME10_DIM_14
 70
     0
 41
3.5
 42
0.0
 44
1.5
 73
     0
 74
     0
 77
     1
 78
     8
140
3.5
147
1.5
172
     1
173
     1
174
     1
175
     1
176
     2
177
     2
271
     2
178
     3
271
     2
340
163
  0
DIMSTYLE
105
369
102
{ACAD_REACTORS
330
36A
102
}
330
A
100
AcDbSymbolTableRecord
100
AcDbDimStyleTableRecord
  2
ME10_DIM_15
 70
     0
 41
3.5
 42
0.0
 44
1.5
 73
     0
 74
     0
 77
     1
 78
     8
140
3.5
147
1.5
172
     1
173
     1
174
     1
175
     1
176
     2
177
     2
271
     2
178
     3
271
     2
340
163
  0
DIMSTYLE
105
374
102
{ACAD_REACTORS
330
375
102
}
330
A
100
AcDbSymbolTableRecord
100
AcDbDimStyleTableRecord
  2
ME10_DIM_16
 70
     0
 41
3.5
 42
0.0
 44
1.5
 73
     0
 74
     0
 77
     1
 78
     8
140
3.5
147
1.5
172
     1
173
     1
174
     1
175
     1
176
     2
177
     2
271
     2
178
     3
271
     2
340
163
  0
ENDTAB
  0
TABLE
  2
BLOCK_RECORD
  5
1
330
0
100
AcDbSymbolTable
 70
    24
  0
BLOCK_RECORD
  5
1F
330
1
100
AcDbSymbolTableRecord
100
AcDbBlockTableRecord
  2
*Model_Space
340
22
  0
BLOCK_RECORD
  5
1B
330
1
100
AcDbSymbolTableRecord
100
AcDbBlockTableRecord
  2
*Paper_Space
340
1E
  0
BLOCK_RECORD
  5
23
330
1
100
AcDbSymbolTableRecord
100
AcDbBlockTableRecord
  2
*Paper_Space0
340
26
  0
BLOCK_RECORD
  5
47
330
1
100
AcDbSymbolTableRecord
100
AcDbBlockTableRecord
  2
UK_5_N-MT-select__1
340
0
102
{BLKREFS
331
4B
102
}
  0
BLOCK_RECORD
  5
4A
330
1
100
AcDbSymbolTableRecord
100
AcDbBlockTableRecord
  2
Allg1
340
0
102
{BLKREFS
331
7D
102
}
  0
BLOCK_RECORD
  5
4E
330
1
100
AcDbSymbolTableRecord
100
AcDbBlockTableRecord
  2
UK_5_N-MT-select__2
340
0
102
{BLKREFS
331
52
102
}
  0
BLOCK_RECORD
  5
51
330
1
100
AcDbSymbolTableRecord
100
AcDbBlockTableRecord
  2
Drfsicht1
340
0
102
{BLKREFS
331
7E
102
}
  0
BLOCK_RECORD
  5
55
330
1
100
AcDbSymbolTableRecord
100
AcDbBlockTableRecord
  2
UK_5_N-MT-select__3
340
0
102
{BLKREFS
331
59
102
}
  0
BLOCK_RECORD
  5
58
330
1
100
AcDbSymbolTableRecord
100
AcDbBlockTableRecord
  2
Rckans1
340
0
102
{BLKREFS
331
7F
102
}
  0
BLOCK_RECORD
  5
5C
330
1
100
AcDbSymbolTableRecord
100
AcDbBlockTableRecord
  2
UK_5_N-MT-select__4
340
0
102
{BLKREFS
331
60
102
}
  0
BLOCK_RECORD
  5
5F
330
1
100
AcDbSymbolTableRecord
100
AcDbBlockTableRecord
  2
SA_Links1
340
0
102
{BLKREFS
331
80
102
}
  0
BLOCK_RECORD
  5
63
330
1
100
AcDbSymbolTableRecord
100
AcDbBlockTableRecord
  2
UK_5_N-MT-select__5
340
0
102
{BLKREFS
331
67
102
}
  0
BLOCK_RECORD
  5
66
330
1
100
AcDbSymbolTableRecord
100
AcDbBlockTableRecord
  2
SA_Rechts1
340
0
102
{BLKREFS
331
81
102
}
  0
BLOCK_RECORD
  5
6A
330
1
100
AcDbSymbolTableRecord
100
AcDbBlockTableRecord
  2
UK_5_N-MT-select__6
340
0
102
{BLKREFS
331
6E
102
}
  0
BLOCK_RECORD
  5
6D
330
1
100
AcDbSymbolTableRecord
100
AcDbBlockTableRecord
  2
Vordans1
340
0
102
{BLKREFS
331
82
102
}
  0
BLOCK_RECORD
  5
71
330
1
100
AcDbSymbolTableRecord
100
AcDbBlockTableRecord
  2
_rahmen
340
0
102
{BLKREFS
331
78
102
}
  0
BLOCK_RECORD
  5
74
330
1
100
AcDbSymbolTableRecord
100
AcDbBlockTableRecord
  2
_punkt
340
0
102
{BLKREFS
331
79
102
}
  0
BLOCK_RECORD
  5
77
330
1
100
AcDbSymbolTableRecord
100
AcDbBlockTableRecord
  2
A4I_CS
340
0
102
{BLKREFS
331
83
102
}
  0
BLOCK_RECORD
  5
7C
330
1
100
AcDbSymbolTableRecord
100
AcDbBlockTableRecord
  2
1
340
0
102
{BLKREFS
331
86
102
}
  0
BLOCK_RECORD
  5
1B5
330
1
100
AcDbSymbolTableRecord
100
AcDbBlockTableRecord
  2
*D17
340
0
  0
BLOCK_RECORD
  5
334
330
1
100
AcDbSymbolTableRecord
100
AcDbBlockTableRecord
  2
*D18
340
0
  0
BLOCK_RECORD
  5
33F
330
1
100
AcDbSymbolTableRecord
100
AcDbBlockTableRecord
  2
*D19
340
0
  0
BLOCK_RECORD
  5
34A
330
1
100
AcDbSymbolTableRecord
100
AcDbBlockTableRecord
  2
*D20
340
0
  0
BLOCK_RECORD
  5
355
330
1
100
AcDbSymbolTableRecord
100
AcDbBlockTableRecord
  2
*D21
340
0
  0
BLOCK_RECORD
  5
360
330
1
100
AcDbSymbolTableRecord
100
AcDbBlockTableRecord
  2
*D22
340
0
  0
BLOCK_RECORD
  5
36B
330
1
100
AcDbSymbolTableRecord
100
AcDbBlockTableRecord
  2
*D23
340
0
  0
ENDTAB
  0
ENDSEC
  0
SECTION
  2
BLOCKS
  0
BLOCK
  5
20
330
1F
100
AcDbEntity
  8
0
100
AcDbBlockBegin
  2
*Model_Space
 70
     0
 10
0.0
 20
0.0
 30
0.0
  3
*Model_Space
  1

  0
ENDBLK
  5
21
330
1F
100
AcDbEntity
  8
0
100
AcDbBlockEnd
  0
BLOCK
  5
1C
330
1B
100
AcDbEntity
 67
     1
  8
0
100
AcDbBlockBegin
  2
*Paper_Space
 70
     0
 10
0.0
 20
0.0
 30
0.0
  3
*Paper_Space
  1

  0
ENDBLK
  5
1D
330
1B
100
AcDbEntity
 67
     1
  8
0
100
AcDbBlockEnd
  0
BLOCK
  5
24
330
23
100
AcDbEntity
  8
0
100
AcDbBlockBegin
  2
*Paper_Space0
 70
     0
 10
0.0
 20
0.0
 30
0.0
  3
*Paper_Space0
  1

  0
ENDBLK
  5
25
330
23
100
AcDbEntity
  8
0
100
AcDbBlockEnd
  0
BLOCK
  5
48
330
47
100
AcDbEntity
  8
0
100
AcDbBlockBegin
  2
UK_5_N-MT-select__1
 70
     0
 10
-939.9513644841008
 20
-1080.133991295882
 30
0.0
  3
UK_5_N-MT-select__1
  1

  0
LINE
  5
87
330
47
100
AcDbEntity
  8
0
  6
Continuous
 62
     7
100
AcDbLine
 10
-931.1674767461112
 20
-1032.189281020003
 30
0.0
 11
-929.7966068104424
 21
-1031.21414714751
 31
0.0
  0
LINE
  5
88
330
47
100
AcDbEntity
  8
0
  6
Continuous
 62
     7
100
AcDbLine
 10
-932.5414006524567
 20
-1037.530856379581
 30
0.0
 11
-933.1966391586511
 21
-1036.68646680942
 31
0.0
  0
LINE
  5
89
330
47
100
AcDbEntity
  8
0
  6
Continuous
 62
     7
100
AcDbLine
 10
-939.0420378101272
 20
-1070.937164621908
 30
0.0
 11
-937.8096448042445
 21
-1071.292925838755
 31
0.0
  0
LINE
  5
8A
330
47
100
AcDbEntity
  8
0
  6
Continuous
 62
     7
100
AcDbLine
 10
-937.8096448042445
 20
-1068.236908217511
 30
0.0
 11
-937.8096448042445
 21
-1071.292925838755
 31
0.0
  0
LINE
  5
8B
330
47
100
AcDbEntity
  8
0
  6
Continuous
 62
     7
100
AcDbLine
 10
-936.5089135040579
 20
-1061.709122478387
 30
0.0
 11
-936.5089135040579
 21
-1062.453904325642
 31
0.0
  0
LINE
  5
8C
330
47
100
AcDbEntity
  8
0
  6
Continuous
 62
     7
100
AcDbLine
 10
-933.8242347523261
 20
-1062.484122478387
 30
0.0
 11
-936.5089135040579
 21
-1061.709122478387
 31
0.0
  0
LINE
  5
8D
330
47
100
AcDbEntity
  8
0
  6
Continuous
 62
     7
100
AcDbLine
 10
-936.5089135040579
 20
-1062.453904325642
 30
0.0
 11
-937.4788619562964
 21
-1063.143852777881
 31
0.0
  0
LINE
  5
8E
330
47
100
AcDbEntity
  8
0
  6
Continuous
 62
     7
100
AcDbLine
 10
-937.1151312866991
 20
-1058.719539916086
 30
0.0
 11
-937.1151312867403
 21
-1044.635634380717
 31
0.0
  0
LINE
  5
8F
330
47
100
AcDbEntity
  8
0
  6
Continuous
 62
     7
100
AcDbLine
 10
-934.2424767438359
 20
-1034.852309134669
 30
0.0
 11
-933.5199096287406
 21
-1036.916417133045
 31
0.0
  0
LINE
  5
90
330
47
100
AcDbEntity
  8
0
  6
Continuous
 62
     7
100
AcDbLine
 10
-937.069894814427
 20
-1039.441609867444
 30
0.0
 11
-936.7466243443375
 21
-1039.211659543818
 31
0.0
  0
LINE
  5
91
330
47
100
AcDbEntity
  8
0
  6
Continuous
 62
     7
100
AcDbLine
 10
-936.4146563082326
 20
-1040.285999437606
 30
0.0
 11
-937.069894814427
 21
-1039.441609867444
 31
0.0
  0
LINE
  5
92
330
47
100
AcDbEntity
  8
0
  6
Continuous
 62
     7
100
AcDbLine
 10
-933.5199096287406
 20
-1036.916417133045
 30
0.0
 11
-933.1966391586511
 21
-1036.68646680942
 31
0.0
  0
LINE
  5
93
330
47
100
AcDbEntity
  8
0
  6
Continuous
 62
     7
100
AcDbLine
 10
-934.2424767438359
 20
-1034.852309134669
 30
0.0
 11
-932.8716068081671
 21
-1033.877175262177
 31
0.0
  0
LINE
  5
94
330
47
100
AcDbEntity
  8
0
  6
Continuous
 62
     7
100
AcDbLine
 10
-937.4788619562964
 20
-1063.143852777881
 30
0.0
 11
-938.7605795538974
 21
-1061.49213518028
 31
0.0
  0
LINE
  5
95
330
47
100
AcDbEntity
  8
0
  6
Continuous
 62
     7
100
AcDbLine
 10
-937.7863009746397
 20
-1065.194185525228
 30
0.0
 11
-937.7863009746397
 21
-1068.043927786421
 31
0.0
  0
LINE
  5
96
330
47
100
AcDbEntity
  8
0
  6
Continuous
 62
     7
100
AcDbLine
 10
-936.7466243443375
 20
-1039.211659543818
 30
0.0
 11
-938.6021451834749
 21
-1037.953449700754
 31
0.0
  0
LINE
  5
97
330
47
100
AcDbEntity
  8
0
  6
Continuous
 62
     7
100
AcDbLine
 10
-937.1151312867403
 20
-1044.635634380717
 30
0.0
 11
-938.9337846346542
 21
-1040.960634380778
 31
0.0
  0
LINE
  5
98
330
47
100
AcDbEntity
  8
0
  6
Continuous
 62
     7
100
AcDbLine
 10
-936.4146563082326
 20
-1040.285999437606
 30
0.0
 11
-932.5414006524567
 21
-1037.530856379581
 31
0.0
  0
LINE
  5
99
330
47
100
AcDbEntity
  8
0
  6
Continuous
 62
     7
100
AcDbLine
 10
-925.7657111990261
 20
-1035.423289148023
 30
0.0
 11
-923.9407111990267
 21
-1033.842792786115
 31
0.0
  0
LINE
  5
9A
330
47
100
AcDbEntity
  8
0
  6
Continuous
 62
     7
100
AcDbLine
 10
-919.3893151427802
 20
-1035.156667655245
 30
0.0
 11
-923.9407111990267
 21
-1033.842792786115
 31
0.0
  0
LINE
  5
9B
330
47
100
AcDbEntity
  8
0
  6
Continuous
 62
     7
100
AcDbLine
 10
-929.7966068104424
 20
-1031.21414714751
 30
0.0
 11
-932.8716068081671
 21
-1033.877175262177
 31
0.0
  0
LINE
  5
9C
330
47
100
AcDbEntity
  8
0
  6
Continuous
 62
     7
100
AcDbLine
 10
-900.048634190443
 20
-1046.859754188353
 30
0.0
 11
-903.1236341881676
 21
-1049.52278230302
 31
0.0
  0
LINE
  5
9D
330
47
100
AcDbEntity
  8
0
  6
Continuous
 62
     7
100
AcDbLine
 10
-903.2317236951105
 20
-1045.335873846777
 30
0.0
 11
-901.3762028559298
 21
-1045.148949459672
 31
0.0
  0
LINE
  5
9E
330
47
100
AcDbEntity
  8
0
  6
Continuous
 62
     7
100
AcDbLine
 10
-901.3762028559298
 20
-1045.148949459672
 30
0.0
 11
-900.048634190443
 21
-1046.859754188353
 31
0.0
  0
LINE
  5
9F
330
47
100
AcDbEntity
  8
0
  6
Continuous
 62
     7
100
AcDbLine
 10
-900.048634190443
 20
-1046.859754188353
 30
0.0
 11
-900.048634190443
 21
-1048.368247837407
 31
0.0
  0
LINE
  5
A0
330
47
100
AcDbEntity
  8
0
  6
Continuous
 62
     7
100
AcDbLine
 10
-910.5119473847161
 20
-1043.890211766696
 30
0.0
 11
-906.6386917289402
 21
-1048.881580020224
 31
0.0
  0
LINE
  5
A1
330
47
100
AcDbEntity
  8
0
  6
Continuous
 62
     7
100
AcDbLine
 10
-903.1236341881676
 20
-1049.52278230302
 30
0.0
 11
-904.4512028536546
 21
-1047.811977574339
 31
0.0
  0
LINE
  5
A2
330
47
100
AcDbEntity
  8
0
  6
Continuous
 62
     7
100
AcDbLine
 10
-906.6386917289402
 20
-1048.881580020224
 30
0.0
 11
-905.9834532227458
 21
-1048.415492577997
 31
0.0
  0
LINE
  5
A3
330
47
100
AcDbEntity
  8
0
  6
Continuous
 62
     7
100
AcDbLine
 10
-906.3067236928352
 20
-1047.998901961443
 30
0.0
 11
-905.9834532227458
 21
-1048.415492577997
 31
0.0
  0
LINE
  5
A4
330
47
100
AcDbEntity
  8
0
  6
Continuous
 62
     7
100
AcDbLine
 10
-904.4512028536546
 20
-1047.811977574339
 30
0.0
 11
-906.3067236928352
 21
-1047.998901961443
 31
0.0
  0
LINE
  5
A5
330
47
100
AcDbEntity
  8
0
  6
Continuous
 62
     7
100
AcDbLine
 10
-903.1236341881676
 20
-1051.031275952073
 30
0.0
 11
-903.1236341881676
 21
-1049.52278230302
 31
0.0
  0
LINE
  5
A6
330
47
100
AcDbEntity
  8
0
  6
Continuous
 62
     7
100
AcDbLine
 10
-905.6257167527132
 20
-1053.365178944435
 30
0.0
 11
-903.2257167504379
 21
-1051.286717973382
 31
0.0
  0
LINE
  5
A7
330
47
100
AcDbEntity
  8
0
  6
Continuous
 62
     7
100
AcDbLine
 10
-903.225716750479
 20
-1065.370446008313
 30
0.0
 11
-903.2257167504379
 21
-1051.286717973382
 31
0.0
  0
LINE
  5
A8
330
47
100
AcDbEntity
  8
0
  6
Continuous
 62
     7
100
AcDbLine
 10
-905.6257167527543
 20
-1067.448906979366
 30
0.0
 11
-903.225716750479
 21
-1065.370446008313
 31
0.0
  0
LINE
  5
A9
330
47
100
AcDbEntity
  8
0
  6
Continuous
 62
     7
100
AcDbLine
 10
-904.1195634025197
 20
-1051.010634380777
 30
0.0
 11
-903.1236341881676
 21
-1051.031275952073
 31
0.0
  0
LINE
  5
AA
330
47
100
AcDbEntity
  8
0
  6
Continuous
 62
     7
100
AcDbLine
 10
-905.6257167527132
 20
-1053.365178944435
 30
0.0
 11
-905.6257167527543
 21
-1067.448906979366
 31
0.0
  0
LINE
  5
AB
330
47
100
AcDbEntity
  8
0
  6
Continuous
 62
     7
100
AcDbLine
 10
-904.1195634025197
 20
-1051.010634380777
 30
0.0
 11
-905.9382167504377
 21
-1053.635634380735
 31
0.0
  0
LINE
  5
AC
330
47
100
AcDbEntity
  8
0
  6
Continuous
 62
     7
100
AcDbLine
 10
-927.480598669605
 20
-1067.476365202201
 30
0.0
 11
-926.3826269247556
 21
-1066.525493778524
 31
0.0
  0
LINE
  5
AD
330
47
100
AcDbEntity
  8
0
  6
Continuous
 62
     7
100
AcDbLine
 10
-934.8418146017727
 20
-1063.099699152361
 30
0.0
 11
-933.8242347523261
 21
-1063.393449152361
 31
0.0
  0
LINE
  5
AE
330
47
100
AcDbEntity
  8
0
  6
Continuous
 62
     2
100
AcDbLine
 10
-927.1953131970641
 20
-1066.494020146201
 30
0.0
 11
-926.947728657649
 21
-1066.279605645483
 31
0.0
  0
LINE
  5
AF
330
47
100
AcDbEntity
  8
0
  6
Continuous
 62
     7
100
AcDbLine
 10
-905.938216750479
 20
-1067.719539916078
 30
0.0
 11
-905.9382167504377
 21
-1053.635634380735
 31
0.0
  0
LINE
  5
B0
330
47
100
AcDbEntity
  8
0
  6
Continuous
 62
     7
100
AcDbLine
 10
-932.4596349270755
 20
-1066.039041240423
 30
0.0
 11
-932.4596349270755
 21
-1066.125643783428
 31
0.0
  0
LINE
  5
B1
330
47
100
AcDbEntity
  8
0
  6
Continuous
 62
     7
100
AcDbLine
 10
-933.3473109659545
 20
-1065.522983621915
 30
0.0
 11
-932.6217882153012
 21
-1065.873989414373
 31
0.0
  0
LINE
  5
B2
330
47
100
AcDbEntity
  8
0
  6
Continuous
 62
     7
100
AcDbLine
 10
-932.6998552730807
 20
-1065.773386338181
 30
0.0
 11
-932.5035460115547
 21
-1066.026365202201
 31
0.0
  0
LINE
  5
B3
330
47
100
AcDbEntity
  8
0
  6
Continuous
 62
     7
100
AcDbLine
 10
-933.3691884904292
 20
-1065.254137830896
 30
0.0
 11
-933.3473109659545
 21
-1065.522983621915
 31
0.0
  0
LINE
  5
B4
330
47
100
AcDbEntity
  8
0
  6
Continuous
 62
     7
100
AcDbLine
 10
-934.8418146017727
 20
-1064.745147419551
 30
0.0
 11
-933.8187564190234
 21
-1065.040478878155
 31
0.0
  0
LINE
  5
B5
330
47
100
AcDbEntity
  8
0
  6
Continuous
 62
     7
100
AcDbLine
 10
-935.5346349248002
 20
-1068.788671898095
 30
0.0
 11
-935.5346349248002
 21
-1068.615466817338
 31
0.0
  0
LINE
  5
B6
330
47
100
AcDbEntity
  8
0
  6
Continuous
 62
     7
100
AcDbLine
 10
-935.5346349248002
 20
-1068.615466817338
 30
0.0
 11
-936.4223109636794
 21
-1068.186011736581
 31
0.0
  0
LINE
  5
B7
330
47
100
AcDbEntity
  8
0
  6
Continuous
 62
     7
100
AcDbLine
 10
-936.4223109636794
 20
-1068.186011736581
 30
0.0
 11
-936.5089135040578
 21
-1067.12178125204
 31
0.0
  0
LINE
  5
B8
330
47
100
AcDbEntity
  8
0
  6
Continuous
 62
     7
100
AcDbLine
 10
-936.5089135040578
 20
-1067.12178125204
 30
0.0
 11
-935.6212374651788
 21
-1067.204469453595
 31
0.0
  0
LINE
  5
B9
330
47
100
AcDbEntity
  8
0
  6
Continuous
 62
     7
100
AcDbLine
 10
-935.6212374651788
 20
-1067.204469453595
 30
0.0
 11
-935.6212374651788
 21
-1066.598608388634
 31
0.0
  0
LINE
  5
BA
330
47
100
AcDbEntity
  8
0
  6
Continuous
 62
     7
100
AcDbLine
 10
-935.6212374651788
 20
-1066.598608388634
 30
0.0
 11
-935.6633984380304
 21
-1066.586437564122
 31
0.0
  0
LINE
  5
BB
330
47
100
AcDbEntity
  8
0
  6
Continuous
 62
     2
100
AcDbLine
 10
-936.3120172561287
 20
-1065.715493173361
 30
0.0
 11
-935.1285352817183
 21
-1064.6905677186
 31
0.0
  0
LINE
  5
BC
330
47
100
AcDbEntity
  8
0
  6
Continuous
 62
     7
100
AcDbLine
 10
-935.6212374651788
 20
-1066.598608388634
 30
0.0
 11
-933.8212374651787
 21
-1065.039762661822
 31
0.0
  0
LINE
  5
BD
330
47
100
AcDbEntity
  8
0
  6
Continuous
 62
     2
100
AcDbLine
 10
-935.6633984380304
 20
-1066.586437564122
 30
0.0
 11
-933.8633984380305
 21
-1065.02759183731
 31
0.0
  0
LINE
  5
BE
330
47
100
AcDbEntity
  8
0
  6
Continuous
 62
     7
100
AcDbLine
 10
-935.6212374651788
 20
-1067.204469453595
 30
0.0
 11
-933.35203077142
 21
-1065.239278810363
 31
0.0
  0
LINE
  5
BF
330
47
100
AcDbEntity
  8
0
  6
Continuous
 62
     7
100
AcDbLine
 10
-932.5035460115547
 20
-1066.026365202201
 30
0.0
 11
-927.480598669605
 21
-1067.476365202201
 31
0.0
  0
LINE
  5
C0
330
47
100
AcDbEntity
  8
0
  6
Continuous
 62
     7
100
AcDbLine
 10
-935.5346349248002
 20
-1068.615466817338
 30
0.0
 11
-932.5202065099502
 21
-1066.004895232188
 31
0.0
  0
LINE
  5
C1
330
47
100
AcDbEntity
  8
0
  6
Continuous
 62
     7
100
AcDbLine
 10
-935.5346349248002
 20
-1068.788671898095
 30
0.0
 11
-932.4596349270755
 21
-1066.125643783428
 31
0.0
  0
LINE
  5
C2
330
47
100
AcDbEntity
  8
0
  6
Continuous
 62
     7
100
AcDbLine
 10
-936.4223109636794
 20
-1068.186011736581
 30
0.0
 11
-933.3473109659545
 21
-1065.522983621915
 31
0.0
  0
LINE
  5
C3
330
47
100
AcDbEntity
  8
0
  6
Continuous
 62
     7
100
AcDbLine
 10
-905.6257167527384
 20
-1061.997532486599
 30
0.0
 11
-903.225716750479
 21
-1065.370446008313
 31
0.0
  0
LINE
  5
C4
330
47
100
AcDbEntity
  8
0
  6
Continuous
 62
     7
100
AcDbLine
 10
-901.3762028559298
 20
-1045.148949459672
 30
0.0
 11
-904.4512028536546
 21
-1047.811977574339
 31
0.0
  0
LINE
  5
C5
330
47
100
AcDbEntity
  8
0
  6
Continuous
 62
     7
100
AcDbLine
 10
-903.2317236951105
 20
-1045.335873846777
 30
0.0
 11
-906.3067236928352
 21
-1047.998901961443
 31
0.0
  0
LINE
  5
C6
330
47
100
AcDbEntity
  8
0
  6
Continuous
 62
     7
100
AcDbLine
 10
-907.066632908758
 20
-1041.70439871211
 30
0.0
 11
-903.8399181931612
 21
-1045.862585732531
 31
0.0
  0
LINE
  5
C7
330
47
100
AcDbEntity
  8
0
  6
Continuous
 62
     7
100
AcDbLine
 10
-910.3332956746731
 20
-1080.133991295882
 30
0.0
 11
-910.3332956746731
 21
-1079.029808906057
 31
0.0
  0
LINE
  5
C8
330
47
100
AcDbEntity
  8
0
  6
Continuous
 62
     7
100
AcDbLine
 10
-910.3549463097677
 20
-1071.467487258038
 30
0.0
 11
-910.3549463097677
 21
-1072.62092747159
 31
0.0
  0
LINE
  5
C9
330
47
100
AcDbEntity
  8
0
  6
Continuous
 62
     7
100
AcDbLine
 10
-911.6539844154444
 20
-1072.022929435299
 30
0.0
 11
-911.6539844154444
 21
-1071.092487258038
 31
0.0
  0
LINE
  5
CA
330
47
100
AcDbEntity
  8
0
  6
Continuous
 62
     7
100
AcDbLine
 10
-910.3332956746731
 20
-1079.029808906057
 30
0.0
 11
-911.3292248890252
 21
-1078.634055730584
 31
0.0
  0
LINE
  5
CB
330
47
100
AcDbEntity
  8
0
  6
Continuous
 62
     7
100
AcDbLine
 10
-910.5931032958084
 20
-1077.547517624907
 30
0.0
 11
-910.5931032958085
 21
-1077.114504923015
 31
0.0
  0
LINE
  5
CC
330
47
100
AcDbEntity
  8
0
  6
Continuous
 62
     7
100
AcDbLine
 10
-911.3292248890252
 20
-1077.335017624907
 30
0.0
 11
-910.5931032958084
 21
-1077.547517624907
 31
0.0
  0
LINE
  5
CD
330
47
100
AcDbEntity
  8
0
  6
Continuous
 62
     7
100
AcDbLine
 10
-911.3292248890252
 20
-1078.634055730584
 30
0.0
 11
-911.3292248890252
 21
-1077.335017624907
 31
0.0
  0
LINE
  5
CE
330
47
100
AcDbEntity
  8
0
  6
Continuous
 62
     7
100
AcDbLine
 10
-939.9513644841008
 20
-1071.583991295882
 30
0.0
 11
-937.0887899116258
 21
-1072.410345395879
 31
0.0
  0
LINE
  5
CF
330
47
100
AcDbEntity
  8
0
  6
Continuous
 62
     7
100
AcDbLine
 10
-913.4423268742592
 20
-1077.807549379638
 30
0.0
 11
-912.8880706158373
 21
-1077.967549379638
 31
0.0
  0
LINE
  5
D0
330
47
100
AcDbEntity
  8
0
  6
Continuous
 62
     7
100
AcDbLine
 10
-912.8880706158373
 20
-1077.967549379638
 30
0.0
 11
-912.8880706158373
 21
-1079.396491295882
 31
0.0
  0
LINE
  5
D1
330
47
100
AcDbEntity
  8
0
  6
Continuous
 62
     7
100
AcDbLine
 10
-912.8880706158373
 20
-1079.396491295882
 30
0.0
 11
-910.3332956746731
 21
-1080.133991295882
 31
0.0
  0
LINE
  5
D2
330
47
100
AcDbEntity
  8
0
  6
Continuous
 62
     7
100
AcDbLine
 10
-910.5931032958085
 20
-1077.114504923015
 30
0.0
 11
-911.6539844154444
 21
-1072.022929435299
 31
0.0
  0
LINE
  5
D3
330
47
100
AcDbEntity
  8
0
  6
Continuous
 62
     7
100
AcDbLine
 10
-907.2582956769483
 20
-1077.470963181215
 30
0.0
 11
-910.3332956746731
 21
-1080.133991295882
 31
0.0
  0
LINE
  5
D4
330
47
100
AcDbEntity
  8
0
  6
Continuous
 62
     7
100
AcDbLine
 10
-916.4126368381509
 20
-1038.123289148022
 30
0.0
 11
-914.5876368381504
 21
-1036.542792786114
 31
0.0
  0
LINE
  5
D5
330
47
100
AcDbEntity
  8
0
  6
Continuous
 62
     7
100
AcDbLine
 10
-914.5876368381504
 20
-1036.542792786114
 30
0.0
 11
-915.3477805745613
 21
-1036.323358190695
 31
0.0
  0
LINE
  5
D6
330
47
100
AcDbEntity
  8
0
  6
Continuous
 62
     7
100
AcDbLine
 10
-915.0677805745613
 20
-1036.080871077635
 30
0.0
 11
-915.3477805745613
 21
-1036.323358190695
 31
0.0
  0
LINE
  5
D7
330
47
100
AcDbEntity
  8
0
  6
Continuous
 62
     7
100
AcDbLine
 10
-938.7605795538974
 20
-1061.49213518028
 30
0.0
 11
-939.9297138490064
 21
-1061.15463518028
 31
0.0
  0
LINE
  5
D8
330
47
100
AcDbEntity
  8
0
  6
Continuous
 62
     7
100
AcDbLine
 10
-939.9297138490062
 20
-1059.379283102521
 30
0.0
 11
-939.9297138490064
 21
-1061.15463518028
 31
0.0
  0
LINE
  5
D9
330
47
100
AcDbEntity
  8
0
  6
Continuous
 62
     7
100
AcDbLine
 10
-938.9337846346542
 20
-1040.960634380778
 30
0.0
 11
-939.9297138490062
 21
-1040.406275952073
 31
0.0
  0
LINE
  5
DA
330
47
100
AcDbEntity
  8
0
  6
Continuous
 62
     7
100
AcDbLine
 10
-939.9297138490062
 20
-1040.406275952073
 30
0.0
 11
-939.9297138490062
 21
-1038.897782303094
 31
0.0
  0
LINE
  5
DB
330
47
100
AcDbEntity
  8
0
  6
Continuous
 62
     7
100
AcDbLine
 10
-939.9513644841008
 20
-1069.418927786421
 30
0.0
 11
-939.9513644841008
 21
-1071.583991295882
 31
0.0
  0
LINE
  5
DC
330
47
100
AcDbEntity
  8
0
  6
Continuous
 62
     7
100
AcDbLine
 10
-939.9297138490062
 20
-1038.897782303094
 30
0.0
 11
-938.6021451834749
 21
-1037.953449700754
 31
0.0
  0
LINE
  5
DD
330
47
100
AcDbEntity
  8
0
  6
Continuous
 62
     7
100
AcDbLine
 10
-937.1151312866991
 20
-1058.719539916086
 30
0.0
 11
-939.9297138490062
 21
-1059.379283102521
 31
0.0
  0
LINE
  5
DE
330
47
100
AcDbEntity
  8
0
  6
Continuous
 62
     7
100
AcDbLine
 10
-917.5027805745613
 20
-1038.18964293585
 30
0.0
 11
-920.489951836398
 21
-1037.327320869782
 31
0.0
  0
LINE
  5
DF
330
47
100
AcDbEntity
  8
0
  6
Continuous
 62
     7
100
AcDbLine
 10
-937.1151312867044
 20
-1056.941783102519
 30
0.0
 11
-939.9297138490062
 21
-1059.379283102521
 31
0.0
  0
LINE
  5
E0
330
47
100
AcDbEntity
  8
0
  6
Continuous
 62
     7
100
AcDbLine
 10
-936.8547138512815
 20
-1036.234754188428
 30
0.0
 11
-939.9297138490062
 21
-1038.897782303094
 31
0.0
  0
LINE
  5
E1
330
47
100
AcDbEntity
  8
0
  6
Continuous
 62
     7
100
AcDbLine
 10
-935.5271451857502
 20
-1035.290421586088
 30
0.0
 11
-933.6716243466128
 21
-1036.548631429152
 31
0.0
  0
LINE
  5
E2
330
47
100
AcDbEntity
  8
0
  6
Continuous
 62
     7
100
AcDbLine
 10
-925.7657111990261
 20
-1035.423289148023
 30
0.0
 11
-920.4499017437726
 21
-1036.957831157998
 31
0.0
  0
LINE
  5
E3
330
47
100
AcDbEntity
  8
0
  6
Continuous
 62
     7
100
AcDbLine
 10
-916.1795109708031
 20
-1034.740918921761
 30
0.0
 11
-917.9795109708031
 21
-1036.299764648573
 31
0.0
  0
LINE
  5
E4
330
47
100
AcDbEntity
  8
0
  6
Continuous
 62
     7
100
AcDbLine
 10
-923.9407111990267
 20
-1033.842792786115
 30
0.0
 11
-923.9407111990265
 21
-1034.7088181899
 31
0.0
  0
LINE
  5
E5
330
47
100
AcDbEntity
  8
0
  6
Continuous
 62
     7
100
AcDbLine
 10
-917.39955920687
 20
-1034.388721333002
 30
0.0
 11
-916.1795109708031
 21
-1034.740918921761
 31
0.0
  0
LINE
  5
E6
330
47
100
AcDbEntity
  8
0
  6
Continuous
 62
     7
100
AcDbLine
 10
-919.19955920687
 20
-1035.947567059814
 30
0.0
 11
-917.39955920687
 21
-1034.388721333002
 31
0.0
  0
LINE
  5
E7
330
47
100
AcDbEntity
  8
0
  6
Continuous
 62
     7
100
AcDbLine
 10
-917.9093151349969
 20
-1033.874950050904
 30
0.0
 11
-920.3443151349968
 21
-1035.983721909119
 31
0.0
  0
LINE
  5
E8
330
47
100
AcDbEntity
  8
0
  6
Continuous
 62
     7
100
AcDbLine
 10
-917.9093151349969
 20
-1033.874950050904
 30
0.0
 11
-914.9465527255245
 21
-1034.730225888231
 31
0.0
  0
LINE
  5
E9
330
47
100
AcDbEntity
  8
0
  6
Continuous
 62
     7
100
AcDbLine
 10
-916.4985479797177
 20
-1038.098488737667
 30
0.0
 11
-915.423547979718
 21
-1037.167511428599
 31
0.0
  0
LINE
  5
EA
330
47
100
AcDbEntity
  8
0
  6
Continuous
 62
     7
100
AcDbLine
 10
-920.3443151349968
 20
-1035.983721909119
 30
0.0
 11
-920.489951836398
 21
-1037.327320869782
 31
0.0
  0
LINE
  5
EB
330
47
100
AcDbEntity
  8
0
  6
Continuous
 62
     7
100
AcDbLine
 10
-915.423547979718
 20
-1037.167511428599
 30
0.0
 11
-915.3376368381512
 21
-1037.192311838954
 31
0.0
  0
LINE
  5
EC
330
47
100
AcDbEntity
  8
0
  6
Continuous
 62
     7
100
AcDbLine
 10
-915.423547979718
 20
-1037.167511428599
 30
0.0
 11
-915.3477805745613
 21
-1036.323358190695
 31
0.0
  0
LINE
  5
ED
330
47
100
AcDbEntity
  8
0
  6
Continuous
 62
     7
100
AcDbLine
 10
-920.3443151349968
 20
-1035.983721909119
 30
0.0
 11
-917.3815527255244
 21
-1036.838997746446
 31
0.0
  0
LINE
  5
EE
330
47
100
AcDbEntity
  8
0
  6
Continuous
 62
     7
100
AcDbLine
 10
-915.0139857171299
 20
-1035.481522281285
 30
0.0
 11
-907.1067412312862
 21
-1037.764147147509
 31
0.0
  0
LINE
  5
EF
330
47
100
AcDbEntity
  8
0
  6
Continuous
 62
     7
100
AcDbLine
 10
-936.8547138512815
 20
-1036.234754188428
 30
0.0
 11
-935.5271451857502
 21
-1035.290421586088
 31
0.0
  0
LINE
  5
F0
330
47
100
AcDbEntity
  8
0
  6
Continuous
 62
     7
100
AcDbLine
 10
-935.5271451857502
 20
-1035.290421586088
 30
0.0
 11
-938.6021451834749
 21
-1037.953449700754
 31
0.0
  0
LINE
  5
F1
330
47
100
AcDbEntity
  8
0
  6
Continuous
 62
     7
100
AcDbLine
 10
-914.9465527255245
 20
-1034.730225888231
 30
0.0
 11
-915.0677805745613
 21
-1036.080871077635
 31
0.0
  0
LINE
  5
F2
330
47
100
AcDbEntity
  8
0
  6
Continuous
 62
     7
100
AcDbLine
 10
-919.19955920687
 20
-1035.947567059814
 30
0.0
 11
-917.9795109708031
 21
-1036.299764648573
 31
0.0
  0
LINE
  5
F3
330
47
100
AcDbEntity
  8
0
  6
Continuous
 62
     7
100
AcDbLine
 10
-917.5680815744217
 20
-1035.943456339443
 30
0.0
 11
-917.39955920687
 21
-1034.388721333002
 31
0.0
  0
LINE
  5
F4
330
47
100
AcDbEntity
  8
0
  6
Continuous
 62
     7
100
AcDbLine
 10
-923.9407111990265
 20
-1034.7088181899
 30
0.0
 11
-925.0157111990263
 21
-1035.639795498969
 31
0.0
  0
LINE
  5
F5
330
47
100
AcDbEntity
  8
0
  6
Continuous
 62
     7
100
AcDbLine
 10
-923.9407111990265
 20
-1034.7088181899
 30
0.0
 11
-920.1393151427807
 21
-1035.806186708084
 31
0.0
  0
LINE
  5
F6
330
47
100
AcDbEntity
  8
0
  6
Continuous
 62
     7
100
AcDbLine
 10
-917.3815527255244
 20
-1036.838997746446
 30
0.0
 11
-914.9465527255245
 21
-1034.730225888231
 31
0.0
  0
LINE
  5
F7
330
47
100
AcDbEntity
  8
0
  6
Continuous
 62
     7
100
AcDbLine
 10
-917.3815527255244
 20
-1036.838997746446
 30
0.0
 11
-917.5027805745613
 21
-1038.18964293585
 31
0.0
  0
LINE
  5
F8
330
47
100
AcDbEntity
  8
0
  6
Continuous
 62
     7
100
AcDbLine
 10
-933.9716850412026
 20
-1036.808491613343
 30
0.0
 11
-933.3396563105078
 21
-1037.622971322939
 31
0.0
  0
LINE
  5
F9
330
47
100
AcDbEntity
  8
0
  6
Continuous
 62
     7
100
AcDbLine
 10
-933.3396563105078
 20
-1037.622971322939
 30
0.0
 11
-932.7792527300388
 21
-1037.22434232149
 31
0.0
  0
LINE
  5
FA
330
47
100
AcDbEntity
  8
0
  6
Continuous
 62
     7
100
AcDbLine
 10
-936.4146563082326
 20
-1040.285999437606
 30
0.0
 11
-933.3396563105078
 21
-1037.622971322939
 31
0.0
  0
LINE
  5
FB
330
47
100
AcDbEntity
  8
0
  6
Continuous
 62
     7
100
AcDbLine
 10
-933.6716243466128
 20
-1036.548631429152
 30
0.0
 11
-936.7466243443375
 21
-1039.211659543818
 31
0.0
  0
LINE
  5
FC
330
47
100
AcDbEntity
  8
0
  6
Continuous
 62
     7
100
AcDbLine
 10
-931.1674767461112
 20
-1032.189281020003
 30
0.0
 11
-934.2424767438359
 21
-1034.852309134669
 31
0.0
  0
LINE
  5
FD
330
47
100
AcDbEntity
  8
0
  6
Continuous
 62
     7
100
AcDbLine
 10
-917.172780574562
 20
-1037.903854552602
 30
0.0
 11
-917.5027805745613
 21
-1038.18964293585
 31
0.0
  0
LINE
  5
FE
330
47
100
AcDbEntity
  8
0
  6
Continuous
 62
     7
100
AcDbLine
 10
-917.172780574562
 20
-1037.903854552602
 30
0.0
 11
-916.4126368381509
 21
-1038.123289148022
 31
0.0
  0
LINE
  5
FF
330
47
100
AcDbEntity
  8
0
  6
Continuous
 62
     7
100
AcDbLine
 10
-907.1067412312862
 20
-1037.764147147509
 30
0.0
 11
-905.7358712956086
 21
-1039.53075314638
 31
0.0
  0
LINE
  5
100
330
47
100
AcDbEntity
  8
0
  6
Continuous
 62
     7
100
AcDbLine
 10
-905.7358712956086
 20
-1039.53075314638
 30
0.0
 11
-906.4584384107075
 21
-1041.177686826356
 31
0.0
  0
LINE
  5
101
330
47
100
AcDbEntity
  8
0
  6
Continuous
 62
     7
100
AcDbLine
 10
-908.8108712933333
 20
-1042.193781261047
 30
0.0
 11
-910.181741229011
 21
-1040.427175262176
 31
0.0
  0
LINE
  5
102
330
47
100
AcDbEntity
  8
0
  6
Continuous
 62
     7
100
AcDbLine
 10
-909.5334384084321
 20
-1043.840714941023
 30
0.0
 11
-908.8108712933333
 21
-1042.193781261047
 31
0.0
  0
LINE
  5
103
330
47
100
AcDbEntity
  8
0
  6
Continuous
 62
     7
100
AcDbLine
 10
-909.8567088785217
 20
-1043.424124324469
 30
0.0
 11
-909.5334384084321
 21
-1043.840714941023
 31
0.0
  0
LINE
  5
104
330
47
100
AcDbEntity
  8
0
  6
Continuous
 62
     7
100
AcDbLine
 10
-910.5119473847161
 20
-1043.890211766696
 30
0.0
 11
-909.8567088785217
 21
-1043.424124324469
 31
0.0
  0
LINE
  5
105
330
47
100
AcDbEntity
  8
0
  6
Continuous
 62
     7
100
AcDbLine
 10
-939.5183517822087
 20
-1069.110915084529
 30
0.0
 11
-939.3018454312626
 21
-1069.173415084529
 31
0.0
  0
LINE
  5
106
330
47
100
AcDbEntity
  8
0
  6
Continuous
 62
     7
100
AcDbLine
 10
-927.480598669605
 20
-1067.476365202201
 30
0.0
 11
-927.1953131970641
 21
-1066.494020146201
 31
0.0
  0
LINE
  5
107
330
47
100
AcDbEntity
  8
0
  6
Continuous
 62
     7
100
AcDbLine
 10
-926.7770550451952
 20
-1066.293820106615
 30
0.0
 11
-926.6795251711044
 21
-1066.321974556146
 31
0.0
  0
LINE
  5
108
330
47
100
AcDbEntity
  8
0
  6
Continuous
 62
     7
100
AcDbLine
 10
-906.4584384107075
 20
-1041.177686826356
 30
0.0
 11
-909.5334384084321
 21
-1043.840714941023
 31
0.0
  0
LINE
  5
109
330
47
100
AcDbEntity
  8
0
  6
Continuous
 62
     7
100
AcDbLine
 10
-905.7358712956086
 20
-1039.53075314638
 30
0.0
 11
-908.8108712933333
 21
-1042.193781261047
 31
0.0
  0
LINE
  5
10A
330
47
100
AcDbEntity
  8
0
  6
Continuous
 62
     7
100
AcDbLine
 10
-907.1067412312862
 20
-1037.764147147509
 30
0.0
 11
-910.181741229011
 21
-1040.427175262176
 31
0.0
  0
LINE
  5
10B
330
47
100
AcDbEntity
  8
0
  6
Continuous
 62
     7
100
AcDbLine
 10
-929.7966068104424
 20
-1031.21414714751
 30
0.0
 11
-918.5768151450548
 21
-1034.453022016641
 31
0.0
  0
LINE
  5
10C
330
47
100
AcDbEntity
  8
0
  6
Continuous
 62
     7
100
AcDbLine
 10
-934.0137899139011
 20
-1069.747317281212
 30
0.0
 11
-937.0887899116258
 21
-1072.410345395879
 31
0.0
  0
LINE
  5
10D
330
47
100
AcDbEntity
  8
0
  6
Continuous
 62
     7
100
AcDbLine
 10
-939.0420378101273
 20
-1070.027837947935
 30
0.0
 11
-939.0420378101272
 21
-1070.937164621908
 31
0.0
  0
LINE
  5
10E
330
47
100
AcDbEntity
  8
0
  6
Continuous
 62
     7
100
AcDbLine
 10
-906.6386917289402
 20
-1048.881580020224
 30
0.0
 11
-906.0304972308896
 21
-1048.35486813447
 31
0.0
  0
LINE
  5
10F
330
47
100
AcDbEntity
  8
0
  6
Continuous
 62
     7
100
AcDbLine
 10
-902.5742094765556
 20
-1050.55546019435
 30
0.0
 11
-902.8632167527132
 21
-1050.972606266069
 31
0.0
  0
LINE
  5
110
330
47
100
AcDbEntity
  8
0
  6
Continuous
 62
     7
100
AcDbLine
 10
-900.048634190443
 20
-1048.368247837407
 30
0.0
 11
-903.1236341881676
 21
-1051.031275952073
 31
0.0
  0
LINE
  5
111
330
47
100
AcDbEntity
  8
0
  6
Continuous
 62
     7
100
AcDbLine
 10
-905.9382167504377
 20
-1053.635634380735
 30
0.0
 11
-902.8632167527132
 21
-1050.972606266069
 31
0.0
  0
LINE
  5
112
330
47
100
AcDbEntity
  8
0
  6
Continuous
 62
     2
100
AcDbLine
 10
-933.8242347523261
 20
-1063.393449152361
 30
0.0
 11
-933.3742347523261
 21
-1063.003737720658
 31
0.0
  0
LINE
  5
113
330
47
100
AcDbEntity
  8
0
  6
Continuous
 62
     7
100
AcDbLine
 10
-935.8639135041367
 20
-1061.895317940269
 30
0.0
 11
-936.5089135040579
 21
-1062.453904325642
 31
0.0
  0
LINE
  5
114
330
47
100
AcDbEntity
  8
0
  6
Continuous
 62
     2
100
AcDbLine
 10
-934.8418146017727
 20
-1063.099699152361
 30
0.0
 11
-934.0543146018515
 21
-1062.417704146949
 31
0.0
  0
LINE
  5
115
330
47
100
AcDbEntity
  8
0
  6
Continuous
 62
     7
100
AcDbLine
 10
-935.3995039425639
 20
-1062.029381432963
 30
0.0
 11
-937.0676370821798
 21
-1063.474027108765
 31
0.0
  0
LINE
  5
116
330
47
100
AcDbEntity
  8
0
  6
Continuous
 62
     7
100
AcDbLine
 10
-902.8632167527132
 20
-1050.972606266069
 30
0.0
 11
-902.8632167527543
 21
-1065.056511801412
 31
0.0
  0
LINE
  5
117
330
47
100
AcDbEntity
  8
0
  6
Continuous
 62
     7
100
AcDbLine
 10
-903.225716750479
 20
-1065.370446008313
 30
0.0
 11
-902.8632167527543
 21
-1065.056511801412
 31
0.0
  0
LINE
  5
118
330
47
100
AcDbEntity
  8
0
  6
Continuous
 62
     2
100
AcDbLine
 10
-939.3018454312626
 20
-1069.173415084529
 30
0.0
 11
-937.7863009746397
 21
-1067.860915084529
 31
0.0
  0
LINE
  5
119
330
47
100
AcDbEntity
  8
0
  6
Continuous
 62
     7
100
AcDbLine
 10
-926.2465124692121
 20
-1066.879987258038
 30
0.0
 11
-926.2465124692121
 21
-1068.915146956931
 31
0.0
  0
LINE
  5
11A
330
47
100
AcDbEntity
  8
0
  6
Continuous
 62
     2
100
AcDbLine
 10
-939.5183517822087
 20
-1069.110915084529
 30
0.0
 11
-937.7863009746397
 21
-1067.610915084529
 31
0.0
  0
LINE
  5
11B
330
47
100
AcDbEntity
  8
0
  6
Continuous
 62
     7
100
AcDbLine
 10
-900.048634190443
 20
-1067.341254987855
 30
0.0
 11
-903.1236341881676
 21
-1070.004283102521
 31
0.0
  0
LINE
  5
11C
330
47
100
AcDbEntity
  8
0
  6
Continuous
 62
     7
100
AcDbLine
 10
-902.8632167527543
 20
-1065.056511801412
 30
0.0
 11
-900.048634190443
 21
-1067.341254987855
 31
0.0
  0
LINE
  5
11D
330
47
100
AcDbEntity
  8
0
  6
Continuous
 62
     7
100
AcDbLine
 10
-939.8456786175627
 20
-1069.165963313412
 30
0.0
 11
-937.7863009746397
 21
-1067.382489958655
 31
0.0
  0
LINE
  5
11E
330
47
100
AcDbEntity
  8
0
  6
Continuous
 62
     7
100
AcDbLine
 10
-903.1236341881676
 20
-1079.184152382637
 30
0.0
 11
-903.1236341881676
 21
-1070.004283102521
 31
0.0
  0
LINE
  5
11F
330
47
100
AcDbEntity
  8
0
  6
Continuous
 62
     7
100
AcDbLine
 10
-906.2413256417916
 20
-1078.284152382637
 30
0.0
 11
-903.1236341881676
 21
-1079.184152382637
 31
0.0
  0
LINE
  5
120
330
47
100
AcDbEntity
  8
0
  6
Continuous
 62
     7
100
AcDbLine
 10
-907.0640497753868
 20
-1077.223928249041
 30
0.0
 11
-906.2413256417916
 21
-1078.284152382637
 31
0.0
  0
LINE
  5
121
330
47
100
AcDbEntity
  8
0
  6
Continuous
 62
     7
100
AcDbLine
 10
-907.2582956769483
 20
-1076.36678079139
 30
0.0
 11
-907.2582956769483
 21
-1077.470963181215
 31
0.0
  0
LINE
  5
122
330
47
100
AcDbEntity
  8
0
  6
Continuous
 62
     7
100
AcDbLine
 10
-907.0640497753868
 20
-1076.834216817338
 30
0.0
 11
-907.0640497753868
 21
-1077.223928249041
 31
0.0
  0
LINE
  5
123
330
47
100
AcDbEntity
  8
0
  6
Continuous
 62
     7
100
AcDbLine
 10
-906.3712294523591
 20
-1076.861011736582
 30
0.0
 11
-907.0640497753868
 21
-1076.834216817338
 31
0.0
  0
LINE
  5
124
330
47
100
AcDbEntity
  8
0
  6
Continuous
 62
     7
100
AcDbLine
 10
-907.0640497753868
 20
-1076.834216817338
 30
0.0
 11
-906.3712294523593
 21
-1076.234216817338
 31
0.0
  0
LINE
  5
125
330
47
100
AcDbEntity
  8
0
  6
Continuous
 62
     7
100
AcDbLine
 10
-908.2542248913005
 20
-1075.971027615917
 30
0.0
 11
-907.2582956769483
 21
-1076.36678079139
 31
0.0
  0
LINE
  5
126
330
47
100
AcDbEntity
  8
0
  6
Continuous
 62
     7
100
AcDbLine
 10
-908.2542248913004
 20
-1075.521989510241
 30
0.0
 11
-908.2542248913005
 21
-1075.971027615917
 31
0.0
  0
LINE
  5
127
330
47
100
AcDbEntity
  8
0
  6
Continuous
 62
     7
100
AcDbLine
 10
-906.3712294523593
 20
-1075.82178125204
 30
0.0
 11
-906.3712294523591
 21
-1076.861011736582
 31
0.0
  0
LINE
  5
128
330
47
100
AcDbEntity
  8
0
  6
Continuous
 62
     2
100
AcDbLine
 10
-925.5562183355744
 20
-1071.760801566584
 30
0.0
 11
-924.5344943792852
 21
-1070.875962664782
 31
0.0
  0
LINE
  5
129
330
47
100
AcDbEntity
  8
0
  6
Continuous
 62
     7
100
AcDbLine
 10
-911.2209717135521
 20
-1070.784474556145
 30
0.0
 11
-910.78795901166
 21
-1070.909474556145
 31
0.0
  0
LINE
  5
12A
330
47
100
AcDbEntity
  8
0
  6
Continuous
 62
     7
100
AcDbLine
 10
-910.3549463097677
 20
-1072.62092747159
 30
0.0
 11
-909.9002829727809
 21
-1074.80303125204
 31
0.0
  0
LINE
  5
12B
330
47
100
AcDbEntity
  8
0
  6
Continuous
 62
     7
100
AcDbLine
 10
-909.9002829727809
 20
-1074.80303125204
 30
0.0
 11
-906.3712294523593
 21
-1075.82178125204
 31
0.0
  0
LINE
  5
12C
330
47
100
AcDbEntity
  8
0
  6
Continuous
 62
     7
100
AcDbLine
 10
-911.6539844154444
 20
-1072.022929435299
 30
0.0
 11
-910.5404796686555
 21
-1071.058606037345
 31
0.0
  0
LINE
  5
12D
330
47
100
AcDbEntity
  8
0
  6
Continuous
 62
     7
100
AcDbLine
 10
-910.5931032958085
 20
-1077.114504923015
 30
0.0
 11
-908.4181032958085
 21
-1075.230899669784
 31
0.0
  0
LINE
  5
12E
330
47
100
AcDbEntity
  8
0
  6
Continuous
 62
     7
100
AcDbLine
 10
-910.5931032958084
 20
-1077.547517624907
 30
0.0
 11
-908.0431032958085
 21
-1075.339152845257
 31
0.0
  0
LINE
  5
12F
330
47
100
AcDbEntity
  8
0
  6
Continuous
 62
     7
100
AcDbLine
 10
-911.3292248890252
 20
-1078.634055730584
 30
0.0
 11
-908.2542248913005
 21
-1075.971027615917
 31
0.0
  0
LINE
  5
130
330
47
100
AcDbEntity
  8
0
  6
Continuous
 62
     7
100
AcDbLine
 10
-910.3332956746731
 20
-1079.029808906057
 30
0.0
 11
-907.2582956769483
 21
-1076.36678079139
 31
0.0
  0
LINE
  5
131
330
47
100
AcDbEntity
  8
0
  6
Continuous
 62
     7
100
AcDbLine
 10
-900.048634190443
 20
-1076.52112426797
 30
0.0
 11
-903.1236341881676
 21
-1079.184152382637
 31
0.0
  0
LINE
  5
132
330
47
100
AcDbEntity
  8
0
  6
Continuous
 62
     2
100
AcDbLine
 10
-911.6539844154444
 20
-1071.092487258038
 30
0.0
 11
-911.2828306709653
 21
-1070.771058686609
 31
0.0
  0
LINE
  5
133
330
47
100
AcDbEntity
  8
0
  6
Continuous
 62
     7
100
AcDbLine
 10
-925.6382408394152
 20
-1072.005661388685
 30
0.0
 11
-924.3581824752719
 21
-1070.89709832701
 31
0.0
  0
LINE
  5
134
330
47
100
AcDbEntity
  8
0
  6
Continuous
 62
     7
100
AcDbLine
 10
-939.0420378101272
 20
-1070.937164621908
 30
0.0
 11
-937.8096448042445
 21
-1069.869880971368
 31
0.0
  0
LINE
  5
135
330
47
100
AcDbEntity
  8
0
  6
Continuous
 62
     7
100
AcDbLine
 10
-905.938216750479
 20
-1067.719539916078
 30
0.0
 11
-905.6257167527543
 21
-1067.448906979366
 31
0.0
  0
LINE
  5
136
330
47
100
AcDbEntity
  8
0
  6
Continuous
 62
     7
100
AcDbLine
 10
-900.048634190443
 20
-1067.341254987855
 30
0.0
 11
-900.048634190443
 21
-1076.52112426797
 31
0.0
  0
LINE
  5
137
330
47
100
AcDbEntity
  8
0
  6
Continuous
 62
     7
100
AcDbLine
 10
-937.7863009746397
 20
-1068.043927786421
 30
0.0
 11
-937.8096448042445
 21
-1068.236908217511
 31
0.0
  0
LINE
  5
138
330
47
100
AcDbEntity
  8
0
  6
Continuous
 62
     2
100
AcDbLine
 10
-926.5063200903475
 20
-1069.099954578066
 30
0.0
 11
-926.2465124692121
 21
-1068.874954578067
 31
0.0
  0
LINE
  5
139
330
47
100
AcDbEntity
  8
0
  6
Continuous
 62
     7
100
AcDbLine
 10
-926.964577659843
 20
-1069.177022098503
 30
0.0
 11
-926.2465124692121
 21
-1068.555159401843
 31
0.0
  0
LINE
  5
13A
330
47
100
AcDbEntity
  8
0
  6
Continuous
 62
     7
100
AcDbLine
 10
-938.9745185959086
 20
-1069.98439225943
 30
0.0
 11
-937.8096448042445
 21
-1068.975581963646
 31
0.0
  0
LINE
  5
13B
330
47
100
AcDbEntity
  8
0
  6
Continuous
 62
     7
100
AcDbLine
 10
-905.938216750479
 20
-1067.719539916078
 30
0.0
 11
-903.1236341881676
 21
-1070.004283102521
 31
0.0
  0
LINE
  5
13C
330
47
100
AcDbEntity
  8
0
  6
Continuous
 62
     7
100
AcDbLine
 10
-910.181741229011
 20
-1040.427175262176
 30
0.0
 11
-932.8716068081671
 21
-1033.877175262177
 31
0.0
  0
SPLINE
  5
13D
330
47
100
AcDbEntity
  8
0
  6
Continuous
 62
     7
100
AcDbSpline
210
0.0
220
0.0
230
1.0
 70
     8
 71
     3
 72
     9
 73
     5
 74
     3
 42
0.000000001
 43
0.0000000001
 44
0.00000001
 40
0.0
 40
0.0
 40
0.0
 40
0.0
 40
0.1876391576303897
 40
0.3621587580994505
 40
0.3621587580994505
 40
0.3621587580994505
 40
0.3621587580994505
 10
-930.0912078004778
 20
-1034.063156357197
 30
0.0
 10
-930.1240395117647
 20
-1034.00883460267
 30
0.0
 10
-930.1874073531401
 20
-1033.903989213295
 30
0.0
 10
-930.1987094862264
 20
-1033.78215292758
 30
0.0
 10
-930.2041558281205
 20
-1033.723441602163
 30
0.0
 11
-930.0912078004778
 21
-1034.063156357197
 31
0.0
 11
-930.1757263504605
 21
-1033.895630034631
 31
0.0
 11
-930.2041558281205
 21
-1033.723441602163
 31
0.0
  0
SPLINE
  5
13E
330
47
100
AcDbEntity
  8
0
  6
Continuous
 62
     7
100
AcDbSpline
210
0.0
220
0.0
230
1.0
 70
     8
 71
     3
 72
    11
 73
     7
 74
     5
 42
0.000000001
 43
0.0000000001
 44
0.00000001
 40
0.0
 40
0.0
 40
0.0
 40
0.0
 40
0.9640445088004703
 40
1.949938633287772
 40
2.975075556820575
 40
4.050672365263546
 40
4.050672365263546
 40
4.050672365263546
 40
4.050672365263546
 10
-937.0887899116258
 20
-1072.410345395879
 30
0.0
 10
-936.8610104745933
 20
-1072.18154851091
 30
0.0
 10
-936.4002890977655
 20
-1071.71876915729
 30
0.0
 10
-935.9244618391842
 20
-1070.83583115223
 30
0.0
 10
-935.6083548942632
 20
-1069.848467064889
 30
0.0
 10
-935.5595986202336
 20
-1069.147549000617
 30
0.0
 10
-935.5346349248002
 20
-1068.788671898095
 30
0.0
 11
-937.0887899116258
 21
-1072.410345395879
 31
0.0
 11
-936.441835393765
 21
-1071.695620504986
 31
0.0
 11
-935.9585422172272
 21
-1070.836309772654
 31
0.0
 11
-935.6531441754352
 21
-1069.857720097644
 31
0.0
 11
-935.5346349248002
 21
-1068.788671898095
 31
0.0
  0
SPLINE
  5
13F
330
47
100
AcDbEntity
  8
0
  6
Continuous
 62
     7
100
AcDbSpline
210
0.0
220
0.0
230
1.0
 70
     8
 71
     3
 72
    11
 73
     7
 74
     5
 42
0.000000001
 43
0.0000000001
 44
0.00000001
 40
0.0
 40
0.0
 40
0.0
 40
0.0
 40
0.6362800495368849
 40
1.234323342833351
 40
1.800429874212724
 40
2.348188109558576
 40
2.348188109558576
 40
2.348188109558576
 40
2.348188109558576
 10
-934.8418146017727
 20
-1063.099699152361
 30
0.0
 10
-935.049420691802
 20
-1063.05182443005
 30
0.0
 10
-935.4521569471647
 20
-1062.958951994138
 30
0.0
 10
-936.057576431913
 20
-1062.989371759417
 30
0.0
 10
-936.6167896650816
 20
-1063.145531102592
 30
0.0
 10
-936.9190140906703
 20
-1063.365737563369
 30
0.0
 10
-937.0676370821798
 20
-1063.474027108765
 30
0.0
 11
-934.8418146017727
 21
-1063.099699152361
 31
0.0
 11
-935.4679072015387
 21
-1062.986295632052
 31
0.0
 11
-936.0653653107672
 21
-1063.012745416579
 31
0.0
 11
-936.6068636609084
 21
-1063.177839768039
 31
0.0
 11
-937.0676370821798
 21
-1063.474027108765
 31
0.0
  0
SPLINE
  5
140
330
47
100
AcDbEntity
  8
0
  6
Continuous
 62
     7
100
AcDbSpline
210
0.0
220
0.0
230
1.0
 70
     8
 71
     3
 72
    11
 73
     7
 74
     5
 42
0.000000001
 43
0.0000000001
 44
0.00000001
 40
0.0
 40
0.0
 40
0.0
 40
0.0
 40
0.4557965588130835
 40
0.9223879715744261
 40
1.408563928666851
 40
1.919815082949749
 40
1.919815082949749
 40
1.919815082949749
 40
1.919815082949749
 10
-937.0676370821798
 20
-1063.474027108765
 30
0.0
 10
-937.1758524297946
 20
-1063.58175719724
 30
0.0
 10
-937.3948460312097
 20
-1063.799768808665
 30
0.0
 10
-937.6175754487774
 20
-1064.21964558187
 30
0.0
 10
-937.7613772215045
 20
-1064.690108380947
 30
0.0
 10
-937.7778549789656
 20
-1065.023367115142
 30
0.0
 10
-937.7863009746397
 20
-1065.194185525228
 30
0.0
 11
-937.0676370821798
 21
-1063.474027108765
 31
0.0
 11
-937.3744233969808
 21
-1063.811121548814
 31
0.0
 11
-937.6007912201931
 21
-1064.219122967052
 31
0.0
 11
-937.7395523537868
 21
-1064.685076195393
 31
0.0
 11
-937.7863009746397
 21
-1065.194185525228
 31
0.0
  0
SPLINE
  5
141
330
47
100
AcDbEntity
  8
0
  6
Continuous
 62
     7
100
AcDbSpline
210
0.0
220
0.0
230
1.0
 70
     8
 71
     3
 72
    17
 73
    13
 74
    11
 42
0.000000001
 43
0.0000000001
 44
0.00000001
 40
0.0
 40
0.0
 40
0.0
 40
0.0
 40
0.302847542210911
 40
0.6636364748675811
 40
1.10548263285116
 40
1.622057525450123
 40
2.190363165955634
 40
2.778837198294892
 40
3.352992354982671
 40
3.880399092579633
 40
4.336113522218158
 40
4.710176897930657
 40
4.710176897930657
 40
4.710176897930657
 40
4.710176897930657
 10
-926.0041558281206
 20
-1033.723441602163
 30
0.0
 10
-926.0229355798176
 20
-1033.824778374658
 30
0.0
 10
-926.0640880759911
 20
-1034.046839864927
 30
0.0
 10
-926.3418158881208
 20
-1034.315853726014
 30
0.0
 10
-926.7234976538147
 20
-1034.532872526527
 30
0.0
 10
-927.2124826733935
 20
-1034.68870583579
 30
0.0
 10
-927.7653557830606
 20
-1034.77330600922
 30
0.0
 10
-928.3439917383887
 20
-1034.779850495632
 30
0.0
 10
-928.9057320824268
 20
-1034.70920047058
 30
0.0
 10
-929.4035590369867
 20
-1034.562141717839
 30
0.0
 10
-929.8199354735741
 20
-1034.363195714692
 30
0.0
 10
-930.0069167495972
 20
-1034.156386046751
 30
0.0
 10
-930.0912078004778
 20
-1034.063156357197
 30
0.0
 11
-926.0041558281206
 21
-1033.723441602163
 31
0.0
 11
-926.0866454802132
 21
-1034.014838403647
 31
0.0
 11
-926.3276307441994
 21
-1034.283343072557
 31
0.0
 11
-926.7081826140013
 21
-1034.507861000992
 31
0.0
 11
-927.1984021387862
 21
-1034.670754941858
 31
0.0
 11
-927.7597790985376
 21
-1034.759226456234
 31
0.0
 11
-928.3482102939879
 21
-1034.766326713008
 31
0.0
 11
-928.917468186599
 21
-1034.691496274576
 31
0.0
 11
-929.4228322607466
 21
-1034.540615461577
 31
0.0
 11
-929.8245990395131
 21
-1034.325536184423
 31
0.0
 11
-930.0912078004778
 21
-1034.063156357197
 31
0.0
  0
SPLINE
  5
142
330
47
100
AcDbEntity
  8
0
  6
Continuous
 62
     7
100
AcDbSpline
210
0.0
220
0.0
230
1.0
 70
     8
 71
     3
 72
    19
 73
    15
 74
    13
 42
0.000000001
 43
0.0000000001
 44
0.00000001
 40
0.0
 40
0.0
 40
0.0
 40
0.0
 40
0.2810227023267301
 40
0.609873006740643
 40
1.00820085045805
 40
1.474036227206977
 40
1.99126455496703
 40
2.535960715549836
 40
3.08065687613274
 40
3.597885203892839
 40
4.063720580641847
 40
4.462048424359225
 40
4.790898728772788
 40
5.071921431099987
 40
5.071921431099987
 40
5.071921431099987
 40
5.071921431099987
 10
-930.2041558281205
 20
-1033.723441602163
 30
0.0
 10
-930.1881543043721
 20
-1033.629346626229
 30
0.0
 10
-930.1534279194548
 20
-1033.425142541214
 30
0.0
 10
-929.9126514087301
 20
-1033.169511787385
 30
0.0
 10
-929.5761182243064
 20
-1032.957781354958
 30
0.0
 10
-929.1406906299084
 20
-1032.79701478153
 30
0.0
 10
-928.6402018949875
 20
-1032.696169097001
 30
0.0
 10
-928.1041558281206
 20
-1032.661783903918
 30
0.0
 10
-927.568109761254
 20
-1032.696169097001
 30
0.0
 10
-927.0676210263327
 20
-1032.79701478153
 30
0.0
 10
-926.632193431935
 20
-1032.957781354958
 30
0.0
 10
-926.2956602475108
 20
-1033.169511787385
 30
0.0
 10
-926.0548837367866
 20
-1033.425142541214
 30
0.0
 10
-926.0201573518686
 20
-1033.629346626229
 30
0.0
 10
-926.0041558281206
 20
-1033.723441602163
 30
0.0
 11
-930.2041558281205
 21
-1033.723441602163
 31
0.0
 11
-930.1325995225327
 21
-1033.451681677258
 31
0.0
 11
-929.9228091760679
 21
-1033.198441602163
 31
0.0
 11
-929.5890796727231
 21
-1032.980979679862
 31
0.0
 11
-929.1541558281207
 21
-1032.81411492819
 31
0.0
 11
-928.6476756779304
 21
-1032.709219754957
 31
0.0
 11
-928.1041558281207
 21
-1032.673441602163
 31
0.0
 11
-927.560635978311
 21
-1032.709219754957
 31
0.0
 11
-927.0541558281207
 21
-1032.81411492819
 31
0.0
 11
-926.6192319835183
 21
-1032.980979679862
 31
0.0
 11
-926.2855024801734
 21
-1033.198441602163
 31
0.0
 11
-926.0757121337085
 21
-1033.451681677258
 31
0.0
 11
-926.0041558281206
 21
-1033.723441602163
 31
0.0
  0
SPLINE
  5
143
330
47
100
AcDbEntity
  8
0
  6
Continuous
 62
     7
100
AcDbSpline
210
0.0
220
0.0
230
1.0
 70
     8
 71
     3
 72
    11
 73
     7
 74
     5
 42
0.000000001
 43
0.0000000001
 44
0.00000001
 40
0.0
 40
0.0
 40
0.0
 40
0.0
 40
0.0845803140789473
 40
0.1719938201965365
 40
0.2643387385566854
 40
0.3625878635463243
 40
0.3625878635463243
 40
0.3625878635463243
 40
0.3625878635463243
 10
-933.4805415752044
 20
-1063.335648512034
 30
0.0
 10
-933.5034907131453
 20
-1063.352369691507
 30
0.0
 10
-933.5501577255252
 20
-1063.386372148328
 30
0.0
 10
-933.6365068230904
 20
-1063.41048499321
 30
0.0
 10
-933.7299907125689
 20
-1063.415182157081
 30
0.0
 10
-933.7921779297011
 20
-1063.400841572695
 30
0.0
 10
-933.8242347523261
 20
-1063.393449152361
 30
0.0
 11
-933.4805415752044
 21
-1063.335648512034
 31
0.0
 11
-933.5516904123125
 21
-1063.381383321999
 31
0.0
 11
-933.635304128143
 21
-1063.40687583215
 31
0.0
 11
-933.7275586891269
 21
-1063.410959990056
 31
0.0
 11
-933.8242347523261
 21
-1063.393449152361
 31
0.0
  0
SPLINE
  5
144
330
47
100
AcDbEntity
  8
0
  6
Continuous
 62
     7
100
AcDbSpline
210
0.0
220
0.0
230
1.0
 70
     8
 71
     3
 72
    15
 73
    11
 74
     9
 42
0.000000001
 43
0.0000000001
 44
0.00000001
 40
0.0
 40
0.0
 40
0.0
 40
0.0
 40
0.139541021435525
 40
0.2863405880730943
 40
0.4357533384835461
 40
0.5825461859302881
 40
0.7220751137402797
 40
0.8514774427332227
 40
0.9708190156285055
 40
1.08375755781426
 40
1.08375755781426
 40
1.08375755781426
 40
1.08375755781426
 10
-933.8242347523261
 20
-1062.484122478387
 30
0.0
 10
-933.7804895622303
 20
-1062.500566843667
 30
0.0
 10
-933.6907236818478
 20
-1062.534310978991
 30
0.0
 10
-933.5743484575272
 20
-1062.624449187712
 30
0.0
 10
-933.4767705819961
 20
-1062.736332725331
 30
0.0
 10
-933.4065817035726
 20
-1062.864871277013
 30
0.0
 10
-933.3687422329297
 20
-1062.99978581065
 30
0.0
 10
-933.3676743905369
 20
-1063.13030812136
 30
0.0
 10
-933.4018132734642
 20
-1063.249884700597
 30
0.0
 10
-933.4547855487532
 20
-1063.30759081961
 30
0.0
 10
-933.4805415752044
 20
-1063.335648512034
 30
0.0
 11
-933.8242347523261
 21
-1062.484122478387
 31
0.0
 11
-933.6961562842788
 21
-1062.539508416941
 31
0.0
 11
-933.5784513904503
 21
-1062.627233387884
 31
0.0
 11
-933.4806538725279
 21
-1062.740192741012
 31
0.0
 11
-933.4106843089146
 21
-1062.869236921104
 31
0.0
 11
-933.3742105200776
 21
-1063.003914257044
 31
0.0
 11
-933.3741859474492
 21
-1063.133316586702
 31
0.0
 11
-933.4106133570316
 21
-1063.246962775828
 31
0.0
 11
-933.4805415752044
 21
-1063.335648512034
 31
0.0
  0
SPLINE
  5
145
330
47
100
AcDbEntity
  8
0
  6
Continuous
 62
     7
100
AcDbSpline
210
0.0
220
0.0
230
1.0
 70
     8
 71
     3
 72
    11
 73
     7
 74
     5
 42
0.000000001
 43
0.0000000001
 44
0.00000001
 40
0.0
 40
0.0
 40
0.0
 40
0.0
 40
0.3499609041203389
 40
0.6949809016599369
 40
1.030844602820296
 40
1.354156351283918
 40
1.354156351283918
 40
1.354156351283918
 40
1.354156351283918
 10
-932.6998552730807
 20
-1065.773386338181
 30
0.0
 10
-932.7803246429629
 20
-1065.688655318386
 30
0.0
 10
-932.9401272901046
 20
-1065.520389560403
 30
0.0
 10
-933.2166372767495
 20
-1065.314284672185
 30
0.0
 10
-933.5081226894345
 20
-1065.146381910863
 30
0.0
 10
-933.716534694204
 20
-1065.075328889634
 30
0.0
 10
-933.8187564190234
 20
-1065.040478878155
 30
0.0
 11
-932.6998552730807
 21
-1065.773386338181
 31
0.0
 11
-932.9480124586846
 21
-1065.526626037652
 31
0.0
 11
-933.2229450457514
 21
-1065.318177309618
 31
0.0
 11
-933.5161989063417
 21
-1065.154450097281
 31
0.0
 11
-933.8187564190234
 21
-1065.040478878155
 31
0.0
  0
SPLINE
  5
146
330
47
100
AcDbEntity
  8
0
  6
Continuous
 62
     7
100
AcDbSpline
210
0.0
220
0.0
230
1.0
 70
     8
 71
     3
 72
    11
 73
     7
 74
     5
 42
0.000000001
 43
0.0000000001
 44
0.00000001
 40
0.0
 40
0.0
 40
0.0
 40
0.0
 40
0.3181400245870362
 40
0.6171616700951124
 40
0.9002149343630877
 40
1.17409405104703
 40
1.17409405104703
 40
1.17409405104703
 40
1.17409405104703
 10
-934.8418146017727
 20
-1064.745147419551
 30
0.0
 10
-934.9456176467281
 20
-1064.721210058409
 30
0.0
 10
-935.1469857751373
 20
-1064.674773847748
 30
0.0
 10
-935.4496955165952
 20
-1064.689983726977
 30
0.0
 10
-935.729302130451
 20
-1064.768063401596
 30
0.0
 10
-935.8804143464899
 20
-1064.878166625251
 30
0.0
 10
-935.9547258419763
 20
-1064.932311397754
 30
0.0
 11
-934.8418146017727
 21
-1064.745147419551
 31
0.0
 11
-935.1548609016556
 21
-1064.688445659397
 31
0.0
 11
-935.45358995627
 21
-1064.701670551661
 31
0.0
 11
-935.7243391313405
 21
-1064.784217727391
 31
0.0
 11
-935.9547258419763
 21
-1064.932311397754
 31
0.0
  0
SPLINE
  5
147
330
47
100
AcDbEntity
  8
0
  6
Continuous
 62
     7
100
AcDbSpline
210
0.0
220
0.0
230
1.0
 70
     8
 71
     3
 72
    13
 73
     9
 74
     7
 42
0.000000001
 43
0.0000000001
 44
0.00000001
 40
0.0
 40
0.0
 40
0.0
 40
0.0
 40
0.1793689837937844
 40
0.3710881307361297
 40
0.5710219848028977
 40
0.7732735077554149
 40
0.9714811854856982
 40
1.160102973305613
 40
1.160102973305613
 40
1.160102973305613
 40
1.160102973305613
 10
-936.3120172561287
 20
-1065.715493173361
 30
0.0
 10
-936.3101961194584
 20
-1065.775569172863
 30
0.0
 10
-936.306428439922
 20
-1065.899857607058
 30
0.0
 10
-936.2413675568043
 20
-1066.081606332099
 30
0.0
 10
-936.1398200514777
 20
-1066.252756399526
 30
0.0
 10
-936.0032902896573
 20
-1066.400603263598
 30
0.0
 10
-935.8440140233854
 20
-1066.519409844791
 30
0.0
 10
-935.7226007345131
 20
-1066.564467178952
 30
0.0
 10
-935.6633984380304
 20
-1066.586437564122
 30
0.0
 11
-936.3120172561287
 21
-1065.715493173361
 31
0.0
 11
-936.2975557509046
 21
-1065.894278233574
 31
0.0
 11
-936.236949890319
 21
-1066.076166006769
 31
0.0
 11
-936.1346089317391
 21
-1066.247921283837
 31
0.0
 11
-935.9979804170114
 21
-1066.397046493942
 31
0.0
 11
-935.8370056790734
 21
-1066.512689988728
 31
0.0
 11
-935.6633984380304
 21
-1066.586437564122
 31
0.0
  0
SPLINE
  5
148
330
47
100
AcDbEntity
  8
0
  6
Continuous
 62
     7
100
AcDbSpline
210
0.0
220
0.0
230
1.0
 70
     8
 71
     3
 72
    11
 73
     7
 74
     5
 42
0.000000001
 43
0.0000000001
 44
0.00000001
 40
0.0
 40
0.0
 40
0.0
 40
0.0
 40
0.2110327507962286
 40
0.4263801911949733
 40
0.6496619786864873
 40
0.8833257088414403
 40
0.8833257088414403
 40
0.8833257088414403
 40
0.8833257088414403
 10
-935.9547258419763
 20
-1064.932311397754
 30
0.0
 10
-936.0050581973823
 20
-1064.981890124229
 30
0.0
 10
-936.1067519720043
 20
-1065.082061253566
 30
0.0
 10
-936.2144329691934
 20
-1065.272582920687
 30
0.0
 10
-936.2887795780821
 20
-1065.485721111063
 30
0.0
 10
-936.3041549241996
 20
-1065.637751095815
 30
0.0
 10
-936.3120172561287
 20
-1065.715493173361
 30
0.0
 11
-935.9547258419763
 21
-1064.932311397754
 31
0.0
 11
-936.0981236778505
 21
-1065.087139958355
 31
0.0
 11
-936.2072857398355
 21
-1065.272769065054
 31
0.0
 11
-936.2792371534547
 21
-1065.484140187836
 31
0.0
 11
-936.3120172561287
 21
-1065.715493173361
 31
0.0
  0
SPLINE
  5
149
330
47
100
AcDbEntity
  8
0
  6
Continuous
 62
     7
100
AcDbSpline
210
0.0
220
0.0
230
1.0
 70
     8
 71
     3
 72
    13
 73
     9
 74
     7
 42
0.000000001
 43
0.0000000001
 44
0.00000001
 40
0.0
 40
0.0
 40
0.0
 40
0.0
 40
0.1215696679308842
 40
0.2492213243647401
 40
0.3796474251294445
 40
0.5090127012542323
 40
0.6336802748120098
 40
0.7509434390756784
 40
0.7509434390756784
 40
0.7509434390756784
 40
0.7509434390756784
 10
-910.78795901166
 20
-1070.909474556145
 30
0.0
 10
-910.7497772165119
 20
-1070.923537508529
 30
0.0
 10
-910.6715034413534
 20
-1070.952366980026
 30
0.0
 10
-910.5681015068112
 20
-1071.027770009891
 30
0.0
 10
-910.4785030866227
 20
-1071.121708415493
 30
0.0
 10
-910.4102336071414
 20
-1071.230916166228
 30
0.0
 10
-910.3643635740398
 20
-1071.347564080538
 30
0.0
 10
-910.3580206840219
 20
-1071.428336895514
 30
0.0
 10
-910.3549463097677
 20
-1071.467487258038
 30
0.0
 11
-910.78795901166
 21
-1070.909474556145
 31
0.0
 11
-910.6758871075178
 21
-1070.956581589691
 31
0.0
 11
-910.5714526607138
 21
-1071.029987258038
 31
0.0
 11
-910.481772875443
 21
-1071.124689445905
 31
0.0
 11
-910.41295901166
 21
-1071.234234082565
 31
0.0
 11
-910.369700971301
 21
-1071.351156049992
 31
0.0
 11
-910.3549463097677
 21
-1071.467487258038
 31
0.0
  0
SPLINE
  5
14A
330
47
100
AcDbEntity
  8
0
  6
Continuous
 62
     7
100
AcDbSpline
210
0.0
220
0.0
230
1.0
 70
     8
 71
     3
 72
    13
 73
     9
 74
     7
 42
0.000000001
 43
0.0000000001
 44
0.00000001
 40
0.0
 40
0.0
 40
0.0
 40
0.0
 40
0.0792062827505918
 40
0.1622862353898249
 40
0.2516707244127502
 40
0.3478034708122186
 40
0.4493885429149848
 40
0.553945271565719
 40
0.553945271565719
 40
0.553945271565719
 40
0.553945271565719
 10
-925.6382408394152
 20
-1072.005661388685
 30
0.0
 10
-925.6601142555111
 20
-1072.020915674985
 30
0.0
 10
-925.7049308381198
 20
-1072.052170263024
 30
0.0
 10
-925.7897331411331
 20
-1072.067450073453
 30
0.0
 10
-925.8796376416276
 20
-1072.059109878358
 30
0.0
 10
-925.9703518897585
 20
-1072.02601677494
 30
0.0
 10
-926.0568884154104
 20
-1071.972450141773
 30
0.0
 10
-926.1046061184242
 20
-1071.922687337221
 30
0.0
 10
-926.1288089045315
 20
-1071.897447249577
 30
0.0
 11
-925.6382408394152
 21
-1072.005661388685
 31
0.0
 11
-925.7062114795579
 21
-1072.046326213231
 31
0.0
 11
-925.7875191904528
 21
-1072.063394765481
 31
0.0
 11
-925.8765712187795
 21
-1072.055692578119
 31
0.0
 11
-925.9672418682696
 21
-1072.023749839035
 31
0.0
 11
-926.0532941515071
 21
-1071.96976343792
 31
0.0
 11
-926.1288089045315
 21
-1071.897447249577
 31
0.0
  0
SPLINE
  5
14B
330
47
100
AcDbEntity
  8
0
  6
Continuous
 62
     7
100
AcDbSpline
210
0.0
220
0.0
230
1.0
 70
     8
 71
     3
 72
    11
 73
     7
 74
     5
 42
0.000000001
 43
0.0000000001
 44
0.00000001
 40
0.0
 40
0.0
 40
0.0
 40
0.0
 40
0.072488521376716
 40
0.1407338352825105
 40
0.2054749889239192
 40
0.268216888742544
 40
0.268216888742544
 40
0.268216888742544
 40
0.268216888742544
 10
-925.5562183355744
 20
-1071.760801566584
 30
0.0
 10
-925.5546872751546
 20
-1071.785022039235
 30
0.0
 10
-925.5517147914654
 20
-1071.832045208433
 30
0.0
 10
-925.5660933976842
 20
-1071.899694820874
 30
0.0
 10
-925.593556369437
 20
-1071.960068891286
 30
0.0
 10
-925.6235025561571
 20
-1071.990623617587
 30
0.0
 10
-925.6382408394152
 20
-1072.005661388685
 30
0.0
 11
-925.5562183355744
 21
-1071.760801566584
 31
0.0
 11
-925.5550265164289
 21
-1071.83328029005
 31
0.0
 11
-925.5688018308454
 21
-1071.900120875687
 31
0.0
 11
-925.5969468842004
 21
-1071.958424162942
 31
0.0
 11
-925.6382408394152
 21
-1072.005661388685
 31
0.0
  0
SPLINE
  5
14C
330
47
100
AcDbEntity
  8
0
  6
Continuous
 62
     7
100
AcDbSpline
210
0.0
220
0.0
230
1.0
 70
     8
 71
     3
 72
    11
 73
     7
 74
     5
 42
0.000000001
 43
0.0000000001
 44
0.00000001
 40
0.0
 40
0.0
 40
0.0
 40
0.0
 40
0.2174655649140344
 40
0.4222015111084024
 40
0.6164249775674366
 40
0.8046506808537847
 40
0.8046506808537847
 40
0.8046506808537847
 40
0.8046506808537847
 10
-925.5562183355744
 20
-1071.760801566584
 30
0.0
 10
-925.5608115168513
 20
-1071.688140148371
 30
0.0
 10
-925.5697289972074
 20
-1071.54707063894
 30
0.0
 10
-925.5265931644474
 20
-1071.34412180022
 30
0.0
 10
-925.4442042595717
 20
-1071.162999576522
 30
0.0
 10
-925.3543656747269
 20
-1071.071335414491
 30
0.0
 10
-925.310150824052
 20
-1071.026222100278
 30
0.0
 11
-925.5562183355744
 21
-1071.760801566584
 31
0.0
 11
-925.559793793011
 21
-1071.543365396185
 31
0.0
 11
-925.5184678497615
 21
-1071.342843639273
 31
0.0
 11
-925.4340326896961
 21
-1071.167933777507
 31
0.0
 11
-925.310150824052
 21
-1071.026222100278
 31
0.0
  0
SPLINE
  5
14D
330
47
100
AcDbEntity
  8
0
  6
Continuous
 62
     7
100
AcDbSpline
210
0.0
220
0.0
230
1.0
 70
     8
 71
     3
 72
     9
 73
     5
 74
     3
 42
0.000000001
 43
0.0000000001
 44
0.00000001
 40
0.0
 40
0.0
 40
0.0
 40
0.0
 40
2.862540903176459
 40
5.879923767077377
 40
5.879923767077377
 40
5.879923767077377
 40
5.879923767077377
 10
-924.7176324394472
 20
-1070.856464155642
 30
0.0
 10
-923.7700665163413
 20
-1071.00454202064
 30
0.0
 10
-921.8236784761662
 20
-1071.308707670121
 30
0.0
 10
-920.0329975193382
 20
-1072.131494811479
 30
0.0
 10
-919.1140791407748
 20
-1072.553722033448
 30
0.0
 11
-924.7176324394472
 21
-1070.856464155642
 31
0.0
 11
-921.9118382418781
 21
-1071.423614354899
 31
0.0
 11
-919.1140791407748
 21
-1072.553722033448
 31
0.0
  0
SPLINE
  5
14E
330
47
100
AcDbEntity
  8
0
  6
Continuous
 62
     7
100
AcDbSpline
210
0.0
220
0.0
230
1.0
 70
     8
 71
     3
 72
    11
 73
     7
 74
     5
 42
0.000000001
 43
0.0000000001
 44
0.00000001
 40
0.0
 40
0.0
 40
0.0
 40
0.0
 40
0.4503880997385797
 40
0.9224397489307655
 40
1.405877682334862
 40
1.88854721508957
 40
1.88854721508957
 40
1.88854721508957
 40
1.88854721508957
 10
-913.4423268742592
 20
-1077.807549379638
 30
0.0
 10
-913.5840437380499
 20
-1077.756263017948
 30
0.0
 10
-913.8742940037281
 20
-1077.651223420178
 30
0.0
 10
-914.2620917079639
 20
-1077.380796249987
 30
0.0
 10
-914.6103442356032
 20
-1077.046640497791
 30
0.0
 10
-914.7852900174128
 20
-1076.775036892514
 30
0.0
 10
-914.8726933300677
 20
-1076.639343096471
 30
0.0
 11
-913.4423268742592
 21
-1077.807549379638
 31
0.0
 11
-913.858941904844
 21
-1077.636431415332
 31
0.0
 11
-914.2510942722984
 21
-1077.373659114263
 31
0.0
 11
-914.5957571698743
 21
-1077.034660995838
 31
0.0
 11
-914.8726933300677
 21
-1076.639343096471
 31
0.0
  0
SPLINE
  5
14F
330
47
100
AcDbEntity
  8
0
  6
Continuous
 62
     7
100
AcDbSpline
210
0.0
220
0.0
230
1.0
 70
     8
 71
     3
 72
    19
 73
    15
 74
    13
 42
0.000000001
 43
0.0000000001
 44
0.00000001
 40
0.0
 40
0.0
 40
0.0
 40
0.0
 40
0.2810227023269789
 40
0.6098730067407168
 40
1.008200850458219
 40
1.474036227207308
 40
1.991264554967362
 40
2.535960715550122
 40
3.080656876133057
 40
3.597885203893017
 40
4.063720580642107
 40
4.462048424359857
 40
4.790898728773347
 40
5.071921431100517
 40
5.071921431100517
 40
5.071921431100517
 40
5.071921431100517
 10
-910.199192209055
 20
-1038.285941602161
 30
0.0
 10
-910.2151937328033
 20
-1038.191846626227
 30
0.0
 10
-910.249920117721
 20
-1037.987642541212
 30
0.0
 10
-910.4906966284456
 20
-1037.732011787383
 30
0.0
 10
-910.8272298128694
 20
-1037.520281354956
 30
0.0
 10
-911.2626574072672
 20
-1037.359514781528
 30
0.0
 10
-911.7631461421882
 20
-1037.258669096999
 30
0.0
 10
-912.2991922090555
 20
-1037.224283903917
 30
0.0
 10
-912.8352382759217
 20
-1037.258669097
 30
0.0
 10
-913.3357270108431
 20
-1037.359514781528
 30
0.0
 10
-913.7711546052407
 20
-1037.520281354956
 30
0.0
 10
-914.1076877896646
 20
-1037.732011787384
 30
0.0
 10
-914.3484643003892
 20
-1037.987642541213
 30
0.0
 10
-914.3831906853067
 20
-1038.191846626228
 30
0.0
 10
-914.399192209055
 20
-1038.285941602162
 30
0.0
 11
-910.199192209055
 21
-1038.285941602161
 31
0.0
 11
-910.270748514643
 21
-1038.014181677256
 31
0.0
 11
-910.4805388611078
 21
-1037.760941602161
 31
0.0
 11
-910.8142683644527
 21
-1037.54347967986
 31
0.0
 11
-911.2491922090551
 21
-1037.376614928187
 31
0.0
 11
-911.7556723592454
 21
-1037.271719754955
 31
0.0
 11
-912.299192209055
 21
-1037.235941602161
 31
0.0
 11
-912.8427120588648
 21
-1037.271719754956
 31
0.0
 11
-913.3491922090551
 21
-1037.376614928188
 31
0.0
 11
-913.7841160536575
 21
-1037.54347967986
 31
0.0
 11
-914.1178455570024
 21
-1037.760941602162
 31
0.0
 11
-914.3276359034671
 21
-1038.014181677257
 31
0.0
 11
-914.399192209055
 21
-1038.285941602162
 31
0.0
  0
SPLINE
  5
150
330
47
100
AcDbEntity
  8
0
  6
Continuous
 62
     7
100
AcDbSpline
210
0.0
220
0.0
230
1.0
 70
     8
 71
     3
 72
    13
 73
     9
 74
     7
 42
0.000000001
 43
0.0000000001
 44
0.00000001
 40
0.0
 40
0.0
 40
0.0
 40
0.0
 40
0.4435701889077281
 40
0.8538469290145876
 40
1.219145967092987
 40
1.533554340159883
 40
1.800473888067556
 40
2.037042543107787
 40
2.037042543107787
 40
2.037042543107787
 40
2.037042543107787
 10
-911.7991809061002
 20
-1039.305744119431
 30
0.0
 10
-911.6528714630224
 20
-1039.283040844536
 30
0.0
 10
-911.3712342581982
 20
-1039.239338349539
 30
0.0
 10
-910.982979038495
 20
-1039.114308966068
 30
0.0
 10
-910.6547357840236
 20
-1038.952977971234
 30
0.0
 10
-910.4058620399744
 20
-1038.757742417055
 30
0.0
 10
-910.2338562421451
 20
-1038.533821446812
 30
0.0
 10
-910.2102730067154
 20
-1038.365179571217
 30
0.0
 10
-910.199192209055
 20
-1038.285941602161
 30
0.0
 11
-911.7991809061002
 21
-1039.305744119431
 31
0.0
 11
-911.3628749506474
 21
-1039.225796527656
 31
0.0
 11
-910.9724142583264
 21
-1039.099830456591
 31
0.0
 11
-910.6469176159708
 21
-1038.934013319131
 31
0.0
 11
-910.4023219319234
 21
-1038.736464396183
 31
0.0
 11
-910.2506041671949
 21
-1038.516856178924
 31
0.0
 11
-910.199192209055
 21
-1038.285941602161
 31
0.0
  0
SPLINE
  5
151
330
47
100
AcDbEntity
  8
0
  6
Continuous
 62
     7
100
AcDbSpline
210
0.0
220
0.0
230
1.0
 70
     8
 71
     3
 72
    15
 73
    11
 74
     9
 42
0.000000001
 43
0.0000000001
 44
0.00000001
 40
0.0
 40
0.0
 40
0.0
 40
0.0
 40
0.241710952168603
 40
0.5155756449257638
 40
0.8393290431972811
 40
1.215969205417367
 40
1.638652731862855
 40
2.094513016277436
 40
2.567191913041704
 40
3.038746576758704
 40
3.038746576758704
 40
3.038746576758704
 40
3.038746576758704
 10
-914.399192209055
 20
-1038.285941602162
 30
0.0
 10
-914.3875926015977
 20
-1038.366902534015
 30
0.0
 10
-914.362850329012
 20
-1038.539594268344
 30
0.0
 10
-914.183381713397
 20
-1038.76748933915
 30
0.0
 10
-913.9247241904511
 20
-1038.964939686379
 30
0.0
 10
-913.5843990612635
 20
-1039.127272134069
 30
0.0
 10
-913.1827125126061
 20
-1039.248314617984
 30
0.0
 10
-912.7372706914765
 20
-1039.321176012263
 30
0.0
 10
-912.2698000970468
 20
-1039.347116090955
 30
0.0
 10
-911.955929401708
 20
-1039.319523827285
 30
0.0
 10
-911.7991809061002
 20
-1039.305744119431
 30
0.0
 11
-914.399192209055
 21
-1038.285941602162
 31
0.0
 11
-914.3456013085683
 21
-1038.521636751729
 31
0.0
 11
-914.1875647198499
 21
-1038.745302370097
 31
0.0
 11
-913.9331475756004
 21
-1038.945522695892
 31
0.0
 11
-913.5953357705084
 21
-1039.112078979978
 31
0.0
 11
-913.1913701553038
 21
-1039.236470077395
 31
0.0
 11
-912.7418690996817
 21
-1039.312347609854
 31
0.0
 11
-912.2697742791134
 21
-1039.335838454486
 31
0.0
 11
-911.7991809061002
 21
-1039.305744119431
 31
0.0
  0
SPLINE
  5
152
330
47
100
AcDbEntity
  8
0
  6
Continuous
 62
     7
100
AcDbSpline
210
0.0
220
0.0
230
1.0
 70
     8
 71
     3
 72
    11
 73
     7
 74
     5
 42
0.000000001
 43
0.0000000001
 44
0.00000001
 40
0.0
 40
0.0
 40
0.0
 40
0.0
 40
0.0483316071970503
 40
0.0982821809029627
 40
0.1510507047028816
 40
0.2071930616844505
 40
0.2071930616844505
 40
0.2071930616844505
 40
0.2071930616844505
 10
-926.3099239891351
 20
-1069.066925640737
 30
0.0
 10
-926.3230377820142
 20
-1069.076480600268
 30
0.0
 10
-926.3497046490127
 20
-1069.095910569823
 30
0.0
 10
-926.3990469881387
 20
-1069.109689340926
 30
0.0
 10
-926.4524663527704
 20
-1069.112373431642
 30
0.0
 10
-926.488001906041
 20
-1069.104178818245
 30
0.0
 10
-926.5063200903475
 20
-1069.099954578066
 30
0.0
 11
-926.3099239891351
 21
-1069.066925640737
 31
0.0
 11
-926.3505804674826
 21
-1069.09305981786
 31
0.0
 11
-926.3983597336714
 21
-1069.107626966518
 31
0.0
 11
-926.4510766256623
 21
-1069.109960771035
 31
0.0
 11
-926.5063200903475
 21
-1069.099954578066
 31
0.0
  0
SPLINE
  5
153
330
47
100
AcDbEntity
  8
0
  6
Continuous
 62
     7
100
AcDbSpline
210
0.0
220
0.0
230
1.0
 70
     8
 71
     3
 72
     9
 73
     5
 74
     3
 42
0.000000001
 43
0.0000000001
 44
0.00000001
 40
0.0
 40
0.0
 40
0.0
 40
0.0
 40
0.0881160148275395
 40
0.1730887211063884
 40
0.1730887211063884
 40
0.1730887211063884
 40
0.1730887211063884
 10
-927.1953131970641
 20
-1066.494020146201
 30
0.0
 10
-927.1852226002707
 20
-1066.466023970116
 30
0.0
 10
-927.1654013450484
 20
-1066.411030317646
 30
0.0
 10
-927.1244739587349
 20
-1066.369336605051
 30
0.0
 10
-927.1043818805492
 20
-1066.348868335498
 30
0.0
 11
-927.1953131970641
 21
-1066.494020146201
 31
0.0
 11
-927.1595714798783
 21
-1066.4134784677
 31
0.0
 11
-927.1043818805492
 21
-1066.348868335498
 31
0.0
  0
SPLINE
  5
154
330
47
100
AcDbEntity
  8
0
  6
Continuous
 62
     7
100
AcDbSpline
210
0.0
220
0.0
230
1.0
 70
     8
 71
     3
 72
    11
 73
     7
 74
     5
 42
0.000000001
 43
0.0000000001
 44
0.00000001
 40
0.0
 40
0.0
 40
0.0
 40
0.0
 40
0.0805526799811181
 40
0.1638036380530706
 40
0.2517511792398071
 40
0.3453217744506689
 40
0.3453217744506689
 40
0.3453217744506689
 40
0.3453217744506689
 10
-927.1043818805492
 20
-1066.348868335498
 30
0.0
 10
-927.0825255587265
 20
-1066.332943402685
 30
0.0
 10
-927.0380807847221
 20
-1066.300560111116
 30
0.0
 10
-926.9558435492058
 20
-1066.277595496653
 30
0.0
 10
-926.866811273599
 20
-1066.273122007578
 30
0.0
 10
-926.8075853524516
 20
-1066.286779706299
 30
0.0
 10
-926.7770550451952
 20
-1066.293820106615
 30
0.0
 11
-927.1043818805492
 21
-1066.348868335498
 31
0.0
 11
-927.0366210833033
 21
-1066.305311373627
 31
0.0
 11
-926.9569889729885
 21
-1066.281032792529
 31
0.0
 11
-926.8691274863372
 21
-1066.277143118334
 31
0.0
 11
-926.7770550451952
 21
-1066.293820106615
 31
0.0
  0
SPLINE
  5
155
330
47
100
AcDbEntity
  8
0
  6
Continuous
 62
     7
100
AcDbSpline
210
0.0
220
0.0
230
1.0
 70
     8
 71
     3
 72
    13
 73
     9
 74
     7
 42
0.000000001
 43
0.0000000001
 44
0.00000001
 40
0.0
 40
0.0
 40
0.0
 40
0.0
 40
0.1215696679303222
 40
0.2492213243642333
 40
0.3796474251290247
 40
0.5090127012538729
 40
0.6336802748112239
 40
0.7509434390751181
 40
0.7509434390751181
 40
0.7509434390751181
 40
0.7509434390751181
 10
-926.6795251711044
 20
-1066.321974556146
 30
0.0
 10
-926.6413433759568
 20
-1066.33603750853
 30
0.0
 10
-926.5630696007979
 20
-1066.364866980027
 30
0.0
 10
-926.4596676662553
 20
-1066.440270009891
 30
0.0
 10
-926.3700692460673
 20
-1066.534208415494
 30
0.0
 10
-926.3017997665859
 20
-1066.643416166228
 30
0.0
 10
-926.2559297334844
 20
-1066.760064080538
 30
0.0
 10
-926.249586843466
 20
-1066.840836895513
 30
0.0
 10
-926.2465124692121
 20
-1066.879987258038
 30
0.0
 11
-926.6795251711044
 21
-1066.321974556146
 31
0.0
 11
-926.5674532669625
 21
-1066.369081589692
 31
0.0
 11
-926.4630188201583
 21
-1066.442487258038
 31
0.0
 11
-926.3733390348875
 21
-1066.537189445905
 31
0.0
 11
-926.3045251711044
 21
-1066.646734082565
 31
0.0
 11
-926.2612671307454
 21
-1066.763656049992
 31
0.0
 11
-926.2465124692121
 21
-1066.879987258038
 31
0.0
  0
SPLINE
  5
156
330
47
100
AcDbEntity
  8
0
  6
Continuous
 62
     7
100
AcDbSpline
210
0.0
220
0.0
230
1.0
 70
     8
 71
     3
 72
    11
 73
     7
 74
     5
 42
0.000000001
 43
0.0000000001
 44
0.00000001
 40
0.0
 40
0.0
 40
0.0
 40
0.0
 40
0.6734344026897897
 40
1.334691729640072
 40
1.973409470056297
 40
2.581951841252005
 40
2.581951841252005
 40
2.581951841252005
 40
2.581951841252005
 10
-926.1288089045315
 20
-1071.897447249577
 30
0.0
 10
-926.2677024364167
 20
-1071.720444542198
 30
0.0
 10
-926.5429780080408
 20
-1071.369639690922
 30
0.0
 10
-926.8416229515892
 20
-1070.780010139581
 30
0.0
 10
-927.0501604371498
 20
-1070.174249229427
 30
0.0
 10
-927.0917216058367
 20
-1069.759318609539
 30
0.0
 10
-927.1119994314815
 20
-1069.556872574183
 30
0.0
 11
-926.1288089045315
 21
-1071.897447249577
 31
0.0
 11
-926.5268309718338
 21
-1071.354223235806
 31
0.0
 11
-926.8308840128316
 21
-1070.767015433737
 31
0.0
 11
-927.0286171991877
 21
-1070.159675379604
 31
0.0
 11
-927.1119994314815
 21
-1069.556872574183
 31
0.0
  0
SPLINE
  5
157
330
47
100
AcDbEntity
  8
0
  6
Continuous
 62
     7
100
AcDbSpline
210
0.0
220
0.0
230
1.0
 70
     8
 71
     3
 72
    11
 73
     7
 74
     5
 42
0.000000001
 43
0.0000000001
 44
0.00000001
 40
0.0
 40
0.0
 40
0.0
 40
0.0
 40
1.458560313659183
 40
2.953957968262764
 40
4.464224307164991
 40
5.965940896288606
 40
5.965940896288606
 40
5.965940896288606
 40
5.965940896288606
 10
-919.1140791407748
 20
-1072.553722033448
 30
0.0
 10
-918.6901551370361
 20
-1072.793841104284
 30
0.0
 10
-917.8316005298102
 20
-1073.280143696361
 30
0.0
 10
-916.6949016744923
 20
-1074.251447875108
 30
0.0
 10
-915.6738858292275
 20
-1075.362400628193
 30
0.0
 10
-915.1392516253109
 20
-1076.214501856287
 30
0.0
 10
-914.8726933300677
 20
-1076.639343096471
 30
0.0
 11
-919.1140791407748
 21
-1072.553722033448
 31
0.0
 11
-917.8682492704606
 21
-1073.312211403869
 31
0.0
 11
-916.7195963439744
 21
-1074.269713677731
 31
0.0
 11
-915.7090696794037
 21
-1075.392095198879
 31
0.0
 11
-914.8726933300677
 21
-1076.639343096471
 31
0.0
  0
SPLINE
  5
158
330
47
100
AcDbEntity
  8
0
  6
Continuous
 62
     7
100
AcDbSpline
210
0.0
220
0.0
230
1.0
 70
     8
 71
     3
 72
    11
 73
     7
 74
     5
 42
0.000000001
 43
0.0000000001
 44
0.00000001
 40
0.0
 40
0.0
 40
0.0
 40
0.0
 40
0.0805526799811454
 40
0.1638036380530741
 40
0.251751179239707
 40
0.3453217744507212
 40
0.3453217744507212
 40
0.3453217744507212
 40
0.3453217744507212
 10
-939.8456786175627
 20
-1069.165963313412
 30
0.0
 10
-939.8238222957398
 20
-1069.150038380599
 30
0.0
 10
-939.7793775217358
 20
-1069.11765508903
 30
0.0
 10
-939.6971402862189
 20
-1069.094690474567
 30
0.0
 10
-939.6081080106126
 20
-1069.090216985492
 30
0.0
 10
-939.5488820894648
 20
-1069.103874684212
 30
0.0
 10
-939.5183517822087
 20
-1069.110915084529
 30
0.0
 11
-939.8456786175627
 21
-1069.165963313412
 31
0.0
 11
-939.7779178203169
 21
-1069.12240635154
 31
0.0
 11
-939.698285710002
 21
-1069.098127770444
 31
0.0
 11
-939.6104242233508
 21
-1069.094238096248
 31
0.0
 11
-939.5183517822087
 21
-1069.110915084529
 31
0.0
  0
SPLINE
  5
159
330
47
100
AcDbEntity
  8
0
  6
Continuous
 62
     7
100
AcDbSpline
210
0.0
220
0.0
230
1.0
 70
     8
 71
     3
 72
    11
 73
     7
 74
     5
 42
0.000000001
 43
0.0000000001
 44
0.00000001
 40
0.0
 40
0.0
 40
0.0
 40
0.0
 40
0.964044508800378
 40
1.949938633287426
 40
2.975075556820913
 40
4.050672365263646
 40
4.050672365263646
 40
4.050672365263646
 40
4.050672365263646
 10
-934.0137899139011
 20
-1069.747317281212
 30
0.0
 10
-933.7860104768683
 20
-1069.518520396243
 30
0.0
 10
-933.3252891000405
 20
-1069.055741042624
 30
0.0
 10
-932.8494618414594
 20
-1068.172803037563
 30
0.0
 10
-932.5333548965391
 20
-1067.185438950223
 30
0.0
 10
-932.4845986225084
 20
-1066.48452088595
 30
0.0
 10
-932.4596349270755
 20
-1066.125643783428
 30
0.0
 11
-934.0137899139011
 21
-1069.747317281212
 31
0.0
 11
-933.3668353960402
 21
-1069.03259239032
 31
0.0
 11
-932.8835422195025
 21
-1068.173281657987
 31
0.0
 11
-932.5781441777103
 21
-1067.194691982977
 31
0.0
 11
-932.4596349270755
 21
-1066.125643783428
 31
0.0
  0
SPLINE
  5
15A
330
47
100
AcDbEntity
  8
0
  6
Continuous
 62
     7
100
AcDbSpline
210
0.0
220
0.0
230
1.0
 70
     8
 71
     3
 72
     9
 73
     5
 74
     3
 42
0.000000001
 43
0.0000000001
 44
0.00000001
 40
0.0
 40
0.0
 40
0.0
 40
0.0
 40
0.0400698150518803
 40
0.0804893436042506
 40
0.0804893436042506
 40
0.0804893436042506
 40
0.0804893436042506
 10
-938.9745185959086
 20
-1069.98439225943
 30
0.0
 10
-938.9849575677281
 20
-1069.992790359745
 30
0.0
 10
-939.0059266299554
 20
-1070.009659839324
 30
0.0
 10
-939.0299659310026
 20
-1070.021761058164
 30
0.0
 10
-939.0420378101273
 20
-1070.027837947935
 30
0.0
 11
-938.9745185959086
 21
-1069.98439225943
 31
0.0
 11
-939.0065964216172
 21
-1070.008404823486
 31
0.0
 11
-939.0420378101273
 21
-1070.027837947935
 31
0.0
  0
SPLINE
  5
15B
330
47
100
AcDbEntity
  8
0
  6
Continuous
 62
     7
100
AcDbSpline
210
0.0
220
0.0
230
1.0
 70
     8
 71
     3
 72
    11
 73
     7
 74
     5
 42
0.000000001
 43
0.0000000001
 44
0.00000001
 40
0.0
 40
0.0
 40
0.0
 40
0.0
 40
0.1510301638656145
 40
0.305230859871343
 40
0.4652486365482117
 40
0.6328501322471423
 40
0.6328501322471423
 40
0.6328501322471423
 40
0.6328501322471423
 10
-925.310150824052
 20
-1071.026222100278
 30
0.0
 10
-925.2698540630596
 20
-1070.99567236841
 30
0.0
 10
-925.188414594677
 20
-1070.933931595402
 30
0.0
 10
-925.0420533056252
 20
-1070.877762327445
 30
0.0
 10
-924.883027522236
 20
-1070.847925221415
 30
0.0
 10
-924.7736084102761
 20
-1070.853574251375
 30
0.0
 10
-924.7176324394472
 20
-1070.856464155642
 30
0.0
 11
-925.310150824052
 21
-1071.026222100278
 31
0.0
 11
-925.1856903122508
 21
-1070.940666902667
 31
0.0
 11
-925.0427130014407
 21
-1070.882914466115
 31
0.0
 11
-924.885223371592
 21
-1070.854582400308
 31
0.0
 11
-924.7176324394472
 21
-1070.856464155642
 31
0.0
  0
SPLINE
  5
15C
330
47
100
AcDbEntity
  8
0
  6
Continuous
 62
     7
100
AcDbSpline
210
0.0
220
0.0
230
1.0
 70
     8
 71
     3
 72
     9
 73
     5
 74
     3
 42
0.000000001
 43
0.0000000001
 44
0.00000001
 40
0.0
 40
0.0
 40
0.0
 40
0.0
 40
0.1459633086347749
 40
0.2806984683896867
 40
0.2806984683896867
 40
0.2806984683896867
 40
0.2806984683896867
 10
-911.6539844154444
 20
-1071.092487258038
 30
0.0
 10
-911.6498874780616
 20
-1071.04255073635
 30
0.0
 10
-911.6420087396805
 20
-1070.946519038743
 30
0.0
 10
-911.5786910326075
 20
-1070.874224251319
 30
0.0
 10
-911.5482985489061
 20
-1070.839522785029
 30
0.0
 11
-911.6539844154444
 21
-1071.092487258038
 31
0.0
 11
-911.6267028747233
 21
-1070.949096164763
 31
0.0
 11
-911.5482985489061
 21
-1070.839522785029
 31
0.0
  0
SPLINE
  5
15D
330
47
100
AcDbEntity
  8
0
  6
Continuous
 62
     7
100
AcDbSpline
210
0.0
220
0.0
230
1.0
 70
     8
 71
     3
 72
    11
 73
     7
 74
     5
 42
0.000000001
 43
0.0000000001
 44
0.00000001
 40
0.0
 40
0.0
 40
0.0
 40
0.0
 40
0.0805526799812411
 40
0.1638036380531936
 40
0.2517511792399401
 40
0.3453217744507208
 40
0.3453217744507208
 40
0.3453217744507208
 40
0.3453217744507208
 10
-911.5482985489061
 20
-1070.839522785029
 30
0.0
 10
-911.5264422270833
 20
-1070.823597852216
 30
0.0
 10
-911.481997453079
 20
-1070.791214560647
 30
0.0
 10
-911.3997602175625
 20
-1070.768249946183
 30
0.0
 10
-911.310727941956
 20
-1070.763776457109
 30
0.0
 10
-911.2515020208082
 20
-1070.777434155828
 30
0.0
 10
-911.2209717135521
 20
-1070.784474556145
 30
0.0
 11
-911.5482985489061
 21
-1070.839522785029
 31
0.0
 11
-911.4805377516602
 21
-1070.795965823157
 31
0.0
 11
-911.4009056413454
 21
-1070.77168724206
 31
0.0
 11
-911.3130441546941
 21
-1070.767797567865
 31
0.0
 11
-911.2209717135521
 21
-1070.784474556145
 31
0.0
  0
SPLINE
  5
15E
330
47
100
AcDbEntity
  8
0
  6
Continuous
 62
     7
100
AcDbSpline
210
0.0
220
0.0
230
1.0
 70
     8
 71
     3
 72
     9
 73
     5
 74
     3
 42
0.000000001
 43
0.0000000001
 44
0.00000001
 40
0.0
 40
0.0
 40
0.0
 40
0.0
 40
0.0875779843215058
 40
0.1684190793155125
 40
0.1684190793155125
 40
0.1684190793155125
 40
0.1684190793155125
 10
-926.2465124692121
 20
-1068.915146956931
 30
0.0
 10
-926.2489706316177
 20
-1068.94510886965
 30
0.0
 10
-926.2536978819246
 20
-1069.002727885329
 30
0.0
 10
-926.2916884991082
 20
-1069.046104761184
 30
0.0
 10
-926.3099239891351
 20
-1069.066925640737
 30
0.0
 11
-926.2465124692121
 21
-1068.915146956931
 31
0.0
 11
-926.2628813936448
 21
-1069.001181612896
 31
0.0
 11
-926.3099239891351
 21
-1069.066925640737
 31
0.0
  0
SPLINE
  5
15F
330
47
100
AcDbEntity
  8
0
  6
Continuous
 62
     7
100
AcDbSpline
210
0.0
220
0.0
230
1.0
 70
     8
 71
     3
 72
     9
 73
     5
 74
     3
 42
0.000000001
 43
0.0000000001
 44
0.00000001
 40
0.0
 40
0.0
 40
0.0
 40
0.0
 40
0.1459633086343069
 40
0.2806984683894036
 40
0.2806984683894036
 40
0.2806984683894036
 40
0.2806984683894036
 10
-939.9513644841008
 20
-1069.418927786421
 30
0.0
 10
-939.9472675467183
 20
-1069.368991264733
 30
0.0
 10
-939.9393888083371
 20
-1069.272959567126
 30
0.0
 10
-939.8760711012638
 20
-1069.200664779702
 30
0.0
 10
-939.8456786175627
 20
-1069.165963313412
 30
0.0
 11
-939.9513644841008
 21
-1069.418927786421
 31
0.0
 11
-939.9240829433799
 21
-1069.275536693146
 31
0.0
 11
-939.8456786175627
 21
-1069.165963313412
 31
0.0
  0
SPLINE
  5
160
330
47
100
AcDbEntity
  8
0
  6
Continuous
 62
     7
100
AcDbSpline
210
0.0
220
0.0
230
1.0
 70
     8
 71
     3
 72
    11
 73
     7
 74
     5
 42
0.000000001
 43
0.0000000001
 44
0.00000001
 40
0.0
 40
0.0
 40
0.0
 40
0.0
 40
0.1127737527647764
 40
0.2293250952028114
 40
0.3524516537763755
 40
0.4834504872166828
 40
0.4834504872166828
 40
0.4834504872166828
 40
0.4834504872166828
 10
-926.964577659843
 20
-1069.177022098503
 30
0.0
 10
-926.9339788090763
 20
-1069.154727192408
 30
0.0
 10
-926.8717561280665
 20
-1069.109390578825
 30
0.0
 10
-926.75662399616
 20
-1069.077240121002
 30
0.0
 10
-926.6319788095777
 20
-1069.070977233568
 30
0.0
 10
-926.5490625205537
 20
-1069.090098017612
 30
0.0
 10
-926.5063200903475
 20
-1069.099954578066
 30
0.0
 11
-926.964577659843
 21
-1069.177022098503
 31
0.0
 11
-926.869712543699
 21
-1069.116042351883
 31
0.0
 11
-926.7582275892581
 21
-1069.082052338347
 31
0.0
 11
-926.6352215079464
 21
-1069.076606794473
 31
0.0
 11
-926.5063200903475
 21
-1069.099954578066
 31
0.0
  0
SPLINE
  5
161
330
47
100
AcDbEntity
  8
0
  6
Continuous
 62
     7
100
AcDbSpline
210
0.0
220
0.0
230
1.0
 70
     8
 71
     3
 72
    11
 73
     7
 74
     5
 42
0.000000001
 43
0.0000000001
 44
0.00000001
 40
0.0
 40
0.0
 40
0.0
 40
0.0
 40
0.1126609155915439
 40
0.2194012134881795
 40
0.3214309467942867
 40
0.4208342685145559
 40
0.4208342685145559
 40
0.4208342685145559
 40
0.4208342685145559
 10
-927.1119994314815
 20
-1069.556872574183
 30
0.0
 10
-927.1116483048603
 20
-1069.519175441795
 30
0.0
 10
-927.1109644896125
 20
-1069.445762258251
 30
0.0
 10
-927.082569557522
 20
-1069.341484551122
 30
0.0
 10
-927.0357396323991
 20
-1069.248472181257
 30
0.0
 10
-926.9880912310285
 20
-1069.200630861085
 30
0.0
 10
-926.964577659843
 20
-1069.177022098503
 30
0.0
 11
-927.1119994314815
 21
-1069.556872574183
 31
0.0
 11
-927.1060158833551
 21
-1069.444370666818
 31
0.0
 11
-927.0786813890732
 21
-1069.341189675049
 31
0.0
 11
-927.0309690528316
 21
-1069.251003201784
 31
0.0
 11
-926.964577659843
 21
-1069.177022098503
 31
0.0
  0
SPLINE
  5
162
330
47
100
AcDbEntity
  8
0
  6
Continuous
 62
     7
100
AcDbSpline
210
0.0
220
0.0
230
1.0
 70
     8
 71
     3
 72
    15
 73
    11
 74
     9
 42
0.000000001
 43
0.0000000001
 44
0.00000001
 40
0.0
 40
0.0
 40
0.0
 40
0.0
 40
0.1328962109753994
 40
0.2727053220923413
 40
0.415003179628177
 40
0.5548058914521585
 40
0.6876905845373846
 40
0.8109308977212184
 40
0.9245895382842911
 40
1.032150054400373
 40
1.032150054400373
 40
1.032150054400373
 40
1.032150054400373
 10
-939.3018454312626
 20
-1069.173415084529
 30
0.0
 10
-939.2601833454302
 20
-1069.189076384806
 30
0.0
 10
-939.1746920310229
 20
-1069.2212136572
 30
0.0
 10
-939.0638584838866
 20
-1069.307059570001
 30
0.0
 10
-938.9709271738831
 20
-1069.413615320187
 30
0.0
 10
-938.9040806230314
 20
-1069.536032988431
 30
0.0
 10
-938.8680430320653
 20
-1069.664523020403
 30
0.0
 10
-938.8670260394015
 20
-1069.788829982885
 30
0.0
 10
-938.899539261622
 20
-1069.902712438819
 30
0.0
 10
-938.9499890469646
 20
-1069.95767064766
 30
0.0
 10
-938.9745185959086
 20
-1069.98439225943
 30
0.0
 11
-939.3018454312626
 21
-1069.173415084529
 31
0.0
 11
-939.1798659378843
 21
-1069.226163597437
 31
0.0
 11
-939.0677660389999
 21
-1069.309711188811
 31
0.0
 11
-938.9746255457407
 21
-1069.417291525124
 31
0.0
 11
-938.9079878661089
 21
-1069.540190744259
 31
0.0
 11
-938.8732509243594
 21
-1069.668454873726
 31
0.0
 11
-938.873227521856
 21
-1069.791695187685
 31
0.0
 11
-938.907920292887
 21
-1069.89992965352
 31
0.0
 11
-938.9745185959086
 21
-1069.98439225943
 31
0.0
  0
ENDBLK
  5
49
330
47
100
AcDbEntity
  8
0
100
AcDbBlockEnd
  0
BLOCK
  5
4C
330
4A
100
AcDbEntity
  8
0
100
AcDbBlockBegin
  2
Allg1
 70
     0
 10
-919.999999737069
 20
-1054.99999977173
 30
0.0
  3
Allg1
  1

  0
INSERT
  5
4B
330
4A
100
AcDbEntity
  8
0
100
AcDbBlockReference
  2
UK_5_N-MT-select__1
 10
-939.9513644841008
 20
-1080.133991295882
 30
0.0
  0
MTEXT
  5
164
330
4A
100
AcDbEntity
  8
1
 62
     6
100
AcDbMText
 10
-919.99999973707
 20
-1087.215242463329
 30
0.0
 40
5.0
 41
0.0
 71
     2
 72
     1
  1
 
  7
CONVERTER_11
 73
     1
 44
1.32052821128451
  0
ENDBLK
  5
4D
330
4A
100
AcDbEntity
  8
0
100
AcDbBlockEnd
  0
BLOCK
  5
4F
330
4E
100
AcDbEntity
  8
0
100
AcDbBlockBegin
  2
UK_5_N-MT-select__2
 70
     0
 10
-1066.60000238427
 20
-1059.899999473494
 30
0.0
  3
UK_5_N-MT-select__2
  1

  0
LINE
  5
165
330
4E
100
AcDbEntity
  8
0
  6
Continuous
 62
     7
100
AcDbLine
 10
-1053.233334711249
 20
-1055.538357053644
 30
0.0
 11
-1056.161644804118
 21
-1058.466667146514
 31
0.0
  0
LINE
  5
166
330
4E
100
AcDbEntity
  8
0
  6
Continuous
 62
     7
100
AcDbLine
 10
-1062.516163549503
 20
-1059.899999473494
 30
0.0
 11
-1062.899487219518
 21
-1059.899999473494
 31
0.0
  0
LINE
  5
167
330
4E
100
AcDbEntity
  8
0
  6
Continuous
 62
     7
100
AcDbLine
 10
-1060.007946637037
 20
-1059.899999473494
 30
0.0
 11
-1062.516163549503
 21
-1059.899999473494
 31
0.0
  0
LINE
  5
168
330
4E
100
AcDbEntity
  8
0
  6
Continuous
 62
     7
100
AcDbLine
 10
-1032.225002384268
 20
-1059.899999473494
 30
0.0
 11
-1058.425002384272
 21
-1059.899999473494
 31
0.0
  0
LINE
  5
169
330
4E
100
AcDbEntity
  8
0
  6
Continuous
 62
     7
100
AcDbLine
 10
-1060.007946637037
 20
-1059.899999473494
 30
0.0
 11
-1058.425002384272
 21
-1059.899999473494
 31
0.0
  0
LINE
  5
16A
330
4E
100
AcDbEntity
  8
0
  6
Continuous
 62
     7
100
AcDbLine
 10
-1055.666670057287
 20
-1058.961641893344
 30
0.0
 11
-1052.738359964418
 21
-1056.033331800475
 31
0.0
  0
LINE
  5
16B
330
4E
100
AcDbEntity
  8
0
  6
Continuous
 62
     7
100
AcDbLine
 10
-1027.750517549017
 20
-1053.749999478045
 30
0.0
 11
-1027.750517549017
 21
-1059.899999473494
 31
0.0
  0
LINE
  5
16C
330
4E
100
AcDbEntity
  8
0
  6
Continuous
 62
     7
100
AcDbLine
 10
-1025.607946637041
 20
-1053.749999478045
 30
0.0
 11
-1025.607946637041
 21
-1059.899999473494
 31
0.0
  0
LINE
  5
16D
330
4E
100
AcDbEntity
  8
0
  6
Continuous
 62
     7
100
AcDbLine
 10
-1062.516163549503
 20
-1059.899999473494
 30
0.0
 11
-1062.516163549503
 21
-1053.749999478045
 31
0.0
  0
LINE
  5
16E
330
4E
100
AcDbEntity
  8
0
  6
Continuous
 62
     7
100
AcDbLine
 10
-1065.042058131444
 20
-1053.749999478045
 30
0.0
 11
-1065.042058131444
 21
-1059.899999473494
 31
0.0
  0
LINE
  5
16F
330
4E
100
AcDbEntity
  8
0
  6
Continuous
 62
     7
100
AcDbLine
 10
-1065.042058131444
 20
-1053.749999478045
 30
0.0
 11
-1062.899487219518
 21
-1053.749999478045
 31
0.0
  0
LINE
  5
170
330
4E
100
AcDbEntity
  8
0
  6
Continuous
 62
     7
100
AcDbLine
 10
-1027.750517549017
 20
-1053.749999478045
 30
0.0
 11
-1025.607946637041
 21
-1053.749999478045
 31
0.0
  0
LINE
  5
171
330
4E
100
AcDbEntity
  8
0
  6
Continuous
 62
     7
100
AcDbLine
 10
-1060.007946637037
 20
-1053.749999478045
 30
0.0
 11
-1058.425002384272
 21
-1053.749999478045
 31
0.0
  0
LINE
  5
172
330
4E
100
AcDbEntity
  8
0
  6
Continuous
 62
     7
100
AcDbLine
 10
-1066.575002384268
 20
-1053.749999478045
 30
0.0
 11
-1065.042058131444
 21
-1053.749999478045
 31
0.0
  0
LINE
  5
173
330
4E
100
AcDbEntity
  8
0
  6
Continuous
 62
     7
100
AcDbLine
 10
-1066.60000238427
 20
-1053.749999478045
 30
0.0
 11
-1066.575002384268
 21
-1053.749999478045
 31
0.0
  0
LINE
  5
174
330
4E
100
AcDbEntity
  8
0
  6
Continuous
 62
     7
100
AcDbLine
 10
-1062.516163549503
 20
-1053.749999478045
 30
0.0
 11
-1060.007946637037
 21
-1053.749999478045
 31
0.0
  0
LINE
  5
175
330
4E
100
AcDbEntity
  8
0
  6
Continuous
 62
     7
100
AcDbLine
 10
-1058.425002384272
 20
-1053.749999478045
 30
0.0
 11
-1032.225002384268
 21
-1053.749999478045
 31
0.0
  0
LINE
  5
176
330
4E
100
AcDbEntity
  8
0
  6
Continuous
 62
     7
100
AcDbLine
 10
-1025.607946637041
 20
-1053.749999478045
 30
0.0
 11
-1024.07500238427
 21
-1053.749999478045
 31
0.0
  0
LINE
  5
177
330
4E
100
AcDbEntity
  8
0
  6
Continuous
 62
     7
100
AcDbLine
 10
-1062.899487219518
 20
-1053.749999478045
 30
0.0
 11
-1062.516163549503
 21
-1053.749999478045
 31
0.0
  0
LINE
  5
178
330
4E
100
AcDbEntity
  8
0
  6
Continuous
 62
     7
100
AcDbLine
 10
-1066.60000238427
 20
-1059.899999473494
 30
0.0
 11
-1066.575002384268
 21
-1059.899999473494
 31
0.0
  0
LINE
  5
179
330
4E
100
AcDbEntity
  8
0
  6
Continuous
 62
     7
100
AcDbLine
 10
-1066.575002384268
 20
-1059.899999473494
 30
0.0
 11
-1065.042058131444
 21
-1059.899999473494
 31
0.0
  0
LINE
  5
17A
330
4E
100
AcDbEntity
  8
0
  6
Continuous
 62
     7
100
AcDbLine
 10
-1062.899487219518
 20
-1059.899999473494
 30
0.0
 11
-1065.042058131444
 21
-1059.899999473494
 31
0.0
  0
LINE
  5
17B
330
4E
100
AcDbEntity
  8
0
  6
Continuous
 62
     7
100
AcDbLine
 10
-1062.899487219518
 20
-1053.749999478045
 30
0.0
 11
-1062.899487219518
 21
-1059.899999473494
 31
0.0
  0
LINE
  5
17C
330
4E
100
AcDbEntity
  8
0
  6
Continuous
 62
     7
100
AcDbLine
 10
-1066.575002384268
 20
-1053.749999478045
 30
0.0
 11
-1066.575002384268
 21
-1059.899999473494
 31
0.0
  0
LINE
  5
17D
330
4E
100
AcDbEntity
  8
0
  6
Continuous
 62
     7
100
AcDbLine
 10
-1066.60000238427
 20
-1059.899999473494
 30
0.0
 11
-1066.60000238427
 21
-1053.749999478045
 31
0.0
  0
LINE
  5
17E
330
4E
100
AcDbEntity
  8
0
  6
Continuous
 62
     7
100
AcDbLine
 10
-1058.425002384272
 20
-1053.749999478045
 30
0.0
 11
-1058.425002384272
 21
-1059.899999473494
 31
0.0
  0
LINE
  5
17F
330
4E
100
AcDbEntity
  8
0
  6
Continuous
 62
     7
100
AcDbLine
 10
-1060.007946637037
 20
-1053.749999478045
 30
0.0
 11
-1060.007946637037
 21
-1059.899999473494
 31
0.0
  0
LINE
  5
180
330
4E
100
AcDbEntity
  8
0
  6
Continuous
 62
     7
100
AcDbLine
 10
-1024.07500238427
 20
-1053.749999478045
 30
0.0
 11
-1024.07500238427
 21
-1059.899999473494
 31
0.0
  0
LINE
  5
181
330
4E
100
AcDbEntity
  8
0
  6
Continuous
 62
     7
100
AcDbLine
 10
-1028.133841219033
 20
-1059.899999473494
 30
0.0
 11
-1027.750517549017
 21
-1059.899999473494
 31
0.0
  0
LINE
  5
182
330
4E
100
AcDbEntity
  8
0
  6
Continuous
 62
     7
100
AcDbLine
 10
-1028.133841219033
 20
-1059.899999473494
 30
0.0
 11
-1028.133841219033
 21
-1053.749999478045
 31
0.0
  0
LINE
  5
183
330
4E
100
AcDbEntity
  8
0
  6
Continuous
 62
     7
100
AcDbLine
 10
-1030.642058131493
 20
-1053.749999478045
 30
0.0
 11
-1028.133841219033
 21
-1053.749999478045
 31
0.0
  0
LINE
  5
184
330
4E
100
AcDbEntity
  8
0
  6
Continuous
 62
     7
100
AcDbLine
 10
-1028.133841219033
 20
-1053.749999478045
 30
0.0
 11
-1027.750517549017
 21
-1053.749999478045
 31
0.0
  0
LINE
  5
185
330
4E
100
AcDbEntity
  8
0
  6
Continuous
 62
     7
100
AcDbLine
 10
-1025.607946637041
 20
-1059.899999473494
 30
0.0
 11
-1027.750517549017
 21
-1059.899999473494
 31
0.0
  0
LINE
  5
186
330
4E
100
AcDbEntity
  8
0
  6
Continuous
 62
     7
100
AcDbLine
 10
-1028.133841219033
 20
-1059.899999473494
 30
0.0
 11
-1030.642058131493
 21
-1059.899999473494
 31
0.0
  0
LINE
  5
187
330
4E
100
AcDbEntity
  8
0
  6
Continuous
 62
     7
100
AcDbLine
 10
-1025.607946637041
 20
-1059.899999473494
 30
0.0
 11
-1024.07500238427
 21
-1059.899999473494
 31
0.0
  0
LINE
  5
188
330
4E
100
AcDbEntity
  8
0
  6
Continuous
 62
     7
100
AcDbLine
 10
-1032.225002384268
 20
-1053.749999478045
 30
0.0
 11
-1032.225002384268
 21
-1059.899999473494
 31
0.0
  0
LINE
  5
189
330
4E
100
AcDbEntity
  8
0
  6
Continuous
 62
     7
100
AcDbLine
 10
-1030.642058131493
 20
-1053.749999478045
 30
0.0
 11
-1030.642058131493
 21
-1059.899999473494
 31
0.0
  0
LINE
  5
18A
330
4E
100
AcDbEntity
  8
0
  6
Continuous
 62
     7
100
AcDbLine
 10
-1032.225002384268
 20
-1059.899999473494
 30
0.0
 11
-1030.642058131493
 21
-1059.899999473494
 31
0.0
  0
LINE
  5
18B
330
4E
100
AcDbEntity
  8
0
  6
Continuous
 62
     7
100
AcDbLine
 10
-1032.225002384268
 20
-1053.749999478045
 30
0.0
 11
-1030.642058131493
 21
-1053.749999478045
 31
0.0
  0
LINE
  5
18C
330
4E
100
AcDbEntity
  8
0
  6
Continuous
 62
     7
100
AcDbLine
 10
-1050.725002384269
 20
-1059.024999473499
 30
0.0
 11
-1050.725002384271
 21
-1055.374999473497
 31
0.0
  0
LINE
  5
18D
330
4E
100
AcDbEntity
  8
0
  6
Continuous
 62
     7
100
AcDbLine
 10
-1039.925002384267
 20
-1055.374999473495
 30
0.0
 11
-1040.662758903397
 21
-1055.374999473495
 31
0.0
  0
LINE
  5
18E
330
4E
100
AcDbEntity
  8
0
  6
Continuous
 62
     7
100
AcDbLine
 10
-1039.925002384267
 20
-1059.024999473496
 30
0.0
 11
-1039.925002384267
 21
-1055.374999473495
 31
0.0
  0
LINE
  5
18F
330
4E
100
AcDbEntity
  8
0
  6
Continuous
 62
     7
100
AcDbLine
 10
-1040.662758903397
 20
-1059.024999473496
 30
0.0
 11
-1039.925002384267
 21
-1059.024999473496
 31
0.0
  0
LINE
  5
190
330
4E
100
AcDbEntity
  8
0
  6
Continuous
 62
     7
100
AcDbLine
 10
-1041.719839032083
 20
-1055.449999473495
 30
0.0
 11
-1041.719839032083
 21
-1059.049999473495
 31
0.0
  0
LINE
  5
191
330
4E
100
AcDbEntity
  8
0
  6
Continuous
 62
     7
100
AcDbLine
 10
-1040.662758903397
 20
-1059.684999473495
 30
0.0
 11
-1040.662758903397
 21
-1054.814999473495
 31
0.0
  0
LINE
  5
192
330
4E
100
AcDbEntity
  8
0
  6
Continuous
 62
     7
100
AcDbLine
 10
-1043.128629387119
 20
-1055.449999473495
 30
0.0
 11
-1042.564630245661
 21
-1055.449999473495
 31
0.0
  0
LINE
  5
193
330
4E
100
AcDbEntity
  8
0
  6
Continuous
 62
     7
100
AcDbLine
 10
-1044.25202903022
 20
-1055.374999473496
 30
0.0
 11
-1044.357133265486
 21
-1055.374999473496
 31
0.0
  0
LINE
  5
194
330
4E
100
AcDbEntity
  8
0
  6
Continuous
 62
     7
100
AcDbLine
 10
-1044.357133265486
 20
-1055.374999473496
 30
0.0
 11
-1050.725002384271
 21
-1055.374999473497
 31
0.0
  0
LINE
  5
195
330
4E
100
AcDbEntity
  8
0
  6
Continuous
 62
     7
100
AcDbLine
 10
-1042.564630245661
 20
-1055.449999473495
 30
0.0
 11
-1041.719839032083
 21
-1055.449999473495
 31
0.0
  0
LINE
  5
196
330
4E
100
AcDbEntity
  8
0
  6
Continuous
 62
     7
100
AcDbLine
 10
-1044.083862252704
 20
-1054.814999473495
 30
0.0
 11
-1040.662758903397
 21
-1054.814999473495
 31
0.0
  0
LINE
  5
197
330
4E
100
AcDbEntity
  8
0
  6
Continuous
 62
     7
100
AcDbLine
 10
-1044.25202903022
 20
-1054.814999473495
 30
0.0
 11
-1044.083862252704
 21
-1054.814999473495
 31
0.0
  0
LINE
  5
198
330
4E
100
AcDbEntity
  8
0
  6
Continuous
 62
     7
100
AcDbLine
 10
-1044.25202903022
 20
-1055.374999473496
 30
0.0
 11
-1044.25202903022
 21
-1054.814999473495
 31
0.0
  0
LINE
  5
199
330
4E
100
AcDbEntity
  8
0
  6
Continuous
 62
     7
100
AcDbLine
 10
-1044.25202903022
 20
-1059.684999473495
 30
0.0
 11
-1044.25202903022
 21
-1059.024999473497
 31
0.0
  0
LINE
  5
19A
330
4E
100
AcDbEntity
  8
0
  6
Continuous
 62
     7
100
AcDbLine
 10
-1044.357133265486
 20
-1055.374999473496
 30
0.0
 11
-1044.357133265486
 21
-1059.024999473497
 31
0.0
  0
LINE
  5
19B
330
4E
100
AcDbEntity
  8
0
  6
Continuous
 62
     7
100
AcDbLine
 10
-1044.083862252704
 20
-1054.814999473495
 30
0.0
 11
-1044.083862252704
 21
-1059.684999473495
 31
0.0
  0
LINE
  5
19C
330
4E
100
AcDbEntity
  8
0
  6
Continuous
 62
     7
100
AcDbLine
 10
-1043.128629387119
 20
-1059.049999473495
 30
0.0
 11
-1043.128629387119
 21
-1055.449999473495
 31
0.0
  0
LINE
  5
19D
330
4E
100
AcDbEntity
  8
0
  6
Continuous
 62
     7
100
AcDbLine
 10
-1042.564630245661
 20
-1055.449999473495
 30
0.0
 11
-1042.564630245661
 21
-1059.049999473495
 31
0.0
  0
LINE
  5
19E
330
4E
100
AcDbEntity
  8
0
  6
Continuous
 62
     7
100
AcDbLine
 10
-1044.357133265486
 20
-1059.024999473497
 30
0.0
 11
-1044.25202903022
 21
-1059.024999473497
 31
0.0
  0
LINE
  5
19F
330
4E
100
AcDbEntity
  8
0
  6
Continuous
 62
     7
100
AcDbLine
 10
-1050.725002384269
 20
-1059.024999473499
 30
0.0
 11
-1044.357133265486
 21
-1059.024999473497
 31
0.0
  0
LINE
  5
1A0
330
4E
100
AcDbEntity
  8
0
  6
Continuous
 62
     7
100
AcDbLine
 10
-1043.128629387119
 20
-1059.049999473495
 30
0.0
 11
-1042.564630245661
 21
-1059.049999473495
 31
0.0
  0
LINE
  5
1A1
330
4E
100
AcDbEntity
  8
0
  6
Continuous
 62
     7
100
AcDbLine
 10
-1042.564630245661
 20
-1059.049999473495
 30
0.0
 11
-1041.719839032083
 21
-1059.049999473495
 31
0.0
  0
LINE
  5
1A2
330
4E
100
AcDbEntity
  8
0
  6
Continuous
 62
     7
100
AcDbLine
 10
-1044.083862252704
 20
-1059.684999473495
 30
0.0
 11
-1044.25202903022
 21
-1059.684999473495
 31
0.0
  0
LINE
  5
1A3
330
4E
100
AcDbEntity
  8
0
  6
Continuous
 62
     7
100
AcDbLine
 10
-1044.083862252704
 20
-1059.684999473495
 30
0.0
 11
-1040.662758903397
 21
-1059.684999473495
 31
0.0
  0
LINE
  5
1A4
330
4E
100
AcDbEntity
  8
0
  6
Continuous
 62
     7
100
AcDbLine
 10
-1037.416670057288
 20
-1058.961641893344
 30
0.0
 11
-1034.488359964419
 21
-1056.033331800475
 31
0.0
  0
LINE
  5
1A5
330
4E
100
AcDbEntity
  8
0
  6
Continuous
 62
     7
100
AcDbLine
 10
-1034.983334711249
 20
-1055.538357053644
 30
0.0
 11
-1037.911644804118
 21
-1058.466667146514
 31
0.0
  0
LINE
  5
1A6
330
4E
100
AcDbEntity
  8
1
  6
DOT_CENTER
 62
     2
100
AcDbLine
 10
-1052.140002384268
 20
-1057.249999473494
 30
0.0
 11
-1056.760002384269
 21
-1057.249999473494
 31
0.0
  0
LINE
  5
1A7
330
4E
100
AcDbEntity
  8
1
  6
DOT_CENTER
 62
     2
100
AcDbLine
 10
-1054.450002384268
 20
-1054.939999473494
 30
0.0
 11
-1054.450002384268
 21
-1059.559999473495
 31
0.0
  0
LINE
  5
1A8
330
4E
100
AcDbEntity
  8
1
  6
DOT_CENTER
 62
     2
100
AcDbLine
 10
-1033.89000238427
 20
-1057.249999473494
 30
0.0
 11
-1038.510002384269
 21
-1057.249999473494
 31
0.0
  0
LINE
  5
1A9
330
4E
100
AcDbEntity
  8
1
  6
DOT_CENTER
 62
     2
100
AcDbLine
 10
-1036.200002384269
 20
-1054.939999473495
 30
0.0
 11
-1036.200002384269
 21
-1059.559999473494
 31
0.0
  0
ARC
  5
1AA
330
4E
100
AcDbEntity
  8
0
  6
Continuous
 62
     7
100
AcDbCircle
 10
-1054.450002384268
 20
-1057.249999473494
 30
0.0
 40
2.099999999999852
100
AcDbArc
 50
35.40593177312921
 51
54.59406822687079
  0
ARC
  5
1AB
330
4E
100
AcDbEntity
  8
0
  6
Continuous
 62
     7
100
AcDbCircle
 10
-1054.450002384268
 20
-1057.249999473494
 30
0.0
 40
2.099999999999984
100
AcDbArc
 50
234.5940682268657
 51
35.40593177312921
  0
ARC
  5
1AC
330
4E
100
AcDbEntity
  8
0
  6
Continuous
 62
     7
100
AcDbCircle
 10
-1054.450002384268
 20
-1057.249999473494
 30
0.0
 40
2.099999999999852
100
AcDbArc
 50
54.59406822687079
 51
215.4059317731545
  0
ARC
  5
1AD
330
4E
100
AcDbEntity
  8
0
  6
Continuous
 62
     7
100
AcDbCircle
 10
-1054.450002384271
 20
-1057.249999473493
 30
0.0
 40
2.099999999999514
100
AcDbArc
 50
228.8770153096563
 51
234.5940682269509
  0
ARC
  5
1AE
330
4E
100
AcDbEntity
  8
0
  6
Continuous
 62
     7
100
AcDbCircle
 10
-1054.450002384268
 20
-1057.249999473496
 30
0.0
 40
2.099999999999326
100
AcDbArc
 50
215.405931773109
 51
228.8770153095379
  0
ARC
  5
1AF
330
4E
100
AcDbEntity
  8
0
  6
Continuous
 62
     7
100
AcDbCircle
 10
-1036.200002384269
 20
-1057.249999473494
 30
0.0
 40
2.099999999999584
100
AcDbArc
 50
215.4059317731725
 51
234.5940682268708
  0
ARC
  5
1B0
330
4E
100
AcDbEntity
  8
0
  6
Continuous
 62
     7
100
AcDbCircle
 10
-1036.200002384269
 20
-1057.249999473494
 30
0.0
 40
2.099999999999852
100
AcDbArc
 50
234.5940682268708
 51
313.7744645159638
  0
ARC
  5
1B1
330
4E
100
AcDbEntity
  8
0
  6
Continuous
 62
     7
100
AcDbCircle
 10
-1036.200002384269
 20
-1057.249999473494
 30
0.0
 40
2.099999999999852
100
AcDbArc
 50
35.40593177312921
 51
54.59406822684551
  0
ARC
  5
1B2
330
4E
100
AcDbEntity
  8
0
  6
Continuous
 62
     7
100
AcDbCircle
 10
-1036.200002384269
 20
-1057.249999473494
 30
0.0
 40
2.100000000000118
100
AcDbArc
 50
313.7744645159638
 51
35.40593177312921
  0
ARC
  5
1B3
330
4E
100
AcDbEntity
  8
0
  6
Continuous
 62
     7
100
AcDbCircle
 10
-1036.200002384269
 20
-1057.249999473494
 30
0.0
 40
2.100000000000511
100
AcDbArc
 50
54.59406822684551
 51
215.4059317731725
  0
ENDBLK
  5
50
330
4E
100
AcDbEntity
  8
0
100
AcDbBlockEnd
  0
BLOCK
  5
53
330
51
100
AcDbEntity
  8
0
100
AcDbBlockBegin
  2
Drfsicht1
 70
     0
 10
-1045.337501525815
 20
-1056.82500176225
 30
0.0
  3
Drfsicht1
  1

  0
INSERT
  5
52
330
51
100
AcDbEntity
  8
0
100
AcDbBlockReference
  2
UK_5_N-MT-select__2
 10
-1066.60000238427
 20
-1059.899999473494
 30
0.0
  0
MTEXT
  5
1B4
330
51
100
AcDbEntity
  8
1
 62
     6
100
AcDbMText
 10
-1045.337501525815
 20
-1064.900001999344
 30
0.0
 40
5.0
 41
0.0
 71
     2
 72
     1
  1
 
  7
CONVERTER_11
 73
     1
 44
1.32052821128451
  0
DIMENSION
  5
1C1
330
51
100
AcDbEntity
  8
1
100
AcDbDimension
  2
*D17
 10
-1076.60000238427
 20
-1059.899999473494
 30
0.0
 11
-1080.02500238427
 21
-1069.18879455436
 31
0.0
 70
    32
  1
<>
 71
     5
 42
-1.0
 53
90.0
  3
ME10_DIM_10
100
AcDbAlignedDimension
 13
-1066.60000238427
 23
-1053.749999478045
 33
0.0
 14
-1066.60000238427
 24
-1059.899999473494
 34
0.0
 50
90.0
100
AcDbRotatedDimension
  0
ENDBLK
  5
54
330
51
100
AcDbEntity
  8
0
100
AcDbBlockEnd
  0
BLOCK
  5
56
330
55
100
AcDbEntity
  8
0
100
AcDbBlockBegin
  2
UK_5_N-MT-select__3
 70
     0
 10
-965.9249986674319
 20
-1005.750000382275
 30
0.0
  3
UK_5_N-MT-select__3
  1

  0
LINE
  5
1C2
330
55
100
AcDbEntity
  8
0
  6
Continuous
 62
     7
100
AcDbLine
 10
-945.9161387989961
 20
-958.2500003718978
 30
0.0
 11
-949.3372421483035
 21
-958.250000371898
 31
0.0
  0
LINE
  5
1C3
330
55
100
AcDbEntity
  8
0
  6
Continuous
 62
     7
100
AcDbLine
 10
-926.7272332463278
 20
-967.6746853521737
 30
0.0
 11
-927.4838375021973
 21
-968.4312896080432
 31
0.0
  0
LINE
  5
1C4
330
55
100
AcDbEntity
  8
0
  6
Continuous
 62
     7
100
AcDbLine
 10
-945.7479720214802
 20
-959.8500003822751
 30
0.0
 11
-945.9161387989961
 21
-958.2500003718978
 31
0.0
  0
LINE
  5
1C5
330
55
100
AcDbEntity
  8
0
  6
Continuous
 62
     7
100
AcDbLine
 10
-949.3372421483035
 20
-958.250000371898
 30
0.0
 11
-949.1972602857542
 21
-959.8500003822749
 31
0.0
  0
LINE
  5
1C6
330
55
100
AcDbEntity
  8
0
  6
Continuous
 62
     7
100
AcDbLine
 10
-964.3920544146588
 20
-966.4670561295014
 30
0.0
 11
-965.9249986674319
 21
-968.0000003822759
 31
0.0
  0
LINE
  5
1C7
330
55
100
AcDbEntity
  8
0
  6
Continuous
 62
     7
100
AcDbLine
 10
-965.9249986674319
 20
-969.7418588109799
 30
0.0
 11
-964.7749986674319
 21
-970.0500003822755
 31
0.0
  0
LINE
  5
1C8
330
55
100
AcDbEntity
  8
0
  6
Continuous
 62
     7
100
AcDbLine
 10
-965.9249986674319
 20
-968.0000003822759
 30
0.0
 11
-965.9249986674319
 21
-969.7418588109799
 31
0.0
  0
LINE
  5
1C9
330
55
100
AcDbEntity
  8
0
  6
Continuous
 62
     7
100
AcDbLine
 10
-962.6749986674653
 20
-973.6873070781119
 30
0.0
 11
-962.6749986674168
 21
-989.9500003822682
 31
0.0
  0
LINE
  5
1CA
330
55
100
AcDbEntity
  8
0
  6
Continuous
 62
     7
100
AcDbLine
 10
-930.4749986674304
 20
-993.2000003822737
 30
0.0
 11
-927.3749986674304
 21
-993.2000003822735
 31
0.0
  0
LINE
  5
1CB
330
55
100
AcDbEntity
  8
0
  6
Continuous
 62
     7
100
AcDbLine
 10
-927.3749986674304
 20
-993.2000003822735
 30
0.0
 11
-927.3749986674303
 21
-994.0600003822735
 31
0.0
  0
LINE
  5
1CC
330
55
100
AcDbEntity
  8
0
  6
Continuous
 62
     7
100
AcDbLine
 10
-924.7749986674303
 20
-993.7000003822734
 30
0.0
 11
-923.4249986674305
 21
-993.7000003822733
 31
0.0
  0
LINE
  5
1CD
330
55
100
AcDbEntity
  8
0
  6
Continuous
 62
     7
100
AcDbLine
 10
-923.4249986674306
 20
-991.6500003822733
 30
0.0
 11
-926.6749986674396
 21
-989.9500003822689
 31
0.0
  0
LINE
  5
1CE
330
55
100
AcDbEntity
  8
0
  6
Continuous
 62
     7
100
AcDbLine
 10
-961.8661598326677
 20
-968.4312896080453
 30
0.0
 11
-962.6227640885373
 21
-967.6746853521756
 31
0.0
  0
LINE
  5
1CF
330
55
100
AcDbEntity
  8
0
  6
Continuous
 62
     7
100
AcDbLine
 10
-962.6227640885373
 20
-967.6746853521756
 30
0.0
 11
-962.2494835026829
 21
-967.3014047663212
 31
0.0
  0
LINE
  5
1D0
330
55
100
AcDbEntity
  8
0
  6
Continuous
 62
     7
100
AcDbLine
 10
-962.2494835026829
 20
-967.3014047663212
 30
0.0
 11
-964.3920544146588
 21
-966.4670561295014
 31
0.0
  0
LINE
  5
1D1
330
55
100
AcDbEntity
  8
0
  6
Continuous
 62
     7
100
AcDbLine
 10
-964.7749986674319
 20
-970.0500003822755
 30
0.0
 11
-962.6749986674653
 21
-973.6873070781119
 31
0.0
  0
LINE
  5
1D2
330
55
100
AcDbEntity
  8
0
  6
Continuous
 62
     7
100
AcDbLine
 10
-957.5999986674299
 20
-1005.750000382275
 30
0.0
 11
-954.6499986674298
 21
-1005.750000382275
 31
0.0
  0
LINE
  5
1D3
330
55
100
AcDbEntity
  8
0
  6
Continuous
 62
     7
100
AcDbLine
 10
-954.6499986674298
 20
-1005.750000382275
 30
0.0
 11
-954.6499986674299
 21
-1004.100000382275
 31
0.0
  0
LINE
  5
1D4
330
55
100
AcDbEntity
  8
0
  6
Continuous
 62
     7
100
AcDbLine
 10
-957.5999986674299
 20
-1004.475000382275
 30
0.0
 11
-957.5999986674299
 21
-1005.750000382275
 31
0.0
  0
LINE
  5
1D5
330
55
100
AcDbEntity
  8
0
  6
Continuous
 62
     7
100
AcDbLine
 10
-954.6499986674299
 20
-1004.100000382275
 30
0.0
 11
-954.00999866743
 21
-1004.100000382275
 31
0.0
  0
LINE
  5
1D6
330
55
100
AcDbEntity
  8
0
  6
Continuous
 62
     7
100
AcDbLine
 10
-957.2999986674299
 20
-1002.850000382275
 30
0.0
 11
-956.44999866743
 21
-1002.850000382275
 31
0.0
  0
LINE
  5
1D7
330
55
100
AcDbEntity
  8
0
  6
Continuous
 62
     7
100
AcDbLine
 10
-957.2999986674299
 20
-1002.350000382275
 30
0.0
 11
-957.2999986674299
 21
-1002.850000382275
 31
0.0
  0
LINE
  5
1D8
330
55
100
AcDbEntity
  8
0
  6
Continuous
 62
     7
100
AcDbLine
 10
-926.7054150674176
 20
-1005.750000382274
 30
0.0
 11
-923.3999986674298
 21
-1005.750000382273
 31
0.0
  0
LINE
  5
1D9
330
55
100
AcDbEntity
  8
0
  6
Continuous
 62
     7
100
AcDbLine
 10
-956.44999866743
 20
-1002.850000382275
 30
0.0
 11
-956.4499986674299
 21
-1004.350000382275
 31
0.0
  0
LINE
  5
1DA
330
55
100
AcDbEntity
  8
0
  6
Continuous
 62
     7
100
AcDbLine
 10
-956.4499986674299
 20
-1004.350000382275
 30
0.0
 11
-957.5999986674299
 21
-1004.475000382275
 31
0.0
  0
LINE
  5
1DB
330
55
100
AcDbEntity
  8
0
  6
Continuous
 62
     7
100
AcDbLine
 10
-956.0749986674303
 20
-995.7500003822752
 30
0.0
 11
-956.0749986674303
 21
-996.8243824652892
 31
0.0
  0
LINE
  5
1DC
330
55
100
AcDbEntity
  8
0
  6
Continuous
 62
     7
100
AcDbLine
 10
-957.0749986674303
 20
-995.2500003822753
 30
0.0
 11
-956.5749986674303
 21
-995.2500003822752
 31
0.0
  0
LINE
  5
1DD
330
55
100
AcDbEntity
  8
0
  6
Continuous
 62
     7
100
AcDbLine
 10
-957.5749986674302
 20
-997.0818784178525
 30
0.0
 11
-957.5749986674303
 21
-995.7500003822753
 31
0.0
  0
LINE
  5
1DE
330
55
100
AcDbEntity
  8
0
  6
Continuous
 62
     7
100
AcDbLine
 10
-929.2999986674305
 20
-994.2500003822737
 30
0.0
 11
-930.4749986674303
 21
-994.2500003822737
 31
0.0
  0
LINE
  5
1DF
330
55
100
AcDbEntity
  8
0
  6
Continuous
 62
     7
100
AcDbLine
 10
-927.3749986674303
 20
-994.0600003822735
 30
0.0
 11
-926.2549986674303
 21
-995.1800003822734
 31
0.0
  0
LINE
  5
1E0
330
55
100
AcDbEntity
  8
0
  6
Continuous
 62
     7
100
AcDbLine
 10
-926.2549986674303
 20
-995.1800003822734
 30
0.0
 11
-924.7749986674303
 21
-993.7000003822734
 31
0.0
  0
LINE
  5
1E1
330
55
100
AcDbEntity
  8
0
  6
Continuous
 62
     7
100
AcDbLine
 10
-962.6749986674168
 20
-989.9500003822682
 30
0.0
 11
-965.9249986674306
 21
-991.6500003822756
 31
0.0
  0
LINE
  5
1E2
330
55
100
AcDbEntity
  8
0
  6
Continuous
 62
     7
100
AcDbLine
 10
-958.1503136975327
 20
-963.2022349611705
 30
0.0
 11
-957.3937094416632
 21
-963.9588392170399
 31
0.0
  0
LINE
  5
1E3
330
55
100
AcDbEntity
  8
0
  6
Continuous
 62
     7
100
AcDbLine
 10
-958.5235942833872
 20
-963.575515547025
 30
0.0
 11
-958.1503136975327
 21
-963.2022349611705
 31
0.0
  0
LINE
  5
1E4
330
55
100
AcDbEntity
  8
0
  6
Continuous
 62
     7
100
AcDbLine
 10
-959.357942920207
 20
-961.4329446350495
 30
0.0
 11
-958.5235942833872
 21
-963.575515547025
 31
0.0
  0
LINE
  5
1E5
330
55
100
AcDbEntity
  8
0
  6
Continuous
 62
     7
100
AcDbLine
 10
-945.7479720214802
 20
-959.8500003822751
 30
0.0
 11
-949.1972602857542
 21
-959.8500003822749
 31
0.0
  0
LINE
  5
1E6
330
55
100
AcDbEntity
  8
0
  6
Continuous
 62
     7
100
AcDbLine
 10
-949.1972602857542
 20
-959.8500003822749
 30
0.0
 11
-957.7749986674321
 21
-959.8500003822744
 31
0.0
  0
LINE
  5
1E7
330
55
100
AcDbEntity
  8
0
  6
Continuous
 62
     7
100
AcDbLine
 10
-931.1996836373329
 20
-963.202234961169
 30
0.0
 11
-930.8264030514785
 21
-963.5755155470234
 31
0.0
  0
LINE
  5
1E8
330
55
100
AcDbEntity
  8
0
  6
Continuous
 62
     7
100
AcDbLine
 10
-931.9562878932024
 20
-963.9588392170386
 30
0.0
 11
-931.1996836373329
 21
-963.202234961169
 31
0.0
  0
LINE
  5
1E9
330
55
100
AcDbEntity
  8
0
  6
Continuous
 62
     7
100
AcDbLine
 10
-930.8264030514785
 20
-963.5755155470234
 30
0.0
 11
-929.9920544146629
 21
-961.4329446350573
 31
0.0
  0
LINE
  5
1EA
330
55
100
AcDbEntity
  8
0
  6
Continuous
 62
     7
100
AcDbLine
 10
-929.9920544146629
 20
-961.4329446350573
 30
0.0
 11
-931.5749986674276
 21
-959.8500003822754
 31
0.0
  0
LINE
  5
1EB
330
55
100
AcDbEntity
  8
0
  6
Continuous
 62
     7
100
AcDbLine
 10
-931.5749986674276
 20
-959.8500003822754
 30
0.0
 11
-945.7479720214802
 21
-959.8500003822751
 31
0.0
  0
LINE
  5
1EC
330
55
100
AcDbEntity
  8
0
  6
Continuous
 62
     7
100
AcDbLine
 10
-957.7749986674321
 20
-959.8500003822744
 30
0.0
 11
-959.357942920207
 21
-961.4329446350495
 31
0.0
  0
LINE
  5
1ED
330
55
100
AcDbEntity
  8
0
  6
Continuous
 62
     7
100
AcDbLine
 10
-957.3937094416632
 20
-963.9588392170399
 30
0.0
 11
-961.8661598326677
 21
-968.4312896080453
 31
0.0
  0
LINE
  5
1EE
330
55
100
AcDbEntity
  8
0
  6
Continuous
 62
     7
100
AcDbLine
 10
-924.5749986674264
 20
-970.050000382272
 30
0.0
 11
-923.4249986674319
 21
-969.7418588109775
 31
0.0
  0
LINE
  5
1EF
330
55
100
AcDbEntity
  8
0
  6
Continuous
 62
     7
100
AcDbLine
 10
-923.4249986674319
 20
-968.0000003823596
 30
0.0
 11
-924.9579429202564
 21
-966.4670561295185
 31
0.0
  0
LINE
  5
1F0
330
55
100
AcDbEntity
  8
0
  6
Continuous
 62
     7
100
AcDbLine
 10
-927.1005138321823
 20
-967.3014047663193
 30
0.0
 11
-926.7272332463278
 21
-967.6746853521737
 31
0.0
  0
LINE
  5
1F1
330
55
100
AcDbEntity
  8
0
  6
Continuous
 62
     7
100
AcDbLine
 10
-925.8730435348177
 20
-1001.171215189727
 30
0.0
 11
-925.89999866743
 21
-1000.940599305515
 31
0.0
  0
LINE
  5
1F2
330
55
100
AcDbEntity
  8
0
  6
Continuous
 62
     7
100
AcDbLine
 10
-924.9579429202564
 20
-966.4670561295185
 30
0.0
 11
-927.1005138321823
 21
-967.3014047663193
 31
0.0
  0
LINE
  5
1F3
330
55
100
AcDbEntity
  8
0
  6
Continuous
 62
     7
100
AcDbLine
 10
-926.6749986674396
 20
-989.9500003822689
 30
0.0
 11
-926.6749986673931
 21
-973.6873070781093
 31
0.0
  0
LINE
  5
1F4
330
55
100
AcDbEntity
  8
0
  6
Continuous
 62
     7
100
AcDbLine
 10
-925.89999866743
 20
-1000.940599305515
 30
0.0
 11
-925.8999986674303
 21
-997.6500003822734
 31
0.0
  0
LINE
  5
1F5
330
55
100
AcDbEntity
  8
0
  6
Continuous
 62
     7
100
AcDbLine
 10
-926.6749986673931
 20
-973.6873070781093
 30
0.0
 11
-924.5749986674264
 21
-970.050000382272
 31
0.0
  0
LINE
  5
1F6
330
55
100
AcDbEntity
  8
0
  6
Continuous
 62
     7
100
AcDbLine
 10
-930.4813245018443
 20
-996.1500003822738
 30
0.0
 11
-929.2999986674304
 21
-996.1500003822737
 31
0.0
  0
LINE
  5
1F7
330
55
100
AcDbEntity
  8
0
  6
Continuous
 62
     7
100
AcDbLine
 10
-928.4999986674301
 20
-1000.850000382274
 30
0.0
 11
-928.4999986674301
 21
-1001.050000382273
 31
0.0
  0
LINE
  5
1F8
330
55
100
AcDbEntity
  8
0
  6
Continuous
 62
     7
100
AcDbLine
 10
-927.4749986674301
 20
-1000.650000382274
 30
0.0
 11
-928.4999986674301
 21
-1000.850000382274
 31
0.0
  0
LINE
  5
1F9
330
55
100
AcDbEntity
  8
0
  6
Continuous
 62
     7
100
AcDbLine
 10
-927.3749986674302
 20
-999.4500003822735
 30
0.0
 11
-927.4749986674301
 21
-1000.650000382274
 31
0.0
  0
LINE
  5
1FA
330
55
100
AcDbEntity
  8
0
  6
Continuous
 62
     7
100
AcDbLine
 10
-928.3999986674302
 20
-999.2495884801674
 30
0.0
 11
-927.3749986674302
 21
-999.4500003822735
 31
0.0
  0
LINE
  5
1FB
330
55
100
AcDbEntity
  8
0
  6
Continuous
 62
     7
100
AcDbLine
 10
-928.3999986674302
 20
-998.5500003822737
 30
0.0
 11
-928.3999986674302
 21
-999.2495884801674
 31
0.0
  0
LINE
  5
1FC
330
55
100
AcDbEntity
  8
0
  6
Continuous
 62
     7
100
AcDbLine
 10
-928.3513153693797
 20
-998.5500003822737
 30
0.0
 11
-928.3999986674302
 21
-998.5500003822737
 31
0.0
  0
LINE
  5
1FD
330
55
100
AcDbEntity
  8
0
  6
Continuous
 62
     7
100
AcDbLine
 10
-931.9999986674303
 20
-996.8500003822738
 30
0.0
 11
-931.7733202574574
 21
-996.6233219723009
 31
0.0
  0
LINE
  5
1FE
330
55
100
AcDbEntity
  8
0
  6
Continuous
 62
     7
100
AcDbLine
 10
-923.64999866743
 20
-1002.816987680381
 30
0.0
 11
-925.39999866743
 21
-1001.806624709299
 31
0.0
  0
LINE
  5
1FF
330
55
100
AcDbEntity
  8
0
  6
Continuous
 62
     7
100
AcDbLine
 10
-938.7249986674304
 20
-995.2500003822743
 30
0.0
 11
-938.6123808693097
 21
-995.2500003822742
 31
0.0
  0
LINE
  5
200
330
55
100
AcDbEntity
  8
0
  6
Continuous
 62
     7
100
AcDbLine
 10
-939.2249986674302
 20
-998.1000003822742
 30
0.0
 11
-939.2249986674303
 21
-995.7500003822743
 31
0.0
  0
LINE
  5
201
330
55
100
AcDbEntity
  8
0
  6
Continuous
 62
     7
100
AcDbLine
 10
-938.1294179561651
 20
-995.6205908597229
 30
0.0
 11
-937.7999986674303
 21
-996.8500003822742
 31
0.0
  0
LINE
  5
202
330
55
100
AcDbEntity
  8
0
  6
Continuous
 62
     7
100
AcDbLine
 10
-962.32499866743
 20
-1002.250000382276
 30
0.0
 11
-961.3749986674301
 21
-1001.300000382276
 31
0.0
  0
LINE
  5
203
330
55
100
AcDbEntity
  8
0
  6
Continuous
 62
     7
100
AcDbLine
 10
-962.1749986674301
 20
-999.4500003822754
 30
0.0
 11
-958.0999986674301
 21
-999.450000382275
 31
0.0
  0
LINE
  5
204
330
55
100
AcDbEntity
  8
0
  6
Continuous
 62
     7
100
AcDbLine
 10
-962.1749986674304
 20
-1000.650000382276
 30
0.0
 11
-962.1749986674301
 21
-999.4500003822754
 31
0.0
  0
LINE
  5
205
330
55
100
AcDbEntity
  8
0
  6
Continuous
 62
     7
100
AcDbLine
 10
-961.3749986674301
 20
-1000.850000382275
 30
0.0
 11
-962.1749986674304
 21
-1000.650000382276
 31
0.0
  0
LINE
  5
206
330
55
100
AcDbEntity
  8
0
  6
Continuous
 62
     7
100
AcDbLine
 10
-961.3749986674301
 20
-1001.300000382276
 30
0.0
 11
-961.3749986674301
 21
-1000.850000382275
 31
0.0
  0
LINE
  5
207
330
55
100
AcDbEntity
  8
0
  6
Continuous
 62
     7
100
AcDbLine
 10
-965.9249986674306
 20
-991.6500003822756
 30
0.0
 11
-965.92499866743
 21
-1002.250000382276
 31
0.0
  0
LINE
  5
208
330
55
100
AcDbEntity
  8
0
  6
Continuous
 62
     7
100
AcDbLine
 10
-965.92499866743
 20
-1002.250000382276
 30
0.0
 11
-962.32499866743
 21
-1002.250000382276
 31
0.0
  0
LINE
  5
209
330
55
100
AcDbEntity
  8
0
  6
Continuous
 62
     7
100
AcDbLine
 10
-958.0999986674301
 20
-999.450000382275
 30
0.0
 11
-957.5749986674302
 21
-997.0818784178525
 31
0.0
  0
LINE
  5
20A
330
55
100
AcDbEntity
  8
0
  6
Continuous
 62
     7
100
AcDbLine
 10
-937.7999986674303
 20
-996.8500003822742
 30
0.0
 11
-931.9999986674303
 21
-996.8500003822738
 31
0.0
  0
LINE
  5
20B
330
55
100
AcDbEntity
  8
0
  6
Continuous
 62
     7
100
AcDbLine
 10
-956.0749986674303
 20
-996.8243824652892
 30
0.0
 11
-957.2999986674299
 21
-1002.350000382275
 31
0.0
  0
LINE
  5
20C
330
55
100
AcDbEntity
  8
0
  6
Continuous
 62
     7
100
AcDbLine
 10
-923.3999986674298
 20
-1005.750000382273
 30
0.0
 11
-923.3999986674299
 21
-1003.250000382273
 31
0.0
  0
LINE
  5
20D
330
55
100
AcDbEntity
  8
0
  6
Continuous
 62
     7
100
AcDbLine
 10
-923.4249986674305
 20
-993.7000003822733
 30
0.0
 11
-923.4249986674306
 21
-991.6500003822733
 31
0.0
  0
LINE
  5
20E
330
55
100
AcDbEntity
  8
0
  6
Continuous
 62
     7
100
AcDbLine
 10
-923.4249986674319
 20
-969.7418588109775
 30
0.0
 11
-923.4249986674319
 21
-968.0000003823596
 31
0.0
  0
LINE
  5
20F
330
55
100
AcDbEntity
  8
0
  6
Continuous
 62
     7
100
AcDbLine
 10
-927.4838375021973
 20
-968.4312896080432
 30
0.0
 11
-931.9562878932024
 21
-963.9588392170386
 31
0.0
  0
ARC
  5
210
330
55
100
AcDbEntity
  8
0
  6
Continuous
 62
     7
100
AcDbCircle
 10
-924.89999866743
 20
-1000.940599305515
 30
0.0
 40
1.000000000000199
100
AcDbArc
 50
193.3333341264618
 51
239.9999999999864
  0
ARC
  5
211
330
55
100
AcDbEntity
  8
0
  6
Continuous
 62
     7
100
AcDbCircle
 10
-921.03561766283
 20
-1000.892513023469
 30
0.0
 40
7.466042194497568
100
AcDbArc
 50
181.2086765707201
 51
220.5876661228523
  0
ARC
  5
212
330
55
100
AcDbEntity
  8
0
  6
Continuous
 62
     7
100
AcDbCircle
 10
-954.0099986674301
 20
-1002.100000382275
 30
0.0
 40
2.0
100
AcDbArc
 50
270.0000000000032
 51
325.6719647666279
  0
ARC
  5
213
330
55
100
AcDbEntity
  8
0
  6
Continuous
 62
     7
100
AcDbCircle
 10
-945.7517740844214
 20
-1007.739302354735
 30
0.0
 40
7.999999999999703
100
AcDbArc
 50
102.3352321792852
 51
145.6719647666282
  0
ARC
  5
214
330
55
100
AcDbEntity
  8
0
  6
Continuous
 62
     7
100
AcDbCircle
 10
-956.5749986674303
 20
-995.7500003822752
 30
0.0
 40
0.5
100
AcDbArc
 50
0.0
 51
90.0
  0
ARC
  5
215
330
55
100
AcDbEntity
  8
0
  6
Continuous
 62
     7
100
AcDbCircle
 10
-957.0749986674303
 20
-995.7500003822753
 30
0.0
 40
0.5
100
AcDbArc
 50
90.0
 51
180.0
  0
ARC
  5
216
330
55
100
AcDbEntity
  8
0
  6
Continuous
 62
     7
100
AcDbCircle
 10
-929.2999986674303
 20
-997.6500003822737
 30
0.0
 40
3.399999999999977
100
AcDbArc
 50
0.00000000000383
 51
90.00000000000384
  0
ARC
  5
217
330
55
100
AcDbEntity
  8
0
  6
Continuous
 62
     7
100
AcDbCircle
 10
-930.4749986674304
 20
-993.7250003822737
 30
0.0
 40
0.5249999999999773
100
AcDbArc
 50
90.0
 51
270.0000000000124
  0
ARC
  5
218
330
55
100
AcDbEntity
  8
0
  6
Continuous
 62
     7
100
AcDbCircle
 10
-923.8999986674299
 20
-1003.250000382273
 30
0.0
 40
0.5
100
AcDbArc
 50
0.0
 51
60.00000000000097
  0
ARC
  5
219
330
55
100
AcDbEntity
  8
0
  6
Continuous
 62
     7
100
AcDbCircle
 10
-930.4813245018441
 20
-998.1500003822738
 30
0.0
 40
2.0
100
AcDbArc
 50
90.00000000000325
 51
130.2405342105923
  0
ARC
  5
21A
330
55
100
AcDbEntity
  8
0
  6
Continuous
 62
     7
100
AcDbCircle
 10
-928.3513153693798
 20
-997.8000003822737
 30
0.0
 40
0.75
100
AcDbArc
 50
270.0000000000086
 51
3.01696130982404
  0
ARC
  5
21B
330
55
100
AcDbEntity
  8
0
  6
Continuous
 62
     7
100
AcDbCircle
 10
-929.2999986674303
 20
-997.8500003822737
 30
0.0
 40
1.700000000000006
100
AcDbArc
 50
3.01696130982192
 51
90.00000000000384
  0
ARC
  5
21C
330
55
100
AcDbEntity
  8
0
  6
Continuous
 62
     7
100
AcDbCircle
 10
-943.9999986674293
 20
-1015.750000382275
 30
0.0
 40
16.20000000000044
100
AcDbArc
 50
79.29351303112414
 51
102.3352321792841
  0
ARC
  5
21D
330
55
100
AcDbEntity
  8
0
  6
Continuous
 62
     7
100
AcDbCircle
 10
-941.2133306984363
 20
-1001.011123843319
 30
0.0
 40
1.199999999999825
100
AcDbArc
 50
353.0762791559799
 51
79.29351303113113
  0
ARC
  5
21E
330
55
100
AcDbEntity
  8
0
  6
Continuous
 62
     7
100
AcDbCircle
 10
-941.5726449423238
 20
-998.9883347965208
 30
0.0
 40
3.349999999999996
100
AcDbArc
 50
311.3165829300444
 51
357.584957858671
  0
ARC
  5
21F
330
55
100
AcDbEntity
  8
0
  6
Continuous
 62
     7
100
AcDbCircle
 10
-938.9249986674303
 20
-998.1000003822742
 30
0.0
 40
0.2999999999999545
100
AcDbArc
 50
180.0
 51
270.0
  0
ARC
  5
220
330
55
100
AcDbEntity
  8
0
  6
Continuous
 62
     7
100
AcDbCircle
 10
-938.7249986674303
 20
-995.7500003822743
 30
0.0
 40
0.5
100
AcDbArc
 50
90.00000000001303
 51
180.0
  0
ARC
  5
221
330
55
100
AcDbEntity
  8
0
  6
Continuous
 62
     7
100
AcDbCircle
 10
-938.6123808693096
 20
-995.7500003822743
 30
0.0
 40
0.50000000000003
100
AcDbArc
 50
15.00000000000703
 51
90.00000000001303
  0
ARC
  5
222
330
55
100
AcDbEntity
  8
0
  6
Continuous
 62
     7
100
AcDbCircle
 10
-938.9249986674301
 20
-999.1000003822742
 30
0.0
 40
0.6999999999999571
100
AcDbArc
 50
357.5849578586653
 51
90.00000000000931
  0
ARC
  5
223
330
55
100
AcDbEntity
  8
0
  6
Continuous
 62
     7
100
AcDbCircle
 10
-939.6249986674301
 20
-1001.204000382274
 30
0.0
 40
0.4000000000000248
100
AcDbArc
 50
173.0762791559267
 51
311.3165829300049
  0
ENDBLK
  5
57
330
55
100
AcDbEntity
  8
0
100
AcDbBlockEnd
  0
BLOCK
  5
5A
330
58
100
AcDbEntity
  8
0
100
AcDbBlockBegin
  2
Rckans1
 70
     0
 10
-944.6624995258852
 20
-981.9999999993449
 30
0.0
  3
Rckans1
  1

  0
INSERT
  5
59
330
58
100
AcDbEntity
  8
0
100
AcDbBlockReference
  2
UK_5_N-MT-select__3
 10
-965.9249986674319
 20
-1005.750000382275
 30
0.0
  0
MTEXT
  5
224
330
58
100
AcDbEntity
  8
1
 62
     6
100
AcDbMText
 10
-944.6624995258852
 20
-1010.749999999346
 30
0.0
 40
5.0
 41
0.0
 71
     2
 72
     1
  1
 
  7
CONVERTER_11
 73
     1
 44
1.32052821128451
  0
ENDBLK
  5
5B
330
58
100
AcDbEntity
  8
0
100
AcDbBlockEnd
  0
BLOCK
  5
5D
330
5C
100
AcDbEntity
  8
0
100
AcDbBlockBegin
  2
UK_5_N-MT-select__4
 70
     0
 10
-996.075002810055
 20
-1005.750000382275
 30
0.0
  3
UK_5_N-MT-select__4
  1

  0
LINE
  5
225
330
5C
100
AcDbEntity
  8
0
  6
Continuous
 62
     7
100
AcDbLine
 10
-989.9250028146056
 20
-961.4329446350573
 30
0.0
 11
-989.9250028146056
 21
-959.8500003822754
 31
0.0
  0
LINE
  5
226
330
5C
100
AcDbEntity
  8
0
  6
Continuous
 62
     7
100
AcDbLine
 10
-989.9250028146055
 20
-995.1800003822735
 30
0.0
 11
-989.9250028146056
 21
-997.6500003822736
 31
0.0
  0
LINE
  5
227
330
5C
100
AcDbEntity
  8
0
  6
Continuous
 62
     7
100
AcDbLine
 10
-989.9250028146055
 20
-995.1800003822735
 30
0.0
 11
-989.9250028146056
 21
-993.7000003822734
 31
0.0
  0
LINE
  5
228
330
5C
100
AcDbEntity
  8
0
  6
Continuous
 62
     7
100
AcDbLine
 10
-989.9250028146056
 20
-991.6500003822734
 30
0.0
 11
-989.9250028146056
 21
-993.7000003822734
 31
0.0
  0
LINE
  5
229
330
5C
100
AcDbEntity
  8
0
  6
Continuous
 62
     7
100
AcDbLine
 10
-989.9250028146056
 20
-989.9500003822689
 30
0.0
 11
-989.9250028146056
 21
-991.6500003822734
 31
0.0
  0
LINE
  5
22A
330
5C
100
AcDbEntity
  8
0
  6
Continuous
 62
     7
100
AcDbLine
 10
-989.9250028146056
 20
-966.4670561295014
 30
0.0
 11
-989.9250028146056
 21
-968.0000003823596
 31
0.0
  0
LINE
  5
22B
330
5C
100
AcDbEntity
  8
0
  6
Continuous
 62
     7
100
AcDbLine
 10
-989.9250028146056
 20
-963.9588392170386
 30
0.0
 11
-989.9250028146056
 21
-963.575515547025
 31
0.0
  0
LINE
  5
22C
330
5C
100
AcDbEntity
  8
0
  6
Continuous
 62
     7
100
AcDbLine
 10
-989.9250028146056
 20
-966.4670561295014
 30
0.0
 11
-989.9250028146056
 21
-963.9588392170386
 31
0.0
  0
LINE
  5
22D
330
5C
100
AcDbEntity
  8
0
  6
Continuous
 62
     7
100
AcDbLine
 10
-989.9250028146056
 20
-969.7418588109776
 30
0.0
 11
-989.9250028146056
 21
-968.0000003823596
 31
0.0
  0
LINE
  5
22E
330
5C
100
AcDbEntity
  8
0
  6
Continuous
 62
     7
100
AcDbLine
 10
-989.9250028146056
 20
-970.0500003822734
 30
0.0
 11
-989.9250028146056
 21
-969.7418588109776
 31
0.0
  0
LINE
  5
22F
330
5C
100
AcDbEntity
  8
0
  6
Continuous
 62
     7
100
AcDbLine
 10
-989.9250028146056
 20
-961.4329446350573
 30
0.0
 11
-989.9250028146056
 21
-963.575515547025
 31
0.0
  0
LINE
  5
230
330
5C
100
AcDbEntity
  8
0
  6
Continuous
 62
     7
100
AcDbLine
 10
-989.9250028146056
 20
-973.6873070781094
 30
0.0
 11
-989.9250028146056
 21
-970.0500003822734
 31
0.0
  0
LINE
  5
231
330
5C
100
AcDbEntity
  8
0
  6
Continuous
 62
     7
100
AcDbLine
 10
-989.9250028146056
 20
-989.9500003822689
 30
0.0
 11
-989.9250028146056
 21
-973.6873070781094
 31
0.0
  0
LINE
  5
232
330
5C
100
AcDbEntity
  8
0
  6
Continuous
 62
     7
100
AcDbLine
 10
-990.1400028146048
 20
-958.2500003718978
 30
0.0
 11
-990.1400028146049
 21
-959.8500003822751
 31
0.0
  0
LINE
  5
233
330
5C
100
AcDbEntity
  8
0
  6
Continuous
 62
     7
100
AcDbLine
 10
-990.1400028146049
 20
-959.8500003822751
 30
0.0
 11
-989.9250028146056
 21
-959.8500003822754
 31
0.0
  0
LINE
  5
234
330
5C
100
AcDbEntity
  8
0
  6
Continuous
 62
     7
100
AcDbLine
 10
-996.075002810055
 20
-959.8500003822754
 30
0.0
 11
-995.010002814605
 21
-959.8500003822751
 31
0.0
  0
LINE
  5
235
330
5C
100
AcDbEntity
  8
0
  6
Continuous
 62
     7
100
AcDbLine
 10
-996.075002810055
 20
-963.575515547025
 30
0.0
 11
-996.075002810055
 21
-961.4329446350574
 31
0.0
  0
LINE
  5
236
330
5C
100
AcDbEntity
  8
0
  6
Continuous
 62
     7
100
AcDbLine
 10
-996.075002810055
 20
-961.4329446350574
 30
0.0
 11
-989.9250028146056
 21
-961.4329446350573
 31
0.0
  0
LINE
  5
237
330
5C
100
AcDbEntity
  8
0
  6
Continuous
 62
     7
100
AcDbLine
 10
-996.075002810055
 20
-963.575515547025
 30
0.0
 11
-989.9250028146056
 21
-963.575515547025
 31
0.0
  0
LINE
  5
238
330
5C
100
AcDbEntity
  8
0
  6
Continuous
 62
     7
100
AcDbLine
 10
-995.010002814605
 20
-959.8500003822751
 30
0.0
 11
-990.1400028146049
 21
-959.8500003822751
 31
0.0
  0
LINE
  5
239
330
5C
100
AcDbEntity
  8
0
  6
Continuous
 62
     7
100
AcDbLine
 10
-989.9250028146056
 20
-963.9588392170386
 30
0.0
 11
-996.075002810055
 21
-963.9588392170386
 31
0.0
  0
LINE
  5
23A
330
5C
100
AcDbEntity
  8
0
  6
Continuous
 62
     7
100
AcDbLine
 10
-995.0100028146048
 20
-958.2500003718978
 30
0.0
 11
-990.1400028146048
 21
-958.2500003718978
 31
0.0
  0
LINE
  5
23B
330
5C
100
AcDbEntity
  8
0
  6
Continuous
 62
     7
100
AcDbLine
 10
-989.9250028146055
 20
-995.1800003822735
 30
0.0
 11
-996.075002810055
 21
-995.1800003822735
 31
0.0
  0
LINE
  5
23C
330
5C
100
AcDbEntity
  8
0
  6
Continuous
 62
     7
100
AcDbLine
 10
-996.075002810055
 20
-993.7000003822734
 30
0.0
 11
-989.9250028146056
 21
-993.7000003822734
 31
0.0
  0
LINE
  5
23D
330
5C
100
AcDbEntity
  8
0
  6
Continuous
 62
     7
100
AcDbLine
 10
-996.075002810055
 20
-970.050000382272
 30
0.0
 11
-996.075002810055
 21
-969.7418588109776
 31
0.0
  0
LINE
  5
23E
330
5C
100
AcDbEntity
  8
0
  6
Continuous
 62
     7
100
AcDbLine
 10
-996.075002810055
 20
-973.6873070781094
 30
0.0
 11
-996.075002810055
 21
-970.050000382272
 31
0.0
  0
LINE
  5
23F
330
5C
100
AcDbEntity
  8
0
  6
Continuous
 62
     7
100
AcDbLine
 10
-996.075002810055
 20
-969.7418588109776
 30
0.0
 11
-996.075002810055
 21
-968.0000003823596
 31
0.0
  0
LINE
  5
240
330
5C
100
AcDbEntity
  8
0
  6
Continuous
 62
     7
100
AcDbLine
 10
-996.075002810055
 20
-968.0000003823596
 30
0.0
 11
-996.075002810055
 21
-966.4670561295014
 31
0.0
  0
LINE
  5
241
330
5C
100
AcDbEntity
  8
0
  6
Continuous
 62
     7
100
AcDbLine
 10
-990.550002810055
 20
-973.687512037931
 30
0.0
 11
-995.3500028146055
 21
-973.687512037931
 31
0.0
  0
LINE
  5
242
330
5C
100
AcDbEntity
  8
0
  6
Continuous
 62
     7
100
AcDbLine
 10
-990.550002810055
 20
-973.687512037931
 30
0.0
 11
-990.550002810055
 21
-978.4162325306863
 31
0.0
  0
LINE
  5
243
330
5C
100
AcDbEntity
  8
0
  6
Continuous
 62
     7
100
AcDbLine
 10
-996.075002810055
 20
-966.4670561295014
 30
0.0
 11
-989.9250028146056
 21
-966.4670561295014
 31
0.0
  0
LINE
  5
244
330
5C
100
AcDbEntity
  8
0
  6
Continuous
 62
     7
100
AcDbLine
 10
-995.3500028146055
 20
-989.9500003822689
 30
0.0
 11
-995.3500028146055
 21
-985.0094165382068
 31
0.0
  0
LINE
  5
245
330
5C
100
AcDbEntity
  8
0
  6
Continuous
 62
     7
100
AcDbLine
 10
-995.3500028146055
 20
-978.284430469681
 30
0.0
 11
-995.3500028146055
 21
-973.687512037931
 31
0.0
  0
LINE
  5
246
330
5C
100
AcDbEntity
  8
0
  6
Continuous
 62
     7
100
AcDbLine
 10
-996.075002810055
 20
-995.1800003822735
 30
0.0
 11
-996.075002810055
 21
-997.6500003822736
 31
0.0
  0
LINE
  5
247
330
5C
100
AcDbEntity
  8
0
  6
Continuous
 62
     7
100
AcDbLine
 10
-996.075002810055
 20
-995.1800003822735
 30
0.0
 11
-996.075002810055
 21
-993.7000003822734
 31
0.0
  0
LINE
  5
248
330
5C
100
AcDbEntity
  8
0
  6
Continuous
 62
     7
100
AcDbLine
 10
-996.075002810055
 20
-993.7000003822734
 30
0.0
 11
-996.075002810055
 21
-991.6500003822734
 31
0.0
  0
LINE
  5
249
330
5C
100
AcDbEntity
  8
0
  6
Continuous
 62
     7
100
AcDbLine
 10
-996.075002810055
 20
-989.9500003822689
 30
0.0
 11
-996.075002810055
 21
-973.6873070781094
 31
0.0
  0
LINE
  5
24A
330
5C
100
AcDbEntity
  8
0
  6
Continuous
 62
     7
100
AcDbLine
 10
-995.3500028146055
 20
-985.0094165382068
 30
0.0
 11
-995.3500028146055
 21
-978.284430469681
 31
0.0
  0
LINE
  5
24B
330
5C
100
AcDbEntity
  8
0
  6
Continuous
 62
     7
100
AcDbLine
 10
-994.225002810055
 20
-979.148061381334
 30
0.0
 11
-994.5188114926403
 21
-979.1480613813385
 31
0.0
  0
LINE
  5
24C
330
5C
100
AcDbEntity
  8
0
  6
Continuous
 62
     7
100
AcDbLine
 10
-994.225002810055
 20
-983.8500003822816
 30
0.0
 11
-994.3117557943598
 21
-983.8500003822816
 31
0.0
  0
LINE
  5
24D
330
5C
100
AcDbEntity
  8
0
  6
Continuous
 62
     7
100
AcDbLine
 10
-990.925002810055
 20
-983.8500003822816
 30
0.0
 11
-994.225002810055
 21
-983.8500003822816
 31
0.0
  0
LINE
  5
24E
330
5C
100
AcDbEntity
  8
0
  6
Continuous
 62
     7
100
AcDbLine
 10
-994.225002810055
 20
-979.148061381334
 30
0.0
 11
-994.225002810055
 21
-983.8500003822816
 31
0.0
  0
LINE
  5
24F
330
5C
100
AcDbEntity
  8
0
  6
Continuous
 62
     7
100
AcDbLine
 10
-990.925002810055
 20
-979.1480613813337
 30
0.0
 11
-994.225002810055
 21
-979.148061381334
 31
0.0
  0
LINE
  5
250
330
5C
100
AcDbEntity
  8
0
  6
Continuous
 62
     7
100
AcDbLine
 10
-990.550002810055
 20
-989.9500003822689
 30
0.0
 11
-995.3500028146055
 21
-989.9500003822689
 31
0.0
  0
LINE
  5
251
330
5C
100
AcDbEntity
  8
0
  6
Continuous
 62
     7
100
AcDbLine
 10
-995.3500028146055
 20
-989.9500003822689
 30
0.0
 11
-996.075002810055
 21
-989.9500003822689
 31
0.0
  0
LINE
  5
252
330
5C
100
AcDbEntity
  8
0
  6
Continuous
 62
     7
100
AcDbLine
 10
-996.075002810055
 20
-991.6500003822734
 30
0.0
 11
-996.075002810055
 21
-989.9500003822689
 31
0.0
  0
LINE
  5
253
330
5C
100
AcDbEntity
  8
0
  6
Continuous
 62
     7
100
AcDbLine
 10
-996.075002810055
 20
-991.6500003822734
 30
0.0
 11
-989.9250028146056
 21
-991.6500003822734
 31
0.0
  0
LINE
  5
254
330
5C
100
AcDbEntity
  8
0
  6
Continuous
 62
     7
100
AcDbLine
 10
-990.811153430719
 20
-979.1480613813385
 30
0.0
 11
-990.925002810055
 21
-979.1480613813337
 31
0.0
  0
LINE
  5
255
330
5C
100
AcDbEntity
  8
0
  6
Continuous
 62
     7
100
AcDbLine
 10
-990.925002810055
 20
-979.1480613813337
 30
0.0
 11
-990.925002810055
 21
-983.8500003822816
 31
0.0
  0
LINE
  5
256
330
5C
100
AcDbEntity
  8
0
  6
Continuous
 62
     7
100
AcDbLine
 10
-990.8879242015042
 20
-983.8500003822816
 30
0.0
 11
-990.925002810055
 21
-983.8500003822816
 31
0.0
  0
LINE
  5
257
330
5C
100
AcDbEntity
  8
0
  6
Continuous
 62
     7
100
AcDbLine
 10
-989.9250028146056
 20
-989.9500003822689
 30
0.0
 11
-990.550002810055
 21
-989.9500003822689
 31
0.0
  0
LINE
  5
258
330
5C
100
AcDbEntity
  8
0
  6
Continuous
 62
     7
100
AcDbLine
 10
-990.550002810055
 20
-978.4162325306863
 30
0.0
 11
-990.550002810055
 21
-984.8677609611299
 31
0.0
  0
LINE
  5
259
330
5C
100
AcDbEntity
  8
0
  6
Continuous
 62
     7
100
AcDbLine
 10
-990.550002810055
 20
-984.8677609611299
 30
0.0
 11
-990.550002810055
 21
-989.9500003822689
 31
0.0
  0
LINE
  5
25A
330
5C
100
AcDbEntity
  8
0
  6
Continuous
 62
     7
100
AcDbLine
 10
-990.550002810055
 20
-978.4162325306863
 30
0.0
 11
-990.811153430719
 21
-979.1480613813385
 31
0.0
  0
LINE
  5
25B
330
5C
100
AcDbEntity
  8
0
  6
Continuous
 62
     7
100
AcDbLine
 10
-990.8879242015042
 20
-983.8500003822816
 30
0.0
 11
-990.550002810055
 21
-984.8677609611299
 31
0.0
  0
LINE
  5
25C
330
5C
100
AcDbEntity
  8
0
  6
Continuous
 62
     7
100
AcDbLine
 10
-996.075002810055
 20
-968.0000003823596
 30
0.0
 11
-989.9250028146056
 21
-968.0000003823596
 31
0.0
  0
LINE
  5
25D
330
5C
100
AcDbEntity
  8
0
  6
Continuous
 62
     7
100
AcDbLine
 10
-996.075002810055
 20
-969.7418588109776
 30
0.0
 11
-989.9250028146056
 21
-969.7418588109776
 31
0.0
  0
LINE
  5
25E
330
5C
100
AcDbEntity
  8
0
  6
Continuous
 62
     7
100
AcDbLine
 10
-989.9250028146056
 20
-970.0500003822734
 30
0.0
 11
-996.075002810055
 21
-970.050000382272
 31
0.0
  0
LINE
  5
25F
330
5C
100
AcDbEntity
  8
0
  6
Continuous
 62
     7
100
AcDbLine
 10
-989.9250028146056
 20
-973.6873070781094
 30
0.0
 11
-996.075002810055
 21
-973.6873070781094
 31
0.0
  0
LINE
  5
260
330
5C
100
AcDbEntity
  8
0
  6
Continuous
 62
     7
100
AcDbLine
 10
-994.5188114926403
 20
-979.1480613813385
 30
0.0
 11
-995.3500028146055
 21
-978.284430469681
 31
0.0
  0
LINE
  5
261
330
5C
100
AcDbEntity
  8
0
  6
Continuous
 62
     2
100
AcDbLine
 10
-996.075002810055
 20
-1001.806624709299
 30
0.0
 11
-994.9250028146056
 21
-1001.806624709299
 31
0.0
  0
LINE
  5
262
330
5C
100
AcDbEntity
  8
0
  6
Continuous
 62
     7
100
AcDbLine
 10
-989.9250028146056
 20
-1003.250000382273
 30
0.0
 11
-989.9250028146056
 21
-1005.750000382275
 31
0.0
  0
LINE
  5
263
330
5C
100
AcDbEntity
  8
0
  6
Continuous
 62
     2
100
AcDbLine
 10
-989.9250028146056
 20
-1003.250000382273
 30
0.0
 11
-996.075002810055
 21
-1003.250000382273
 31
0.0
  0
LINE
  5
264
330
5C
100
AcDbEntity
  8
0
  6
Continuous
 62
     7
100
AcDbLine
 10
-989.9250028146056
 20
-1003.250000382273
 30
0.0
 11
-989.9250028146056
 21
-1002.750000382273
 31
0.0
  0
LINE
  5
265
330
5C
100
AcDbEntity
  8
0
  6
Continuous
 62
     7
100
AcDbLine
 10
-989.9250028146056
 20
-1002.750000382273
 30
0.0
 11
-994.9250028146056
 21
-1002.750000382273
 31
0.0
  0
LINE
  5
266
330
5C
100
AcDbEntity
  8
0
  6
Continuous
 62
     7
100
AcDbLine
 10
-994.9250028146056
 20
-1001.171215189727
 30
0.0
 11
-994.9250028146056
 21
-1001.806624709299
 31
0.0
  0
LINE
  5
267
330
5C
100
AcDbEntity
  8
0
  6
Continuous
 62
     7
100
AcDbLine
 10
-994.9250028146056
 20
-1002.816987680381
 30
0.0
 11
-994.9250028146056
 21
-1002.750000382273
 31
0.0
  0
LINE
  5
268
330
5C
100
AcDbEntity
  8
0
  6
Continuous
 62
     7
100
AcDbLine
 10
-994.9250028146056
 20
-1002.750000382273
 30
0.0
 11
-994.9250028146056
 21
-1001.806624709299
 31
0.0
  0
LINE
  5
269
330
5C
100
AcDbEntity
  8
0
  6
Continuous
 62
     2
100
AcDbLine
 10
-994.9250028146056
 20
-1002.816987680381
 30
0.0
 11
-996.075002810055
 21
-1002.816987680381
 31
0.0
  0
LINE
  5
26A
330
5C
100
AcDbEntity
  8
0
  6
Continuous
 62
     7
100
AcDbLine
 10
-989.9250028146056
 20
-1001.171215189727
 30
0.0
 11
-989.9250028146056
 21
-1002.750000382273
 31
0.0
  0
LINE
  5
26B
330
5C
100
AcDbEntity
  8
0
  6
Continuous
 62
     7
100
AcDbLine
 10
-994.9250028146056
 20
-1001.171215189727
 30
0.0
 11
-996.075002810055
 21
-1001.171215189727
 31
0.0
  0
LINE
  5
26C
330
5C
100
AcDbEntity
  8
0
  6
Continuous
 62
     7
100
AcDbLine
 10
-989.9250028146056
 20
-1001.171215189727
 30
0.0
 11
-994.9250028146056
 21
-1001.171215189727
 31
0.0
  0
LINE
  5
26D
330
5C
100
AcDbEntity
  8
0
  6
Continuous
 62
     7
100
AcDbLine
 10
-989.9250028146056
 20
-1000.940599305515
 30
0.0
 11
-989.9250028146056
 21
-997.6500003822736
 31
0.0
  0
LINE
  5
26E
330
5C
100
AcDbEntity
  8
0
  6
Continuous
 62
     7
100
AcDbLine
 10
-989.9250028146056
 20
-1001.171215189727
 30
0.0
 11
-989.9250028146056
 21
-1000.940599305515
 31
0.0
  0
LINE
  5
26F
330
5C
100
AcDbEntity
  8
0
  6
Continuous
 62
     2
100
AcDbLine
 10
-989.9250028146056
 20
-997.6500003822736
 30
0.0
 11
-996.075002810055
 21
-997.6500003822736
 31
0.0
  0
LINE
  5
270
330
5C
100
AcDbEntity
  8
0
  6
Continuous
 62
     7
100
AcDbLine
 10
-989.9250028146056
 20
-1000.940599305515
 30
0.0
 11
-996.075002810055
 21
-1000.940599305515
 31
0.0
  0
LINE
  5
271
330
5C
100
AcDbEntity
  8
0
  6
Continuous
 62
     7
100
AcDbLine
 10
-996.075002810055
 20
-1005.750000382275
 30
0.0
 11
-989.9250028146056
 21
-1005.750000382275
 31
0.0
  0
LINE
  5
272
330
5C
100
AcDbEntity
  8
0
  6
Continuous
 62
     7
100
AcDbLine
 10
-996.075002810055
 20
-1003.250000382273
 30
0.0
 11
-996.075002810055
 21
-1002.816987680381
 31
0.0
  0
LINE
  5
273
330
5C
100
AcDbEntity
  8
0
  6
Continuous
 62
     7
100
AcDbLine
 10
-996.075002810055
 20
-1005.750000382275
 30
0.0
 11
-996.075002810055
 21
-1003.250000382273
 31
0.0
  0
LINE
  5
274
330
5C
100
AcDbEntity
  8
0
  6
Continuous
 62
     7
100
AcDbLine
 10
-996.075002810055
 20
-1001.806624709299
 30
0.0
 11
-996.075002810055
 21
-1002.816987680381
 31
0.0
  0
LINE
  5
275
330
5C
100
AcDbEntity
  8
0
  6
Continuous
 62
     7
100
AcDbLine
 10
-996.075002810055
 20
-1001.171215189727
 30
0.0
 11
-996.075002810055
 21
-1001.806624709299
 31
0.0
  0
LINE
  5
276
330
5C
100
AcDbEntity
  8
0
  6
Continuous
 62
     7
100
AcDbLine
 10
-996.075002810055
 20
-1000.940599305515
 30
0.0
 11
-996.075002810055
 21
-997.6500003822736
 31
0.0
  0
LINE
  5
277
330
5C
100
AcDbEntity
  8
0
  6
Continuous
 62
     7
100
AcDbLine
 10
-996.075002810055
 20
-1001.171215189727
 30
0.0
 11
-996.075002810055
 21
-1000.940599305515
 31
0.0
  0
LINE
  5
278
330
5C
100
AcDbEntity
  8
0
  6
Continuous
 62
     7
100
AcDbLine
 10
-996.075002810055
 20
-963.9588392170386
 30
0.0
 11
-996.075002810055
 21
-963.575515547025
 31
0.0
  0
LINE
  5
279
330
5C
100
AcDbEntity
  8
0
  6
Continuous
 62
     7
100
AcDbLine
 10
-996.075002810055
 20
-961.4329446350574
 30
0.0
 11
-996.075002810055
 21
-959.8500003822754
 31
0.0
  0
LINE
  5
27A
330
5C
100
AcDbEntity
  8
0
  6
Continuous
 62
     7
100
AcDbLine
 10
-996.075002810055
 20
-966.4670561295014
 30
0.0
 11
-996.075002810055
 21
-963.9588392170386
 31
0.0
  0
LINE
  5
27B
330
5C
100
AcDbEntity
  8
0
  6
Continuous
 62
     7
100
AcDbLine
 10
-995.010002814605
 20
-959.8500003822751
 30
0.0
 11
-995.0100028146048
 21
-958.2500003718978
 31
0.0
  0
LINE
  5
27C
330
5C
100
AcDbEntity
  8
0
  6
Continuous
 62
     7
100
AcDbLine
 10
-995.3500028146055
 20
-985.0094165382068
 30
0.0
 11
-994.3117557943598
 21
-983.8500003822816
 31
0.0
  0
ENDBLK
  5
5E
330
5C
100
AcDbEntity
  8
0
100
AcDbBlockEnd
  0
BLOCK
  5
61
330
5F
100
AcDbEntity
  8
0
100
AcDbBlockBegin
  2
SA_Links1
 70
     0
 10
-993.00000052585
 20
-981.9999999993449
 30
0.0
  3
SA_Links1
  1

  0
INSERT
  5
60
330
5F
100
AcDbEntity
  8
0
100
AcDbBlockReference
  2
UK_5_N-MT-select__4
 10
-996.075002810055
 20
-1005.750000382275
 30
0.0
  0
MTEXT
  5
27D
330
5F
100
AcDbEntity
  8
1
 62
     6
100
AcDbMText
 10
-993.00000052585
 20
-1010.749999999346
 30
0.0
 40
5.0
 41
0.0
 71
     2
 72
     1
  1
 
  7
CONVERTER_11
 73
     1
 44
1.32052821128451
  0
ENDBLK
  5
62
330
5F
100
AcDbEntity
  8
0
100
AcDbBlockEnd
  0
BLOCK
  5
64
330
63
100
AcDbEntity
  8
0
100
AcDbBlockBegin
  2
UK_5_N-MT-select__5
 70
     0
 10
-1129.750000237024
 20
-1003.750000382274
 30
0.0
  3
UK_5_N-MT-select__5
  1

  0
LINE
  5
27E
330
63
100
AcDbEntity
  8
0
  6
Continuous
 62
     7
100
AcDbLine
 10
-1129.535000237025
 20
-956.2500003718981
 30
0.0
 11
-1129.535000237025
 21
-957.850000382275
 31
0.0
  0
LINE
  5
27F
330
63
100
AcDbEntity
  8
0
  6
Continuous
 62
     7
100
AcDbLine
 10
-1129.535000237025
 20
-957.850000382275
 30
0.0
 11
-1129.750000237024
 21
-957.8500003822744
 31
0.0
  0
LINE
  5
280
330
63
100
AcDbEntity
  8
0
  6
Continuous
 62
     7
100
AcDbLine
 10
-1123.600000241575
 20
-957.8500003822744
 30
0.0
 11
-1124.665000237025
 21
-957.850000382275
 31
0.0
  0
LINE
  5
281
330
63
100
AcDbEntity
  8
0
  6
Continuous
 62
     7
100
AcDbLine
 10
-1129.750000237024
 20
-961.575515547025
 30
0.0
 11
-1129.750000237024
 21
-959.4329446350495
 31
0.0
  0
LINE
  5
282
330
63
100
AcDbEntity
  8
0
  6
Continuous
 62
     7
100
AcDbLine
 10
-1129.750000237024
 20
-966.0000003822759
 30
0.0
 11
-1129.750000237024
 21
-964.4670561295014
 31
0.0
  0
LINE
  5
283
330
63
100
AcDbEntity
  8
0
  6
Continuous
 62
     7
100
AcDbLine
 10
-1129.750000237024
 20
-967.7418588109799
 30
0.0
 11
-1129.750000237024
 21
-966.0000003822759
 31
0.0
  0
LINE
  5
284
330
63
100
AcDbEntity
  8
0
  6
Continuous
 62
     7
100
AcDbLine
 10
-1129.750000237024
 20
-968.0500003822755
 30
0.0
 11
-1129.750000237024
 21
-967.7418588109799
 31
0.0
  0
LINE
  5
285
330
63
100
AcDbEntity
  8
0
  6
Continuous
 62
     7
100
AcDbLine
 10
-1124.325000237024
 20
-976.2844304696824
 30
0.0
 11
-1124.325000237024
 21
-971.687512037933
 31
0.0
  0
LINE
  5
286
330
63
100
AcDbEntity
  8
0
  6
Continuous
 62
     7
100
AcDbLine
 10
-1129.125000241575
 20
-971.687512037933
 30
0.0
 11
-1129.125000241575
 21
-976.4162325306878
 31
0.0
  0
LINE
  5
287
330
63
100
AcDbEntity
  8
0
  6
Continuous
 62
     7
100
AcDbLine
 10
-1128.863849620911
 20
-977.14806138134
 30
0.0
 11
-1128.750000241575
 21
-977.1480613813351
 31
0.0
  0
LINE
  5
288
330
63
100
AcDbEntity
  8
0
  6
Continuous
 62
     7
100
AcDbLine
 10
-1128.750000241575
 20
-977.1480613813351
 30
0.0
 11
-1125.450000241575
 21
-977.1480613813353
 31
0.0
  0
LINE
  5
289
330
63
100
AcDbEntity
  8
0
  6
Continuous
 62
     7
100
AcDbLine
 10
-1125.450000241575
 20
-977.1480613813353
 30
0.0
 11
-1125.15619155899
 21
-977.1480613813399
 31
0.0
  0
LINE
  5
28A
330
63
100
AcDbEntity
  8
0
  6
Continuous
 62
     7
100
AcDbLine
 10
-1125.15619155899
 20
-977.1480613813399
 30
0.0
 11
-1124.325000237024
 21
-976.2844304696824
 31
0.0
  0
LINE
  5
28B
330
63
100
AcDbEntity
  8
0
  6
Continuous
 62
     7
100
AcDbLine
 10
-1129.125000241575
 20
-976.4162325306878
 30
0.0
 11
-1128.863849620911
 21
-977.14806138134
 31
0.0
  0
LINE
  5
28C
330
63
100
AcDbEntity
  8
0
  6
Continuous
 62
     7
100
AcDbLine
 10
-1129.125000241575
 20
-971.687512037933
 30
0.0
 11
-1124.325000237024
 21
-971.687512037933
 31
0.0
  0
LINE
  5
28D
330
63
100
AcDbEntity
  8
0
  6
Continuous
 62
     7
100
AcDbLine
 10
-1129.750000237024
 20
-971.6873070781114
 30
0.0
 11
-1123.600000241575
 21
-971.6873070781119
 31
0.0
  0
LINE
  5
28E
330
63
100
AcDbEntity
  8
0
  6
Continuous
 62
     7
100
AcDbLine
 10
-1129.750000237024
 20
-968.0500003822755
 30
0.0
 11
-1123.600000241575
 21
-968.0500003822755
 31
0.0
  0
LINE
  5
28F
330
63
100
AcDbEntity
  8
0
  6
Continuous
 62
     7
100
AcDbLine
 10
-1123.600000241575
 20
-967.7418588109799
 30
0.0
 11
-1129.750000237024
 21
-967.7418588109799
 31
0.0
  0
LINE
  5
290
330
63
100
AcDbEntity
  8
0
  6
Continuous
 62
     7
100
AcDbLine
 10
-1123.600000241575
 20
-966.0000003822759
 30
0.0
 11
-1129.750000237024
 21
-966.0000003822759
 31
0.0
  0
LINE
  5
291
330
63
100
AcDbEntity
  8
0
  6
Continuous
 62
     7
100
AcDbLine
 10
-1123.600000241575
 20
-964.4670561295014
 30
0.0
 11
-1129.750000237024
 21
-964.4670561295014
 31
0.0
  0
LINE
  5
292
330
63
100
AcDbEntity
  8
0
  6
Continuous
 62
     7
100
AcDbLine
 10
-1129.750000237024
 20
-961.95883921704
 30
0.0
 11
-1123.600000241575
 21
-961.95883921704
 31
0.0
  0
LINE
  5
293
330
63
100
AcDbEntity
  8
0
  6
Continuous
 62
     7
100
AcDbLine
 10
-1123.600000241575
 20
-961.575515547025
 30
0.0
 11
-1129.750000237024
 21
-961.575515547025
 31
0.0
  0
LINE
  5
294
330
63
100
AcDbEntity
  8
0
  6
Continuous
 62
     7
100
AcDbLine
 10
-1123.600000241575
 20
-959.4329446350495
 30
0.0
 11
-1129.750000237024
 21
-959.4329446350495
 31
0.0
  0
LINE
  5
295
330
63
100
AcDbEntity
  8
0
  6
Continuous
 62
     7
100
AcDbLine
 10
-1124.665000237025
 20
-957.850000382275
 30
0.0
 11
-1129.535000237025
 21
-957.850000382275
 31
0.0
  0
LINE
  5
296
330
63
100
AcDbEntity
  8
0
  6
Continuous
 62
     7
100
AcDbLine
 10
-1129.535000237025
 20
-956.2500003718981
 30
0.0
 11
-1124.665000237025
 21
-956.2500003718981
 31
0.0
  0
LINE
  5
297
330
63
100
AcDbEntity
  8
0
  6
Continuous
 62
     7
100
AcDbLine
 10
-1123.600000241575
 20
-989.6500003822756
 30
0.0
 11
-1123.600000241575
 21
-1000.250000382276
 31
0.0
  0
LINE
  5
298
330
63
100
AcDbEntity
  8
0
  6
Continuous
 62
     7
100
AcDbLine
 10
-1123.600000241575
 20
-989.6500003822756
 30
0.0
 11
-1129.750000237024
 21
-989.6500003822756
 31
0.0
  0
LINE
  5
299
330
63
100
AcDbEntity
  8
0
  6
Continuous
 62
     7
100
AcDbLine
 10
-1125.450000241575
 20
-981.8500003822829
 30
0.0
 11
-1125.36324725727
 21
-981.8500003822829
 31
0.0
  0
LINE
  5
29A
330
63
100
AcDbEntity
  8
0
  6
Continuous
 62
     7
100
AcDbLine
 10
-1128.750000241575
 20
-981.8500003822829
 30
0.0
 11
-1125.450000241575
 21
-981.8500003822829
 31
0.0
  0
LINE
  5
29B
330
63
100
AcDbEntity
  8
0
  6
Continuous
 62
     7
100
AcDbLine
 10
-1128.787078850126
 20
-981.8500003822829
 30
0.0
 11
-1128.750000241575
 21
-981.8500003822829
 31
0.0
  0
LINE
  5
29C
330
63
100
AcDbEntity
  8
0
  6
Continuous
 62
     7
100
AcDbLine
 10
-1125.450000241575
 20
-977.1480613813353
 30
0.0
 11
-1125.450000241575
 21
-981.8500003822829
 31
0.0
  0
LINE
  5
29D
330
63
100
AcDbEntity
  8
0
  6
Continuous
 62
     7
100
AcDbLine
 10
-1128.750000241575
 20
-977.1480613813351
 30
0.0
 11
-1128.750000241575
 21
-981.8500003822829
 31
0.0
  0
LINE
  5
29E
330
63
100
AcDbEntity
  8
0
  6
Continuous
 62
     7
100
AcDbLine
 10
-1129.125000241575
 20
-987.9500003822683
 30
0.0
 11
-1124.325000237024
 21
-987.9500003822683
 31
0.0
  0
LINE
  5
29F
330
63
100
AcDbEntity
  8
0
  6
Continuous
 62
     7
100
AcDbLine
 10
-1124.325000237024
 20
-987.9500003822683
 30
0.0
 11
-1123.600000241575
 21
-987.9500003822683
 31
0.0
  0
LINE
  5
2A0
330
63
100
AcDbEntity
  8
0
  6
Continuous
 62
     7
100
AcDbLine
 10
-1123.600000241575
 20
-987.9500003822683
 30
0.0
 11
-1123.600000241575
 21
-989.6500003822756
 31
0.0
  0
LINE
  5
2A1
330
63
100
AcDbEntity
  8
0
  6
Continuous
 62
     7
100
AcDbLine
 10
-1124.325000237024
 20
-987.9500003822683
 30
0.0
 11
-1124.325000237024
 21
-983.0094165382083
 31
0.0
  0
LINE
  5
2A2
330
63
100
AcDbEntity
  8
0
  6
Continuous
 62
     7
100
AcDbLine
 10
-1124.325000237024
 20
-983.0094165382083
 30
0.0
 11
-1124.325000237024
 21
-976.2844304696824
 31
0.0
  0
LINE
  5
2A3
330
63
100
AcDbEntity
  8
0
  6
Continuous
 62
     7
100
AcDbLine
 10
-1124.665000237025
 20
-956.2500003718981
 30
0.0
 11
-1124.665000237025
 21
-957.850000382275
 31
0.0
  0
LINE
  5
2A4
330
63
100
AcDbEntity
  8
0
  6
Continuous
 62
     7
100
AcDbLine
 10
-1129.125000241575
 20
-982.8677609611314
 30
0.0
 11
-1129.125000241575
 21
-987.9500003822683
 31
0.0
  0
LINE
  5
2A5
330
63
100
AcDbEntity
  8
0
  6
Continuous
 62
     7
100
AcDbLine
 10
-1129.750000237024
 20
-987.9500003822683
 30
0.0
 11
-1129.750000237024
 21
-989.6500003822756
 31
0.0
  0
LINE
  5
2A6
330
63
100
AcDbEntity
  8
0
  6
Continuous
 62
     7
100
AcDbLine
 10
-1129.750000237024
 20
-987.9500003822683
 30
0.0
 11
-1129.125000241575
 21
-987.9500003822683
 31
0.0
  0
LINE
  5
2A7
330
63
100
AcDbEntity
  8
0
  6
Continuous
 62
     7
100
AcDbLine
 10
-1129.750000237024
 20
-1000.250000382276
 30
0.0
 11
-1129.750000237024
 21
-989.6500003822756
 31
0.0
  0
LINE
  5
2A8
330
63
100
AcDbEntity
  8
0
  6
Continuous
 62
     7
100
AcDbLine
 10
-1128.787078850126
 20
-981.8500003822829
 30
0.0
 11
-1129.125000241575
 21
-982.8677609611314
 31
0.0
  0
LINE
  5
2A9
330
63
100
AcDbEntity
  8
0
  6
Continuous
 62
     7
100
AcDbLine
 10
-1123.600000241575
 20
-961.575515547025
 30
0.0
 11
-1123.600000241575
 21
-961.95883921704
 31
0.0
  0
LINE
  5
2AA
330
63
100
AcDbEntity
  8
0
  6
Continuous
 62
     7
100
AcDbLine
 10
-1123.600000241575
 20
-959.4329446350495
 30
0.0
 11
-1123.600000241575
 21
-961.575515547025
 31
0.0
  0
LINE
  5
2AB
330
63
100
AcDbEntity
  8
0
  6
Continuous
 62
     7
100
AcDbLine
 10
-1123.600000241575
 20
-964.4670561295014
 30
0.0
 11
-1123.600000241575
 21
-966.0000003822759
 31
0.0
  0
LINE
  5
2AC
330
63
100
AcDbEntity
  8
0
  6
Continuous
 62
     7
100
AcDbLine
 10
-1123.600000241575
 20
-966.0000003822759
 30
0.0
 11
-1123.600000241575
 21
-967.7418588109799
 31
0.0
  0
LINE
  5
2AD
330
63
100
AcDbEntity
  8
0
  6
Continuous
 62
     7
100
AcDbLine
 10
-1123.600000241575
 20
-1000.850000382275
 30
0.0
 11
-1123.600000241575
 21
-1000.350000382275
 31
0.0
  0
LINE
  5
2AE
330
63
100
AcDbEntity
  8
0
  6
Continuous
 62
     7
100
AcDbLine
 10
-1123.600000241575
 20
-1002.475000382275
 30
0.0
 11
-1123.600000241575
 21
-1002.350000382275
 31
0.0
  0
LINE
  5
2AF
330
63
100
AcDbEntity
  8
0
  6
Continuous
 62
     7
100
AcDbLine
 10
-1123.600000241575
 20
-1002.350000382275
 30
0.0
 11
-1123.600000241575
 21
-1000.850000382275
 31
0.0
  0
LINE
  5
2B0
330
63
100
AcDbEntity
  8
0
  6
Continuous
 62
     7
100
AcDbLine
 10
-1123.600000241575
 20
-1003.750000382274
 30
0.0
 11
-1123.600000241575
 21
-1002.475000382275
 31
0.0
  0
LINE
  5
2B1
330
63
100
AcDbEntity
  8
0
  6
Continuous
 62
     7
100
AcDbLine
 10
-1123.600000241575
 20
-971.6873070781119
 30
0.0
 11
-1123.600000241575
 21
-987.9500003822683
 31
0.0
  0
LINE
  5
2B2
330
63
100
AcDbEntity
  8
0
  6
Continuous
 62
     7
100
AcDbLine
 10
-1123.600000241575
 20
-968.0500003822755
 30
0.0
 11
-1123.600000241575
 21
-971.6873070781119
 31
0.0
  0
LINE
  5
2B3
330
63
100
AcDbEntity
  8
0
  6
Continuous
 62
     7
100
AcDbLine
 10
-1123.600000241575
 20
-967.7418588109799
 30
0.0
 11
-1123.600000241575
 21
-968.0500003822755
 31
0.0
  0
LINE
  5
2B4
330
63
100
AcDbEntity
  8
0
  6
Continuous
 62
     7
100
AcDbLine
 10
-1123.600000241575
 20
-961.95883921704
 30
0.0
 11
-1123.600000241575
 21
-964.4670561295014
 31
0.0
  0
LINE
  5
2B5
330
63
100
AcDbEntity
  8
0
  6
Continuous
 62
     7
100
AcDbLine
 10
-1123.600000241575
 20
-957.8500003822744
 30
0.0
 11
-1123.600000241575
 21
-959.4329446350495
 31
0.0
  0
LINE
  5
2B6
330
63
100
AcDbEntity
  8
0
  6
Continuous
 62
     7
100
AcDbLine
 10
-1123.600000241575
 20
-1003.750000382274
 30
0.0
 11
-1129.750000237024
 21
-1003.750000382274
 31
0.0
  0
LINE
  5
2B7
330
63
100
AcDbEntity
  8
0
  6
Continuous
 62
     7
100
AcDbLine
 10
-1129.750000237024
 20
-1002.475000382275
 30
0.0
 11
-1123.600000241575
 21
-1002.475000382275
 31
0.0
  0
LINE
  5
2B8
330
63
100
AcDbEntity
  8
0
  6
Continuous
 62
     7
100
AcDbLine
 10
-1129.750000237024
 20
-1002.350000382275
 30
0.0
 11
-1123.600000241575
 21
-1002.350000382275
 31
0.0
  0
LINE
  5
2B9
330
63
100
AcDbEntity
  8
0
  6
Continuous
 62
     7
100
AcDbLine
 10
-1129.750000237024
 20
-1000.850000382275
 30
0.0
 11
-1129.750000237024
 21
-1000.350000382275
 31
0.0
  0
LINE
  5
2BA
330
63
100
AcDbEntity
  8
0
  6
Continuous
 62
     7
100
AcDbLine
 10
-1129.750000237024
 20
-1000.350000382275
 30
0.0
 11
-1129.750000237024
 21
-1000.250000382276
 31
0.0
  0
LINE
  5
2BB
330
63
100
AcDbEntity
  8
0
  6
Continuous
 62
     7
100
AcDbLine
 10
-1123.600000241575
 20
-1000.350000382275
 30
0.0
 11
-1123.600000241575
 21
-1000.250000382276
 31
0.0
  0
LINE
  5
2BC
330
63
100
AcDbEntity
  8
0
  6
Continuous
 62
     7
100
AcDbLine
 10
-1123.600000241575
 20
-1000.250000382276
 30
0.0
 11
-1129.750000237024
 21
-1000.250000382276
 31
0.0
  0
LINE
  5
2BD
330
63
100
AcDbEntity
  8
0
  6
Continuous
 62
     7
100
AcDbLine
 10
-1129.750000237024
 20
-1000.350000382275
 30
0.0
 11
-1123.600000241575
 21
-1000.350000382275
 31
0.0
  0
LINE
  5
2BE
330
63
100
AcDbEntity
  8
0
  6
Continuous
 62
     7
100
AcDbLine
 10
-1129.750000237024
 20
-1000.850000382275
 30
0.0
 11
-1123.600000241575
 21
-1000.850000382275
 31
0.0
  0
LINE
  5
2BF
330
63
100
AcDbEntity
  8
0
  6
Continuous
 62
     7
100
AcDbLine
 10
-1129.750000237024
 20
-961.95883921704
 30
0.0
 11
-1129.750000237024
 21
-961.575515547025
 31
0.0
  0
LINE
  5
2C0
330
63
100
AcDbEntity
  8
0
  6
Continuous
 62
     7
100
AcDbLine
 10
-1129.750000237024
 20
-1002.475000382275
 30
0.0
 11
-1129.750000237024
 21
-1002.350000382275
 31
0.0
  0
LINE
  5
2C1
330
63
100
AcDbEntity
  8
0
  6
Continuous
 62
     7
100
AcDbLine
 10
-1129.750000237024
 20
-1002.350000382275
 30
0.0
 11
-1129.750000237024
 21
-1000.850000382275
 31
0.0
  0
LINE
  5
2C2
330
63
100
AcDbEntity
  8
0
  6
Continuous
 62
     7
100
AcDbLine
 10
-1129.750000237024
 20
-1003.750000382274
 30
0.0
 11
-1129.750000237024
 21
-1002.475000382275
 31
0.0
  0
LINE
  5
2C3
330
63
100
AcDbEntity
  8
0
  6
Continuous
 62
     7
100
AcDbLine
 10
-1129.750000237024
 20
-987.9500003822683
 30
0.0
 11
-1129.750000237024
 21
-971.6873070781114
 31
0.0
  0
LINE
  5
2C4
330
63
100
AcDbEntity
  8
0
  6
Continuous
 62
     7
100
AcDbLine
 10
-1129.125000241575
 20
-976.4162325306878
 30
0.0
 11
-1129.125000241575
 21
-982.8677609611314
 31
0.0
  0
LINE
  5
2C5
330
63
100
AcDbEntity
  8
0
  6
Continuous
 62
     7
100
AcDbLine
 10
-1129.750000237024
 20
-968.0500003822755
 30
0.0
 11
-1129.750000237024
 21
-971.6873070781114
 31
0.0
  0
LINE
  5
2C6
330
63
100
AcDbEntity
  8
0
  6
Continuous
 62
     7
100
AcDbLine
 10
-1129.750000237024
 20
-961.95883921704
 30
0.0
 11
-1129.750000237024
 21
-964.4670561295014
 31
0.0
  0
LINE
  5
2C7
330
63
100
AcDbEntity
  8
0
  6
Continuous
 62
     7
100
AcDbLine
 10
-1129.750000237024
 20
-959.4329446350495
 30
0.0
 11
-1129.750000237024
 21
-957.8500003822744
 31
0.0
  0
LINE
  5
2C8
330
63
100
AcDbEntity
  8
0
  6
Continuous
 62
     7
100
AcDbLine
 10
-1124.325000237024
 20
-983.0094165382083
 30
0.0
 11
-1125.36324725727
 21
-981.8500003822829
 31
0.0
  0
ENDBLK
  5
65
330
63
100
AcDbEntity
  8
0
100
AcDbBlockEnd
  0
BLOCK
  5
68
330
66
100
AcDbEntity
  8
0
100
AcDbBlockBegin
  2
SA_Rechts1
 70
     0
 10
-1126.67500252578
 20
-979.9999999993449
 30
0.0
  3
SA_Rechts1
  1

  0
INSERT
  5
67
330
66
100
AcDbEntity
  8
0
100
AcDbBlockReference
  2
UK_5_N-MT-select__5
 10
-1129.750000237024
 20
-1003.750000382274
 30
0.0
  0
MTEXT
  5
2C9
330
66
100
AcDbEntity
  8
1
 62
     6
100
AcDbMText
 10
-1126.67500252578
 20
-1008.749999999346
 30
0.0
 40
5.0
 41
0.0
 71
     2
 72
     1
  1
 
  7
CONVERTER_11
 73
     1
 44
1.32052821128451
  0
ENDBLK
  5
69
330
66
100
AcDbEntity
  8
0
100
AcDbBlockEnd
  0
BLOCK
  5
6B
330
6A
100
AcDbEntity
  8
0
100
AcDbBlockBegin
  2
UK_5_N-MT-select__6
 70
     0
 10
-1066.60000238427
 20
-1005.750000382275
 30
0.0
  3
UK_5_N-MT-select__6
  1

  0
LINE
  5
2CA
330
6A
100
AcDbEntity
  8
0
  6
Continuous
 62
     7
100
AcDbLine
 10
-1062.62500238427
 20
-993.2000003822735
 30
0.0
 11
-1062.62500238427
 21
-994.0600003822735
 31
0.0
  0
LINE
  5
2CB
330
6A
100
AcDbEntity
  8
0
  6
Continuous
 62
     7
100
AcDbLine
 10
-1061.50000238427
 20
-1001.050000382273
 30
0.0
 11
-1061.50000238427
 21
-1000.850000382274
 31
0.0
  0
LINE
  5
2CC
330
6A
100
AcDbEntity
  8
0
  6
Continuous
 62
     7
100
AcDbLine
 10
-1061.60000238427
 20
-999.2495884801674
 30
0.0
 11
-1061.60000238427
 21
-998.5500003822737
 31
0.0
  0
LINE
  5
2CD
330
6A
100
AcDbEntity
  8
0
  6
Continuous
 62
     7
100
AcDbLine
 10
-1061.60000238427
 20
-998.5500003822737
 30
0.0
 11
-1061.64868568232
 21
-998.5500003822737
 31
0.0
  0
LINE
  5
2CE
330
6A
100
AcDbEntity
  8
0
  6
Continuous
 62
     7
100
AcDbLine
 10
-1062.516163549503
 20
-968.4312896080432
 30
0.0
 11
-1063.272767805372
 21
-967.6746853521737
 31
0.0
  0
LINE
  5
2CF
330
6A
100
AcDbEntity
  8
0
  6
Continuous
 62
     7
100
AcDbLine
 10
-1063.272767805372
 20
-967.6746853521737
 30
0.0
 11
-1062.899487219518
 21
-967.3014047663193
 31
0.0
  0
LINE
  5
2D0
330
6A
100
AcDbEntity
  8
0
  6
Continuous
 62
     7
100
AcDbLine
 10
-1044.083862252704
 20
-958.2500003718978
 30
0.0
 11
-1044.25202903022
 21
-959.8500003822751
 31
0.0
  0
LINE
  5
2D1
330
6A
100
AcDbEntity
  8
0
  6
Continuous
 62
     7
100
AcDbLine
 10
-1066.575002384268
 20
-968.0000003823596
 30
0.0
 11
-1065.042058131444
 21
-966.4670561295185
 31
0.0
  0
LINE
  5
2D2
330
6A
100
AcDbEntity
  8
0
  6
Continuous
 62
     7
100
AcDbLine
 10
-1064.126957516882
 20
-1001.171215189727
 30
0.0
 11
-1064.126957516883
 21
-1004.700000382274
 31
0.0
  0
LINE
  5
2D3
330
6A
100
AcDbEntity
  8
0
  6
Continuous
 62
     7
100
AcDbLine
 10
-1064.10000238427
 20
-997.6500003822734
 30
0.0
 11
-1064.10000238427
 21
-1000.940599305515
 31
0.0
  0
LINE
  5
2D4
330
6A
100
AcDbEntity
  8
0
  6
Continuous
 62
     7
100
AcDbLine
 10
-1063.74500238427
 20
-995.1800003822734
 30
0.0
 11
-1065.22500238427
 21
-993.7000003822734
 31
0.0
  0
LINE
  5
2D5
330
6A
100
AcDbEntity
  8
0
  6
Continuous
 62
     7
100
AcDbLine
 10
-1065.22500238427
 20
-993.7000003822734
 30
0.0
 11
-1066.57500238427
 21
-993.7000003822733
 31
0.0
  0
LINE
  5
2D6
330
6A
100
AcDbEntity
  8
0
  6
Continuous
 62
     7
100
AcDbLine
 10
-1066.57500238427
 20
-991.6500003822733
 30
0.0
 11
-1066.57500238427
 21
-993.7000003822733
 31
0.0
  0
LINE
  5
2D7
330
6A
100
AcDbEntity
  8
0
  6
Continuous
 62
     7
100
AcDbLine
 10
-1062.899487219518
 20
-967.3014047663193
 30
0.0
 11
-1065.042058131444
 21
-966.4670561295185
 31
0.0
  0
LINE
  5
2D8
330
6A
100
AcDbEntity
  8
0
  6
Continuous
 62
     7
100
AcDbLine
 10
-1063.325002384261
 20
-989.9500003822689
 30
0.0
 11
-1063.325002384307
 21
-973.6873070781093
 31
0.0
  0
LINE
  5
2D9
330
6A
100
AcDbEntity
  8
0
  6
Continuous
 62
     7
100
AcDbLine
 10
-1065.425002384268
 20
-970.0500003822734
 30
0.0
 11
-1066.575002384268
 21
-969.7418588109775
 31
0.0
  0
LINE
  5
2DA
330
6A
100
AcDbEntity
  8
0
  6
Continuous
 62
     7
100
AcDbLine
 10
-1066.575002384268
 20
-969.7418588109775
 30
0.0
 11
-1066.575002384268
 21
-968.0000003823596
 31
0.0
  0
LINE
  5
2DB
330
6A
100
AcDbEntity
  8
0
  6
Continuous
 62
     7
100
AcDbLine
 10
-1066.60000238427
 20
-1003.250000382273
 30
0.0
 11
-1066.60000238427
 21
-1005.750000382273
 31
0.0
  0
LINE
  5
2DC
330
6A
100
AcDbEntity
  8
0
  6
Continuous
 62
     7
100
AcDbLine
 10
-1063.325002384261
 20
-989.9500003822689
 30
0.0
 11
-1066.57500238427
 21
-991.6500003822733
 31
0.0
  0
LINE
  5
2DD
330
6A
100
AcDbEntity
  8
0
  6
Continuous
 62
     7
100
AcDbLine
 10
-1063.325002384307
 20
-973.6873070781093
 30
0.0
 11
-1065.425002384268
 21
-970.0500003822734
 31
0.0
  0
LINE
  5
2DE
330
6A
100
AcDbEntity
  8
0
  6
Continuous
 62
     7
100
AcDbLine
 10
-1060.70000238427
 20
-994.2500003822737
 30
0.0
 11
-1059.52500238427
 21
-994.2500003822737
 31
0.0
  0
LINE
  5
2DF
330
6A
100
AcDbEntity
  8
0
  6
Continuous
 62
     7
100
AcDbLine
 10
-1058.043713158498
 20
-963.9588392170386
 30
0.0
 11
-1058.800317414367
 21
-963.202234961169
 31
0.0
  0
LINE
  5
2E0
330
6A
100
AcDbEntity
  8
0
  6
Continuous
 62
     7
100
AcDbLine
 10
-1059.173598000222
 20
-963.5755155470234
 30
0.0
 11
-1058.800317414367
 21
-963.202234961169
 31
0.0
  0
LINE
  5
2E1
330
6A
100
AcDbEntity
  8
0
  6
Continuous
 62
     7
100
AcDbLine
 10
-1060.007946637037
 20
-961.4329446350573
 30
0.0
 11
-1059.173598000222
 21
-963.5755155470234
 31
0.0
  0
LINE
  5
2E2
330
6A
100
AcDbEntity
  8
0
  6
Continuous
 62
     7
100
AcDbLine
 10
-1032.225002384268
 20
-959.8500003822744
 30
0.0
 11
-1040.802740765946
 21
-959.8500003822749
 31
0.0
  0
LINE
  5
2E3
330
6A
100
AcDbEntity
  8
0
  6
Continuous
 62
     7
100
AcDbLine
 10
-1044.25202903022
 20
-959.8500003822751
 30
0.0
 11
-1058.425002384272
 21
-959.8500003822754
 31
0.0
  0
LINE
  5
2E4
330
6A
100
AcDbEntity
  8
0
  6
Continuous
 62
     7
100
AcDbLine
 10
-1050.77500238427
 20
-995.7500003822743
 30
0.0
 11
-1050.77500238427
 21
-998.1000003822742
 31
0.0
  0
LINE
  5
2E5
330
6A
100
AcDbEntity
  8
0
  6
Continuous
 62
     7
100
AcDbLine
 10
-1062.52500238427
 20
-1000.650000382274
 30
0.0
 11
-1062.62500238427
 21
-999.4500003822736
 31
0.0
  0
LINE
  5
2E6
330
6A
100
AcDbEntity
  8
0
  6
Continuous
 62
     7
100
AcDbLine
 10
-1062.62500238427
 20
-999.4500003822736
 30
0.0
 11
-1061.60000238427
 21
-999.2495884801674
 31
0.0
  0
LINE
  5
2E7
330
6A
100
AcDbEntity
  8
0
  6
Continuous
 62
     7
100
AcDbLine
 10
-1060.70000238427
 20
-996.1500003822737
 30
0.0
 11
-1059.518676549856
 21
-996.1500003822738
 31
0.0
  0
LINE
  5
2E8
330
6A
100
AcDbEntity
  8
0
  6
Continuous
 62
     7
100
AcDbLine
 10
-1052.20000238427
 20
-996.8500003822742
 30
0.0
 11
-1051.870583095535
 21
-995.6205908597229
 31
0.0
  0
LINE
  5
2E9
330
6A
100
AcDbEntity
  8
0
  6
Continuous
 62
     7
100
AcDbLine
 10
-1051.387620182391
 20
-995.2500003822742
 30
0.0
 11
-1051.27500238427
 21
-995.2500003822743
 31
0.0
  0
LINE
  5
2EA
330
6A
100
AcDbEntity
  8
0
  6
Continuous
 62
     7
100
AcDbLine
 10
-1060.007946637037
 20
-961.4329446350573
 30
0.0
 11
-1058.425002384272
 21
-959.8500003822754
 31
0.0
  0
LINE
  5
2EB
330
6A
100
AcDbEntity
  8
0
  6
Continuous
 62
     7
100
AcDbLine
 10
-1028.62500238427
 20
-1001.300000382276
 30
0.0
 11
-1027.67500238427
 21
-1002.250000382276
 31
0.0
  0
LINE
  5
2EC
330
6A
100
AcDbEntity
  8
0
  6
Continuous
 62
     7
100
AcDbLine
 10
-1027.67500238427
 20
-1002.250000382276
 30
0.0
 11
-1024.07500238427
 21
-1002.250000382276
 31
0.0
  0
LINE
  5
2ED
330
6A
100
AcDbEntity
  8
0
  6
Continuous
 62
     7
100
AcDbLine
 10
-1066.60000238427
 20
-1005.750000382273
 30
0.0
 11
-1063.294585984283
 21
-1005.750000382274
 31
0.0
  0
LINE
  5
2EE
330
6A
100
AcDbEntity
  8
0
  6
Continuous
 62
     7
100
AcDbLine
 10
-1035.35000238427
 20
-1005.750000382275
 30
0.0
 11
-1032.40000238427
 21
-1005.750000382275
 31
0.0
  0
LINE
  5
2EF
330
6A
100
AcDbEntity
  8
0
  6
Continuous
 62
     7
100
AcDbLine
 10
-1044.083862252704
 20
-958.2500003718978
 30
0.0
 11
-1040.662758903397
 21
-958.250000371898
 31
0.0
  0
LINE
  5
2F0
330
6A
100
AcDbEntity
  8
0
  6
Continuous
 62
     7
100
AcDbLine
 10
-1061.50000238427
 20
-1000.850000382274
 30
0.0
 11
-1062.52500238427
 21
-1000.650000382274
 31
0.0
  0
LINE
  5
2F1
330
6A
100
AcDbEntity
  8
0
  6
Continuous
 62
     7
100
AcDbLine
 10
-1058.226680794243
 20
-996.6233219723008
 30
0.0
 11
-1058.00000238427
 21
-996.8500003822738
 31
0.0
  0
LINE
  5
2F2
330
6A
100
AcDbEntity
  8
0
  6
Continuous
 62
     7
100
AcDbLine
 10
-1058.00000238427
 20
-996.8500003822738
 30
0.0
 11
-1052.20000238427
 21
-996.8500003822742
 31
0.0
  0
LINE
  5
2F3
330
6A
100
AcDbEntity
  8
0
  6
Continuous
 62
     7
100
AcDbLine
 10
-1040.802740765946
 20
-959.8500003822749
 30
0.0
 11
-1044.25202903022
 21
-959.8500003822751
 31
0.0
  0
LINE
  5
2F4
330
6A
100
AcDbEntity
  8
0
  6
Continuous
 62
     7
100
AcDbLine
 10
-1066.10000238427
 20
-1002.750000382273
 30
0.0
 11
-1065.85000238427
 21
-1002.750000382273
 31
0.0
  0
LINE
  5
2F5
330
6A
100
AcDbEntity
  8
0
  6
Continuous
 62
     7
100
AcDbLine
 10
-1059.52500238427
 20
-993.2000003822737
 30
0.0
 11
-1062.62500238427
 21
-993.2000003822735
 31
0.0
  0
LINE
  5
2F6
330
6A
100
AcDbEntity
  8
0
  6
Continuous
 62
     7
100
AcDbLine
 10
-1065.55000238427
 20
-1004.700000382273
 30
0.0
 11
-1064.126957516883
 21
-1004.700000382274
 31
0.0
  0
LINE
  5
2F7
330
6A
100
AcDbEntity
  8
0
  6
Continuous
 62
     7
100
AcDbLine
 10
-1065.55000238427
 20
-1003.650000382273
 30
0.0
 11
-1065.55000238427
 21
-1004.700000382273
 31
0.0
  0
LINE
  5
2F8
330
6A
100
AcDbEntity
  8
0
  6
Continuous
 62
     7
100
AcDbLine
 10
-1062.62500238427
 20
-994.0600003822735
 30
0.0
 11
-1063.74500238427
 21
-995.1800003822734
 31
0.0
  0
LINE
  5
2F9
330
6A
100
AcDbEntity
  8
0
  6
Continuous
 62
     7
100
AcDbLine
 10
-1064.10000238427
 20
-1000.940599305515
 30
0.0
 11
-1064.126957516882
 21
-1001.171215189727
 31
0.0
  0
LINE
  5
2FA
330
6A
100
AcDbEntity
  8
0
  6
Continuous
 62
     7
100
AcDbLine
 10
-1066.35000238427
 20
-1002.816987680381
 30
0.0
 11
-1064.60000238427
 21
-1001.806624709299
 31
0.0
  0
LINE
  5
2FB
330
6A
100
AcDbEntity
  8
0
  6
Continuous
 62
     7
100
AcDbLine
 10
-1030.642058131493
 20
-961.4329446350495
 30
0.0
 11
-1032.225002384268
 21
-959.8500003822744
 31
0.0
  0
LINE
  5
2FC
330
6A
100
AcDbEntity
  8
0
  6
Continuous
 62
     7
100
AcDbLine
 10
-1031.849687354167
 20
-963.2022349611705
 30
0.0
 11
-1031.476406768313
 21
-963.575515547025
 31
0.0
  0
LINE
  5
2FD
330
6A
100
AcDbEntity
  8
0
  6
Continuous
 62
     7
100
AcDbLine
 10
-1028.133841219033
 20
-968.4312896080453
 30
0.0
 11
-1027.377236963163
 21
-967.6746853521756
 31
0.0
  0
LINE
  5
2FE
330
6A
100
AcDbEntity
  8
0
  6
Continuous
 62
     7
100
AcDbLine
 10
-1027.750517549017
 20
-967.3014047663212
 30
0.0
 11
-1027.377236963163
 21
-967.6746853521756
 31
0.0
  0
LINE
  5
2FF
330
6A
100
AcDbEntity
  8
0
  6
Continuous
 62
     7
100
AcDbLine
 10
-1025.607946637041
 20
-966.4670561295014
 30
0.0
 11
-1027.750517549017
 21
-967.3014047663212
 31
0.0
  0
LINE
  5
300
330
6A
100
AcDbEntity
  8
0
  6
Continuous
 62
     7
100
AcDbLine
 10
-1024.075002384268
 20
-969.7418588109799
 30
0.0
 11
-1024.075002384268
 21
-968.0000003822759
 31
0.0
  0
LINE
  5
301
330
6A
100
AcDbEntity
  8
0
  6
Continuous
 62
     7
100
AcDbLine
 10
-1027.325002384283
 20
-989.9500003822682
 30
0.0
 11
-1027.325002384235
 21
-973.6873070781114
 31
0.0
  0
LINE
  5
302
330
6A
100
AcDbEntity
  8
0
  6
Continuous
 62
     7
100
AcDbLine
 10
-1028.62500238427
 20
-1000.850000382275
 30
0.0
 11
-1028.62500238427
 21
-1001.300000382276
 31
0.0
  0
LINE
  5
303
330
6A
100
AcDbEntity
  8
0
  6
Continuous
 62
     7
100
AcDbLine
 10
-1031.90000238427
 20
-999.450000382275
 30
0.0
 11
-1027.82500238427
 21
-999.4500003822754
 31
0.0
  0
LINE
  5
304
330
6A
100
AcDbEntity
  8
0
  6
Continuous
 62
     7
100
AcDbLine
 10
-1027.82500238427
 20
-999.4500003822754
 30
0.0
 11
-1027.82500238427
 21
-1000.650000382276
 31
0.0
  0
LINE
  5
305
330
6A
100
AcDbEntity
  8
0
  6
Continuous
 62
     7
100
AcDbLine
 10
-1033.42500238427
 20
-995.2500003822752
 30
0.0
 11
-1032.92500238427
 21
-995.2500003822753
 31
0.0
  0
LINE
  5
306
330
6A
100
AcDbEntity
  8
0
  6
Continuous
 62
     7
100
AcDbLine
 10
-1033.92500238427
 20
-996.8243824652892
 30
0.0
 11
-1033.92500238427
 21
-995.7500003822752
 31
0.0
  0
LINE
  5
307
330
6A
100
AcDbEntity
  8
0
  6
Continuous
 62
     7
100
AcDbLine
 10
-1033.55000238427
 20
-1002.850000382275
 30
0.0
 11
-1032.70000238427
 21
-1002.850000382275
 31
0.0
  0
LINE
  5
308
330
6A
100
AcDbEntity
  8
0
  6
Continuous
 62
     7
100
AcDbLine
 10
-1032.40000238427
 20
-1005.750000382275
 30
0.0
 11
-1032.40000238427
 21
-1004.475000382275
 31
0.0
  0
LINE
  5
309
330
6A
100
AcDbEntity
  8
0
  6
Continuous
 62
     7
100
AcDbLine
 10
-1035.99000238427
 20
-1004.100000382275
 30
0.0
 11
-1035.35000238427
 21
-1004.100000382275
 31
0.0
  0
LINE
  5
30A
330
6A
100
AcDbEntity
  8
0
  6
Continuous
 62
     7
100
AcDbLine
 10
-1035.35000238427
 20
-1004.100000382275
 30
0.0
 11
-1035.35000238427
 21
-1005.750000382275
 31
0.0
  0
LINE
  5
30B
330
6A
100
AcDbEntity
  8
0
  6
Continuous
 62
     7
100
AcDbLine
 10
-1032.40000238427
 20
-1004.475000382275
 30
0.0
 11
-1033.55000238427
 21
-1004.350000382275
 31
0.0
  0
LINE
  5
30C
330
6A
100
AcDbEntity
  8
0
  6
Continuous
 62
     7
100
AcDbLine
 10
-1033.55000238427
 20
-1004.350000382275
 30
0.0
 11
-1033.55000238427
 21
-1002.850000382275
 31
0.0
  0
LINE
  5
30D
330
6A
100
AcDbEntity
  8
0
  6
Continuous
 62
     7
100
AcDbLine
 10
-1032.70000238427
 20
-1002.850000382275
 30
0.0
 11
-1032.70000238427
 21
-1002.350000382275
 31
0.0
  0
LINE
  5
30E
330
6A
100
AcDbEntity
  8
0
  6
Continuous
 62
     7
100
AcDbLine
 10
-1032.70000238427
 20
-1002.350000382275
 30
0.0
 11
-1033.92500238427
 21
-996.8243824652892
 31
0.0
  0
LINE
  5
30F
330
6A
100
AcDbEntity
  8
0
  6
Continuous
 62
     7
100
AcDbLine
 10
-1032.42500238427
 20
-995.7500003822753
 30
0.0
 11
-1032.42500238427
 21
-997.0818784178525
 31
0.0
  0
LINE
  5
310
330
6A
100
AcDbEntity
  8
0
  6
Continuous
 62
     7
100
AcDbLine
 10
-1032.42500238427
 20
-997.0818784178525
 30
0.0
 11
-1031.90000238427
 21
-999.450000382275
 31
0.0
  0
LINE
  5
311
330
6A
100
AcDbEntity
  8
0
  6
Continuous
 62
     7
100
AcDbLine
 10
-1027.82500238427
 20
-1000.650000382276
 30
0.0
 11
-1028.62500238427
 21
-1000.850000382275
 31
0.0
  0
LINE
  5
312
330
6A
100
AcDbEntity
  8
0
  6
Continuous
 62
     7
100
AcDbLine
 10
-1024.07500238427
 20
-1002.250000382276
 30
0.0
 11
-1024.07500238427
 21
-991.6500003822756
 31
0.0
  0
LINE
  5
313
330
6A
100
AcDbEntity
  8
0
  6
Continuous
 62
     7
100
AcDbLine
 10
-1027.325002384283
 20
-989.9500003822682
 30
0.0
 11
-1024.07500238427
 21
-991.6500003822756
 31
0.0
  0
LINE
  5
314
330
6A
100
AcDbEntity
  8
0
  6
Continuous
 62
     7
100
AcDbLine
 10
-1025.225002384268
 20
-970.0500003822755
 30
0.0
 11
-1027.325002384235
 21
-973.6873070781114
 31
0.0
  0
LINE
  5
315
330
6A
100
AcDbEntity
  8
0
  6
Continuous
 62
     7
100
AcDbLine
 10
-1025.225002384268
 20
-970.0500003822755
 30
0.0
 11
-1024.075002384268
 21
-969.7418588109799
 31
0.0
  0
LINE
  5
316
330
6A
100
AcDbEntity
  8
0
  6
Continuous
 62
     7
100
AcDbLine
 10
-1024.075002384268
 20
-968.0000003822759
 30
0.0
 11
-1025.607946637041
 21
-966.4670561295014
 31
0.0
  0
LINE
  5
317
330
6A
100
AcDbEntity
  8
0
  6
Continuous
 62
     7
100
AcDbLine
 10
-1032.606291610037
 20
-963.9588392170399
 30
0.0
 11
-1031.849687354167
 21
-963.2022349611705
 31
0.0
  0
LINE
  5
318
330
6A
100
AcDbEntity
  8
0
  6
Continuous
 62
     7
100
AcDbLine
 10
-1031.476406768313
 20
-963.575515547025
 30
0.0
 11
-1030.642058131493
 21
-961.4329446350495
 31
0.0
  0
LINE
  5
319
330
6A
100
AcDbEntity
  8
0
  6
Continuous
 62
     7
100
AcDbLine
 10
-1032.606291610037
 20
-963.9588392170399
 30
0.0
 11
-1028.133841219033
 21
-968.4312896080453
 31
0.0
  0
LINE
  5
31A
330
6A
100
AcDbEntity
  8
0
  6
Continuous
 62
     7
100
AcDbLine
 10
-1040.662758903397
 20
-958.250000371898
 30
0.0
 11
-1040.802740765946
 21
-959.8500003822749
 31
0.0
  0
LINE
  5
31B
330
6A
100
AcDbEntity
  8
0
  6
Continuous
 62
     7
100
AcDbLine
 10
-1062.516163549503
 20
-968.4312896080432
 30
0.0
 11
-1058.043713158498
 21
-963.9588392170386
 31
0.0
  0
ARC
  5
31C
330
6A
100
AcDbEntity
  8
0
  6
Continuous
 62
     7
100
AcDbCircle
 10
-1061.64868568232
 20
-997.8000003822737
 30
0.0
 40
0.7500000000000477
100
AcDbArc
 50
176.983038690176
 51
270.0
  0
ARC
  5
31D
330
6A
100
AcDbEntity
  8
0
  6
Continuous
 62
     7
100
AcDbCircle
 10
-1060.70000238427
 20
-997.8500003822737
 30
0.0
 40
1.700000000000045
100
AcDbArc
 50
90.0
 51
176.9830386901775
  0
ARC
  5
31E
330
6A
100
AcDbEntity
  8
0
  6
Continuous
 62
     7
100
AcDbCircle
 10
-1059.52500238427
 20
-993.7250003822737
 30
0.0
 40
0.5249999999999773
100
AcDbArc
 50
270.0
 51
90.0
  0
ARC
  5
31F
330
6A
100
AcDbEntity
  8
0
  6
Continuous
 62
     7
100
AcDbCircle
 10
-1051.27500238427
 20
-995.7500003822743
 30
0.0
 40
0.5
100
AcDbArc
 50
0.0
 51
90.0
  0
ARC
  5
320
330
6A
100
AcDbEntity
  8
0
  6
Continuous
 62
     7
100
AcDbCircle
 10
-1051.07500238427
 20
-998.1000003822742
 30
0.0
 40
0.3000000000000682
100
AcDbArc
 50
270.0
 51
0.0
  0
ARC
  5
321
330
6A
100
AcDbEntity
  8
0
  6
Continuous
 62
     7
100
AcDbCircle
 10
-1059.518676549856
 20
-998.1500003822738
 30
0.0
 40
1.999999999999924
100
AcDbArc
 50
49.75946578941475
 51
90.0
  0
ARC
  5
322
330
6A
100
AcDbEntity
  8
0
  6
Continuous
 62
     7
100
AcDbCircle
 10
-1051.387620182391
 20
-995.7500003822743
 30
0.0
 40
0.5000000000001137
100
AcDbArc
 50
90.0
 51
164.9999999999795
  0
ARC
  5
323
330
6A
100
AcDbEntity
  8
0
  6
Continuous
 62
     7
100
AcDbCircle
 10
-1051.07500238427
 20
-999.1000003822742
 30
0.0
 40
0.6999999999999318
100
AcDbArc
 50
90.0
 51
182.4150421413331
  0
ARC
  5
324
330
6A
100
AcDbEntity
  8
0
  6
Continuous
 62
     7
100
AcDbCircle
 10
-1065.85000238427
 20
-1003.250000382273
 30
0.0
 40
0.4999999999999545
100
AcDbArc
 50
306.8698976458414
 51
90.0
  0
ARC
  5
325
330
6A
100
AcDbEntity
  8
0
  6
Continuous
 62
     7
100
AcDbCircle
 10
-1046.000002384271
 20
-1015.750000382275
 30
0.0
 40
16.20000000000051
100
AcDbArc
 50
77.6647678207139
 51
100.7064869688747
  0
ARC
  5
326
330
6A
100
AcDbEntity
  8
0
  6
Continuous
 62
     7
100
AcDbCircle
 10
-1048.427356109376
 20
-998.9883347965208
 30
0.0
 40
3.350000000000723
100
AcDbArc
 50
182.4150421413284
 51
228.6834170699527
  0
ARC
  5
327
330
6A
100
AcDbEntity
  8
0
  6
Continuous
 62
     7
100
AcDbCircle
 10
-1068.96438338887
 20
-1000.892513023469
 30
0.0
 40
7.466042194497145
100
AcDbArc
 50
319.4123338771443
 51
358.7913234292799
  0
ARC
  5
328
330
6A
100
AcDbEntity
  8
0
  6
Continuous
 62
     7
100
AcDbCircle
 10
-1060.70000238427
 20
-997.6500003822737
 30
0.0
 40
3.399999999999977
100
AcDbArc
 50
90.0
 51
179.9999999999962
  0
ARC
  5
329
330
6A
100
AcDbEntity
  8
0
  6
Continuous
 62
     7
100
AcDbCircle
 10
-1048.786670353264
 20
-1001.011123843319
 30
0.0
 40
1.200000000000404
100
AcDbArc
 50
100.7064869688529
 51
186.9237208440188
  0
ARC
  5
32A
330
6A
100
AcDbEntity
  8
0
  6
Continuous
 62
     7
100
AcDbCircle
 10
-1050.37500238427
 20
-1001.204000382274
 30
0.0
 40
0.4000000000002721
100
AcDbArc
 50
228.6834170699951
 51
6.92372084408311
  0
ARC
  5
32B
330
6A
100
AcDbEntity
  8
0
  6
Continuous
 62
     7
100
AcDbCircle
 10
-1066.10000238427
 20
-1003.250000382273
 30
0.0
 40
0.5
100
AcDbArc
 50
90.0
 51
120.0000000000103
  0
ARC
  5
32C
330
6A
100
AcDbEntity
  8
0
  6
Continuous
 62
     7
100
AcDbCircle
 10
-1066.10000238427
 20
-1003.250000382273
 30
0.0
 40
0.4999999999998441
100
AcDbArc
 50
120.0000000000103
 51
180.0
  0
ARC
  5
32D
330
6A
100
AcDbEntity
  8
0
  6
Continuous
 62
     7
100
AcDbCircle
 10
-1065.10000238427
 20
-1000.940599305515
 30
0.0
 40
0.9999999999995898
100
AcDbArc
 50
300.0000000000136
 51
346.6666658735443
  0
ARC
  5
32E
330
6A
100
AcDbEntity
  8
0
  6
Continuous
 62
     7
100
AcDbCircle
 10
-1044.248226967279
 20
-1007.739302354735
 30
0.0
 40
8.000000000000039
100
AcDbArc
 50
34.32803523337138
 51
77.66476782071089
  0
ARC
  5
32F
330
6A
100
AcDbEntity
  8
0
  6
Continuous
 62
     7
100
AcDbCircle
 10
-1032.92500238427
 20
-995.7500003822753
 30
0.0
 40
0.5
100
AcDbArc
 50
0.0
 51
90.0
  0
ARC
  5
330
330
6A
100
AcDbEntity
  8
0
  6
Continuous
 62
     7
100
AcDbCircle
 10
-1035.99000238427
 20
-1002.100000382275
 30
0.0
 40
2.000000000000214
100
AcDbArc
 50
214.3280352333684
 51
270.0
  0
ARC
  5
331
330
6A
100
AcDbEntity
  8
0
  6
Continuous
 62
     7
100
AcDbCircle
 10
-1033.42500238427
 20
-995.7500003822752
 30
0.0
 40
0.5
100
AcDbArc
 50
90.0
 51
180.0
  0
ENDBLK
  5
6C
330
6A
100
AcDbEntity
  8
0
100
AcDbBlockEnd
  0
BLOCK
  5
6F
330
6D
100
AcDbEntity
  8
0
100
AcDbBlockBegin
  2
Vordans1
 70
     0
 10
-1045.337501525815
 20
-981.9999999993449
 30
0.0
  3
Vordans1
  1

  0
INSERT
  5
6E
330
6D
100
AcDbEntity
  8
0
100
AcDbBlockReference
  2
UK_5_N-MT-select__6
 10
-1066.60000238427
 20
-1005.750000382275
 30
0.0
  0
LINE
  5
332
330
6D
100
AcDbEntity
  8
1
  6
DOT_CENTER
 62
     2
100
AcDbLine
 10
-1045.32500238427
 20
-998.060434154101
 30
0.0
 11
-1045.32500238427
 21
-1001.060434154101
 31
0.0
  0
MTEXT
  5
333
330
6D
100
AcDbEntity
  8
1
 62
     6
100
AcDbMText
 10
-1045.337501525815
 20
-1010.749999999346
 30
0.0
 40
5.0
 41
0.0
 71
     2
 72
     1
  1
 
  7
CONVERTER_11
 73
     1
 44
1.32052821128451
  0
DIMENSION
  5
33E
330
6D
100
AcDbEntity
  8
1
100
AcDbDimension
  2
*D18
 10
-1045.32500238427
 20
-1016.51212081013
 30
0.0
 11
-1036.84693123868
 21
-1013.08712081013
 31
0.0
 70
    32
  1
<>
 71
     5
 42
-1.0
 53
0.00013888888889
  3
ME10_DIM_11
100
AcDbAlignedDimension
 13
-1027.82500238427
 23
-1000.650000382276
 33
0.0
 14
-1045.32500238427
 24
-1001.060434154101
 34
0.0
100
AcDbRotatedDimension
  0
DIMENSION
  5
349
330
6D
100
AcDbEntity
  8
1
100
AcDbDimension
  2
*D19
 10
-1045.32500238427
 20
-1024.51212081013
 30
0.0
 11
-1034.00189438895
 21
-1021.08712081013
 31
0.0
 70
    32
  1
<>
 71
     5
 42
-1.0
 53
0.00013888888889
  3
ME10_DIM_12
100
AcDbAlignedDimension
 13
-1024.07500238427
 23
-1002.250000382276
 33
0.0
 14
-1045.32500238427
 24
-1001.060434154101
 34
0.0
100
AcDbRotatedDimension
  0
DIMENSION
  5
354
330
6D
100
AcDbEntity
  8
1
100
AcDbDimension
  2
*D20
 10
-1066.60000238427
 20
-1032.512120810131
 30
0.0
 11
-1045.42911983706
 21
-1029.087120810131
 31
0.0
 70
    32
  1
<>
 71
     5
 42
-1.0
 53
0.00013888888889
  3
ME10_DIM_13
100
AcDbAlignedDimension
 13
-1024.07500238427
 23
-1002.250000382276
 33
0.0
 14
-1066.60000238427
 24
-1005.750000382273
 34
0.0
100
AcDbRotatedDimension
  0
DIMENSION
  5
35F
330
6D
100
AcDbEntity
  8
1
100
AcDbDimension
  2
*D21
 10
-1076.60000238427
 20
-999.450000382275
 30
0.0
 11
-1080.02500238427
 21
-979.468483475746
 31
0.0
 70
    32
  1
<>
 71
     5
 42
-1.0
 53
90.0
  3
ME10_DIM_14
100
AcDbAlignedDimension
 13
-1044.25202903022
 23
-959.8500003822751
 33
0.0
 14
-1031.90000238427
 24
-999.450000382275
 34
0.0
 50
90.0
100
AcDbRotatedDimension
  0
DIMENSION
  5
36A
330
6D
100
AcDbEntity
  8
1
100
AcDbDimension
  2
*D22
 10
-1084.60000238427
 20
-999.450000382275
 30
0.0
 11
-1088.02500238427
 21
-977.543154494805
 31
0.0
 70
    32
  1
<>
 71
     5
 42
-1.0
 53
90.0
  3
ME10_DIM_15
100
AcDbAlignedDimension
 13
-1040.662758903397
 23
-958.250000371898
 33
0.0
 14
-1031.90000238427
 24
-999.450000382275
 34
0.0
 50
90.0
100
AcDbRotatedDimension
  0
DIMENSION
  5
375
330
6D
100
AcDbEntity
  8
1
100
AcDbDimension
  2
*D23
 10
-1092.600002384271
 20
-1005.750000382273
 30
0.0
 11
-1096.025002384271
 21
-982.5169210289035
 31
0.0
 70
    32
  1
<>
 71
     5
 42
-1.0
 53
90.0
  3
ME10_DIM_16
100
AcDbAlignedDimension
 13
-1044.083862252704
 23
-958.2500003718978
 33
0.0
 14
-1063.294585984283
 24
-1005.750000382274
 34
0.0
 50
90.0
100
AcDbRotatedDimension
  0
ENDBLK
  5
70
330
6D
100
AcDbEntity
  8
0
100
AcDbBlockEnd
  0
BLOCK
  5
72
330
71
100
AcDbEntity
  8
0
100
AcDbBlockBegin
  2
_rahmen
 70
     0
 10
-872.650002948339
 20
-1131.150000947684
 30
0.0
  3
_rahmen
  1

  0
LINE
  5
376
330
71
100
AcDbEntity
  8
1
  6
Continuous
 62
     6
100
AcDbLine
 10
-1002.194807475089
 20
-1100.650000947684
 30
0.0
 11
-872.6500029483373
 21
-1100.650000947684
 31
0.0
  0
LINE
  5
377
330
71
100
AcDbEntity
  8
1
  6
Continuous
 62
     7
100
AcDbLine
 10
-983.9948074750889
 20
-1121.900000947684
 30
0.0
 11
-965.7948074750891
 21
-1121.900000947684
 31
0.0
  0
LINE
  5
378
330
71
100
AcDbEntity
  8
1
  6
Continuous
 62
     6
100
AcDbLine
 10
-983.9948074750889
 20
-1126.150000947684
 30
0.0
 11
-1002.194807475089
 21
-1126.150000947684
 31
0.0
  0
LINE
  5
379
330
71
100
AcDbEntity
  8
1
  6
Continuous
 62
     7
100
AcDbLine
 10
-983.9948074750889
 20
-1121.900000947684
 30
0.0
 11
-983.9948074750889
 21
-1126.150000947684
 31
0.0
  0
LINE
  5
37A
330
71
100
AcDbEntity
  8
1
  6
Continuous
 62
     7
100
AcDbLine
 10
-965.7948074750891
 20
-1121.900000947684
 30
0.0
 11
-965.7948074750891
 21
-1126.150000947684
 31
0.0
  0
LINE
  5
37B
330
71
100
AcDbEntity
  8
1
  6
Continuous
 62
     7
100
AcDbLine
 10
-1002.194807475089
 20
-1121.900000947684
 30
0.0
 11
-1002.194807475089
 21
-1126.150000947684
 31
0.0
  0
LINE
  5
37C
330
71
100
AcDbEntity
  8
1
  6
Continuous
 62
     7
100
AcDbLine
 10
-1002.194807475089
 20
-1121.900000947684
 30
0.0
 11
-983.9948074750889
 21
-1121.900000947684
 31
0.0
  0
LINE
  5
37D
330
71
100
AcDbEntity
  8
1
  6
Continuous
 62
     2
100
AcDbLine
 10
-992.9581525885264
 20
-1102.525000947684
 30
0.0
 11
-992.9581525885264
 21
-1107.525000947684
 31
0.0
  0
LINE
  5
37E
330
71
100
AcDbEntity
  8
1
  6
Continuous
 62
     2
100
AcDbLine
 10
-992.9581525885264
 20
-1107.525000947684
 30
0.0
 11
-997.9581525885264
 21
-1106.275000947684
 31
0.0
  0
LINE
  5
37F
330
71
100
AcDbEntity
  8
1
  6
Continuous
 62
     2
100
AcDbLine
 10
-997.9581525885264
 20
-1106.275000947684
 30
0.0
 11
-997.9581525885264
 21
-1103.775000947684
 31
0.0
  0
LINE
  5
380
330
71
100
AcDbEntity
  8
1
  6
Continuous
 62
     2
100
AcDbLine
 10
-997.9581525885264
 20
-1103.775000947684
 30
0.0
 11
-992.9581525885264
 21
-1102.525000947684
 31
0.0
  0
LINE
  5
381
330
71
100
AcDbEntity
  8
1
  6
Continuous
 62
     6
100
AcDbLine
 10
-1124.650002948337
 20
-1126.150000947684
 30
0.0
 11
-1159.650002948337
 21
-1126.150000947684
 31
0.0
  0
LINE
  5
382
330
71
100
AcDbEntity
  8
1
  6
Continuous
 62
     6
100
AcDbLine
 10
-872.6500029483373
 20
-1109.150000947684
 30
0.0
 11
-872.6500029483377
 21
-1117.650000947684
 31
0.0
  0
LINE
  5
383
330
71
100
AcDbEntity
  8
1
  6
Continuous
 62
     6
100
AcDbLine
 10
-965.7948074750891
 20
-1126.150000947684
 30
0.0
 11
-966.150002948339
 21
-1126.150000947684
 31
0.0
  0
LINE
  5
384
330
71
100
AcDbEntity
  8
1
  6
Continuous
 62
     6
100
AcDbLine
 10
-1118.450002948339
 20
-1126.150000947684
 30
0.0
 11
-1124.650002948337
 21
-1126.150000947684
 31
0.0
  0
LINE
  5
385
330
71
100
AcDbEntity
  8
1
  6
Continuous
 62
     7
100
AcDbLine
 10
-965.7948074750891
 20
-1109.150000947684
 30
0.0
 11
-965.7948074750891
 21
-1121.900000947684
 31
0.0
  0
LINE
  5
386
330
71
100
AcDbEntity
  8
1
  6
Continuous
 62
     7
100
AcDbLine
 10
-1002.194807475089
 20
-1109.150000947684
 30
0.0
 11
-1002.194807475089
 21
-1121.900000947684
 31
0.0
  0
LINE
  5
387
330
71
100
AcDbEntity
  8
1
  6
Continuous
 62
     6
100
AcDbLine
 10
-1016.150002948339
 20
-1126.150000947684
 30
0.0
 11
-1066.150002948339
 21
-1126.150000947684
 31
0.0
  0
LINE
  5
388
330
71
100
AcDbEntity
  8
1
  6
Continuous
 62
     6
100
AcDbLine
 10
-1118.450002948339
 20
-1126.150000947684
 30
0.0
 11
-1116.150002948339
 21
-1126.150000947684
 31
0.0
  0
LINE
  5
389
330
71
100
AcDbEntity
  8
1
  6
Continuous
 62
     6
100
AcDbLine
 10
-965.7948074750891
 20
-1126.150000947684
 30
0.0
 11
-916.150002948339
 21
-1126.150000947684
 31
0.0
  0
LINE
  5
38A
330
71
100
AcDbEntity
  8
1
  6
Continuous
 62
     6
100
AcDbLine
 10
-872.650002948339
 20
-1126.150000947684
 30
0.0
 11
-872.6500029483377
 21
-1117.650000947684
 31
0.0
  0
LINE
  5
38B
330
71
100
AcDbEntity
  8
1
  6
Continuous
 62
     2
100
AcDbLine
 10
-1164.650002948338
 20
-1126.150000947684
 30
0.0
 11
-1164.650002948338
 21
-1131.150000947684
 31
0.0
  0
LINE
  5
38C
330
71
100
AcDbEntity
  8
1
  6
Continuous
 62
     2
100
AcDbLine
 10
-1159.650002948337
 20
-1126.150000947684
 30
0.0
 11
-1164.650002948338
 21
-1126.150000947684
 31
0.0
  0
LINE
  5
38D
330
71
100
AcDbEntity
  8
1
  6
Continuous
 62
     2
100
AcDbLine
 10
-1159.650002948337
 20
-1131.150000947684
 30
0.0
 11
-1116.150002948339
 21
-1131.150000947684
 31
0.0
  0
LINE
  5
38E
330
71
100
AcDbEntity
  8
1
  6
Continuous
 62
     2
100
AcDbLine
 10
-1159.650002948337
 20
-1126.150000947684
 30
0.0
 11
-1159.650002948337
 21
-1131.150000947684
 31
0.0
  0
LINE
  5
38F
330
71
100
AcDbEntity
  8
1
  6
Continuous
 62
     2
100
AcDbLine
 10
-916.150002948339
 20
-1131.150000947684
 30
0.0
 11
-966.150002948339
 21
-1131.150000947684
 31
0.0
  0
LINE
  5
390
330
71
100
AcDbEntity
  8
1
  6
Continuous
 62
     2
100
AcDbLine
 10
-916.150002948339
 20
-1131.150000947684
 30
0.0
 11
-916.150002948339
 21
-1126.150000947684
 31
0.0
  0
LINE
  5
391
330
71
100
AcDbEntity
  8
1
  6
Continuous
 62
     2
100
AcDbLine
 10
-966.150002948339
 20
-1131.150000947684
 30
0.0
 11
-966.150002948339
 21
-1126.150000947684
 31
0.0
  0
LINE
  5
392
330
71
100
AcDbEntity
  8
1
  6
Continuous
 62
     2
100
AcDbLine
 10
-1016.150002948339
 20
-1131.150000947684
 30
0.0
 11
-966.150002948339
 21
-1131.150000947684
 31
0.0
  0
LINE
  5
393
330
71
100
AcDbEntity
  8
1
  6
Continuous
 62
     2
100
AcDbLine
 10
-1016.150002948339
 20
-1131.150000947684
 30
0.0
 11
-1016.150002948339
 21
-1126.150000947684
 31
0.0
  0
LINE
  5
394
330
71
100
AcDbEntity
  8
1
  6
Continuous
 62
     2
100
AcDbLine
 10
-1066.150002948339
 20
-1131.150000947684
 30
0.0
 11
-1016.150002948339
 21
-1131.150000947684
 31
0.0
  0
LINE
  5
395
330
71
100
AcDbEntity
  8
1
  6
Continuous
 62
     2
100
AcDbLine
 10
-1066.150002948339
 20
-1131.150000947684
 30
0.0
 11
-1066.150002948339
 21
-1126.150000947684
 31
0.0
  0
LINE
  5
396
330
71
100
AcDbEntity
  8
1
  6
Continuous
 62
     2
100
AcDbLine
 10
-1116.150002948339
 20
-1131.150000947684
 30
0.0
 11
-1066.150002948339
 21
-1131.150000947684
 31
0.0
  0
LINE
  5
397
330
71
100
AcDbEntity
  8
1
  6
Continuous
 62
     2
100
AcDbLine
 10
-1116.150002948339
 20
-1131.150000947684
 30
0.0
 11
-1116.150002948339
 21
-1126.150000947684
 31
0.0
  0
LINE
  5
398
330
71
100
AcDbEntity
  8
1
  6
Continuous
 62
     6
100
AcDbLine
 10
-1159.650002948337
 20
-1076.150000947684
 30
0.0
 11
-1159.650002948337
 21
-1126.150000947684
 31
0.0
  0
LINE
  5
399
330
71
100
AcDbEntity
  8
1
  6
Continuous
 62
     2
100
AcDbLine
 10
-1164.650002948338
 20
-1076.150000947684
 30
0.0
 11
-1164.650002948338
 21
-1126.150000947684
 31
0.0
  0
LINE
  5
39A
330
71
100
AcDbEntity
  8
1
  6
Continuous
 62
     2
100
AcDbLine
 10
-1164.650002948338
 20
-1076.150000947684
 30
0.0
 11
-1159.650002948337
 21
-1076.150000947684
 31
0.0
  0
LINE
  5
39B
330
71
100
AcDbEntity
  8
1
  6
Continuous
 62
     6
100
AcDbLine
 10
-1159.650002948338
 20
-1026.150000947684
 30
0.0
 11
-1159.650002948337
 21
-1076.150000947684
 31
0.0
  0
LINE
  5
39C
330
71
100
AcDbEntity
  8
1
  6
Continuous
 62
     2
100
AcDbLine
 10
-1164.650002948338
 20
-1026.150000947684
 30
0.0
 11
-1164.650002948338
 21
-1076.150000947684
 31
0.0
  0
LINE
  5
39D
330
71
100
AcDbEntity
  8
1
  6
Continuous
 62
     2
100
AcDbLine
 10
-1164.650002948338
 20
-1026.150000947684
 30
0.0
 11
-1159.650002948338
 21
-1026.150000947684
 31
0.0
  0
LINE
  5
39E
330
71
100
AcDbEntity
  8
1
  6
Continuous
 62
     6
100
AcDbLine
 10
-1159.650002948338
 20
-976.150000947684
 30
0.0
 11
-1159.650002948338
 21
-1026.150000947684
 31
0.0
  0
LINE
  5
39F
330
71
100
AcDbEntity
  8
1
  6
Continuous
 62
     2
100
AcDbLine
 10
-1164.650002948338
 20
-976.150000947684
 30
0.0
 11
-1164.650002948338
 21
-1026.150000947684
 31
0.0
  0
LINE
  5
3A0
330
71
100
AcDbEntity
  8
1
  6
Continuous
 62
     2
100
AcDbLine
 10
-1164.650002948338
 20
-976.150000947684
 30
0.0
 11
-1159.650002948338
 21
-976.150000947684
 31
0.0
  0
LINE
  5
3A1
330
71
100
AcDbEntity
  8
1
  6
Continuous
 62
     6
100
AcDbLine
 10
-1159.650002948338
 20
-941.150000947684
 30
0.0
 11
-1159.650002948338
 21
-976.150000947684
 31
0.0
  0
LINE
  5
3A2
330
71
100
AcDbEntity
  8
1
  6
Continuous
 62
     2
100
AcDbLine
 10
-1164.650002948338
 20
-921.150000947684
 30
0.0
 11
-1164.650002948338
 21
-976.150000947684
 31
0.0
  0
LINE
  5
3A3
330
71
100
AcDbEntity
  8
1
  6
Continuous
 62
     2
100
AcDbLine
 10
-1164.650002948338
 20
-1131.150000947684
 30
0.0
 11
-1159.650002948337
 21
-1131.150000947684
 31
0.0
  0
LINE
  5
3A4
330
71
100
AcDbEntity
  8
1
  6
Continuous
 62
     2
100
AcDbLine
 10
-1016.150002948339
 20
-921.150000947684
 30
0.0
 11
-1016.150002948339
 21
-930.3586927923853
 31
0.0
  0
LINE
  5
3A5
330
71
100
AcDbEntity
  8
1
  6
Continuous
 62
     2
100
AcDbLine
 10
-1016.150002948339
 20
-921.150000947684
 30
0.0
 11
-1164.650002948338
 21
-921.150000947684
 31
0.0
  0
LINE
  5
3A6
330
71
100
AcDbEntity
  8
1
  6
Continuous
 62
     2
100
AcDbLine
 10
-867.65000294834
 20
-1126.150000947684
 30
0.0
 11
-867.65000294834
 21
-1076.150000947684
 31
0.0
  0
LINE
  5
3A7
330
71
100
AcDbEntity
  8
1
  6
Continuous
 62
     2
100
AcDbLine
 10
-867.65000294834
 20
-976.150000947684
 30
0.0
 11
-867.65000294834
 21
-921.150000947684
 31
0.0
  0
LINE
  5
3A8
330
71
100
AcDbEntity
  8
1
  6
Continuous
 62
     6
100
AcDbLine
 10
-872.6500029483398
 20
-976.150000947684
 30
0.0
 11
-872.65000294834
 21
-941.150000947684
 31
0.0
  0
LINE
  5
3A9
330
71
100
AcDbEntity
  8
1
  6
Continuous
 62
     2
100
AcDbLine
 10
-872.6500029483398
 20
-976.150000947684
 30
0.0
 11
-867.65000294834
 21
-976.150000947684
 31
0.0
  0
LINE
  5
3AA
330
71
100
AcDbEntity
  8
1
  6
Continuous
 62
     2
100
AcDbLine
 10
-867.65000294834
 20
-1026.150000947684
 30
0.0
 11
-867.65000294834
 21
-976.150000947684
 31
0.0
  0
LINE
  5
3AB
330
71
100
AcDbEntity
  8
1
  6
Continuous
 62
     6
100
AcDbLine
 10
-872.6500029483386
 20
-1026.150000947684
 30
0.0
 11
-872.6500029483398
 21
-976.150000947684
 31
0.0
  0
LINE
  5
3AC
330
71
100
AcDbEntity
  8
1
  6
Continuous
 62
     2
100
AcDbLine
 10
-872.6500029483386
 20
-1026.150000947684
 30
0.0
 11
-867.65000294834
 21
-1026.150000947684
 31
0.0
  0
LINE
  5
3AD
330
71
100
AcDbEntity
  8
1
  6
Continuous
 62
     2
100
AcDbLine
 10
-867.65000294834
 20
-1076.150000947684
 30
0.0
 11
-867.65000294834
 21
-1026.150000947684
 31
0.0
  0
LINE
  5
3AE
330
71
100
AcDbEntity
  8
1
  6
Continuous
 62
     6
100
AcDbLine
 10
-872.650002948338
 20
-1076.150000947684
 30
0.0
 11
-872.6500029483386
 21
-1026.150000947684
 31
0.0
  0
LINE
  5
3AF
330
71
100
AcDbEntity
  8
1
  6
Continuous
 62
     2
100
AcDbLine
 10
-872.650002948338
 20
-1076.150000947684
 30
0.0
 11
-867.65000294834
 21
-1076.150000947684
 31
0.0
  0
LINE
  5
3B0
330
71
100
AcDbEntity
  8
1
  6
Continuous
 62
     6
100
AcDbLine
 10
-872.65000294834
 20
-941.150000947684
 30
0.0
 11
-1159.650002948338
 21
-941.150000947684
 31
0.0
  0
LINE
  5
3B1
330
71
100
AcDbEntity
  8
1
  6
Continuous
 62
     2
100
AcDbLine
 10
-867.65000294834
 20
-921.150000947684
 30
0.0
 11
-1016.150002948339
 21
-921.150000947684
 31
0.0
  0
LINE
  5
3B2
330
71
100
AcDbEntity
  8
1
  6
Continuous
 62
     6
100
AcDbLine
 10
-872.6500029483373
 20
-1109.150000947684
 30
0.0
 11
-872.650002948338
 21
-1076.150000947684
 31
0.0
  0
LINE
  5
3B3
330
71
100
AcDbEntity
  8
1
  6
Continuous
 62
     2
100
AcDbLine
 10
-872.650002948339
 20
-1131.150000947684
 30
0.0
 11
-916.150002948339
 21
-1131.150000947684
 31
0.0
  0
LINE
  5
3B4
330
71
100
AcDbEntity
  8
1
  6
Continuous
 62
     2
100
AcDbLine
 10
-867.65000294834
 20
-1131.150000947684
 30
0.0
 11
-872.650002948339
 21
-1131.150000947684
 31
0.0
  0
LINE
  5
3B5
330
71
100
AcDbEntity
  8
1
  6
Continuous
 62
     2
100
AcDbLine
 10
-867.65000294834
 20
-1131.150000947684
 30
0.0
 11
-867.65000294834
 21
-1126.150000947684
 31
0.0
  0
LINE
  5
3B6
330
71
100
AcDbEntity
  8
1
  6
Continuous
 62
     6
100
AcDbLine
 10
-1002.194807475089
 20
-1109.150000947684
 30
0.0
 11
-965.7948074750891
 21
-1109.150000947684
 31
0.0
  0
LINE
  5
3B7
330
71
100
AcDbEntity
  8
1
  6
Continuous
 62
     2
100
AcDbLine
 10
-872.650002948339
 20
-1126.150000947684
 30
0.0
 11
-872.650002948339
 21
-1131.150000947684
 31
0.0
  0
LINE
  5
3B8
330
71
100
AcDbEntity
  8
1
  6
Continuous
 62
     2
100
AcDbLine
 10
-872.650002948339
 20
-1126.150000947684
 30
0.0
 11
-867.65000294834
 21
-1126.150000947684
 31
0.0
  0
LINE
  5
3B9
330
71
100
AcDbEntity
  8
1
  6
Continuous
 62
     6
100
AcDbLine
 10
-966.150002948339
 20
-1126.150000947684
 30
0.0
 11
-983.9948074750889
 21
-1126.150000947684
 31
0.0
  0
LINE
  5
3BA
330
71
100
AcDbEntity
  8
1
  6
Continuous
 62
     6
100
AcDbLine
 10
-916.150002948339
 20
-1126.150000947684
 30
0.0
 11
-872.650002948339
 21
-1126.150000947684
 31
0.0
  0
LINE
  5
3BB
330
71
100
AcDbEntity
  8
1
  6
Continuous
 62
     6
100
AcDbLine
 10
-1066.150002948339
 20
-1126.150000947684
 30
0.0
 11
-1071.194807475089
 21
-1126.150000947684
 31
0.0
  0
LINE
  5
3BC
330
71
100
AcDbEntity
  8
1
  6
Continuous
 62
     6
100
AcDbLine
 10
-1016.150002948339
 20
-1126.150000947684
 30
0.0
 11
-1002.194807475089
 21
-1126.150000947684
 31
0.0
  0
LINE
  5
3BD
102
{ACAD_REACTORS
330
4A7
330
4A8
102
}
330
71
100
AcDbEntity
  8
0
  6
Continuous
 62
     2
100
AcDbLine
 10
-994.6801815329422
 20
-1114.077486191472
 30
0.0
 11
-994.6801815329422
 21
-1113.471950902965
 31
0.0
  0
LINE
  5
3BE
102
{ACAD_REACTORS
330
4A7
330
4A8
102
}
330
71
100
AcDbEntity
  8
0
  6
Continuous
 62
     2
100
AcDbLine
 10
-994.6801815329422
 20
-1116.877620798103
 30
0.0
 11
-994.6801815329422
 21
-1116.295769391408
 31
0.0
  0
LINE
  5
3BF
102
{ACAD_REACTORS
330
4A9
330
4AA
102
}
330
71
100
AcDbEntity
  8
0
  6
Continuous
 62
     2
100
AcDbLine
 10
-972.050695097463
 20
-1116.58795672998
 30
0.0
 11
-972.050695097463
 21
-1118.856500947668
 31
0.0
  0
LINE
  5
3C0
102
{ACAD_REACTORS
330
4A9
330
4AA
102
}
330
71
100
AcDbEntity
  8
0
  6
Continuous
 62
     2
100
AcDbLine
 10
-973.4317488764506
 20
-1115.802691423857
 30
0.0
 11
-970.0468033578219
 21
-1115.802691423857
 31
0.0
  0
LINE
  5
3C1
102
{ACAD_REACTORS
330
4A9
330
4AA
102
}
330
71
100
AcDbEntity
  8
0
  6
Continuous
 62
     2
100
AcDbLine
 10
-970.0468033578219
 20
-1116.58795672998
 30
0.0
 11
-970.0468033578219
 21
-1115.802691423857
 31
0.0
  0
LINE
  5
3C2
102
{ACAD_REACTORS
330
4A9
330
4AA
102
}
330
71
100
AcDbEntity
  8
0
  6
Continuous
 62
     2
100
AcDbLine
 10
-970.8579023952952
 20
-1116.58795672998
 30
0.0
 11
-970.0468033578219
 21
-1116.58795672998
 31
0.0
  0
LINE
  5
3C3
102
{ACAD_REACTORS
330
4A9
330
4AA
102
}
330
71
100
AcDbEntity
  8
0
  6
Continuous
 62
     2
100
AcDbLine
 10
-970.8579023952952
 20
-1118.856500947668
 30
0.0
 11
-970.8579023952952
 21
-1116.58795672998
 31
0.0
  0
LINE
  5
3C4
102
{ACAD_REACTORS
330
4A9
330
4AA
102
}
330
71
100
AcDbEntity
  8
0
  6
Continuous
 62
     2
100
AcDbLine
 10
-972.050695097463
 20
-1118.856500947668
 30
0.0
 11
-970.8579023952952
 21
-1118.856500947668
 31
0.0
  0
LINE
  5
3C5
102
{ACAD_REACTORS
330
49F
330
4A0
102
}
330
71
100
AcDbEntity
  8
0
  6
Continuous
 62
     2
100
AcDbLine
 10
-972.7472860355275
 20
-1112.443500947682
 30
0.0
 11
-974.1500102532768
 21
-1112.443500947682
 31
0.0
  0
LINE
  5
3C6
102
{ACAD_REACTORS
330
49F
330
4A0
102
}
330
71
100
AcDbEntity
  8
0
  6
Continuous
 62
     2
100
AcDbLine
 10
-972.7472860355275
 20
-1112.443500947682
 30
0.0
 11
-972.1461185136357
 21
-1113.123324269238
 31
0.0
  0
LINE
  5
3C7
102
{ACAD_REACTORS
330
49F
330
4A0
102
}
330
71
100
AcDbEntity
  8
0
  6
Continuous
 62
     2
100
AcDbLine
 10
-972.1461185136357
 20
-1113.123324269238
 30
0.0
 11
-971.5449509917429
 21
-1112.443500947682
 31
0.0
  0
LINE
  5
3C8
102
{ACAD_REACTORS
330
49F
330
4A0
102
}
330
71
100
AcDbEntity
  8
0
  6
Continuous
 62
     2
100
AcDbLine
 10
-971.4447564047622
 20
-1113.916451477719
 30
0.0
 11
-970.1422267739956
 21
-1112.443500947682
 31
0.0
  0
LINE
  5
3C9
102
{ACAD_REACTORS
330
49F
330
4A0
102
}
330
71
100
AcDbEntity
  8
0
  6
Continuous
 62
     2
100
AcDbLine
 10
-971.4447564047622
 20
-1113.916451477719
 30
0.0
 11
-970.0468033578219
 21
-1115.497310471493
 31
0.0
  0
LINE
  5
3CA
102
{ACAD_REACTORS
330
49F
330
4A0
102
}
330
71
100
AcDbEntity
  8
0
  6
Continuous
 62
     2
100
AcDbLine
 10
-971.4495275755702
 20
-1115.497310471493
 30
0.0
 11
-970.0468033578219
 21
-1115.497310471493
 31
0.0
  0
LINE
  5
3CB
102
{ACAD_REACTORS
330
49F
330
4A0
102
}
330
71
100
AcDbEntity
  8
0
  6
Continuous
 62
     2
100
AcDbLine
 10
-972.1461185136357
 20
-1114.7095786862
 30
0.0
 11
-971.4495275755702
 21
-1115.497310471493
 31
0.0
  0
LINE
  5
3CC
102
{ACAD_REACTORS
330
49D
330
49E
102
}
330
71
100
AcDbEntity
  8
0
  6
Continuous
 62
     2
100
AcDbLine
 10
-975.6052173499194
 20
-1112.443500947682
 30
0.0
 11
-974.3647129396664
 21
-1112.443500947682
 31
0.0
  0
LINE
  5
3CD
102
{ACAD_REACTORS
330
49D
330
49E
102
}
330
71
100
AcDbEntity
  8
0
  6
Continuous
 62
     2
100
AcDbLine
 10
-974.3647129396664
 20
-1112.443500947682
 30
0.0
 11
-974.3647129396664
 21
-1115.497310471493
 31
0.0
  0
LINE
  5
3CE
102
{ACAD_REACTORS
330
49D
330
49E
102
}
330
71
100
AcDbEntity
  8
0
  6
Continuous
 62
     2
100
AcDbLine
 10
-975.6052173499194
 20
-1115.497310471493
 30
0.0
 11
-975.6052173499194
 21
-1112.443500947682
 31
0.0
  0
LINE
  5
3CF
102
{ACAD_REACTORS
330
49B
330
49C
102
}
330
71
100
AcDbEntity
  8
0
  6
Continuous
 62
     2
100
AcDbLine
 10
-977.073527432457
 20
-1117.634977138143
 30
0.0
 11
-976.7733621952646
 21
-1116.867162172156
 31
0.0
  0
LINE
  5
3D0
102
{ACAD_REACTORS
330
49B
330
49C
102
}
330
71
100
AcDbEntity
  8
0
  6
Continuous
 62
     2
100
AcDbLine
 10
-977.5510630370778
 20
-1118.856500947668
 30
0.0
 11
-977.339582983602
 21
-1118.31554040345
 31
0.0
  0
LINE
  5
3D1
102
{ACAD_REACTORS
330
49B
330
49C
102
}
330
71
100
AcDbEntity
  8
0
  6
Continuous
 62
     2
100
AcDbLine
 10
-977.3936144003915
 20
-1115.802691423857
 30
0.0
 11
-978.7915674473307
 21
-1118.856500947668
 31
0.0
  0
LINE
  5
3D2
102
{ACAD_REACTORS
330
49B
330
49C
102
}
330
71
100
AcDbEntity
  8
0
  6
Continuous
 62
     2
100
AcDbLine
 10
-974.7551569431985
 20
-1118.856500947668
 30
0.0
 11
-975.9956613534524
 21
-1118.856500947668
 31
0.0
  0
LINE
  5
3D3
102
{ACAD_REACTORS
330
49B
330
49C
102
}
330
71
100
AcDbEntity
  8
0
  6
Continuous
 62
     2
100
AcDbLine
 10
-977.339582983602
 20
-1118.31554040345
 30
0.0
 11
-976.2071414069281
 21
-1118.31554040345
 31
0.0
  0
LINE
  5
3D4
102
{ACAD_REACTORS
330
499
330
49A
102
}
330
71
100
AcDbEntity
  8
0
  6
Continuous
 62
     2
100
AcDbLine
 10
-980.949079586513
 20
-1116.58795672998
 30
0.0
 11
-980.1379805490384
 21
-1116.58795672998
 31
0.0
  0
LINE
  5
3D5
102
{ACAD_REACTORS
330
499
330
49A
102
}
330
71
100
AcDbEntity
  8
0
  6
Continuous
 62
     2
100
AcDbLine
 10
-978.1340888093994
 20
-1115.802691423857
 30
0.0
 11
-980.949079586513
 21
-1115.802691423857
 31
0.0
  0
LINE
  5
3D6
102
{ACAD_REACTORS
330
499
330
49A
102
}
330
71
100
AcDbEntity
  8
0
  6
Continuous
 62
     2
100
AcDbLine
 10
-978.1340888093994
 20
-1116.58795672998
 30
0.0
 11
-978.1340888093994
 21
-1115.802691423857
 31
0.0
  0
LINE
  5
3D7
102
{ACAD_REACTORS
330
499
330
49A
102
}
330
71
100
AcDbEntity
  8
0
  6
Continuous
 62
     2
100
AcDbLine
 10
-978.9451878468719
 20
-1116.58795672998
 30
0.0
 11
-978.1340888093994
 21
-1116.58795672998
 31
0.0
  0
LINE
  5
3D8
102
{ACAD_REACTORS
330
499
330
49A
102
}
330
71
100
AcDbEntity
  8
0
  6
Continuous
 62
     2
100
AcDbLine
 10
-978.9451878468719
 20
-1118.856500947668
 30
0.0
 11
-978.9451878468719
 21
-1116.58795672998
 31
0.0
  0
LINE
  5
3D9
102
{ACAD_REACTORS
330
497
330
498
102
}
330
71
100
AcDbEntity
  8
0
  6
Continuous
 62
     2
100
AcDbLine
 10
-978.2770730027739
 20
-1115.497310471493
 30
0.0
 11
-978.2770730027739
 21
-1114.188534961289
 31
0.0
  0
LINE
  5
3DA
102
{ACAD_REACTORS
330
497
330
498
102
}
330
71
100
AcDbEntity
  8
0
  6
Continuous
 62
     2
100
AcDbLine
 10
-979.4698657049404
 20
-1112.443500947682
 30
0.0
 11
-979.4698657049404
 21
-1115.497310471493
 31
0.0
  0
LINE
  5
3DB
102
{ACAD_REACTORS
330
497
330
498
102
}
330
71
100
AcDbEntity
  8
0
  6
Continuous
 62
     2
100
AcDbLine
 10
-978.2770730027739
 20
-1112.443500947682
 30
0.0
 11
-979.4698657049404
 21
-1112.443500947682
 31
0.0
  0
LINE
  5
3DC
102
{ACAD_REACTORS
330
497
330
498
102
}
330
71
100
AcDbEntity
  8
0
  6
Continuous
 62
     2
100
AcDbLine
 10
-977.0365685925199
 20
-1112.443500947682
 30
0.0
 11
-977.0365685925199
 21
-1113.752276457887
 31
0.0
  0
LINE
  5
3DD
102
{ACAD_REACTORS
330
495
330
496
102
}
330
71
100
AcDbEntity
  8
0
  6
Continuous
 62
     2
100
AcDbLine
 10
-984.71830452536
 20
-1115.802691423857
 30
0.0
 11
-984.71830452536
 21
-1118.856500947668
 31
0.0
  0
LINE
  5
3DE
102
{ACAD_REACTORS
330
495
330
496
102
}
330
71
100
AcDbEntity
  8
0
  6
Continuous
 62
     2
100
AcDbLine
 10
-983.5255118231925
 20
-1115.802691423857
 30
0.0
 11
-984.71830452536
 21
-1115.802691423857
 31
0.0
  0
LINE
  5
3DF
102
{ACAD_REACTORS
330
495
330
496
102
}
330
71
100
AcDbEntity
  8
0
  6
Continuous
 62
     2
100
AcDbLine
 10
-982.2850074129396
 20
-1118.856500947668
 30
0.0
 11
-981.0922147107732
 21
-1118.856500947668
 31
0.0
  0
LINE
  5
3E0
102
{ACAD_REACTORS
330
495
330
496
102
}
330
71
100
AcDbEntity
  8
0
  6
Continuous
 62
     2
100
AcDbLine
 10
-984.71830452536
 20
-1118.856500947668
 30
0.0
 11
-983.5255118231925
 21
-1118.856500947668
 31
0.0
  0
LINE
  5
3E1
102
{ACAD_REACTORS
330
4A5
330
4A6
102
}
330
71
100
AcDbEntity
  8
0
  6
Continuous
 62
     2
100
AcDbLine
 10
-981.044352071801
 20
-1113.621398906867
 30
0.0
 11
-981.044352071801
 21
-1113.141514553125
 31
0.0
  0
LINE
  5
3E2
102
{ACAD_REACTORS
330
4A5
330
4A6
102
}
330
71
100
AcDbEntity
  8
0
  6
Continuous
 62
     2
100
AcDbLine
 10
-979.7084242453733
 20
-1113.621398906867
 30
0.0
 11
-981.044352071801
 21
-1113.621398906867
 31
0.0
  0
LINE
  5
3E3
102
{ACAD_REACTORS
330
4A5
330
4A6
102
}
330
71
100
AcDbEntity
  8
0
  6
Continuous
 62
     2
100
AcDbLine
 10
-979.7084242453733
 20
-1114.319412512309
 30
0.0
 11
-979.7084242453733
 21
-1113.621398906867
 31
0.0
  0
LINE
  5
3E4
102
{ACAD_REACTORS
330
4A5
330
4A6
102
}
330
71
100
AcDbEntity
  8
0
  6
Continuous
 62
     2
100
AcDbLine
 10
-981.044352071801
 20
-1114.319412512309
 30
0.0
 11
-979.7084242453733
 21
-1114.319412512309
 31
0.0
  0
LINE
  5
3E5
102
{ACAD_REACTORS
330
493
330
494
102
}
330
71
100
AcDbEntity
  8
0
  6
Continuous
 62
     2
100
AcDbLine
 10
-984.5273067621279
 20
-1112.443500947682
 30
0.0
 11
-984.5273067621279
 21
-1115.497310471493
 31
0.0
  0
LINE
  5
3E6
102
{ACAD_REACTORS
330
493
330
494
102
}
330
71
100
AcDbEntity
  8
0
  6
Continuous
 62
     2
100
AcDbLine
 10
-984.5273067621279
 20
-1115.497310471493
 30
0.0
 11
-985.7200994642943
 21
-1115.497310471493
 31
0.0
  0
LINE
  5
3E7
102
{ACAD_REACTORS
330
493
330
494
102
}
330
71
100
AcDbEntity
  8
0
  6
Continuous
 62
     2
100
AcDbLine
 10
-985.7200994642943
 20
-1115.497310471493
 30
0.0
 11
-985.7200994642943
 21
-1114.36303836265
 31
0.0
  0
LINE
  5
3E8
102
{ACAD_REACTORS
330
493
330
494
102
}
330
71
100
AcDbEntity
  8
0
  6
Continuous
 62
     2
100
AcDbLine
 10
-986.7697570422017
 20
-1115.497310471493
 30
0.0
 11
-987.9625497443684
 21
-1115.497310471493
 31
0.0
  0
LINE
  5
3E9
102
{ACAD_REACTORS
330
493
330
494
102
}
330
71
100
AcDbEntity
  8
0
  6
Continuous
 62
     2
100
AcDbLine
 10
-987.9625497443684
 20
-1112.443500947682
 30
0.0
 11
-986.7697570422017
 21
-1112.443500947682
 31
0.0
  0
LINE
  5
3EA
102
{ACAD_REACTORS
330
493
330
494
102
}
330
71
100
AcDbEntity
  8
0
  6
Continuous
 62
     2
100
AcDbLine
 10
-986.7697570422017
 20
-1112.443500947682
 30
0.0
 11
-986.7697570422017
 21
-1113.512334281017
 31
0.0
  0
LINE
  5
3EB
102
{ACAD_REACTORS
330
493
330
494
102
}
330
71
100
AcDbEntity
  8
0
  6
Continuous
 62
     2
100
AcDbLine
 10
-986.7697570422017
 20
-1113.512334281017
 30
0.0
 11
-985.7200994642943
 21
-1113.512334281017
 31
0.0
  0
LINE
  5
3EC
102
{ACAD_REACTORS
330
4A1
330
4A2
102
}
330
71
100
AcDbEntity
  8
0
  6
Continuous
 62
     2
100
AcDbLine
 10
-989.918729775922
 20
-1113.106606793122
 30
0.0
 11
-989.60143471438
 21
-1113.106606793122
 31
0.0
  0
LINE
  5
3ED
102
{ACAD_REACTORS
330
4A1
330
4A2
102
}
330
71
100
AcDbEntity
  8
0
  6
Continuous
 62
     2
100
AcDbLine
 10
-989.918729775922
 20
-1113.812334442465
 30
0.0
 11
-989.60143471438
 21
-1113.812334442465
 31
0.0
  0
LINE
  5
3EE
102
{ACAD_REACTORS
330
4A1
330
4A2
102
}
330
71
100
AcDbEntity
  8
0
  6
Continuous
 62
     2
100
AcDbLine
 10
-991.159234186176
 20
-1112.443500947682
 30
0.0
 11
-991.159234186176
 21
-1115.497310471493
 31
0.0
  0
LINE
  5
3EF
102
{ACAD_REACTORS
330
4A1
330
4A2
102
}
330
71
100
AcDbEntity
  8
0
  6
Continuous
 62
     2
100
AcDbLine
 10
-991.159234186176
 20
-1112.443500947682
 30
0.0
 11
-989.1599621881417
 21
-1112.443500947682
 31
0.0
  0
LINE
  5
3F0
102
{ACAD_REACTORS
330
4A1
330
4A2
102
}
330
71
100
AcDbEntity
  8
0
  6
Continuous
 62
     2
100
AcDbLine
 10
-989.918729775922
 20
-1114.55423223035
 30
0.0
 11
-989.1599621881417
 21
-1114.55423223035
 31
0.0
  0
LINE
  5
3F1
102
{ACAD_REACTORS
330
4A7
330
4A8
102
}
330
71
100
AcDbEntity
  8
0
  6
Continuous
 62
     2
100
AcDbLine
 10
-997.2557302194728
 20
-1113.471773426317
 30
0.0
 11
-997.2557302194728
 21
-1117.828228469034
 31
0.0
  0
LINE
  5
3F2
102
{ACAD_REACTORS
330
4A7
330
4A8
102
}
330
71
100
AcDbEntity
  8
0
  6
Continuous
 62
     2
100
AcDbLine
 10
-996.9400132963971
 20
-1113.156056503241
 30
0.0
 11
-995.4641800353875
 21
-1113.156056503241
 31
0.0
  0
LINE
  5
3F3
102
{ACAD_REACTORS
330
4A7
330
4A8
102
}
330
71
100
AcDbEntity
  8
0
  6
Continuous
 62
     2
100
AcDbLine
 10
-995.1484631123109
 20
-1114.075798045378
 30
0.0
 11
-995.1484631123109
 21
-1113.471773426317
 31
0.0
  0
LINE
  5
3F4
102
{ACAD_REACTORS
330
4A7
330
4A8
102
}
330
71
100
AcDbEntity
  8
0
  6
Continuous
 62
     2
100
AcDbLine
 10
-995.1484631123109
 20
-1117.828228469034
 30
0.0
 11
-995.1484631123109
 21
-1116.297457537502
 31
0.0
  0
LINE
  5
3F5
102
{ACAD_REACTORS
330
4A7
330
4A8
102
}
330
71
100
AcDbEntity
  8
0
  6
Continuous
 62
     2
100
AcDbLine
 10
-992.0605958824268
 20
-1118.856500947668
 30
0.0
 11
-997.5339079731436
 21
-1118.856500947668
 31
0.0
  0
LINE
  5
3F6
102
{ACAD_REACTORS
330
4A7
330
4A8
102
}
330
71
100
AcDbEntity
  8
0
  6
Continuous
 62
     2
100
AcDbLine
 10
-991.6363512670429
 20
-1112.867745563084
 30
0.0
 11
-991.6363512670429
 21
-1118.432256332284
 31
0.0
  0
LINE
  5
3F7
102
{ACAD_REACTORS
330
4A7
330
4A8
102
}
330
71
100
AcDbEntity
  8
0
  6
Continuous
 62
     2
100
AcDbLine
 10
-997.5339079731436
 20
-1112.4435009477
 30
0.0
 11
-992.0605958824268
 21
-1112.4435009477
 31
0.0
  0
LINE
  5
3F8
102
{ACAD_REACTORS
330
4A7
330
4A8
102
}
330
71
100
AcDbEntity
  8
0
  6
Continuous
 62
     2
100
AcDbLine
 10
-997.9581525885264
 20
-1112.867745563084
 30
0.0
 11
-997.9581525885264
 21
-1118.432256332284
 31
0.0
  0
LINE
  5
3F9
102
{ACAD_REACTORS
330
4A7
330
4A8
102
}
330
71
100
AcDbEntity
  8
0
  6
Continuous
 62
     2
100
AcDbLine
 10
-995.4641800353875
 20
-1118.143945392111
 30
0.0
 11
-996.9400132963971
 21
-1118.143945392111
 31
0.0
  0
LINE
  5
3FA
102
{ACAD_REACTORS
330
4A1
330
4A2
102
}
330
71
100
AcDbEntity
  8
0
  6
Continuous
 62
     2
100
AcDbLine
 10
-989.918729775922
 20
-1115.497310471493
 30
0.0
 11
-989.918729775922
 21
-1114.55423223035
 31
0.0
  0
LINE
  5
3FB
102
{ACAD_REACTORS
330
4A1
330
4A2
102
}
330
71
100
AcDbEntity
  8
0
  6
Continuous
 62
     2
100
AcDbLine
 10
-991.159234186176
 20
-1115.497310471493
 30
0.0
 11
-989.918729775922
 21
-1115.497310471493
 31
0.0
  0
LINE
  5
3FC
102
{ACAD_REACTORS
330
4A1
330
4A2
102
}
330
71
100
AcDbEntity
  8
0
  6
Continuous
 62
     2
100
AcDbLine
 10
-989.918729775922
 20
-1113.812334442465
 30
0.0
 11
-989.918729775922
 21
-1113.106606793122
 31
0.0
  0
LINE
  5
3FD
102
{ACAD_REACTORS
330
493
330
494
102
}
330
71
100
AcDbEntity
  8
0
  6
Continuous
 62
     2
100
AcDbLine
 10
-987.9625497443684
 20
-1112.443500947682
 30
0.0
 11
-987.9625497443684
 21
-1115.497310471493
 31
0.0
  0
LINE
  5
3FE
102
{ACAD_REACTORS
330
493
330
494
102
}
330
71
100
AcDbEntity
  8
0
  6
Continuous
 62
     2
100
AcDbLine
 10
-986.7697570422017
 20
-1114.36303836265
 30
0.0
 11
-986.7697570422017
 21
-1115.497310471493
 31
0.0
  0
LINE
  5
3FF
102
{ACAD_REACTORS
330
493
330
494
102
}
330
71
100
AcDbEntity
  8
0
  6
Continuous
 62
     2
100
AcDbLine
 10
-985.7200994642943
 20
-1114.36303836265
 30
0.0
 11
-986.7697570422017
 21
-1114.36303836265
 31
0.0
  0
LINE
  5
400
102
{ACAD_REACTORS
330
493
330
494
102
}
330
71
100
AcDbEntity
  8
0
  6
Continuous
 62
     2
100
AcDbLine
 10
-985.7200994642943
 20
-1112.443500947682
 30
0.0
 11
-984.5273067621279
 21
-1112.443500947682
 31
0.0
  0
LINE
  5
401
102
{ACAD_REACTORS
330
493
330
494
102
}
330
71
100
AcDbEntity
  8
0
  6
Continuous
 62
     2
100
AcDbLine
 10
-985.7200994642943
 20
-1113.512334281017
 30
0.0
 11
-985.7200994642943
 21
-1112.443500947682
 31
0.0
  0
LINE
  5
402
102
{ACAD_REACTORS
330
4A5
330
4A6
102
}
330
71
100
AcDbEntity
  8
0
  6
Continuous
 62
     2
100
AcDbLine
 10
-979.7084242453733
 20
-1113.141514553125
 30
0.0
 11
-979.7084242453733
 21
-1112.443500947682
 31
0.0
  0
LINE
  5
403
102
{ACAD_REACTORS
330
4A5
330
4A6
102
}
330
71
100
AcDbEntity
  8
0
  6
Continuous
 62
     2
100
AcDbLine
 10
-982.8587439691543
 20
-1112.443500947682
 30
0.0
 11
-979.7084242453733
 21
-1112.443500947682
 31
0.0
  0
LINE
  5
404
102
{ACAD_REACTORS
330
4A5
330
4A6
102
}
330
71
100
AcDbEntity
  8
0
  6
Continuous
 62
     2
100
AcDbLine
 10
-982.8587439691543
 20
-1115.497310471493
 30
0.0
 11
-979.7084242453733
 21
-1115.497310471493
 31
0.0
  0
LINE
  5
405
102
{ACAD_REACTORS
330
4A5
330
4A6
102
}
330
71
100
AcDbEntity
  8
0
  6
Continuous
 62
     2
100
AcDbLine
 10
-979.7084242453733
 20
-1115.497310471493
 30
0.0
 11
-979.7084242453733
 21
-1114.799296866051
 31
0.0
  0
LINE
  5
406
102
{ACAD_REACTORS
330
4A5
330
4A6
102
}
330
71
100
AcDbEntity
  8
0
  6
Continuous
 62
     2
100
AcDbLine
 10
-979.7084242453733
 20
-1114.799296866051
 30
0.0
 11
-981.044352071801
 21
-1114.799296866051
 31
0.0
  0
LINE
  5
407
102
{ACAD_REACTORS
330
4A5
330
4A6
102
}
330
71
100
AcDbEntity
  8
0
  6
Continuous
 62
     2
100
AcDbLine
 10
-981.044352071801
 20
-1114.799296866051
 30
0.0
 11
-981.044352071801
 21
-1114.319412512309
 31
0.0
  0
LINE
  5
408
102
{ACAD_REACTORS
330
4A5
330
4A6
102
}
330
71
100
AcDbEntity
  8
0
  6
Continuous
 62
     2
100
AcDbLine
 10
-981.044352071801
 20
-1113.141514553125
 30
0.0
 11
-979.7084242453733
 21
-1113.141514553125
 31
0.0
  0
LINE
  5
409
102
{ACAD_REACTORS
330
495
330
496
102
}
330
71
100
AcDbEntity
  8
0
  6
Continuous
 62
     2
100
AcDbLine
 10
-983.5255118231925
 20
-1118.856500947668
 30
0.0
 11
-983.5255118231925
 21
-1117.547725437463
 31
0.0
  0
LINE
  5
40A
102
{ACAD_REACTORS
330
495
330
496
102
}
330
71
100
AcDbEntity
  8
0
  6
Continuous
 62
     2
100
AcDbLine
 10
-983.5255118231925
 20
-1117.547725437463
 30
0.0
 11
-982.2850074129396
 21
-1118.856500947668
 31
0.0
  0
LINE
  5
40B
102
{ACAD_REACTORS
330
495
330
496
102
}
330
71
100
AcDbEntity
  8
0
  6
Continuous
 62
     2
100
AcDbLine
 10
-981.0922147107732
 20
-1118.856500947668
 30
0.0
 11
-981.0922147107732
 21
-1115.802691423857
 31
0.0
  0
LINE
  5
40C
102
{ACAD_REACTORS
330
495
330
496
102
}
330
71
100
AcDbEntity
  8
0
  6
Continuous
 62
     2
100
AcDbLine
 10
-981.0922147107732
 20
-1115.802691423857
 30
0.0
 11
-982.2850074129396
 21
-1115.802691423857
 31
0.0
  0
LINE
  5
40D
102
{ACAD_REACTORS
330
495
330
496
102
}
330
71
100
AcDbEntity
  8
0
  6
Continuous
 62
     2
100
AcDbLine
 10
-982.2850074129396
 20
-1115.802691423857
 30
0.0
 11
-982.2850074129396
 21
-1117.111466934062
 31
0.0
  0
LINE
  5
40E
102
{ACAD_REACTORS
330
495
330
496
102
}
330
71
100
AcDbEntity
  8
0
  6
Continuous
 62
     2
100
AcDbLine
 10
-982.2850074129396
 20
-1117.111466934062
 30
0.0
 11
-983.5255118231925
 21
-1115.802691423857
 31
0.0
  0
LINE
  5
40F
102
{ACAD_REACTORS
330
497
330
498
102
}
330
71
100
AcDbEntity
  8
0
  6
Continuous
 62
     2
100
AcDbLine
 10
-978.2770730027739
 20
-1114.188534961289
 30
0.0
 11
-977.0365685925199
 21
-1115.497310471493
 31
0.0
  0
LINE
  5
410
102
{ACAD_REACTORS
330
497
330
498
102
}
330
71
100
AcDbEntity
  8
0
  6
Continuous
 62
     2
100
AcDbLine
 10
-977.0365685925199
 20
-1115.497310471493
 30
0.0
 11
-975.8437758903533
 21
-1115.497310471493
 31
0.0
  0
LINE
  5
411
102
{ACAD_REACTORS
330
497
330
498
102
}
330
71
100
AcDbEntity
  8
0
  6
Continuous
 62
     2
100
AcDbLine
 10
-975.8437758903533
 20
-1115.497310471493
 30
0.0
 11
-975.8437758903533
 21
-1112.443500947682
 31
0.0
  0
LINE
  5
412
102
{ACAD_REACTORS
330
497
330
498
102
}
330
71
100
AcDbEntity
  8
0
  6
Continuous
 62
     2
100
AcDbLine
 10
-975.8437758903533
 20
-1112.443500947682
 30
0.0
 11
-977.0365685925199
 21
-1112.443500947682
 31
0.0
  0
LINE
  5
413
102
{ACAD_REACTORS
330
497
330
498
102
}
330
71
100
AcDbEntity
  8
0
  6
Continuous
 62
     2
100
AcDbLine
 10
-977.0365685925199
 20
-1113.752276457887
 30
0.0
 11
-978.2770730027739
 21
-1112.443500947682
 31
0.0
  0
LINE
  5
414
102
{ACAD_REACTORS
330
497
330
498
102
}
330
71
100
AcDbEntity
  8
0
  6
Continuous
 62
     2
100
AcDbLine
 10
-979.4698657049404
 20
-1115.497310471493
 30
0.0
 11
-978.2770730027739
 21
-1115.497310471493
 31
0.0
  0
LINE
  5
415
102
{ACAD_REACTORS
330
499
330
49A
102
}
330
71
100
AcDbEntity
  8
0
  6
Continuous
 62
     2
100
AcDbLine
 10
-980.949079586513
 20
-1115.802691423857
 30
0.0
 11
-980.949079586513
 21
-1116.58795672998
 31
0.0
  0
LINE
  5
416
102
{ACAD_REACTORS
330
499
330
49A
102
}
330
71
100
AcDbEntity
  8
0
  6
Continuous
 62
     2
100
AcDbLine
 10
-980.1379805490384
 20
-1116.58795672998
 30
0.0
 11
-980.1379805490384
 21
-1118.856500947668
 31
0.0
  0
LINE
  5
417
102
{ACAD_REACTORS
330
499
330
49A
102
}
330
71
100
AcDbEntity
  8
0
  6
Continuous
 62
     2
100
AcDbLine
 10
-980.1379805490384
 20
-1118.856500947668
 30
0.0
 11
-978.9451878468719
 21
-1118.856500947668
 31
0.0
  0
LINE
  5
418
102
{ACAD_REACTORS
330
49B
330
49C
102
}
330
71
100
AcDbEntity
  8
0
  6
Continuous
 62
     2
100
AcDbLine
 10
-975.9956613534524
 20
-1118.856500947668
 30
0.0
 11
-976.2071414069281
 21
-1118.31554040345
 31
0.0
  0
LINE
  5
419
102
{ACAD_REACTORS
330
49B
330
49C
102
}
330
71
100
AcDbEntity
  8
0
  6
Continuous
 62
     2
100
AcDbLine
 10
-976.1531099901388
 20
-1115.802691423857
 30
0.0
 11
-974.7551569431985
 21
-1118.856500947668
 31
0.0
  0
LINE
  5
41A
102
{ACAD_REACTORS
330
49B
330
49C
102
}
330
71
100
AcDbEntity
  8
0
  6
Continuous
 62
     2
100
AcDbLine
 10
-977.3936144003915
 20
-1115.802691423857
 30
0.0
 11
-976.1531099901388
 21
-1115.802691423857
 31
0.0
  0
LINE
  5
41B
102
{ACAD_REACTORS
330
49B
330
49C
102
}
330
71
100
AcDbEntity
  8
0
  6
Continuous
 62
     2
100
AcDbLine
 10
-978.7915674473307
 20
-1118.856500947668
 30
0.0
 11
-977.5510630370778
 21
-1118.856500947668
 31
0.0
  0
LINE
  5
41C
102
{ACAD_REACTORS
330
49B
330
49C
102
}
330
71
100
AcDbEntity
  8
0
  6
Continuous
 62
     2
100
AcDbLine
 10
-977.073527432457
 20
-1117.634977138143
 30
0.0
 11
-976.4731969580745
 21
-1117.634977138143
 31
0.0
  0
LINE
  5
41D
102
{ACAD_REACTORS
330
49B
330
49C
102
}
330
71
100
AcDbEntity
  8
0
  6
Continuous
 62
     2
100
AcDbLine
 10
-976.4731969580745
 20
-1117.634977138143
 30
0.0
 11
-976.7733621952646
 21
-1116.867162172156
 31
0.0
  0
LINE
  5
41E
102
{ACAD_REACTORS
330
49D
330
49E
102
}
330
71
100
AcDbEntity
  8
0
  6
Continuous
 62
     2
100
AcDbLine
 10
-974.3647129396664
 20
-1115.497310471493
 30
0.0
 11
-975.6052173499194
 21
-1115.497310471493
 31
0.0
  0
LINE
  5
41F
102
{ACAD_REACTORS
330
49F
330
4A0
102
}
330
71
100
AcDbEntity
  8
0
  6
Continuous
 62
     2
100
AcDbLine
 10
-972.8427094517014
 20
-1115.497310471493
 30
0.0
 11
-974.2454336694495
 21
-1115.497310471493
 31
0.0
  0
LINE
  5
420
102
{ACAD_REACTORS
330
49F
330
4A0
102
}
330
71
100
AcDbEntity
  8
0
  6
Continuous
 62
     2
100
AcDbLine
 10
-972.8427094517014
 20
-1115.497310471493
 30
0.0
 11
-972.1461185136357
 21
-1114.7095786862
 31
0.0
  0
LINE
  5
421
102
{ACAD_REACTORS
330
49F
330
4A0
102
}
330
71
100
AcDbEntity
  8
0
  6
Continuous
 62
     2
100
AcDbLine
 10
-971.5449509917429
 20
-1112.443500947682
 30
0.0
 11
-970.1422267739956
 21
-1112.443500947682
 31
0.0
  0
LINE
  5
422
102
{ACAD_REACTORS
330
49F
330
4A0
102
}
330
71
100
AcDbEntity
  8
0
  6
Continuous
 62
     2
100
AcDbLine
 10
-974.1500102532768
 20
-1112.443500947682
 30
0.0
 11
-972.8474806225092
 21
-1113.916451477719
 31
0.0
  0
LINE
  5
423
102
{ACAD_REACTORS
330
49F
330
4A0
102
}
330
71
100
AcDbEntity
  8
0
  6
Continuous
 62
     2
100
AcDbLine
 10
-974.2454336694495
 20
-1115.497310471493
 30
0.0
 11
-972.8474806225092
 21
-1113.916451477719
 31
0.0
  0
LINE
  5
424
102
{ACAD_REACTORS
330
4A9
330
4AA
102
}
330
71
100
AcDbEntity
  8
0
  6
Continuous
 62
     2
100
AcDbLine
 10
-972.3846770540697
 20
-1117.809480539504
 30
0.0
 11
-972.3846770540697
 21
-1118.681997546308
 31
0.0
  0
LINE
  5
425
102
{ACAD_REACTORS
330
4A9
330
4AA
102
}
330
71
100
AcDbEntity
  8
0
  6
Continuous
 62
     2
100
AcDbLine
 10
-973.1543343970311
 20
-1116.58795672998
 30
0.0
 11
-972.050695097463
 21
-1116.58795672998
 31
0.0
  0
LINE
  5
426
102
{ACAD_REACTORS
330
4AB
330
4AC
102
}
330
71
100
AcDbEntity
  8
0
  6
Continuous
 62
     2
100
AcDbLine
 10
-988.4873785333216
 20
-1117.809480539504
 30
0.0
 11
-988.4873785333216
 21
-1118.681997546307
 31
0.0
  0
LINE
  5
427
102
{ACAD_REACTORS
330
4AB
330
4AC
102
}
330
71
100
AcDbEntity
  8
0
  6
Continuous
 62
     2
100
AcDbLine
 10
-988.4873785333216
 20
-1116.849711832021
 30
0.0
 11
-988.4873785333216
 21
-1115.977194825217
 31
0.0
  0
LINE
  5
428
330
71
100
AcDbEntity
  8
1
  6
Continuous
 62
     7
100
AcDbLine
 10
-872.6500029483377
 20
-1117.650000947684
 30
0.0
 11
-965.7948074750891
 21
-1117.650000947684
 31
0.0
  0
LINE
  5
429
330
71
100
AcDbEntity
  8
1
  6
Continuous
 62
     6
100
AcDbLine
 10
-1071.194807475089
 20
-1126.150000947684
 30
0.0
 11
-1116.150002948339
 21
-1126.150000947684
 31
0.0
  0
LINE
  5
42A
330
71
100
AcDbEntity
  8
1
  6
Continuous
 62
     7
100
AcDbLine
 10
-881.5684112300165
 20
-1100.650000947684
 30
0.0
 11
-881.5684112300165
 21
-1109.150000947684
 31
0.0
  0
LINE
  5
42B
330
71
100
AcDbEntity
  8
1
  6
Continuous
 62
     7
100
AcDbLine
 10
-908.0684112300161
 20
-1100.650000947684
 30
0.0
 11
-908.0684112300161
 21
-1109.150000947684
 31
0.0
  0
LINE
  5
42C
330
71
100
AcDbEntity
  8
1
  6
Continuous
 62
     7
100
AcDbLine
 10
-965.7948074750891
 20
-1109.150000947684
 30
0.0
 11
-965.7948074750891
 21
-1100.650000947684
 31
0.0
  0
LINE
  5
42D
330
71
100
AcDbEntity
  8
1
  6
Continuous
 62
     7
100
AcDbLine
 10
-1002.194807475089
 20
-1109.150000947684
 30
0.0
 11
-1002.194807475089
 21
-1100.650000947684
 31
0.0
  0
LINE
  5
42E
330
71
100
AcDbEntity
  8
1
  6
Continuous
 62
     6
100
AcDbLine
 10
-965.7948074750891
 20
-1109.150000947684
 30
0.0
 11
-872.6500029483373
 21
-1109.150000947684
 31
0.0
  0
LINE
  5
42F
330
71
100
AcDbEntity
  8
1
  6
Continuous
 62
     7
100
AcDbLine
 10
-937.894807475089
 20
-1117.650000947684
 30
0.0
 11
-937.894807475089
 21
-1109.150000947684
 31
0.0
  0
LINE
  5
430
330
71
100
AcDbEntity
  8
1
  6
PHANTOM
 62
     2
100
AcDbLine
 10
-986.7081525885264
 20
-1105.025000947684
 30
0.0
 11
-992.2081525885264
 21
-1105.025000947684
 31
0.0
  0
LINE
  5
431
330
71
100
AcDbEntity
  8
1
  6
PHANTOM
 62
     2
100
AcDbLine
 10
-989.4581525885264
 20
-1102.275000947684
 30
0.0
 11
-989.4581525885264
 21
-1107.775000947684
 31
0.0
  0
LINE
  5
432
330
71
100
AcDbEntity
  8
1
  6
DOT_CENTER
 62
     2
100
AcDbLine
 10
-998.2081525885264
 20
-1105.025000947684
 30
0.0
 11
-992.7081525885264
 21
-1105.025000947684
 31
0.0
  0
ARC
  5
433
102
{ACAD_REACTORS
330
4AB
330
4AC
102
}
330
71
100
AcDbEntity
  8
0
  6
Continuous
 62
     2
100
AcDbCircle
 10
-989.8233064504394
 20
-1120.642277131018
 30
0.0
 40
4.852596863498158
100
AcDbArc
 50
74.02000874164733
 51
84.8418552303745
  0
ARC
  5
434
102
{ACAD_REACTORS
330
4AB
330
4AC
102
}
330
71
100
AcDbEntity
  8
0
  6
Continuous
 62
     2
100
AcDbCircle
 10
-989.2472658416857
 20
-1117.486516775134
 30
0.0
 40
0.9059297849858261
100
AcDbArc
 50
71.5519238818603
 51
113.3722778881271
  0
ARC
  5
435
102
{ACAD_REACTORS
330
4AB
330
4AC
102
}
330
71
100
AcDbEntity
  8
0
  6
Continuous
 62
     2
100
AcDbCircle
 10
-989.4037058743877
 20
-1117.534667615101
 30
0.0
 40
0.5115800601949912
100
AcDbArc
 50
208.5214732577276
 51
246.6277221118278
  0
ARC
  5
436
102
{ACAD_REACTORS
330
4AB
330
4AC
102
}
330
71
100
AcDbEntity
  8
0
  6
Continuous
 62
     2
100
AcDbCircle
 10
-989.2472658416857
 20
-1117.172675596391
 30
0.0
 40
0.9059297849848444
100
AcDbArc
 50
246.6277221118729
 51
288.4480761181624
  0
ARC
  5
437
102
{ACAD_REACTORS
330
4AB
330
4AC
102
}
330
71
100
AcDbEntity
  8
0
  6
Continuous
 62
     2
100
AcDbCircle
 10
-989.6654335753465
 20
-1115.919129820354
 30
0.0
 40
2.227384008972396
100
AcDbArc
 50
288.4480761181364
 51
301.9309089499596
  0
ARC
  5
438
102
{ACAD_REACTORS
330
4A7
330
4A8
102
}
330
71
100
AcDbEntity
  8
0
  6
Continuous
 62
     2
100
AcDbCircle
 10
-994.8905073079533
 20
-1115.18662779144
 30
0.0
 40
0.9118481501445116
100
AcDbArc
 50
295.374008678171
 51
64.62599132180456
  0
ARC
  5
439
102
{ACAD_REACTORS
330
4A7
330
4A8
102
}
330
71
100
AcDbEntity
  8
0
  6
Continuous
 62
     2
100
AcDbCircle
 10
-994.3644646098654
 20
-1113.471950902965
 30
0.0
 40
0.3157169230762415
100
AcDbArc
 50
90.18896704254068
 51
180.0
  0
ARC
  5
43A
102
{ACAD_REACTORS
330
4A9
330
4AA
102
}
330
71
100
AcDbEntity
  8
0
  6
Continuous
 62
     2
100
AcDbCircle
 10
-973.1543343970311
 20
-1117.542479736806
 30
0.0
 40
0.9545230068258661
100
AcDbArc
 50
90.0
 51
109.3371432194401
  0
ARC
  5
43B
102
{ACAD_REACTORS
330
4A9
330
4AA
102
}
330
71
100
AcDbEntity
  8
0
  6
Continuous
 62
     2
100
AcDbCircle
 10
-972.9236471370534
 20
-1117.329596185763
 30
0.0
 40
0.9410597353353108
100
AcDbArc
 50
151.4785267423192
 51
208.5214732576322
  0
ARC
  5
43C
102
{ACAD_REACTORS
330
4A9
330
4AA
102
}
330
71
100
AcDbEntity
  8
0
  6
Continuous
 62
     2
100
AcDbCircle
 10
-973.1445643624317
 20
-1117.172675596391
 30
0.0
 40
0.9059297849852503
100
AcDbArc
 50
246.6277221118135
 51
288.4480761180715
  0
ARC
  5
43D
102
{ACAD_REACTORS
330
4A9
330
4AA
102
}
330
71
100
AcDbEntity
  8
0
  6
Continuous
 62
     2
100
AcDbCircle
 10
-973.5627320960936
 20
-1115.919129820354
 30
0.0
 40
2.227384008973474
100
AcDbArc
 50
288.4480761181272
 51
301.9309089499373
  0
ARC
  5
43E
102
{ACAD_REACTORS
330
4A9
330
4AA
102
}
330
71
100
AcDbEntity
  8
0
  6
Continuous
 62
     2
100
AcDbCircle
 10
-973.7206049711864
 20
-1114.016915240506
 30
0.0
 40
4.852596863498941
100
AcDbArc
 50
275.1581447696365
 51
285.9799912583368
  0
ARC
  5
43F
102
{ACAD_REACTORS
330
4A9
330
4AA
102
}
330
71
100
AcDbEntity
  8
0
  6
Continuous
 62
     2
100
AcDbCircle
 10
-973.4317488764506
 20
-1117.216805823728
 30
0.0
 40
1.639695123940421
100
AcDbArc
 50
195.0618917771015
 51
275.1581447696781
  0
ARC
  5
440
102
{ACAD_REACTORS
330
4A1
330
4A2
102
}
330
71
100
AcDbEntity
  8
0
  6
Continuous
 62
     2
100
AcDbCircle
 10
-989.1599621881417
 20
-1113.498866589016
 30
0.0
 40
1.055365641333992
100
AcDbArc
 50
270.0
 51
90.0
  0
ARC
  5
441
102
{ACAD_REACTORS
330
4A7
330
4A8
102
}
330
71
100
AcDbEntity
  8
0
  6
Continuous
 62
     2
100
AcDbCircle
 10
-996.9400132963971
 20
-1117.828228469034
 30
0.0
 40
0.3157169230756836
100
AcDbArc
 50
180.0
 51
270.0
  0
ARC
  5
442
102
{ACAD_REACTORS
330
4A7
330
4A8
102
}
330
71
100
AcDbEntity
  8
0
  6
Continuous
 62
     2
100
AcDbCircle
 10
-995.4641800353875
 20
-1113.471773426317
 30
0.0
 40
0.315716923076593
100
AcDbArc
 50
0.0
 51
90.0
  0
ARC
  5
443
102
{ACAD_REACTORS
330
4A7
330
4A8
102
}
330
71
100
AcDbEntity
  8
0
  6
Continuous
 62
     2
100
AcDbCircle
 10
-995.4641800353875
 20
-1114.075798045378
 30
0.0
 40
0.3157169230754516
100
AcDbArc
 50
295.1944106485968
 51
0.0
  0
ARC
  5
444
102
{ACAD_REACTORS
330
4A7
330
4A8
102
}
330
71
100
AcDbEntity
  8
0
  6
Continuous
 62
     2
100
AcDbCircle
 10
-995.4641800353875
 20
-1117.828228469034
 30
0.0
 40
0.3157169230769341
100
AcDbArc
 50
270.0
 51
0.0
  0
ARC
  5
445
102
{ACAD_REACTORS
330
4A7
330
4A8
102
}
330
71
100
AcDbEntity
  8
0
  6
Continuous
 62
     2
100
AcDbCircle
 10
-997.5339079731436
 20
-1112.867745563084
 30
0.0
 40
0.4242446153841684
100
AcDbArc
 50
90.0
 51
180.0
  0
ARC
  5
446
102
{ACAD_REACTORS
330
4A7
330
4A8
102
}
330
71
100
AcDbEntity
  8
0
  6
Continuous
 62
     2
100
AcDbCircle
 10
-992.0605958824268
 20
-1112.867745563084
 30
0.0
 40
0.424244615383941
100
AcDbArc
 50
0.0
 51
90.0
  0
ARC
  5
447
102
{ACAD_REACTORS
330
4A7
330
4A8
102
}
330
71
100
AcDbEntity
  8
0
  6
Continuous
 62
     2
100
AcDbCircle
 10
-992.0605958824268
 20
-1118.432256332284
 30
0.0
 40
0.4242446153841684
100
AcDbArc
 50
270.0
 51
0.0
  0
ARC
  5
448
102
{ACAD_REACTORS
330
4A5
330
4A6
102
}
330
71
100
AcDbEntity
  8
0
  6
Continuous
 62
     2
100
AcDbCircle
 10
-982.8422119953352
 20
-1113.970405709588
 30
0.0
 40
0.7717997786796852
100
AcDbArc
 50
321.8795802028358
 51
38.12041979716419
  0
ARC
  5
449
102
{ACAD_REACTORS
330
4A5
330
4A6
102
}
330
71
100
AcDbEntity
  8
0
  6
Continuous
 62
     2
100
AcDbCircle
 10
-982.6424719589891
 20
-1114.127136887709
 30
0.0
 40
0.5179085730131915
100
AcDbArc
 50
218.1204197971165
 51
321.8795802028913
  0
ARC
  5
44A
102
{ACAD_REACTORS
330
4A3
330
4A4
102
}
330
71
100
AcDbEntity
  8
0
  6
Continuous
 62
     2
100
AcDbCircle
 10
-986.3224795479493
 20
-1117.329596185763
 30
0.0
 40
1.458034083651714
100
AcDbArc
 50
297.5481481757107
 51
62.4518518243058
  0
ARC
  5
44B
102
{ACAD_REACTORS
330
4A3
330
4A4
102
}
330
71
100
AcDbEntity
  8
0
  6
Continuous
 62
     2
100
AcDbCircle
 10
-986.8843593316159
 20
-1117.329596185763
 30
0.0
 40
1.458034083651943
100
AcDbArc
 50
117.5481481756506
 51
242.4518518243328
  0
ARC
  5
44C
102
{ACAD_REACTORS
330
4A3
330
4A4
102
}
330
71
100
AcDbEntity
  8
0
  6
Continuous
 62
     2
100
AcDbCircle
 10
-986.6034194397826
 20
-1117.868171196065
 30
0.0
 40
2.065479772208441
100
AcDbArc
 50
62.45185182430455
 51
117.5481481756675
  0
ARC
  5
44D
102
{ACAD_REACTORS
330
4A3
330
4A4
102
}
330
71
100
AcDbEntity
  8
0
  6
Continuous
 62
     2
100
AcDbCircle
 10
-986.6034194397826
 20
-1116.791021175459
 30
0.0
 40
2.065479772208722
100
AcDbArc
 50
242.4518518243441
 51
297.5481481756838
  0
ARC
  5
44E
102
{ACAD_REACTORS
330
4A5
330
4A6
102
}
330
71
100
AcDbEntity
  8
0
  6
Continuous
 62
     2
100
AcDbCircle
 10
-982.4427319226428
 20
-1113.970405709588
 30
0.0
 40
0.7717997786796852
100
AcDbArc
 50
141.8795802028358
 51
218.1204197971642
  0
ARC
  5
44F
102
{ACAD_REACTORS
330
4A5
330
4A6
102
}
330
71
100
AcDbEntity
  8
0
  6
Continuous
 62
     2
100
AcDbCircle
 10
-982.6424719589891
 20
-1113.813674531468
 30
0.0
 40
0.5179085730138424
100
AcDbArc
 50
38.12041979718787
 51
141.8795802028044
  0
ARC
  5
450
102
{ACAD_REACTORS
330
4A7
330
4A8
102
}
330
71
100
AcDbEntity
  8
0
  6
Continuous
 62
     2
100
AcDbCircle
 10
-997.5339079731436
 20
-1118.432256332284
 30
0.0
 40
0.4242446153828041
100
AcDbArc
 50
180.0
 51
270.0
  0
ARC
  5
451
102
{ACAD_REACTORS
330
4A7
330
4A8
102
}
330
71
100
AcDbEntity
  8
0
  6
Continuous
 62
     2
100
AcDbCircle
 10
-995.4641800353875
 20
-1116.297457537502
 30
0.0
 40
0.315716923076593
100
AcDbArc
 50
0.0
 51
64.80558935140319
  0
ARC
  5
452
102
{ACAD_REACTORS
330
4A7
330
4A8
102
}
330
71
100
AcDbEntity
  8
0
  6
Continuous
 62
     2
100
AcDbCircle
 10
-994.9415955878125
 20
-1115.18662779144
 30
0.0
 40
0.9118975235582183
100
AcDbArc
 50
115.1944106485124
 51
244.8055893514816
  0
ARC
  5
453
102
{ACAD_REACTORS
330
4A7
330
4A8
102
}
330
71
100
AcDbEntity
  8
0
  6
Continuous
 62
     2
100
AcDbCircle
 10
-996.9400132963971
 20
-1113.471773426317
 30
0.0
 40
0.3157169230760246
100
AcDbArc
 50
90.0
 51
180.0
  0
ARC
  5
454
102
{ACAD_REACTORS
330
4A1
330
4A2
102
}
330
71
100
AcDbEntity
  8
0
  6
Continuous
 62
     2
100
AcDbCircle
 10
-989.60143471438
 20
-1113.459470617793
 30
0.0
 40
0.352863824672113
100
AcDbArc
 50
270.0
 51
90.0
  0
ARC
  5
455
102
{ACAD_REACTORS
330
4A5
330
4A6
102
}
330
71
100
AcDbEntity
  8
0
  6
Continuous
 62
     2
100
AcDbCircle
 10
-982.8587439691543
 20
-1113.970405709588
 30
0.0
 40
1.526904761906053
100
AcDbArc
 50
90.0
 51
270.0
  0
ARC
  5
456
102
{ACAD_REACTORS
330
4A9
330
4AA
102
}
330
71
100
AcDbEntity
  8
0
  6
Continuous
 62
     2
100
AcDbCircle
 10
-973.4317488764506
 20
-1117.442386547797
 30
0.0
 40
1.639695123940101
100
AcDbArc
 50
90.0
 51
164.9381082228985
  0
ARC
  5
457
102
{ACAD_REACTORS
330
4A9
330
4AA
102
}
330
71
100
AcDbEntity
  8
0
  6
Continuous
 62
     2
100
AcDbCircle
 10
-973.8508767199122
 20
-1117.329596185763
 30
0.0
 40
1.205656168393139
100
AcDbArc
 50
164.9381082228682
 51
195.0618917770901
  0
ARC
  5
458
102
{ACAD_REACTORS
330
4A9
330
4AA
102
}
330
71
100
AcDbEntity
  8
0
  6
Continuous
 62
     2
100
AcDbCircle
 10
-973.3010043951348
 20
-1117.534667615101
 30
0.0
 40
0.5115800601959901
100
AcDbArc
 50
208.5214732576668
 51
246.6277221118395
  0
ARC
  5
459
102
{ACAD_REACTORS
330
4A9
330
4AA
102
}
330
71
100
AcDbEntity
  8
0
  6
Continuous
 62
     2
100
AcDbCircle
 10
-973.3010043951348
 20
-1117.124524756423
 30
0.0
 40
0.5115800601937612
100
AcDbArc
 50
109.3371432195076
 51
151.4785267424451
  0
ARC
  5
45A
102
{ACAD_REACTORS
330
4A7
330
4A8
102
}
330
71
100
AcDbEntity
  8
0
  6
Continuous
 62
     2
100
AcDbCircle
 10
-994.3644646098654
 20
-1116.877620798103
 30
0.0
 40
0.3157169230768204
100
AcDbArc
 50
180.0
 51
269.8110329574592
  0
ARC
  5
45B
102
{ACAD_REACTORS
330
4A7
330
4A8
102
}
330
71
100
AcDbEntity
  8
0
  6
Continuous
 62
     2
100
AcDbCircle
 10
-994.3588484745553
 20
-1115.174785850534
 30
0.0
 40
2.018561131933152
100
AcDbArc
 50
269.8110329575842
 51
90.18896704241578
  0
ARC
  5
45C
102
{ACAD_REACTORS
330
4A7
330
4A8
102
}
330
71
100
AcDbEntity
  8
0
  6
Continuous
 62
     2
100
AcDbCircle
 10
-994.3644646098654
 20
-1114.077486191472
 30
0.0
 40
0.3157169230768204
100
AcDbArc
 50
180.0
 51
244.6259913216833
  0
ARC
  5
45D
102
{ACAD_REACTORS
330
4A7
330
4A8
102
}
330
71
100
AcDbEntity
  8
0
  6
Continuous
 62
     2
100
AcDbCircle
 10
-994.3644646098654
 20
-1116.295769391408
 30
0.0
 40
0.31571692307598
100
AcDbArc
 50
115.3740086784051
 51
180.0
  0
ARC
  5
45E
102
{ACAD_REACTORS
330
4AB
330
4AC
102
}
330
71
100
AcDbEntity
  8
0
  6
Continuous
 62
     2
100
AcDbCircle
 10
-989.5344503557035
 20
-1117.442386547797
 30
0.0
 40
1.639695123940224
100
AcDbArc
 50
84.84185523036146
 51
164.9381082228903
  0
ARC
  5
45F
102
{ACAD_REACTORS
330
4AB
330
4AC
102
}
330
71
100
AcDbEntity
  8
0
  6
Continuous
 62
     2
100
AcDbCircle
 10
-989.9535781991663
 20
-1117.329596185763
 30
0.0
 40
1.205656168391164
100
AcDbArc
 50
164.9381082228429
 51
195.0618917770736
  0
ARC
  5
460
102
{ACAD_REACTORS
330
4AB
330
4AC
102
}
330
71
100
AcDbEntity
  8
0
  6
Continuous
 62
     2
100
AcDbCircle
 10
-989.5344503557035
 20
-1117.216805823728
 30
0.0
 40
1.639695123939306
100
AcDbArc
 50
195.061891777079
 51
275.1581447696414
  0
ARC
  5
461
102
{ACAD_REACTORS
330
4AB
330
4AC
102
}
330
71
100
AcDbEntity
  8
0
  6
Continuous
 62
     2
100
AcDbCircle
 10
-989.8233064504394
 20
-1114.016915240506
 30
0.0
 40
4.852596863497943
100
AcDbArc
 50
275.1581447696255
 51
285.9799912583526
  0
ARC
  5
462
102
{ACAD_REACTORS
330
4AB
330
4AC
102
}
330
71
100
AcDbEntity
  8
0
  6
Continuous
 62
     2
100
AcDbCircle
 10
-989.0263486163074
 20
-1117.329596185763
 30
0.0
 40
0.941059735333413
100
AcDbArc
 50
151.4785267422564
 51
208.521473257695
  0
ARC
  5
463
102
{ACAD_REACTORS
330
4AB
330
4AC
102
}
330
71
100
AcDbEntity
  8
0
  6
Continuous
 62
     2
100
AcDbCircle
 10
-989.4037058743877
 20
-1117.124524756423
 30
0.0
 40
0.5115800601943187
100
AcDbArc
 50
113.3722778882227
 51
151.4785267423843
  0
ARC
  5
464
102
{ACAD_REACTORS
330
4AB
330
4AC
102
}
330
71
100
AcDbEntity
  8
0
  6
Continuous
 62
     2
100
AcDbCircle
 10
-989.6654335753465
 20
-1118.740062551171
 30
0.0
 40
2.227384008973453
100
AcDbArc
 50
58.06909105004033
 51
71.55192388187278
  0
ARC
  5
465
102
{ACAD_REACTORS
330
4A3
330
4A4
102
}
330
71
100
AcDbEntity
  8
0
  6
Continuous
 62
     2
100
AcDbCircle
 10
-986.6034194397826
 20
-1117.172865007642
 30
0.0
 40
0.517908573013102
100
AcDbArc
 50
38.12041979712424
 51
141.8795802028835
  0
ARC
  5
466
102
{ACAD_REACTORS
330
4A3
330
4A4
102
}
330
71
100
AcDbEntity
  8
0
  6
Continuous
 62
     2
100
AcDbCircle
 10
-986.4036794034365
 20
-1117.329596185763
 30
0.0
 40
0.7717997786795062
100
AcDbArc
 50
141.8795802028254
 51
218.1204197971215
  0
ARC
  5
467
102
{ACAD_REACTORS
330
4A3
330
4A4
102
}
330
71
100
AcDbEntity
  8
0
  6
Continuous
 62
     2
100
AcDbCircle
 10
-986.6034194397826
 20
-1117.486327363883
 30
0.0
 40
0.5179085730131915
100
AcDbArc
 50
218.1204197971165
 51
321.8795802028758
  0
ARC
  5
468
102
{ACAD_REACTORS
330
4A3
330
4A4
102
}
330
71
100
AcDbEntity
  8
0
  6
Continuous
 62
     2
100
AcDbCircle
 10
-986.8031594761289
 20
-1117.329596185763
 30
0.0
 40
0.7717997786791236
100
AcDbArc
 50
321.879580202889
 51
38.12041979716419
  0
CIRCLE
  5
469
330
71
100
AcDbEntity
  8
1
  6
Continuous
 62
     2
100
AcDbCircle
 10
-989.4581525885264
 20
-1105.025000947684
 30
0.0
 40
2.5
  0
CIRCLE
  5
46A
330
71
100
AcDbEntity
  8
1
  6
Continuous
 62
     2
100
AcDbCircle
 10
-989.4581525885264
 20
-1105.025000947684
 30
0.0
 40
1.25
  0
CIRCLE
  5
46B
102
{ACAD_REACTORS
330
4A7
330
4A8
102
}
330
71
100
AcDbEntity
  8
0
  6
Continuous
 62
     2
100
AcDbCircle
 10
-994.914322322626
 20
-1115.18662779144
 30
0.0
 40
0.4709789327785074
  0
MTEXT
  5
46C
330
71
100
AcDbEntity
  8
1
 62
     3
100
AcDbMText
 10
-1159.644935162267
 20
-939.3586927923852
 30
0.0
 40
1.8
 41
0.0
 71
     7
 72
     1
  3
Weitergabe sowie Vervielf\U+00e4ltigung dieses Dokuments, Verwertung und \PMitteilung seines Inhalts sind verboten, soweit nicht ausdr\U+00fccklich gestattet. \PZuwiderhandlungen verpflichten zu Schadenersatz. Alle Rechte f\U+00fcr den Fall\Pder Pat
  1
ent-, Gebrauchsmuster- oder Designeintragung vorbehalten.
  7
CONVERTER_11
 73
     1
 44
0.99639855942377
  0
MTEXT
  5
46D
330
71
100
AcDbEntity
  8
1
 62
     3
100
AcDbMText
 10
-976.7918253234791
 20
-939.3586927923852
 30
0.0
 40
1.8
 41
0.0
 71
     7
 72
     1
  3
Transfer or duplication of this document as well as the utilisation or\Pcommunication of its content are not permitted unless express consent\Pis granted. Violations give rise to claims for damages. All rights reserved\Pin case of patent, utility mo
  1
del or design patent registrations.
  7
CONVERTER_11
 73
     1
 44
0.99639855942377
  0
TEXT
  5
46E
330
71
100
AcDbEntity
  8
1
 62
     2
100
AcDbText
 10
-982.9948074750891
 20
-1124.909018162676
 30
0.0
 40
1.8
  1
of
 41
0.9
  7
CONVERTER_11
100
AcDbText
  0
TEXT
  5
46F
330
71
100
AcDbEntity
  8
1
 62
     2
100
AcDbText
 10
-1001.194807475089
 20
-1124.909018162676
 30
0.0
 40
1.8
  1
page
 41
0.9
  7
CONVERTER_11
100
AcDbText
  0
TEXT
  5
470
330
71
100
AcDbEntity
  8
1
 62
     2
100
AcDbText
 10
-992.548542504747
 20
-1124.949249601486
 30
0.0
 40
1.8
  1
1
 41
0.9
  7
CONVERTER_11
100
AcDbText
  0
TEXT
  5
471
330
71
100
AcDbEntity
  8
1
 62
     2
100
AcDbText
 10
-977.7594986652755
 20
-1124.900000947684
 30
0.0
 40
1.8
  1
1
 41
0.9
  7
CONVERTER_11
100
AcDbText
  0
MTEXT
  5
473
330
71
100
AcDbEntity
  8
1
 62
     7
100
AcDbMText
 10
-919.2224052117135
 20
-1122.900000947684
 30
0.0
 40
3.0
 41
0.0
 71
     5
 72
     1
  1
UK 5 N-MT
  7
CONVERTER_12
 73
     1
 44
1.20048019207683
  0
MTEXT
  5
474
330
71
100
AcDbEntity
  8
1
 62
     2
100
AcDbMText
 10
-964.7948074750891
 20
-1118.650000947684
 30
0.0
 40
1.8
 41
0.0
 71
     1
 72
     1
  1
description
  7
CONVERTER_11
 73
     1
 44
1.20048019207683
  0
MTEXT
  5
475
330
71
100
AcDbEntity
  8
1
 62
     3
100
AcDbMText
 10
-975.9948074750891
 20
-1105.025000947684
 30
0.0
 40
2.5
 41
0.0
 71
     5
 72
     1
  1
DIN A4
  7
CONVERTER_11
 73
     1
 44
1.20048019207683
  0
MTEXT
  5
476
330
71
100
AcDbEntity
  8
1
 62
     7
100
AcDbMText
 10
-1162.150002948338
 20
-1103.650000947684
 30
0.0
 40
3.5
 41
0.0
 71
     5
 72
     1
  1
D
  7
CONVERTER_11
 73
     1
 44
1.20048019207683
  0
MTEXT
  5
477
330
71
100
AcDbEntity
  8
1
 62
     7
100
AcDbMText
 10
-1162.150002948338
 20
-1051.150000947684
 30
0.0
 40
3.5
 41
0.0
 71
     5
 72
     1
  1
C
  7
CONVERTER_11
 73
     1
 44
1.20048019207683
  0
MTEXT
  5
478
330
71
100
AcDbEntity
  8
1
 62
     7
100
AcDbMText
 10
-1162.150002948338
 20
-1001.150000947684
 30
0.0
 40
3.5
 41
0.0
 71
     5
 72
     1
  1
B
  7
CONVERTER_11
 73
     1
 44
1.20048019207683
  0
MTEXT
  5
479
330
71
100
AcDbEntity
  8
1
 62
     7
100
AcDbMText
 10
-1162.150002948338
 20
-948.650000947684
 30
0.0
 40
3.5
 41
0.0
 71
     5
 72
     1
  1
A
  7
CONVERTER_11
 73
     1
 44
1.20048019207683
  0
MTEXT
  5
47A
330
71
100
AcDbEntity
  8
1
 62
     7
100
AcDbMText
 10
-891.9000029483398
 20
-1128.650000947684
 30
0.0
 40
3.5
 41
0.0
 71
     5
 72
     1
  1
6
  7
CONVERTER_11
 73
     1
 44
1.20048019207683
  0
MTEXT
  5
47B
330
71
100
AcDbEntity
  8
1
 62
     7
100
AcDbMText
 10
-941.150002948339
 20
-1128.650000947684
 30
0.0
 40
3.5
 41
0.0
 71
     5
 72
     1
  1
5
  7
CONVERTER_11
 73
     1
 44
1.20048019207683
  0
MTEXT
  5
47C
330
71
100
AcDbEntity
  8
1
 62
     7
100
AcDbMText
 10
-991.1500029483391
 20
-1128.650000947684
 30
0.0
 40
3.5
 41
0.0
 71
     5
 72
     1
  1
4
  7
CONVERTER_11
 73
     1
 44
1.20048019207683
  0
MTEXT
  5
47D
330
71
100
AcDbEntity
  8
1
 62
     7
100
AcDbMText
 10
-1041.150002948339
 20
-1128.650000947684
 30
0.0
 40
3.5
 41
0.0
 71
     5
 72
     1
  1
3
  7
CONVERTER_11
 73
     1
 44
1.20048019207683
  0
MTEXT
  5
47E
330
71
100
AcDbEntity
  8
1
 62
     7
100
AcDbMText
 10
-1091.150002948339
 20
-1128.650000947684
 30
0.0
 40
3.5
 41
0.0
 71
     5
 72
     1
  1
2
  7
CONVERTER_11
 73
     1
 44
1.20048019207683
  0
MTEXT
  5
47F
330
71
100
AcDbEntity
  8
1
 62
     7
100
AcDbMText
 10
-1140.400002948339
 20
-1128.650000947684
 30
0.0
 40
3.5
 41
0.0
 71
     5
 72
     1
  1
1
  7
CONVERTER_11
 73
     1
 44
1.20048019207683
  0
MTEXT
  5
480
330
71
100
AcDbEntity
  8
1
 62
     7
100
AcDbMText
 10
-870.15000294834
 20
-1103.650000947684
 30
0.0
 40
3.5
 41
0.0
 71
     5
 72
     1
  1
D
  7
CONVERTER_11
 73
     1
 44
1.20048019207683
  0
MTEXT
  5
481
330
71
100
AcDbEntity
  8
1
 62
     7
100
AcDbMText
 10
-870.15000294834
 20
-1001.150000947682
 30
0.0
 40
3.5
 41
0.0
 71
     5
 72
     1
  1
B
  7
CONVERTER_11
 73
     1
 44
1.20048019207683
  0
MTEXT
  5
482
330
71
100
AcDbEntity
  8
1
 62
     7
100
AcDbMText
 10
-870.15000294834
 20
-948.650000947684
 30
0.0
 40
3.5
 41
0.0
 71
     5
 72
     1
  1
A
  7
CONVERTER_11
 73
     1
 44
1.20048019207683
  0
MTEXT
  5
483
330
71
100
AcDbEntity
  8
1
 62
     7
100
AcDbMText
 10
-870.15000294834
 20
-1051.150000947682
 30
0.0
 40
3.5
 41
0.0
 71
     5
 72
     1
  1
C
  7
CONVERTER_11
 73
     1
 44
1.20048019207683
  0
MTEXT
  5
484
330
71
100
AcDbEntity
  8
1
 62
     2
100
AcDbMText
 10
-1036.632822200137
 20
-1113.400000947684
 30
0.0
 40
2.0
 41
0.0
 71
     5
 72
     1
  1
General Information\P- Simplified representation\P- Document excluded from change process\P- Linear dimensions [mm]
  7
CONVERTER_11
 73
     1
 44
1.20048019207683
  0
TEXT
  5
485
330
71
100
AcDbEntity
  8
1
 62
     7
100
AcDbText
 10
-964.2948074750893
 20
-1116.350000947684
 30
0.0
 40
2.5
  1
3000563
 41
0.81
  7
CONVERTER_12
100
AcDbText
  0
MTEXT
  5
486
330
71
100
AcDbEntity
  8
1
 62
     2
100
AcDbMText
 10
-964.694807475089
 20
-1110.150000947684
 30
0.0
 40
1.8
 41
0.0
 71
     1
 72
     1
  1
ident.-No.
  7
CONVERTER_11
 73
     1
 44
1.20048019207683
  0
MTEXT
  5
487
330
71
100
AcDbEntity
  8
1
 62
     2
100
AcDbMText
 10
-880.4684112300163
 20
-1101.650000947684
 30
0.0
 40
1.8
 41
0.0
 71
     1
 72
     1
  1
scale
  7
CONVERTER_11
 73
     1
 44
1.20048019207683
  0
MTEXT
  5
489
330
71
100
AcDbEntity
  8
1
 62
     3
100
AcDbMText
 10
-877.1092070891767
 20
-1107.850000947684
 30
0.0
 40
2.5
 41
0.0
 71
     8
 72
     1
  1
1:1
  7
CONVERTER_13
 73
     1
 44
1.32052821128451
  0
TEXT
  5
48A
330
71
100
AcDbEntity
  8
1
 62
     7
100
AcDbText
 10
-964.694807475089
 20
-1107.850000947684
 30
0.0
 40
2.5
  1
01088170
 41
0.81
  7
CONVERTER_12
100
AcDbText
  0
MTEXT
  5
48C
330
71
100
AcDbEntity
  8
1
 62
     2
100
AcDbMText
 10
-964.694807475089
 20
-1101.650000947684
 30
0.0
 40
1.8
 41
0.0
 71
     1
 72
     1
  1
document-No. / RI
  7
CONVERTER_14
 73
     1
 44
1.32052821128451
  0
TEXT
  5
48D
330
71
100
AcDbEntity
  8
1
 62
     3
100
AcDbText
 10
-936.894807475089
 20
-1116.350000947684
 30
0.0
 40
2.5
  1
TECDOC 2D_Productdrawing
 41
0.81
  7
CONVERTER_12
100
AcDbText
  0
MTEXT
  5
48E
330
71
100
AcDbEntity
  8
1
 62
     2
100
AcDbMText
 10
-936.894807475089
 20
-1110.150000947684
 30
0.0
 40
1.8
 41
0.0
 71
     1
 72
     1
  1
document-type
  7
CONVERTER_11
 73
     1
 44
1.20048019207683
  0
MTEXT
  5
48F
330
71
100
AcDbEntity
  8
1
 62
     2
100
AcDbMText
 10
-907.0684112300161
 20
-1101.650000947684
 30
0.0
 40
1.8
 41
0.0
 71
     1
 72
     1
  1
date
  7
CONVERTER_11
 73
     1
 44
1.32052821128451
  0
TEXT
  5
490
330
71
100
AcDbEntity
  8
1
 62
     3
100
AcDbText
 10
-907.0684112300161
 20
-1107.850000947684
 30
0.0
 40
2.5
  1
23.01.2018
 41
0.81
  7
CONVERTER_12
100
AcDbText
  0
TEXT
  5
491
330
71
100
AcDbEntity
  8
1
 62
     7
100
AcDbText
 10
-944.6648952560332
 20
-1107.850000947684
 30
0.0
 40
2.5
  1
00
 41
0.81
  7
CONVERTER_12
100
AcDbText
  0
TEXT
  5
492
330
71
100
AcDbEntity
  8
1
 62
     7
100
AcDbText
 10
-946.8212597530752
 20
-1107.850000947684
 30
0.0
 40
2.5
  1
/
 41
0.9
  7
CONVERTER_11
100
AcDbText
  0
HATCH
  5
493
330
71
100
AcDbEntity
  8
1
  6
Continuous
 62
     2
100
AcDbHatch
 10
0.0
 20
0.0
 30
0.0
210
0.0
220
0.0
230
1.0
  2
_USER
 70
     0
 71
     1
 91
        1
 92
        1
 93
       12
 72
     1
 10
-984.5273067621279
 20
-1115.497310471493
 11
-985.7200994642943
 21
-1115.497310471493
 72
     1
 10
-985.7200994642943
 20
-1115.497310471493
 11
-985.7200994642943
 21
-1114.36303836265
 72
     1
 10
-985.7200994642943
 20
-1114.36303836265
 11
-986.7697570422017
 21
-1114.36303836265
 72
     1
 10
-986.7697570422017
 20
-1114.36303836265
 11
-986.7697570422017
 21
-1115.497310471493
 72
     1
 10
-986.7697570422017
 20
-1115.497310471493
 11
-987.9625497443684
 21
-1115.497310471493
 72
     1
 10
-987.9625497443684
 20
-1115.497310471493
 11
-987.9625497443684
 21
-1112.443500947682
 72
     1
 10
-987.9625497443684
 20
-1112.443500947682
 11
-986.7697570422017
 21
-1112.443500947682
 72
     1
 10
-986.7697570422017
 20
-1112.443500947682
 11
-986.7697570422017
 21
-1113.512334281017
 72
     1
 10
-986.7697570422017
 20
-1113.512334281017
 11
-985.7200994642943
 21
-1113.512334281017
 72
     1
 10
-985.7200994642943
 20
-1113.512334281017
 11
-985.7200994642943
 21
-1112.443500947682
 72
     1
 10
-985.7200994642943
 20
-1112.443500947682
 11
-984.5273067621279
 21
-1112.443500947682
 72
     1
 10
-984.5273067621279
 20
-1112.443500947682
 11
-984.5273067621279
 21
-1115.497310471493
 97
       12
330
400
330
401
330
3EB
330
3EA
330
3E9
330
3FD
330
3E8
330
3FE
330
3FF
330
3E7
330
3E6
330
3E5
 75
     1
 76
     0
 52
45.0
 41
0.1
 77
     0
 78
     1
 53
45.0
 43
0.0
 44
0.0
 45
-0.0707106781186548
 46
0.0707106781186548
 79
     0
 98
        1
 10
0.0
 20
0.0
  0
HATCH
  5
494
330
71
100
AcDbEntity
  8
1
  6
Continuous
 62
     2
100
AcDbHatch
 10
0.0
 20
0.0
 30
0.0
210
0.0
220
0.0
230
1.0
  2
_USER
 70
     0
 71
     1
 91
        1
 92
        1
 93
       12
 72
     1
 10
-984.5273067621279
 20
-1115.497310471493
 11
-985.7200994642943
 21
-1115.497310471493
 72
     1
 10
-985.7200994642943
 20
-1115.497310471493
 11
-985.7200994642943
 21
-1114.36303836265
 72
     1
 10
-985.7200994642943
 20
-1114.36303836265
 11
-986.7697570422017
 21
-1114.36303836265
 72
     1
 10
-986.7697570422017
 20
-1114.36303836265
 11
-986.7697570422017
 21
-1115.497310471493
 72
     1
 10
-986.7697570422017
 20
-1115.497310471493
 11
-987.9625497443684
 21
-1115.497310471493
 72
     1
 10
-987.9625497443684
 20
-1115.497310471493
 11
-987.9625497443684
 21
-1112.443500947682
 72
     1
 10
-987.9625497443684
 20
-1112.443500947682
 11
-986.7697570422017
 21
-1112.443500947682
 72
     1
 10
-986.7697570422017
 20
-1112.443500947682
 11
-986.7697570422017
 21
-1113.512334281017
 72
     1
 10
-986.7697570422017
 20
-1113.512334281017
 11
-985.7200994642943
 21
-1113.512334281017
 72
     1
 10
-985.7200994642943
 20
-1113.512334281017
 11
-985.7200994642943
 21
-1112.443500947682
 72
     1
 10
-985.7200994642943
 20
-1112.443500947682
 11
-984.5273067621279
 21
-1112.443500947682
 72
     1
 10
-984.5273067621279
 20
-1112.443500947682
 11
-984.5273067621279
 21
-1115.497310471493
 97
       12
330
400
330
401
330
3EB
330
3EA
330
3E9
330
3FD
330
3E8
330
3FE
330
3FF
330
3E7
330
3E6
330
3E5
 75
     1
 76
     0
 52
45.0
 41
0.1
 77
     0
 78
     1
 53
45.0
 43
0.0
 44
0.0
 45
-0.0707106781186548
 46
0.0707106781186548
 79
     0
 98
        1
 10
0.0
 20
0.0
  0
HATCH
  5
495
330
71
100
AcDbEntity
  8
1
  6
Continuous
 62
     2
100
AcDbHatch
 10
0.0
 20
0.0
 30
0.0
210
0.0
220
0.0
230
1.0
  2
_USER
 70
     0
 71
     1
 91
        1
 92
        1
 93
       10
 72
     1
 10
-982.2850074129396
 20
-1117.111466934062
 11
-983.5255118231925
 21
-1115.802691423857
 72
     1
 10
-983.5255118231925
 20
-1115.802691423857
 11
-984.71830452536
 21
-1115.802691423857
 72
     1
 10
-984.71830452536
 20
-1115.802691423857
 11
-984.71830452536
 21
-1118.856500947668
 72
     1
 10
-984.71830452536
 20
-1118.856500947668
 11
-983.5255118231925
 21
-1118.856500947668
 72
     1
 10
-983.5255118231925
 20
-1118.856500947668
 11
-983.5255118231925
 21
-1117.547725437463
 72
     1
 10
-983.5255118231925
 20
-1117.547725437463
 11
-982.2850074129396
 21
-1118.856500947668
 72
     1
 10
-982.2850074129396
 20
-1118.856500947668
 11
-981.0922147107732
 21
-1118.856500947668
 72
     1
 10
-981.0922147107732
 20
-1118.856500947668
 11
-981.0922147107732
 21
-1115.802691423857
 72
     1
 10
-981.0922147107732
 20
-1115.802691423857
 11
-982.2850074129396
 21
-1115.802691423857
 72
     1
 10
-982.2850074129396
 20
-1115.802691423857
 11
-982.2850074129396
 21
-1117.111466934062
 97
       10
330
40E
330
3DE
330
3DD
330
3E0
330
409
330
40A
330
3DF
330
40B
330
40C
330
40D
 75
     1
 76
     0
 52
45.0
 41
0.1
 77
     0
 78
     1
 53
45.0
 43
0.0
 44
0.0
 45
-0.0707106781186548
 46
0.0707106781186548
 79
     0
 98
        1
 10
0.0
 20
0.0
  0
HATCH
  5
496
330
71
100
AcDbEntity
  8
1
  6
Continuous
 62
     2
100
AcDbHatch
 10
0.0
 20
0.0
 30
0.0
210
0.0
220
0.0
230
1.0
  2
_USER
 70
     0
 71
     1
 91
        1
 92
        1
 93
       10
 72
     1
 10
-982.2850074129396
 20
-1117.111466934062
 11
-983.5255118231925
 21
-1115.802691423857
 72
     1
 10
-983.5255118231925
 20
-1115.802691423857
 11
-984.71830452536
 21
-1115.802691423857
 72
     1
 10
-984.71830452536
 20
-1115.802691423857
 11
-984.71830452536
 21
-1118.856500947668
 72
     1
 10
-984.71830452536
 20
-1118.856500947668
 11
-983.5255118231925
 21
-1118.856500947668
 72
     1
 10
-983.5255118231925
 20
-1118.856500947668
 11
-983.5255118231925
 21
-1117.547725437463
 72
     1
 10
-983.5255118231925
 20
-1117.547725437463
 11
-982.2850074129396
 21
-1118.856500947668
 72
     1
 10
-982.2850074129396
 20
-1118.856500947668
 11
-981.0922147107732
 21
-1118.856500947668
 72
     1
 10
-981.0922147107732
 20
-1118.856500947668
 11
-981.0922147107732
 21
-1115.802691423857
 72
     1
 10
-981.0922147107732
 20
-1115.802691423857
 11
-982.2850074129396
 21
-1115.802691423857
 72
     1
 10
-982.2850074129396
 20
-1115.802691423857
 11
-982.2850074129396
 21
-1117.111466934062
 97
       10
330
40E
330
3DE
330
3DD
330
3E0
330
409
330
40A
330
3DF
330
40B
330
40C
330
40D
 75
     1
 76
     0
 52
45.0
 41
0.1
 77
     0
 78
     1
 53
45.0
 43
0.0
 44
0.0
 45
-0.0707106781186548
 46
0.0707106781186548
 79
     0
 98
        1
 10
0.0
 20
0.0
  0
HATCH
  5
497
330
71
100
AcDbEntity
  8
1
  6
Continuous
 62
     2
100
AcDbHatch
 10
0.0
 20
0.0
 30
0.0
210
0.0
220
0.0
230
1.0
  2
_USER
 70
     0
 71
     1
 91
        1
 92
        1
 93
       10
 72
     1
 10
-977.0365685925199
 20
-1113.752276457887
 11
-978.2770730027739
 21
-1112.443500947682
 72
     1
 10
-978.2770730027739
 20
-1112.443500947682
 11
-979.4698657049404
 21
-1112.443500947682
 72
     1
 10
-979.4698657049404
 20
-1112.443500947682
 11
-979.4698657049404
 21
-1115.497310471493
 72
     1
 10
-979.4698657049404
 20
-1115.497310471493
 11
-978.2770730027739
 21
-1115.497310471493
 72
     1
 10
-978.2770730027739
 20
-1115.497310471493
 11
-978.2770730027739
 21
-1114.188534961289
 72
     1
 10
-978.2770730027739
 20
-1114.188534961289
 11
-977.0365685925199
 21
-1115.497310471493
 72
     1
 10
-977.0365685925199
 20
-1115.497310471493
 11
-975.8437758903533
 21
-1115.497310471493
 72
     1
 10
-975.8437758903533
 20
-1115.497310471493
 11
-975.8437758903533
 21
-1112.443500947682
 72
     1
 10
-975.8437758903533
 20
-1112.443500947682
 11
-977.0365685925199
 21
-1112.443500947682
 72
     1
 10
-977.0365685925199
 20
-1112.443500947682
 11
-977.0365685925199
 21
-1113.752276457887
 97
       10
330
413
330
3DB
330
3DA
330
414
330
3D9
330
40F
330
410
330
411
330
412
330
3DC
 75
     1
 76
     0
 52
45.0
 41
0.1
 77
     0
 78
     1
 53
45.0
 43
0.0
 44
0.0
 45
-0.0707106781186548
 46
0.0707106781186548
 79
     0
 98
        1
 10
0.0
 20
0.0
  0
HATCH
  5
498
330
71
100
AcDbEntity
  8
1
  6
Continuous
 62
     2
100
AcDbHatch
 10
0.0
 20
0.0
 30
0.0
210
0.0
220
0.0
230
1.0
  2
_USER
 70
     0
 71
     1
 91
        1
 92
        1
 93
       10
 72
     1
 10
-977.0365685925199
 20
-1113.752276457887
 11
-978.2770730027739
 21
-1112.443500947682
 72
     1
 10
-978.2770730027739
 20
-1112.443500947682
 11
-979.4698657049404
 21
-1112.443500947682
 72
     1
 10
-979.4698657049404
 20
-1112.443500947682
 11
-979.4698657049404
 21
-1115.497310471493
 72
     1
 10
-979.4698657049404
 20
-1115.497310471493
 11
-978.2770730027739
 21
-1115.497310471493
 72
     1
 10
-978.2770730027739
 20
-1115.497310471493
 11
-978.2770730027739
 21
-1114.188534961289
 72
     1
 10
-978.2770730027739
 20
-1114.188534961289
 11
-977.0365685925199
 21
-1115.497310471493
 72
     1
 10
-977.0365685925199
 20
-1115.497310471493
 11
-975.8437758903533
 21
-1115.497310471493
 72
     1
 10
-975.8437758903533
 20
-1115.497310471493
 11
-975.8437758903533
 21
-1112.443500947682
 72
     1
 10
-975.8437758903533
 20
-1112.443500947682
 11
-977.0365685925199
 21
-1112.443500947682
 72
     1
 10
-977.0365685925199
 20
-1112.443500947682
 11
-977.0365685925199
 21
-1113.752276457887
 97
       10
330
413
330
3DB
330
3DA
330
414
330
3D9
330
40F
330
410
330
411
330
412
330
3DC
 75
     1
 76
     0
 52
45.0
 41
0.1
 77
     0
 78
     1
 53
45.0
 43
0.0
 44
0.0
 45
-0.0707106781186548
 46
0.0707106781186548
 79
     0
 98
        1
 10
0.0
 20
0.0
  0
HATCH
  5
499
330
71
100
AcDbEntity
  8
1
  6
Continuous
 62
     2
100
AcDbHatch
 10
0.0
 20
0.0
 30
0.0
210
0.0
220
0.0
230
1.0
  2
_USER
 70
     0
 71
     1
 91
        1
 92
        1
 93
        8
 72
     1
 10
-978.1340888093994
 20
-1115.802691423857
 11
-980.949079586513
 21
-1115.802691423857
 72
     1
 10
-980.949079586513
 20
-1115.802691423857
 11
-980.949079586513
 21
-1116.58795672998
 72
     1
 10
-980.949079586513
 20
-1116.58795672998
 11
-980.1379805490384
 21
-1116.58795672998
 72
     1
 10
-980.1379805490384
 20
-1116.58795672998
 11
-980.1379805490384
 21
-1118.856500947668
 72
     1
 10
-980.1379805490384
 20
-1118.856500947668
 11
-978.9451878468719
 21
-1118.856500947668
 72
     1
 10
-978.9451878468719
 20
-1118.856500947668
 11
-978.9451878468719
 21
-1116.58795672998
 72
     1
 10
-978.9451878468719
 20
-1116.58795672998
 11
-978.1340888093994
 21
-1116.58795672998
 72
     1
 10
-978.1340888093994
 20
-1116.58795672998
 11
-978.1340888093994
 21
-1115.802691423857
 97
        8
330
3D5
330
415
330
3D4
330
416
330
417
330
3D8
330
3D7
330
3D6
 75
     1
 76
     0
 52
45.0
 41
0.1
 77
     0
 78
     1
 53
45.0
 43
0.0
 44
0.0
 45
-0.0707106781186548
 46
0.0707106781186548
 79
     0
 98
        1
 10
0.0
 20
0.0
  0
HATCH
  5
49A
330
71
100
AcDbEntity
  8
1
  6
Continuous
 62
     2
100
AcDbHatch
 10
0.0
 20
0.0
 30
0.0
210
0.0
220
0.0
230
1.0
  2
_USER
 70
     0
 71
     1
 91
        1
 92
        1
 93
        8
 72
     1
 10
-978.1340888093994
 20
-1115.802691423857
 11
-980.949079586513
 21
-1115.802691423857
 72
     1
 10
-980.949079586513
 20
-1115.802691423857
 11
-980.949079586513
 21
-1116.58795672998
 72
     1
 10
-980.949079586513
 20
-1116.58795672998
 11
-980.1379805490384
 21
-1116.58795672998
 72
     1
 10
-980.1379805490384
 20
-1116.58795672998
 11
-980.1379805490384
 21
-1118.856500947668
 72
     1
 10
-980.1379805490384
 20
-1118.856500947668
 11
-978.9451878468719
 21
-1118.856500947668
 72
     1
 10
-978.9451878468719
 20
-1118.856500947668
 11
-978.9451878468719
 21
-1116.58795672998
 72
     1
 10
-978.9451878468719
 20
-1116.58795672998
 11
-978.1340888093994
 21
-1116.58795672998
 72
     1
 10
-978.1340888093994
 20
-1116.58795672998
 11
-978.1340888093994
 21
-1115.802691423857
 97
        8
330
3D5
330
415
330
3D4
330
416
330
417
330
3D8
330
3D7
330
3D6
 75
     1
 76
     0
 52
45.0
 41
0.1
 77
     0
 78
     1
 53
45.0
 43
0.0
 44
0.0
 45
-0.0707106781186548
 46
0.0707106781186548
 79
     0
 98
        1
 10
0.0
 20
0.0
  0
HATCH
  5
49B
330
71
100
AcDbEntity
  8
1
  6
Continuous
 62
     2
100
AcDbHatch
 10
0.0
 20
0.0
 30
0.0
210
0.0
220
0.0
230
1.0
  2
_USER
 70
     0
 71
     1
 91
        2
 92
        1
 93
        8
 72
     1
 10
-975.9956613534524
 20
-1118.856500947668
 11
-976.2071414069281
 21
-1118.31554040345
 72
     1
 10
-976.2071414069281
 20
-1118.31554040345
 11
-977.339582983602
 21
-1118.31554040345
 72
     1
 10
-977.339582983602
 20
-1118.31554040345
 11
-977.5510630370778
 21
-1118.856500947668
 72
     1
 10
-977.5510630370778
 20
-1118.856500947668
 11
-978.7915674473307
 21
-1118.856500947668
 72
     1
 10
-978.7915674473307
 20
-1118.856500947668
 11
-977.3936144003915
 21
-1115.802691423857
 72
     1
 10
-977.3936144003915
 20
-1115.802691423857
 11
-976.1531099901388
 21
-1115.802691423857
 72
     1
 10
-976.1531099901388
 20
-1115.802691423857
 11
-974.7551569431985
 21
-1118.856500947668
 72
     1
 10
-974.7551569431985
 20
-1118.856500947668
 11
-975.9956613534524
 21
-1118.856500947668
 97
        8
330
419
330
41A
330
3D1
330
41B
330
3D0
330
3D3
330
418
330
3D2
 92
       16
 93
        3
 72
     1
 10
-977.073527432457
 20
-1117.634977138143
 11
-976.7733621952646
 21
-1116.867162172156
 72
     1
 10
-976.7733621952646
 20
-1116.867162172156
 11
-976.4731969580745
 21
-1117.634977138143
 72
     1
 10
-976.4731969580745
 20
-1117.634977138143
 11
-977.073527432457
 21
-1117.634977138143
 97
        3
330
3CF
330
41D
330
41C
 75
     1
 76
     0
 52
45.0
 41
0.1
 77
     0
 78
     1
 53
45.0
 43
0.0
 44
0.0
 45
-0.0707106781186548
 46
0.0707106781186548
 79
     0
 98
        1
 10
0.0
 20
0.0
  0
HATCH
  5
49C
330
71
100
AcDbEntity
  8
1
  6
Continuous
 62
     2
100
AcDbHatch
 10
0.0
 20
0.0
 30
0.0
210
0.0
220
0.0
230
1.0
  2
_USER
 70
     0
 71
     1
 91
        2
 92
        1
 93
        8
 72
     1
 10
-975.9956613534524
 20
-1118.856500947668
 11
-976.2071414069281
 21
-1118.31554040345
 72
     1
 10
-976.2071414069281
 20
-1118.31554040345
 11
-977.339582983602
 21
-1118.31554040345
 72
     1
 10
-977.339582983602
 20
-1118.31554040345
 11
-977.5510630370778
 21
-1118.856500947668
 72
     1
 10
-977.5510630370778
 20
-1118.856500947668
 11
-978.7915674473307
 21
-1118.856500947668
 72
     1
 10
-978.7915674473307
 20
-1118.856500947668
 11
-977.3936144003915
 21
-1115.802691423857
 72
     1
 10
-977.3936144003915
 20
-1115.802691423857
 11
-976.1531099901388
 21
-1115.802691423857
 72
     1
 10
-976.1531099901388
 20
-1115.802691423857
 11
-974.7551569431985
 21
-1118.856500947668
 72
     1
 10
-974.7551569431985
 20
-1118.856500947668
 11
-975.9956613534524
 21
-1118.856500947668
 97
        8
330
419
330
41A
330
3D1
330
41B
330
3D0
330
3D3
330
418
330
3D2
 92
       16
 93
        3
 72
     1
 10
-977.073527432457
 20
-1117.634977138143
 11
-976.7733621952646
 21
-1116.867162172156
 72
     1
 10
-976.7733621952646
 20
-1116.867162172156
 11
-976.4731969580745
 21
-1117.634977138143
 72
     1
 10
-976.4731969580745
 20
-1117.634977138143
 11
-977.073527432457
 21
-1117.634977138143
 97
        3
330
3CF
330
41D
330
41C
 75
     1
 76
     0
 52
45.0
 41
0.1
 77
     0
 78
     1
 53
45.0
 43
0.0
 44
0.0
 45
-0.0707106781186548
 46
0.0707106781186548
 79
     0
 98
        1
 10
0.0
 20
0.0
  0
HATCH
  5
49D
330
71
100
AcDbEntity
  8
1
  6
Continuous
 62
     2
100
AcDbHatch
 10
0.0
 20
0.0
 30
0.0
210
0.0
220
0.0
230
1.0
  2
_USER
 70
     0
 71
     1
 91
        1
 92
        1
 93
        4
 72
     1
 10
-974.3647129396664
 20
-1115.497310471493
 11
-975.6052173499194
 21
-1115.497310471493
 72
     1
 10
-975.6052173499194
 20
-1115.497310471493
 11
-975.6052173499194
 21
-1112.443500947682
 72
     1
 10
-975.6052173499194
 20
-1112.443500947682
 11
-974.3647129396664
 21
-1112.443500947682
 72
     1
 10
-974.3647129396664
 20
-1112.443500947682
 11
-974.3647129396664
 21
-1115.497310471493
 97
        4
330
3CC
330
3CE
330
41E
330
3CD
 75
     1
 76
     0
 52
45.0
 41
0.1
 77
     0
 78
     1
 53
45.0
 43
0.0
 44
0.0
 45
-0.0707106781186548
 46
0.0707106781186548
 79
     0
 98
        1
 10
0.0
 20
0.0
  0
HATCH
  5
49E
330
71
100
AcDbEntity
  8
1
  6
Continuous
 62
     2
100
AcDbHatch
 10
0.0
 20
0.0
 30
0.0
210
0.0
220
0.0
230
1.0
  2
_USER
 70
     0
 71
     1
 91
        1
 92
        1
 93
        4
 72
     1
 10
-974.3647129396664
 20
-1115.497310471493
 11
-975.6052173499194
 21
-1115.497310471493
 72
     1
 10
-975.6052173499194
 20
-1115.497310471493
 11
-975.6052173499194
 21
-1112.443500947682
 72
     1
 10
-975.6052173499194
 20
-1112.443500947682
 11
-974.3647129396664
 21
-1112.443500947682
 72
     1
 10
-974.3647129396664
 20
-1112.443500947682
 11
-974.3647129396664
 21
-1115.497310471493
 97
        4
330
3CC
330
3CE
330
41E
330
3CD
 75
     1
 76
     0
 52
45.0
 41
0.1
 77
     0
 78
     1
 53
45.0
 43
0.0
 44
0.0
 45
-0.0707106781186548
 46
0.0707106781186548
 79
     0
 98
        1
 10
0.0
 20
0.0
  0
HATCH
  5
49F
330
71
100
AcDbEntity
  8
1
  6
Continuous
 62
     2
100
AcDbHatch
 10
0.0
 20
0.0
 30
0.0
210
0.0
220
0.0
230
1.0
  2
_USER
 70
     0
 71
     1
 91
        1
 92
        1
 93
       12
 72
     1
 10
-970.1422267739956
 20
-1112.443500947682
 11
-971.4447564047622
 21
-1113.916451477719
 72
     1
 10
-971.4447564047622
 20
-1113.916451477719
 11
-970.0468033578219
 21
-1115.497310471493
 72
     1
 10
-970.0468033578219
 20
-1115.497310471493
 11
-971.4495275755702
 21
-1115.497310471493
 72
     1
 10
-971.4495275755702
 20
-1115.497310471493
 11
-972.1461185136357
 21
-1114.7095786862
 72
     1
 10
-972.1461185136357
 20
-1114.7095786862
 11
-972.8427094517014
 21
-1115.497310471493
 72
     1
 10
-972.8427094517014
 20
-1115.497310471493
 11
-974.2454336694495
 21
-1115.497310471493
 72
     1
 10
-974.2454336694495
 20
-1115.497310471493
 11
-972.8474806225092
 21
-1113.916451477719
 72
     1
 10
-972.8474806225092
 20
-1113.916451477719
 11
-974.1500102532768
 21
-1112.443500947682
 72
     1
 10
-974.1500102532768
 20
-1112.443500947682
 11
-972.7472860355275
 21
-1112.443500947682
 72
     1
 10
-972.7472860355275
 20
-1112.443500947682
 11
-972.1461185136357
 21
-1113.123324269238
 72
     1
 10
-972.1461185136357
 20
-1113.123324269238
 11
-971.5449509917429
 21
-1112.443500947682
 72
     1
 10
-971.5449509917429
 20
-1112.443500947682
 11
-970.1422267739956
 21
-1112.443500947682
 97
       12
330
3C7
330
3C6
330
3C5
330
422
330
423
330
41F
330
420
330
3CB
330
3CA
330
3C9
330
3C8
330
421
 75
     1
 76
     0
 52
45.0
 41
0.1
 77
     0
 78
     1
 53
45.0
 43
0.0
 44
0.0
 45
-0.0707106781186548
 46
0.0707106781186548
 79
     0
 98
        1
 10
0.0
 20
0.0
  0
HATCH
  5
4A0
330
71
100
AcDbEntity
  8
1
  6
Continuous
 62
     2
100
AcDbHatch
 10
0.0
 20
0.0
 30
0.0
210
0.0
220
0.0
230
1.0
  2
_USER
 70
     0
 71
     1
 91
        1
 92
        1
 93
       12
 72
     1
 10
-970.1422267739956
 20
-1112.443500947682
 11
-971.4447564047622
 21
-1113.916451477719
 72
     1
 10
-971.4447564047622
 20
-1113.916451477719
 11
-970.0468033578219
 21
-1115.497310471493
 72
     1
 10
-970.0468033578219
 20
-1115.497310471493
 11
-971.4495275755702
 21
-1115.497310471493
 72
     1
 10
-971.4495275755702
 20
-1115.497310471493
 11
-972.1461185136357
 21
-1114.7095786862
 72
     1
 10
-972.1461185136357
 20
-1114.7095786862
 11
-972.8427094517014
 21
-1115.497310471493
 72
     1
 10
-972.8427094517014
 20
-1115.497310471493
 11
-974.2454336694495
 21
-1115.497310471493
 72
     1
 10
-974.2454336694495
 20
-1115.497310471493
 11
-972.8474806225092
 21
-1113.916451477719
 72
     1
 10
-972.8474806225092
 20
-1113.916451477719
 11
-974.1500102532768
 21
-1112.443500947682
 72
     1
 10
-974.1500102532768
 20
-1112.443500947682
 11
-972.7472860355275
 21
-1112.443500947682
 72
     1
 10
-972.7472860355275
 20
-1112.443500947682
 11
-972.1461185136357
 21
-1113.123324269238
 72
     1
 10
-972.1461185136357
 20
-1113.123324269238
 11
-971.5449509917429
 21
-1112.443500947682
 72
     1
 10
-971.5449509917429
 20
-1112.443500947682
 11
-970.1422267739956
 21
-1112.443500947682
 97
       12
330
3C7
330
3C6
330
3C5
330
422
330
423
330
41F
330
420
330
3CB
330
3CA
330
3C9
330
3C8
330
421
 75
     1
 76
     0
 52
45.0
 41
0.1
 77
     0
 78
     1
 53
45.0
 43
0.0
 44
0.0
 45
-0.0707106781186548
 46
0.0707106781186548
 79
     0
 98
        1
 10
0.0
 20
0.0
  0
HATCH
  5
4A1
330
71
100
AcDbEntity
  8
1
  6
Continuous
 62
     2
100
AcDbHatch
 10
0.0
 20
0.0
 30
0.0
210
0.0
220
0.0
230
1.0
  2
_USER
 70
     0
 71
     1
 91
        2
 92
        1
 93
        6
 72
     1
 10
-989.1599621881417
 20
-1114.55423223035
 11
-989.918729775922
 21
-1114.55423223035
 72
     1
 10
-989.918729775922
 20
-1114.55423223035
 11
-989.918729775922
 21
-1115.497310471493
 72
     1
 10
-989.918729775922
 20
-1115.497310471493
 11
-991.159234186176
 21
-1115.497310471493
 72
     1
 10
-991.159234186176
 20
-1115.497310471493
 11
-991.159234186176
 21
-1112.443500947682
 72
     1
 10
-991.159234186176
 20
-1112.443500947682
 11
-989.1599621881417
 21
-1112.443500947682
 72
     2
 10
-989.1599621881417
 20
-1113.498866589016
 40
1.055365641333992
 50
270.0
 51
450.0
 73
     0
 97
        6
330
3EF
330
3EE
330
3FB
330
3FA
330
3F0
330
440
 92
       16
 93
        4
 72
     2
 10
-989.60143471438
 20
-1113.459470617793
 40
0.352863824672113
 50
270.0
 51
450.0
 73
     1
 72
     1
 10
-989.60143471438
 20
-1113.106606793122
 11
-989.918729775922
 21
-1113.106606793122
 72
     1
 10
-989.918729775922
 20
-1113.106606793122
 11
-989.918729775922
 21
-1113.812334442465
 72
     1
 10
-989.918729775922
 20
-1113.812334442465
 11
-989.60143471438
 21
-1113.812334442465
 97
        4
330
454
330
3EC
330
3FC
330
3ED
 75
     1
 76
     0
 52
45.0
 41
0.1
 77
     0
 78
     1
 53
45.0
 43
0.0
 44
0.0
 45
-0.0707106781186548
 46
0.0707106781186548
 79
     0
 98
        1
 10
0.0
 20
0.0
  0
HATCH
  5
4A2
330
71
100
AcDbEntity
  8
1
  6
Continuous
 62
     2
100
AcDbHatch
 10
0.0
 20
0.0
 30
0.0
210
0.0
220
0.0
230
1.0
  2
_USER
 70
     0
 71
     1
 91
        2
 92
        1
 93
        6
 72
     1
 10
-989.1599621881417
 20
-1114.55423223035
 11
-989.918729775922
 21
-1114.55423223035
 72
     1
 10
-989.918729775922
 20
-1114.55423223035
 11
-989.918729775922
 21
-1115.497310471493
 72
     1
 10
-989.918729775922
 20
-1115.497310471493
 11
-991.159234186176
 21
-1115.497310471493
 72
     1
 10
-991.159234186176
 20
-1115.497310471493
 11
-991.159234186176
 21
-1112.443500947682
 72
     1
 10
-991.159234186176
 20
-1112.443500947682
 11
-989.1599621881417
 21
-1112.443500947682
 72
     2
 10
-989.1599621881417
 20
-1113.498866589016
 40
1.055365641333992
 50
270.0
 51
450.0
 73
     0
 97
        6
330
3EF
330
3EE
330
3FB
330
3FA
330
3F0
330
440
 92
       16
 93
        4
 72
     2
 10
-989.60143471438
 20
-1113.459470617793
 40
0.352863824672113
 50
270.0
 51
450.0
 73
     1
 72
     1
 10
-989.60143471438
 20
-1113.106606793122
 11
-989.918729775922
 21
-1113.106606793122
 72
     1
 10
-989.918729775922
 20
-1113.106606793122
 11
-989.918729775922
 21
-1113.812334442465
 72
     1
 10
-989.918729775922
 20
-1113.812334442465
 11
-989.60143471438
 21
-1113.812334442465
 97
        4
330
454
330
3EC
330
3FC
330
3ED
 75
     1
 76
     0
 52
45.0
 41
0.1
 77
     0
 78
     1
 53
45.0
 43
0.0
 44
0.0
 45
-0.0707106781186548
 46
0.0707106781186548
 79
     0
 98
        1
 10
0.0
 20
0.0
  0
HATCH
  5
4A3
330
71
100
AcDbEntity
  8
1
  6
Continuous
 62
     2
100
AcDbHatch
 10
0.0
 20
0.0
 30
0.0
210
0.0
220
0.0
230
1.0
  2
_USER
 70
     0
 71
     1
 91
        2
 92
        1
 93
        4
 72
     2
 10
-986.6034194397826
 20
-1117.868171196065
 40
2.065479772208441
 50
62.45185182430455
 51
117.5481481756675
 73
     1
 72
     2
 10
-986.8843593316159
 20
-1117.329596185763
 40
1.458034083651943
 50
117.5481481756506
 51
242.4518518243328
 73
     1
 72
     2
 10
-986.6034194397826
 20
-1116.791021175459
 40
2.065479772208722
 50
242.4518518243441
 51
297.5481481756838
 73
     1
 72
     2
 10
-986.3224795479493
 20
-1117.329596185763
 40
1.458034083651714
 50
297.5481481757107
 51
422.4518518243058
 73
     1
 97
        4
330
44C
330
44B
330
44D
330
44A
 92
       16
 93
        4
 72
     2
 10
-986.8031594761289
 20
-1117.329596185763
 40
0.7717997786791236
 50
321.879580202889
 51
398.1204197971642
 73
     1
 72
     2
 10
-986.6034194397826
 20
-1117.172865007642
 40
0.517908573013102
 50
38.12041979712424
 51
141.8795802028835
 73
     1
 72
     2
 10
-986.4036794034365
 20
-1117.329596185763
 40
0.7717997786795062
 50
141.8795802028254
 51
218.1204197971215
 73
     1
 72
     2
 10
-986.6034194397826
 20
-1117.486327363883
 40
0.5179085730131915
 50
218.1204197971165
 51
321.8795802028758
 73
     1
 97
        4
330
468
330
465
330
466
330
467
 75
     1
 76
     0
 52
45.0
 41
0.1
 77
     0
 78
     1
 53
45.0
 43
0.0
 44
0.0
 45
-0.0707106781186548
 46
0.0707106781186548
 79
     0
 98
        1
 10
0.0
 20
0.0
  0
HATCH
  5
4A4
330
71
100
AcDbEntity
  8
1
  6
Continuous
 62
     2
100
AcDbHatch
 10
0.0
 20
0.0
 30
0.0
210
0.0
220
0.0
230
1.0
  2
_USER
 70
     0
 71
     1
 91
        2
 92
        1
 93
        4
 72
     2
 10
-986.6034194397826
 20
-1117.868171196065
 40
2.065479772208441
 50
62.45185182430455
 51
117.5481481756675
 73
     1
 72
     2
 10
-986.8843593316159
 20
-1117.329596185763
 40
1.458034083651943
 50
117.5481481756506
 51
242.4518518243328
 73
     1
 72
     2
 10
-986.6034194397826
 20
-1116.791021175459
 40
2.065479772208722
 50
242.4518518243441
 51
297.5481481756838
 73
     1
 72
     2
 10
-986.3224795479493
 20
-1117.329596185763
 40
1.458034083651714
 50
297.5481481757107
 51
422.4518518243058
 73
     1
 97
        4
330
44C
330
44B
330
44D
330
44A
 92
       16
 93
        4
 72
     2
 10
-986.8031594761289
 20
-1117.329596185763
 40
0.7717997786791236
 50
321.879580202889
 51
398.1204197971642
 73
     1
 72
     2
 10
-986.6034194397826
 20
-1117.172865007642
 40
0.517908573013102
 50
38.12041979712424
 51
141.8795802028835
 73
     1
 72
     2
 10
-986.4036794034365
 20
-1117.329596185763
 40
0.7717997786795062
 50
141.8795802028254
 51
218.1204197971215
 73
     1
 72
     2
 10
-986.6034194397826
 20
-1117.486327363883
 40
0.5179085730131915
 50
218.1204197971165
 51
321.8795802028758
 73
     1
 97
        4
330
468
330
465
330
466
330
467
 75
     1
 76
     0
 52
45.0
 41
0.1
 77
     0
 78
     1
 53
45.0
 43
0.0
 44
0.0
 45
-0.0707106781186548
 46
0.0707106781186548
 79
     0
 98
        1
 10
0.0
 20
0.0
  0
HATCH
  5
4A5
330
71
100
AcDbEntity
  8
1
  6
Continuous
 62
     2
100
AcDbHatch
 10
0.0
 20
0.0
 30
0.0
210
0.0
220
0.0
230
1.0
  2
_USER
 70
     0
 71
     1
 91
        2
 92
        1
 93
       12
 72
     1
 10
-979.7084242453733
 20
-1113.141514553125
 11
-981.044352071801
 21
-1113.141514553125
 72
     1
 10
-981.044352071801
 20
-1113.141514553125
 11
-981.044352071801
 21
-1113.621398906867
 72
     1
 10
-981.044352071801
 20
-1113.621398906867
 11
-979.7084242453733
 21
-1113.621398906867
 72
     1
 10
-979.7084242453733
 20
-1113.621398906867
 11
-979.7084242453733
 21
-1114.319412512309
 72
     1
 10
-979.7084242453733
 20
-1114.319412512309
 11
-981.044352071801
 21
-1114.319412512309
 72
     1
 10
-981.044352071801
 20
-1114.319412512309
 11
-981.044352071801
 21
-1114.799296866051
 72
     1
 10
-981.044352071801
 20
-1114.799296866051
 11
-979.7084242453733
 21
-1114.799296866051
 72
     1
 10
-979.7084242453733
 20
-1114.799296866051
 11
-979.7084242453733
 21
-1115.497310471493
 72
     1
 10
-979.7084242453733
 20
-1115.497310471493
 11
-982.8587439691543
 21
-1115.497310471493
 72
     2
 10
-982.8587439691543
 20
-1113.970405709588
 40
1.526904761906053
 50
90.0
 51
270.0
 73
     0
 72
     1
 10
-982.8587439691543
 20
-1112.443500947682
 11
-979.7084242453733
 21
-1112.443500947682
 72
     1
 10
-979.7084242453733
 20
-1112.443500947682
 11
-979.7084242453733
 21
-1113.141514553125
 97
       12
330
403
330
455
330
404
330
405
330
406
330
407
330
3E4
330
3E3
330
3E2
330
3E1
330
408
330
402
 92
       16
 93
        4
 72
     2
 10
-982.6424719589891
 20
-1113.813674531468
 40
0.5179085730138424
 50
38.12041979718787
 51
141.8795802028044
 73
     1
 72
     2
 10
-982.4427319226428
 20
-1113.970405709588
 40
0.7717997786796852
 50
141.8795802028358
 51
218.1204197971642
 73
     1
 72
     2
 10
-982.6424719589891
 20
-1114.127136887709
 40
0.5179085730131915
 50
218.1204197971165
 51
321.8795802028913
 73
     1
 72
     2
 10
-982.8422119953352
 20
-1113.970405709588
 40
0.7717997786796852
 50
321.8795802028358
 51
398.1204197971642
 73
     1
 97
        4
330
44F
330
44E
330
449
330
448
 75
     1
 76
     0
 52
45.0
 41
0.1
 77
     0
 78
     1
 53
45.0
 43
0.0
 44
0.0
 45
-0.0707106781186548
 46
0.0707106781186548
 79
     0
 98
        1
 10
0.0
 20
0.0
  0
HATCH
  5
4A6
330
71
100
AcDbEntity
  8
1
  6
Continuous
 62
     2
100
AcDbHatch
 10
0.0
 20
0.0
 30
0.0
210
0.0
220
0.0
230
1.0
  2
_USER
 70
     0
 71
     1
 91
        2
 92
        1
 93
       12
 72
     1
 10
-979.7084242453733
 20
-1113.141514553125
 11
-981.044352071801
 21
-1113.141514553125
 72
     1
 10
-981.044352071801
 20
-1113.141514553125
 11
-981.044352071801
 21
-1113.621398906867
 72
     1
 10
-981.044352071801
 20
-1113.621398906867
 11
-979.7084242453733
 21
-1113.621398906867
 72
     1
 10
-979.7084242453733
 20
-1113.621398906867
 11
-979.7084242453733
 21
-1114.319412512309
 72
     1
 10
-979.7084242453733
 20
-1114.319412512309
 11
-981.044352071801
 21
-1114.319412512309
 72
     1
 10
-981.044352071801
 20
-1114.319412512309
 11
-981.044352071801
 21
-1114.799296866051
 72
     1
 10
-981.044352071801
 20
-1114.799296866051
 11
-979.7084242453733
 21
-1114.799296866051
 72
     1
 10
-979.7084242453733
 20
-1114.799296866051
 11
-979.7084242453733
 21
-1115.497310471493
 72
     1
 10
-979.7084242453733
 20
-1115.497310471493
 11
-982.8587439691543
 21
-1115.497310471493
 72
     2
 10
-982.8587439691543
 20
-1113.970405709588
 40
1.526904761906053
 50
90.0
 51
270.0
 73
     0
 72
     1
 10
-982.8587439691543
 20
-1112.443500947682
 11
-979.7084242453733
 21
-1112.443500947682
 72
     1
 10
-979.7084242453733
 20
-1112.443500947682
 11
-979.7084242453733
 21
-1113.141514553125
 97
       12
330
403
330
455
330
404
330
405
330
406
330
407
330
3E4
330
3E3
330
3E2
330
3E1
330
408
330
402
 92
       16
 93
        4
 72
     2
 10
-982.6424719589891
 20
-1113.813674531468
 40
0.5179085730138424
 50
38.12041979718787
 51
141.8795802028044
 73
     1
 72
     2
 10
-982.4427319226428
 20
-1113.970405709588
 40
0.7717997786796852
 50
141.8795802028358
 51
218.1204197971642
 73
     1
 72
     2
 10
-982.6424719589891
 20
-1114.127136887709
 40
0.5179085730131915
 50
218.1204197971165
 51
321.8795802028913
 73
     1
 72
     2
 10
-982.8422119953352
 20
-1113.970405709588
 40
0.7717997786796852
 50
321.8795802028358
 51
398.1204197971642
 73
     1
 97
        4
330
44F
330
44E
330
449
330
448
 75
     1
 76
     0
 52
45.0
 41
0.1
 77
     0
 78
     1
 53
45.0
 43
0.0
 44
0.0
 45
-0.0707106781186548
 46
0.0707106781186548
 79
     0
 98
        1
 10
0.0
 20
0.0
  0
HATCH
  5
4A7
330
71
100
AcDbEntity
  8
1
  6
Continuous
 62
     2
100
AcDbHatch
 10
0.0
 20
0.0
 30
0.0
210
0.0
220
0.0
230
1.0
  2
_USER
 70
     0
 71
     1
 91
        4
 92
        1
 93
        8
 72
     1
 10
-991.6363512670429
 20
-1112.867745563084
 11
-991.6363512670429
 21
-1118.432256332284
 72
     2
 10
-992.0605958824268
 20
-1118.432256332284
 40
0.4242446153841684
 50
0.0
 51
90.0
 73
     0
 72
     1
 10
-992.0605958824268
 20
-1118.856500947668
 11
-997.5339079731436
 21
-1118.856500947668
 72
     2
 10
-997.5339079731436
 20
-1118.432256332284
 40
0.4242446153828041
 50
90.0
 51
180.0
 73
     0
 72
     1
 10
-997.9581525885264
 20
-1118.432256332284
 11
-997.9581525885264
 21
-1112.867745563084
 72
     2
 10
-997.5339079731436
 20
-1112.867745563084
 40
0.4242446153841684
 50
180.0
 51
270.0
 73
     0
 72
     1
 10
-997.5339079731436
 20
-1112.4435009477
 11
-992.0605958824268
 21
-1112.4435009477
 72
     2
 10
-992.0605958824268
 20
-1112.867745563084
 40
0.424244615383941
 50
270.0
 51
360.0
 73
     0
 97
        8
330
3F7
330
445
330
3F8
330
450
330
3F5
330
447
330
3F6
330
446
 92
       16
 93
        1
 72
     2
 10
-994.914322322626
 20
-1115.18662779144
 40
0.4709789327785074
 50
0.0
 51
360.0
 73
     1
 97
        1
330
46B
 92
       16
 93
        8
 72
     2
 10
-994.3644646098654
 20
-1116.295769391408
 40
0.31571692307598
 50
115.3740086784051
 51
180.0
 73
     1
 72
     1
 10
-994.6801815329422
 20
-1116.295769391408
 11
-994.6801815329422
 21
-1116.877620798103
 72
     2
 10
-994.3644646098654
 20
-1116.877620798103
 40
0.3157169230768204
 50
180.0
 51
269.8110329574592
 73
     1
 72
     2
 10
-994.3588484745553
 20
-1115.174785850534
 40
2.018561131933152
 50
269.8110329575842
 51
450.1889670424158
 73
     1
 72
     2
 10
-994.3644646098654
 20
-1113.471950902965
 40
0.3157169230762415
 50
90.18896704254068
 51
180.0
 73
     1
 72
     1
 10
-994.6801815329422
 20
-1113.471950902965
 11
-994.6801815329422
 21
-1114.077486191472
 72
     2
 10
-994.3644646098654
 20
-1114.077486191472
 40
0.3157169230768204
 50
180.0
 51
244.6259913216833
 73
     1
 72
     2
 10
-994.8905073079533
 20
-1115.18662779144
 40
0.9118481501445116
 50
295.3740086781954
 51
424.6259913218291
 73
     0
 97
        8
330
45D
330
3BE
330
45A
330
45B
330
439
330
3BD
330
45C
330
438
 92
       16
 93
       12
 72
     2
 10
-996.9400132963971
 20
-1117.828228469034
 40
0.3157169230756836
 50
180.0
 51
270.0
 73
     1
 72
     1
 10
-996.9400132963971
 20
-1118.143945392111
 11
-995.4641800353875
 21
-1118.143945392111
 72
     2
 10
-995.4641800353875
 20
-1117.828228469034
 40
0.3157169230769341
 50
270.0
 51
360.0
 73
     1
 72
     1
 10
-995.1484631123109
 20
-1117.828228469034
 11
-995.1484631123109
 21
-1116.297457537502
 72
     2
 10
-995.4641800353875
 20
-1116.297457537502
 40
0.315716923076593
 50
0.0
 51
64.80558935140319
 73
     1
 72
     2
 10
-994.9415955878125
 20
-1115.18662779144
 40
0.9118975235582183
 50
115.1944106485185
 51
244.8055893514877
 73
     0
 72
     2
 10
-995.4641800353875
 20
-1114.075798045378
 40
0.3157169230754516
 50
295.1944106485968
 51
360.0
 73
     1
 72
     1
 10
-995.1484631123109
 20
-1114.075798045378
 11
-995.1484631123109
 21
-1113.471773426317
 72
     2
 10
-995.4641800353875
 20
-1113.471773426317
 40
0.315716923076593
 50
0.0
 51
90.0
 73
     1
 72
     1
 10
-995.4641800353875
 20
-1113.156056503241
 11
-996.9400132963971
 21
-1113.156056503241
 72
     2
 10
-996.9400132963971
 20
-1113.471773426317
 40
0.3157169230760246
 50
90.0
 51
180.0
 73
     1
 72
     1
 10
-997.2557302194728
 20
-1113.471773426317
 11
-997.2557302194728
 21
-1117.828228469034
 97
       12
330
441
330
3F9
330
444
330
3F4
330
451
330
452
330
443
330
3F3
330
442
330
3F2
330
453
330
3F1
 75
     1
 76
     0
 52
45.0
 41
0.1
 77
     0
 78
     1
 53
45.0
 43
0.0
 44
0.0
 45
-0.0707106781186548
 46
0.0707106781186548
 79
     0
 98
        1
 10
0.0
 20
0.0
  0
HATCH
  5
4A8
330
71
100
AcDbEntity
  8
1
  6
Continuous
 62
     2
100
AcDbHatch
 10
0.0
 20
0.0
 30
0.0
210
0.0
220
0.0
230
1.0
  2
_USER
 70
     0
 71
     1
 91
        4
 92
        1
 93
        8
 72
     1
 10
-991.6363512670429
 20
-1112.867745563084
 11
-991.6363512670429
 21
-1118.432256332284
 72
     2
 10
-992.0605958824268
 20
-1118.432256332284
 40
0.4242446153841684
 50
0.0
 51
90.0
 73
     0
 72
     1
 10
-992.0605958824268
 20
-1118.856500947668
 11
-997.5339079731436
 21
-1118.856500947668
 72
     2
 10
-997.5339079731436
 20
-1118.432256332284
 40
0.4242446153828041
 50
90.0
 51
180.0
 73
     0
 72
     1
 10
-997.9581525885264
 20
-1118.432256332284
 11
-997.9581525885264
 21
-1112.867745563084
 72
     2
 10
-997.5339079731436
 20
-1112.867745563084
 40
0.4242446153841684
 50
180.0
 51
270.0
 73
     0
 72
     1
 10
-997.5339079731436
 20
-1112.4435009477
 11
-992.0605958824268
 21
-1112.4435009477
 72
     2
 10
-992.0605958824268
 20
-1112.867745563084
 40
0.424244615383941
 50
270.0
 51
360.0
 73
     0
 97
        8
330
3F7
330
445
330
3F8
330
450
330
3F5
330
447
330
3F6
330
446
 92
       16
 93
        1
 72
     2
 10
-994.914322322626
 20
-1115.18662779144
 40
0.4709789327785074
 50
0.0
 51
360.0
 73
     1
 97
        1
330
46B
 92
       16
 93
        8
 72
     2
 10
-994.3644646098654
 20
-1116.295769391408
 40
0.31571692307598
 50
115.3740086784051
 51
180.0
 73
     1
 72
     1
 10
-994.6801815329422
 20
-1116.295769391408
 11
-994.6801815329422
 21
-1116.877620798103
 72
     2
 10
-994.3644646098654
 20
-1116.877620798103
 40
0.3157169230768204
 50
180.0
 51
269.8110329574592
 73
     1
 72
     2
 10
-994.3588484745553
 20
-1115.174785850534
 40
2.018561131933152
 50
269.8110329575842
 51
450.1889670424158
 73
     1
 72
     2
 10
-994.3644646098654
 20
-1113.471950902965
 40
0.3157169230762415
 50
90.18896704254068
 51
180.0
 73
     1
 72
     1
 10
-994.6801815329422
 20
-1113.471950902965
 11
-994.6801815329422
 21
-1114.077486191472
 72
     2
 10
-994.3644646098654
 20
-1114.077486191472
 40
0.3157169230768204
 50
180.0
 51
244.6259913216833
 73
     1
 72
     2
 10
-994.8905073079533
 20
-1115.18662779144
 40
0.9118481501445116
 50
295.3740086781954
 51
424.6259913218291
 73
     0
 97
        8
330
45D
330
3BE
330
45A
330
45B
330
439
330
3BD
330
45C
330
438
 92
       16
 93
       12
 72
     2
 10
-996.9400132963971
 20
-1117.828228469034
 40
0.3157169230756836
 50
180.0
 51
270.0
 73
     1
 72
     1
 10
-996.9400132963971
 20
-1118.143945392111
 11
-995.4641800353875
 21
-1118.143945392111
 72
     2
 10
-995.4641800353875
 20
-1117.828228469034
 40
0.3157169230769341
 50
270.0
 51
360.0
 73
     1
 72
     1
 10
-995.1484631123109
 20
-1117.828228469034
 11
-995.1484631123109
 21
-1116.297457537502
 72
     2
 10
-995.4641800353875
 20
-1116.297457537502
 40
0.315716923076593
 50
0.0
 51
64.80558935140319
 73
     1
 72
     2
 10
-994.9415955878125
 20
-1115.18662779144
 40
0.9118975235582183
 50
115.1944106485185
 51
244.8055893514877
 73
     0
 72
     2
 10
-995.4641800353875
 20
-1114.075798045378
 40
0.3157169230754516
 50
295.1944106485968
 51
360.0
 73
     1
 72
     1
 10
-995.1484631123109
 20
-1114.075798045378
 11
-995.1484631123109
 21
-1113.471773426317
 72
     2
 10
-995.4641800353875
 20
-1113.471773426317
 40
0.315716923076593
 50
0.0
 51
90.0
 73
     1
 72
     1
 10
-995.4641800353875
 20
-1113.156056503241
 11
-996.9400132963971
 21
-1113.156056503241
 72
     2
 10
-996.9400132963971
 20
-1113.471773426317
 40
0.3157169230760246
 50
90.0
 51
180.0
 73
     1
 72
     1
 10
-997.2557302194728
 20
-1113.471773426317
 11
-997.2557302194728
 21
-1117.828228469034
 97
       12
330
441
330
3F9
330
444
330
3F4
330
451
330
452
330
443
330
3F3
330
442
330
3F2
330
453
330
3F1
 75
     1
 76
     0
 52
45.0
 41
0.1
 77
     0
 78
     1
 53
45.0
 43
0.0
 44
0.0
 45
-0.0707106781186548
 46
0.0707106781186548
 79
     0
 98
        1
 10
0.0
 20
0.0
  0
HATCH
  5
4A9
330
71
100
AcDbEntity
  8
1
  6
Continuous
 62
     2
100
AcDbHatch
 10
0.0
 20
0.0
 30
0.0
210
0.0
220
0.0
230
1.0
  2
_USER
 70
     0
 71
     1
 91
        1
 92
        1
 93
       18
 72
     1
 10
-970.0468033578219
 20
-1116.58795672998
 11
-970.8579023952952
 21
-1116.58795672998
 72
     1
 10
-970.8579023952952
 20
-1116.58795672998
 11
-970.8579023952952
 21
-1118.856500947668
 72
     1
 10
-970.8579023952952
 20
-1118.856500947668
 11
-972.050695097463
 21
-1118.856500947668
 72
     1
 10
-972.050695097463
 20
-1118.856500947668
 11
-972.050695097463
 21
-1116.58795672998
 72
     1
 10
-972.050695097463
 20
-1116.58795672998
 11
-973.1543343970311
 21
-1116.58795672998
 72
     2
 10
-973.1543343970311
 20
-1117.542479736806
 40
0.9545230068258661
 50
90.0
 51
109.3371432194401
 73
     1
 72
     2
 10
-973.3010043951348
 20
-1117.124524756423
 40
0.5115800601937612
 50
109.3371432195076
 51
151.4785267424451
 73
     1
 72
     2
 10
-972.9236471370534
 20
-1117.329596185763
 40
0.9410597353353108
 50
151.4785267423192
 51
208.5214732576322
 73
     1
 72
     2
 10
-973.3010043951348
 20
-1117.534667615101
 40
0.5115800601959901
 50
208.5214732576668
 51
246.6277221118395
 73
     1
 72
     2
 10
-973.1445643624317
 20
-1117.172675596391
 40
0.9059297849852503
 50
246.6277221118135
 51
288.4480761180715
 73
     1
 72
     2
 10
-973.5627320960936
 20
-1115.919129820354
 40
2.227384008973474
 50
288.4480761181272
 51
301.9309089499373
 73
     1
 72
     1
 10
-972.3846770540697
 20
-1117.809480539504
 11
-972.3846770540697
 21
-1118.681997546308
 72
     2
 10
-973.7206049711864
 20
-1114.016915240506
 40
4.852596863498941
 50
74.02000874166322
 51
84.84185523036345
 73
     0
 72
     2
 10
-973.4317488764506
 20
-1117.216805823728
 40
1.639695123940421
 50
84.84185523032188
 51
164.9381082228985
 73
     0
 72
     2
 10
-973.8508767199122
 20
-1117.329596185763
 40
1.205656168393139
 50
164.9381082229099
 51
195.0618917771318
 73
     0
 72
     2
 10
-973.4317488764506
 20
-1117.442386547797
 40
1.639695123940101
 50
195.0618917771015
 51
270.0
 73
     0
 72
     1
 10
-973.4317488764506
 20
-1115.802691423857
 11
-970.0468033578219
 21
-1115.802691423857
 72
     1
 10
-970.0468033578219
 20
-1115.802691423857
 11
-970.0468033578219
 21
-1116.58795672998
 97
       18
330
3C0
330
456
330
457
330
43F
330
43E
330
424
330
43D
330
43C
330
458
330
43B
330
459
330
43A
330
425
330
3BF
330
3C4
330
3C3
330
3C2
330
3C1
 75
     1
 76
     0
 52
45.0
 41
0.1
 77
     0
 78
     1
 53
45.0
 43
0.0
 44
0.0
 45
-0.0707106781186548
 46
0.0707106781186548
 79
     0
 98
        1
 10
0.0
 20
0.0
  0
HATCH
  5
4AA
330
71
100
AcDbEntity
  8
1
  6
Continuous
 62
     2
100
AcDbHatch
 10
0.0
 20
0.0
 30
0.0
210
0.0
220
0.0
230
1.0
  2
_USER
 70
     0
 71
     1
 91
        1
 92
        1
 93
       18
 72
     1
 10
-970.0468033578219
 20
-1116.58795672998
 11
-970.8579023952952
 21
-1116.58795672998
 72
     1
 10
-970.8579023952952
 20
-1116.58795672998
 11
-970.8579023952952
 21
-1118.856500947668
 72
     1
 10
-970.8579023952952
 20
-1118.856500947668
 11
-972.050695097463
 21
-1118.856500947668
 72
     1
 10
-972.050695097463
 20
-1118.856500947668
 11
-972.050695097463
 21
-1116.58795672998
 72
     1
 10
-972.050695097463
 20
-1116.58795672998
 11
-973.1543343970311
 21
-1116.58795672998
 72
     2
 10
-973.1543343970311
 20
-1117.542479736806
 40
0.9545230068258661
 50
90.0
 51
109.3371432194401
 73
     1
 72
     2
 10
-973.3010043951348
 20
-1117.124524756423
 40
0.5115800601937612
 50
109.3371432195076
 51
151.4785267424451
 73
     1
 72
     2
 10
-972.9236471370534
 20
-1117.329596185763
 40
0.9410597353353108
 50
151.4785267423192
 51
208.5214732576322
 73
     1
 72
     2
 10
-973.3010043951348
 20
-1117.534667615101
 40
0.5115800601959901
 50
208.5214732576668
 51
246.6277221118395
 73
     1
 72
     2
 10
-973.1445643624317
 20
-1117.172675596391
 40
0.9059297849852503
 50
246.6277221118135
 51
288.4480761180715
 73
     1
 72
     2
 10
-973.5627320960936
 20
-1115.919129820354
 40
2.227384008973474
 50
288.4480761181272
 51
301.9309089499373
 73
     1
 72
     1
 10
-972.3846770540697
 20
-1117.809480539504
 11
-972.3846770540697
 21
-1118.681997546308
 72
     2
 10
-973.7206049711864
 20
-1114.016915240506
 40
4.852596863498941
 50
74.02000874166322
 51
84.84185523036345
 73
     0
 72
     2
 10
-973.4317488764506
 20
-1117.216805823728
 40
1.639695123940421
 50
84.84185523032188
 51
164.9381082228985
 73
     0
 72
     2
 10
-973.8508767199122
 20
-1117.329596185763
 40
1.205656168393139
 50
164.9381082229099
 51
195.0618917771318
 73
     0
 72
     2
 10
-973.4317488764506
 20
-1117.442386547797
 40
1.639695123940101
 50
195.0618917771015
 51
270.0
 73
     0
 72
     1
 10
-973.4317488764506
 20
-1115.802691423857
 11
-970.0468033578219
 21
-1115.802691423857
 72
     1
 10
-970.0468033578219
 20
-1115.802691423857
 11
-970.0468033578219
 21
-1116.58795672998
 97
       18
330
3C0
330
456
330
457
330
43F
330
43E
330
424
330
43D
330
43C
330
458
330
43B
330
459
330
43A
330
425
330
3BF
330
3C4
330
3C3
330
3C2
330
3C1
 75
     1
 76
     0
 52
45.0
 41
0.1
 77
     0
 78
     1
 53
45.0
 43
0.0
 44
0.0
 45
-0.0707106781186548
 46
0.0707106781186548
 79
     0
 98
        1
 10
0.0
 20
0.0
  0
HATCH
  5
4AB
330
71
100
AcDbEntity
  8
1
  6
Continuous
 62
     2
100
AcDbHatch
 10
0.0
 20
0.0
 30
0.0
210
0.0
220
0.0
230
1.0
  2
_USER
 70
     0
 71
     1
 91
        1
 92
        1
 93
       14
 72
     2
 10
-989.5344503557035
 20
-1117.442386547797
 40
1.639695123940224
 50
84.84185523036146
 51
164.9381082228903
 73
     1
 72
     2
 10
-989.9535781991663
 20
-1117.329596185763
 40
1.205656168391164
 50
164.9381082228429
 51
195.0618917770736
 73
     1
 72
     2
 10
-989.5344503557035
 20
-1117.216805823728
 40
1.639695123939306
 50
195.061891777079
 51
275.1581447696414
 73
     1
 72
     2
 10
-989.8233064504394
 20
-1114.016915240506
 40
4.852596863497943
 50
275.1581447696255
 51
285.9799912583526
 73
     1
 72
     1
 10
-988.4873785333216
 20
-1118.681997546307
 11
-988.4873785333216
 21
-1117.809480539504
 72
     2
 10
-989.6654335753465
 20
-1115.919129820354
 40
2.227384008972396
 50
58.06909105004036
 51
71.55192388186352
 73
     0
 72
     2
 10
-989.2472658416857
 20
-1117.172675596391
 40
0.9059297849848444
 50
71.55192388183757
 51
113.3722778881271
 73
     0
 72
     2
 10
-989.4037058743877
 20
-1117.534667615101
 40
0.5115800601949912
 50
113.3722778881722
 51
151.4785267422724
 73
     0
 72
     2
 10
-989.0263486163074
 20
-1117.329596185763
 40
0.941059735333413
 50
151.478526742305
 51
208.5214732577436
 73
     0
 72
     2
 10
-989.4037058743877
 20
-1117.124524756423
 40
0.5115800601943187
 50
208.5214732576157
 51
246.6277221117773
 73
     0
 72
     2
 10
-989.2472658416857
 20
-1117.486516775134
 40
0.9059297849858261
 50
246.6277221118729
 51
288.4480761181397
 73
     0
 72
     2
 10
-989.6654335753465
 20
-1118.740062551171
 40
2.227384008973453
 50
288.4480761181272
 51
301.9309089499596
 73
     0
 72
     1
 10
-988.4873785333216
 20
-1116.849711832021
 11
-988.4873785333216
 21
-1115.977194825217
 72
     2
 10
-989.8233064504394
 20
-1120.642277131018
 40
4.852596863498158
 50
74.02000874164733
 51
84.8418552303745
 73
     1
 97
       14
330
45E
330
45F
330
460
330
461
330
426
330
437
330
436
330
435
330
462
330
463
330
434
330
464
330
427
330
433
 75
     1
 76
     0
 52
45.0
 41
0.1
 77
     0
 78
     1
 53
45.0
 43
0.0
 44
0.0
 45
-0.0707106781186548
 46
0.0707106781186548
 79
     0
 98
        1
 10
0.0
 20
0.0
  0
HATCH
  5
4AC
330
71
100
AcDbEntity
  8
1
  6
Continuous
 62
     2
100
AcDbHatch
 10
0.0
 20
0.0
 30
0.0
210
0.0
220
0.0
230
1.0
  2
_USER
 70
     0
 71
     1
 91
        1
 92
        1
 93
       14
 72
     2
 10
-989.5344503557035
 20
-1117.442386547797
 40
1.639695123940224
 50
84.84185523036146
 51
164.9381082228903
 73
     1
 72
     2
 10
-989.9535781991663
 20
-1117.329596185763
 40
1.205656168391164
 50
164.9381082228429
 51
195.0618917770736
 73
     1
 72
     2
 10
-989.5344503557035
 20
-1117.216805823728
 40
1.639695123939306
 50
195.061891777079
 51
275.1581447696414
 73
     1
 72
     2
 10
-989.8233064504394
 20
-1114.016915240506
 40
4.852596863497943
 50
275.1581447696255
 51
285.9799912583526
 73
     1
 72
     1
 10
-988.4873785333216
 20
-1118.681997546307
 11
-988.4873785333216
 21
-1117.809480539504
 72
     2
 10
-989.6654335753465
 20
-1115.919129820354
 40
2.227384008972396
 50
58.06909105004036
 51
71.55192388186352
 73
     0
 72
     2
 10
-989.2472658416857
 20
-1117.172675596391
 40
0.9059297849848444
 50
71.55192388183757
 51
113.3722778881271
 73
     0
 72
     2
 10
-989.4037058743877
 20
-1117.534667615101
 40
0.5115800601949912
 50
113.3722778881722
 51
151.4785267422724
 73
     0
 72
     2
 10
-989.0263486163074
 20
-1117.329596185763
 40
0.941059735333413
 50
151.478526742305
 51
208.5214732577436
 73
     0
 72
     2
 10
-989.4037058743877
 20
-1117.124524756423
 40
0.5115800601943187
 50
208.5214732576157
 51
246.6277221117773
 73
     0
 72
     2
 10
-989.2472658416857
 20
-1117.486516775134
 40
0.9059297849858261
 50
246.6277221118729
 51
288.4480761181397
 73
     0
 72
     2
 10
-989.6654335753465
 20
-1118.740062551171
 40
2.227384008973453
 50
288.4480761181272
 51
301.9309089499596
 73
     0
 72
     1
 10
-988.4873785333216
 20
-1116.849711832021
 11
-988.4873785333216
 21
-1115.977194825217
 72
     2
 10
-989.8233064504394
 20
-1120.642277131018
 40
4.852596863498158
 50
74.02000874164733
 51
84.8418552303745
 73
     1
 97
       14
330
45E
330
45F
330
460
330
461
330
426
330
437
330
436
330
435
330
462
330
463
330
434
330
464
330
427
330
433
 75
     1
 76
     0
 52
45.0
 41
0.1
 77
     0
 78
     1
 53
45.0
 43
0.0
 44
0.0
 45
-0.0707106781186548
 46
0.0707106781186548
 79
     0
 98
        1
 10
0.0
 20
0.0
  0
ENDBLK
  5
73
330
71
100
AcDbEntity
  8
0
100
AcDbBlockEnd
  0
BLOCK
  5
75
330
74
100
AcDbEntity
  8
0
100
AcDbBlockBegin
  2
_punkt
 70
     0
 10
-872.650002948339
 20
-1126.150000947684
 30
0.0
  3
_punkt
  1

  0
LINE
  5
4AD
330
74
100
AcDbEntity
  8
1
  6
Continuous
 62
     2
100
AcDbLine
 10
-872.650002948339
 20
-1126.150000947684
 30
0.0
 11
-867.65000294834
 21
-1126.150000947684
 31
0.0
  0
LINE
  5
4AE
330
74
100
AcDbEntity
  8
1
  6
Continuous
 62
     2
100
AcDbLine
 10
-872.650002948339
 20
-1126.150000947684
 30
0.0
 11
-872.650002948339
 21
-1131.150000947684
 31
0.0
  0
ENDBLK
  5
76
330
74
100
AcDbEntity
  8
0
100
AcDbBlockEnd
  0
BLOCK
  5
7A
330
77
100
AcDbEntity
  8
0
100
AcDbBlockBegin
  2
A4I_CS
 70
     0
 10
-872.650002948339
 20
-1131.150000947684
 30
0.0
  3
A4I_CS
  1

  0
INSERT
  5
78
330
77
100
AcDbEntity
  8
1
100
AcDbBlockReference
  2
_rahmen
 10
-872.650002948339
 20
-1131.150000947684
 30
0.0
  0
INSERT
  5
79
330
77
100
AcDbEntity
  8
1
100
AcDbBlockReference
  2
_punkt
 10
-872.650002948339
 20
-1126.150000947684
 30
0.0
  0
ENDBLK
  5
7B
330
77
100
AcDbEntity
  8
0
100
AcDbBlockEnd
  0
BLOCK
  5
84
330
7C
100
AcDbEntity
  8
0
100
AcDbBlockBegin
  2
1
 70
     0
 10
0.0
 20
0.0
 30
0.0
  3
1
  1

  0
INSERT
  5
7D
330
7C
100
AcDbEntity
  8
0
100
AcDbBlockReference
  2
Allg1
 10
-919.999999737069
 20
-1054.99999977173
 30
0.0
  0
INSERT
  5
7E
330
7C
100
AcDbEntity
  8
0
100
AcDbBlockReference
  2
Drfsicht1
 10
-1045.337501525815
 20
-1056.82500176225
 30
0.0
  0
INSERT
  5
7F
330
7C
100
AcDbEntity
  8
0
100
AcDbBlockReference
  2
Rckans1
 10
-944.6624995258852
 20
-981.9999999993449
 30
0.0
  0
INSERT
  5
80
330
7C
100
AcDbEntity
  8
0
100
AcDbBlockReference
  2
SA_Links1
 10
-993.00000052585
 20
-981.9999999993449
 30
0.0
  0
INSERT
  5
81
330
7C
100
AcDbEntity
  8
0
100
AcDbBlockReference
  2
SA_Rechts1
 10
-1126.67500252578
 20
-979.9999999993449
 30
0.0
  0
INSERT
  5
82
330
7C
100
AcDbEntity
  8
0
100
AcDbBlockReference
  2
Vordans1
 10
-1045.337501525815
 20
-981.9999999993449
 30
0.0
  0
INSERT
  5
83
330
7C
100
AcDbEntity
  8
0
100
AcDbBlockReference
  2
A4I_CS
 10
-872.650002948339
 20
-1131.150000947684
 30
0.0
  0
ENDBLK
  5
85
330
7C
100
AcDbEntity
  8
0
100
AcDbBlockEnd
  0
BLOCK
  5
1BE
330
1B5
100
AcDbEntity
  8
0
100
AcDbBlockBegin
  2
*D17
 70
     1
 10
0.0
 20
0.0
 30
0.0
  3
*D17
  1

  0
LINE
  5
1B6
330
1B5
100
AcDbEntity
  8
1
  6
Continuous
 62
     2
100
AcDbLine
 10
-1076.60000238427
 20
-1073.47629455436
 30
0.0
 11
-1076.60000238427
 21
-1059.899999473494
 31
0.0
  0
LINE
  5
1B7
330
1B5
100
AcDbEntity
  8
1
  6
Continuous
 62
     2
100
AcDbLine
 10
-1076.60000238427
 20
-1059.899999473494
 30
0.0
 11
-1076.60000238427
 21
-1053.749999478045
 31
0.0
  0
LINE
  5
1B8
330
1B5
100
AcDbEntity
  8
1
  6
Continuous
 62
     2
100
AcDbLine
 10
-1076.60000238427
 20
-1053.749999478045
 30
0.0
 11
-1076.60000238427
 21
-1046.749999478045
 31
0.0
  0
LINE
  5
1B9
330
1B5
100
AcDbEntity
  8
1
  6
Continuous
 62
     2
100
AcDbLine
 10
-1066.60000238427
 20
-1059.899999473494
 30
0.0
 11
-1078.10000238427
 21
-1059.899999473494
 31
0.0
  0
LINE
  5
1BA
330
1B5
100
AcDbEntity
  8
1
  6
Continuous
 62
     2
100
AcDbLine
 10
-1066.60000238427
 20
-1053.749999478045
 30
0.0
 11
-1078.10000238427
 21
-1053.749999478045
 31
0.0
  0
SOLID
  5
1BB
330
1B5
100
AcDbEntity
  8
1
 62
     2
100
AcDbTrace
 10
-1076.139218642714
 20
-1063.399999473494
 30
0.0
 11
-1077.060786125826
 21
-1063.399999473494
 31
0.0
 12
-1076.60000238427
 22
-1059.899999473494
 32
0.0
 13
-1076.60000238427
 23
-1059.899999473494
 33
0.0
  0
SOLID
  5
1BC
330
1B5
100
AcDbEntity
  8
1
 62
     2
100
AcDbTrace
 10
-1077.060786125826
 20
-1050.249999478045
 30
0.0
 11
-1076.139218642714
 21
-1050.249999478045
 31
0.0
 12
-1076.60000238427
 22
-1053.749999478045
 32
0.0
 13
-1076.60000238427
 23
-1053.749999478045
 33
0.0
  0
MTEXT
  5
1BD
330
1B5
100
AcDbEntity
  8
1
 62
     3
100
AcDbMText
 10
-1078.45000238427
 20
-1073.47629455436
 30
0.0
 40
3.5
 41
0.0
 71
     7
 72
     1
  1
6,15
  7
CONVERTER_11
 11
0.0
 21
1.0
 31
0.0
 73
     1
 44
0.60024009603842
  0
ENDBLK
  5
1BF
330
1B5
100
AcDbEntity
  8
0
100
AcDbBlockEnd
  0
BLOCK
  5
33B
330
334
100
AcDbEntity
  8
0
100
AcDbBlockBegin
  2
*D18
 70
     1
 10
0.0
 20
0.0
 30
0.0
  3
*D18
  1

  0
LINE
  5
335
330
334
100
AcDbEntity
  8
1
  6
Continuous
 62
     2
100
AcDbLine
 10
-1045.32500238427
 20
-1016.51212081013
 30
0.0
 11
-1027.82500238427
 21
-1016.51212081013
 31
0.0
  0
LINE
  5
336
330
334
100
AcDbEntity
  8
1
  6
Continuous
 62
     2
100
AcDbLine
 10
-1045.32500238427
 20
-1001.060434154101
 30
0.0
 11
-1045.32500238427
 21
-1018.01212081013
 31
0.0
  0
LINE
  5
337
330
334
100
AcDbEntity
  8
1
  6
Continuous
 62
     2
100
AcDbLine
 10
-1027.82500238427
 20
-1000.650000382275
 30
0.0
 11
-1027.82500238427
 21
-1018.01212081013
 31
0.0
  0
SOLID
  5
338
330
334
100
AcDbEntity
  8
1
 62
     2
100
AcDbTrace
 10
-1041.82500238427
 20
-1016.051337068574
 30
0.0
 11
-1041.82500238427
 21
-1016.972904551686
 31
0.0
 12
-1045.32500238427
 22
-1016.51212081013
 32
0.0
 13
-1045.32500238427
 23
-1016.51212081013
 33
0.0
  0
SOLID
  5
339
330
334
100
AcDbEntity
  8
1
 62
     2
100
AcDbTrace
 10
-1031.32500238427
 20
-1016.972904551686
 30
0.0
 11
-1031.32500238427
 21
-1016.051337068574
 31
0.0
 12
-1027.82500238427
 22
-1016.51212081013
 32
0.0
 13
-1027.82500238427
 23
-1016.51212081013
 33
0.0
  0
MTEXT
  5
33A
330
334
100
AcDbEntity
  8
1
 62
     3
100
AcDbMText
 10
-1041.13443123868
 20
-1014.66212081013
 30
0.0
 40
3.5
 41
0.0
 71
     7
 72
     1
  1
17,5
  7
CONVERTER_11
 11
0.9999999999970619
 21
2.424068405545306E-6
 31
0.0
 73
     1
 44
0.60024009603842
  0
ENDBLK
  5
33C
330
334
100
AcDbEntity
  8
0
100
AcDbBlockEnd
  0
BLOCK
  5
346
330
33F
100
AcDbEntity
  8
0
100
AcDbBlockBegin
  2
*D19
 70
     1
 10
0.0
 20
0.0
 30
0.0
  3
*D19
  1

  0
LINE
  5
340
330
33F
100
AcDbEntity
  8
1
  6
Continuous
 62
     2
100
AcDbLine
 10
-1045.32500238427
 20
-1024.51212081013
 30
0.0
 11
-1024.07500238427
 21
-1024.51212081013
 31
0.0
  0
LINE
  5
341
330
33F
100
AcDbEntity
  8
1
  6
Continuous
 62
     2
100
AcDbLine
 10
-1045.32500238427
 20
-1001.060434154101
 30
0.0
 11
-1045.32500238427
 21
-1026.01212081013
 31
0.0
  0
LINE
  5
342
330
33F
100
AcDbEntity
  8
1
  6
Continuous
 62
     2
100
AcDbLine
 10
-1024.07500238427
 20
-1002.250000382276
 30
0.0
 11
-1024.07500238427
 21
-1026.01212081013
 31
0.0
  0
SOLID
  5
343
330
33F
100
AcDbEntity
  8
1
 62
     2
100
AcDbTrace
 10
-1041.82500238427
 20
-1024.051337068574
 30
0.0
 11
-1041.82500238427
 21
-1024.972904551686
 31
0.0
 12
-1045.32500238427
 22
-1024.51212081013
 32
0.0
 13
-1045.32500238427
 23
-1024.51212081013
 33
0.0
  0
SOLID
  5
344
330
33F
100
AcDbEntity
  8
1
 62
     2
100
AcDbTrace
 10
-1027.57500238427
 20
-1024.972904551686
 30
0.0
 11
-1027.57500238427
 21
-1024.051337068574
 31
0.0
 12
-1024.07500238427
 22
-1024.51212081013
 32
0.0
 13
-1024.07500238427
 23
-1024.51212081013
 33
0.0
  0
MTEXT
  5
345
330
33F
100
AcDbEntity
  8
1
 62
     3
100
AcDbMText
 10
-1039.86439438895
 20
-1022.66212081013
 30
0.0
 40
3.5
 41
0.0
 71
     7
 72
     1
  1
21,25
  7
CONVERTER_11
 11
0.9999999999970619
 21
2.424068405545306E-6
 31
0.0
 73
     1
 44
0.60024009603842
  0
ENDBLK
  5
347
330
33F
100
AcDbEntity
  8
0
100
AcDbBlockEnd
  0
BLOCK
  5
351
330
34A
100
AcDbEntity
  8
0
100
AcDbBlockBegin
  2
*D20
 70
     1
 10
0.0
 20
0.0
 30
0.0
  3
*D20
  1

  0
LINE
  5
34B
330
34A
100
AcDbEntity
  8
1
  6
Continuous
 62
     2
100
AcDbLine
 10
-1066.60000238427
 20
-1032.512120810131
 30
0.0
 11
-1024.07500238427
 21
-1032.512120810131
 31
0.0
  0
LINE
  5
34C
330
34A
100
AcDbEntity
  8
1
  6
Continuous
 62
     2
100
AcDbLine
 10
-1066.60000238427
 20
-1005.750000382274
 30
0.0
 11
-1066.60000238427
 21
-1034.012120810131
 31
0.0
  0
LINE
  5
34D
330
34A
100
AcDbEntity
  8
1
  6
Continuous
 62
     2
100
AcDbLine
 10
-1024.07500238427
 20
-1002.250000382275
 30
0.0
 11
-1024.07500238427
 21
-1034.012120810131
 31
0.0
  0
SOLID
  5
34E
330
34A
100
AcDbEntity
  8
1
 62
     2
100
AcDbTrace
 10
-1063.10000238427
 20
-1032.051337068575
 30
0.0
 11
-1063.10000238427
 21
-1032.972904551687
 31
0.0
 12
-1066.60000238427
 22
-1032.512120810131
 32
0.0
 13
-1066.60000238427
 23
-1032.512120810131
 33
0.0
  0
SOLID
  5
34F
330
34A
100
AcDbEntity
  8
1
 62
     2
100
AcDbTrace
 10
-1027.57500238427
 20
-1032.972904551687
 30
0.0
 11
-1027.57500238427
 21
-1032.051337068575
 31
0.0
 12
-1024.07500238427
 22
-1032.512120810131
 32
0.0
 13
-1024.07500238427
 23
-1032.512120810131
 33
0.0
  0
MTEXT
  5
350
330
34A
100
AcDbEntity
  8
1
 62
     3
100
AcDbMText
 10
-1051.81661983706
 20
-1030.662120810131
 30
0.0
 40
3.5
 41
0.0
 71
     7
 72
     1
  1
42,53
  7
CONVERTER_11
 11
0.9999999999970619
 21
2.424068405545306E-6
 31
0.0
 73
     1
 44
0.60024009603842
  0
ENDBLK
  5
352
330
34A
100
AcDbEntity
  8
0
100
AcDbBlockEnd
  0
BLOCK
  5
35C
330
355
100
AcDbEntity
  8
0
100
AcDbBlockBegin
  2
*D21
 70
     1
 10
0.0
 20
0.0
 30
0.0
  3
*D21
  1

  0
LINE
  5
356
330
355
100
AcDbEntity
  8
1
  6
Continuous
 62
     2
100
AcDbLine
 10
-1076.60000238427
 20
-999.450000382275
 30
0.0
 11
-1076.60000238427
 21
-959.8500003822751
 31
0.0
  0
LINE
  5
357
330
355
100
AcDbEntity
  8
1
  6
Continuous
 62
     2
100
AcDbLine
 10
-1031.90000238427
 20
-999.450000382275
 30
0.0
 11
-1078.10000238427
 21
-999.450000382275
 31
0.0
  0
LINE
  5
358
330
355
100
AcDbEntity
  8
1
  6
Continuous
 62
     2
100
AcDbLine
 10
-1044.25202903022
 20
-959.8500003822751
 30
0.0
 11
-1078.10000238427
 21
-959.8500003822751
 31
0.0
  0
SOLID
  5
359
330
355
100
AcDbEntity
  8
1
 62
     2
100
AcDbTrace
 10
-1077.060786125826
 20
-995.950000382275
 30
0.0
 11
-1076.139218642714
 21
-995.950000382275
 31
0.0
 12
-1076.60000238427
 22
-999.450000382275
 32
0.0
 13
-1076.60000238427
 23
-999.450000382275
 33
0.0
  0
SOLID
  5
35A
330
355
100
AcDbEntity
  8
1
 62
     2
100
AcDbTrace
 10
-1076.139218642714
 20
-963.3500003822751
 30
0.0
 11
-1077.060786125826
 21
-963.3500003822751
 31
0.0
 12
-1076.60000238427
 22
-959.8500003822751
 32
0.0
 13
-1076.60000238427
 23
-959.8500003822751
 33
0.0
  0
MTEXT
  5
35B
330
355
100
AcDbEntity
  8
1
 62
     3
100
AcDbMText
 10
-1078.45000238427
 20
-984.280983475746
 30
0.0
 40
3.5
 41
0.0
 71
     7
 72
     1
  1
39,6
  7
CONVERTER_11
 11
0.0
 21
1.0
 31
0.0
 73
     1
 44
0.60024009603842
  0
ENDBLK
  5
35D
330
355
100
AcDbEntity
  8
0
100
AcDbBlockEnd
  0
BLOCK
  5
367
330
360
100
AcDbEntity
  8
0
100
AcDbBlockBegin
  2
*D22
 70
     1
 10
0.0
 20
0.0
 30
0.0
  3
*D22
  1

  0
LINE
  5
361
330
360
100
AcDbEntity
  8
1
  6
Continuous
 62
     2
100
AcDbLine
 10
-1084.60000238427
 20
-999.450000382275
 30
0.0
 11
-1084.60000238427
 21
-958.250000371898
 31
0.0
  0
LINE
  5
362
330
360
100
AcDbEntity
  8
1
  6
Continuous
 62
     2
100
AcDbLine
 10
-1031.90000238427
 20
-999.450000382275
 30
0.0
 11
-1086.10000238427
 21
-999.450000382275
 31
0.0
  0
LINE
  5
363
330
360
100
AcDbEntity
  8
1
  6
Continuous
 62
     2
100
AcDbLine
 10
-1040.662758903396
 20
-958.250000371898
 30
0.0
 11
-1086.10000238427
 21
-958.250000371898
 31
0.0
  0
SOLID
  5
364
330
360
100
AcDbEntity
  8
1
 62
     2
100
AcDbTrace
 10
-1085.060786125826
 20
-995.950000382275
 30
0.0
 11
-1084.139218642714
 21
-995.950000382275
 31
0.0
 12
-1084.60000238427
 22
-999.450000382275
 32
0.0
 13
-1084.60000238427
 23
-999.450000382275
 33
0.0
  0
SOLID
  5
365
330
360
100
AcDbEntity
  8
1
 62
     2
100
AcDbTrace
 10
-1084.139218642714
 20
-961.750000371898
 30
0.0
 11
-1085.060786125826
 21
-961.750000371898
 31
0.0
 12
-1084.60000238427
 22
-958.250000371898
 32
0.0
 13
-1084.60000238427
 23
-958.250000371898
 33
0.0
  0
MTEXT
  5
366
330
360
100
AcDbEntity
  8
1
 62
     3
100
AcDbMText
 10
-1086.45000238427
 20
-981.830654494805
 30
0.0
 40
3.5
 41
0.0
 71
     7
 72
     1
  1
41,2
  7
CONVERTER_11
 11
0.0
 21
1.0
 31
0.0
 73
     1
 44
0.60024009603842
  0
ENDBLK
  5
368
330
360
100
AcDbEntity
  8
0
100
AcDbBlockEnd
  0
BLOCK
  5
372
330
36B
100
AcDbEntity
  8
0
100
AcDbBlockBegin
  2
*D23
 70
     1
 10
0.0
 20
0.0
 30
0.0
  3
*D23
  1

  0
LINE
  5
36C
330
36B
100
AcDbEntity
  8
1
  6
Continuous
 62
     2
100
AcDbLine
 10
-1092.600002384271
 20
-1005.750000382273
 30
0.0
 11
-1092.600002384271
 21
-958.2500003718978
 31
0.0
  0
LINE
  5
36D
330
36B
100
AcDbEntity
  8
1
  6
Continuous
 62
     2
100
AcDbLine
 10
-1063.294585984283
 20
-1005.750000382273
 30
0.0
 11
-1094.100002384271
 21
-1005.750000382273
 31
0.0
  0
LINE
  5
36E
330
36B
100
AcDbEntity
  8
1
  6
Continuous
 62
     2
100
AcDbLine
 10
-1044.083862252705
 20
-958.2500003718978
 30
0.0
 11
-1094.100002384271
 21
-958.2500003718978
 31
0.0
  0
SOLID
  5
36F
330
36B
100
AcDbEntity
  8
1
 62
     2
100
AcDbTrace
 10
-1093.060786125827
 20
-1002.250000382273
 30
0.0
 11
-1092.139218642715
 21
-1002.250000382273
 31
0.0
 12
-1092.600002384271
 22
-1005.750000382273
 32
0.0
 13
-1092.600002384271
 23
-1005.750000382273
 33
0.0
  0
SOLID
  5
370
330
36B
100
AcDbEntity
  8
1
 62
     2
100
AcDbTrace
 10
-1092.139218642715
 20
-961.7500003718978
 30
0.0
 11
-1093.060786125827
 21
-961.7500003718978
 31
0.0
 12
-1092.600002384271
 22
-958.2500003718978
 32
0.0
 13
-1092.600002384271
 23
-958.2500003718978
 33
0.0
  0
MTEXT
  5
371
330
36B
100
AcDbEntity
  8
1
 62
     3
100
AcDbMText
 10
-1094.450002384271
 20
-987.3294210289035
 30
0.0
 40
3.5
 41
0.0
 71
     7
 72
     1
  1
47,5
  7
CONVERTER_11
 11
0.0
 21
1.0
 31
0.0
 73
     1
 44
0.60024009603842
  0
ENDBLK
  5
373
330
36B
100
AcDbEntity
  8
0
100
AcDbBlockEnd
  0
ENDSEC
  0
SECTION
  2
ENTITIES
  0
INSERT
  5
86
330
1F
100
AcDbEntity
  8
1
100
AcDbBlockReference
  2
1
 10
0.0
 20
0.0
 30
0.0
  0
ENDSEC
  0
SECTION
  2
OBJECTS
  0
DICTIONARY
  5
C
330
0
100
AcDbDictionary
281
     1
  3
ACAD_GROUP
350
D
  3
ACAD_LAYOUT
350
1A
  3
ACAD_MATERIAL
350
3B
  3
ACAD_MLEADERSTYLE
350
4D6
  3
ACAD_MLINESTYLE
350
17
  3
ACAD_PLOTSETTINGS
350
19
  3
ACAD_PLOTSTYLENAME
350
E
  3
ACAD_TABLESTYLE
350
4D5
  3
ACAD_VISUALSTYLE
350
2A
  0
DICTIONARY
  5
D
102
{ACAD_REACTORS
330
C
102
}
330
C
100
AcDbDictionary
281
     1
  0
DICTIONARY
  5
1A
102
{ACAD_REACTORS
330
C
102
}
330
C
100
AcDbDictionary
281
     1
  3
Layout1
350
1E
  3
Layout2
350
26
  3
Model
350
22
  0
DICTIONARY
  5
3B
102
{ACAD_REACTORS
330
C
102
}
330
C
100
AcDbDictionary
281
     1
  3
ByBlock
350
3D
  3
ByLayer
350
3C
  3
Global
350
3E
  0
DICTIONARY
  5
4D6
102
{ACAD_REACTORS
330
C
102
}
330
C
100
AcDbDictionary
281
     1
  0
DICTIONARY
  5
17
102
{ACAD_REACTORS
330
C
102
}
330
C
100
AcDbDictionary
281
     1
  3
Standard
350
18
  0
DICTIONARY
  5
19
102
{ACAD_REACTORS
330
C
102
}
330
C
100
AcDbDictionary
281
     1
  0
ACDBDICTIONARYWDFLT
  5
E
102
{ACAD_REACTORS
330
C
102
}
330
C
100
AcDbDictionary
281
     1
  3
Normal
350
F
100
AcDbDictionaryWithDefault
340
F
  0
DICTIONARY
  5
4D5
102
{ACAD_REACTORS
330
C
102
}
330
C
100
AcDbDictionary
281
     1
  0
DICTIONARY
  5
2A
102
{ACAD_REACTORS
330
C
102
}
330
C
100
AcDbDictionary
281
     1
  3
2dWireframe
350
2F
  3
3D Hidden
350
31
  3
3dWireframe
350
30
  3
Basic
350
32
  3
Brighten
350
36
  3
ColorChange
350
3A
  3
Conceptual
350
34
  3
Dim
350
35
  3
Facepattern
350
39
  3
Flat
350
2B
  3
FlatWithEdges
350
2C
  3
Gouraud
350
2D
  3
GouraudWithEdges
350
2E
  3
Linepattern
350
38
  3
Realistic
350
33
  3
Thicken
350
37
  0
LAYOUT
  5
1E
102
{ACAD_REACTORS
330
1A
102
}
330
1A
100
AcDbPlotSettings
  1

  2
none_device
  4

  6

 40
0.0
 41
0.0
 42
0.0
 43
0.0
 44
0.0
 45
0.0
 46
0.0
 47
0.0
 48
0.0
 49
0.0
140
0.0
141
0.0
142
1.0
143
1.0
 70
   688
 72
     0
 73
     0
 74
     5
  7

 75
    16
 76
     0
 77
     2
 78
   300
147
1.0
148
0.0
149
0.0
100
AcDbLayout
  1
Layout1
 70
     1
 71
     1
 10
0.0
 20
0.0
 11
12.0
 21
9.0
 12
0.0
 22
0.0
 32
0.0
 14
1.00000000000000E+20
 24
1.00000000000000E+20
 34
1.00000000000000E+20
 15
-1.00000000000000E+20
 25
-1.00000000000000E+20
 35
-1.00000000000000E+20
146
0.0
 13
0.0
 23
0.0
 33
0.0
 16
1.0
 26
0.0
 36
0.0
 17
0.0
 27
1.0
 37
0.0
 76
     0
330
1B
  0
LAYOUT
  5
26
102
{ACAD_REACTORS
330
1A
102
}
330
1A
100
AcDbPlotSettings
  1

  2
none_device
  4

  6

 40
0.0
 41
0.0
 42
0.0
 43
0.0
 44
0.0
 45
0.0
 46
0.0
 47
0.0
 48
0.0
 49
0.0
140
0.0
141
0.0
142
1.0
143
1.0
 70
   688
 72
     0
 73
     0
 74
     5
  7

 75
    16
 76
     0
 77
     2
 78
   300
147
1.0
148
0.0
149
0.0
100
AcDbLayout
  1
Layout2
 70
     1
 71
     2
 10
0.0
 20
0.0
 11
0.0
 21
0.0
 12
0.0
 22
0.0
 32
0.0
 14
0.0
 24
0.0
 34
0.0
 15
0.0
 25
0.0
 35
0.0
146
0.0
 13
0.0
 23
0.0
 33
0.0
 16
1.0
 26
0.0
 36
0.0
 17
0.0
 27
1.0
 37
0.0
 76
     0
330
23
  0
LAYOUT
  5
22
102
{ACAD_REACTORS
330
1A
102
}
330
1A
100
AcDbPlotSettings
  1

  2
none_device
  4

  6

 40
0.0
 41
0.0
 42
0.0
 43
0.0
 44
0.0
 45
0.0
 46
0.0
 47
0.0
 48
0.0
 49
0.0
140
0.0
141
0.0
142
1.0
143
1.0
 70
  1712
 72
     0
 73
     0
 74
     0
  7

 75
     0
 76
     0
 77
     2
 78
   300
147
1.0
148
0.0
149
0.0
100
AcDbLayout
  1
Model
 70
     1
 71
     0
 10
0.0
 20
0.0
 11
12.0
 21
9.0
 12
0.0
 22
0.0
 32
0.0
 14
-1164.650002948338
 24
-1131.150000947684
 34
0.0
 15
-867.65000294834
 25
-921.150000947684
 35
0.0
146
0.0
 13
0.0
 23
0.0
 33
0.0
 16
1.0
 26
0.0
 36
0.0
 17
0.0
 27
1.0
 37
0.0
 76
     0
330
1F
331
29
  0
MATERIAL
  5
3D
102
{ACAD_REACTORS
330
3B
102
}
102
{ACAD_XDICTIONARY
360
4D1
102
}
330
3B
100
AcDbMaterial
  1
ByBlock
  0
MATERIAL
  5
3C
102
{ACAD_REACTORS
330
3B
102
}
102
{ACAD_XDICTIONARY
360
4CF
102
}
330
3B
100
AcDbMaterial
  1
ByLayer
  0
MATERIAL
  5
3E
102
{ACAD_REACTORS
330
3B
102
}
102
{ACAD_XDICTIONARY
360
4D3
102
}
330
3B
100
AcDbMaterial
  1
Global
  0
MLINESTYLE
  5
18
102
{ACAD_REACTORS
330
17
102
}
330
17
100
AcDbMlineStyle
  2
Standard
 70
     0
  3

 62
   256
 51
90.0
 52
90.0
 71
     2
 49
0.5
 62
   256
  6
BYLAYER
 49
-0.5
 62
   256
  6
BYLAYER
  0
ACDBPLACEHOLDER
  5
F
102
{ACAD_REACTORS
330
E
102
}
330
E
  0
VISUALSTYLE
  5
2F
102
{ACAD_REACTORS
330
2A
102
}
102
{ACAD_XDICTIONARY
360
4B7
102
}
330
2A
100
AcDbVisualStyle
  2
2dWireframe
 70
     4
 71
     0
 72
     2
 73
     0
 90
        0
 40
-0.6
 41
-30.0
 62
     5
 63
     7
421
 16777215
 74
     1
 91
        4
 64
     7
 65
   257
 75
     1
175
     1
 42
1.0
 92
        0
 66
   257
 43
1.0
 76
     1
 77
     6
 78
     2
 67
     7
 79
     5
170
     0
171
     0
290
     0
174
     0
 93
        1
 44
0.0
173
     0
291
     0
 45
0.0
1001
ACAD
1000
AcDbSavedByObjectVersion
1070
     0
  0
VISUALSTYLE
  5
31
102
{ACAD_REACTORS
330
2A
102
}
102
{ACAD_XDICTIONARY
360
4BB
102
}
330
2A
100
AcDbVisualStyle
  2
3D Hidden
 70
     6
 71
     1
 72
     2
 73
     2
 90
        0
 40
-0.6
 41
-30.0
 62
     5
 63
     7
421
 16777215
 74
     2
 91
        2
 64
     7
 65
   257
 75
     2
175
     1
 42
40.0
 92
        0
 66
   257
 43
1.0
 76
     1
 77
     6
 78
     2
 67
     7
 79
     3
170
     0
171
     0
290
     0
174
     0
 93
        1
 44
0.0
173
     0
291
     0
 45
0.0
1001
ACAD
1000
AcDbSavedByObjectVersion
1070
     0
  0
VISUALSTYLE
  5
30
102
{ACAD_REACTORS
330
2A
102
}
102
{ACAD_XDICTIONARY
360
4B9
102
}
330
2A
100
AcDbVisualStyle
  2
3dWireframe
 70
     5
 71
     0
 72
     2
 73
     0
 90
        0
 40
-0.6
 41
-30.0
 62
     5
 63
     7
421
 16777215
 74
     1
 91
        4
 64
     7
 65
   257
 75
     1
175
     1
 42
1.0
 92
        0
 66
   257
 43
1.0
 76
     1
 77
     6
 78
     2
 67
     7
 79
     5
170
     0
171
     0
290
     0
174
     0
 93
        1
 44
0.0
173
     0
291
     0
 45
0.0
1001
ACAD
1000
AcDbSavedByObjectVersion
1070
     0
  0
VISUALSTYLE
  5
32
102
{ACAD_REACTORS
330
2A
102
}
102
{ACAD_XDICTIONARY
360
4BD
102
}
330
2A
100
AcDbVisualStyle
  2
Basic
 70
     7
 71
     1
 72
     0
 73
     1
 90
        0
 40
-0.6
 41
-30.0
 62
     5
 63
     7
421
 16777215
 74
     0
 91
        4
 64
     7
 65
   257
 75
     1
175
     1
 42
1.0
 92
        8
 66
     7
 43
1.0
 76
     1
 77
     6
 78
     2
 67
     7
 79
     5
170
     0
171
     0
290
     0
174
     0
 93
        1
 44
0.0
173
     0
291
     1
 45
0.0
1001
ACAD
1000
AcDbSavedByObjectVersion
1070
     0
  0
VISUALSTYLE
  5
36
102
{ACAD_REACTORS
330
2A
102
}
102
{ACAD_XDICTIONARY
360
4C5
102
}
330
2A
100
AcDbVisualStyle
  2
Brighten
 70
    12
 71
     2
 72
     2
 73
     0
 90
        0
 40
-0.6
 41
-30.0
 62
     5
 63
     7
421
 16777215
 74
     1
 91
        4
 64
     7
 65
   257
 75
     1
175
     1
 42
1.0
 92
        8
 66
     7
 43
1.0
 76
     1
 77
     6
 78
     2
 67
     7
 79
     5
170
     0
171
     0
290
     0
174
     0
 93
        1
 44
50.0
173
     0
291
     1
 45
0.0
1001
ACAD
1000
AcDbSavedByObjectVersion
1070
     0
  0
VISUALSTYLE
  5
3A
102
{ACAD_REACTORS
330
2A
102
}
102
{ACAD_XDICTIONARY
360
4CD
102
}
330
2A
100
AcDbVisualStyle
  2
ColorChange
 70
    16
 71
     2
 72
     2
 73
     3
 90
        0
 40
-0.6
 41
-30.0
 62
     5
 63
     8
421
  8421504
 74
     1
 91
        4
 64
     7
 65
   257
 75
     1
175
     1
 42
1.0
 92
        8
 66
     8
424
  8421504
 43
1.0
 76
     1
 77
     6
 78
     2
 67
     7
 79
     5
170
     0
171
     0
290
     0
174
     0
 93
        1
 44
0.0
173
     0
291
     1
 45
0.0
1001
ACAD
1000
AcDbSavedByObjectVersion
1070
     0
  0
VISUALSTYLE
  5
34
102
{ACAD_REACTORS
330
2A
102
}
102
{ACAD_XDICTIONARY
360
4C1
102
}
330
2A
100
AcDbVisualStyle
  2
Conceptual
 70
     9
 71
     3
 72
     2
 73
     0
 90
        0
 40
-0.6
 41
-30.0
 62
     5
 63
     7
421
 16777215
 74
     2
 91
        2
 64
     7
 65
   257
 75
     1
175
     1
 42
40.0
 92
        8
 66
     7
 43
1.0
 76
     1
 77
     6
 78
     2
 67
     7
 79
     3
170
     0
171
     0
290
     0
174
     0
 93
        1
 44
0.0
173
     0
291
     0
 45
0.0
1001
ACAD
1000
AcDbSavedByObjectVersion
1070
     0
  0
VISUALSTYLE
  5
35
102
{ACAD_REACTORS
330
2A
102
}
102
{ACAD_XDICTIONARY
360
4C3
102
}
330
2A
100
AcDbVisualStyle
  2
Dim
 70
    11
 71
     2
 72
     2
 73
     0
 90
        0
 40
-0.6
 41
-30.0
 62
     5
 63
     7
421
 16777215
 74
     1
 91
        4
 64
     7
 65
   257
 75
     1
175
     1
 42
1.0
 92
        8
 66
     7
 43
1.0
 76
     1
 77
     6
 78
     2
 67
     7
 79
     5
170
     0
171
     0
290
     0
174
     0
 93
        1
 44
-50.0
173
     0
291
     1
 45
0.0
1001
ACAD
1000
AcDbSavedByObjectVersion
1070
     0
  0
VISUALSTYLE
  5
39
102
{ACAD_REACTORS
330
2A
102
}
102
{ACAD_XDICTIONARY
360
4CB
102
}
330
2A
100
AcDbVisualStyle
  2
Facepattern
 70
    15
 71
     2
 72
     2
 73
     0
 90
        0
 40
-0.6
 41
-30.0
 62
     5
 63
     7
421
 16777215
 74
     1
 91
        4
 64
     7
 65
   257
 75
     1
175
     1
 42
1.0
 92
        8
 66
     7
 43
1.0
 76
     1
 77
     6
 78
     2
 67
     7
 79
     5
170
     0
171
     0
290
     0
174
     0
 93
        1
 44
0.0
173
     0
291
     1
 45
0.0
1001
ACAD
1000
AcDbSavedByObjectVersion
1070
     0
  0
VISUALSTYLE
  5
2B
102
{ACAD_REACTORS
330
2A
102
}
102
{ACAD_XDICTIONARY
360
4AF
102
}
330
2A
100
AcDbVisualStyle
  2
Flat
 70
     0
 71
     2
 72
     1
 73
     1
 90
        2
 40
-0.6
 41
30.0
 62
     5
 63
     7
421
 16777215
 74
     0
 91
        4
 64
     7
 65
   257
 75
     1
175
     1
 42
1.0
 92
        8
 66
     7
 43
1.0
 76
     1
 77
     6
 78
     2
 67
     7
 79
     5
170
     0
171
     0
290
     0
174
     0
 93
       13
 44
0.0
173
     0
291
     1
 45
0.0
1001
ACAD
1000
AcDbSavedByObjectVersion
1070
     0
  0
VISUALSTYLE
  5
2C
102
{ACAD_REACTORS
330
2A
102
}
102
{ACAD_XDICTIONARY
360
4B1
102
}
330
2A
100
AcDbVisualStyle
  2
FlatWithEdges
 70
     1
 71
     2
 72
     1
 73
     1
 90
        2
 40
-0.6
 41
30.0
 62
     5
 63
     7
421
 16777215
 74
     1
 91
        4
 64
     7
 65
   257
 75
     1
175
     1
 42
1.0
 92
        0
 66
   257
 43
1.0
 76
     1
 77
     6
 78
     2
 67
     7
 79
     5
170
     0
171
     0
290
     0
174
     0
 93
       13
 44
0.0
173
     0
291
     1
 45
0.0
1001
ACAD
1000
AcDbSavedByObjectVersion
1070
     0
  0
VISUALSTYLE
  5
2D
102
{ACAD_REACTORS
330
2A
102
}
102
{ACAD_XDICTIONARY
360
4B3
102
}
330
2A
100
AcDbVisualStyle
  2
Gouraud
 70
     2
 71
     2
 72
     2
 73
     1
 90
        2
 40
-0.6
 41
30.0
 62
     5
 63
     7
421
 16777215
 74
     0
 91
        4
 64
     7
 65
   257
 75
     1
175
     1
 42
1.0
 92
        0
 66
     7
 43
1.0
 76
     1
 77
     6
 78
     2
 67
     7
 79
     5
170
     0
171
     0
290
     0
174
     0
 93
       13
 44
0.0
173
     0
291
     1
 45
0.0
1001
ACAD
1000
AcDbSavedByObjectVersion
1070
     0
  0
VISUALSTYLE
  5
2E
102
{ACAD_REACTORS
330
2A
102
}
102
{ACAD_XDICTIONARY
360
4B5
102
}
330
2A
100
AcDbVisualStyle
  2
GouraudWithEdges
 70
     3
 71
     2
 72
     2
 73
     1
 90
        2
 40
-0.6
 41
30.0
 62
     5
 63
     7
421
 16777215
 74
     1
 91
        4
 64
     7
 65
   257
 75
     1
175
     1
 42
1.0
 92
        0
 66
   257
 43
1.0
 76
     1
 77
     6
 78
     2
 67
     7
 79
     5
170
     0
171
     0
290
     0
174
     0
 93
       13
 44
0.0
173
     0
291
     1
 45
0.0
1001
ACAD
1000
AcDbSavedByObjectVersion
1070
     0
  0
VISUALSTYLE
  5
38
102
{ACAD_REACTORS
330
2A
102
}
102
{ACAD_XDICTIONARY
360
4C9
102
}
330
2A
100
AcDbVisualStyle
  2
Linepattern
 70
    14
 71
     2
 72
     2
 73
     0
 90
        0
 40
-0.6
 41
-30.0
 62
     5
 63
     7
421
 16777215
 74
     1
 91
        4
 64
     7
 65
   257
 75
     7
175
     7
 42
1.0
 92
        8
 66
     7
 43
1.0
 76
     1
 77
     6
 78
     2
 67
     7
 79
     5
170
     0
171
     0
290
     0
174
     0
 93
        1
 44
0.0
173
     0
291
     1
 45
0.0
1001
ACAD
1000
AcDbSavedByObjectVersion
1070
     0
  0
VISUALSTYLE
  5
33
102
{ACAD_REACTORS
330
2A
102
}
102
{ACAD_XDICTIONARY
360
4BF
102
}
330
2A
100
AcDbVisualStyle
  2
Realistic
 70
     8
 71
     2
 72
     2
 73
     0
 90
        0
 40
-0.6
 41
-30.0
 62
     5
 63
     7
421
 16777215
 74
     1
 91
        0
 64
     7
 65
   257
 75
     1
175
     1
 42
1.0
 92
        8
 66
     8
424
  7895160
 43
1.0
 76
     1
 77
     6
 78
     2
 67
     7
 79
     5
170
     0
171
     0
290
     0
174
     0
 93
       13
 44
0.0
173
     0
291
     0
 45
0.0
1001
ACAD
1000
AcDbSavedByObjectVersion
1070
     0
  0
VISUALSTYLE
  5
37
102
{ACAD_REACTORS
330
2A
102
}
102
{ACAD_XDICTIONARY
360
4C7
102
}
330
2A
100
AcDbVisualStyle
  2
Thicken
 70
    13
 71
     2
 72
     2
 73
     0
 90
        0
 40
-0.6
 41
-30.0
 62
     5
 63
     7
421
 16777215
 74
     1
 91
        4
 64
     7
 65
   257
 75
     1
175
     1
 42
1.0
 92
       12
 66
     7
 43
1.0
 76
     1
 77
     6
 78
     2
 67
     7
 79
     5
170
     0
171
     0
290
     0
174
     0
 93
        1
 44
0.0
173
     0
291
     1
 45
0.0
1001
ACAD
1000
AcDbSavedByObjectVersion
1070
     0
  0
DICTIONARY
  5
4D1
330
3D
100
AcDbDictionary
280
     1
281
     1
  3
ACAD_XREC_ROUNDTRIP
360
4D2
  0
DICTIONARY
  5
4CF
330
3C
100
AcDbDictionary
280
     1
281
     1
  3
ACAD_XREC_ROUNDTRIP
360
4D0
  0
DICTIONARY
  5
4D3
330
3E
100
AcDbDictionary
280
     1
281
     1
  3
ACAD_XREC_ROUNDTRIP
360
4D4
  0
DICTIONARY
  5
4B7
330
2F
100
AcDbDictionary
280
     1
281
     1
  3
ACAD_XREC_ROUNDTRIP
360
4B8
  0
DICTIONARY
  5
4BB
330
31
100
AcDbDictionary
280
     1
281
     1
  3
ACAD_XREC_ROUNDTRIP
360
4BC
  0
DICTIONARY
  5
4B9
330
30
100
AcDbDictionary
280
     1
281
     1
  3
ACAD_XREC_ROUNDTRIP
360
4BA
  0
DICTIONARY
  5
4BD
330
32
100
AcDbDictionary
280
     1
281
     1
  3
ACAD_XREC_ROUNDTRIP
360
4BE
  0
DICTIONARY
  5
4C5
330
36
100
AcDbDictionary
280
     1
281
     1
  3
ACAD_XREC_ROUNDTRIP
360
4C6
  0
DICTIONARY
  5
4CD
330
3A
100
AcDbDictionary
280
     1
281
     1
  3
ACAD_XREC_ROUNDTRIP
360
4CE
  0
DICTIONARY
  5
4C1
330
34
100
AcDbDictionary
280
     1
281
     1
  3
ACAD_XREC_ROUNDTRIP
360
4C2
  0
DICTIONARY
  5
4C3
330
35
100
AcDbDictionary
280
     1
281
     1
  3
ACAD_XREC_ROUNDTRIP
360
4C4
  0
DICTIONARY
  5
4CB
330
39
100
AcDbDictionary
280
     1
281
     1
  3
ACAD_XREC_ROUNDTRIP
360
4CC
  0
DICTIONARY
  5
4AF
330
2B
100
AcDbDictionary
280
     1
281
     1
  3
ACAD_XREC_ROUNDTRIP
360
4B0
  0
DICTIONARY
  5
4B1
330
2C
100
AcDbDictionary
280
     1
281
     1
  3
ACAD_XREC_ROUNDTRIP
360
4B2
  0
DICTIONARY
  5
4B3
330
2D
100
AcDbDictionary
280
     1
281
     1
  3
ACAD_XREC_ROUNDTRIP
360
4B4
  0
DICTIONARY
  5
4B5
330
2E
100
AcDbDictionary
280
     1
281
     1
  3
ACAD_XREC_ROUNDTRIP
360
4B6
  0
DICTIONARY
  5
4C9
330
38
100
AcDbDictionary
280
     1
281
     1
  3
ACAD_XREC_ROUNDTRIP
360
4CA
  0
DICTIONARY
  5
4BF
330
33
100
AcDbDictionary
280
     1
281
     1
  3
ACAD_XREC_ROUNDTRIP
360
4C0
  0
DICTIONARY
  5
4C7
330
37
100
AcDbDictionary
280
     1
281
     1
  3
ACAD_XREC_ROUNDTRIP
360
4C8
  0
XRECORD
  5
4D2
102
{ACAD_REACTORS
330
4D1
102
}
330
4D1
100
AcDbXrecord
280
     1
102
MATERIAL
148
0.0
149
0.0
149
0.0
 93
        0
 94
      127
282
     0
 72
     1
 77
     1
171
     1
175
     1
179
     1
273
     0
  0
XRECORD
  5
4D0
102
{ACAD_REACTORS
330
4CF
102
}
330
4CF
100
AcDbXrecord
280
     1
102
MATERIAL
148
0.0
149
0.0
149
0.0
 93
        0
 94
      127
282
     0
 72
     1
 77
     1
171
     1
175
     1
179
     1
273
     0
  0
XRECORD
  5
4D4
102
{ACAD_REACTORS
330
4D3
102
}
330
4D3
100
AcDbXrecord
280
     1
102
MATERIAL
148
0.0
149
0.0
149
0.0
 93
        0
 94
      127
282
     0
 72
     1
 77
     1
171
     1
175
     1
179
     1
273
     0
  0
XRECORD
  5
4B8
102
{ACAD_REACTORS
330
4B7
102
}
330
4B7
100
AcDbXrecord
280
     1
102
RTVSPropertyOp0
 70
     1
102
RTVSPropertyOp1
 70
     1
102
RTVSPropertyOp2
 70
     1
102
RTVSPropertyOp3
 70
     1
102
RTVSPropertyOp4
 70
     1
102
RTVSPropertyOp5
 70
     1
102
RTVSPropertyOp6
 70
     1
102
RTVSPropertyOp7
 70
     1
102
RTVSPropertyOp8
 70
     1
102
RTVSPropertyOp9
 70
     1
102
RTVSPropertyOp10
 70
     1
102
RTVSPropertyOp11
 70
     1
102
RTVSPropertyOp12
 70
     1
102
RTVSPropertyOp13
 70
     1
102
RTVSPropertyOp14
 70
     1
102
RTVSPropertyOp15
 70
     1
102
RTVSPropertyOp16
 70
     1
102
RTVSPropertyOp17
 70
     1
102
RTVSPropertyOp18
 70
     1
102
RTVSPropertyOp19
 70
     1
102
RTVSPropertyOp20
 70
     1
102
RTVSPropertyOp21
 70
     1
102
RTVSPropertyOp22
 70
     1
102
RTVSPropertyOp23
 70
     1
102
RTVSPropertyOp24
 70
     1
102
RTVSPropertyOp25
 70
     1
102
RTVSPropertyOp26
 70
     1
102
RTVSPropertyOp27
 70
     1
102
RTVSPropertyOp28
 70
     1
102
RTVSPropertyOp29
 70
     1
102
RTVSPropertyOp30
 70
     1
102
RTVSPropertyOp31
 70
     1
102
RTVSPropertyOp32
 70
     1
  0
XRECORD
  5
4BC
102
{ACAD_REACTORS
330
4BB
102
}
330
4BB
100
AcDbXrecord
280
     1
102
RTVSPropertyOp0
 70
     1
102
RTVSPropertyOp1
 70
     1
102
RTVSPropertyOp2
 70
     1
102
RTVSPropertyOp3
 70
     1
102
RTVSPropertyOp4
 70
     1
102
RTVSPropertyOp5
 70
     1
102
RTVSPropertyOp6
 70
     1
102
RTVSPropertyOp7
 70
     1
102
RTVSPropertyOp8
 70
     1
102
RTVSPropertyOp9
 70
     1
102
RTVSPropertyOp10
 70
     1
102
RTVSPropertyOp11
 70
     1
102
RTVSPropertyOp12
 70
     1
102
RTVSPropertyOp13
 70
     1
102
RTVSPropertyOp14
 70
     1
102
RTVSPropertyOp15
 70
     1
102
RTVSPropertyOp16
 70
     1
102
RTVSPropertyOp17
 70
     1
102
RTVSPropertyOp18
 70
     1
102
RTVSPropertyOp19
 70
     1
102
RTVSPropertyOp20
 70
     1
102
RTVSPropertyOp21
 70
     1
102
RTVSPropertyOp22
 70
     1
102
RTVSPropertyOp23
 70
     1
102
RTVSPropertyOp24
 70
     1
102
RTVSPropertyOp25
 70
     1
102
RTVSPropertyOp26
 70
     1
102
RTVSPropertyOp27
 70
     1
102
RTVSPropertyOp28
 70
     1
102
RTVSPropertyOp29
 70
     1
102
RTVSPropertyOp30
 70
     1
102
RTVSPropertyOp31
 70
     1
102
RTVSPropertyOp32
 70
     1
  0
XRECORD
  5
4BA
102
{ACAD_REACTORS
330
4B9
102
}
330
4B9
100
AcDbXrecord
280
     1
102
RTVSPropertyOp0
 70
     1
102
RTVSPropertyOp1
 70
     1
102
RTVSPropertyOp2
 70
     1
102
RTVSPropertyOp3
 70
     1
102
RTVSPropertyOp4
 70
     1
102
RTVSPropertyOp5
 70
     1
102
RTVSPropertyOp6
 70
     1
102
RTVSPropertyOp7
 70
     1
102
RTVSPropertyOp8
 70
     1
102
RTVSPropertyOp9
 70
     1
102
RTVSPropertyOp10
 70
     1
102
RTVSPropertyOp11
 70
     1
102
RTVSPropertyOp12
 70
     1
102
RTVSPropertyOp13
 70
     1
102
RTVSPropertyOp14
 70
     1
102
RTVSPropertyOp15
 70
     1
102
RTVSPropertyOp16
 70
     1
102
RTVSPropertyOp17
 70
     1
102
RTVSPropertyOp18
 70
     1
102
RTVSPropertyOp19
 70
     1
102
RTVSPropertyOp20
 70
     1
102
RTVSPropertyOp21
 70
     1
102
RTVSPropertyOp22
 70
     1
102
RTVSPropertyOp23
 70
     1
102
RTVSPropertyOp24
 70
     1
102
RTVSPropertyOp25
 70
     1
102
RTVSPropertyOp26
 70
     1
102
RTVSPropertyOp27
 70
     1
102
RTVSPropertyOp28
 70
     1
102
RTVSPropertyOp29
 70
     1
102
RTVSPropertyOp30
 70
     1
102
RTVSPropertyOp31
 70
     1
102
RTVSPropertyOp32
 70
     1
  0
XRECORD
  5
4BE
102
{ACAD_REACTORS
330
4BD
102
}
330
4BD
100
AcDbXrecord
280
     1
102
RTVSPropertyOp0
 70
     1
102
RTVSPropertyOp1
 70
     1
102
RTVSPropertyOp2
 70
     1
102
RTVSPropertyOp3
 70
     1
102
RTVSPropertyOp4
 70
     1
102
RTVSPropertyOp5
 70
     1
102
RTVSPropertyOp6
 70
     1
102
RTVSPropertyOp7
 70
     1
102
RTVSPropertyOp8
 70
     1
102
RTVSPropertyOp9
 70
     1
102
RTVSPropertyOp10
 70
     1
102
RTVSPropertyOp11
 70
     1
102
RTVSPropertyOp12
 70
     1
102
RTVSPropertyOp13
 70
     1
102
RTVSPropertyOp14
 70
     1
102
RTVSPropertyOp15
 70
     1
102
RTVSPropertyOp16
 70
     1
102
RTVSPropertyOp17
 70
     1
102
RTVSPropertyOp18
 70
     1
102
RTVSPropertyOp19
 70
     1
102
RTVSPropertyOp20
 70
     1
102
RTVSPropertyOp21
 70
     1
102
RTVSPropertyOp22
 70
     1
102
RTVSPropertyOp23
 70
     1
102
RTVSPropertyOp24
 70
     1
102
RTVSPropertyOp25
 70
     1
102
RTVSPropertyOp26
 70
     1
102
RTVSPropertyOp27
 70
     1
102
RTVSPropertyOp28
 70
     1
102
RTVSPropertyOp29
 70
     1
102
RTVSPropertyOp30
 70
     1
102
RTVSPropertyOp31
 70
     1
102
RTVSPropertyOp32
 70
     1
  0
XRECORD
  5
4C6
102
{ACAD_REACTORS
330
4C5
102
}
330
4C5
100
AcDbXrecord
280
     1
102
RTVSPropertyOp0
 70
     1
102
RTVSPropertyOp1
 70
     1
102
RTVSPropertyOp2
 70
     1
102
RTVSPropertyOp3
 70
     1
102
RTVSPropertyOp4
 70
     1
102
RTVSPropertyOp5
 70
     1
102
RTVSPropertyOp6
 70
     1
102
RTVSPropertyOp7
 70
     1
102
RTVSPropertyOp8
 70
     1
102
RTVSPropertyOp9
 70
     1
102
RTVSPropertyOp10
 70
     1
102
RTVSPropertyOp11
 70
     1
102
RTVSPropertyOp12
 70
     1
102
RTVSPropertyOp13
 70
     1
102
RTVSPropertyOp14
 70
     1
102
RTVSPropertyOp15
 70
     1
102
RTVSPropertyOp16
 70
     1
102
RTVSPropertyOp17
 70
     1
102
RTVSPropertyOp18
 70
     1
102
RTVSPropertyOp19
 70
     1
102
RTVSPropertyOp20
 70
     1
102
RTVSPropertyOp21
 70
     1
102
RTVSPropertyOp22
 70
     1
102
RTVSPropertyOp23
 70
     1
102
RTVSPropertyOp24
 70
     1
102
RTVSPropertyOp25
 70
     1
102
RTVSPropertyOp26
 70
     1
102
RTVSPropertyOp27
 70
     1
102
RTVSPropertyOp28
 70
     1
102
RTVSPropertyOp29
 70
     1
102
RTVSPropertyOp30
 70
     1
102
RTVSPropertyOp31
 70
     1
102
RTVSPropertyOp32
 70
     1
  0
XRECORD
  5
4CE
102
{ACAD_REACTORS
330
4CD
102
}
330
4CD
100
AcDbXrecord
280
     1
102
RTVSPropertyOp0
 70
     1
102
RTVSPropertyOp1
 70
     1
102
RTVSPropertyOp2
 70
     1
102
RTVSPropertyOp3
 70
     1
102
RTVSPropertyOp4
 70
     1
102
RTVSPropertyOp5
 70
     1
102
RTVSPropertyOp6
 70
     1
102
RTVSPropertyOp7
 70
     1
102
RTVSPropertyOp8
 70
     1
102
RTVSPropertyOp9
 70
     1
102
RTVSPropertyOp10
 70
     1
102
RTVSPropertyOp11
 70
     1
102
RTVSPropertyOp12
 70
     1
102
RTVSPropertyOp13
 70
     1
102
RTVSPropertyOp14
 70
     1
102
RTVSPropertyOp15
 70
     1
102
RTVSPropertyOp16
 70
     1
102
RTVSPropertyOp17
 70
     1
102
RTVSPropertyOp18
 70
     1
102
RTVSPropertyOp19
 70
     1
102
RTVSPropertyOp20
 70
     1
102
RTVSPropertyOp21
 70
     1
102
RTVSPropertyOp22
 70
     1
102
RTVSPropertyOp23
 70
     1
102
RTVSPropertyOp24
 70
     1
102
RTVSPropertyOp25
 70
     1
102
RTVSPropertyOp26
 70
     1
102
RTVSPropertyOp27
 70
     1
102
RTVSPropertyOp28
 70
     1
102
RTVSPropertyOp29
 70
     1
102
RTVSPropertyOp30
 70
     1
102
RTVSPropertyOp31
 70
     1
102
RTVSPropertyOp32
 70
     1
  0
XRECORD
  5
4C2
102
{ACAD_REACTORS
330
4C1
102
}
330
4C1
100
AcDbXrecord
280
     1
102
RTVSPropertyOp0
 70
     1
102
RTVSPropertyOp1
 70
     1
102
RTVSPropertyOp2
 70
     1
102
RTVSPropertyOp3
 70
     1
102
RTVSPropertyOp4
 70
     1
102
RTVSPropertyOp5
 70
     1
102
RTVSPropertyOp6
 70
     1
102
RTVSPropertyOp7
 70
     1
102
RTVSPropertyOp8
 70
     1
102
RTVSPropertyOp9
 70
     1
102
RTVSPropertyOp10
 70
     1
102
RTVSPropertyOp11
 70
     1
102
RTVSPropertyOp12
 70
     1
102
RTVSPropertyOp13
 70
     1
102
RTVSPropertyOp14
 70
     1
102
RTVSPropertyOp15
 70
     1
102
RTVSPropertyOp16
 70
     1
102
RTVSPropertyOp17
 70
     1
102
RTVSPropertyOp18
 70
     1
102
RTVSPropertyOp19
 70
     1
102
RTVSPropertyOp20
 70
     1
102
RTVSPropertyOp21
 70
     1
102
RTVSPropertyOp22
 70
     1
102
RTVSPropertyOp23
 70
     1
102
RTVSPropertyOp24
 70
     1
102
RTVSPropertyOp25
 70
     1
102
RTVSPropertyOp26
 70
     1
102
RTVSPropertyOp27
 70
     1
102
RTVSPropertyOp28
 70
     1
102
RTVSPropertyOp29
 70
     1
102
RTVSPropertyOp30
 70
     1
102
RTVSPropertyOp31
 70
     1
102
RTVSPropertyOp32
 70
     1
  0
XRECORD
  5
4C4
102
{ACAD_REACTORS
330
4C3
102
}
330
4C3
100
AcDbXrecord
280
     1
102
RTVSPropertyOp0
 70
     1
102
RTVSPropertyOp1
 70
     1
102
RTVSPropertyOp2
 70
     1
102
RTVSPropertyOp3
 70
     1
102
RTVSPropertyOp4
 70
     1
102
RTVSPropertyOp5
 70
     1
102
RTVSPropertyOp6
 70
     1
102
RTVSPropertyOp7
 70
     1
102
RTVSPropertyOp8
 70
     1
102
RTVSPropertyOp9
 70
     1
102
RTVSPropertyOp10
 70
     1
102
RTVSPropertyOp11
 70
     1
102
RTVSPropertyOp12
 70
     1
102
RTVSPropertyOp13
 70
     1
102
RTVSPropertyOp14
 70
     1
102
RTVSPropertyOp15
 70
     1
102
RTVSPropertyOp16
 70
     1
102
RTVSPropertyOp17
 70
     1
102
RTVSPropertyOp18
 70
     1
102
RTVSPropertyOp19
 70
     1
102
RTVSPropertyOp20
 70
     1
102
RTVSPropertyOp21
 70
     1
102
RTVSPropertyOp22
 70
     1
102
RTVSPropertyOp23
 70
     1
102
RTVSPropertyOp24
 70
     1
102
RTVSPropertyOp25
 70
     1
102
RTVSPropertyOp26
 70
     1
102
RTVSPropertyOp27
 70
     1
102
RTVSPropertyOp28
 70
     1
102
RTVSPropertyOp29
 70
     1
102
RTVSPropertyOp30
 70
     1
102
RTVSPropertyOp31
 70
     1
102
RTVSPropertyOp32
 70
     1
  0
XRECORD
  5
4CC
102
{ACAD_REACTORS
330
4CB
102
}
330
4CB
100
AcDbXrecord
280
     1
102
RTVSPropertyOp0
 70
     1
102
RTVSPropertyOp1
 70
     1
102
RTVSPropertyOp2
 70
     1
102
RTVSPropertyOp3
 70
     1
102
RTVSPropertyOp4
 70
     1
102
RTVSPropertyOp5
 70
     1
102
RTVSPropertyOp6
 70
     1
102
RTVSPropertyOp7
 70
     1
102
RTVSPropertyOp8
 70
     1
102
RTVSPropertyOp9
 70
     1
102
RTVSPropertyOp10
 70
     1
102
RTVSPropertyOp11
 70
     1
102
RTVSPropertyOp12
 70
     1
102
RTVSPropertyOp13
 70
     1
102
RTVSPropertyOp14
 70
     1
102
RTVSPropertyOp15
 70
     1
102
RTVSPropertyOp16
 70
     1
102
RTVSPropertyOp17
 70
     1
102
RTVSPropertyOp18
 70
     1
102
RTVSPropertyOp19
 70
     1
102
RTVSPropertyOp20
 70
     1
102
RTVSPropertyOp21
 70
     1
102
RTVSPropertyOp22
 70
     1
102
RTVSPropertyOp23
 70
     1
102
RTVSPropertyOp24
 70
     1
102
RTVSPropertyOp25
 70
     1
102
RTVSPropertyOp26
 70
     1
102
RTVSPropertyOp27
 70
     1
102
RTVSPropertyOp28
 70
     1
102
RTVSPropertyOp29
 70
     1
102
RTVSPropertyOp30
 70
     1
102
RTVSPropertyOp31
 70
     1
102
RTVSPropertyOp32
 70
     1
  0
XRECORD
  5
4B0
102
{ACAD_REACTORS
330
4AF
102
}
330
4AF
100
AcDbXrecord
280
     1
102
RTVSPropertyOp0
 70
     1
102
RTVSPropertyOp1
 70
     1
102
RTVSPropertyOp2
 70
     1
102
RTVSPropertyOp3
 70
     1
102
RTVSPropertyOp4
 70
     1
102
RTVSPropertyOp5
 70
     1
102
RTVSPropertyOp6
 70
     1
102
RTVSPropertyOp7
 70
     1
102
RTVSPropertyOp8
 70
     1
102
RTVSPropertyOp9
 70
     1
102
RTVSPropertyOp10
 70
     1
102
RTVSPropertyOp11
 70
     1
102
RTVSPropertyOp12
 70
     1
102
RTVSPropertyOp13
 70
     1
102
RTVSPropertyOp14
 70
     1
102
RTVSPropertyOp15
 70
     1
102
RTVSPropertyOp16
 70
     1
102
RTVSPropertyOp17
 70
     1
102
RTVSPropertyOp18
 70
     1
102
RTVSPropertyOp19
 70
     1
102
RTVSPropertyOp20
 70
     1
102
RTVSPropertyOp21
 70
     1
102
RTVSPropertyOp22
 70
     1
102
RTVSPropertyOp23
 70
     1
102
RTVSPropertyOp24
 70
     1
102
RTVSPropertyOp25
 70
     1
102
RTVSPropertyOp26
 70
     1
102
RTVSPropertyOp27
 70
     1
102
RTVSPropertyOp28
 70
     1
102
RTVSPropertyOp29
 70
     1
102
RTVSPropertyOp30
 70
     1
102
RTVSPropertyOp31
 70
     1
102
RTVSPropertyOp32
 70
     1
  0
XRECORD
  5
4B2
102
{ACAD_REACTORS
330
4B1
102
}
330
4B1
100
AcDbXrecord
280
     1
102
RTVSPropertyOp0
 70
     1
102
RTVSPropertyOp1
 70
     1
102
RTVSPropertyOp2
 70
     1
102
RTVSPropertyOp3
 70
     1
102
RTVSPropertyOp4
 70
     1
102
RTVSPropertyOp5
 70
     1
102
RTVSPropertyOp6
 70
     1
102
RTVSPropertyOp7
 70
     1
102
RTVSPropertyOp8
 70
     1
102
RTVSPropertyOp9
 70
     1
102
RTVSPropertyOp10
 70
     1
102
RTVSPropertyOp11
 70
     1
102
RTVSPropertyOp12
 70
     1
102
RTVSPropertyOp13
 70
     1
102
RTVSPropertyOp14
 70
     1
102
RTVSPropertyOp15
 70
     1
102
RTVSPropertyOp16
 70
     1
102
RTVSPropertyOp17
 70
     1
102
RTVSPropertyOp18
 70
     1
102
RTVSPropertyOp19
 70
     1
102
RTVSPropertyOp20
 70
     1
102
RTVSPropertyOp21
 70
     1
102
RTVSPropertyOp22
 70
     1
102
RTVSPropertyOp23
 70
     1
102
RTVSPropertyOp24
 70
     1
102
RTVSPropertyOp25
 70
     1
102
RTVSPropertyOp26
 70
     1
102
RTVSPropertyOp27
 70
     1
102
RTVSPropertyOp28
 70
     1
102
RTVSPropertyOp29
 70
     1
102
RTVSPropertyOp30
 70
     1
102
RTVSPropertyOp31
 70
     1
102
RTVSPropertyOp32
 70
     1
  0
XRECORD
  5
4B4
102
{ACAD_REACTORS
330
4B3
102
}
330
4B3
100
AcDbXrecord
280
     1
102
RTVSPropertyOp0
 70
     1
102
RTVSPropertyOp1
 70
     1
102
RTVSPropertyOp2
 70
     1
102
RTVSPropertyOp3
 70
     1
102
RTVSPropertyOp4
 70
     1
102
RTVSPropertyOp5
 70
     1
102
RTVSPropertyOp6
 70
     1
102
RTVSPropertyOp7
 70
     1
102
RTVSPropertyOp8
 70
     1
102
RTVSPropertyOp9
 70
     1
102
RTVSPropertyOp10
 70
     1
102
RTVSPropertyOp11
 70
     1
102
RTVSPropertyOp12
 70
     1
102
RTVSPropertyOp13
 70
     1
102
RTVSPropertyOp14
 70
     1
102
RTVSPropertyOp15
 70
     1
102
RTVSPropertyOp16
 70
     1
102
RTVSPropertyOp17
 70
     1
102
RTVSPropertyOp18
 70
     1
102
RTVSPropertyOp19
 70
     1
102
RTVSPropertyOp20
 70
     1
102
RTVSPropertyOp21
 70
     1
102
RTVSPropertyOp22
 70
     1
102
RTVSPropertyOp23
 70
     1
102
RTVSPropertyOp24
 70
     1
102
RTVSPropertyOp25
 70
     1
102
RTVSPropertyOp26
 70
     1
102
RTVSPropertyOp27
 70
     1
102
RTVSPropertyOp28
 70
     1
102
RTVSPropertyOp29
 70
     1
102
RTVSPropertyOp30
 70
     1
102
RTVSPropertyOp31
 70
     1
102
RTVSPropertyOp32
 70
     1
  0
XRECORD
  5
4B6
102
{ACAD_REACTORS
330
4B5
102
}
330
4B5
100
AcDbXrecord
280
     1
102
RTVSPropertyOp0
 70
     1
102
RTVSPropertyOp1
 70
     1
102
RTVSPropertyOp2
 70
     1
102
RTVSPropertyOp3
 70
     1
102
RTVSPropertyOp4
 70
     1
102
RTVSPropertyOp5
 70
     1
102
RTVSPropertyOp6
 70
     1
102
RTVSPropertyOp7
 70
     1
102
RTVSPropertyOp8
 70
     1
102
RTVSPropertyOp9
 70
     1
102
RTVSPropertyOp10
 70
     1
102
RTVSPropertyOp11
 70
     1
102
RTVSPropertyOp12
 70
     1
102
RTVSPropertyOp13
 70
     1
102
RTVSPropertyOp14
 70
     1
102
RTVSPropertyOp15
 70
     1
102
RTVSPropertyOp16
 70
     1
102
RTVSPropertyOp17
 70
     1
102
RTVSPropertyOp18
 70
     1
102
RTVSPropertyOp19
 70
     1
102
RTVSPropertyOp20
 70
     1
102
RTVSPropertyOp21
 70
     1
102
RTVSPropertyOp22
 70
     1
102
RTVSPropertyOp23
 70
     1
102
RTVSPropertyOp24
 70
     1
102
RTVSPropertyOp25
 70
     1
102
RTVSPropertyOp26
 70
     1
102
RTVSPropertyOp27
 70
     1
102
RTVSPropertyOp28
 70
     1
102
RTVSPropertyOp29
 70
     1
102
RTVSPropertyOp30
 70
     1
102
RTVSPropertyOp31
 70
     1
102
RTVSPropertyOp32
 70
     1
  0
XRECORD
  5
4CA
102
{ACAD_REACTORS
330
4C9
102
}
330
4C9
100
AcDbXrecord
280
     1
102
RTVSPropertyOp0
 70
     1
102
RTVSPropertyOp1
 70
     1
102
RTVSPropertyOp2
 70
     1
102
RTVSPropertyOp3
 70
     1
102
RTVSPropertyOp4
 70
     1
102
RTVSPropertyOp5
 70
     1
102
RTVSPropertyOp6
 70
     1
102
RTVSPropertyOp7
 70
     1
102
RTVSPropertyOp8
 70
     1
102
RTVSPropertyOp9
 70
     1
102
RTVSPropertyOp10
 70
     1
102
RTVSPropertyOp11
 70
     1
102
RTVSPropertyOp12
 70
     1
102
RTVSPropertyOp13
 70
     1
102
RTVSPropertyOp14
 70
     1
102
RTVSPropertyOp15
 70
     1
102
RTVSPropertyOp16
 70
     1
102
RTVSPropertyOp17
 70
     1
102
RTVSPropertyOp18
 70
     1
102
RTVSPropertyOp19
 70
     1
102
RTVSPropertyOp20
 70
     1
102
RTVSPropertyOp21
 70
     1
102
RTVSPropertyOp22
 70
     1
102
RTVSPropertyOp23
 70
     1
102
RTVSPropertyOp24
 70
     1
102
RTVSPropertyOp25
 70
     1
102
RTVSPropertyOp26
 70
     1
102
RTVSPropertyOp27
 70
     1
102
RTVSPropertyOp28
 70
     1
102
RTVSPropertyOp29
 70
     1
102
RTVSPropertyOp30
 70
     1
102
RTVSPropertyOp31
 70
     1
102
RTVSPropertyOp32
 70
     1
  0
XRECORD
  5
4C0
102
{ACAD_REACTORS
330
4BF
102
}
330
4BF
100
AcDbXrecord
280
     1
102
RTVSPropertyOp0
 70
     1
102
RTVSPropertyOp1
 70
     1
102
RTVSPropertyOp2
 70
     1
102
RTVSPropertyOp3
 70
     1
102
RTVSPropertyOp4
 70
     1
102
RTVSPropertyOp5
 70
     1
102
RTVSPropertyOp6
 70
     1
102
RTVSPropertyOp7
 70
     1
102
RTVSPropertyOp8
 70
     1
102
RTVSPropertyOp9
 70
     1
102
RTVSPropertyOp10
 70
     1
102
RTVSPropertyOp11
 70
     1
102
RTVSPropertyOp12
 70
     1
102
RTVSPropertyOp13
 70
     1
102
RTVSPropertyOp14
 70
     1
102
RTVSPropertyOp15
 70
     1
102
RTVSPropertyOp16
 70
     1
102
RTVSPropertyOp17
 70
     1
102
RTVSPropertyOp18
 70
     1
102
RTVSPropertyOp19
 70
     1
102
RTVSPropertyOp20
 70
     1
102
RTVSPropertyOp21
 70
     1
102
RTVSPropertyOp22
 70
     1
102
RTVSPropertyOp23
 70
     1
102
RTVSPropertyOp24
 70
     1
102
RTVSPropertyOp25
 70
     1
102
RTVSPropertyOp26
 70
     1
102
RTVSPropertyOp27
 70
     1
102
RTVSPropertyOp28
 70
     1
102
RTVSPropertyOp29
 70
     1
102
RTVSPropertyOp30
 70
     1
102
RTVSPropertyOp31
 70
     1
102
RTVSPropertyOp32
 70
     1
  0
XRECORD
  5
4C8
102
{ACAD_REACTORS
330
4C7
102
}
330
4C7
100
AcDbXrecord
280
     1
102
RTVSPropertyOp0
 70
     1
102
RTVSPropertyOp1
 70
     1
102
RTVSPropertyOp2
 70
     1
102
RTVSPropertyOp3
 70
     1
102
RTVSPropertyOp4
 70
     1
102
RTVSPropertyOp5
 70
     1
102
RTVSPropertyOp6
 70
     1
102
RTVSPropertyOp7
 70
     1
102
RTVSPropertyOp8
 70
     1
102
RTVSPropertyOp9
 70
     1
102
RTVSPropertyOp10
 70
     1
102
RTVSPropertyOp11
 70
     1
102
RTVSPropertyOp12
 70
     1
102
RTVSPropertyOp13
 70
     1
102
RTVSPropertyOp14
 70
     1
102
RTVSPropertyOp15
 70
     1
102
RTVSPropertyOp16
 70
     1
102
RTVSPropertyOp17
 70
     1
102
RTVSPropertyOp18
 70
     1
102
RTVSPropertyOp19
 70
     1
102
RTVSPropertyOp20
 70
     1
102
RTVSPropertyOp21
 70
     1
102
RTVSPropertyOp22
 70
     1
102
RTVSPropertyOp23
 70
     1
102
RTVSPropertyOp24
 70
     1
102
RTVSPropertyOp25
 70
     1
102
RTVSPropertyOp26
 70
     1
102
RTVSPropertyOp27
 70
     1
102
RTVSPropertyOp28
 70
     1
102
RTVSPropertyOp29
 70
     1
102
RTVSPropertyOp30
 70
     1
102
RTVSPropertyOp31
 70
     1
102
RTVSPropertyOp32
 70
     1
  0
ENDSEC
  0
EOF
