  0
SECTION
  2
HEADER
  9
$ACADVER
  1
AC1018
  9
$ACADMAINTVER
 70
     0
  9
$DWGCODEPAGE
  3
ANSI_1252
  9
$INSBASE
 10
0.0
 20
0.0
 30
0.0
  9
$EXTMIN
 10
-44.25000024188284
 20
789.2499994171704
 30
0.0
  9
$EXTMAX
 10
252.7499997581152
 20
999.2499994171706
 30
0.0
  9
$LIMMIN
 10
0.0
 20
0.0
  9
$LIMMAX
 10
12.0
 20
9.0
  9
$ORTHOMODE
 70
     0
  9
$REGENMODE
 70
     1
  9
$FILLMODE
 70
     1
  9
$QTEXTMODE
 70
     0
  9
$MIRRTEXT
 70
     1
  9
$LTSCALE
 40
1.0
  9
$ATTMODE
 70
     1
  9
$TEXTSIZE
 40
0.2
  9
$TRACEWID
 40
0.05
  9
$TEXTSTYLE
  7
Standard
  9
$CLAYER
  8
0
  9
$CELTYPE
  6
ByLayer
  9
$CECOLOR
 62
   256
  9
$CELTSCALE
 40
1.0
  9
$DISPSILH
 70
     0
  9
$DIMSCALE
 40
1.0
  9
$DIMASZ
 40
0.18
  9
$DIMEXO
 40
0.0625
  9
$DIMDLI
 40
0.38
  9
$DIMRND
 40
0.0
  9
$DIMDLE
 40
0.0
  9
$DIMEXE
 40
0.18
  9
$DIMTP
 40
0.0
  9
$DIMTM
 40
0.0
  9
$DIMTXT
 40
0.18
  9
$DIMCEN
 40
0.09
  9
$DIMTSZ
 40
0.0
  9
$DIMTOL
 70
     0
  9
$DIMLIM
 70
     0
  9
$DIMTIH
 70
     1
  9
$DIMTOH
 70
     1
  9
$DIMSE1
 70
     0
  9
$DIMSE2
 70
     0
  9
$DIMTAD
 70
     0
  9
$DIMZIN
 70
     0
  9
$DIMBLK
  1

  9
$DIMASO
 70
     1
  9
$DIMSHO
 70
     1
  9
$DIMPOST
  1

  9
$DIMAPOST
  1

  9
$DIMALT
 70
     0
  9
$DIMALTD
 70
     2
  9
$DIMALTF
 40
25.4
  9
$DIMLFAC
 40
1.0
  9
$DIMTOFL
 70
     0
  9
$DIMTVP
 40
0.0
  9
$DIMTIX
 70
     0
  9
$DIMSOXD
 70
     0
  9
$DIMSAH
 70
     0
  9
$DIMBLK1
  1

  9
$DIMBLK2
  1

  9
$DIMSTYLE
  2
Standard
  9
$DIMCLRD
 70
     0
  9
$DIMCLRE
 70
     0
  9
$DIMCLRT
 70
     0
  9
$DIMTFAC
 40
1.0
  9
$DIMGAP
 40
0.09
  9
$DIMJUST
 70
     0
  9
$DIMSD1
 70
     0
  9
$DIMSD2
 70
     0
  9
$DIMTOLJ
 70
     1
  9
$DIMTZIN
 70
     0
  9
$DIMALTZ
 70
     0
  9
$DIMALTTZ
 70
     0
  9
$DIMUPT
 70
     0
  9
$DIMDEC
 70
     4
  9
$DIMTDEC
 70
     4
  9
$DIMALTU
 70
     2
  9
$DIMALTTD
 70
     2
  9
$DIMTXSTY
  7
Standard
  9
$DIMAUNIT
 70
     0
  9
$DIMADEC
 70
     0
  9
$DIMALTRND
 40
0.0
  9
$DIMAZIN
 70
     0
  9
$DIMDSEP
 70
    46
  9
$DIMATFIT
 70
     3
  9
$DIMFRAC
 70
     0
  9
$DIMLDRBLK
  1

  9
$DIMLUNIT
 70
     2
  9
$DIMLWD
 70
    -2
  9
$DIMLWE
 70
    -2
  9
$DIMTMOVE
 70
     0
  9
$LUNITS
 70
     2
  9
$LUPREC
 70
     4
  9
$SKETCHINC
 40
0.1
  9
$FILLETRAD
 40
0.5
  9
$AUNITS
 70
     0
  9
$AUPREC
 70
     0
  9
$MENU
  1
.
  9
$ELEVATION
 40
0.0
  9
$PELEVATION
 40
0.0
  9
$THICKNESS
 40
0.0
  9
$LIMCHECK
 70
     0
  9
$CHAMFERA
 40
0.5
  9
$CHAMFERB
 40
0.5
  9
$CHAMFERC
 40
1.0
  9
$CHAMFERD
 40
0.0
  9
$SKPOLY
 70
     0
  9
$TDCREATE
 40
2458361.464915197
  9
$TDUCREATE
 40
2458361.381581863
  9
$TDUPDATE
 40
2458361.464917002
  9
$TDUUPDATE
 40
2458361.381583669
  9
$TDINDWG
 40
0.0000000116
  9
$TDUSRTIMER
 40
0.0000000116
  9
$USRTIMER
 70
     1
  9
$ANGBASE
 50
0.0
  9
$ANGDIR
 70
     0
  9
$PDMODE
 70
     0
  9
$PDSIZE
 40
0.0
  9
$PLINEWID
 40
0.0
  9
$SPLFRAME
 70
     0
  9
$SPLINETYPE
 70
     6
  9
$SPLINESEGS
 70
     8
  9
$HANDSEED
  5
33D
  9
$SURFTAB1
 70
     6
  9
$SURFTAB2
 70
     6
  9
$SURFTYPE
 70
     6
  9
$SURFU
 70
     6
  9
$SURFV
 70
     6
  9
$UCSBASE
  2

  9
$UCSNAME
  2

  9
$UCSORG
 10
0.0
 20
0.0
 30
0.0
  9
$UCSXDIR
 10
1.0
 20
0.0
 30
0.0
  9
$UCSYDIR
 10
0.0
 20
1.0
 30
0.0
  9
$UCSORTHOREF
  2

  9
$UCSORTHOVIEW
 70
     0
  9
$UCSORGTOP
 10
0.0
 20
0.0
 30
0.0
  9
$UCSORGBOTTOM
 10
0.0
 20
0.0
 30
0.0
  9
$UCSORGLEFT
 10
0.0
 20
0.0
 30
0.0
  9
$UCSORGRIGHT
 10
0.0
 20
0.0
 30
0.0
  9
$UCSORGFRONT
 10
0.0
 20
0.0
 30
0.0
  9
$UCSORGBACK
 10
0.0
 20
0.0
 30
0.0
  9
$PUCSBASE
  2

  9
$PUCSNAME
  2

  9
$PUCSORG
 10
0.0
 20
0.0
 30
0.0
  9
$PUCSXDIR
 10
1.0
 20
0.0
 30
0.0
  9
$PUCSYDIR
 10
0.0
 20
1.0
 30
0.0
  9
$PUCSORTHOREF
  2

  9
$PUCSORTHOVIEW
 70
     0
  9
$PUCSORGTOP
 10
0.0
 20
0.0
 30
0.0
  9
$PUCSORGBOTTOM
 10
0.0
 20
0.0
 30
0.0
  9
$PUCSORGLEFT
 10
0.0
 20
0.0
 30
0.0
  9
$PUCSORGRIGHT
 10
0.0
 20
0.0
 30
0.0
  9
$PUCSORGFRONT
 10
0.0
 20
0.0
 30
0.0
  9
$PUCSORGBACK
 10
0.0
 20
0.0
 30
0.0
  9
$USERI1
 70
     0
  9
$USERI2
 70
     0
  9
$USERI3
 70
     0
  9
$USERI4
 70
     0
  9
$USERI5
 70
     0
  9
$USERR1
 40
18.1
  9
$USERR2
 40
0.0
  9
$USERR3
 40
0.0
  9
$USERR4
 40
0.0
  9
$USERR5
 40
0.0
  9
$WORLDVIEW
 70
     1
  9
$SHADEDGE
 70
     3
  9
$SHADEDIF
 70
    70
  9
$TILEMODE
 70
     1
  9
$MAXACTVP
 70
    64
  9
$PINSBASE
 10
0.0
 20
0.0
 30
0.0
  9
$PLIMCHECK
 70
     0
  9
$PEXTMIN
 10
1.00000000000000E+20
 20
1.00000000000000E+20
 30
1.00000000000000E+20
  9
$PEXTMAX
 10
-1.00000000000000E+20
 20
-1.00000000000000E+20
 30
-1.00000000000000E+20
  9
$PLIMMIN
 10
0.0
 20
0.0
  9
$PLIMMAX
 10
12.0
 20
9.0
  9
$UNITMODE
 70
     0
  9
$VISRETAIN
 70
     1
  9
$PLINEGEN
 70
     0
  9
$PSLTSCALE
 70
     1
  9
$TREEDEPTH
 70
  3020
  9
$CMLSTYLE
  2
Standard
  9
$CMLJUST
 70
     0
  9
$CMLSCALE
 40
1.0
  9
$PROXYGRAPHICS
 70
     1
  9
$MEASUREMENT
 70
     1
  9
$CELWEIGHT
370
    -1
  9
$ENDCAPS
280
     0
  9
$JOINSTYLE
280
     0
  9
$LWDISPLAY
290
     0
  9
$INSUNITS
 70
     4
  9
$HYPERLINKBASE
  1

  9
$STYLESHEET
  1

  9
$XEDIT
290
     1
  9
$CEPSNTYPE
380
     0
  9
$PSTYLEMODE
290
     1
  9
$FINGERPRINTGUID
  2
{4854D791-1D9F-418D-B004-6291FD5A9804}
  9
$VERSIONGUID
  2
{FAEB1C32-E019-11D5-929B-00C0DF256EC4}
  9
$EXTNAMES
290
     1
  9
$PSVPSCALE
 40
0.0
  9
$OLESTARTUP
290
     0
  9
$SORTENTS
280
   127
  9
$INDEXCTL
280
     0
  9
$HIDETEXT
280
     1
  9
$XCLIPFRAME
290
     0
  9
$HALOGAP
280
     0
  9
$OBSCOLOR
 70
   257
  9
$OBSLTYPE
280
     0
  9
$INTERSECTIONDISPLAY
280
     0
  9
$INTERSECTIONCOLOR
 70
   257
  9
$DIMASSOC
280
     2
  9
$PROJECTNAME
  1

  0
ENDSEC
  0
SECTION
  2
CLASSES
  0
CLASS
  1
ACDBDICTIONARYWDFLT
  2
AcDbDictionaryWithDefault
  3
ObjectDBX Classes
 90
        0
 91
        4
280
     0
281
     0
  0
CLASS
  1
VISUALSTYLE
  2
AcDbVisualStyle
  3
ObjectDBX Classes
 90
     4095
 91
        4
280
     0
281
     0
  0
CLASS
  1
MATERIAL
  2
AcDbMaterial
  3
ObjectDBX Classes
 90
     1153
 91
        4
280
     0
281
     0
  0
ENDSEC
  0
SECTION
  2
TABLES
  0
TABLE
  2
VPORT
  5
8
330
0
100
AcDbSymbolTable
 70
     1
  0
VPORT
  5
29
330
8
100
AcDbSymbolTableRecord
100
AcDbViewportTableRecord
  2
*Active
 70
     0
 10
0.0
 20
0.0
 11
1.0
 21
1.0
 12
104.2499997581162
 22
894.2499994171706
 13
0.0
 23
0.0
 14
0.5
 24
0.5
 15
0.5
 25
0.5
 16
0.0
 26
0.0
 36
1.0
 17
0.0
 27
0.0
 37
0.0
 40
231.0000000000001
 41
1.60267857142857
 42
50.0
 43
0.0
 44
0.0
 50
0.0
 51
0.0
 71
     0
 72
   100
 73
     1
 74
     3
 75
     0
 76
     0
 77
     0
 78
     0
281
     0
 65
     1
110
0.0
120
0.0
130
0.0
111
1.0
121
0.0
131
0.0
112
0.0
122
1.0
132
0.0
 79
     0
146
0.0
  0
ENDTAB
  0
TABLE
  2
LTYPE
  5
5
330
0
100
AcDbSymbolTable
 70
     8
  0
LTYPE
  5
14
330
5
100
AcDbSymbolTableRecord
100
AcDbLinetypeTableRecord
  2
ByBlock
 70
     0
  3

 72
    65
 73
     0
 40
0.0
  0
LTYPE
  5
15
330
5
100
AcDbSymbolTableRecord
100
AcDbLinetypeTableRecord
  2
ByLayer
 70
     0
  3

 72
    65
 73
     0
 40
0.0
  0
LTYPE
  5
16
330
5
100
AcDbSymbolTableRecord
100
AcDbLinetypeTableRecord
  2
Continuous
 70
     0
  3
Solid line
 72
    65
 73
     0
 40
0.0
  0
LTYPE
  5
3F
330
5
100
AcDbSymbolTableRecord
100
AcDbLinetypeTableRecord
  2
DASHED
 70
     0
  3
Dashed
 72
    65
 73
     2
 40
15.0
 49
7.0
 74
     0
 49
-8.0
 74
     0
  0
LTYPE
  5
40
330
5
100
AcDbSymbolTableRecord
100
AcDbLinetypeTableRecord
  2
DOTTED
 70
     0
  3
Dotted
 72
    65
 73
     2
 40
1.0
 49
0.0
 74
     0
 49
-1.0
 74
     0
  0
LTYPE
  5
41
330
5
100
AcDbSymbolTableRecord
100
AcDbLinetypeTableRecord
  2
DOT_CENTER
 70
     0
  3
Dot_Center
 72
    65
 73
     4
 40
14.0
 49
12.0
 74
     0
 49
-1.0
 74
     0
 49
0.0
 74
     0
 49
-1.0
 74
     0
  0
LTYPE
  5
42
330
5
100
AcDbSymbolTableRecord
100
AcDbLinetypeTableRecord
  2
LONG_DASHED
 70
     0
  3
Long_Dashed
 72
    65
 73
     2
 40
15.0
 49
10.0
 74
     0
 49
-5.0
 74
     0
  0
LTYPE
  5
43
330
5
100
AcDbSymbolTableRecord
100
AcDbLinetypeTableRecord
  2
DASH_CENTER
 70
     0
  3
Dash_Center
 72
    65
 73
     4
 40
14.0
 49
11.0
 74
     0
 49
-1.0
 74
     0
 49
1.0
 74
     0
 49
-1.0
 74
     0
  0
LTYPE
  5
44
330
5
100
AcDbSymbolTableRecord
100
AcDbLinetypeTableRecord
  2
PHANTOM
 70
     0
  3
Phantom
 72
    65
 73
     6
 40
13.0
 49
10.0
 74
     0
 49
-1.0
 74
     0
 49
0.0
 74
     0
 49
-1.0
 74
     0
 49
0.0
 74
     0
 49
-1.0
 74
     0
  0
LTYPE
  5
45
330
5
100
AcDbSymbolTableRecord
100
AcDbLinetypeTableRecord
  2
CENTER_DASH_DASH
 70
     0
  3
Center_Dash_Dash
 72
    65
 73
     6
 40
14.0
 49
9.0
 74
     0
 49
-1.0
 74
     0
 49
1.0
 74
     0
 49
-1.0
 74
     0
 49
1.0
 74
     0
 49
-1.0
 74
     0
  0
ENDTAB
  0
TABLE
  2
LAYER
  5
2
330
0
100
AcDbSymbolTable
 70
     2
  0
LAYER
  5
10
330
2
100
AcDbSymbolTableRecord
100
AcDbLayerTableRecord
  2
0
 70
     0
 62
     7
  6
Continuous
370
    -3
390
F
  0
LAYER
  5
46
330
2
100
AcDbSymbolTableRecord
100
AcDbLayerTableRecord
  2
1
 70
     0
 62
     7
  6
Continuous
370
    -3
390
F
  0
ENDTAB
  0
TABLE
  2
STYLE
  5
3
330
0
100
AcDbSymbolTable
 70
     5
  0
STYLE
  5
11
330
3
100
AcDbSymbolTableRecord
100
AcDbTextStyleTableRecord
  2
Standard
 70
     0
 40
0.0
 41
1.0
 50
0.0
 71
     0
 42
0.2
  3
txt
  4

  0
STYLE
  5
DD
330
3
100
AcDbSymbolTableRecord
100
AcDbTextStyleTableRecord
  2
CONVERTER_11
 70
     0
 40
0.0
 41
0.9
 50
0.0
 71
     0
 42
0.2
  3
txt.shx
  4

  0
STYLE
  5
2D3
330
3
100
AcDbSymbolTableRecord
100
AcDbTextStyleTableRecord
  2
CONVERTER_12
 70
     0
 40
0.0
 41
0.81
 50
0.0
 71
     0
 42
0.2
  3
txt.shx
  4

  0
STYLE
  5
2D9
330
3
100
AcDbSymbolTableRecord
100
AcDbTextStyleTableRecord
  2
CONVERTER_13
 70
     0
 40
0.0
 41
0.855
 50
0.0
 71
     0
 42
0.2
  3
txt.shx
  4

  0
STYLE
  5
2DC
330
3
100
AcDbSymbolTableRecord
100
AcDbTextStyleTableRecord
  2
CONVERTER_14
 70
     0
 40
0.0
 41
0.72
 50
0.0
 71
     0
 42
0.2
  3
txt.shx
  4

  0
ENDTAB
  0
TABLE
  2
VIEW
  5
6
330
0
100
AcDbSymbolTable
 70
     0
  0
ENDTAB
  0
TABLE
  2
UCS
  5
7
330
0
100
AcDbSymbolTable
 70
     0
  0
ENDTAB
  0
TABLE
  2
APPID
  5
9
330
0
100
AcDbSymbolTable
 70
     1
  0
APPID
  5
12
330
9
100
AcDbSymbolTableRecord
100
AcDbRegAppTableRecord
  2
ACAD
 70
     0
  0
ENDTAB
  0
TABLE
  2
DIMSTYLE
  5
A
330
0
100
AcDbSymbolTable
 70
     5
100
AcDbDimStyleTable
  0
DIMSTYLE
105
27
330
A
100
AcDbSymbolTableRecord
100
AcDbDimStyleTableRecord
  2
Standard
 70
     0
178
     0
340
11
  0
DIMSTYLE
105
F6
102
{ACAD_REACTORS
330
F7
102
}
330
A
100
AcDbSymbolTableRecord
100
AcDbDimStyleTableRecord
  2
ME10_DIM_10
 70
     0
 41
3.5
 42
0.0
 44
1.5
 73
     0
 74
     0
 77
     1
 78
     8
140
3.5
147
1.5
172
     1
173
     1
174
     1
175
     1
176
     2
177
     2
271
     2
178
     3
271
     2
340
DD
  0
DIMSTYLE
105
1C4
102
{ACAD_REACTORS
330
1C5
102
}
330
A
100
AcDbSymbolTableRecord
100
AcDbDimStyleTableRecord
  2
ME10_DIM_11
 70
     0
 41
3.5
 42
0.0
 44
1.5
 73
     0
 74
     0
 77
     1
 78
     8
140
3.5
147
1.5
172
     1
173
     1
174
     1
175
     1
176
     2
177
     2
271
     2
178
     3
271
     2
340
DD
  0
DIMSTYLE
105
1CF
102
{ACAD_REACTORS
330
1D0
102
}
330
A
100
AcDbSymbolTableRecord
100
AcDbDimStyleTableRecord
  2
ME10_DIM_12
 70
     0
 41
3.5
 42
0.0
 44
1.5
 73
     0
 74
     0
 77
     1
 78
     8
140
3.5
147
1.5
172
     1
173
     1
174
     1
175
     1
176
     2
177
     2
271
     2
178
     3
271
     2
340
DD
  0
DIMSTYLE
105
1DA
102
{ACAD_REACTORS
330
1DB
102
}
330
A
100
AcDbSymbolTableRecord
100
AcDbDimStyleTableRecord
  2
ME10_DIM_13
 70
     0
 41
3.5
 42
0.0
 44
1.5
 73
     0
 74
     0
 77
     1
 78
     8
140
3.5
147
1.5
172
     1
173
     1
174
     1
175
     1
176
     2
177
     2
271
     2
178
     3
271
     2
340
DD
  0
ENDTAB
  0
TABLE
  2
BLOCK_RECORD
  5
1
330
0
100
AcDbSymbolTable
 70
    23
  0
BLOCK_RECORD
  5
1F
330
1
100
AcDbSymbolTableRecord
100
AcDbBlockTableRecord
  2
*Model_Space
340
22
  0
BLOCK_RECORD
  5
1B
330
1
100
AcDbSymbolTableRecord
100
AcDbBlockTableRecord
  2
*Paper_Space
340
1E
  0
BLOCK_RECORD
  5
23
330
1
100
AcDbSymbolTableRecord
100
AcDbBlockTableRecord
  2
*Paper_Space0
340
26
  0
BLOCK_RECORD
  5
47
330
1
100
AcDbSymbolTableRecord
100
AcDbBlockTableRecord
  2
REL-IR4_4X21-OG-select__1
340
0
102
{BLKREFS
331
4B
102
}
  0
BLOCK_RECORD
  5
4A
330
1
100
AcDbSymbolTableRecord
100
AcDbBlockTableRecord
  2
Allg1
340
0
102
{BLKREFS
331
84
102
}
  0
BLOCK_RECORD
  5
4E
330
1
100
AcDbSymbolTableRecord
100
AcDbBlockTableRecord
  2
REL-IR4_4X21-OG-select__2
340
0
102
{BLKREFS
331
52
102
}
  0
BLOCK_RECORD
  5
51
330
1
100
AcDbSymbolTableRecord
100
AcDbBlockTableRecord
  2
Drfsicht1
340
0
102
{BLKREFS
331
85
102
}
  0
BLOCK_RECORD
  5
55
330
1
100
AcDbSymbolTableRecord
100
AcDbBlockTableRecord
  2
REL-IR4_4X21-OG-select__3
340
0
102
{BLKREFS
331
59
102
}
  0
BLOCK_RECORD
  5
58
330
1
100
AcDbSymbolTableRecord
100
AcDbBlockTableRecord
  2
Rckans1
340
0
102
{BLKREFS
331
86
102
}
  0
BLOCK_RECORD
  5
5C
330
1
100
AcDbSymbolTableRecord
100
AcDbBlockTableRecord
  2
REL-IR4_4X21-OG-select__4
340
0
102
{BLKREFS
331
60
102
}
  0
BLOCK_RECORD
  5
5F
330
1
100
AcDbSymbolTableRecord
100
AcDbBlockTableRecord
  2
SA_Links1
340
0
102
{BLKREFS
331
87
102
}
  0
BLOCK_RECORD
  5
63
330
1
100
AcDbSymbolTableRecord
100
AcDbBlockTableRecord
  2
REL-IR4_4X21-OG-select__5
340
0
102
{BLKREFS
331
67
102
}
  0
BLOCK_RECORD
  5
66
330
1
100
AcDbSymbolTableRecord
100
AcDbBlockTableRecord
  2
SA_Rechts1
340
0
102
{BLKREFS
331
88
102
}
  0
BLOCK_RECORD
  5
6A
330
1
100
AcDbSymbolTableRecord
100
AcDbBlockTableRecord
  2
REL-IR4_4X21-OG-select__6
340
0
102
{BLKREFS
331
6E
102
}
  0
BLOCK_RECORD
  5
6D
330
1
100
AcDbSymbolTableRecord
100
AcDbBlockTableRecord
  2
Untsicht1
340
0
102
{BLKREFS
331
89
102
}
  0
BLOCK_RECORD
  5
71
330
1
100
AcDbSymbolTableRecord
100
AcDbBlockTableRecord
  2
REL-IR4_4X21-OG-select__7
340
0
102
{BLKREFS
331
75
102
}
  0
BLOCK_RECORD
  5
74
330
1
100
AcDbSymbolTableRecord
100
AcDbBlockTableRecord
  2
Vordans1
340
0
102
{BLKREFS
331
8A
102
}
  0
BLOCK_RECORD
  5
78
330
1
100
AcDbSymbolTableRecord
100
AcDbBlockTableRecord
  2
_rahmen
340
0
102
{BLKREFS
331
7F
102
}
  0
BLOCK_RECORD
  5
7B
330
1
100
AcDbSymbolTableRecord
100
AcDbBlockTableRecord
  2
_punkt
340
0
102
{BLKREFS
331
80
102
}
  0
BLOCK_RECORD
  5
7E
330
1
100
AcDbSymbolTableRecord
100
AcDbBlockTableRecord
  2
A4I_CS
340
0
102
{BLKREFS
331
8B
102
}
  0
BLOCK_RECORD
  5
83
330
1
100
AcDbSymbolTableRecord
100
AcDbBlockTableRecord
  2
1
340
0
102
{BLKREFS
331
8E
102
}
  0
BLOCK_RECORD
  5
ED
330
1
100
AcDbSymbolTableRecord
100
AcDbBlockTableRecord
  2
*D19
340
0
  0
BLOCK_RECORD
  5
1BB
330
1
100
AcDbSymbolTableRecord
100
AcDbBlockTableRecord
  2
*D20
340
0
  0
BLOCK_RECORD
  5
1C6
330
1
100
AcDbSymbolTableRecord
100
AcDbBlockTableRecord
  2
*D21
340
0
  0
BLOCK_RECORD
  5
1D1
330
1
100
AcDbSymbolTableRecord
100
AcDbBlockTableRecord
  2
*D22
340
0
  0
ENDTAB
  0
ENDSEC
  0
SECTION
  2
BLOCKS
  0
BLOCK
  5
20
330
1F
100
AcDbEntity
  8
0
100
AcDbBlockBegin
  2
*Model_Space
 70
     0
 10
0.0
 20
0.0
 30
0.0
  3
*Model_Space
  1

  0
ENDBLK
  5
21
330
1F
100
AcDbEntity
  8
0
100
AcDbBlockEnd
  0
BLOCK
  5
1C
330
1B
100
AcDbEntity
 67
     1
  8
0
100
AcDbBlockBegin
  2
*Paper_Space
 70
     0
 10
0.0
 20
0.0
 30
0.0
  3
*Paper_Space
  1

  0
ENDBLK
  5
1D
330
1B
100
AcDbEntity
 67
     1
  8
0
100
AcDbBlockEnd
  0
BLOCK
  5
24
330
23
100
AcDbEntity
  8
0
100
AcDbBlockBegin
  2
*Paper_Space0
 70
     0
 10
0.0
 20
0.0
 30
0.0
  3
*Paper_Space0
  1

  0
ENDBLK
  5
25
330
23
100
AcDbEntity
  8
0
100
AcDbBlockEnd
  0
BLOCK
  5
48
330
47
100
AcDbEntity
  8
0
100
AcDbBlockBegin
  2
REL-IR4_4X21-OG-select__1
 70
     0
 10
166.7921505746641
 20
823.2582751025018
 30
0.0
  3
REL-IR4_4X21-OG-select__1
  1

  0
LINE
  5
8F
330
47
100
AcDbEntity
  8
0
  6
Continuous
 62
     7
100
AcDbLine
 10
190.7937475635636
 20
825.1635309908279
 30
0.0
 11
190.3607348616714
 21
825.2885309908279
 31
0.0
  0
LINE
  5
90
330
47
100
AcDbEntity
  8
0
  6
Continuous
 62
     7
100
AcDbLine
 10
191.8937475635636
 20
827.3123113577035
 30
0.0
 11
191.8937475635636
 21
826.116158934991
 31
0.0
  0
LINE
  5
91
330
47
100
AcDbEntity
  8
0
  6
Continuous
 62
     7
100
AcDbLine
 10
190.7937475635636
 20
826.3596834135407
 30
0.0
 11
190.7937475635636
 21
825.1635309908279
 31
0.0
  0
LINE
  5
92
330
47
100
AcDbEntity
  8
0
  6
Continuous
 62
     7
100
AcDbLine
 10
190.3607348616714
 20
826.2700264485005
 30
0.0
 11
190.3607348616714
 21
825.2885309908279
 31
0.0
  0
LINE
  5
93
330
47
100
AcDbEntity
  8
0
  6
Continuous
 62
     7
100
AcDbLine
 10
186.2296459484259
 20
827.4625690965548
 30
0.0
 11
186.2296459484259
 21
825.2109030466648
 31
0.0
  0
LINE
  5
94
330
47
100
AcDbEntity
  8
0
  6
Continuous
 62
     7
100
AcDbLine
 10
187.3296459484259
 20
827.1450264485005
 30
0.0
 11
187.3296459484259
 21
826.1635309908279
 31
0.0
  0
LINE
  5
95
330
47
100
AcDbEntity
  8
0
  6
Continuous
 62
     7
100
AcDbLine
 10
188.5937475635636
 20
823.2582751025018
 30
0.0
 11
188.1607348616714
 21
823.3832751025018
 31
0.0
  0
LINE
  5
96
330
47
100
AcDbEntity
  8
0
  6
Continuous
 62
     7
100
AcDbLine
 10
188.5937475635636
 20
823.2582751025018
 30
0.0
 11
188.5937475635636
 21
826.7801117446091
 31
0.0
  0
LINE
  5
97
330
47
100
AcDbEntity
  8
0
  6
Continuous
 62
     7
100
AcDbLine
 10
188.5937475635636
 20
823.2582751025018
 30
0.0
 11
189.6937475635636
 21
824.2109030466648
 31
0.0
  0
LINE
  5
98
330
47
100
AcDbEntity
  8
0
  6
Continuous
 62
     7
100
AcDbLine
 10
189.6937475635636
 20
826.4625690965548
 30
0.0
 11
189.6937475635636
 21
824.2109030466648
 31
0.0
  0
LINE
  5
99
330
47
100
AcDbEntity
  8
0
  6
Continuous
 62
     7
100
AcDbLine
 10
187.3296459484259
 20
826.1635309908279
 30
0.0
 11
186.8966332465336
 21
826.2885309908279
 31
0.0
  0
LINE
  5
9A
330
47
100
AcDbEntity
  8
0
  6
Continuous
 62
     7
100
AcDbLine
 10
188.1607348616714
 20
826.8832751025022
 30
0.0
 11
187.3296459484259
 21
826.1635309908279
 31
0.0
  0
LINE
  5
9B
330
47
100
AcDbEntity
  8
0
  6
Continuous
 62
     7
100
AcDbLine
 10
191.8937475635636
 20
826.116158934991
 30
0.0
 11
190.7937475635636
 21
825.1635309908279
 31
0.0
  0
LINE
  5
9C
330
47
100
AcDbEntity
  8
0
  6
Continuous
 62
     7
100
AcDbLine
 10
184.6966332465337
 20
827.9051117446091
 30
0.0
 11
184.6966332465337
 21
824.3832751025018
 31
0.0
  0
LINE
  5
9D
330
47
100
AcDbEntity
  8
0
  6
Continuous
 62
     7
100
AcDbLine
 10
185.1296459484259
 20
827.7801117446091
 30
0.0
 11
185.1296459484259
 21
824.2582751025018
 31
0.0
  0
LINE
  5
9E
330
47
100
AcDbEntity
  8
0
  6
Continuous
 62
     7
100
AcDbLine
 10
185.1296459484259
 20
824.2582751025018
 30
0.0
 11
186.2296459484259
 21
825.2109030466648
 31
0.0
  0
LINE
  5
9F
330
47
100
AcDbEntity
  8
0
  6
Continuous
 62
     7
100
AcDbLine
 10
188.1607348616714
 20
823.3832751025018
 30
0.0
 11
188.1607348616714
 21
826.9051117446091
 31
0.0
  0
LINE
  5
A0
330
47
100
AcDbEntity
  8
0
  6
Continuous
 62
     7
100
AcDbLine
 10
179.6303846343947
 20
825.8457751025019
 30
0.0
 11
180.7303846343947
 21
826.7984030466648
 31
0.0
  0
LINE
  5
A1
330
47
100
AcDbEntity
  8
0
  6
Continuous
 62
     7
100
AcDbLine
 10
184.6966332465337
 20
824.3832751025018
 30
0.0
 11
185.1296459484259
 21
824.2582751025018
 31
0.0
  0
LINE
  5
A2
330
47
100
AcDbEntity
  8
0
  6
Continuous
 62
     7
100
AcDbLine
 10
181.8303846343947
 20
827.7510309908279
 30
0.0
 11
181.3973719325024
 21
827.8760309908279
 31
0.0
  0
LINE
  5
A3
330
47
100
AcDbEntity
  8
0
  6
Continuous
 62
     7
100
AcDbLine
 10
179.1973719325025
 20
829.4926117446091
 30
0.0
 11
179.1973719325025
 21
825.9707751025019
 31
0.0
  0
LINE
  5
A4
330
47
100
AcDbEntity
  8
0
  6
Continuous
 62
     7
100
AcDbLine
 10
179.6303846343947
 20
829.3676117446091
 30
0.0
 11
179.6303846343947
 21
825.8457751025019
 31
0.0
  0
LINE
  5
A5
330
47
100
AcDbEntity
  8
0
  6
Continuous
 62
     7
100
AcDbLine
 10
179.1973719325025
 20
825.9707751025019
 30
0.0
 11
179.6303846343947
 21
825.8457751025019
 31
0.0
  0
LINE
  5
A6
330
47
100
AcDbEntity
  8
0
  6
Continuous
 62
     7
100
AcDbLine
 10
185.8447094579217
 20
856.0659264742696
 30
0.0
 11
185.8447094579217
 21
858.3175925241092
 31
0.0
  0
LINE
  5
A7
330
47
100
AcDbEntity
  8
0
  6
Continuous
 62
     7
100
AcDbLine
 10
185.8447094579217
 20
858.3175925241092
 30
0.0
 11
166.7921505746641
 21
863.8175925241092
 31
0.0
  0
LINE
  5
A8
330
47
100
AcDbEntity
  8
0
  6
Continuous
 62
     7
100
AcDbLine
 10
166.7921505746641
 20
863.8175925241092
 30
0.0
 11
177.392150574664
 21
872.9974618042243
 31
0.0
  0
LINE
  5
A9
330
47
100
AcDbEntity
  8
0
  6
Continuous
 62
     7
100
AcDbLine
 10
174.1311233203635
 20
827.4332751025019
 30
0.0
 11
173.6981106184713
 21
827.5582751025019
 31
0.0
  0
LINE
  5
AA
330
47
100
AcDbEntity
  8
0
  6
Continuous
 62
     7
100
AcDbLine
 10
174.1311233203635
 20
827.4332751025019
 30
0.0
 11
175.2311233203635
 21
828.3859030466649
 31
0.0
  0
LINE
  5
AB
330
47
100
AcDbEntity
  8
0
  6
Continuous
 62
     7
100
AcDbLine
 10
181.3973719325024
 20
828.8575264485005
 30
0.0
 11
181.3973719325024
 21
827.8760309908279
 31
0.0
  0
LINE
  5
AC
330
47
100
AcDbEntity
  8
0
  6
Continuous
 62
     7
100
AcDbLine
 10
181.8303846343947
 20
828.7325264485005
 30
0.0
 11
181.8303846343947
 21
827.7510309908279
 31
0.0
  0
LINE
  5
AD
330
47
100
AcDbEntity
  8
0
  6
Continuous
 62
     7
100
AcDbLine
 10
182.6803846344382
 20
828.4871525840824
 30
0.0
 11
181.8303846343947
 21
827.7510309908279
 31
0.0
  0
LINE
  5
AE
330
47
100
AcDbEntity
  8
0
  6
Continuous
 62
     7
100
AcDbLine
 10
186.8966332465336
 20
827.2700264485005
 30
0.0
 11
186.8966332465336
 21
826.2885309908279
 31
0.0
  0
LINE
  5
AF
330
47
100
AcDbEntity
  8
0
  6
Continuous
 62
     7
100
AcDbLine
 10
180.7303846343947
 20
829.0500690965548
 30
0.0
 11
180.7303846343947
 21
826.7984030466648
 31
0.0
  0
LINE
  5
B0
330
47
100
AcDbEntity
  8
0
  6
Continuous
 62
     7
100
AcDbLine
 10
175.2311233203635
 20
830.6375690965549
 30
0.0
 11
175.2311233203635
 21
828.3859030466649
 31
0.0
  0
LINE
  5
B1
330
47
100
AcDbEntity
  8
0
  6
Continuous
 62
     7
100
AcDbLine
 10
174.1311233203635
 20
827.4332751025019
 30
0.0
 11
174.1311233203635
 21
830.9551117446091
 31
0.0
  0
LINE
  5
B2
330
47
100
AcDbEntity
  8
0
  6
Continuous
 62
     7
100
AcDbLine
 10
173.6981106184713
 20
831.0801117446091
 30
0.0
 11
173.6981106184713
 21
827.5582751025019
 31
0.0
  0
LINE
  5
B3
330
47
100
AcDbEntity
  8
0
  6
Continuous
 62
     7
100
AcDbLine
 10
190.6078491787361
 20
826.1986906897616
 30
0.0
 11
166.7921505746641
 21
833.0736906897616
 31
0.0
  0
LINE
  5
B4
330
47
100
AcDbEntity
  8
0
  6
Continuous
 62
     7
100
AcDbLine
 10
201.2078491787361
 20
835.3785599698766
 30
0.0
 11
201.2078491787361
 21
836.7642006159317
 31
0.0
  0
LINE
  5
B5
330
47
100
AcDbEntity
  8
0
  6
Continuous
 62
     7
100
AcDbLine
 10
192.9937475635636
 20
828.2649393018664
 30
0.0
 11
192.9937475635636
 21
827.0687868791539
 31
0.0
  0
LINE
  5
B6
330
47
100
AcDbEntity
  8
0
  6
Continuous
 62
     7
100
AcDbLine
 10
194.0937475635636
 20
828.021414823317
 30
0.0
 11
192.9937475635636
 21
827.0687868791539
 31
0.0
  0
LINE
  5
B7
330
47
100
AcDbEntity
  8
0
  6
Continuous
 62
     7
100
AcDbLine
 10
190.6078491787361
 20
827.5843313358167
 30
0.0
 11
190.6078491787361
 21
826.1986906897616
 31
0.0
  0
LINE
  5
B8
330
47
100
AcDbEntity
  8
0
  6
Continuous
 62
     7
100
AcDbLine
 10
196.2937475635636
 20
831.122823134355
 30
0.0
 11
196.2937475635636
 21
829.926670711643
 31
0.0
  0
LINE
  5
B9
330
47
100
AcDbEntity
  8
0
  6
Continuous
 62
     7
100
AcDbLine
 10
195.1937475635636
 20
828.97404276748
 30
0.0
 11
194.7607348616714
 21
829.09904276748
 31
0.0
  0
LINE
  5
BA
330
47
100
AcDbEntity
  8
0
  6
Continuous
 62
     7
100
AcDbLine
 10
195.1937475635636
 20
828.97404276748
 30
0.0
 11
195.1937475635636
 21
830.1701951901922
 31
0.0
  0
LINE
  5
BB
330
47
100
AcDbEntity
  8
0
  6
Continuous
 62
     7
100
AcDbLine
 10
194.7607348616714
 20
829.09904276748
 30
0.0
 11
194.7607348616714
 21
829.7951951901922
 31
0.0
  0
LINE
  5
BC
330
47
100
AcDbEntity
  8
0
  6
Continuous
 62
     7
100
AcDbLine
 10
195.1937475635636
 20
828.97404276748
 30
0.0
 11
196.2937475635636
 21
829.926670711643
 31
0.0
  0
LINE
  5
BD
330
47
100
AcDbEntity
  8
0
  6
Continuous
 62
     7
100
AcDbLine
 10
192.5607348616714
 20
827.8899393018664
 30
0.0
 11
192.5607348616714
 21
827.1937868791539
 31
0.0
  0
LINE
  5
BE
330
47
100
AcDbEntity
  8
0
  6
Continuous
 62
     7
100
AcDbLine
 10
192.9937475635636
 20
827.0687868791539
 30
0.0
 11
192.5607348616714
 21
827.1937868791539
 31
0.0
  0
LINE
  5
BF
330
47
100
AcDbEntity
  8
0
  6
Continuous
 62
     7
100
AcDbLine
 10
201.2078491787361
 20
835.3785599698766
 30
0.0
 11
190.6078491787361
 21
826.1986906897616
 31
0.0
  0
LINE
  5
C0
330
47
100
AcDbEntity
  8
0
  6
Continuous
 62
     2
100
AcDbLine
 10
190.6078491787361
 20
827.5843313358167
 30
0.0
 11
201.2078491787361
 21
836.7642006159317
 31
0.0
  0
LINE
  5
C1
330
47
100
AcDbEntity
  8
0
  6
Continuous
 62
     7
100
AcDbLine
 10
166.7921505746641
 20
834.4593313358167
 30
0.0
 11
166.7921505746641
 21
863.8175925241092
 31
0.0
  0
LINE
  5
C2
330
47
100
AcDbEntity
  8
0
  6
Continuous
 62
     7
100
AcDbLine
 10
185.8447094579217
 20
856.0659264742696
 30
0.0
 11
185.8947094579217
 21
856.1092277444588
 31
0.0
  0
LINE
  5
C3
330
47
100
AcDbEntity
  8
0
  6
Continuous
 62
     7
100
AcDbLine
 10
185.8447094579217
 20
858.3175925241092
 30
0.0
 11
191.1447094579217
 21
862.9075271641667
 31
0.0
  0
LINE
  5
C4
330
47
100
AcDbEntity
  8
0
  6
Continuous
 62
     7
100
AcDbLine
 10
189.7918237749517
 20
856.7162785520278
 30
0.0
 11
189.7918237749517
 21
854.9842277444588
 31
0.0
  0
LINE
  5
C5
330
47
100
AcDbEntity
  8
0
  6
Continuous
 62
     7
100
AcDbLine
 10
189.7918237749517
 20
854.9842277444588
 30
0.0
 11
196.1668237749517
 21
860.5051396935847
 31
0.0
  0
LINE
  5
C6
330
47
100
AcDbEntity
  8
0
  6
Continuous
 62
     7
100
AcDbLine
 10
189.7918237749517
 20
856.7162785520278
 30
0.0
 11
196.1668237749517
 21
862.2371905011536
 31
0.0
  0
LINE
  5
C7
330
47
100
AcDbEntity
  8
0
  6
Continuous
 62
     7
100
AcDbLine
 10
185.8947094579217
 20
857.8412785520278
 30
0.0
 11
189.7918237749517
 21
856.7162785520278
 31
0.0
  0
LINE
  5
C8
330
47
100
AcDbEntity
  8
0
  6
Continuous
 62
     7
100
AcDbLine
 10
185.8947094579217
 20
857.8412785520278
 30
0.0
 11
185.8947094579217
 21
856.1092277444588
 31
0.0
  0
LINE
  5
C9
330
47
100
AcDbEntity
  8
0
  6
Continuous
 62
     7
100
AcDbLine
 10
191.1447094579217
 20
862.387911921896
 30
0.0
 11
185.8947094579217
 21
857.8412785520278
 31
0.0
  0
LINE
  5
CA
330
47
100
AcDbEntity
  8
0
  6
Continuous
 62
     7
100
AcDbLine
 10
201.2078491787361
 20
866.1224618042243
 30
0.0
 11
197.0328491787361
 21
862.5068057434243
 31
0.0
  0
LINE
  5
CB
330
47
100
AcDbEntity
  8
0
  6
Continuous
 62
     7
100
AcDbLine
 10
190.6078491787361
 20
854.6909264742696
 30
0.0
 11
185.8447094579217
 21
856.0659264742696
 31
0.0
  0
LINE
  5
CC
330
47
100
AcDbEntity
  8
0
  6
Continuous
 62
     7
100
AcDbLine
 10
185.8947094579217
 20
856.1092277444588
 30
0.0
 11
189.7918237749517
 21
854.9842277444588
 31
0.0
  0
LINE
  5
CD
330
47
100
AcDbEntity
  8
0
  6
Continuous
 62
     7
100
AcDbLine
 10
197.0328491787361
 20
860.2551396935847
 30
0.0
 11
190.6078491787361
 21
854.6909264742696
 31
0.0
  0
LINE
  5
CE
330
47
100
AcDbEntity
  8
0
  6
Continuous
 62
     7
100
AcDbLine
 10
177.392150574664
 20
872.9974618042243
 30
0.0
 11
201.2078491787361
 21
866.1224618042243
 31
0.0
  0
LINE
  5
CF
330
47
100
AcDbEntity
  8
0
  6
Continuous
 62
     7
100
AcDbLine
 10
190.6078491787361
 20
827.5843313358167
 30
0.0
 11
190.6078491787361
 21
854.6909264742696
 31
0.0
  0
LINE
  5
D0
330
47
100
AcDbEntity
  8
0
  6
Continuous
 62
     2
100
AcDbLine
 10
191.1447094579217
 20
862.9075271641667
 30
0.0
 11
191.1447094579217
 21
862.387911921896
 31
0.0
  0
LINE
  5
D1
330
47
100
AcDbEntity
  8
0
  6
Continuous
 62
     7
100
AcDbLine
 10
194.0937475635636
 20
829.2175672460294
 30
0.0
 11
194.0937475635636
 21
828.021414823317
 31
0.0
  0
LINE
  5
D2
330
47
100
AcDbEntity
  8
0
  6
Continuous
 62
     2
100
AcDbLine
 10
194.2182666164367
 20
862.7996905011536
 30
0.0
 11
194.2182666164367
 21
863.3193057434243
 31
0.0
  0
LINE
  5
D3
330
47
100
AcDbEntity
  8
0
  6
Continuous
 62
     7
100
AcDbLine
 10
196.1668237749517
 20
862.2371905011536
 30
0.0
 11
196.1668237749517
 21
860.5051396935847
 31
0.0
  0
LINE
  5
D4
330
47
100
AcDbEntity
  8
0
  6
Continuous
 62
     7
100
AcDbLine
 10
196.1668237749517
 20
860.5051396935847
 30
0.0
 11
197.0328491787361
 21
860.2551396935847
 31
0.0
  0
LINE
  5
D5
330
47
100
AcDbEntity
  8
0
  6
Continuous
 62
     7
100
AcDbLine
 10
194.2182666164367
 20
862.7996905011536
 30
0.0
 11
196.1668237749517
 21
862.2371905011536
 31
0.0
  0
LINE
  5
D6
330
47
100
AcDbEntity
  8
0
  6
Continuous
 62
     7
100
AcDbLine
 10
201.2078491787361
 20
836.7642006159317
 30
0.0
 11
201.2078491787361
 21
866.1224618042243
 31
0.0
  0
LINE
  5
D7
330
47
100
AcDbEntity
  8
0
  6
Continuous
 62
     7
100
AcDbLine
 10
197.0328491787361
 20
862.5068057434243
 30
0.0
 11
197.0328491787361
 21
860.2551396935847
 31
0.0
  0
LINE
  5
D8
330
47
100
AcDbEntity
  8
0
  6
Continuous
 62
     7
100
AcDbLine
 10
197.0328491787361
 20
862.5068057434243
 30
0.0
 11
194.2182666164367
 21
863.3193057434243
 31
0.0
  0
LINE
  5
D9
330
47
100
AcDbEntity
  8
0
  6
Continuous
 62
     7
100
AcDbLine
 10
166.7921505746641
 20
833.0736906897616
 30
0.0
 11
166.7921505746641
 21
834.4593313358167
 31
0.0
  0
LINE
  5
DA
330
47
100
AcDbEntity
  8
0
  6
Continuous
 62
     2
100
AcDbLine
 10
166.7921505746641
 20
834.4593313358167
 30
0.0
 11
190.6078491787361
 21
827.5843313358167
 31
0.0
  0
SPLINE
  5
DB
330
47
100
AcDbEntity
  8
0
  6
Continuous
 62
     7
100
AcDbSpline
210
0.0
220
0.0
230
1.0
 70
     8
 71
     3
 72
    13
 73
     9
 74
     7
 42
0.000000001
 43
0.0000000001
 44
0.00000001
 40
0.0
 40
0.0
 40
0.0
 40
0.0
 40
0.5541732081353903
 40
1.137776236883761
 40
1.721379262711925
 40
2.275552463755832
 40
2.774661786488748
 40
3.201441614243133
 40
3.201441614243133
 40
3.201441614243133
 40
3.201441614243133
 10
194.2182666164367
 20
862.7996905011536
 30
0.0
 10
194.038233802026
 20
862.8424581498399
 30
0.0
 10
193.6686073806718
 20
862.9302646433915
 30
0.0
 10
193.0930685126449
 20
862.9616123425552
 30
0.0
 10
192.5186982470741
 20
862.9268871096328
 30
0.0
 10
191.9837058299153
 20
862.8161353412161
 30
0.0
 10
191.5129516394556
 20
862.6514296380462
 30
0.0
 10
191.2608933386341
 20
862.4710542522539
 30
0.0
 10
191.1447094579217
 20
862.387911921896
 30
0.0
 11
194.2182666164367
 21
862.7996905011536
 31
0.0
 11
193.6756093126614
 21
862.9120781867597
 31
0.0
 11
193.0932666164367
 21
862.950411921896
 31
0.0
 11
192.510923920212
 21
862.9120781867597
 31
0.0
 11
191.9682666164367
 21
862.7996905011536
 31
0.0
 11
191.5022767829341
 21
862.6209068386474
 31
0.0
 11
191.1447094579217
 21
862.387911921896
 31
0.0
  0
SPLINE
  5
DC
330
47
100
AcDbEntity
  8
0
  6
Continuous
 62
     7
100
AcDbSpline
210
0.0
220
0.0
230
1.0
 70
     8
 71
     3
 72
    13
 73
     9
 74
     7
 42
0.000000001
 43
0.0000000001
 44
0.00000001
 40
0.0
 40
0.0
 40
0.0
 40
0.0
 40
0.5541732081353903
 40
1.137776236883761
 40
1.721379262711925
 40
2.275552463755832
 40
2.774661786488748
 40
3.201441614243133
 40
3.201441614243133
 40
3.201441614243133
 40
3.201441614243133
 10
194.2182666164367
 20
863.3193057434243
 30
0.0
 10
194.038233802026
 20
863.3620733921107
 30
0.0
 10
193.6686073806718
 20
863.4498798856621
 30
0.0
 10
193.0930685126449
 20
863.4812275848259
 30
0.0
 10
192.5186982470741
 20
863.4465023519035
 30
0.0
 10
191.9837058299153
 20
863.335750583487
 30
0.0
 10
191.5129516394556
 20
863.1710448803168
 30
0.0
 10
191.2608933386341
 20
862.9906694945245
 30
0.0
 10
191.1447094579217
 20
862.9075271641667
 30
0.0
 11
194.2182666164367
 21
863.3193057434243
 31
0.0
 11
193.6756093126614
 21
863.4316934290304
 31
0.0
 11
193.0932666164367
 21
863.4700271641667
 31
0.0
 11
192.510923920212
 21
863.4316934290304
 31
0.0
 11
191.9682666164367
 21
863.3193057434243
 31
0.0
 11
191.5022767829341
 21
863.1405220809181
 31
0.0
 11
191.1447094579217
 21
862.9075271641667
 31
0.0
  0
ENDBLK
  5
49
330
47
100
AcDbEntity
  8
0
100
AcDbBlockEnd
  0
BLOCK
  5
4C
330
4A
100
AcDbEntity
  8
0
100
AcDbBlockBegin
  2
Allg1
 70
     0
 10
183.999999999998
 20
846.9999999999682
 30
0.0
  3
Allg1
  1

  0
INSERT
  5
4B
330
4A
100
AcDbEntity
  8
0
100
AcDbBlockReference
  2
REL-IR4_4X21-OG-select__1
 10
166.7921505746641
 20
823.2582751025018
 30
0.0
  0
MTEXT
  5
DE
330
4A
100
AcDbEntity
  8
1
 62
     6
100
AcDbMText
 10
183.999999999998
 20
816.0025380364
 30
0.0
 40
5.0
 41
0.0
 71
     2
 72
     1
  1
 
  7
CONVERTER_11
 73
     1
 44
1.32052821128451
  0
ENDBLK
  5
4D
330
4A
100
AcDbEntity
  8
0
100
AcDbBlockEnd
  0
BLOCK
  5
4F
330
4E
100
AcDbEntity
  8
0
100
AcDbBlockBegin
  2
REL-IR4_4X21-OG-select__2
 70
     0
 10
84.24999985752501
 20
835.4000000001781
 30
0.0
  3
REL-IR4_4X21-OG-select__2
  1

  0
LINE
  5
DF
330
4E
100
AcDbEntity
  8
0
  6
Continuous
 62
     7
100
AcDbLine
 10
110.749999857525
 20
835.5000000001781
 30
0.0
 11
110.749999857525
 21
848.2500000001781
 31
0.0
  0
LINE
  5
E0
330
4E
100
AcDbEntity
  8
0
  6
Continuous
 62
     7
100
AcDbLine
 10
106.249999857525
 20
835.5000000001781
 30
0.0
 11
110.749999857525
 21
835.5000000001781
 31
0.0
  0
LINE
  5
E1
330
4E
100
AcDbEntity
  8
0
  6
Continuous
 62
     7
100
AcDbLine
 10
111.749999857525
 20
848.2500000001781
 30
0.0
 11
111.749999857525
 21
835.4000000001781
 31
0.0
  0
LINE
  5
E2
330
4E
100
AcDbEntity
  8
0
  6
Continuous
 62
     7
100
AcDbLine
 10
111.749999857525
 20
835.4000000001781
 30
0.0
 11
106.249999857525
 21
835.4000000001781
 31
0.0
  0
LINE
  5
E3
330
4E
100
AcDbEntity
  8
0
  6
Continuous
 62
     7
100
AcDbLine
 10
111.749999857525
 20
856.6000000001782
 30
0.0
 11
111.749999857525
 21
848.2500000001781
 31
0.0
  0
LINE
  5
E4
330
4E
100
AcDbEntity
  8
0
  6
Continuous
 62
     7
100
AcDbLine
 10
111.749999857525
 20
848.2500000001781
 30
0.0
 11
110.749999857525
 21
848.2500000001781
 31
0.0
  0
LINE
  5
E5
330
4E
100
AcDbEntity
  8
0
  6
Continuous
 62
     7
100
AcDbLine
 10
110.749999857525
 20
848.2500000001781
 30
0.0
 11
108.499999857525
 21
848.2500000001781
 31
0.0
  0
LINE
  5
E6
330
4E
100
AcDbEntity
  8
0
  6
Continuous
 62
     7
100
AcDbLine
 10
84.24999985752501
 20
856.6000000001782
 30
0.0
 11
111.749999857525
 21
856.6000000001782
 31
0.0
  0
LINE
  5
E7
330
4E
100
AcDbEntity
  8
0
  6
Continuous
 62
     7
100
AcDbLine
 10
106.249999857525
 20
835.4000000001781
 30
0.0
 11
106.249999857525
 21
835.5000000001781
 31
0.0
  0
LINE
  5
E8
330
4E
100
AcDbEntity
  8
0
  6
Continuous
 62
     7
100
AcDbLine
 10
106.249999857525
 20
835.5000000001781
 30
0.0
 11
106.249999857525
 21
846.0000000001781
 31
0.0
  0
LINE
  5
E9
330
4E
100
AcDbEntity
  8
0
  6
Continuous
 62
     7
100
AcDbLine
 10
106.249999857525
 20
835.4000000001781
 30
0.0
 11
84.24999985752501
 21
835.4000000001781
 31
0.0
  0
LINE
  5
EA
330
4E
100
AcDbEntity
  8
0
  6
Continuous
 62
     7
100
AcDbLine
 10
84.24999985752501
 20
835.4000000001781
 30
0.0
 11
84.24999985752501
 21
856.6000000001782
 31
0.0
  0
ARC
  5
EB
330
4E
100
AcDbEntity
  8
0
  6
Continuous
 62
     7
100
AcDbCircle
 10
108.499999857525
 20
846.0000000001781
 30
0.0
 40
2.25
100
AcDbArc
 50
90.0
 51
180.0
  0
ENDBLK
  5
50
330
4E
100
AcDbEntity
  8
0
100
AcDbBlockEnd
  0
BLOCK
  5
53
330
51
100
AcDbEntity
  8
0
100
AcDbBlockBegin
  2
Drfsicht1
 70
     0
 10
98.0
 20
846.0
 30
0.0
  3
Drfsicht1
  1

  0
INSERT
  5
52
330
51
100
AcDbEntity
  8
0
100
AcDbBlockReference
  2
REL-IR4_4X21-OG-select__2
 10
84.24999985752501
 20
835.4000000001781
 30
0.0
  0
MTEXT
  5
EC
330
51
100
AcDbEntity
  8
1
 62
     6
100
AcDbMText
 10
98.0
 20
830.3999996185211
 30
0.0
 40
5.0
 41
0.0
 71
     2
 72
     1
  1
 
  7
CONVERTER_11
 73
     1
 44
1.32052821128451
  0
DIMENSION
  5
F7
330
51
100
AcDbEntity
  8
1
100
AcDbDimension
  2
*D19
 10
69.4384155658728
 20
835.4000000001781
 30
0.0
 11
66.0134155658728
 21
845.915767991157
 31
0.0
 70
    32
  1
<>
 71
     5
 42
-1.0
 53
90.0
  3
ME10_DIM_10
100
AcDbAlignedDimension
 13
84.24999985752501
 23
856.6000000001782
 33
0.0
 14
84.24999985752501
 24
835.4000000001781
 34
0.0
 50
90.0
100
AcDbRotatedDimension
  0
ENDBLK
  5
54
330
51
100
AcDbEntity
  8
0
100
AcDbBlockEnd
  0
BLOCK
  5
56
330
55
100
AcDbEntity
  8
0
100
AcDbBlockBegin
  2
REL-IR4_4X21-OG-select__3
 70
     0
 10
192.9500011438435
 20
891.6000003813944
 30
0.0
  3
REL-IR4_4X21-OG-select__3
  1

  0
LINE
  5
F8
330
55
100
AcDbEntity
  8
0
  6
Continuous
 62
     7
100
AcDbLine
 10
192.9500011438435
 20
897.6000003814063
 30
0.0
 11
192.9500011438435
 21
899.2000003814062
 31
0.0
  0
LINE
  5
F9
330
55
100
AcDbEntity
  8
0
  6
Continuous
 62
     7
100
AcDbLine
 10
196.9500011438435
 20
897.6000003813992
 30
0.0
 11
196.9500011438435
 21
891.6000003813953
 31
0.0
  0
LINE
  5
FA
330
55
100
AcDbEntity
  8
0
  6
Continuous
 62
     7
100
AcDbLine
 10
192.9500011438435
 20
897.6000003814063
 30
0.0
 11
196.9500011438435
 21
897.6000003813992
 31
0.0
  0
LINE
  5
FB
330
55
100
AcDbEntity
  8
0
  6
Continuous
 62
     7
100
AcDbLine
 10
201.4500011438435
 20
897.6000003813992
 30
0.0
 11
207.3000011438435
 21
897.6000003813992
 31
0.0
  0
LINE
  5
FC
330
55
100
AcDbEntity
  8
0
  6
Continuous
 62
     7
100
AcDbLine
 10
207.3000011438435
 20
897.6000003813992
 30
0.0
 11
207.8000011438435
 21
897.6000003813992
 31
0.0
  0
LINE
  5
FD
330
55
100
AcDbEntity
  8
0
  6
Continuous
 62
     7
100
AcDbLine
 10
207.3000011438435
 20
891.6000003813944
 30
0.0
 11
207.8000011438435
 21
891.6000003813944
 31
0.0
  0
LINE
  5
FE
330
55
100
AcDbEntity
  8
0
  6
Continuous
 62
     7
100
AcDbLine
 10
207.8000011438435
 20
891.6000003813944
 30
0.0
 11
207.8000011438435
 21
897.6000003813992
 31
0.0
  0
LINE
  5
FF
330
55
100
AcDbEntity
  8
0
  6
Continuous
 62
     7
100
AcDbLine
 10
207.3000011438435
 20
897.6000003813992
 30
0.0
 11
207.3000011438435
 21
891.6000003813944
 31
0.0
  0
LINE
  5
100
330
55
100
AcDbEntity
  8
0
  6
Continuous
 62
     7
100
AcDbLine
 10
220.4500011438435
 20
899.2000003814062
 30
0.0
 11
220.4500011438435
 21
933.1000003814063
 31
0.0
  0
LINE
  5
101
330
55
100
AcDbEntity
  8
0
  6
Continuous
 62
     7
100
AcDbLine
 10
220.4500011438435
 20
899.2000003814062
 30
0.0
 11
220.4500011438435
 21
897.6000003814063
 31
0.0
  0
LINE
  5
102
330
55
100
AcDbEntity
  8
0
  6
Continuous
 62
     7
100
AcDbLine
 10
214.1500011438434
 20
891.6000003813944
 30
0.0
 11
213.6500011438434
 21
891.6000003813944
 31
0.0
  0
LINE
  5
103
330
55
100
AcDbEntity
  8
0
  6
Continuous
 62
     7
100
AcDbLine
 10
213.6500011438434
 20
897.6000003813992
 30
0.0
 11
214.1500011438434
 21
897.6000003813992
 31
0.0
  0
LINE
  5
104
330
55
100
AcDbEntity
  8
0
  6
Continuous
 62
     7
100
AcDbLine
 10
200.9500011438435
 20
897.6000003813992
 30
0.0
 11
201.4500011438435
 21
897.6000003813992
 31
0.0
  0
LINE
  5
105
330
55
100
AcDbEntity
  8
0
  6
Continuous
 62
     7
100
AcDbLine
 10
197.4500011438435
 20
897.6000003813992
 30
0.0
 11
200.9500011438435
 21
897.6000003813992
 31
0.0
  0
LINE
  5
106
330
55
100
AcDbEntity
  8
0
  6
Continuous
 62
     7
100
AcDbLine
 10
197.4500011438435
 20
897.6000003813992
 30
0.0
 11
197.4500011438435
 21
891.6000003813953
 31
0.0
  0
LINE
  5
107
330
55
100
AcDbEntity
  8
0
  6
Continuous
 62
     7
100
AcDbLine
 10
200.9500011438435
 20
897.6000003813992
 30
0.0
 11
200.9500011438435
 21
891.6000003813944
 31
0.0
  0
LINE
  5
108
330
55
100
AcDbEntity
  8
0
  6
Continuous
 62
     7
100
AcDbLine
 10
213.6500011438434
 20
897.6000003813992
 30
0.0
 11
213.6500011438434
 21
891.6000003813944
 31
0.0
  0
LINE
  5
109
330
55
100
AcDbEntity
  8
0
  6
Continuous
 62
     7
100
AcDbLine
 10
207.8000011438435
 20
897.6000003813992
 30
0.0
 11
213.6500011438434
 21
897.6000003813992
 31
0.0
  0
LINE
  5
10A
330
55
100
AcDbEntity
  8
0
  6
Continuous
 62
     7
100
AcDbLine
 10
214.1500011438434
 20
891.6000003813944
 30
0.0
 11
214.1500011438434
 21
897.6000003813992
 31
0.0
  0
LINE
  5
10B
330
55
100
AcDbEntity
  8
0
  6
Continuous
 62
     7
100
AcDbLine
 10
214.1500011438434
 20
897.6000003813992
 30
0.0
 11
220.4500011438435
 21
897.6000003814063
 31
0.0
  0
LINE
  5
10C
330
55
100
AcDbEntity
  8
0
  6
Continuous
 62
     7
100
AcDbLine
 10
196.9500011438435
 20
897.6000003813992
 30
0.0
 11
197.4500011438435
 21
897.6000003813992
 31
0.0
  0
LINE
  5
10D
330
55
100
AcDbEntity
  8
0
  6
Continuous
 62
     7
100
AcDbLine
 10
197.4500011438435
 20
891.6000003813953
 30
0.0
 11
196.9500011438435
 21
891.6000003813953
 31
0.0
  0
LINE
  5
10E
330
55
100
AcDbEntity
  8
0
  6
Continuous
 62
     7
100
AcDbLine
 10
200.9500011438435
 20
891.6000003813944
 30
0.0
 11
201.4500011438435
 21
891.6000003813944
 31
0.0
  0
LINE
  5
10F
330
55
100
AcDbEntity
  8
0
  6
Continuous
 62
     7
100
AcDbLine
 10
201.4500011438435
 20
891.6000003813944
 30
0.0
 11
201.4500011438435
 21
897.6000003813992
 31
0.0
  0
LINE
  5
110
330
55
100
AcDbEntity
  8
0
  6
Continuous
 62
     7
100
AcDbLine
 10
220.4500011438435
 20
933.1000003814063
 30
0.0
 11
192.9500011438435
 21
933.1000003814063
 31
0.0
  0
LINE
  5
111
330
55
100
AcDbEntity
  8
0
  6
Continuous
 62
     2
100
AcDbLine
 10
192.9500011438435
 20
899.2000003814062
 30
0.0
 11
220.4500011438435
 21
899.2000003814062
 31
0.0
  0
LINE
  5
112
330
55
100
AcDbEntity
  8
0
  6
Continuous
 62
     7
100
AcDbLine
 10
192.9500011438435
 20
899.2000003814062
 30
0.0
 11
192.9500011438435
 21
933.1000003814063
 31
0.0
  0
ENDBLK
  5
57
330
55
100
AcDbEntity
  8
0
100
AcDbBlockEnd
  0
BLOCK
  5
5A
330
58
100
AcDbEntity
  8
0
100
AcDbBlockBegin
  2
Rckans1
 70
     0
 10
206.7000010013685
 20
912.3500003814345
 30
0.0
  3
Rckans1
  1

  0
INSERT
  5
59
330
58
100
AcDbEntity
  8
0
100
AcDbBlockReference
  2
REL-IR4_4X21-OG-select__3
 10
192.9500011438435
 20
891.6000003813944
 30
0.0
  0
MTEXT
  5
113
330
58
100
AcDbEntity
  8
1
 62
     6
100
AcDbMText
 10
206.7000010013685
 20
886.6000003814321
 30
0.0
 40
5.0
 41
0.0
 71
     2
 72
     1
  1
 
  7
CONVERTER_11
 73
     1
 44
1.32052821128451
  0
ENDBLK
  5
5B
330
58
100
AcDbEntity
  8
0
100
AcDbBlockEnd
  0
BLOCK
  5
5D
330
5C
100
AcDbEntity
  8
0
100
AcDbBlockBegin
  2
REL-IR4_4X21-OG-select__4
 70
     0
 10
141.7500005005062
 20
891.6000003813942
 30
0.0
  3
REL-IR4_4X21-OG-select__4
  1

  0
LINE
  5
114
330
5C
100
AcDbEntity
  8
0
  6
Continuous
 62
     7
100
AcDbLine
 10
153.4500005005756
 20
897.6000003814042
 30
0.0
 11
153.4500005005756
 21
891.6000003813948
 31
0.0
  0
LINE
  5
115
330
5C
100
AcDbEntity
  8
0
  6
Continuous
 62
     7
100
AcDbLine
 10
151.2500005005757
 20
897.6000003814042
 30
0.0
 11
151.2500005005757
 21
891.6000003813949
 31
0.0
  0
LINE
  5
116
330
5C
100
AcDbEntity
  8
0
  6
Continuous
 62
     7
100
AcDbLine
 10
157.8500005005757
 20
891.6000003813945
 30
0.0
 11
157.8500005005757
 21
897.6000003813994
 31
0.0
  0
LINE
  5
117
330
5C
100
AcDbEntity
  8
0
  6
Continuous
 62
     7
100
AcDbLine
 10
155.6500005005756
 20
897.6000003814042
 30
0.0
 11
155.6500005005756
 21
891.6000003813946
 31
0.0
  0
LINE
  5
118
330
5C
100
AcDbEntity
  8
0
  6
Continuous
 62
     7
100
AcDbLine
 10
160.0500005005757
 20
897.6000003813994
 30
0.0
 11
160.0500005005757
 21
891.6000003813942
 31
0.0
  0
LINE
  5
119
330
5C
100
AcDbEntity
  8
0
  6
Continuous
 62
     7
100
AcDbLine
 10
151.2500005005757
 20
891.6000003813949
 30
0.0
 11
149.0500005005756
 21
891.6000003813951
 31
0.0
  0
LINE
  5
11A
330
5C
100
AcDbEntity
  8
0
  6
Continuous
 62
     7
100
AcDbLine
 10
146.8500005005757
 20
891.6000003813953
 30
0.0
 11
144.6500005005756
 21
891.6000003813955
 31
0.0
  0
LINE
  5
11B
330
5C
100
AcDbEntity
  8
0
  6
Continuous
 62
     7
100
AcDbLine
 10
157.8500005005757
 20
891.6000003813945
 30
0.0
 11
160.0500005005757
 21
891.6000003813942
 31
0.0
  0
LINE
  5
11C
330
5C
100
AcDbEntity
  8
0
  6
Continuous
 62
     7
100
AcDbLine
 10
155.6500005005756
 20
891.6000003813946
 30
0.0
 11
153.4500005005756
 21
891.6000003813948
 31
0.0
  0
LINE
  5
11D
330
5C
100
AcDbEntity
  8
0
  6
Continuous
 62
     7
100
AcDbLine
 10
146.8500005005757
 20
891.6000003813953
 30
0.0
 11
146.8500005005757
 21
897.6000003813994
 31
0.0
  0
LINE
  5
11E
330
5C
100
AcDbEntity
  8
0
  6
Continuous
 62
     7
100
AcDbLine
 10
144.6500005005756
 20
897.6000003813994
 30
0.0
 11
144.6500005005756
 21
891.6000003813955
 31
0.0
  0
LINE
  5
11F
330
5C
100
AcDbEntity
  8
0
  6
Continuous
 62
     7
100
AcDbLine
 10
149.0500005005756
 20
897.6000003814042
 30
0.0
 11
149.0500005005756
 21
891.6000003813951
 31
0.0
  0
LINE
  5
120
330
5C
100
AcDbEntity
  8
0
  6
Continuous
 62
     7
100
AcDbLine
 10
141.7500005005062
 20
899.2000003814064
 30
0.0
 11
141.7500005005062
 21
897.6000003814064
 31
0.0
  0
LINE
  5
121
330
5C
100
AcDbEntity
  8
0
  6
Continuous
 62
     7
100
AcDbLine
 10
162.9500005005062
 20
897.6000003814064
 30
0.0
 11
162.9500005005062
 21
899.2000003814064
 31
0.0
  0
LINE
  5
122
330
5C
100
AcDbEntity
  8
0
  6
Continuous
 62
     7
100
AcDbLine
 10
157.8500005005757
 20
897.6000003813994
 30
0.0
 11
155.6500005005756
 21
897.6000003814042
 31
0.0
  0
LINE
  5
123
330
5C
100
AcDbEntity
  8
0
  6
Continuous
 62
     7
100
AcDbLine
 10
153.4500005005756
 20
897.6000003814042
 30
0.0
 11
151.2500005005757
 21
897.6000003814042
 31
0.0
  0
LINE
  5
124
330
5C
100
AcDbEntity
  8
0
  6
Continuous
 62
     7
100
AcDbLine
 10
151.2500005005757
 20
897.6000003814042
 30
0.0
 11
149.0500005005756
 21
897.6000003814042
 31
0.0
  0
LINE
  5
125
330
5C
100
AcDbEntity
  8
0
  6
Continuous
 62
     7
100
AcDbLine
 10
149.0500005005756
 20
897.6000003814042
 30
0.0
 11
146.8500005005757
 21
897.6000003813994
 31
0.0
  0
LINE
  5
126
330
5C
100
AcDbEntity
  8
0
  6
Continuous
 62
     7
100
AcDbLine
 10
146.8500005005757
 20
897.6000003813994
 30
0.0
 11
144.6500005005756
 21
897.6000003813994
 31
0.0
  0
LINE
  5
127
330
5C
100
AcDbEntity
  8
0
  6
Continuous
 62
     7
100
AcDbLine
 10
144.6500005005756
 20
897.6000003813994
 30
0.0
 11
141.7500005005062
 21
897.6000003814064
 31
0.0
  0
LINE
  5
128
330
5C
100
AcDbEntity
  8
0
  6
Continuous
 62
     7
100
AcDbLine
 10
160.0500005005757
 20
897.6000003813994
 30
0.0
 11
157.8500005005757
 21
897.6000003813994
 31
0.0
  0
LINE
  5
129
330
5C
100
AcDbEntity
  8
0
  6
Continuous
 62
     7
100
AcDbLine
 10
162.9500005005062
 20
897.6000003814064
 30
0.0
 11
160.0500005005757
 21
897.6000003813994
 31
0.0
  0
LINE
  5
12A
330
5C
100
AcDbEntity
  8
0
  6
Continuous
 62
     7
100
AcDbLine
 10
155.6500005005756
 20
897.6000003814042
 30
0.0
 11
153.4500005005756
 21
897.6000003814042
 31
0.0
  0
LINE
  5
12B
330
5C
100
AcDbEntity
  8
0
  6
Continuous
 62
     7
100
AcDbLine
 10
141.7500005005062
 20
899.2000003814064
 30
0.0
 11
141.7500005005062
 21
933.1000003814064
 31
0.0
  0
LINE
  5
12C
330
5C
100
AcDbEntity
  8
0
  6
Continuous
 62
     7
100
AcDbLine
 10
162.9500005005062
 20
933.1000003814064
 30
0.0
 11
141.7500005005062
 21
933.1000003814064
 31
0.0
  0
LINE
  5
12D
330
5C
100
AcDbEntity
  8
0
  6
Continuous
 62
     2
100
AcDbLine
 10
141.7500005005062
 20
899.2000003814064
 30
0.0
 11
162.9500005005062
 21
899.2000003814064
 31
0.0
  0
LINE
  5
12E
330
5C
100
AcDbEntity
  8
0
  6
Continuous
 62
     7
100
AcDbLine
 10
162.9500005005062
 20
899.2000003814064
 30
0.0
 11
162.9500005005062
 21
933.1000003814064
 31
0.0
  0
ENDBLK
  5
5E
330
5C
100
AcDbEntity
  8
0
100
AcDbBlockEnd
  0
BLOCK
  5
61
330
5F
100
AcDbEntity
  8
0
100
AcDbBlockBegin
  2
SA_Links1
 70
     0
 10
152.3500005006843
 20
912.3500003814346
 30
0.0
  3
SA_Links1
  1

  0
INSERT
  5
60
330
5F
100
AcDbEntity
  8
0
100
AcDbBlockReference
  2
REL-IR4_4X21-OG-select__4
 10
141.7500005005062
 20
891.6000003813942
 30
0.0
  0
MTEXT
  5
12F
330
5F
100
AcDbEntity
  8
1
 62
     6
100
AcDbMText
 10
152.3500005006843
 20
886.6000003814319
 30
0.0
 40
5.0
 41
0.0
 71
     2
 72
     1
  1
 
  7
CONVERTER_11
 73
     1
 44
1.32052821128451
  0
ENDBLK
  5
62
330
5F
100
AcDbEntity
  8
0
100
AcDbBlockEnd
  0
BLOCK
  5
64
330
63
100
AcDbEntity
  8
0
100
AcDbBlockBegin
  2
REL-IR4_4X21-OG-select__5
 70
     0
 10
3.04999949948999
 20
891.6000003813942
 30
0.0
  3
REL-IR4_4X21-OG-select__5
  1

  0
LINE
  5
130
330
63
100
AcDbEntity
  8
0
  6
Continuous
 62
     7
100
AcDbLine
 10
12.54999949942051
 20
891.6000003813948
 30
0.0
 11
10.3499994994205
 21
891.6000003813946
 31
0.0
  0
LINE
  5
131
330
63
100
AcDbEntity
  8
0
  6
Continuous
 62
     7
100
AcDbLine
 10
16.9499994994205
 20
891.6000003813951
 30
0.0
 11
14.7499994994205
 21
891.6000003813949
 31
0.0
  0
LINE
  5
132
330
63
100
AcDbEntity
  8
0
  6
Continuous
 62
     7
100
AcDbLine
 10
21.3499994994205
 20
897.6000003813994
 30
0.0
 11
21.3499994994205
 21
891.6000003813955
 31
0.0
  0
LINE
  5
133
330
63
100
AcDbEntity
  8
0
  6
Continuous
 62
     7
100
AcDbLine
 10
14.7499994994205
 20
897.6000003814041
 30
0.0
 11
14.7499994994205
 21
891.6000003813949
 31
0.0
  0
LINE
  5
134
330
63
100
AcDbEntity
  8
0
  6
Continuous
 62
     7
100
AcDbLine
 10
10.3499994994205
 20
897.6000003814041
 30
0.0
 11
10.3499994994205
 21
891.6000003813946
 31
0.0
  0
LINE
  5
135
330
63
100
AcDbEntity
  8
0
  6
Continuous
 62
     7
100
AcDbLine
 10
12.54999949942051
 20
897.6000003814041
 30
0.0
 11
12.54999949942051
 21
891.6000003813948
 31
0.0
  0
LINE
  5
136
330
63
100
AcDbEntity
  8
0
  6
Continuous
 62
     7
100
AcDbLine
 10
3.14999949948998
 20
932.5000003814064
 30
0.0
 11
13.64999949948998
 21
932.5000003814064
 31
0.0
  0
LINE
  5
137
330
63
100
AcDbEntity
  8
0
  6
Continuous
 62
     7
100
AcDbLine
 10
8.1499994994205
 20
897.6000003813994
 30
0.0
 11
8.14999949942051
 21
891.6000003813945
 31
0.0
  0
LINE
  5
138
330
63
100
AcDbEntity
  8
0
  6
Continuous
 62
     2
100
AcDbLine
 10
13.64999949948998
 20
933.1000003814064
 30
0.0
 11
13.64999949948998
 21
932.5000003814064
 31
0.0
  0
LINE
  5
139
330
63
100
AcDbEntity
  8
0
  6
Continuous
 62
     7
100
AcDbLine
 10
5.9499994994205
 20
891.6000003813942
 30
0.0
 11
8.14999949942051
 21
891.6000003813945
 31
0.0
  0
LINE
  5
13A
330
63
100
AcDbEntity
  8
0
  6
Continuous
 62
     7
100
AcDbLine
 10
3.04999949948999
 20
933.1000003814064
 30
0.0
 11
13.64999949948998
 21
933.1000003814064
 31
0.0
  0
LINE
  5
13B
330
63
100
AcDbEntity
  8
0
  6
Continuous
 62
     7
100
AcDbLine
 10
24.24999949948999
 20
897.6000003814064
 30
0.0
 11
24.24999949948999
 21
899.2000003814063
 31
0.0
  0
LINE
  5
13C
330
63
100
AcDbEntity
  8
0
  6
Continuous
 62
     7
100
AcDbLine
 10
24.24999949948999
 20
933.1000003814064
 30
0.0
 11
15.89999949948998
 21
933.1000003814064
 31
0.0
  0
LINE
  5
13D
330
63
100
AcDbEntity
  8
0
  6
Continuous
 62
     7
100
AcDbLine
 10
3.14999949948998
 20
930.5000003814064
 30
0.0
 11
3.04999949948999
 21
930.5000003814064
 31
0.0
  0
LINE
  5
13E
330
63
100
AcDbEntity
  8
0
  6
Continuous
 62
     7
100
AcDbLine
 10
15.89999949948998
 20
930.5000003814064
 30
0.0
 11
3.14999949948998
 21
930.5000003814064
 31
0.0
  0
LINE
  5
13F
330
63
100
AcDbEntity
  8
0
  6
Continuous
 62
     7
100
AcDbLine
 10
3.04999949948999
 20
899.2000003814063
 30
0.0
 11
3.04999949948999
 21
897.6000003814064
 31
0.0
  0
LINE
  5
140
330
63
100
AcDbEntity
  8
0
  6
Continuous
 62
     7
100
AcDbLine
 10
3.04999949948999
 20
899.2000003814063
 30
0.0
 11
3.04999949948999
 21
930.5000003814064
 31
0.0
  0
LINE
  5
141
330
63
100
AcDbEntity
  8
0
  6
Continuous
 62
     7
100
AcDbLine
 10
3.14999949948998
 20
932.5000003814064
 30
0.0
 11
3.14999949948998
 21
930.5000003814064
 31
0.0
  0
LINE
  5
142
330
63
100
AcDbEntity
  8
0
  6
Continuous
 62
     7
100
AcDbLine
 10
5.9499994994205
 20
891.6000003813942
 30
0.0
 11
5.9499994994205
 21
897.6000003813994
 31
0.0
  0
LINE
  5
143
330
63
100
AcDbEntity
  8
0
  6
Continuous
 62
     7
100
AcDbLine
 10
3.04999949948999
 20
930.5000003814064
 30
0.0
 11
3.04999949948999
 21
933.1000003814064
 31
0.0
  0
LINE
  5
144
330
63
100
AcDbEntity
  8
0
  6
Continuous
 62
     7
100
AcDbLine
 10
24.24999949948999
 20
897.6000003814064
 30
0.0
 11
21.3499994994205
 21
897.6000003813994
 31
0.0
  0
LINE
  5
145
330
63
100
AcDbEntity
  8
0
  6
Continuous
 62
     7
100
AcDbLine
 10
21.3499994994205
 20
897.6000003813994
 30
0.0
 11
19.14999949942051
 21
897.6000003813994
 31
0.0
  0
LINE
  5
146
330
63
100
AcDbEntity
  8
0
  6
Continuous
 62
     7
100
AcDbLine
 10
15.89999949948998
 20
933.1000003814064
 30
0.0
 11
13.64999949948998
 21
933.1000003814064
 31
0.0
  0
LINE
  5
147
330
63
100
AcDbEntity
  8
0
  6
Continuous
 62
     7
100
AcDbLine
 10
13.64999949948998
 20
932.5000003814064
 30
0.0
 11
15.89999949948998
 21
932.5000003814064
 31
0.0
  0
LINE
  5
148
330
63
100
AcDbEntity
  8
0
  6
Continuous
 62
     7
100
AcDbLine
 10
15.89999949948998
 20
932.5000003814064
 30
0.0
 11
15.89999949948998
 21
930.5000003814064
 31
0.0
  0
LINE
  5
149
330
63
100
AcDbEntity
  8
0
  6
Continuous
 62
     7
100
AcDbLine
 10
15.89999949948998
 20
933.1000003814064
 30
0.0
 11
15.89999949948998
 21
932.5000003814064
 31
0.0
  0
LINE
  5
14A
330
63
100
AcDbEntity
  8
0
  6
Continuous
 62
     7
100
AcDbLine
 10
19.14999949942051
 20
891.6000003813953
 30
0.0
 11
21.3499994994205
 21
891.6000003813955
 31
0.0
  0
LINE
  5
14B
330
63
100
AcDbEntity
  8
0
  6
Continuous
 62
     7
100
AcDbLine
 10
19.14999949942051
 20
891.6000003813953
 30
0.0
 11
19.14999949942051
 21
897.6000003813994
 31
0.0
  0
LINE
  5
14C
330
63
100
AcDbEntity
  8
0
  6
Continuous
 62
     7
100
AcDbLine
 10
16.9499994994205
 20
897.6000003814041
 30
0.0
 11
16.9499994994205
 21
891.6000003813951
 31
0.0
  0
LINE
  5
14D
330
63
100
AcDbEntity
  8
0
  6
Continuous
 62
     2
100
AcDbLine
 10
3.04999949948999
 20
899.2000003814063
 30
0.0
 11
24.24999949948999
 21
899.2000003814063
 31
0.0
  0
LINE
  5
14E
330
63
100
AcDbEntity
  8
0
  6
Continuous
 62
     7
100
AcDbLine
 10
14.7499994994205
 20
897.6000003814041
 30
0.0
 11
12.54999949942051
 21
897.6000003814041
 31
0.0
  0
LINE
  5
14F
330
63
100
AcDbEntity
  8
0
  6
Continuous
 62
     7
100
AcDbLine
 10
10.3499994994205
 20
897.6000003814041
 30
0.0
 11
8.1499994994205
 21
897.6000003813994
 31
0.0
  0
LINE
  5
150
330
63
100
AcDbEntity
  8
0
  6
Continuous
 62
     7
100
AcDbLine
 10
16.9499994994205
 20
897.6000003814041
 30
0.0
 11
14.7499994994205
 21
897.6000003814041
 31
0.0
  0
LINE
  5
151
330
63
100
AcDbEntity
  8
0
  6
Continuous
 62
     7
100
AcDbLine
 10
19.14999949942051
 20
897.6000003813994
 30
0.0
 11
16.9499994994205
 21
897.6000003814041
 31
0.0
  0
LINE
  5
152
330
63
100
AcDbEntity
  8
0
  6
Continuous
 62
     7
100
AcDbLine
 10
8.1499994994205
 20
897.6000003813994
 30
0.0
 11
5.9499994994205
 21
897.6000003813994
 31
0.0
  0
LINE
  5
153
330
63
100
AcDbEntity
  8
0
  6
Continuous
 62
     7
100
AcDbLine
 10
5.9499994994205
 20
897.6000003813994
 30
0.0
 11
3.04999949948999
 21
897.6000003814064
 31
0.0
  0
LINE
  5
154
330
63
100
AcDbEntity
  8
0
  6
Continuous
 62
     7
100
AcDbLine
 10
12.54999949942051
 20
897.6000003814041
 30
0.0
 11
10.3499994994205
 21
897.6000003814041
 31
0.0
  0
LINE
  5
155
330
63
100
AcDbEntity
  8
0
  6
Continuous
 62
     7
100
AcDbLine
 10
24.24999949948999
 20
899.2000003814063
 30
0.0
 11
24.24999949948999
 21
933.1000003814064
 31
0.0
  0
ENDBLK
  5
65
330
63
100
AcDbEntity
  8
0
100
AcDbBlockEnd
  0
BLOCK
  5
68
330
66
100
AcDbEntity
  8
0
100
AcDbBlockBegin
  2
SA_Rechts1
 70
     0
 10
13.64999949931184
 20
912.3500003814346
 30
0.0
  3
SA_Rechts1
  1

  0
INSERT
  5
67
330
66
100
AcDbEntity
  8
0
100
AcDbBlockReference
  2
REL-IR4_4X21-OG-select__5
 10
3.04999949948999
 20
891.6000003813942
 30
0.0
  0
MTEXT
  5
156
330
66
100
AcDbEntity
  8
1
 62
     6
100
AcDbMText
 10
13.64999949931189
 20
886.6000003814319
 30
0.0
 40
5.0
 41
0.0
 71
     2
 72
     1
  1
 
  7
CONVERTER_11
 73
     1
 44
1.32052821128451
  0
ENDBLK
  5
69
330
66
100
AcDbEntity
  8
0
100
AcDbBlockEnd
  0
BLOCK
  5
6B
330
6A
100
AcDbEntity
  8
0
100
AcDbBlockBegin
  2
REL-IR4_4X21-OG-select__6
 70
     0
 10
84.24999985752501
 20
948.1000007627689
 30
0.0
  3
REL-IR4_4X21-OG-select__6
  1

  0
LINE
  5
157
330
6A
100
AcDbEntity
  8
0
  6
Continuous
 62
     7
100
AcDbLine
 10
103.749999857525
 20
959.8000007628384
 30
0.0
 11
103.749999857525
 21
962.0000007628383
 31
0.0
  0
LINE
  5
158
330
6A
100
AcDbEntity
  8
0
  6
Continuous
 62
     7
100
AcDbLine
 10
103.249999857525
 20
959.8000007628384
 30
0.0
 11
103.749999857525
 21
959.8000007628384
 31
0.0
  0
LINE
  5
159
330
6A
100
AcDbEntity
  8
0
  6
Continuous
 62
     7
100
AcDbLine
 10
103.749999857525
 20
962.0000007628383
 30
0.0
 11
103.249999857525
 21
962.0000007628383
 31
0.0
  0
LINE
  5
15A
330
6A
100
AcDbEntity
  8
0
  6
Continuous
 62
     7
100
AcDbLine
 10
97.39999985752503
 20
962.0000007628383
 30
0.0
 11
96.89999985752503
 21
962.0000007628383
 31
0.0
  0
LINE
  5
15B
330
6A
100
AcDbEntity
  8
0
  6
Continuous
 62
     7
100
AcDbLine
 10
96.89999985752503
 20
962.0000007628383
 30
0.0
 11
96.89999985752503
 21
959.8000007628384
 31
0.0
  0
LINE
  5
15C
330
6A
100
AcDbEntity
  8
0
  6
Continuous
 62
     7
100
AcDbLine
 10
96.89999985752503
 20
959.8000007628384
 30
0.0
 11
97.39999985752503
 21
959.8000007628384
 31
0.0
  0
LINE
  5
15D
330
6A
100
AcDbEntity
  8
0
  6
Continuous
 62
     7
100
AcDbLine
 10
90.54999985752502
 20
964.2000007628384
 30
0.0
 11
91.04999985752502
 21
964.2000007628384
 31
0.0
  0
LINE
  5
15E
330
6A
100
AcDbEntity
  8
0
  6
Continuous
 62
     7
100
AcDbLine
 10
97.39999985752503
 20
964.2000007628384
 30
0.0
 11
96.89999985752503
 21
964.2000007628384
 31
0.0
  0
LINE
  5
15F
330
6A
100
AcDbEntity
  8
0
  6
Continuous
 62
     7
100
AcDbLine
 10
103.749999857525
 20
964.2000007628384
 30
0.0
 11
103.249999857525
 21
964.2000007628384
 31
0.0
  0
LINE
  5
160
330
6A
100
AcDbEntity
  8
0
  6
Continuous
 62
     7
100
AcDbLine
 10
97.39999985752503
 20
959.8000007628384
 30
0.0
 11
97.39999985752503
 21
962.0000007628383
 31
0.0
  0
LINE
  5
161
330
6A
100
AcDbEntity
  8
0
  6
Continuous
 62
     7
100
AcDbLine
 10
103.249999857525
 20
962.0000007628383
 30
0.0
 11
103.249999857525
 21
959.8000007628384
 31
0.0
  0
LINE
  5
162
330
6A
100
AcDbEntity
  8
0
  6
Continuous
 62
     7
100
AcDbLine
 10
91.04999985752502
 20
953.2000007628384
 30
0.0
 11
91.04999985752502
 21
951.0000007628383
 31
0.0
  0
LINE
  5
163
330
6A
100
AcDbEntity
  8
0
  6
Continuous
 62
     7
100
AcDbLine
 10
91.04999985752502
 20
951.0000007628383
 30
0.0
 11
90.54999985752502
 21
951.0000007628383
 31
0.0
  0
LINE
  5
164
330
6A
100
AcDbEntity
  8
0
  6
Continuous
 62
     7
100
AcDbLine
 10
90.54999985752502
 20
964.2000007628384
 30
0.0
 11
90.54999985752502
 21
966.4000007628383
 31
0.0
  0
LINE
  5
165
330
6A
100
AcDbEntity
  8
0
  6
Continuous
 62
     7
100
AcDbLine
 10
90.54999985752502
 20
953.2000007628384
 30
0.0
 11
91.04999985752502
 21
953.2000007628384
 31
0.0
  0
LINE
  5
166
330
6A
100
AcDbEntity
  8
0
  6
Continuous
 62
     7
100
AcDbLine
 10
90.54999985752502
 20
951.0000007628383
 30
0.0
 11
90.54999985752502
 21
953.2000007628384
 31
0.0
  0
LINE
  5
167
330
6A
100
AcDbEntity
  8
0
  6
Continuous
 62
     7
100
AcDbLine
 10
107.749999857525
 20
966.4000007628383
 30
0.0
 11
107.249999857525
 21
966.4000007628383
 31
0.0
  0
LINE
  5
168
330
6A
100
AcDbEntity
  8
0
  6
Continuous
 62
     7
100
AcDbLine
 10
96.89999985752503
 20
966.4000007628383
 30
0.0
 11
97.39999985752503
 21
966.4000007628383
 31
0.0
  0
LINE
  5
169
330
6A
100
AcDbEntity
  8
0
  6
Continuous
 62
     7
100
AcDbLine
 10
91.04999985752502
 20
966.4000007628383
 30
0.0
 11
90.54999985752502
 21
966.4000007628383
 31
0.0
  0
LINE
  5
16A
330
6A
100
AcDbEntity
  8
0
  6
Continuous
 62
     7
100
AcDbLine
 10
103.249999857525
 20
966.4000007628383
 30
0.0
 11
103.749999857525
 21
966.4000007628383
 31
0.0
  0
LINE
  5
16B
330
6A
100
AcDbEntity
  8
0
  6
Continuous
 62
     7
100
AcDbLine
 10
97.39999985752503
 20
957.6000007628384
 30
0.0
 11
96.89999985752503
 21
957.6000007628384
 31
0.0
  0
LINE
  5
16C
330
6A
100
AcDbEntity
  8
0
  6
Continuous
 62
     7
100
AcDbLine
 10
103.749999857525
 20
957.6000007628384
 30
0.0
 11
103.249999857525
 21
957.6000007628384
 31
0.0
  0
LINE
  5
16D
330
6A
100
AcDbEntity
  8
0
  6
Continuous
 62
     7
100
AcDbLine
 10
97.39999985752503
 20
955.4000007628383
 30
0.0
 11
97.39999985752503
 21
957.6000007628384
 31
0.0
  0
LINE
  5
16E
330
6A
100
AcDbEntity
  8
0
  6
Continuous
 62
     7
100
AcDbLine
 10
103.249999857525
 20
955.4000007628383
 30
0.0
 11
103.749999857525
 21
955.4000007628383
 31
0.0
  0
LINE
  5
16F
330
6A
100
AcDbEntity
  8
0
  6
Continuous
 62
     7
100
AcDbLine
 10
107.249999857525
 20
957.6000007628384
 30
0.0
 11
107.249999857525
 21
955.4000007628383
 31
0.0
  0
LINE
  5
170
330
6A
100
AcDbEntity
  8
0
  6
Continuous
 62
     7
100
AcDbLine
 10
96.89999985752503
 20
957.6000007628384
 30
0.0
 11
96.89999985752503
 21
955.4000007628383
 31
0.0
  0
LINE
  5
171
330
6A
100
AcDbEntity
  8
0
  6
Continuous
 62
     7
100
AcDbLine
 10
96.89999985752503
 20
955.4000007628383
 30
0.0
 11
97.39999985752503
 21
955.4000007628383
 31
0.0
  0
LINE
  5
172
330
6A
100
AcDbEntity
  8
0
  6
Continuous
 62
     7
100
AcDbLine
 10
96.89999985752503
 20
951.0000007628383
 30
0.0
 11
96.89999985752503
 21
953.2000007628384
 31
0.0
  0
LINE
  5
173
330
6A
100
AcDbEntity
  8
0
  6
Continuous
 62
     7
100
AcDbLine
 10
96.89999985752503
 20
953.2000007628384
 30
0.0
 11
97.39999985752503
 21
953.2000007628384
 31
0.0
  0
LINE
  5
174
330
6A
100
AcDbEntity
  8
0
  6
Continuous
 62
     7
100
AcDbLine
 10
103.749999857525
 20
953.2000007628384
 30
0.0
 11
103.749999857525
 21
951.0000007628383
 31
0.0
  0
LINE
  5
175
330
6A
100
AcDbEntity
  8
0
  6
Continuous
 62
     7
100
AcDbLine
 10
103.249999857525
 20
953.2000007628384
 30
0.0
 11
103.749999857525
 21
953.2000007628384
 31
0.0
  0
LINE
  5
176
330
6A
100
AcDbEntity
  8
0
  6
Continuous
 62
     7
100
AcDbLine
 10
97.39999985752503
 20
951.0000007628383
 30
0.0
 11
96.89999985752503
 21
951.0000007628383
 31
0.0
  0
LINE
  5
177
330
6A
100
AcDbEntity
  8
0
  6
Continuous
 62
     7
100
AcDbLine
 10
107.249999857525
 20
951.0000007628383
 30
0.0
 11
107.749999857525
 21
951.0000007628383
 31
0.0
  0
LINE
  5
178
330
6A
100
AcDbEntity
  8
0
  6
Continuous
 62
     7
100
AcDbLine
 10
107.249999857525
 20
953.2000007628384
 30
0.0
 11
107.249999857525
 21
951.0000007628383
 31
0.0
  0
LINE
  5
179
330
6A
100
AcDbEntity
  8
0
  6
Continuous
 62
     7
100
AcDbLine
 10
103.749999857525
 20
951.0000007628383
 30
0.0
 11
103.249999857525
 21
951.0000007628383
 31
0.0
  0
LINE
  5
17A
330
6A
100
AcDbEntity
  8
0
  6
Continuous
 62
     7
100
AcDbLine
 10
97.39999985752503
 20
953.2000007628384
 30
0.0
 11
97.39999985752503
 21
951.0000007628383
 31
0.0
  0
LINE
  5
17B
330
6A
100
AcDbEntity
  8
0
  6
Continuous
 62
     7
100
AcDbLine
 10
103.249999857525
 20
951.0000007628383
 30
0.0
 11
103.249999857525
 21
953.2000007628384
 31
0.0
  0
LINE
  5
17C
330
6A
100
AcDbEntity
  8
0
  6
Continuous
 62
     7
100
AcDbLine
 10
103.749999857525
 20
955.4000007628383
 30
0.0
 11
103.749999857525
 21
957.6000007628384
 31
0.0
  0
LINE
  5
17D
330
6A
100
AcDbEntity
  8
0
  6
Continuous
 62
     7
100
AcDbLine
 10
103.249999857525
 20
957.6000007628384
 30
0.0
 11
103.249999857525
 21
955.4000007628383
 31
0.0
  0
LINE
  5
17E
330
6A
100
AcDbEntity
  8
0
  6
Continuous
 62
     7
100
AcDbLine
 10
91.04999985752502
 20
966.4000007628383
 30
0.0
 11
91.04999985752502
 21
964.2000007628384
 31
0.0
  0
LINE
  5
17F
330
6A
100
AcDbEntity
  8
0
  6
Continuous
 62
     7
100
AcDbLine
 10
96.89999985752503
 20
964.2000007628384
 30
0.0
 11
96.89999985752503
 21
966.4000007628383
 31
0.0
  0
LINE
  5
180
330
6A
100
AcDbEntity
  8
0
  6
Continuous
 62
     7
100
AcDbLine
 10
97.39999985752503
 20
966.4000007628383
 30
0.0
 11
97.39999985752503
 21
964.2000007628384
 31
0.0
  0
LINE
  5
181
330
6A
100
AcDbEntity
  8
0
  6
Continuous
 62
     7
100
AcDbLine
 10
103.249999857525
 20
964.2000007628384
 30
0.0
 11
103.249999857525
 21
966.4000007628383
 31
0.0
  0
LINE
  5
182
330
6A
100
AcDbEntity
  8
0
  6
Continuous
 62
     7
100
AcDbLine
 10
103.749999857525
 20
966.4000007628383
 30
0.0
 11
103.749999857525
 21
964.2000007628384
 31
0.0
  0
LINE
  5
183
330
6A
100
AcDbEntity
  8
0
  6
Continuous
 62
     7
100
AcDbLine
 10
107.749999857525
 20
953.2000007628384
 30
0.0
 11
107.749999857525
 21
951.0000007628383
 31
0.0
  0
LINE
  5
184
330
6A
100
AcDbEntity
  8
0
  6
Continuous
 62
     7
100
AcDbLine
 10
107.749999857525
 20
966.4000007628383
 30
0.0
 11
107.749999857525
 21
964.2000007628384
 31
0.0
  0
LINE
  5
185
330
6A
100
AcDbEntity
  8
0
  6
Continuous
 62
     7
100
AcDbLine
 10
107.749999857525
 20
962.0000007628383
 30
0.0
 11
107.249999857525
 21
962.0000007628383
 31
0.0
  0
LINE
  5
186
330
6A
100
AcDbEntity
  8
0
  6
Continuous
 62
     7
100
AcDbLine
 10
107.749999857525
 20
959.8000007628384
 30
0.0
 11
107.749999857525
 21
962.0000007628383
 31
0.0
  0
LINE
  5
187
330
6A
100
AcDbEntity
  8
0
  6
Continuous
 62
     7
100
AcDbLine
 10
107.249999857525
 20
959.8000007628384
 30
0.0
 11
107.749999857525
 21
959.8000007628384
 31
0.0
  0
LINE
  5
188
330
6A
100
AcDbEntity
  8
0
  6
Continuous
 62
     7
100
AcDbLine
 10
107.249999857525
 20
962.0000007628383
 30
0.0
 11
107.249999857525
 21
959.8000007628384
 31
0.0
  0
LINE
  5
189
330
6A
100
AcDbEntity
  8
0
  6
Continuous
 62
     7
100
AcDbLine
 10
107.749999857525
 20
957.6000007628384
 30
0.0
 11
107.249999857525
 21
957.6000007628384
 31
0.0
  0
LINE
  5
18A
330
6A
100
AcDbEntity
  8
0
  6
Continuous
 62
     7
100
AcDbLine
 10
107.249999857525
 20
966.4000007628383
 30
0.0
 11
107.249999857525
 21
964.2000007628384
 31
0.0
  0
LINE
  5
18B
330
6A
100
AcDbEntity
  8
0
  6
Continuous
 62
     7
100
AcDbLine
 10
107.249999857525
 20
955.4000007628383
 30
0.0
 11
107.749999857525
 21
955.4000007628383
 31
0.0
  0
LINE
  5
18C
330
6A
100
AcDbEntity
  8
0
  6
Continuous
 62
     7
100
AcDbLine
 10
107.249999857525
 20
964.2000007628384
 30
0.0
 11
107.749999857525
 21
964.2000007628384
 31
0.0
  0
LINE
  5
18D
330
6A
100
AcDbEntity
  8
0
  6
Continuous
 62
     7
100
AcDbLine
 10
107.749999857525
 20
953.2000007628384
 30
0.0
 11
107.249999857525
 21
953.2000007628384
 31
0.0
  0
LINE
  5
18E
330
6A
100
AcDbEntity
  8
0
  6
Continuous
 62
     7
100
AcDbLine
 10
107.749999857525
 20
955.4000007628383
 30
0.0
 11
107.749999857525
 21
957.6000007628384
 31
0.0
  0
LINE
  5
18F
330
6A
100
AcDbEntity
  8
0
  6
Continuous
 62
     7
100
AcDbLine
 10
111.749999857525
 20
948.1000007627689
 30
0.0
 11
84.24999985752501
 21
948.1000007627689
 31
0.0
  0
LINE
  5
190
330
6A
100
AcDbEntity
  8
0
  6
Continuous
 62
     7
100
AcDbLine
 10
84.24999985752501
 20
969.3000007627688
 30
0.0
 11
84.24999985752501
 21
948.1000007627689
 31
0.0
  0
LINE
  5
191
330
6A
100
AcDbEntity
  8
0
  6
Continuous
 62
     7
100
AcDbLine
 10
111.749999857525
 20
948.1000007627689
 30
0.0
 11
111.749999857525
 21
969.3000007627688
 31
0.0
  0
LINE
  5
192
330
6A
100
AcDbEntity
  8
0
  6
Continuous
 62
     7
100
AcDbLine
 10
111.749999857525
 20
969.3000007627688
 30
0.0
 11
84.24999985752501
 21
969.3000007627688
 31
0.0
  0
ENDBLK
  5
6C
330
6A
100
AcDbEntity
  8
0
100
AcDbBlockEnd
  0
BLOCK
  5
6F
330
6D
100
AcDbEntity
  8
0
100
AcDbBlockBegin
  2
Untsicht1
 70
     0
 10
98.0
 20
958.7000007629471
 30
0.0
  3
Untsicht1
  1

  0
INSERT
  5
6E
330
6D
100
AcDbEntity
  8
0
100
AcDbBlockReference
  2
REL-IR4_4X21-OG-select__6
 10
84.24999985752501
 20
948.1000007627689
 30
0.0
  0
MTEXT
  5
193
330
6D
100
AcDbEntity
  8
1
 62
     6
100
AcDbMText
 10
98.0
 20
943.1000003814722
 30
0.0
 40
5.0
 41
0.0
 71
     2
 72
     1
  1
 
  7
CONVERTER_11
 73
     1
 44
1.32052821128451
  0
ENDBLK
  5
70
330
6D
100
AcDbEntity
  8
0
100
AcDbBlockEnd
  0
BLOCK
  5
72
330
71
100
AcDbEntity
  8
0
100
AcDbBlockBegin
  2
REL-IR4_4X21-OG-select__7
 70
     0
 10
84.24999985752503
 20
891.6000003813941
 30
0.0
  3
REL-IR4_4X21-OG-select__7
  1

  0
LINE
  5
194
330
71
100
AcDbEntity
  8
0
  6
Continuous
 62
     7
100
AcDbLine
 10
110.749999857525
 20
932.5000003814063
 30
0.0
 11
110.749999857525
 21
930.5000003814063
 31
0.0
  0
LINE
  5
195
330
71
100
AcDbEntity
  8
0
  6
Continuous
 62
     7
100
AcDbLine
 10
111.749999857525
 20
930.5000003814063
 30
0.0
 11
110.749999857525
 21
930.5000003814063
 31
0.0
  0
LINE
  5
196
330
71
100
AcDbEntity
  8
0
  6
Continuous
 62
     7
100
AcDbLine
 10
110.749999857525
 20
930.5000003814063
 30
0.0
 11
106.249999857525
 21
930.5000003814063
 31
0.0
  0
LINE
  5
197
330
71
100
AcDbEntity
  8
0
  6
Continuous
 62
     7
100
AcDbLine
 10
108.499999857525
 20
932.5000003814063
 30
0.0
 11
110.749999857525
 21
932.5000003814063
 31
0.0
  0
LINE
  5
198
330
71
100
AcDbEntity
  8
0
  6
Continuous
 62
     7
100
AcDbLine
 10
90.54999985752504
 20
897.6000003813992
 30
0.0
 11
90.54999985752504
 21
891.6000003813941
 31
0.0
  0
LINE
  5
199
330
71
100
AcDbEntity
  8
0
  6
Continuous
 62
     7
100
AcDbLine
 10
84.24999985752503
 20
897.6000003814063
 30
0.0
 11
84.24999985752503
 21
899.2000003814062
 31
0.0
  0
LINE
  5
19A
330
71
100
AcDbEntity
  8
0
  6
Continuous
 62
     7
100
AcDbLine
 10
97.39999985752503
 20
897.6000003813992
 30
0.0
 11
97.39999985752503
 21
891.6000003813941
 31
0.0
  0
LINE
  5
19B
330
71
100
AcDbEntity
  8
0
  6
Continuous
 62
     7
100
AcDbLine
 10
96.89999985752505
 20
897.6000003813992
 30
0.0
 11
96.89999985752505
 21
891.6000003813941
 31
0.0
  0
LINE
  5
19C
330
71
100
AcDbEntity
  8
0
  6
Continuous
 62
     7
100
AcDbLine
 10
96.89999985752505
 20
891.6000003813941
 30
0.0
 11
97.39999985752503
 21
891.6000003813941
 31
0.0
  0
LINE
  5
19D
330
71
100
AcDbEntity
  8
0
  6
Continuous
 62
     7
100
AcDbLine
 10
91.04999985752504
 20
891.6000003813941
 30
0.0
 11
90.54999985752504
 21
891.6000003813941
 31
0.0
  0
LINE
  5
19E
330
71
100
AcDbEntity
  8
0
  6
Continuous
 62
     7
100
AcDbLine
 10
91.04999985752504
 20
891.6000003813941
 30
0.0
 11
91.04999985752504
 21
897.6000003813992
 31
0.0
  0
LINE
  5
19F
330
71
100
AcDbEntity
  8
0
  6
Continuous
 62
     7
100
AcDbLine
 10
103.749999857525
 20
897.6000003813992
 30
0.0
 11
103.249999857525
 21
897.6000003813992
 31
0.0
  0
LINE
  5
1A0
330
71
100
AcDbEntity
  8
0
  6
Continuous
 62
     7
100
AcDbLine
 10
107.249999857525
 20
897.6000003813992
 30
0.0
 11
103.749999857525
 21
897.6000003813992
 31
0.0
  0
LINE
  5
1A1
330
71
100
AcDbEntity
  8
0
  6
Continuous
 62
     7
100
AcDbLine
 10
97.39999985752503
 20
897.6000003813992
 30
0.0
 11
96.89999985752505
 21
897.6000003813992
 31
0.0
  0
LINE
  5
1A2
330
71
100
AcDbEntity
  8
0
  6
Continuous
 62
     7
100
AcDbLine
 10
91.04999985752504
 20
897.6000003813992
 30
0.0
 11
90.54999985752504
 21
897.6000003813992
 31
0.0
  0
LINE
  5
1A3
330
71
100
AcDbEntity
  8
0
  6
Continuous
 62
     7
100
AcDbLine
 10
96.89999985752505
 20
897.6000003813992
 30
0.0
 11
91.04999985752504
 21
897.6000003813992
 31
0.0
  0
LINE
  5
1A4
330
71
100
AcDbEntity
  8
0
  6
Continuous
 62
     7
100
AcDbLine
 10
107.749999857525
 20
897.6000003813992
 30
0.0
 11
107.249999857525
 21
897.6000003813992
 31
0.0
  0
LINE
  5
1A5
330
71
100
AcDbEntity
  8
0
  6
Continuous
 62
     7
100
AcDbLine
 10
111.749999857525
 20
897.6000003814063
 30
0.0
 11
107.749999857525
 21
897.6000003813992
 31
0.0
  0
LINE
  5
1A6
330
71
100
AcDbEntity
  8
0
  6
Continuous
 62
     7
100
AcDbLine
 10
90.54999985752504
 20
897.6000003813992
 30
0.0
 11
84.24999985752503
 21
897.6000003814063
 31
0.0
  0
LINE
  5
1A7
330
71
100
AcDbEntity
  8
0
  6
Continuous
 62
     7
100
AcDbLine
 10
103.249999857525
 20
897.6000003813992
 30
0.0
 11
97.39999985752503
 21
897.6000003813992
 31
0.0
  0
LINE
  5
1A8
330
71
100
AcDbEntity
  8
0
  6
Continuous
 62
     7
100
AcDbLine
 10
103.249999857525
 20
897.6000003813992
 30
0.0
 11
103.249999857525
 21
891.6000003813941
 31
0.0
  0
LINE
  5
1A9
330
71
100
AcDbEntity
  8
0
  6
Continuous
 62
     7
100
AcDbLine
 10
103.249999857525
 20
891.6000003813941
 30
0.0
 11
103.749999857525
 21
891.6000003813941
 31
0.0
  0
LINE
  5
1AA
330
71
100
AcDbEntity
  8
0
  6
Continuous
 62
     7
100
AcDbLine
 10
107.749999857525
 20
891.6000003813951
 30
0.0
 11
107.749999857525
 21
897.6000003813992
 31
0.0
  0
LINE
  5
1AB
330
71
100
AcDbEntity
  8
0
  6
Continuous
 62
     7
100
AcDbLine
 10
107.749999857525
 20
891.6000003813951
 30
0.0
 11
107.249999857525
 21
891.6000003813951
 31
0.0
  0
LINE
  5
1AC
330
71
100
AcDbEntity
  8
0
  6
Continuous
 62
     7
100
AcDbLine
 10
111.749999857525
 20
899.2000003814062
 30
0.0
 11
111.749999857525
 21
897.6000003814063
 31
0.0
  0
LINE
  5
1AD
330
71
100
AcDbEntity
  8
0
  6
Continuous
 62
     7
100
AcDbLine
 10
107.249999857525
 20
891.6000003813951
 30
0.0
 11
107.249999857525
 21
897.6000003813992
 31
0.0
  0
LINE
  5
1AE
330
71
100
AcDbEntity
  8
0
  6
Continuous
 62
     7
100
AcDbLine
 10
103.749999857525
 20
897.6000003813992
 30
0.0
 11
103.749999857525
 21
891.6000003813941
 31
0.0
  0
LINE
  5
1AF
330
71
100
AcDbEntity
  8
0
  6
Continuous
 62
     7
100
AcDbLine
 10
111.749999857525
 20
899.2000003814062
 30
0.0
 11
111.749999857525
 21
930.5000003814063
 31
0.0
  0
LINE
  5
1B0
330
71
100
AcDbEntity
  8
0
  6
Continuous
 62
     7
100
AcDbLine
 10
111.749999857525
 20
933.1000003814063
 30
0.0
 11
111.749999857525
 21
930.5000003814063
 31
0.0
  0
LINE
  5
1B1
330
71
100
AcDbEntity
  8
0
  6
Continuous
 62
     2
100
AcDbLine
 10
108.499999857525
 20
932.5000003814063
 30
0.0
 11
108.499999857525
 21
933.1000003814063
 31
0.0
  0
LINE
  5
1B2
330
71
100
AcDbEntity
  8
0
  6
Continuous
 62
     7
100
AcDbLine
 10
106.249999857525
 20
932.5000003814063
 30
0.0
 11
106.249999857525
 21
933.1000003814063
 31
0.0
  0
LINE
  5
1B3
330
71
100
AcDbEntity
  8
0
  6
Continuous
 62
     7
100
AcDbLine
 10
106.249999857525
 20
930.5000003814063
 30
0.0
 11
106.249999857525
 21
932.5000003814063
 31
0.0
  0
LINE
  5
1B4
330
71
100
AcDbEntity
  8
0
  6
Continuous
 62
     7
100
AcDbLine
 10
106.249999857525
 20
932.5000003814063
 30
0.0
 11
108.499999857525
 21
932.5000003814063
 31
0.0
  0
LINE
  5
1B5
330
71
100
AcDbEntity
  8
0
  6
Continuous
 62
     7
100
AcDbLine
 10
106.249999857525
 20
933.1000003814063
 30
0.0
 11
84.24999985752503
 21
933.1000003814063
 31
0.0
  0
LINE
  5
1B6
330
71
100
AcDbEntity
  8
0
  6
Continuous
 62
     7
100
AcDbLine
 10
111.749999857525
 20
933.1000003814063
 30
0.0
 11
108.499999857525
 21
933.1000003814063
 31
0.0
  0
LINE
  5
1B7
330
71
100
AcDbEntity
  8
0
  6
Continuous
 62
     7
100
AcDbLine
 10
108.499999857525
 20
933.1000003814063
 30
0.0
 11
106.249999857525
 21
933.1000003814063
 31
0.0
  0
LINE
  5
1B8
330
71
100
AcDbEntity
  8
0
  6
Continuous
 62
     2
100
AcDbLine
 10
84.24999985752503
 20
899.2000003814062
 30
0.0
 11
111.749999857525
 21
899.2000003814062
 31
0.0
  0
LINE
  5
1B9
330
71
100
AcDbEntity
  8
0
  6
Continuous
 62
     7
100
AcDbLine
 10
84.24999985752503
 20
899.2000003814062
 30
0.0
 11
84.24999985752503
 21
933.1000003814063
 31
0.0
  0
ENDBLK
  5
73
330
71
100
AcDbEntity
  8
0
100
AcDbBlockEnd
  0
BLOCK
  5
76
330
74
100
AcDbEntity
  8
0
100
AcDbBlockBegin
  2
Vordans1
 70
     0
 10
97.99999999999999
 20
912.3500003814345
 30
0.0
  3
Vordans1
  1

  0
INSERT
  5
75
330
74
100
AcDbEntity
  8
0
100
AcDbBlockReference
  2
REL-IR4_4X21-OG-select__7
 10
84.24999985752503
 20
891.6000003813941
 30
0.0
  0
MTEXT
  5
1BA
330
74
100
AcDbEntity
  8
1
 62
     6
100
AcDbMText
 10
98.0
 20
886.6000003814319
 30
0.0
 40
5.0
 41
0.0
 71
     2
 72
     1
  1
 
  7
CONVERTER_11
 73
     1
 44
1.32052821128451
  0
DIMENSION
  5
1C5
330
74
100
AcDbEntity
  8
1
100
AcDbDimension
  2
*D20
 10
84.24999985752503
 20
876.801516269186
 30
0.0
 11
99.5253422003501
 21
880.2265162691859
 31
0.0
 70
    32
  1
<>
 71
     5
 42
-1.0
 53
0.00013888888889
  3
ME10_DIM_11
100
AcDbAlignedDimension
 13
111.749999857525
 23
897.6000003814063
 33
0.0
 14
84.24999985752503
 24
897.6000003814063
 34
0.0
100
AcDbRotatedDimension
  0
DIMENSION
  5
1D0
330
74
100
AcDbEntity
  8
1
100
AcDbDimension
  2
*D21
 10
69.4384155658728
 20
933.1000003814063
 30
0.0
 11
66.0134155658728
 21
916.354291727055
 31
0.0
 70
    32
  1
<>
 71
     5
 42
-1.0
 53
90.0
  3
ME10_DIM_12
100
AcDbAlignedDimension
 13
84.24999985752503
 23
897.6000003814063
 33
0.0
 14
84.24999985752503
 24
933.1000003814063
 34
0.0
 50
90.0
100
AcDbRotatedDimension
  0
DIMENSION
  5
1DB
330
74
100
AcDbEntity
  8
1
100
AcDbDimension
  2
*D22
 10
61.43841556587281
 20
933.1000003814063
 30
0.0
 11
58.01341556587281
 21
912.3500003814002
 31
0.0
 70
    32
  1
<>
 71
     5
 42
-1.0
 53
90.0
  3
ME10_DIM_13
100
AcDbAlignedDimension
 13
90.54999985752504
 23
891.6000003813941
 33
0.0
 14
84.24999985752503
 24
933.1000003814063
 34
0.0
 50
90.0
100
AcDbRotatedDimension
  0
ENDBLK
  5
77
330
74
100
AcDbEntity
  8
0
100
AcDbBlockEnd
  0
BLOCK
  5
79
330
78
100
AcDbEntity
  8
0
100
AcDbBlockBegin
  2
_rahmen
 70
     0
 10
247.7499997581163
 20
789.2499994171704
 30
0.0
  3
_rahmen
  1

  0
LINE
  5
1DC
330
78
100
AcDbEntity
  8
1
  6
DOT_CENTER
 62
     2
100
AcDbLine
 10
122.1918501179288
 20
815.3749994171704
 30
0.0
 11
127.6918501179288
 21
815.3749994171704
 31
0.0
  0
LINE
  5
1DD
330
78
100
AcDbEntity
  8
1
  6
PHANTOM
 62
     2
100
AcDbLine
 10
130.9418501179288
 20
818.1249994171704
 30
0.0
 11
130.9418501179288
 21
812.6249994171704
 31
0.0
  0
LINE
  5
1DE
330
78
100
AcDbEntity
  8
1
  6
PHANTOM
 62
     2
100
AcDbLine
 10
133.6918501179288
 20
815.3749994171704
 30
0.0
 11
128.1918501179288
 21
815.3749994171704
 31
0.0
  0
LINE
  5
1DF
330
78
100
AcDbEntity
  8
1
  6
Continuous
 62
     7
100
AcDbLine
 10
182.5051952313662
 20
802.7499994171704
 30
0.0
 11
182.5051952313662
 21
811.2499994171706
 31
0.0
  0
LINE
  5
1E0
330
78
100
AcDbEntity
  8
1
  6
Continuous
 62
     6
100
AcDbLine
 10
154.6051952313661
 20
811.2499994171706
 30
0.0
 11
247.7499997581179
 21
811.2499994171706
 31
0.0
  0
LINE
  5
1E1
330
78
100
AcDbEntity
  8
1
  6
Continuous
 62
     7
100
AcDbLine
 10
118.2051952313662
 20
811.2499994171706
 30
0.0
 11
118.2051952313662
 21
819.7499994171706
 31
0.0
  0
LINE
  5
1E2
330
78
100
AcDbEntity
  8
1
  6
Continuous
 62
     7
100
AcDbLine
 10
154.6051952313661
 20
811.2499994171706
 30
0.0
 11
154.6051952313661
 21
819.7499994171706
 31
0.0
  0
LINE
  5
1E3
330
78
100
AcDbEntity
  8
1
  6
Continuous
 62
     7
100
AcDbLine
 10
212.3315914764391
 20
819.7499994171706
 30
0.0
 11
212.3315914764391
 21
811.2499994171706
 31
0.0
  0
LINE
  5
1E4
330
78
100
AcDbEntity
  8
1
  6
Continuous
 62
     7
100
AcDbLine
 10
238.8315914764387
 20
819.7499994171706
 30
0.0
 11
238.8315914764387
 21
811.2499994171706
 31
0.0
  0
LINE
  5
1E5
330
78
100
AcDbEntity
  8
1
  6
Continuous
 62
     6
100
AcDbLine
 10
49.20519523136625
 20
794.2499994171706
 30
0.0
 11
4.24999975811625
 21
794.2499994171706
 31
0.0
  0
LINE
  5
1E6
330
78
100
AcDbEntity
  8
1
  6
Continuous
 62
     7
100
AcDbLine
 10
247.7499997581175
 20
802.7499994171706
 30
0.0
 11
154.6051952313661
 21
802.7499994171706
 31
0.0
  0
LINE
  5
1E7
102
{ACAD_REACTORS
330
2F9
330
2FA
102
}
330
78
100
AcDbEntity
  8
0
  6
Continuous
 62
     2
100
AcDbLine
 10
131.9126241731336
 20
803.5502885328339
 30
0.0
 11
131.9126241731336
 21
804.4228055396371
 31
0.0
  0
LINE
  5
1E8
102
{ACAD_REACTORS
330
2F9
330
2FA
102
}
330
78
100
AcDbEntity
  8
0
  6
Continuous
 62
     2
100
AcDbLine
 10
131.9126241731336
 20
802.590519825351
 30
0.0
 11
131.9126241731336
 21
801.7180028185478
 31
0.0
  0
LINE
  5
1E9
102
{ACAD_REACTORS
330
2FB
330
2FC
102
}
330
78
100
AcDbEntity
  8
0
  6
Continuous
 62
     2
100
AcDbLine
 10
147.2456683094241
 20
803.8120436348744
 30
0.0
 11
148.3493076089922
 21
803.8120436348744
 31
0.0
  0
LINE
  5
1EA
102
{ACAD_REACTORS
330
2FB
330
2FC
102
}
330
78
100
AcDbEntity
  8
0
  6
Continuous
 62
     2
100
AcDbLine
 10
148.0153256523855
 20
802.5905198253505
 30
0.0
 11
148.0153256523855
 21
801.7180028185471
 31
0.0
  0
LINE
  5
1EB
102
{ACAD_REACTORS
330
305
330
306
102
}
330
78
100
AcDbEntity
  8
0
  6
Continuous
 62
     2
100
AcDbLine
 10
146.1545690370056
 20
804.9026898933612
 30
0.0
 11
147.5525220839459
 21
806.4835488871362
 31
0.0
  0
LINE
  5
1EC
102
{ACAD_REACTORS
330
305
330
306
102
}
330
78
100
AcDbEntity
  8
0
  6
Continuous
 62
     2
100
AcDbLine
 10
146.2499924531784
 20
807.9564994171724
 30
0.0
 11
147.5525220839459
 21
806.4835488871362
 31
0.0
  0
LINE
  5
1ED
102
{ACAD_REACTORS
330
305
330
306
102
}
330
78
100
AcDbEntity
  8
0
  6
Continuous
 62
     2
100
AcDbLine
 10
148.8550517147123
 20
807.9564994171724
 30
0.0
 11
150.2577759324595
 21
807.9564994171724
 31
0.0
  0
LINE
  5
1EE
102
{ACAD_REACTORS
330
305
330
306
102
}
330
78
100
AcDbEntity
  8
0
  6
Continuous
 62
     2
100
AcDbLine
 10
147.5572932547538
 20
804.9026898933612
 30
0.0
 11
148.2538841928195
 21
805.6904216786548
 31
0.0
  0
LINE
  5
1EF
102
{ACAD_REACTORS
330
305
330
306
102
}
330
78
100
AcDbEntity
  8
0
  6
Continuous
 62
     2
100
AcDbLine
 10
147.5572932547538
 20
804.9026898933612
 30
0.0
 11
146.1545690370056
 21
804.9026898933612
 31
0.0
  0
LINE
  5
1F0
102
{ACAD_REACTORS
330
307
330
308
102
}
330
78
100
AcDbEntity
  8
0
  6
Continuous
 62
     2
100
AcDbLine
 10
146.0352897667887
 20
804.9026898933612
 30
0.0
 11
144.7947853565358
 21
804.9026898933612
 31
0.0
  0
LINE
  5
1F1
102
{ACAD_REACTORS
330
309
330
30A
102
}
330
78
100
AcDbEntity
  8
0
  6
Continuous
 62
     2
100
AcDbLine
 10
143.9268057483807
 20
802.7650232267114
 30
0.0
 11
143.6266405111906
 21
803.532838192698
 31
0.0
  0
LINE
  5
1F2
102
{ACAD_REACTORS
330
309
330
30A
102
}
330
78
100
AcDbEntity
  8
0
  6
Continuous
 62
     2
100
AcDbLine
 10
143.3264752739982
 20
802.7650232267114
 30
0.0
 11
143.9268057483807
 21
802.7650232267114
 31
0.0
  0
LINE
  5
1F3
102
{ACAD_REACTORS
330
309
330
30A
102
}
330
78
100
AcDbEntity
  8
0
  6
Continuous
 62
     2
100
AcDbLine
 10
141.6084352591244
 20
801.5434994171869
 30
0.0
 11
142.8489396693774
 21
801.5434994171869
 31
0.0
  0
LINE
  5
1F4
102
{ACAD_REACTORS
330
309
330
30A
102
}
330
78
100
AcDbEntity
  8
0
  6
Continuous
 62
     2
100
AcDbLine
 10
143.0063883060637
 20
804.5973089409979
 30
0.0
 11
144.2468927163164
 21
804.5973089409979
 31
0.0
  0
LINE
  5
1F5
102
{ACAD_REACTORS
330
309
330
30A
102
}
330
78
100
AcDbEntity
  8
0
  6
Continuous
 62
     2
100
AcDbLine
 10
144.2468927163164
 20
804.5973089409979
 30
0.0
 11
145.6448457632567
 21
801.5434994171869
 31
0.0
  0
LINE
  5
1F6
102
{ACAD_REACTORS
330
309
330
30A
102
}
330
78
100
AcDbEntity
  8
0
  6
Continuous
 62
     2
100
AcDbLine
 10
144.4043413530028
 20
801.5434994171869
 30
0.0
 11
144.192861299527
 21
802.0844599614047
 31
0.0
  0
LINE
  5
1F7
102
{ACAD_REACTORS
330
30B
330
30C
102
}
330
78
100
AcDbEntity
  8
0
  6
Continuous
 62
     2
100
AcDbLine
 10
140.2620221574168
 20
801.5434994171869
 30
0.0
 11
141.4548148595833
 21
801.5434994171869
 31
0.0
  0
LINE
  5
1F8
102
{ACAD_REACTORS
330
30B
330
30C
102
}
330
78
100
AcDbEntity
  8
0
  6
Continuous
 62
     2
100
AcDbLine
 10
140.2620221574168
 20
803.8120436348744
 30
0.0
 11
140.2620221574168
 21
801.5434994171869
 31
0.0
  0
LINE
  5
1F9
102
{ACAD_REACTORS
330
30B
330
30C
102
}
330
78
100
AcDbEntity
  8
0
  6
Continuous
 62
     2
100
AcDbLine
 10
139.4509231199422
 20
804.5973089409979
 30
0.0
 11
139.4509231199422
 21
803.8120436348744
 31
0.0
  0
LINE
  5
1FA
102
{ACAD_REACTORS
330
30D
330
30E
102
}
330
78
100
AcDbEntity
  8
0
  6
Continuous
 62
     2
100
AcDbLine
 10
140.9301370015148
 20
804.9026898933612
 30
0.0
 11
142.1229297036813
 21
804.9026898933612
 31
0.0
  0
LINE
  5
1FB
102
{ACAD_REACTORS
330
30D
330
30E
102
}
330
78
100
AcDbEntity
  8
0
  6
Continuous
 62
     2
100
AcDbLine
 10
143.3634341139353
 20
806.6477239069671
 30
0.0
 11
142.1229297036813
 21
807.9564994171724
 31
0.0
  0
LINE
  5
1FC
102
{ACAD_REACTORS
330
30D
330
30E
102
}
330
78
100
AcDbEntity
  8
0
  6
Continuous
 62
     2
100
AcDbLine
 10
144.5562268161019
 20
807.9564994171724
 30
0.0
 11
143.3634341139353
 21
807.9564994171724
 31
0.0
  0
LINE
  5
1FD
102
{ACAD_REACTORS
330
30D
330
30E
102
}
330
78
100
AcDbEntity
  8
0
  6
Continuous
 62
     2
100
AcDbLine
 10
144.5562268161019
 20
804.9026898933612
 30
0.0
 11
144.5562268161019
 21
807.9564994171724
 31
0.0
  0
LINE
  5
1FE
102
{ACAD_REACTORS
330
30D
330
30E
102
}
330
78
100
AcDbEntity
  8
0
  6
Continuous
 62
     2
100
AcDbLine
 10
143.3634341139353
 20
804.9026898933612
 30
0.0
 11
144.5562268161019
 21
804.9026898933612
 31
0.0
  0
LINE
  5
1FF
102
{ACAD_REACTORS
330
30D
330
30E
102
}
330
78
100
AcDbEntity
  8
0
  6
Continuous
 62
     2
100
AcDbLine
 10
142.1229297036813
 20
806.2114654035659
 30
0.0
 11
143.3634341139353
 21
804.9026898933612
 31
0.0
  0
LINE
  5
200
102
{ACAD_REACTORS
330
30F
330
310
102
}
330
78
100
AcDbEntity
  8
0
  6
Continuous
 62
     2
100
AcDbLine
 10
138.1149952935156
 20
803.2885334307929
 30
0.0
 11
136.8744908832627
 21
804.5973089409979
 31
0.0
  0
LINE
  5
201
102
{ACAD_REACTORS
330
30F
330
310
102
}
330
78
100
AcDbEntity
  8
0
  6
Continuous
 62
     2
100
AcDbLine
 10
138.1149952935156
 20
804.5973089409979
 30
0.0
 11
138.1149952935156
 21
803.2885334307929
 31
0.0
  0
LINE
  5
202
102
{ACAD_REACTORS
330
30F
330
310
102
}
330
78
100
AcDbEntity
  8
0
  6
Continuous
 62
     2
100
AcDbLine
 10
139.307787995682
 20
804.5973089409979
 30
0.0
 11
138.1149952935156
 21
804.5973089409979
 31
0.0
  0
LINE
  5
203
102
{ACAD_REACTORS
330
30F
330
310
102
}
330
78
100
AcDbEntity
  8
0
  6
Continuous
 62
     2
100
AcDbLine
 10
139.307787995682
 20
801.5434994171869
 30
0.0
 11
139.307787995682
 21
804.5973089409979
 31
0.0
  0
LINE
  5
204
102
{ACAD_REACTORS
330
30F
330
310
102
}
330
78
100
AcDbEntity
  8
0
  6
Continuous
 62
     2
100
AcDbLine
 10
136.8744908832627
 20
802.8522749273915
 30
0.0
 11
138.1149952935156
 21
801.5434994171869
 31
0.0
  0
LINE
  5
205
102
{ACAD_REACTORS
330
30F
330
310
102
}
330
78
100
AcDbEntity
  8
0
  6
Continuous
 62
     2
100
AcDbLine
 10
136.8744908832627
 20
801.5434994171869
 30
0.0
 11
136.8744908832627
 21
802.8522749273915
 31
0.0
  0
LINE
  5
206
102
{ACAD_REACTORS
330
2FF
330
300
102
}
330
78
100
AcDbEntity
  8
0
  6
Continuous
 62
     2
100
AcDbLine
 10
139.3556506346542
 20
807.2584858117293
 30
0.0
 11
140.6915784610819
 21
807.2584858117293
 31
0.0
  0
LINE
  5
207
102
{ACAD_REACTORS
330
2FF
330
300
102
}
330
78
100
AcDbEntity
  8
0
  6
Continuous
 62
     2
100
AcDbLine
 10
139.3556506346542
 20
805.6007034988037
 30
0.0
 11
139.3556506346542
 21
806.0805878525454
 31
0.0
  0
LINE
  5
208
102
{ACAD_REACTORS
330
2FF
330
300
102
}
330
78
100
AcDbEntity
  8
0
  6
Continuous
 62
     2
100
AcDbLine
 10
140.6915784610819
 20
805.6007034988037
 30
0.0
 11
139.3556506346542
 21
805.6007034988037
 31
0.0
  0
LINE
  5
209
102
{ACAD_REACTORS
330
2FF
330
300
102
}
330
78
100
AcDbEntity
  8
0
  6
Continuous
 62
     2
100
AcDbLine
 10
140.6915784610819
 20
804.9026898933612
 30
0.0
 11
140.6915784610819
 21
805.6007034988037
 31
0.0
  0
LINE
  5
20A
102
{ACAD_REACTORS
330
2FF
330
300
102
}
330
78
100
AcDbEntity
  8
0
  6
Continuous
 62
     2
100
AcDbLine
 10
137.5412587373009
 20
804.9026898933612
 30
0.0
 11
140.6915784610819
 21
804.9026898933612
 31
0.0
  0
LINE
  5
20B
102
{ACAD_REACTORS
330
2FF
330
300
102
}
330
78
100
AcDbEntity
  8
0
  6
Continuous
 62
     2
100
AcDbLine
 10
137.5412587373009
 20
807.9564994171724
 30
0.0
 11
140.6915784610819
 21
807.9564994171724
 31
0.0
  0
LINE
  5
20C
102
{ACAD_REACTORS
330
2FF
330
300
102
}
330
78
100
AcDbEntity
  8
0
  6
Continuous
 62
     2
100
AcDbLine
 10
140.6915784610819
 20
807.2584858117293
 30
0.0
 11
140.6915784610819
 21
807.9564994171724
 31
0.0
  0
LINE
  5
20D
102
{ACAD_REACTORS
330
311
330
312
102
}
330
78
100
AcDbEntity
  8
0
  6
Continuous
 62
     2
100
AcDbLine
 10
134.6799032421609
 20
806.8876660838378
 30
0.0
 11
134.6799032421609
 21
807.9564994171724
 31
0.0
  0
LINE
  5
20E
102
{ACAD_REACTORS
330
311
330
312
102
}
330
78
100
AcDbEntity
  8
0
  6
Continuous
 62
     2
100
AcDbLine
 10
134.6799032421609
 20
807.9564994171724
 30
0.0
 11
135.8726959443273
 21
807.9564994171724
 31
0.0
  0
LINE
  5
20F
102
{ACAD_REACTORS
330
311
330
312
102
}
330
78
100
AcDbEntity
  8
0
  6
Continuous
 62
     2
100
AcDbLine
 10
134.6799032421609
 20
806.036962002205
 30
0.0
 11
133.6302456642534
 21
806.036962002205
 31
0.0
  0
LINE
  5
210
102
{ACAD_REACTORS
330
311
330
312
102
}
330
78
100
AcDbEntity
  8
0
  6
Continuous
 62
     2
100
AcDbLine
 10
133.6302456642534
 20
806.036962002205
 30
0.0
 11
133.6302456642534
 21
804.9026898933612
 31
0.0
  0
LINE
  5
211
102
{ACAD_REACTORS
330
311
330
312
102
}
330
78
100
AcDbEntity
  8
0
  6
Continuous
 62
     2
100
AcDbLine
 10
132.4374529620868
 20
807.9564994171724
 30
0.0
 11
132.4374529620868
 21
804.9026898933612
 31
0.0
  0
LINE
  5
212
102
{ACAD_REACTORS
330
303
330
304
102
}
330
78
100
AcDbEntity
  8
0
  6
Continuous
 62
     2
100
AcDbLine
 10
130.4812729305332
 20
806.58766592239
 30
0.0
 11
130.4812729305332
 21
807.2933935717323
 31
0.0
  0
LINE
  5
213
102
{ACAD_REACTORS
330
303
330
304
102
}
330
78
100
AcDbEntity
  8
0
  6
Continuous
 62
     2
100
AcDbLine
 10
129.2407685202791
 20
804.9026898933612
 30
0.0
 11
130.4812729305332
 21
804.9026898933612
 31
0.0
  0
LINE
  5
214
102
{ACAD_REACTORS
330
303
330
304
102
}
330
78
100
AcDbEntity
  8
0
  6
Continuous
 62
     2
100
AcDbLine
 10
130.4812729305332
 20
804.9026898933612
 30
0.0
 11
130.4812729305332
 21
805.845768134505
 31
0.0
  0
LINE
  5
215
102
{ACAD_REACTORS
330
2FD
330
2FE
102
}
330
78
100
AcDbEntity
  8
0
  6
Continuous
 62
     2
100
AcDbLine
 10
124.9358226710677
 20
802.2560549727438
 30
0.0
 11
123.4599894100581
 21
802.2560549727438
 31
0.0
  0
LINE
  5
216
102
{ACAD_REACTORS
330
2FD
330
2FE
102
}
330
78
100
AcDbEntity
  8
0
  6
Continuous
 62
     2
100
AcDbLine
 10
122.4418501179288
 20
807.5322548017704
 30
0.0
 11
122.4418501179288
 21
801.9677440325702
 31
0.0
  0
LINE
  5
217
102
{ACAD_REACTORS
330
2FD
330
2FE
102
}
330
78
100
AcDbEntity
  8
0
  6
Continuous
 62
     2
100
AcDbLine
 10
122.8660947333116
 20
807.9564994171542
 30
0.0
 11
128.3394068240284
 21
807.9564994171542
 31
0.0
  0
LINE
  5
218
102
{ACAD_REACTORS
330
2FD
330
2FE
102
}
330
78
100
AcDbEntity
  8
0
  6
Continuous
 62
     2
100
AcDbLine
 10
128.7636514394123
 20
807.5322548017704
 30
0.0
 11
128.7636514394123
 21
801.9677440325702
 31
0.0
  0
LINE
  5
219
102
{ACAD_REACTORS
330
2FD
330
2FE
102
}
330
78
100
AcDbEntity
  8
0
  6
Continuous
 62
     2
100
AcDbLine
 10
128.3394068240284
 20
801.5434994171869
 30
0.0
 11
122.8660947333116
 21
801.5434994171869
 31
0.0
  0
LINE
  5
21A
102
{ACAD_REACTORS
330
2FD
330
2FE
102
}
330
78
100
AcDbEntity
  8
0
  6
Continuous
 62
     2
100
AcDbLine
 10
125.2515395941443
 20
802.5717718958205
 30
0.0
 11
125.2515395941443
 21
804.1025428273521
 31
0.0
  0
LINE
  5
21B
102
{ACAD_REACTORS
330
2FD
330
2FE
102
}
330
78
100
AcDbEntity
  8
0
  6
Continuous
 62
     2
100
AcDbLine
 10
125.2515395941443
 20
806.3242023194771
 30
0.0
 11
125.2515395941443
 21
806.9282269385376
 31
0.0
  0
LINE
  5
21C
102
{ACAD_REACTORS
330
2FD
330
2FE
102
}
330
78
100
AcDbEntity
  8
0
  6
Continuous
 62
     2
100
AcDbLine
 10
123.4599894100581
 20
807.2439438616137
 30
0.0
 11
124.9358226710677
 21
807.2439438616137
 31
0.0
  0
LINE
  5
21D
102
{ACAD_REACTORS
330
2FD
330
2FE
102
}
330
78
100
AcDbEntity
  8
0
  6
Continuous
 62
     2
100
AcDbLine
 10
123.1442724869824
 20
806.9282269385376
 30
0.0
 11
123.1442724869824
 21
802.5717718958205
 31
0.0
  0
LINE
  5
21E
102
{ACAD_REACTORS
330
303
330
304
102
}
330
78
100
AcDbEntity
  8
0
  6
Continuous
 62
     2
100
AcDbLine
 10
130.4812729305332
 20
805.845768134505
 30
0.0
 11
131.2400405183135
 21
805.845768134505
 31
0.0
  0
LINE
  5
21F
102
{ACAD_REACTORS
330
303
330
304
102
}
330
78
100
AcDbEntity
  8
0
  6
Continuous
 62
     2
100
AcDbLine
 10
129.2407685202791
 20
807.9564994171724
 30
0.0
 11
131.2400405183135
 21
807.9564994171724
 31
0.0
  0
LINE
  5
220
102
{ACAD_REACTORS
330
303
330
304
102
}
330
78
100
AcDbEntity
  8
0
  6
Continuous
 62
     2
100
AcDbLine
 10
129.2407685202791
 20
807.9564994171724
 30
0.0
 11
129.2407685202791
 21
804.9026898933612
 31
0.0
  0
LINE
  5
221
102
{ACAD_REACTORS
330
303
330
304
102
}
330
78
100
AcDbEntity
  8
0
  6
Continuous
 62
     2
100
AcDbLine
 10
130.4812729305332
 20
806.58766592239
 30
0.0
 11
130.7985679920751
 21
806.58766592239
 31
0.0
  0
LINE
  5
222
102
{ACAD_REACTORS
330
303
330
304
102
}
330
78
100
AcDbEntity
  8
0
  6
Continuous
 62
     2
100
AcDbLine
 10
130.4812729305332
 20
807.2933935717323
 30
0.0
 11
130.7985679920751
 21
807.2933935717323
 31
0.0
  0
LINE
  5
223
102
{ACAD_REACTORS
330
311
330
312
102
}
330
78
100
AcDbEntity
  8
0
  6
Continuous
 62
     2
100
AcDbLine
 10
133.6302456642534
 20
806.8876660838378
 30
0.0
 11
134.6799032421609
 21
806.8876660838378
 31
0.0
  0
LINE
  5
224
102
{ACAD_REACTORS
330
311
330
312
102
}
330
78
100
AcDbEntity
  8
0
  6
Continuous
 62
     2
100
AcDbLine
 10
133.6302456642534
 20
807.9564994171724
 30
0.0
 11
133.6302456642534
 21
806.8876660838378
 31
0.0
  0
LINE
  5
225
102
{ACAD_REACTORS
330
311
330
312
102
}
330
78
100
AcDbEntity
  8
0
  6
Continuous
 62
     2
100
AcDbLine
 10
132.4374529620868
 20
807.9564994171724
 30
0.0
 11
133.6302456642534
 21
807.9564994171724
 31
0.0
  0
LINE
  5
226
102
{ACAD_REACTORS
330
311
330
312
102
}
330
78
100
AcDbEntity
  8
0
  6
Continuous
 62
     2
100
AcDbLine
 10
133.6302456642534
 20
804.9026898933612
 30
0.0
 11
132.4374529620868
 21
804.9026898933612
 31
0.0
  0
LINE
  5
227
102
{ACAD_REACTORS
330
311
330
312
102
}
330
78
100
AcDbEntity
  8
0
  6
Continuous
 62
     2
100
AcDbLine
 10
134.6799032421609
 20
804.9026898933612
 30
0.0
 11
134.6799032421609
 21
806.036962002205
 31
0.0
  0
LINE
  5
228
102
{ACAD_REACTORS
330
311
330
312
102
}
330
78
100
AcDbEntity
  8
0
  6
Continuous
 62
     2
100
AcDbLine
 10
135.8726959443273
 20
804.9026898933612
 30
0.0
 11
134.6799032421609
 21
804.9026898933612
 31
0.0
  0
LINE
  5
229
102
{ACAD_REACTORS
330
311
330
312
102
}
330
78
100
AcDbEntity
  8
0
  6
Continuous
 62
     2
100
AcDbLine
 10
135.8726959443273
 20
807.9564994171724
 30
0.0
 11
135.8726959443273
 21
804.9026898933612
 31
0.0
  0
LINE
  5
22A
102
{ACAD_REACTORS
330
2FF
330
300
102
}
330
78
100
AcDbEntity
  8
0
  6
Continuous
 62
     2
100
AcDbLine
 10
139.3556506346542
 20
806.0805878525454
 30
0.0
 11
140.6915784610819
 21
806.0805878525454
 31
0.0
  0
LINE
  5
22B
102
{ACAD_REACTORS
330
2FF
330
300
102
}
330
78
100
AcDbEntity
  8
0
  6
Continuous
 62
     2
100
AcDbLine
 10
140.6915784610819
 20
806.0805878525454
 30
0.0
 11
140.6915784610819
 21
806.7786014579876
 31
0.0
  0
LINE
  5
22C
102
{ACAD_REACTORS
330
2FF
330
300
102
}
330
78
100
AcDbEntity
  8
0
  6
Continuous
 62
     2
100
AcDbLine
 10
140.6915784610819
 20
806.7786014579876
 30
0.0
 11
139.3556506346542
 21
806.7786014579876
 31
0.0
  0
LINE
  5
22D
102
{ACAD_REACTORS
330
2FF
330
300
102
}
330
78
100
AcDbEntity
  8
0
  6
Continuous
 62
     2
100
AcDbLine
 10
139.3556506346542
 20
806.7786014579876
 30
0.0
 11
139.3556506346542
 21
807.2584858117293
 31
0.0
  0
LINE
  5
22E
102
{ACAD_REACTORS
330
30F
330
310
102
}
330
78
100
AcDbEntity
  8
0
  6
Continuous
 62
     2
100
AcDbLine
 10
135.6816981810951
 20
801.5434994171869
 30
0.0
 11
136.8744908832627
 21
801.5434994171869
 31
0.0
  0
LINE
  5
22F
102
{ACAD_REACTORS
330
30F
330
310
102
}
330
78
100
AcDbEntity
  8
0
  6
Continuous
 62
     2
100
AcDbLine
 10
138.1149952935156
 20
801.5434994171869
 30
0.0
 11
139.307787995682
 21
801.5434994171869
 31
0.0
  0
LINE
  5
230
102
{ACAD_REACTORS
330
30F
330
310
102
}
330
78
100
AcDbEntity
  8
0
  6
Continuous
 62
     2
100
AcDbLine
 10
136.8744908832627
 20
804.5973089409979
 30
0.0
 11
135.6816981810951
 21
804.5973089409979
 31
0.0
  0
LINE
  5
231
102
{ACAD_REACTORS
330
30F
330
310
102
}
330
78
100
AcDbEntity
  8
0
  6
Continuous
 62
     2
100
AcDbLine
 10
135.6816981810951
 20
804.5973089409979
 30
0.0
 11
135.6816981810951
 21
801.5434994171869
 31
0.0
  0
LINE
  5
232
102
{ACAD_REACTORS
330
30D
330
30E
102
}
330
78
100
AcDbEntity
  8
0
  6
Continuous
 62
     2
100
AcDbLine
 10
143.3634341139353
 20
807.9564994171724
 30
0.0
 11
143.3634341139353
 21
806.6477239069671
 31
0.0
  0
LINE
  5
233
102
{ACAD_REACTORS
330
30D
330
30E
102
}
330
78
100
AcDbEntity
  8
0
  6
Continuous
 62
     2
100
AcDbLine
 10
142.1229297036813
 20
807.9564994171724
 30
0.0
 11
140.9301370015148
 21
807.9564994171724
 31
0.0
  0
LINE
  5
234
102
{ACAD_REACTORS
330
30D
330
30E
102
}
330
78
100
AcDbEntity
  8
0
  6
Continuous
 62
     2
100
AcDbLine
 10
140.9301370015148
 20
807.9564994171724
 30
0.0
 11
140.9301370015148
 21
804.9026898933612
 31
0.0
  0
LINE
  5
235
102
{ACAD_REACTORS
330
30D
330
30E
102
}
330
78
100
AcDbEntity
  8
0
  6
Continuous
 62
     2
100
AcDbLine
 10
142.1229297036813
 20
804.9026898933612
 30
0.0
 11
142.1229297036813
 21
806.2114654035659
 31
0.0
  0
LINE
  5
236
102
{ACAD_REACTORS
330
30B
330
30C
102
}
330
78
100
AcDbEntity
  8
0
  6
Continuous
 62
     2
100
AcDbLine
 10
141.4548148595833
 20
801.5434994171869
 30
0.0
 11
141.4548148595833
 21
803.8120436348744
 31
0.0
  0
LINE
  5
237
102
{ACAD_REACTORS
330
30B
330
30C
102
}
330
78
100
AcDbEntity
  8
0
  6
Continuous
 62
     2
100
AcDbLine
 10
141.4548148595833
 20
803.8120436348744
 30
0.0
 11
142.2659138970558
 21
803.8120436348744
 31
0.0
  0
LINE
  5
238
102
{ACAD_REACTORS
330
30B
330
30C
102
}
330
78
100
AcDbEntity
  8
0
  6
Continuous
 62
     2
100
AcDbLine
 10
142.2659138970558
 20
803.8120436348744
 30
0.0
 11
142.2659138970558
 21
804.5973089409979
 31
0.0
  0
LINE
  5
239
102
{ACAD_REACTORS
330
30B
330
30C
102
}
330
78
100
AcDbEntity
  8
0
  6
Continuous
 62
     2
100
AcDbLine
 10
142.2659138970558
 20
804.5973089409979
 30
0.0
 11
139.4509231199422
 21
804.5973089409979
 31
0.0
  0
LINE
  5
23A
102
{ACAD_REACTORS
330
30B
330
30C
102
}
330
78
100
AcDbEntity
  8
0
  6
Continuous
 62
     2
100
AcDbLine
 10
139.4509231199422
 20
803.8120436348744
 30
0.0
 11
140.2620221574168
 21
803.8120436348744
 31
0.0
  0
LINE
  5
23B
102
{ACAD_REACTORS
330
309
330
30A
102
}
330
78
100
AcDbEntity
  8
0
  6
Continuous
 62
     2
100
AcDbLine
 10
143.0604197228532
 20
802.0844599614047
 30
0.0
 11
144.192861299527
 21
802.0844599614047
 31
0.0
  0
LINE
  5
23C
102
{ACAD_REACTORS
330
309
330
30A
102
}
330
78
100
AcDbEntity
  8
0
  6
Continuous
 62
     2
100
AcDbLine
 10
145.6448457632567
 20
801.5434994171869
 30
0.0
 11
144.4043413530028
 21
801.5434994171869
 31
0.0
  0
LINE
  5
23D
102
{ACAD_REACTORS
330
309
330
30A
102
}
330
78
100
AcDbEntity
  8
0
  6
Continuous
 62
     2
100
AcDbLine
 10
143.0063883060637
 20
804.5973089409979
 30
0.0
 11
141.6084352591244
 21
801.5434994171869
 31
0.0
  0
LINE
  5
23E
102
{ACAD_REACTORS
330
309
330
30A
102
}
330
78
100
AcDbEntity
  8
0
  6
Continuous
 62
     2
100
AcDbLine
 10
142.8489396693774
 20
801.5434994171869
 30
0.0
 11
143.0604197228532
 21
802.0844599614047
 31
0.0
  0
LINE
  5
23F
102
{ACAD_REACTORS
330
309
330
30A
102
}
330
78
100
AcDbEntity
  8
0
  6
Continuous
 62
     2
100
AcDbLine
 10
143.3264752739982
 20
802.7650232267114
 30
0.0
 11
143.6266405111906
 21
803.532838192698
 31
0.0
  0
LINE
  5
240
102
{ACAD_REACTORS
330
307
330
308
102
}
330
78
100
AcDbEntity
  8
0
  6
Continuous
 62
     2
100
AcDbLine
 10
144.7947853565358
 20
804.9026898933612
 30
0.0
 11
144.7947853565358
 21
807.9564994171724
 31
0.0
  0
LINE
  5
241
102
{ACAD_REACTORS
330
307
330
308
102
}
330
78
100
AcDbEntity
  8
0
  6
Continuous
 62
     2
100
AcDbLine
 10
146.0352897667887
 20
807.9564994171724
 30
0.0
 11
146.0352897667887
 21
804.9026898933612
 31
0.0
  0
LINE
  5
242
102
{ACAD_REACTORS
330
307
330
308
102
}
330
78
100
AcDbEntity
  8
0
  6
Continuous
 62
     2
100
AcDbLine
 10
144.7947853565358
 20
807.9564994171724
 30
0.0
 11
146.0352897667887
 21
807.9564994171724
 31
0.0
  0
LINE
  5
243
102
{ACAD_REACTORS
330
305
330
306
102
}
330
78
100
AcDbEntity
  8
0
  6
Continuous
 62
     2
100
AcDbLine
 10
148.2538841928195
 20
805.6904216786548
 30
0.0
 11
148.950475130885
 21
804.9026898933612
 31
0.0
  0
LINE
  5
244
102
{ACAD_REACTORS
330
305
330
306
102
}
330
78
100
AcDbEntity
  8
0
  6
Continuous
 62
     2
100
AcDbLine
 10
148.950475130885
 20
804.9026898933612
 30
0.0
 11
150.3531993486333
 21
804.9026898933612
 31
0.0
  0
LINE
  5
245
102
{ACAD_REACTORS
330
305
330
306
102
}
330
78
100
AcDbEntity
  8
0
  6
Continuous
 62
     2
100
AcDbLine
 10
148.955246301693
 20
806.4835488871362
 30
0.0
 11
150.3531993486333
 21
804.9026898933612
 31
0.0
  0
LINE
  5
246
102
{ACAD_REACTORS
330
305
330
306
102
}
330
78
100
AcDbEntity
  8
0
  6
Continuous
 62
     2
100
AcDbLine
 10
148.955246301693
 20
806.4835488871362
 30
0.0
 11
150.2577759324595
 21
807.9564994171724
 31
0.0
  0
LINE
  5
247
102
{ACAD_REACTORS
330
305
330
306
102
}
330
78
100
AcDbEntity
  8
0
  6
Continuous
 62
     2
100
AcDbLine
 10
148.2538841928195
 20
807.2766760956168
 30
0.0
 11
148.8550517147123
 21
807.9564994171724
 31
0.0
  0
LINE
  5
248
102
{ACAD_REACTORS
330
305
330
306
102
}
330
78
100
AcDbEntity
  8
0
  6
Continuous
 62
     2
100
AcDbLine
 10
147.6527166709277
 20
807.9564994171724
 30
0.0
 11
148.2538841928195
 21
807.2766760956168
 31
0.0
  0
LINE
  5
249
102
{ACAD_REACTORS
330
305
330
306
102
}
330
78
100
AcDbEntity
  8
0
  6
Continuous
 62
     2
100
AcDbLine
 10
147.6527166709277
 20
807.9564994171724
 30
0.0
 11
146.2499924531784
 21
807.9564994171724
 31
0.0
  0
LINE
  5
24A
102
{ACAD_REACTORS
330
2FB
330
2FC
102
}
330
78
100
AcDbEntity
  8
0
  6
Continuous
 62
     2
100
AcDbLine
 10
148.3493076089922
 20
801.5434994171869
 30
0.0
 11
149.5421003111599
 21
801.5434994171869
 31
0.0
  0
LINE
  5
24B
102
{ACAD_REACTORS
330
2FB
330
2FC
102
}
330
78
100
AcDbEntity
  8
0
  6
Continuous
 62
     2
100
AcDbLine
 10
149.5421003111599
 20
801.5434994171869
 30
0.0
 11
149.5421003111599
 21
803.8120436348744
 31
0.0
  0
LINE
  5
24C
102
{ACAD_REACTORS
330
2FB
330
2FC
102
}
330
78
100
AcDbEntity
  8
0
  6
Continuous
 62
     2
100
AcDbLine
 10
149.5421003111599
 20
803.8120436348744
 30
0.0
 11
150.3531993486333
 21
803.8120436348744
 31
0.0
  0
LINE
  5
24D
102
{ACAD_REACTORS
330
2FB
330
2FC
102
}
330
78
100
AcDbEntity
  8
0
  6
Continuous
 62
     2
100
AcDbLine
 10
150.3531993486333
 20
803.8120436348744
 30
0.0
 11
150.3531993486333
 21
804.5973089409979
 31
0.0
  0
LINE
  5
24E
102
{ACAD_REACTORS
330
2FB
330
2FC
102
}
330
78
100
AcDbEntity
  8
0
  6
Continuous
 62
     2
100
AcDbLine
 10
146.9682538300046
 20
804.5973089409974
 30
0.0
 11
150.3531993486333
 21
804.5973089409979
 31
0.0
  0
LINE
  5
24F
102
{ACAD_REACTORS
330
2FB
330
2FC
102
}
330
78
100
AcDbEntity
  8
0
  6
Continuous
 62
     2
100
AcDbLine
 10
148.3493076089922
 20
803.8120436348744
 30
0.0
 11
148.3493076089922
 21
801.5434994171869
 31
0.0
  0
LINE
  5
250
102
{ACAD_REACTORS
330
2FD
330
2FE
102
}
330
78
100
AcDbEntity
  8
0
  6
Continuous
 62
     2
100
AcDbLine
 10
125.719821173513
 20
803.5223795667514
 30
0.0
 11
125.719821173513
 21
804.1042309734464
 31
0.0
  0
LINE
  5
251
102
{ACAD_REACTORS
330
2FD
330
2FE
102
}
330
78
100
AcDbEntity
  8
0
  6
Continuous
 62
     2
100
AcDbLine
 10
125.719821173513
 20
806.3225141733826
 30
0.0
 11
125.719821173513
 21
806.9280494618895
 31
0.0
  0
LINE
  5
252
330
78
100
AcDbEntity
  8
1
  6
Continuous
 62
     6
100
AcDbLine
 10
104.2499997581163
 20
794.2499994171706
 30
0.0
 11
118.2051952313662
 21
794.2499994171704
 31
0.0
  0
LINE
  5
253
330
78
100
AcDbEntity
  8
1
  6
Continuous
 62
     6
100
AcDbLine
 10
54.24999975811602
 20
794.2499994171706
 30
0.0
 11
49.20519523136625
 21
794.2499994171706
 31
0.0
  0
LINE
  5
254
330
78
100
AcDbEntity
  8
1
  6
Continuous
 62
     6
100
AcDbLine
 10
204.2499997581162
 20
794.2499994171706
 30
0.0
 11
247.7499997581163
 21
794.2499994171706
 31
0.0
  0
LINE
  5
255
330
78
100
AcDbEntity
  8
1
  6
Continuous
 62
     6
100
AcDbLine
 10
154.2499997581162
 20
794.2499994171706
 30
0.0
 11
136.4051952313662
 21
794.2499994171706
 31
0.0
  0
LINE
  5
256
330
78
100
AcDbEntity
  8
1
  6
Continuous
 62
     2
100
AcDbLine
 10
247.7499997581163
 20
794.2499994171706
 30
0.0
 11
252.7499997581152
 21
794.2499994171706
 31
0.0
  0
LINE
  5
257
330
78
100
AcDbEntity
  8
1
  6
Continuous
 62
     2
100
AcDbLine
 10
247.7499997581163
 20
794.2499994171706
 30
0.0
 11
247.7499997581163
 21
789.2499994171704
 31
0.0
  0
LINE
  5
258
330
78
100
AcDbEntity
  8
1
  6
Continuous
 62
     6
100
AcDbLine
 10
118.2051952313662
 20
811.2499994171706
 30
0.0
 11
154.6051952313661
 21
811.2499994171706
 31
0.0
  0
LINE
  5
259
330
78
100
AcDbEntity
  8
1
  6
Continuous
 62
     2
100
AcDbLine
 10
252.7499997581152
 20
789.2499994171704
 30
0.0
 11
252.7499997581152
 21
794.2499994171706
 31
0.0
  0
LINE
  5
25A
330
78
100
AcDbEntity
  8
1
  6
Continuous
 62
     2
100
AcDbLine
 10
252.7499997581152
 20
789.2499994171704
 30
0.0
 11
247.7499997581163
 21
789.2499994171704
 31
0.0
  0
LINE
  5
25B
330
78
100
AcDbEntity
  8
1
  6
Continuous
 62
     2
100
AcDbLine
 10
247.7499997581163
 20
789.2499994171704
 30
0.0
 11
204.2499997581162
 21
789.2499994171704
 31
0.0
  0
LINE
  5
25C
330
78
100
AcDbEntity
  8
1
  6
Continuous
 62
     6
100
AcDbLine
 10
247.7499997581179
 20
811.2499994171706
 30
0.0
 11
247.7499997581171
 21
844.2499994171707
 31
0.0
  0
LINE
  5
25D
330
78
100
AcDbEntity
  8
1
  6
Continuous
 62
     2
100
AcDbLine
 10
252.7499997581152
 20
999.2499994171706
 30
0.0
 11
104.2499997581163
 21
999.2499994171706
 31
0.0
  0
LINE
  5
25E
330
78
100
AcDbEntity
  8
1
  6
Continuous
 62
     6
100
AcDbLine
 10
247.7499997581152
 20
979.2499994171706
 30
0.0
 11
-39.25000024188284
 21
979.2499994171706
 31
0.0
  0
LINE
  5
25F
330
78
100
AcDbEntity
  8
1
  6
Continuous
 62
     2
100
AcDbLine
 10
247.7499997581171
 20
844.2499994171707
 30
0.0
 11
252.7499997581152
 21
844.2499994171707
 31
0.0
  0
LINE
  5
260
330
78
100
AcDbEntity
  8
1
  6
Continuous
 62
     6
100
AcDbLine
 10
247.7499997581171
 20
844.2499994171707
 30
0.0
 11
247.7499997581166
 21
894.2499994171704
 31
0.0
  0
LINE
  5
261
330
78
100
AcDbEntity
  8
1
  6
Continuous
 62
     2
100
AcDbLine
 10
252.7499997581152
 20
844.2499994171707
 30
0.0
 11
252.7499997581152
 21
894.2499994171704
 31
0.0
  0
LINE
  5
262
330
78
100
AcDbEntity
  8
1
  6
Continuous
 62
     2
100
AcDbLine
 10
247.7499997581166
 20
894.2499994171704
 30
0.0
 11
252.7499997581152
 21
894.2499994171704
 31
0.0
  0
LINE
  5
263
330
78
100
AcDbEntity
  8
1
  6
Continuous
 62
     6
100
AcDbLine
 10
247.7499997581166
 20
894.2499994171704
 30
0.0
 11
247.7499997581154
 21
944.2499994171706
 31
0.0
  0
LINE
  5
264
330
78
100
AcDbEntity
  8
1
  6
Continuous
 62
     2
100
AcDbLine
 10
252.7499997581152
 20
894.2499994171704
 30
0.0
 11
252.7499997581152
 21
944.2499994171706
 31
0.0
  0
LINE
  5
265
330
78
100
AcDbEntity
  8
1
  6
Continuous
 62
     2
100
AcDbLine
 10
247.7499997581154
 20
944.2499994171706
 30
0.0
 11
252.7499997581152
 21
944.2499994171706
 31
0.0
  0
LINE
  5
266
330
78
100
AcDbEntity
  8
1
  6
Continuous
 62
     6
100
AcDbLine
 10
247.7499997581154
 20
944.2499994171706
 30
0.0
 11
247.7499997581152
 21
979.2499994171706
 31
0.0
  0
LINE
  5
267
330
78
100
AcDbEntity
  8
1
  6
Continuous
 62
     2
100
AcDbLine
 10
252.7499997581152
 20
944.2499994171706
 30
0.0
 11
252.7499997581152
 21
999.2499994171706
 31
0.0
  0
LINE
  5
268
330
78
100
AcDbEntity
  8
1
  6
Continuous
 62
     2
100
AcDbLine
 10
252.7499997581152
 20
794.2499994171706
 30
0.0
 11
252.7499997581152
 21
844.2499994171707
 31
0.0
  0
LINE
  5
269
330
78
100
AcDbEntity
  8
1
  6
Continuous
 62
     2
100
AcDbLine
 10
104.2499997581163
 20
999.2499994171706
 30
0.0
 11
-44.25000024188284
 21
999.2499994171706
 31
0.0
  0
LINE
  5
26A
330
78
100
AcDbEntity
  8
1
  6
Continuous
 62
     2
100
AcDbLine
 10
104.2499997581163
 20
999.2499994171706
 30
0.0
 11
104.2499997581163
 21
990.0413075724692
 31
0.0
  0
LINE
  5
26B
330
78
100
AcDbEntity
  8
1
  6
Continuous
 62
     2
100
AcDbLine
 10
-44.25000024188284
 20
789.2499994171704
 30
0.0
 11
-39.25000024188188
 21
789.2499994171704
 31
0.0
  0
LINE
  5
26C
330
78
100
AcDbEntity
  8
1
  6
Continuous
 62
     2
100
AcDbLine
 10
-44.25000024188284
 20
999.2499994171706
 30
0.0
 11
-44.25000024188284
 21
944.2499994171706
 31
0.0
  0
LINE
  5
26D
330
78
100
AcDbEntity
  8
1
  6
Continuous
 62
     6
100
AcDbLine
 10
-39.25000024188284
 20
979.2499994171706
 30
0.0
 11
-39.25000024188279
 21
944.2499994171706
 31
0.0
  0
LINE
  5
26E
330
78
100
AcDbEntity
  8
1
  6
Continuous
 62
     2
100
AcDbLine
 10
-44.25000024188284
 20
944.2499994171706
 30
0.0
 11
-39.25000024188279
 21
944.2499994171706
 31
0.0
  0
LINE
  5
26F
330
78
100
AcDbEntity
  8
1
  6
Continuous
 62
     2
100
AcDbLine
 10
-44.25000024188284
 20
944.2499994171706
 30
0.0
 11
-44.25000024188284
 21
894.2499994171704
 31
0.0
  0
LINE
  5
270
330
78
100
AcDbEntity
  8
1
  6
Continuous
 62
     6
100
AcDbLine
 10
-39.25000024188279
 20
944.2499994171706
 30
0.0
 11
-39.25000024188228
 21
894.2499994171704
 31
0.0
  0
LINE
  5
271
330
78
100
AcDbEntity
  8
1
  6
Continuous
 62
     2
100
AcDbLine
 10
-44.25000024188284
 20
894.2499994171704
 30
0.0
 11
-39.25000024188228
 21
894.2499994171704
 31
0.0
  0
LINE
  5
272
330
78
100
AcDbEntity
  8
1
  6
Continuous
 62
     2
100
AcDbLine
 10
-44.25000024188284
 20
894.2499994171704
 30
0.0
 11
-44.25000024188284
 21
844.2499994171707
 31
0.0
  0
LINE
  5
273
330
78
100
AcDbEntity
  8
1
  6
Continuous
 62
     6
100
AcDbLine
 10
-39.25000024188228
 20
894.2499994171704
 30
0.0
 11
-39.25000024188205
 21
844.2499994171707
 31
0.0
  0
LINE
  5
274
330
78
100
AcDbEntity
  8
1
  6
Continuous
 62
     2
100
AcDbLine
 10
-44.25000024188284
 20
844.2499994171707
 30
0.0
 11
-39.25000024188205
 21
844.2499994171707
 31
0.0
  0
LINE
  5
275
330
78
100
AcDbEntity
  8
1
  6
Continuous
 62
     2
100
AcDbLine
 10
-44.25000024188284
 20
844.2499994171707
 30
0.0
 11
-44.25000024188284
 21
794.2499994171706
 31
0.0
  0
LINE
  5
276
330
78
100
AcDbEntity
  8
1
  6
Continuous
 62
     6
100
AcDbLine
 10
-39.25000024188205
 20
844.2499994171707
 30
0.0
 11
-39.25000024188188
 21
794.2499994171706
 31
0.0
  0
LINE
  5
277
330
78
100
AcDbEntity
  8
1
  6
Continuous
 62
     2
100
AcDbLine
 10
4.24999975811625
 20
789.2499994171704
 30
0.0
 11
4.24999975811625
 21
794.2499994171706
 31
0.0
  0
LINE
  5
278
330
78
100
AcDbEntity
  8
1
  6
Continuous
 62
     2
100
AcDbLine
 10
4.24999975811625
 20
789.2499994171704
 30
0.0
 11
54.24999975811602
 21
789.2499994171704
 31
0.0
  0
LINE
  5
279
330
78
100
AcDbEntity
  8
1
  6
Continuous
 62
     2
100
AcDbLine
 10
54.24999975811602
 20
789.2499994171704
 30
0.0
 11
54.24999975811602
 21
794.2499994171706
 31
0.0
  0
LINE
  5
27A
330
78
100
AcDbEntity
  8
1
  6
Continuous
 62
     2
100
AcDbLine
 10
54.24999975811602
 20
789.2499994171704
 30
0.0
 11
104.2499997581163
 21
789.2499994171704
 31
0.0
  0
LINE
  5
27B
330
78
100
AcDbEntity
  8
1
  6
Continuous
 62
     2
100
AcDbLine
 10
104.2499997581163
 20
789.2499994171704
 30
0.0
 11
104.2499997581163
 21
794.2499994171706
 31
0.0
  0
LINE
  5
27C
330
78
100
AcDbEntity
  8
1
  6
Continuous
 62
     2
100
AcDbLine
 10
104.2499997581163
 20
789.2499994171704
 30
0.0
 11
154.2499997581162
 21
789.2499994171704
 31
0.0
  0
LINE
  5
27D
330
78
100
AcDbEntity
  8
1
  6
Continuous
 62
     2
100
AcDbLine
 10
154.2499997581162
 20
789.2499994171704
 30
0.0
 11
154.2499997581162
 21
794.2499994171706
 31
0.0
  0
LINE
  5
27E
330
78
100
AcDbEntity
  8
1
  6
Continuous
 62
     2
100
AcDbLine
 10
204.2499997581162
 20
789.2499994171704
 30
0.0
 11
204.2499997581162
 21
794.2499994171706
 31
0.0
  0
LINE
  5
27F
330
78
100
AcDbEntity
  8
1
  6
Continuous
 62
     2
100
AcDbLine
 10
204.2499997581162
 20
789.2499994171704
 30
0.0
 11
154.2499997581162
 21
789.2499994171704
 31
0.0
  0
LINE
  5
280
330
78
100
AcDbEntity
  8
1
  6
Continuous
 62
     2
100
AcDbLine
 10
-39.25000024188188
 20
794.2499994171706
 30
0.0
 11
-39.25000024188188
 21
789.2499994171704
 31
0.0
  0
LINE
  5
281
330
78
100
AcDbEntity
  8
1
  6
Continuous
 62
     2
100
AcDbLine
 10
-39.25000024188188
 20
789.2499994171704
 30
0.0
 11
4.24999975811625
 21
789.2499994171704
 31
0.0
  0
LINE
  5
282
330
78
100
AcDbEntity
  8
1
  6
Continuous
 62
     2
100
AcDbLine
 10
-39.25000024188188
 20
794.2499994171706
 30
0.0
 11
-44.25000024188284
 21
794.2499994171706
 31
0.0
  0
LINE
  5
283
330
78
100
AcDbEntity
  8
1
  6
Continuous
 62
     2
100
AcDbLine
 10
-44.25000024188284
 20
794.2499994171706
 30
0.0
 11
-44.25000024188284
 21
789.2499994171704
 31
0.0
  0
LINE
  5
284
330
78
100
AcDbEntity
  8
1
  6
Continuous
 62
     6
100
AcDbLine
 10
247.7499997581163
 20
794.2499994171706
 30
0.0
 11
247.7499997581175
 21
802.7499994171706
 31
0.0
  0
LINE
  5
285
330
78
100
AcDbEntity
  8
1
  6
Continuous
 62
     6
100
AcDbLine
 10
154.6051952313661
 20
794.2499994171704
 30
0.0
 11
204.2499997581162
 21
794.2499994171706
 31
0.0
  0
LINE
  5
286
330
78
100
AcDbEntity
  8
1
  6
Continuous
 62
     6
100
AcDbLine
 10
1.94999975811601
 20
794.2499994171704
 30
0.0
 11
4.24999975811625
 21
794.2499994171706
 31
0.0
  0
LINE
  5
287
330
78
100
AcDbEntity
  8
1
  6
Continuous
 62
     6
100
AcDbLine
 10
104.2499997581163
 20
794.2499994171706
 30
0.0
 11
54.24999975811602
 21
794.2499994171706
 31
0.0
  0
LINE
  5
288
330
78
100
AcDbEntity
  8
1
  6
Continuous
 62
     7
100
AcDbLine
 10
118.2051952313662
 20
811.2499994171706
 30
0.0
 11
118.2051952313662
 21
798.4999994171704
 31
0.0
  0
LINE
  5
289
330
78
100
AcDbEntity
  8
1
  6
Continuous
 62
     7
100
AcDbLine
 10
154.6051952313661
 20
811.2499994171706
 30
0.0
 11
154.6051952313661
 21
798.4999994171706
 31
0.0
  0
LINE
  5
28A
330
78
100
AcDbEntity
  8
1
  6
Continuous
 62
     6
100
AcDbLine
 10
1.94999975811601
 20
794.2499994171704
 30
0.0
 11
-4.25000024188199
 21
794.2499994171706
 31
0.0
  0
LINE
  5
28B
330
78
100
AcDbEntity
  8
1
  6
Continuous
 62
     6
100
AcDbLine
 10
154.6051952313661
 20
794.2499994171704
 30
0.0
 11
154.2499997581162
 21
794.2499994171706
 31
0.0
  0
LINE
  5
28C
330
78
100
AcDbEntity
  8
1
  6
Continuous
 62
     6
100
AcDbLine
 10
247.7499997581179
 20
811.2499994171706
 30
0.0
 11
247.7499997581175
 21
802.7499994171706
 31
0.0
  0
LINE
  5
28D
330
78
100
AcDbEntity
  8
1
  6
Continuous
 62
     6
100
AcDbLine
 10
-4.25000024188199
 20
794.2499994171706
 30
0.0
 11
-39.25000024188188
 21
794.2499994171706
 31
0.0
  0
LINE
  5
28E
330
78
100
AcDbEntity
  8
1
  6
Continuous
 62
     2
100
AcDbLine
 10
122.4418501179288
 20
816.6249994171704
 30
0.0
 11
127.4418501179288
 21
817.8749994171704
 31
0.0
  0
LINE
  5
28F
330
78
100
AcDbEntity
  8
1
  6
Continuous
 62
     2
100
AcDbLine
 10
122.4418501179288
 20
814.1249994171704
 30
0.0
 11
122.4418501179288
 21
816.6249994171704
 31
0.0
  0
LINE
  5
290
330
78
100
AcDbEntity
  8
1
  6
Continuous
 62
     2
100
AcDbLine
 10
127.4418501179288
 20
812.8749994171704
 30
0.0
 11
122.4418501179288
 21
814.1249994171704
 31
0.0
  0
LINE
  5
291
330
78
100
AcDbEntity
  8
1
  6
Continuous
 62
     2
100
AcDbLine
 10
127.4418501179288
 20
817.8749994171704
 30
0.0
 11
127.4418501179288
 21
812.8749994171704
 31
0.0
  0
LINE
  5
292
330
78
100
AcDbEntity
  8
1
  6
Continuous
 62
     7
100
AcDbLine
 10
118.2051952313662
 20
798.4999994171704
 30
0.0
 11
136.4051952313662
 21
798.4999994171706
 31
0.0
  0
LINE
  5
293
330
78
100
AcDbEntity
  8
1
  6
Continuous
 62
     7
100
AcDbLine
 10
118.2051952313662
 20
798.4999994171704
 30
0.0
 11
118.2051952313662
 21
794.2499994171704
 31
0.0
  0
LINE
  5
294
330
78
100
AcDbEntity
  8
1
  6
Continuous
 62
     7
100
AcDbLine
 10
154.6051952313661
 20
798.4999994171706
 30
0.0
 11
154.6051952313661
 21
794.2499994171704
 31
0.0
  0
LINE
  5
295
330
78
100
AcDbEntity
  8
1
  6
Continuous
 62
     7
100
AcDbLine
 10
136.4051952313662
 20
798.4999994171706
 30
0.0
 11
136.4051952313662
 21
794.2499994171706
 31
0.0
  0
LINE
  5
296
330
78
100
AcDbEntity
  8
1
  6
Continuous
 62
     6
100
AcDbLine
 10
136.4051952313662
 20
794.2499994171706
 30
0.0
 11
118.2051952313662
 21
794.2499994171704
 31
0.0
  0
LINE
  5
297
330
78
100
AcDbEntity
  8
1
  6
Continuous
 62
     7
100
AcDbLine
 10
136.4051952313662
 20
798.4999994171706
 30
0.0
 11
154.6051952313661
 21
798.4999994171706
 31
0.0
  0
LINE
  5
298
330
78
100
AcDbEntity
  8
1
  6
Continuous
 62
     6
100
AcDbLine
 10
118.2051952313662
 20
819.7499994171706
 30
0.0
 11
247.7499997581179
 21
819.7499994171706
 31
0.0
  0
ARC
  5
299
102
{ACAD_REACTORS
330
301
330
302
102
}
330
78
100
AcDbEntity
  8
0
  6
Continuous
 62
     2
100
AcDbCircle
 10
133.5968432303262
 20
803.0704041790922
 30
0.0
 40
0.7717997786797298
100
AcDbArc
 50
321.8795802028384
 51
38.12041979715494
  0
ARC
  5
29A
102
{ACAD_REACTORS
330
301
330
302
102
}
330
78
100
AcDbEntity
  8
0
  6
Continuous
 62
     2
100
AcDbCircle
 10
133.7965832666726
 20
802.9136730009722
 30
0.0
 40
0.5179085730137529
100
AcDbArc
 50
218.1204197971956
 51
321.8795802027985
  0
ARC
  5
29B
102
{ACAD_REACTORS
330
301
330
302
102
}
330
78
100
AcDbEntity
  8
0
  6
Continuous
 62
     2
100
AcDbCircle
 10
133.9963233030187
 20
803.0704041790922
 30
0.0
 40
0.7717997786794808
100
AcDbArc
 50
141.8795802028346
 51
218.120419797172
  0
ARC
  5
29C
102
{ACAD_REACTORS
330
301
330
302
102
}
330
78
100
AcDbEntity
  8
0
  6
Continuous
 62
     2
100
AcDbCircle
 10
133.7965832666726
 20
803.2271353572127
 30
0.0
 40
0.5179085730133349
100
AcDbArc
 50
38.12041979715197
 51
141.8795802028538
  0
ARC
  5
29D
102
{ACAD_REACTORS
330
2F9
330
2FA
102
}
330
78
100
AcDbEntity
  8
0
  6
Continuous
 62
     2
100
AcDbCircle
 10
130.7345691311087
 20
801.659937813684
 30
0.0
 40
2.227384008973453
100
AcDbArc
 50
58.06909105004033
 51
71.55192388186698
  0
ARC
  5
29E
102
{ACAD_REACTORS
330
2F9
330
2FA
102
}
330
78
100
AcDbEntity
  8
0
  6
Continuous
 62
     2
100
AcDbCircle
 10
130.9962968320675
 20
803.2754756084312
 30
0.0
 40
0.5115800601948517
100
AcDbArc
 50
113.3722778882004
 51
151.4785267423044
  0
ARC
  5
29F
102
{ACAD_REACTORS
330
2F9
330
2FA
102
}
330
78
100
AcDbEntity
  8
0
  6
Continuous
 62
     2
100
AcDbCircle
 10
131.3736540901478
 20
803.0704041790922
 30
0.0
 40
0.9410597353332545
100
AcDbArc
 50
151.4785267422669
 51
208.5214732577088
  0
ARC
  5
2A0
102
{ACAD_REACTORS
330
2F9
330
2FA
102
}
330
78
100
AcDbEntity
  8
0
  6
Continuous
 62
     2
100
AcDbCircle
 10
130.5766962560158
 20
806.3830851243486
 30
0.0
 40
4.852596863498166
100
AcDbArc
 50
275.1581447696249
 51
285.979991258353
  0
ARC
  5
2A1
102
{ACAD_REACTORS
330
2F9
330
2FA
102
}
330
78
100
AcDbEntity
  8
0
  6
Continuous
 62
     2
100
AcDbCircle
 10
130.8655523507517
 20
803.183194541127
 30
0.0
 40
1.639695123939395
100
AcDbArc
 50
195.0618917770906
 51
275.1581447696393
  0
ARC
  5
2A2
102
{ACAD_REACTORS
330
2F9
330
2FA
102
}
330
78
100
AcDbEntity
  8
0
  6
Continuous
 62
     2
100
AcDbCircle
 10
130.4464245072889
 20
803.0704041790922
 30
0.0
 40
1.205656168390929
100
AcDbArc
 50
164.9381082228791
 51
195.0618917770948
  0
ARC
  5
2A3
102
{ACAD_REACTORS
330
2F9
330
2FA
102
}
330
78
100
AcDbEntity
  8
0
  6
Continuous
 62
     2
100
AcDbCircle
 10
130.8655523507517
 20
802.9576138170572
 30
0.0
 40
1.639695123940563
100
AcDbArc
 50
84.84185523036254
 51
164.9381082228864
  0
ARC
  5
2A4
102
{ACAD_REACTORS
330
2FD
330
2FE
102
}
330
78
100
AcDbEntity
  8
0
  6
Continuous
 62
     2
100
AcDbCircle
 10
126.0355380965898
 20
804.1042309734464
 30
0.0
 40
0.3157169230765903
100
AcDbArc
 50
115.3740086783498
 51
180.0
  0
ARC
  5
2A5
102
{ACAD_REACTORS
330
2FD
330
2FE
102
}
330
78
100
AcDbEntity
  8
0
  6
Continuous
 62
     2
100
AcDbCircle
 10
126.0355380965898
 20
806.3225141733826
 30
0.0
 40
0.3157169230768062
100
AcDbArc
 50
180.0
 51
244.6259913216414
  0
ARC
  5
2A6
102
{ACAD_REACTORS
330
2FD
330
2FE
102
}
330
78
100
AcDbEntity
  8
0
  6
Continuous
 62
     2
100
AcDbCircle
 10
126.0411542318998
 20
805.2252145143203
 30
0.0
 40
2.018561131933266
100
AcDbArc
 50
269.8110329575862
 51
90.18896704241376
  0
ARC
  5
2A7
102
{ACAD_REACTORS
330
2FD
330
2FE
102
}
330
78
100
AcDbEntity
  8
0
  6
Continuous
 62
     2
100
AcDbCircle
 10
126.0355380965898
 20
803.5223795667514
 30
0.0
 40
0.3157169230768062
100
AcDbArc
 50
180.0
 51
269.8110329574516
  0
ARC
  5
2A8
102
{ACAD_REACTORS
330
2FB
330
2FC
102
}
330
78
100
AcDbEntity
  8
0
  6
Continuous
 62
     2
100
AcDbCircle
 10
147.0989983113204
 20
803.2754756084312
 30
0.0
 40
0.5115800601944143
100
AcDbArc
 50
109.3371432194853
 51
151.4785267424197
  0
ARC
  5
2A9
102
{ACAD_REACTORS
330
2FB
330
2FC
102
}
330
78
100
AcDbEntity
  8
0
  6
Continuous
 62
     2
100
AcDbCircle
 10
147.0989983113204
 20
802.8653327497536
 30
0.0
 40
0.5115800601959944
100
AcDbArc
 50
208.521473257681
 51
246.6277221118424
  0
ARC
  5
2AA
102
{ACAD_REACTORS
330
2FB
330
2FC
102
}
330
78
100
AcDbEntity
  8
0
  6
Continuous
 62
     2
100
AcDbCircle
 10
146.549125986543
 20
803.0704041790922
 30
0.0
 40
1.205656168392988
100
AcDbArc
 50
164.9381082229054
 51
195.0618917770946
  0
ARC
  5
2AB
102
{ACAD_REACTORS
330
2FB
330
2FC
102
}
330
78
100
AcDbEntity
  8
0
  6
Continuous
 62
     2
100
AcDbCircle
 10
146.9682538300046
 20
802.9576138170572
 30
0.0
 40
1.639695123940214
100
AcDbArc
 50
90.0
 51
164.938108222895
  0
ARC
  5
2AC
102
{ACAD_REACTORS
330
2FF
330
300
102
}
330
78
100
AcDbEntity
  8
0
  6
Continuous
 62
     2
100
AcDbCircle
 10
137.5412587373009
 20
806.4295946552664
 30
0.0
 40
1.526904761905939
100
AcDbArc
 50
90.0
 51
270.0
  0
ARC
  5
2AD
102
{ACAD_REACTORS
330
303
330
304
102
}
330
78
100
AcDbEntity
  8
0
  6
Continuous
 62
     2
100
AcDbCircle
 10
130.7985679920751
 20
806.9405297470612
 30
0.0
 40
0.3528638246712035
100
AcDbArc
 50
270.0
 51
90.0
  0
ARC
  5
2AE
102
{ACAD_REACTORS
330
2FD
330
2FE
102
}
330
78
100
AcDbEntity
  8
0
  6
Continuous
 62
     2
100
AcDbCircle
 10
123.4599894100581
 20
806.9282269385376
 30
0.0
 40
0.3157169230761383
100
AcDbArc
 50
90.0
 51
180.0
  0
ARC
  5
2AF
102
{ACAD_REACTORS
330
2FD
330
2FE
102
}
330
78
100
AcDbEntity
  8
0
  6
Continuous
 62
     2
100
AcDbCircle
 10
125.4584071186427
 20
805.2133725734149
 30
0.0
 40
0.911897523557595
100
AcDbArc
 50
115.1944106485298
 51
244.8055893514854
  0
ARC
  5
2B0
102
{ACAD_REACTORS
330
2FD
330
2FE
102
}
330
78
100
AcDbEntity
  8
0
  6
Continuous
 62
     2
100
AcDbCircle
 10
124.9358226710677
 20
804.1025428273521
 30
0.0
 40
0.3157169230766073
100
AcDbArc
 50
0.0
 51
64.80558935146468
  0
ARC
  5
2B1
102
{ACAD_REACTORS
330
2FD
330
2FE
102
}
330
78
100
AcDbEntity
  8
0
  6
Continuous
 62
     2
100
AcDbCircle
 10
122.8660947333116
 20
801.9677440325702
 30
0.0
 40
0.4242446153828041
100
AcDbArc
 50
180.0
 51
270.0
  0
ARC
  5
2B2
102
{ACAD_REACTORS
330
2FF
330
300
102
}
330
78
100
AcDbEntity
  8
0
  6
Continuous
 62
     2
100
AcDbCircle
 10
137.7575307474661
 20
806.5863258333869
 30
0.0
 40
0.5179085730135616
100
AcDbArc
 50
38.12041979714829
 51
141.879580202844
  0
ARC
  5
2B3
102
{ACAD_REACTORS
330
2FF
330
300
102
}
330
78
100
AcDbEntity
  8
0
  6
Continuous
 62
     2
100
AcDbCircle
 10
137.9572707838124
 20
806.4295946552664
 30
0.0
 40
0.7717997786797075
100
AcDbArc
 50
141.8795802028371
 51
218.1204197971562
  0
ARC
  5
2B4
102
{ACAD_REACTORS
330
301
330
302
102
}
330
78
100
AcDbEntity
  8
0
  6
Continuous
 62
     2
100
AcDbCircle
 10
133.7965832666726
 20
803.6089791893954
 30
0.0
 40
2.065479772208433
100
AcDbArc
 50
242.4518518243391
 51
297.5481481756882
  0
ARC
  5
2B5
102
{ACAD_REACTORS
330
301
330
302
102
}
330
78
100
AcDbEntity
  8
0
  6
Continuous
 62
     2
100
AcDbCircle
 10
133.7965832666726
 20
802.5318291687894
 30
0.0
 40
2.065479772208543
100
AcDbArc
 50
62.451851824306
 51
117.5481481756667
  0
ARC
  5
2B6
102
{ACAD_REACTORS
330
301
330
302
102
}
330
78
100
AcDbEntity
  8
0
  6
Continuous
 62
     2
100
AcDbCircle
 10
133.5156433748393
 20
803.0704041790922
 30
0.0
 40
1.458034083651465
100
AcDbArc
 50
117.548148175663
 51
242.451851824337
  0
ARC
  5
2B7
102
{ACAD_REACTORS
330
301
330
302
102
}
330
78
100
AcDbEntity
  8
0
  6
Continuous
 62
     2
100
AcDbCircle
 10
134.0775231585059
 20
803.0704041790922
 30
0.0
 40
1.458034083651977
100
AcDbArc
 50
297.5481481757016
 51
62.45185182429842
  0
ARC
  5
2B8
102
{ACAD_REACTORS
330
2FF
330
300
102
}
330
78
100
AcDbEntity
  8
0
  6
Continuous
 62
     2
100
AcDbCircle
 10
137.7575307474661
 20
806.2728634771461
 30
0.0
 40
0.5179085730134722
100
AcDbArc
 50
218.120419797156
 51
321.8795802028517
  0
ARC
  5
2B9
102
{ACAD_REACTORS
330
2FF
330
300
102
}
330
78
100
AcDbEntity
  8
0
  6
Continuous
 62
     2
100
AcDbCircle
 10
137.5577907111199
 20
806.4295946552664
 30
0.0
 40
0.7717997786796373
100
AcDbArc
 50
321.8795802028437
 51
38.12041979716289
  0
ARC
  5
2BA
102
{ACAD_REACTORS
330
2FD
330
2FE
102
}
330
78
100
AcDbEntity
  8
0
  6
Continuous
 62
     2
100
AcDbCircle
 10
128.3394068240284
 20
801.9677440325702
 30
0.0
 40
0.4242446153832589
100
AcDbArc
 50
270.0
 51
0.0
  0
ARC
  5
2BB
102
{ACAD_REACTORS
330
2FD
330
2FE
102
}
330
78
100
AcDbEntity
  8
0
  6
Continuous
 62
     2
100
AcDbCircle
 10
128.3394068240284
 20
807.5322548017704
 30
0.0
 40
0.4242446153839126
100
AcDbArc
 50
0.0
 51
90.0
  0
ARC
  5
2BC
102
{ACAD_REACTORS
330
2FD
330
2FE
102
}
330
78
100
AcDbEntity
  8
0
  6
Continuous
 62
     2
100
AcDbCircle
 10
122.8660947333116
 20
807.5322548017704
 30
0.0
 40
0.4242446153838273
100
AcDbArc
 50
90.0
 51
180.0
  0
ARC
  5
2BD
102
{ACAD_REACTORS
330
2FD
330
2FE
102
}
330
78
100
AcDbEntity
  8
0
  6
Continuous
 62
     2
100
AcDbCircle
 10
124.9358226710677
 20
802.5717718958205
 30
0.0
 40
0.3157169230767067
100
AcDbArc
 50
270.0
 51
0.0
  0
ARC
  5
2BE
102
{ACAD_REACTORS
330
2FD
330
2FE
102
}
330
78
100
AcDbEntity
  8
0
  6
Continuous
 62
     2
100
AcDbCircle
 10
124.9358226710677
 20
806.3242023194771
 30
0.0
 40
0.3157169230761717
100
AcDbArc
 50
295.1944106485354
 51
0.0
  0
ARC
  5
2BF
102
{ACAD_REACTORS
330
2FD
330
2FE
102
}
330
78
100
AcDbEntity
  8
0
  6
Continuous
 62
     2
100
AcDbCircle
 10
124.9358226710677
 20
806.9282269385376
 30
0.0
 40
0.3157169230766073
100
AcDbArc
 50
0.0
 51
90.0
  0
ARC
  5
2C0
102
{ACAD_REACTORS
330
2FD
330
2FE
102
}
330
78
100
AcDbEntity
  8
0
  6
Continuous
 62
     2
100
AcDbCircle
 10
123.4599894100581
 20
802.5717718958205
 30
0.0
 40
0.3157169230756978
100
AcDbArc
 50
180.0
 51
270.0
  0
ARC
  5
2C1
102
{ACAD_REACTORS
330
303
330
304
102
}
330
78
100
AcDbEntity
  8
0
  6
Continuous
 62
     2
100
AcDbCircle
 10
131.2400405183135
 20
806.9011337758386
 30
0.0
 40
1.055365641333651
100
AcDbArc
 50
270.0
 51
90.0
  0
ARC
  5
2C2
102
{ACAD_REACTORS
330
2FB
330
2FC
102
}
330
78
100
AcDbEntity
  8
0
  6
Continuous
 62
     2
100
AcDbCircle
 10
146.9682538300046
 20
803.183194541127
 30
0.0
 40
1.639695123940448
100
AcDbArc
 50
195.0618917771012
 51
275.158144769676
  0
ARC
  5
2C3
102
{ACAD_REACTORS
330
2FB
330
2FC
102
}
330
78
100
AcDbEntity
  8
0
  6
Continuous
 62
     2
100
AcDbCircle
 10
146.6793977352688
 20
806.3830851243486
 30
0.0
 40
4.852596863498825
100
AcDbArc
 50
275.1581447696364
 51
285.9799912583386
  0
ARC
  5
2C4
102
{ACAD_REACTORS
330
2FB
330
2FC
102
}
330
78
100
AcDbEntity
  8
0
  6
Continuous
 62
     2
100
AcDbCircle
 10
146.8372706103616
 20
804.4808705445002
 30
0.0
 40
2.227384008972719
100
AcDbArc
 50
288.4480761181337
 51
301.9309089499401
  0
ARC
  5
2C5
102
{ACAD_REACTORS
330
2FB
330
2FC
102
}
330
78
100
AcDbEntity
  8
0
  6
Continuous
 62
     2
100
AcDbCircle
 10
147.2554383440235
 20
803.2273247684636
 30
0.0
 40
0.9059297849852278
100
AcDbArc
 50
246.6277221118168
 51
288.4480761180828
  0
ARC
  5
2C6
102
{ACAD_REACTORS
330
2FB
330
2FC
102
}
330
78
100
AcDbEntity
  8
0
  6
Continuous
 62
     2
100
AcDbCircle
 10
147.4763555694018
 20
803.0704041790922
 30
0.0
 40
0.941059735334906
100
AcDbArc
 50
151.4785267423609
 51
208.5214732576695
  0
ARC
  5
2C7
102
{ACAD_REACTORS
330
2FB
330
2FC
102
}
330
78
100
AcDbEntity
  8
0
  6
Continuous
 62
     2
100
AcDbCircle
 10
147.2456683094241
 20
802.8575206280483
 30
0.0
 40
0.9545230068260935
100
AcDbArc
 50
90.0
 51
109.337143219432
  0
ARC
  5
2C8
102
{ACAD_REACTORS
330
2FD
330
2FE
102
}
330
78
100
AcDbEntity
  8
0
  6
Continuous
 62
     2
100
AcDbCircle
 10
126.0355380965898
 20
806.9280494618895
 30
0.0
 40
0.3157169230760142
100
AcDbArc
 50
90.18896704254855
 51
180.0
  0
ARC
  5
2C9
102
{ACAD_REACTORS
330
2FD
330
2FE
102
}
330
78
100
AcDbEntity
  8
0
  6
Continuous
 62
     2
100
AcDbCircle
 10
125.5094953985019
 20
805.2133725734149
 30
0.0
 40
0.9118481501444394
100
AcDbArc
 50
295.3740086781781
 51
64.62599132180665
  0
ARC
  5
2CA
102
{ACAD_REACTORS
330
2F9
330
2FA
102
}
330
78
100
AcDbEntity
  8
0
  6
Continuous
 62
     2
100
AcDbCircle
 10
130.7345691311087
 20
804.4808705445008
 30
0.0
 40
2.22738400897271
100
AcDbArc
 50
288.448076118133
 51
301.9309089499596
  0
ARC
  5
2CB
102
{ACAD_REACTORS
330
2F9
330
2FA
102
}
330
78
100
AcDbEntity
  8
0
  6
Continuous
 62
     2
100
AcDbCircle
 10
131.1527368647695
 20
803.2273247684636
 30
0.0
 40
0.905929784984867
100
AcDbArc
 50
246.6277221118696
 51
288.448076118159
  0
ARC
  5
2CC
102
{ACAD_REACTORS
330
2F9
330
2FA
102
}
330
78
100
AcDbEntity
  8
0
  6
Continuous
 62
     2
100
AcDbCircle
 10
130.9962968320675
 20
802.8653327497536
 30
0.0
 40
0.5115800601948034
100
AcDbArc
 50
208.5214732576956
 51
246.6277221118248
  0
ARC
  5
2CD
102
{ACAD_REACTORS
330
2F9
330
2FA
102
}
330
78
100
AcDbEntity
  8
0
  6
Continuous
 62
     2
100
AcDbCircle
 10
131.1527368647695
 20
802.9134835897205
 30
0.0
 40
0.9059297849853768
100
AcDbArc
 50
71.55192388185462
 51
113.3722778881275
  0
ARC
  5
2CE
102
{ACAD_REACTORS
330
2F9
330
2FA
102
}
330
78
100
AcDbEntity
  8
0
  6
Continuous
 62
     2
100
AcDbCircle
 10
130.5766962560158
 20
799.7577232338363
 30
0.0
 40
4.85259686349804
100
AcDbArc
 50
74.02000874164729
 51
84.84185523037509
  0
CIRCLE
  5
2CF
102
{ACAD_REACTORS
330
2FD
330
2FE
102
}
330
78
100
AcDbEntity
  8
0
  6
Continuous
 62
     2
100
AcDbCircle
 10
125.4856803838291
 20
805.2133725734149
 30
0.0
 40
0.4709789327784932
  0
CIRCLE
  5
2D0
330
78
100
AcDbEntity
  8
1
  6
Continuous
 62
     2
100
AcDbCircle
 10
130.9418501179288
 20
815.3749994171704
 30
0.0
 40
1.249999999999915
  0
CIRCLE
  5
2D1
330
78
100
AcDbEntity
  8
1
  6
Continuous
 62
     2
100
AcDbCircle
 10
130.9418501179288
 20
815.3749994171704
 30
0.0
 40
2.5
  0
TEXT
  5
2D2
330
78
100
AcDbEntity
  8
1
 62
     7
100
AcDbText
 10
173.57874295338
 20
812.5499994171705
 30
0.0
 40
2.5
  1
/
 41
0.9
  7
CONVERTER_11
100
AcDbText
  0
TEXT
  5
2D4
330
78
100
AcDbEntity
  8
1
 62
     7
100
AcDbText
 10
175.735107450422
 20
812.5499994171705
 30
0.0
 40
2.5
  1
00
 41
0.81
  7
CONVERTER_12
100
AcDbText
  0
TEXT
  5
2D5
330
78
100
AcDbEntity
  8
1
 62
     3
100
AcDbText
 10
213.3315914764391
 20
812.5499994171705
 30
0.0
 40
2.5
  1
28.08.2018
 41
0.81
  7
CONVERTER_12
100
AcDbText
  0
MTEXT
  5
2D6
330
78
100
AcDbEntity
  8
1
 62
     2
100
AcDbMText
 10
213.3315914764391
 20
818.7499994171704
 30
0.0
 40
1.8
 41
0.0
 71
     1
 72
     1
  1
date
  7
CONVERTER_11
 73
     1
 44
1.32052821128451
  0
MTEXT
  5
2D7
330
78
100
AcDbEntity
  8
1
 62
     2
100
AcDbMText
 10
183.5051952313662
 20
810.2499994171704
 30
0.0
 40
1.8
 41
0.0
 71
     1
 72
     1
  1
document-type
  7
CONVERTER_11
 73
     1
 44
1.20048019207683
  0
TEXT
  5
2D8
330
78
100
AcDbEntity
  8
1
 62
     3
100
AcDbText
 10
183.5051952313662
 20
804.0499994171705
 30
0.0
 40
2.5
  1
TECDOC 2D_Productdrawing
 41
0.81
  7
CONVERTER_12
100
AcDbText
  0
MTEXT
  5
2DA
330
78
100
AcDbEntity
  8
1
 62
     2
100
AcDbMText
 10
155.7051952313662
 20
818.7499994171706
 30
0.0
 40
1.8
 41
0.0
 71
     1
 72
     1
  1
document-No. / RI
  7
CONVERTER_13
 73
     1
 44
1.32052821128451
  0
TEXT
  5
2DB
330
78
100
AcDbEntity
  8
1
 62
     7
100
AcDbText
 10
155.7051952313662
 20
812.5499994171705
 30
0.0
 40
2.5
  1
01134343
 41
0.81
  7
CONVERTER_12
100
AcDbText
  0
MTEXT
  5
2DD
330
78
100
AcDbEntity
  8
1
 62
     3
100
AcDbMText
 10
243.2907956172786
 20
812.5499994171706
 30
0.0
 40
2.5
 41
0.0
 71
     8
 72
     1
  1
1:1
  7
CONVERTER_14
 73
     1
 44
1.32052821128451
  0
MTEXT
  5
2DE
330
78
100
AcDbEntity
  8
1
 62
     2
100
AcDbMText
 10
239.9315914764389
 20
818.7499994171706
 30
0.0
 40
1.8
 41
0.0
 71
     1
 72
     1
  1
scale
  7
CONVERTER_11
 73
     1
 44
1.20048019207683
  0
MTEXT
  5
2DF
330
78
100
AcDbEntity
  8
1
 62
     2
100
AcDbMText
 10
155.7051952313662
 20
810.2499994171706
 30
0.0
 40
1.8
 41
0.0
 71
     1
 72
     1
  1
ident.-No.
  7
CONVERTER_11
 73
     1
 44
1.20048019207683
  0
TEXT
  5
2E0
330
78
100
AcDbEntity
  8
1
 62
     7
100
AcDbText
 10
156.1051952313659
 20
804.0499994171705
 30
0.0
 40
2.5
  1
2903684
 41
0.81
  7
CONVERTER_12
100
AcDbText
  0
MTEXT
  5
2E1
330
78
100
AcDbEntity
  8
1
 62
     2
100
AcDbMText
 10
83.76718050631871
 20
806.9999994171704
 30
0.0
 40
2.0
 41
0.0
 71
     5
 72
     1
  1
General Information\P- Simplified representation\P- Document excluded from change process\P- Linear dimensions [mm]
  7
CONVERTER_11
 73
     1
 44
1.20048019207683
  0
MTEXT
  5
2E2
330
78
100
AcDbEntity
  8
1
 62
     7
100
AcDbMText
 10
250.2499997581152
 20
869.2499994171725
 30
0.0
 40
3.5
 41
0.0
 71
     5
 72
     1
  1
C
  7
CONVERTER_11
 73
     1
 44
1.20048019207683
  0
MTEXT
  5
2E3
330
78
100
AcDbEntity
  8
1
 62
     7
100
AcDbMText
 10
250.2499997581152
 20
971.7499994171706
 30
0.0
 40
3.5
 41
0.0
 71
     5
 72
     1
  1
A
  7
CONVERTER_11
 73
     1
 44
1.20048019207683
  0
MTEXT
  5
2E4
330
78
100
AcDbEntity
  8
1
 62
     7
100
AcDbMText
 10
250.2499997581152
 20
919.2499994171725
 30
0.0
 40
3.5
 41
0.0
 71
     5
 72
     1
  1
B
  7
CONVERTER_11
 73
     1
 44
1.20048019207683
  0
MTEXT
  5
2E5
330
78
100
AcDbEntity
  8
1
 62
     7
100
AcDbMText
 10
250.2499997581152
 20
816.7499994171706
 30
0.0
 40
3.5
 41
0.0
 71
     5
 72
     1
  1
D
  7
CONVERTER_11
 73
     1
 44
1.20048019207683
  0
MTEXT
  5
2E6
330
78
100
AcDbEntity
  8
1
 62
     7
100
AcDbMText
 10
-20.00000024188336
 20
791.7499994171704
 30
0.0
 40
3.5
 41
0.0
 71
     5
 72
     1
  1
1
  7
CONVERTER_11
 73
     1
 44
1.20048019207683
  0
MTEXT
  5
2E7
330
78
100
AcDbEntity
  8
1
 62
     7
100
AcDbMText
 10
29.24999975811625
 20
791.7499994171704
 30
0.0
 40
3.5
 41
0.0
 71
     5
 72
     1
  1
2
  7
CONVERTER_11
 73
     1
 44
1.20048019207683
  0
MTEXT
  5
2E8
330
78
100
AcDbEntity
  8
1
 62
     7
100
AcDbMText
 10
79.24999975811625
 20
791.7499994171704
 30
0.0
 40
3.5
 41
0.0
 71
     5
 72
     1
  1
3
  7
CONVERTER_11
 73
     1
 44
1.20048019207683
  0
MTEXT
  5
2E9
330
78
100
AcDbEntity
  8
1
 62
     7
100
AcDbMText
 10
129.2499997581161
 20
791.7499994171704
 30
0.0
 40
3.5
 41
0.0
 71
     5
 72
     1
  1
4
  7
CONVERTER_11
 73
     1
 44
1.20048019207683
  0
MTEXT
  5
2EA
330
78
100
AcDbEntity
  8
1
 62
     7
100
AcDbMText
 10
179.2499997581162
 20
791.7499994171704
 30
0.0
 40
3.5
 41
0.0
 71
     5
 72
     1
  1
5
  7
CONVERTER_11
 73
     1
 44
1.20048019207683
  0
MTEXT
  5
2EB
330
78
100
AcDbEntity
  8
1
 62
     7
100
AcDbMText
 10
228.4999997581154
 20
791.7499994171704
 30
0.0
 40
3.5
 41
0.0
 71
     5
 72
     1
  1
6
  7
CONVERTER_11
 73
     1
 44
1.20048019207683
  0
MTEXT
  5
2EC
330
78
100
AcDbEntity
  8
1
 62
     7
100
AcDbMText
 10
-41.75000024188284
 20
971.7499994171706
 30
0.0
 40
3.5
 41
0.0
 71
     5
 72
     1
  1
A
  7
CONVERTER_11
 73
     1
 44
1.20048019207683
  0
MTEXT
  5
2ED
330
78
100
AcDbEntity
  8
1
 62
     7
100
AcDbMText
 10
-41.75000024188284
 20
919.2499994171706
 30
0.0
 40
3.5
 41
0.0
 71
     5
 72
     1
  1
B
  7
CONVERTER_11
 73
     1
 44
1.20048019207683
  0
MTEXT
  5
2EE
330
78
100
AcDbEntity
  8
1
 62
     7
100
AcDbMText
 10
-41.75000024188284
 20
869.2499994171706
 30
0.0
 40
3.5
 41
0.0
 71
     5
 72
     1
  1
C
  7
CONVERTER_11
 73
     1
 44
1.20048019207683
  0
MTEXT
  5
2EF
330
78
100
AcDbEntity
  8
1
 62
     7
100
AcDbMText
 10
-41.75000024188284
 20
816.7499994171706
 30
0.0
 40
3.5
 41
0.0
 71
     5
 72
     1
  1
D
  7
CONVERTER_11
 73
     1
 44
1.20048019207683
  0
MTEXT
  5
2F0
330
78
100
AcDbEntity
  8
1
 62
     3
100
AcDbMText
 10
144.4051952313661
 20
815.3749994171706
 30
0.0
 40
2.5
 41
0.0
 71
     5
 72
     1
  1
DIN A4
  7
CONVERTER_11
 73
     1
 44
1.20048019207683
  0
MTEXT
  5
2F1
330
78
100
AcDbEntity
  8
1
 62
     2
100
AcDbMText
 10
155.6051952313661
 20
801.7499994171706
 30
0.0
 40
1.8
 41
0.0
 71
     1
 72
     1
  1
description
  7
CONVERTER_11
 73
     1
 44
1.20048019207683
  0
MTEXT
  5
2F2
330
78
100
AcDbEntity
  8
1
 62
     7
100
AcDbMText
 10
201.1775974947417
 20
797.4999994171708
 30
0.0
 40
3.0
 41
0.0
 71
     5
 72
     1
  1
REL-IR4/L-120AC/4X21AU
  7
CONVERTER_12
 73
     1
 44
1.20048019207683
  0
TEXT
  5
2F3
330
78
100
AcDbEntity
  8
1
 62
     2
100
AcDbText
 10
142.6405040411797
 20
795.4999994171704
 30
0.0
 40
1.8
  1
1
 41
0.9
  7
CONVERTER_11
100
AcDbText
  0
TEXT
  5
2F4
330
78
100
AcDbEntity
  8
1
 62
     2
100
AcDbText
 10
127.8514602017082
 20
795.4507507633685
 30
0.0
 40
1.8
  1
1
 41
0.9
  7
CONVERTER_11
100
AcDbText
  0
TEXT
  5
2F5
330
78
100
AcDbEntity
  8
1
 62
     2
100
AcDbText
 10
119.2051952313662
 20
795.4909822021789
 30
0.0
 40
1.8
  1
page
 41
0.9
  7
CONVERTER_11
100
AcDbText
  0
TEXT
  5
2F6
330
78
100
AcDbEntity
  8
1
 62
     2
100
AcDbText
 10
137.405195231366
 20
795.4909822021789
 30
0.0
 40
1.8
  1
of
 41
0.9
  7
CONVERTER_11
100
AcDbText
  0
MTEXT
  5
2F7
330
78
100
AcDbEntity
  8
1
 62
     3
100
AcDbMText
 10
143.6081773829761
 20
981.0413075724693
 30
0.0
 40
1.8
 41
0.0
 71
     7
 72
     1
  3
Transfer or duplication of this document as well as the utilisation or\Pcommunication of its content are not permitted unless express consent\Pis granted. Violations give rise to claims for damages. All rights reserved\Pin case of patent, utility mo
  1
del or design patent registrations.
  7
CONVERTER_11
 73
     1
 44
0.99639855942377
  0
MTEXT
  5
2F8
330
78
100
AcDbEntity
  8
1
 62
     3
100
AcDbMText
 10
-39.24493245581198
 20
981.0413075724693
 30
0.0
 40
1.8
 41
0.0
 71
     7
 72
     1
  3
Weitergabe sowie Vervielf\U+00e4ltigung dieses Dokuments, Verwertung und \PMitteilung seines Inhalts sind verboten, soweit nicht ausdr\U+00fccklich gestattet. \PZuwiderhandlungen verpflichten zu Schadenersatz. Alle Rechte f\U+00fcr den Fall\Pder Pat
  1
ent-, Gebrauchsmuster- oder Designeintragung vorbehalten.
  7
CONVERTER_11
 73
     1
 44
0.99639855942377
  0
HATCH
  5
2F9
330
78
100
AcDbEntity
  8
1
  6
Continuous
 62
     2
100
AcDbHatch
 10
0.0
 20
0.0
 30
0.0
210
0.0
220
0.0
230
1.0
  2
_USER
 70
     0
 71
     1
 91
        1
 92
        1
 93
       14
 72
     2
 10
130.4464245072889
 20
803.0704041790922
 40
1.205656168390929
 50
164.9381082228791
 51
195.0618917770948
 73
     1
 72
     2
 10
130.8655523507517
 20
803.183194541127
 40
1.639695123939395
 50
195.0618917770906
 51
275.1581447696393
 73
     1
 72
     2
 10
130.5766962560158
 20
806.3830851243486
 40
4.852596863498166
 50
275.1581447696249
 51
285.979991258353
 73
     1
 72
     1
 10
131.9126241731336
 20
801.7180028185478
 11
131.9126241731336
 21
802.590519825351
 72
     2
 10
130.7345691311087
 20
804.4808705445008
 40
2.22738400897271
 50
58.06909105004036
 51
71.55192388186698
 73
     0
 72
     2
 10
131.1527368647695
 20
803.2273247684636
 40
0.905929784984867
 50
71.55192388184098
 51
113.3722778881304
 73
     0
 72
     2
 10
130.9962968320675
 20
802.8653327497536
 40
0.5115800601948034
 50
113.3722778881752
 51
151.4785267423044
 73
     0
 72
     2
 10
131.3736540901478
 20
803.0704041790922
 40
0.9410597353332545
 50
151.4785267422912
 51
208.5214732577331
 73
     0
 72
     2
 10
130.9962968320675
 20
803.2754756084312
 40
0.5115800601948517
 50
208.5214732576956
 51
246.6277221117996
 73
     0
 72
     2
 10
131.1527368647695
 20
802.9134835897205
 40
0.9059297849853768
 50
246.6277221118725
 51
288.4480761181454
 73
     0
 72
     2
 10
130.7345691311087
 20
801.659937813684
 40
2.227384008973453
 50
288.448076118133
 51
301.9309089499596
 73
     0
 72
     1
 10
131.9126241731336
 20
803.5502885328339
 11
131.9126241731336
 21
804.4228055396371
 72
     2
 10
130.5766962560158
 20
799.7577232338363
 40
4.85259686349804
 50
74.02000874164729
 51
84.84185523037509
 73
     1
 72
     2
 10
130.8655523507517
 20
802.9576138170572
 40
1.639695123940563
 50
84.84185523036254
 51
164.9381082228864
 73
     1
 97
       14
330
2CE
330
1E7
330
29D
330
2CD
330
29E
330
29F
330
2CC
330
2CB
330
2CA
330
1E8
330
2A0
330
2A1
330
2A2
330
2A3
 75
     1
 76
     0
 52
45.0
 41
0.1
 77
     0
 78
     1
 53
45.0
 43
0.0
 44
0.0
 45
-0.0707106781186548
 46
0.0707106781186548
 79
     0
 98
        1
 10
0.0
 20
0.0
  0
HATCH
  5
2FA
330
78
100
AcDbEntity
  8
1
  6
Continuous
 62
     2
100
AcDbHatch
 10
0.0
 20
0.0
 30
0.0
210
0.0
220
0.0
230
1.0
  2
_USER
 70
     0
 71
     1
 91
        1
 92
        1
 93
       14
 72
     2
 10
130.4464245072889
 20
803.0704041790922
 40
1.205656168390929
 50
164.9381082228791
 51
195.0618917770948
 73
     1
 72
     2
 10
130.8655523507517
 20
803.183194541127
 40
1.639695123939395
 50
195.0618917770906
 51
275.1581447696393
 73
     1
 72
     2
 10
130.5766962560158
 20
806.3830851243486
 40
4.852596863498166
 50
275.1581447696249
 51
285.979991258353
 73
     1
 72
     1
 10
131.9126241731336
 20
801.7180028185478
 11
131.9126241731336
 21
802.590519825351
 72
     2
 10
130.7345691311087
 20
804.4808705445008
 40
2.22738400897271
 50
58.06909105004036
 51
71.55192388186698
 73
     0
 72
     2
 10
131.1527368647695
 20
803.2273247684636
 40
0.905929784984867
 50
71.55192388184098
 51
113.3722778881304
 73
     0
 72
     2
 10
130.9962968320675
 20
802.8653327497536
 40
0.5115800601948034
 50
113.3722778881752
 51
151.4785267423044
 73
     0
 72
     2
 10
131.3736540901478
 20
803.0704041790922
 40
0.9410597353332545
 50
151.4785267422912
 51
208.5214732577331
 73
     0
 72
     2
 10
130.9962968320675
 20
803.2754756084312
 40
0.5115800601948517
 50
208.5214732576956
 51
246.6277221117996
 73
     0
 72
     2
 10
131.1527368647695
 20
802.9134835897205
 40
0.9059297849853768
 50
246.6277221118725
 51
288.4480761181454
 73
     0
 72
     2
 10
130.7345691311087
 20
801.659937813684
 40
2.227384008973453
 50
288.448076118133
 51
301.9309089499596
 73
     0
 72
     1
 10
131.9126241731336
 20
803.5502885328339
 11
131.9126241731336
 21
804.4228055396371
 72
     2
 10
130.5766962560158
 20
799.7577232338363
 40
4.85259686349804
 50
74.02000874164729
 51
84.84185523037509
 73
     1
 72
     2
 10
130.8655523507517
 20
802.9576138170572
 40
1.639695123940563
 50
84.84185523036254
 51
164.9381082228864
 73
     1
 97
       14
330
2CE
330
1E7
330
29D
330
2CD
330
29E
330
29F
330
2CC
330
2CB
330
2CA
330
1E8
330
2A0
330
2A1
330
2A2
330
2A3
 75
     1
 76
     0
 52
45.0
 41
0.1
 77
     0
 78
     1
 53
45.0
 43
0.0
 44
0.0
 45
-0.0707106781186548
 46
0.0707106781186548
 79
     0
 98
        1
 10
0.0
 20
0.0
  0
HATCH
  5
2FB
330
78
100
AcDbEntity
  8
1
  6
Continuous
 62
     2
100
AcDbHatch
 10
0.0
 20
0.0
 30
0.0
210
0.0
220
0.0
230
1.0
  2
_USER
 70
     0
 71
     1
 91
        1
 92
        1
 93
       18
 72
     2
 10
146.9682538300046
 20
802.9576138170572
 40
1.639695123940214
 50
90.0
 51
164.938108222895
 73
     1
 72
     2
 10
146.549125986543
 20
803.0704041790922
 40
1.205656168392988
 50
164.9381082229054
 51
195.0618917770946
 73
     1
 72
     2
 10
146.9682538300046
 20
803.183194541127
 40
1.639695123940448
 50
195.0618917771012
 51
275.158144769676
 73
     1
 72
     2
 10
146.6793977352688
 20
806.3830851243486
 40
4.852596863498825
 50
275.1581447696364
 51
285.9799912583386
 73
     1
 72
     1
 10
148.0153256523855
 20
801.7180028185471
 11
148.0153256523855
 21
802.5905198253505
 72
     2
 10
146.8372706103616
 20
804.4808705445002
 40
2.227384008972719
 50
58.06909105005989
 51
71.55192388186632
 73
     0
 72
     2
 10
147.2554383440235
 20
803.2273247684636
 40
0.9059297849852278
 50
71.55192388191715
 51
113.3722778881832
 73
     0
 72
     2
 10
147.0989983113204
 20
802.8653327497536
 40
0.5115800601959944
 50
113.3722778881576
 51
151.478526742319
 73
     0
 72
     2
 10
147.4763555694018
 20
803.0704041790922
 40
0.941059735334906
 50
151.4785267423305
 51
208.5214732576391
 73
     0
 72
     2
 10
147.0989983113204
 20
803.2754756084312
 40
0.5115800601944143
 50
208.5214732575803
 51
250.6628567805147
 73
     0
 72
     2
 10
147.2456683094241
 20
802.8575206280483
 40
0.9545230068260935
 50
250.662856780568
 51
270.0
 73
     0
 72
     1
 10
147.2456683094241
 20
803.8120436348744
 11
148.3493076089922
 21
803.8120436348744
 72
     1
 10
148.3493076089922
 20
803.8120436348744
 11
148.3493076089922
 21
801.5434994171869
 72
     1
 10
148.3493076089922
 20
801.5434994171869
 11
149.5421003111599
 21
801.5434994171869
 72
     1
 10
149.5421003111599
 20
801.5434994171869
 11
149.5421003111599
 21
803.8120436348744
 72
     1
 10
149.5421003111599
 20
803.8120436348744
 11
150.3531993486333
 21
803.8120436348744
 72
     1
 10
150.3531993486333
 20
803.8120436348744
 11
150.3531993486333
 21
804.5973089409979
 72
     1
 10
150.3531993486333
 20
804.5973089409979
 11
146.9682538300046
 21
804.5973089409974
 97
       18
330
24D
330
24C
330
24B
330
24A
330
24F
330
1E9
330
2C7
330
2A8
330
2C6
330
2A9
330
2C5
330
2C4
330
1EA
330
2C3
330
2C2
330
2AA
330
2AB
330
24E
 75
     1
 76
     0
 52
45.0
 41
0.1
 77
     0
 78
     1
 53
45.0
 43
0.0
 44
0.0
 45
-0.0707106781186548
 46
0.0707106781186548
 79
     0
 98
        1
 10
0.0
 20
0.0
  0
HATCH
  5
2FC
330
78
100
AcDbEntity
  8
1
  6
Continuous
 62
     2
100
AcDbHatch
 10
0.0
 20
0.0
 30
0.0
210
0.0
220
0.0
230
1.0
  2
_USER
 70
     0
 71
     1
 91
        1
 92
        1
 93
       18
 72
     2
 10
146.9682538300046
 20
802.9576138170572
 40
1.639695123940214
 50
90.0
 51
164.938108222895
 73
     1
 72
     2
 10
146.549125986543
 20
803.0704041790922
 40
1.205656168392988
 50
164.9381082229054
 51
195.0618917770946
 73
     1
 72
     2
 10
146.9682538300046
 20
803.183194541127
 40
1.639695123940448
 50
195.0618917771012
 51
275.158144769676
 73
     1
 72
     2
 10
146.6793977352688
 20
806.3830851243486
 40
4.852596863498825
 50
275.1581447696364
 51
285.9799912583386
 73
     1
 72
     1
 10
148.0153256523855
 20
801.7180028185471
 11
148.0153256523855
 21
802.5905198253505
 72
     2
 10
146.8372706103616
 20
804.4808705445002
 40
2.227384008972719
 50
58.06909105005989
 51
71.55192388186632
 73
     0
 72
     2
 10
147.2554383440235
 20
803.2273247684636
 40
0.9059297849852278
 50
71.55192388191715
 51
113.3722778881832
 73
     0
 72
     2
 10
147.0989983113204
 20
802.8653327497536
 40
0.5115800601959944
 50
113.3722778881576
 51
151.478526742319
 73
     0
 72
     2
 10
147.4763555694018
 20
803.0704041790922
 40
0.941059735334906
 50
151.4785267423305
 51
208.5214732576391
 73
     0
 72
     2
 10
147.0989983113204
 20
803.2754756084312
 40
0.5115800601944143
 50
208.5214732575803
 51
250.6628567805147
 73
     0
 72
     2
 10
147.2456683094241
 20
802.8575206280483
 40
0.9545230068260935
 50
250.662856780568
 51
270.0
 73
     0
 72
     1
 10
147.2456683094241
 20
803.8120436348744
 11
148.3493076089922
 21
803.8120436348744
 72
     1
 10
148.3493076089922
 20
803.8120436348744
 11
148.3493076089922
 21
801.5434994171869
 72
     1
 10
148.3493076089922
 20
801.5434994171869
 11
149.5421003111599
 21
801.5434994171869
 72
     1
 10
149.5421003111599
 20
801.5434994171869
 11
149.5421003111599
 21
803.8120436348744
 72
     1
 10
149.5421003111599
 20
803.8120436348744
 11
150.3531993486333
 21
803.8120436348744
 72
     1
 10
150.3531993486333
 20
803.8120436348744
 11
150.3531993486333
 21
804.5973089409979
 72
     1
 10
150.3531993486333
 20
804.5973089409979
 11
146.9682538300046
 21
804.5973089409974
 97
       18
330
24D
330
24C
330
24B
330
24A
330
24F
330
1E9
330
2C7
330
2A8
330
2C6
330
2A9
330
2C5
330
2C4
330
1EA
330
2C3
330
2C2
330
2AA
330
2AB
330
24E
 75
     1
 76
     0
 52
45.0
 41
0.1
 77
     0
 78
     1
 53
45.0
 43
0.0
 44
0.0
 45
-0.0707106781186548
 46
0.0707106781186548
 79
     0
 98
        1
 10
0.0
 20
0.0
  0
HATCH
  5
2FD
330
78
100
AcDbEntity
  8
1
  6
Continuous
 62
     2
100
AcDbHatch
 10
0.0
 20
0.0
 30
0.0
210
0.0
220
0.0
230
1.0
  2
_USER
 70
     0
 71
     1
 91
        4
 92
        1
 93
        8
 72
     2
 10
122.8660947333116
 20
807.5322548017704
 40
0.4242446153838273
 50
90.0
 51
180.0
 73
     1
 72
     1
 10
122.4418501179288
 20
807.5322548017704
 11
122.4418501179288
 21
801.9677440325702
 72
     2
 10
122.8660947333116
 20
801.9677440325702
 40
0.4242446153828041
 50
180.0
 51
270.0
 73
     1
 72
     1
 10
122.8660947333116
 20
801.5434994171869
 11
128.3394068240284
 21
801.5434994171869
 72
     2
 10
128.3394068240284
 20
801.9677440325702
 40
0.4242446153832589
 50
270.0
 51
360.0
 73
     1
 72
     1
 10
128.7636514394123
 20
801.9677440325702
 11
128.7636514394123
 21
807.5322548017704
 72
     2
 10
128.3394068240284
 20
807.5322548017704
 40
0.4242446153839126
 50
0.0
 51
90.0
 73
     1
 72
     1
 10
128.3394068240284
 20
807.9564994171542
 11
122.8660947333116
 21
807.9564994171542
 97
        8
330
2BB
330
218
330
2BA
330
219
330
2B1
330
216
330
2BC
330
217
 92
       16
 93
        1
 72
     2
 10
125.4856803838291
 20
805.2133725734149
 40
0.4709789327784932
 50
0.0
 51
360.0
 73
     1
 97
        1
330
2CF
 92
       16
 93
        8
 72
     2
 10
125.5094953985019
 20
805.2133725734149
 40
0.9118481501444394
 50
295.3740086781781
 51
424.6259913218067
 73
     1
 72
     2
 10
126.0355380965898
 20
806.3225141733826
 40
0.3157169230768062
 50
115.3740086783586
 51
180.0
 73
     0
 72
     1
 10
125.719821173513
 20
806.3225141733826
 11
125.719821173513
 21
806.9280494618895
 72
     2
 10
126.0355380965898
 20
806.9280494618895
 40
0.3157169230760142
 50
180.0
 51
269.8110329574515
 73
     0
 72
     2
 10
126.0411542318998
 20
805.2252145143203
 40
2.018561131933266
 50
269.8110329575862
 51
450.1889670424138
 73
     0
 72
     2
 10
126.0355380965898
 20
803.5223795667514
 40
0.3157169230768062
 50
90.1889670425484
 51
180.0
 73
     0
 72
     1
 10
125.719821173513
 20
803.5223795667514
 11
125.719821173513
 21
804.1042309734464
 72
     2
 10
126.0355380965898
 20
804.1042309734464
 40
0.3157169230765903
 50
180.0
 51
244.6259913216502
 73
     0
 97
        8
330
2C9
330
2A5
330
251
330
2C8
330
2A6
330
2A7
330
250
330
2A4
 92
       16
 93
       12
 72
     1
 10
123.4599894100581
 20
802.2560549727438
 11
124.9358226710677
 21
802.2560549727438
 72
     2
 10
124.9358226710677
 20
802.5717718958205
 40
0.3157169230767067
 50
270.0
 51
360.0
 73
     1
 72
     1
 10
125.2515395941443
 20
802.5717718958205
 11
125.2515395941443
 21
804.1025428273521
 72
     2
 10
124.9358226710677
 20
804.1025428273521
 40
0.3157169230766073
 50
0.0
 51
64.80558935146468
 73
     1
 72
     2
 10
125.4584071186427
 20
805.2133725734149
 40
0.911897523557595
 50
115.1944106485146
 51
244.8055893514702
 73
     0
 72
     2
 10
124.9358226710677
 20
806.3242023194771
 40
0.3157169230761717
 50
295.1944106485354
 51
360.0
 73
     1
 72
     1
 10
125.2515395941443
 20
806.3242023194771
 11
125.2515395941443
 21
806.9282269385376
 72
     2
 10
124.9358226710677
 20
806.9282269385376
 40
0.3157169230766073
 50
0.0
 51
90.0
 73
     1
 72
     1
 10
124.9358226710677
 20
807.2439438616137
 11
123.4599894100581
 21
807.2439438616137
 72
     2
 10
123.4599894100581
 20
806.9282269385376
 40
0.3157169230761383
 50
90.0
 51
180.0
 73
     1
 72
     1
 10
123.1442724869824
 20
806.9282269385376
 11
123.1442724869824
 21
802.5717718958205
 72
     2
 10
123.4599894100581
 20
802.5717718958205
 40
0.3157169230756978
 50
180.0
 51
270.0
 73
     1
 97
       12
330
21D
330
2AE
330
21C
330
2BF
330
21B
330
2BE
330
2AF
330
2B0
330
21A
330
2BD
330
215
330
2C0
 75
     1
 76
     0
 52
45.0
 41
0.1
 77
     0
 78
     1
 53
45.0
 43
0.0
 44
0.0
 45
-0.0707106781186548
 46
0.0707106781186548
 79
     0
 98
        1
 10
0.0
 20
0.0
  0
HATCH
  5
2FE
330
78
100
AcDbEntity
  8
1
  6
Continuous
 62
     2
100
AcDbHatch
 10
0.0
 20
0.0
 30
0.0
210
0.0
220
0.0
230
1.0
  2
_USER
 70
     0
 71
     1
 91
        4
 92
        1
 93
        8
 72
     2
 10
122.8660947333116
 20
807.5322548017704
 40
0.4242446153838273
 50
90.0
 51
180.0
 73
     1
 72
     1
 10
122.4418501179288
 20
807.5322548017704
 11
122.4418501179288
 21
801.9677440325702
 72
     2
 10
122.8660947333116
 20
801.9677440325702
 40
0.4242446153828041
 50
180.0
 51
270.0
 73
     1
 72
     1
 10
122.8660947333116
 20
801.5434994171869
 11
128.3394068240284
 21
801.5434994171869
 72
     2
 10
128.3394068240284
 20
801.9677440325702
 40
0.4242446153832589
 50
270.0
 51
360.0
 73
     1
 72
     1
 10
128.7636514394123
 20
801.9677440325702
 11
128.7636514394123
 21
807.5322548017704
 72
     2
 10
128.3394068240284
 20
807.5322548017704
 40
0.4242446153839126
 50
0.0
 51
90.0
 73
     1
 72
     1
 10
128.3394068240284
 20
807.9564994171542
 11
122.8660947333116
 21
807.9564994171542
 97
        8
330
2BB
330
218
330
2BA
330
219
330
2B1
330
216
330
2BC
330
217
 92
       16
 93
        1
 72
     2
 10
125.4856803838291
 20
805.2133725734149
 40
0.4709789327784932
 50
0.0
 51
360.0
 73
     1
 97
        1
330
2CF
 92
       16
 93
        8
 72
     2
 10
125.5094953985019
 20
805.2133725734149
 40
0.9118481501444394
 50
295.3740086781781
 51
424.6259913218067
 73
     1
 72
     2
 10
126.0355380965898
 20
806.3225141733826
 40
0.3157169230768062
 50
115.3740086783586
 51
180.0
 73
     0
 72
     1
 10
125.719821173513
 20
806.3225141733826
 11
125.719821173513
 21
806.9280494618895
 72
     2
 10
126.0355380965898
 20
806.9280494618895
 40
0.3157169230760142
 50
180.0
 51
269.8110329574515
 73
     0
 72
     2
 10
126.0411542318998
 20
805.2252145143203
 40
2.018561131933266
 50
269.8110329575862
 51
450.1889670424138
 73
     0
 72
     2
 10
126.0355380965898
 20
803.5223795667514
 40
0.3157169230768062
 50
90.1889670425484
 51
180.0
 73
     0
 72
     1
 10
125.719821173513
 20
803.5223795667514
 11
125.719821173513
 21
804.1042309734464
 72
     2
 10
126.0355380965898
 20
804.1042309734464
 40
0.3157169230765903
 50
180.0
 51
244.6259913216502
 73
     0
 97
        8
330
2C9
330
2A5
330
251
330
2C8
330
2A6
330
2A7
330
250
330
2A4
 92
       16
 93
       12
 72
     1
 10
123.4599894100581
 20
802.2560549727438
 11
124.9358226710677
 21
802.2560549727438
 72
     2
 10
124.9358226710677
 20
802.5717718958205
 40
0.3157169230767067
 50
270.0
 51
360.0
 73
     1
 72
     1
 10
125.2515395941443
 20
802.5717718958205
 11
125.2515395941443
 21
804.1025428273521
 72
     2
 10
124.9358226710677
 20
804.1025428273521
 40
0.3157169230766073
 50
0.0
 51
64.80558935146468
 73
     1
 72
     2
 10
125.4584071186427
 20
805.2133725734149
 40
0.911897523557595
 50
115.1944106485146
 51
244.8055893514702
 73
     0
 72
     2
 10
124.9358226710677
 20
806.3242023194771
 40
0.3157169230761717
 50
295.1944106485354
 51
360.0
 73
     1
 72
     1
 10
125.2515395941443
 20
806.3242023194771
 11
125.2515395941443
 21
806.9282269385376
 72
     2
 10
124.9358226710677
 20
806.9282269385376
 40
0.3157169230766073
 50
0.0
 51
90.0
 73
     1
 72
     1
 10
124.9358226710677
 20
807.2439438616137
 11
123.4599894100581
 21
807.2439438616137
 72
     2
 10
123.4599894100581
 20
806.9282269385376
 40
0.3157169230761383
 50
90.0
 51
180.0
 73
     1
 72
     1
 10
123.1442724869824
 20
806.9282269385376
 11
123.1442724869824
 21
802.5717718958205
 72
     2
 10
123.4599894100581
 20
802.5717718958205
 40
0.3157169230756978
 50
180.0
 51
270.0
 73
     1
 97
       12
330
21D
330
2AE
330
21C
330
2BF
330
21B
330
2BE
330
2AF
330
2B0
330
21A
330
2BD
330
215
330
2C0
 75
     1
 76
     0
 52
45.0
 41
0.1
 77
     0
 78
     1
 53
45.0
 43
0.0
 44
0.0
 45
-0.0707106781186548
 46
0.0707106781186548
 79
     0
 98
        1
 10
0.0
 20
0.0
  0
HATCH
  5
2FF
330
78
100
AcDbEntity
  8
1
  6
Continuous
 62
     2
100
AcDbHatch
 10
0.0
 20
0.0
 30
0.0
210
0.0
220
0.0
230
1.0
  2
_USER
 70
     0
 71
     1
 91
        2
 92
        1
 93
       12
 72
     2
 10
137.5412587373009
 20
806.4295946552664
 40
1.526904761905939
 50
90.0
 51
270.0
 73
     1
 72
     1
 10
137.5412587373009
 20
804.9026898933612
 11
140.6915784610819
 21
804.9026898933612
 72
     1
 10
140.6915784610819
 20
804.9026898933612
 11
140.6915784610819
 21
805.6007034988037
 72
     1
 10
140.6915784610819
 20
805.6007034988037
 11
139.3556506346542
 21
805.6007034988037
 72
     1
 10
139.3556506346542
 20
805.6007034988037
 11
139.3556506346542
 21
806.0805878525454
 72
     1
 10
139.3556506346542
 20
806.0805878525454
 11
140.6915784610819
 21
806.0805878525454
 72
     1
 10
140.6915784610819
 20
806.0805878525454
 11
140.6915784610819
 21
806.7786014579876
 72
     1
 10
140.6915784610819
 20
806.7786014579876
 11
139.3556506346542
 21
806.7786014579876
 72
     1
 10
139.3556506346542
 20
806.7786014579876
 11
139.3556506346542
 21
807.2584858117293
 72
     1
 10
139.3556506346542
 20
807.2584858117293
 11
140.6915784610819
 21
807.2584858117293
 72
     1
 10
140.6915784610819
 20
807.2584858117293
 11
140.6915784610819
 21
807.9564994171724
 72
     1
 10
140.6915784610819
 20
807.9564994171724
 11
137.5412587373009
 21
807.9564994171724
 97
       12
330
20C
330
206
330
22D
330
22C
330
22B
330
22A
330
207
330
208
330
209
330
20A
330
2AC
330
20B
 92
       16
 93
        4
 72
     2
 10
137.9572707838124
 20
806.4295946552664
 40
0.7717997786797075
 50
141.8795802028371
 51
218.1204197971562
 73
     1
 72
     2
 10
137.7575307474661
 20
806.2728634771461
 40
0.5179085730134722
 50
218.120419797156
 51
321.8795802028517
 73
     1
 72
     2
 10
137.5577907111199
 20
806.4295946552664
 40
0.7717997786796373
 50
321.8795802028437
 51
398.1204197971629
 73
     1
 72
     2
 10
137.7575307474661
 20
806.5863258333869
 40
0.5179085730135616
 50
38.12041979714829
 51
141.879580202844
 73
     1
 97
        4
330
2B9
330
2B8
330
2B3
330
2B2
 75
     1
 76
     0
 52
45.0
 41
0.1
 77
     0
 78
     1
 53
45.0
 43
0.0
 44
0.0
 45
-0.0707106781186548
 46
0.0707106781186548
 79
     0
 98
        1
 10
0.0
 20
0.0
  0
HATCH
  5
300
330
78
100
AcDbEntity
  8
1
  6
Continuous
 62
     2
100
AcDbHatch
 10
0.0
 20
0.0
 30
0.0
210
0.0
220
0.0
230
1.0
  2
_USER
 70
     0
 71
     1
 91
        2
 92
        1
 93
       12
 72
     2
 10
137.5412587373009
 20
806.4295946552664
 40
1.526904761905939
 50
90.0
 51
270.0
 73
     1
 72
     1
 10
137.5412587373009
 20
804.9026898933612
 11
140.6915784610819
 21
804.9026898933612
 72
     1
 10
140.6915784610819
 20
804.9026898933612
 11
140.6915784610819
 21
805.6007034988037
 72
     1
 10
140.6915784610819
 20
805.6007034988037
 11
139.3556506346542
 21
805.6007034988037
 72
     1
 10
139.3556506346542
 20
805.6007034988037
 11
139.3556506346542
 21
806.0805878525454
 72
     1
 10
139.3556506346542
 20
806.0805878525454
 11
140.6915784610819
 21
806.0805878525454
 72
     1
 10
140.6915784610819
 20
806.0805878525454
 11
140.6915784610819
 21
806.7786014579876
 72
     1
 10
140.6915784610819
 20
806.7786014579876
 11
139.3556506346542
 21
806.7786014579876
 72
     1
 10
139.3556506346542
 20
806.7786014579876
 11
139.3556506346542
 21
807.2584858117293
 72
     1
 10
139.3556506346542
 20
807.2584858117293
 11
140.6915784610819
 21
807.2584858117293
 72
     1
 10
140.6915784610819
 20
807.2584858117293
 11
140.6915784610819
 21
807.9564994171724
 72
     1
 10
140.6915784610819
 20
807.9564994171724
 11
137.5412587373009
 21
807.9564994171724
 97
       12
330
20C
330
206
330
22D
330
22C
330
22B
330
22A
330
207
330
208
330
209
330
20A
330
2AC
330
20B
 92
       16
 93
        4
 72
     2
 10
137.9572707838124
 20
806.4295946552664
 40
0.7717997786797075
 50
141.8795802028371
 51
218.1204197971562
 73
     1
 72
     2
 10
137.7575307474661
 20
806.2728634771461
 40
0.5179085730134722
 50
218.120419797156
 51
321.8795802028517
 73
     1
 72
     2
 10
137.5577907111199
 20
806.4295946552664
 40
0.7717997786796373
 50
321.8795802028437
 51
398.1204197971629
 73
     1
 72
     2
 10
137.7575307474661
 20
806.5863258333869
 40
0.5179085730135616
 50
38.12041979714829
 51
141.879580202844
 73
     1
 97
        4
330
2B9
330
2B8
330
2B3
330
2B2
 75
     1
 76
     0
 52
45.0
 41
0.1
 77
     0
 78
     1
 53
45.0
 43
0.0
 44
0.0
 45
-0.0707106781186548
 46
0.0707106781186548
 79
     0
 98
        1
 10
0.0
 20
0.0
  0
HATCH
  5
301
330
78
100
AcDbEntity
  8
1
  6
Continuous
 62
     2
100
AcDbHatch
 10
0.0
 20
0.0
 30
0.0
210
0.0
220
0.0
230
1.0
  2
_USER
 70
     0
 71
     1
 91
        2
 92
        1
 93
        4
 72
     2
 10
133.5156433748393
 20
803.0704041790922
 40
1.458034083651465
 50
117.548148175663
 51
242.451851824337
 73
     1
 72
     2
 10
133.7965832666726
 20
803.6089791893954
 40
2.065479772208433
 50
242.4518518243391
 51
297.5481481756882
 73
     1
 72
     2
 10
134.0775231585059
 20
803.0704041790922
 40
1.458034083651977
 50
297.5481481757016
 51
422.4518518242985
 73
     1
 72
     2
 10
133.7965832666726
 20
802.5318291687894
 40
2.065479772208543
 50
62.451851824306
 51
117.5481481756667
 73
     1
 97
        4
330
2B7
330
2B4
330
2B6
330
2B5
 92
       16
 93
        4
 72
     2
 10
133.7965832666726
 20
803.2271353572127
 40
0.5179085730133349
 50
38.12041979715197
 51
141.8795802028538
 73
     1
 72
     2
 10
133.9963233030187
 20
803.0704041790922
 40
0.7717997786794808
 50
141.8795802028346
 51
218.120419797172
 73
     1
 72
     2
 10
133.7965832666726
 20
802.9136730009722
 40
0.5179085730137529
 50
218.1204197971956
 51
321.8795802027985
 73
     1
 72
     2
 10
133.5968432303262
 20
803.0704041790922
 40
0.7717997786797298
 50
321.8795802028384
 51
398.120419797155
 73
     1
 97
        4
330
29A
330
29B
330
29C
330
299
 75
     1
 76
     0
 52
45.0
 41
0.1
 77
     0
 78
     1
 53
45.0
 43
0.0
 44
0.0
 45
-0.0707106781186548
 46
0.0707106781186548
 79
     0
 98
        1
 10
0.0
 20
0.0
  0
HATCH
  5
302
330
78
100
AcDbEntity
  8
1
  6
Continuous
 62
     2
100
AcDbHatch
 10
0.0
 20
0.0
 30
0.0
210
0.0
220
0.0
230
1.0
  2
_USER
 70
     0
 71
     1
 91
        2
 92
        1
 93
        4
 72
     2
 10
133.5156433748393
 20
803.0704041790922
 40
1.458034083651465
 50
117.548148175663
 51
242.451851824337
 73
     1
 72
     2
 10
133.7965832666726
 20
803.6089791893954
 40
2.065479772208433
 50
242.4518518243391
 51
297.5481481756882
 73
     1
 72
     2
 10
134.0775231585059
 20
803.0704041790922
 40
1.458034083651977
 50
297.5481481757016
 51
422.4518518242985
 73
     1
 72
     2
 10
133.7965832666726
 20
802.5318291687894
 40
2.065479772208543
 50
62.451851824306
 51
117.5481481756667
 73
     1
 97
        4
330
2B7
330
2B4
330
2B6
330
2B5
 92
       16
 93
        4
 72
     2
 10
133.7965832666726
 20
803.2271353572127
 40
0.5179085730133349
 50
38.12041979715197
 51
141.8795802028538
 73
     1
 72
     2
 10
133.9963233030187
 20
803.0704041790922
 40
0.7717997786794808
 50
141.8795802028346
 51
218.120419797172
 73
     1
 72
     2
 10
133.7965832666726
 20
802.9136730009722
 40
0.5179085730137529
 50
218.1204197971956
 51
321.8795802027985
 73
     1
 72
     2
 10
133.5968432303262
 20
803.0704041790922
 40
0.7717997786797298
 50
321.8795802028384
 51
398.120419797155
 73
     1
 97
        4
330
29A
330
29B
330
29C
330
299
 75
     1
 76
     0
 52
45.0
 41
0.1
 77
     0
 78
     1
 53
45.0
 43
0.0
 44
0.0
 45
-0.0707106781186548
 46
0.0707106781186548
 79
     0
 98
        1
 10
0.0
 20
0.0
  0
HATCH
  5
303
330
78
100
AcDbEntity
  8
1
  6
Continuous
 62
     2
100
AcDbHatch
 10
0.0
 20
0.0
 30
0.0
210
0.0
220
0.0
230
1.0
  2
_USER
 70
     0
 71
     1
 91
        2
 92
        1
 93
        6
 72
     1
 10
129.2407685202791
 20
807.9564994171724
 11
129.2407685202791
 21
804.9026898933612
 72
     1
 10
129.2407685202791
 20
804.9026898933612
 11
130.4812729305332
 21
804.9026898933612
 72
     1
 10
130.4812729305332
 20
804.9026898933612
 11
130.4812729305332
 21
805.845768134505
 72
     1
 10
130.4812729305332
 20
805.845768134505
 11
131.2400405183135
 21
805.845768134505
 72
     2
 10
131.2400405183135
 20
806.9011337758386
 40
1.055365641333651
 50
270.0
 51
450.0
 73
     1
 72
     1
 10
131.2400405183135
 20
807.9564994171724
 11
129.2407685202791
 21
807.9564994171724
 97
        6
330
2C1
330
21E
330
214
330
213
330
220
330
21F
 92
       16
 93
        4
 72
     1
 10
130.7985679920751
 20
807.2933935717323
 11
130.4812729305332
 21
807.2933935717323
 72
     1
 10
130.4812729305332
 20
807.2933935717323
 11
130.4812729305332
 21
806.58766592239
 72
     1
 10
130.4812729305332
 20
806.58766592239
 11
130.7985679920751
 21
806.58766592239
 72
     2
 10
130.7985679920751
 20
806.9405297470612
 40
0.3528638246712035
 50
270.0
 51
450.0
 73
     1
 97
        4
330
221
330
212
330
222
330
2AD
 75
     1
 76
     0
 52
45.0
 41
0.1
 77
     0
 78
     1
 53
45.0
 43
0.0
 44
0.0
 45
-0.0707106781186548
 46
0.0707106781186548
 79
     0
 98
        1
 10
0.0
 20
0.0
  0
HATCH
  5
304
330
78
100
AcDbEntity
  8
1
  6
Continuous
 62
     2
100
AcDbHatch
 10
0.0
 20
0.0
 30
0.0
210
0.0
220
0.0
230
1.0
  2
_USER
 70
     0
 71
     1
 91
        2
 92
        1
 93
        6
 72
     1
 10
129.2407685202791
 20
807.9564994171724
 11
129.2407685202791
 21
804.9026898933612
 72
     1
 10
129.2407685202791
 20
804.9026898933612
 11
130.4812729305332
 21
804.9026898933612
 72
     1
 10
130.4812729305332
 20
804.9026898933612
 11
130.4812729305332
 21
805.845768134505
 72
     1
 10
130.4812729305332
 20
805.845768134505
 11
131.2400405183135
 21
805.845768134505
 72
     2
 10
131.2400405183135
 20
806.9011337758386
 40
1.055365641333651
 50
270.0
 51
450.0
 73
     1
 72
     1
 10
131.2400405183135
 20
807.9564994171724
 11
129.2407685202791
 21
807.9564994171724
 97
        6
330
2C1
330
21E
330
214
330
213
330
220
330
21F
 92
       16
 93
        4
 72
     1
 10
130.7985679920751
 20
807.2933935717323
 11
130.4812729305332
 21
807.2933935717323
 72
     1
 10
130.4812729305332
 20
807.2933935717323
 11
130.4812729305332
 21
806.58766592239
 72
     1
 10
130.4812729305332
 20
806.58766592239
 11
130.7985679920751
 21
806.58766592239
 72
     2
 10
130.7985679920751
 20
806.9405297470612
 40
0.3528638246712035
 50
270.0
 51
450.0
 73
     1
 97
        4
330
221
330
212
330
222
330
2AD
 75
     1
 76
     0
 52
45.0
 41
0.1
 77
     0
 78
     1
 53
45.0
 43
0.0
 44
0.0
 45
-0.0707106781186548
 46
0.0707106781186548
 79
     0
 98
        1
 10
0.0
 20
0.0
  0
HATCH
  5
305
330
78
100
AcDbEntity
  8
1
  6
Continuous
 62
     2
100
AcDbHatch
 10
0.0
 20
0.0
 30
0.0
210
0.0
220
0.0
230
1.0
  2
_USER
 70
     0
 71
     1
 91
        1
 92
        1
 93
       12
 72
     1
 10
148.8550517147123
 20
807.9564994171724
 11
150.2577759324595
 21
807.9564994171724
 72
     1
 10
150.2577759324595
 20
807.9564994171724
 11
148.955246301693
 21
806.4835488871362
 72
     1
 10
148.955246301693
 20
806.4835488871362
 11
150.3531993486333
 21
804.9026898933612
 72
     1
 10
150.3531993486333
 20
804.9026898933612
 11
148.950475130885
 21
804.9026898933612
 72
     1
 10
148.950475130885
 20
804.9026898933612
 11
148.2538841928195
 21
805.6904216786548
 72
     1
 10
148.2538841928195
 20
805.6904216786548
 11
147.5572932547538
 21
804.9026898933612
 72
     1
 10
147.5572932547538
 20
804.9026898933612
 11
146.1545690370056
 21
804.9026898933612
 72
     1
 10
146.1545690370056
 20
804.9026898933612
 11
147.5525220839459
 21
806.4835488871362
 72
     1
 10
147.5525220839459
 20
806.4835488871362
 11
146.2499924531784
 21
807.9564994171724
 72
     1
 10
146.2499924531784
 20
807.9564994171724
 11
147.6527166709277
 21
807.9564994171724
 72
     1
 10
147.6527166709277
 20
807.9564994171724
 11
148.2538841928195
 21
807.2766760956168
 72
     1
 10
148.2538841928195
 20
807.2766760956168
 11
148.8550517147123
 21
807.9564994171724
 97
       12
330
1ED
330
246
330
245
330
244
330
243
330
1EE
330
1EF
330
1EB
330
1EC
330
249
330
248
330
247
 75
     1
 76
     0
 52
45.0
 41
0.1
 77
     0
 78
     1
 53
45.0
 43
0.0
 44
0.0
 45
-0.0707106781186548
 46
0.0707106781186548
 79
     0
 98
        1
 10
0.0
 20
0.0
  0
HATCH
  5
306
330
78
100
AcDbEntity
  8
1
  6
Continuous
 62
     2
100
AcDbHatch
 10
0.0
 20
0.0
 30
0.0
210
0.0
220
0.0
230
1.0
  2
_USER
 70
     0
 71
     1
 91
        1
 92
        1
 93
       12
 72
     1
 10
148.8550517147123
 20
807.9564994171724
 11
150.2577759324595
 21
807.9564994171724
 72
     1
 10
150.2577759324595
 20
807.9564994171724
 11
148.955246301693
 21
806.4835488871362
 72
     1
 10
148.955246301693
 20
806.4835488871362
 11
150.3531993486333
 21
804.9026898933612
 72
     1
 10
150.3531993486333
 20
804.9026898933612
 11
148.950475130885
 21
804.9026898933612
 72
     1
 10
148.950475130885
 20
804.9026898933612
 11
148.2538841928195
 21
805.6904216786548
 72
     1
 10
148.2538841928195
 20
805.6904216786548
 11
147.5572932547538
 21
804.9026898933612
 72
     1
 10
147.5572932547538
 20
804.9026898933612
 11
146.1545690370056
 21
804.9026898933612
 72
     1
 10
146.1545690370056
 20
804.9026898933612
 11
147.5525220839459
 21
806.4835488871362
 72
     1
 10
147.5525220839459
 20
806.4835488871362
 11
146.2499924531784
 21
807.9564994171724
 72
     1
 10
146.2499924531784
 20
807.9564994171724
 11
147.6527166709277
 21
807.9564994171724
 72
     1
 10
147.6527166709277
 20
807.9564994171724
 11
148.2538841928195
 21
807.2766760956168
 72
     1
 10
148.2538841928195
 20
807.2766760956168
 11
148.8550517147123
 21
807.9564994171724
 97
       12
330
1ED
330
246
330
245
330
244
330
243
330
1EE
330
1EF
330
1EB
330
1EC
330
249
330
248
330
247
 75
     1
 76
     0
 52
45.0
 41
0.1
 77
     0
 78
     1
 53
45.0
 43
0.0
 44
0.0
 45
-0.0707106781186548
 46
0.0707106781186548
 79
     0
 98
        1
 10
0.0
 20
0.0
  0
HATCH
  5
307
330
78
100
AcDbEntity
  8
1
  6
Continuous
 62
     2
100
AcDbHatch
 10
0.0
 20
0.0
 30
0.0
210
0.0
220
0.0
230
1.0
  2
_USER
 70
     0
 71
     1
 91
        1
 92
        1
 93
        4
 72
     1
 10
146.0352897667887
 20
807.9564994171724
 11
146.0352897667887
 21
804.9026898933612
 72
     1
 10
146.0352897667887
 20
804.9026898933612
 11
144.7947853565358
 21
804.9026898933612
 72
     1
 10
144.7947853565358
 20
804.9026898933612
 11
144.7947853565358
 21
807.9564994171724
 72
     1
 10
144.7947853565358
 20
807.9564994171724
 11
146.0352897667887
 21
807.9564994171724
 97
        4
330
241
330
1F0
330
240
330
242
 75
     1
 76
     0
 52
45.0
 41
0.1
 77
     0
 78
     1
 53
45.0
 43
0.0
 44
0.0
 45
-0.0707106781186548
 46
0.0707106781186548
 79
     0
 98
        1
 10
0.0
 20
0.0
  0
HATCH
  5
308
330
78
100
AcDbEntity
  8
1
  6
Continuous
 62
     2
100
AcDbHatch
 10
0.0
 20
0.0
 30
0.0
210
0.0
220
0.0
230
1.0
  2
_USER
 70
     0
 71
     1
 91
        1
 92
        1
 93
        4
 72
     1
 10
146.0352897667887
 20
807.9564994171724
 11
146.0352897667887
 21
804.9026898933612
 72
     1
 10
146.0352897667887
 20
804.9026898933612
 11
144.7947853565358
 21
804.9026898933612
 72
     1
 10
144.7947853565358
 20
804.9026898933612
 11
144.7947853565358
 21
807.9564994171724
 72
     1
 10
144.7947853565358
 20
807.9564994171724
 11
146.0352897667887
 21
807.9564994171724
 97
        4
330
241
330
1F0
330
240
330
242
 75
     1
 76
     0
 52
45.0
 41
0.1
 77
     0
 78
     1
 53
45.0
 43
0.0
 44
0.0
 45
-0.0707106781186548
 46
0.0707106781186548
 79
     0
 98
        1
 10
0.0
 20
0.0
  0
HATCH
  5
309
330
78
100
AcDbEntity
  8
1
  6
Continuous
 62
     2
100
AcDbHatch
 10
0.0
 20
0.0
 30
0.0
210
0.0
220
0.0
230
1.0
  2
_USER
 70
     0
 71
     1
 91
        2
 92
        1
 93
        8
 72
     1
 10
145.6448457632567
 20
801.5434994171869
 11
144.4043413530028
 21
801.5434994171869
 72
     1
 10
144.4043413530028
 20
801.5434994171869
 11
144.192861299527
 21
802.0844599614047
 72
     1
 10
144.192861299527
 20
802.0844599614047
 11
143.0604197228532
 21
802.0844599614047
 72
     1
 10
143.0604197228532
 20
802.0844599614047
 11
142.8489396693774
 21
801.5434994171869
 72
     1
 10
142.8489396693774
 20
801.5434994171869
 11
141.6084352591244
 21
801.5434994171869
 72
     1
 10
141.6084352591244
 20
801.5434994171869
 11
143.0063883060637
 21
804.5973089409979
 72
     1
 10
143.0063883060637
 20
804.5973089409979
 11
144.2468927163164
 21
804.5973089409979
 72
     1
 10
144.2468927163164
 20
804.5973089409979
 11
145.6448457632567
 21
801.5434994171869
 97
        8
330
23C
330
1F6
330
23B
330
23E
330
1F3
330
23D
330
1F4
330
1F5
 92
       16
 93
        3
 72
     1
 10
143.3264752739982
 20
802.7650232267114
 11
143.9268057483807
 21
802.7650232267114
 72
     1
 10
143.9268057483807
 20
802.7650232267114
 11
143.6266405111906
 21
803.532838192698
 72
     1
 10
143.6266405111906
 20
803.532838192698
 11
143.3264752739982
 21
802.7650232267114
 97
        3
330
1F2
330
1F1
330
23F
 75
     1
 76
     0
 52
45.0
 41
0.1
 77
     0
 78
     1
 53
45.0
 43
0.0
 44
0.0
 45
-0.0707106781186548
 46
0.0707106781186548
 79
     0
 98
        1
 10
0.0
 20
0.0
  0
HATCH
  5
30A
330
78
100
AcDbEntity
  8
1
  6
Continuous
 62
     2
100
AcDbHatch
 10
0.0
 20
0.0
 30
0.0
210
0.0
220
0.0
230
1.0
  2
_USER
 70
     0
 71
     1
 91
        2
 92
        1
 93
        8
 72
     1
 10
145.6448457632567
 20
801.5434994171869
 11
144.4043413530028
 21
801.5434994171869
 72
     1
 10
144.4043413530028
 20
801.5434994171869
 11
144.192861299527
 21
802.0844599614047
 72
     1
 10
144.192861299527
 20
802.0844599614047
 11
143.0604197228532
 21
802.0844599614047
 72
     1
 10
143.0604197228532
 20
802.0844599614047
 11
142.8489396693774
 21
801.5434994171869
 72
     1
 10
142.8489396693774
 20
801.5434994171869
 11
141.6084352591244
 21
801.5434994171869
 72
     1
 10
141.6084352591244
 20
801.5434994171869
 11
143.0063883060637
 21
804.5973089409979
 72
     1
 10
143.0063883060637
 20
804.5973089409979
 11
144.2468927163164
 21
804.5973089409979
 72
     1
 10
144.2468927163164
 20
804.5973089409979
 11
145.6448457632567
 21
801.5434994171869
 97
        8
330
23C
330
1F6
330
23B
330
23E
330
1F3
330
23D
330
1F4
330
1F5
 92
       16
 93
        3
 72
     1
 10
143.3264752739982
 20
802.7650232267114
 11
143.9268057483807
 21
802.7650232267114
 72
     1
 10
143.9268057483807
 20
802.7650232267114
 11
143.6266405111906
 21
803.532838192698
 72
     1
 10
143.6266405111906
 20
803.532838192698
 11
143.3264752739982
 21
802.7650232267114
 97
        3
330
1F2
330
1F1
330
23F
 75
     1
 76
     0
 52
45.0
 41
0.1
 77
     0
 78
     1
 53
45.0
 43
0.0
 44
0.0
 45
-0.0707106781186548
 46
0.0707106781186548
 79
     0
 98
        1
 10
0.0
 20
0.0
  0
HATCH
  5
30B
330
78
100
AcDbEntity
  8
1
  6
Continuous
 62
     2
100
AcDbHatch
 10
0.0
 20
0.0
 30
0.0
210
0.0
220
0.0
230
1.0
  2
_USER
 70
     0
 71
     1
 91
        1
 92
        1
 93
        8
 72
     1
 10
139.4509231199422
 20
804.5973089409979
 11
139.4509231199422
 21
803.8120436348744
 72
     1
 10
139.4509231199422
 20
803.8120436348744
 11
140.2620221574168
 21
803.8120436348744
 72
     1
 10
140.2620221574168
 20
803.8120436348744
 11
140.2620221574168
 21
801.5434994171869
 72
     1
 10
140.2620221574168
 20
801.5434994171869
 11
141.4548148595833
 21
801.5434994171869
 72
     1
 10
141.4548148595833
 20
801.5434994171869
 11
141.4548148595833
 21
803.8120436348744
 72
     1
 10
141.4548148595833
 20
803.8120436348744
 11
142.2659138970558
 21
803.8120436348744
 72
     1
 10
142.2659138970558
 20
803.8120436348744
 11
142.2659138970558
 21
804.5973089409979
 72
     1
 10
142.2659138970558
 20
804.5973089409979
 11
139.4509231199422
 21
804.5973089409979
 97
        8
330
238
330
237
330
236
330
1F7
330
1F8
330
23A
330
1F9
330
239
 75
     1
 76
     0
 52
45.0
 41
0.1
 77
     0
 78
     1
 53
45.0
 43
0.0
 44
0.0
 45
-0.0707106781186548
 46
0.0707106781186548
 79
     0
 98
        1
 10
0.0
 20
0.0
  0
HATCH
  5
30C
330
78
100
AcDbEntity
  8
1
  6
Continuous
 62
     2
100
AcDbHatch
 10
0.0
 20
0.0
 30
0.0
210
0.0
220
0.0
230
1.0
  2
_USER
 70
     0
 71
     1
 91
        1
 92
        1
 93
        8
 72
     1
 10
139.4509231199422
 20
804.5973089409979
 11
139.4509231199422
 21
803.8120436348744
 72
     1
 10
139.4509231199422
 20
803.8120436348744
 11
140.2620221574168
 21
803.8120436348744
 72
     1
 10
140.2620221574168
 20
803.8120436348744
 11
140.2620221574168
 21
801.5434994171869
 72
     1
 10
140.2620221574168
 20
801.5434994171869
 11
141.4548148595833
 21
801.5434994171869
 72
     1
 10
141.4548148595833
 20
801.5434994171869
 11
141.4548148595833
 21
803.8120436348744
 72
     1
 10
141.4548148595833
 20
803.8120436348744
 11
142.2659138970558
 21
803.8120436348744
 72
     1
 10
142.2659138970558
 20
803.8120436348744
 11
142.2659138970558
 21
804.5973089409979
 72
     1
 10
142.2659138970558
 20
804.5973089409979
 11
139.4509231199422
 21
804.5973089409979
 97
        8
330
238
330
237
330
236
330
1F7
330
1F8
330
23A
330
1F9
330
239
 75
     1
 76
     0
 52
45.0
 41
0.1
 77
     0
 78
     1
 53
45.0
 43
0.0
 44
0.0
 45
-0.0707106781186548
 46
0.0707106781186548
 79
     0
 98
        1
 10
0.0
 20
0.0
  0
HATCH
  5
30D
330
78
100
AcDbEntity
  8
1
  6
Continuous
 62
     2
100
AcDbHatch
 10
0.0
 20
0.0
 30
0.0
210
0.0
220
0.0
230
1.0
  2
_USER
 70
     0
 71
     1
 91
        1
 92
        1
 93
       10
 72
     1
 10
142.1229297036813
 20
807.9564994171724
 11
140.9301370015148
 21
807.9564994171724
 72
     1
 10
140.9301370015148
 20
807.9564994171724
 11
140.9301370015148
 21
804.9026898933612
 72
     1
 10
140.9301370015148
 20
804.9026898933612
 11
142.1229297036813
 21
804.9026898933612
 72
     1
 10
142.1229297036813
 20
804.9026898933612
 11
142.1229297036813
 21
806.2114654035659
 72
     1
 10
142.1229297036813
 20
806.2114654035659
 11
143.3634341139353
 21
804.9026898933612
 72
     1
 10
143.3634341139353
 20
804.9026898933612
 11
144.5562268161019
 21
804.9026898933612
 72
     1
 10
144.5562268161019
 20
804.9026898933612
 11
144.5562268161019
 21
807.9564994171724
 72
     1
 10
144.5562268161019
 20
807.9564994171724
 11
143.3634341139353
 21
807.9564994171724
 72
     1
 10
143.3634341139353
 20
807.9564994171724
 11
143.3634341139353
 21
806.6477239069671
 72
     1
 10
143.3634341139353
 20
806.6477239069671
 11
142.1229297036813
 21
807.9564994171724
 97
       10
330
232
330
1FC
330
1FD
330
1FE
330
1FF
330
235
330
1FA
330
234
330
233
330
1FB
 75
     1
 76
     0
 52
45.0
 41
0.1
 77
     0
 78
     1
 53
45.0
 43
0.0
 44
0.0
 45
-0.0707106781186548
 46
0.0707106781186548
 79
     0
 98
        1
 10
0.0
 20
0.0
  0
HATCH
  5
30E
330
78
100
AcDbEntity
  8
1
  6
Continuous
 62
     2
100
AcDbHatch
 10
0.0
 20
0.0
 30
0.0
210
0.0
220
0.0
230
1.0
  2
_USER
 70
     0
 71
     1
 91
        1
 92
        1
 93
       10
 72
     1
 10
142.1229297036813
 20
807.9564994171724
 11
140.9301370015148
 21
807.9564994171724
 72
     1
 10
140.9301370015148
 20
807.9564994171724
 11
140.9301370015148
 21
804.9026898933612
 72
     1
 10
140.9301370015148
 20
804.9026898933612
 11
142.1229297036813
 21
804.9026898933612
 72
     1
 10
142.1229297036813
 20
804.9026898933612
 11
142.1229297036813
 21
806.2114654035659
 72
     1
 10
142.1229297036813
 20
806.2114654035659
 11
143.3634341139353
 21
804.9026898933612
 72
     1
 10
143.3634341139353
 20
804.9026898933612
 11
144.5562268161019
 21
804.9026898933612
 72
     1
 10
144.5562268161019
 20
804.9026898933612
 11
144.5562268161019
 21
807.9564994171724
 72
     1
 10
144.5562268161019
 20
807.9564994171724
 11
143.3634341139353
 21
807.9564994171724
 72
     1
 10
143.3634341139353
 20
807.9564994171724
 11
143.3634341139353
 21
806.6477239069671
 72
     1
 10
143.3634341139353
 20
806.6477239069671
 11
142.1229297036813
 21
807.9564994171724
 97
       10
330
232
330
1FC
330
1FD
330
1FE
330
1FF
330
235
330
1FA
330
234
330
233
330
1FB
 75
     1
 76
     0
 52
45.0
 41
0.1
 77
     0
 78
     1
 53
45.0
 43
0.0
 44
0.0
 45
-0.0707106781186548
 46
0.0707106781186548
 79
     0
 98
        1
 10
0.0
 20
0.0
  0
HATCH
  5
30F
330
78
100
AcDbEntity
  8
1
  6
Continuous
 62
     2
100
AcDbHatch
 10
0.0
 20
0.0
 30
0.0
210
0.0
220
0.0
230
1.0
  2
_USER
 70
     0
 71
     1
 91
        1
 92
        1
 93
       10
 72
     1
 10
136.8744908832627
 20
804.5973089409979
 11
135.6816981810951
 21
804.5973089409979
 72
     1
 10
135.6816981810951
 20
804.5973089409979
 11
135.6816981810951
 21
801.5434994171869
 72
     1
 10
135.6816981810951
 20
801.5434994171869
 11
136.8744908832627
 21
801.5434994171869
 72
     1
 10
136.8744908832627
 20
801.5434994171869
 11
136.8744908832627
 21
802.8522749273915
 72
     1
 10
136.8744908832627
 20
802.8522749273915
 11
138.1149952935156
 21
801.5434994171869
 72
     1
 10
138.1149952935156
 20
801.5434994171869
 11
139.307787995682
 21
801.5434994171869
 72
     1
 10
139.307787995682
 20
801.5434994171869
 11
139.307787995682
 21
804.5973089409979
 72
     1
 10
139.307787995682
 20
804.5973089409979
 11
138.1149952935156
 21
804.5973089409979
 72
     1
 10
138.1149952935156
 20
804.5973089409979
 11
138.1149952935156
 21
803.2885334307929
 72
     1
 10
138.1149952935156
 20
803.2885334307929
 11
136.8744908832627
 21
804.5973089409979
 97
       10
330
201
330
202
330
203
330
22F
330
204
330
205
330
22E
330
231
330
230
330
200
 75
     1
 76
     0
 52
45.0
 41
0.1
 77
     0
 78
     1
 53
45.0
 43
0.0
 44
0.0
 45
-0.0707106781186548
 46
0.0707106781186548
 79
     0
 98
        1
 10
0.0
 20
0.0
  0
HATCH
  5
310
330
78
100
AcDbEntity
  8
1
  6
Continuous
 62
     2
100
AcDbHatch
 10
0.0
 20
0.0
 30
0.0
210
0.0
220
0.0
230
1.0
  2
_USER
 70
     0
 71
     1
 91
        1
 92
        1
 93
       10
 72
     1
 10
136.8744908832627
 20
804.5973089409979
 11
135.6816981810951
 21
804.5973089409979
 72
     1
 10
135.6816981810951
 20
804.5973089409979
 11
135.6816981810951
 21
801.5434994171869
 72
     1
 10
135.6816981810951
 20
801.5434994171869
 11
136.8744908832627
 21
801.5434994171869
 72
     1
 10
136.8744908832627
 20
801.5434994171869
 11
136.8744908832627
 21
802.8522749273915
 72
     1
 10
136.8744908832627
 20
802.8522749273915
 11
138.1149952935156
 21
801.5434994171869
 72
     1
 10
138.1149952935156
 20
801.5434994171869
 11
139.307787995682
 21
801.5434994171869
 72
     1
 10
139.307787995682
 20
801.5434994171869
 11
139.307787995682
 21
804.5973089409979
 72
     1
 10
139.307787995682
 20
804.5973089409979
 11
138.1149952935156
 21
804.5973089409979
 72
     1
 10
138.1149952935156
 20
804.5973089409979
 11
138.1149952935156
 21
803.2885334307929
 72
     1
 10
138.1149952935156
 20
803.2885334307929
 11
136.8744908832627
 21
804.5973089409979
 97
       10
330
201
330
202
330
203
330
22F
330
204
330
205
330
22E
330
231
330
230
330
200
 75
     1
 76
     0
 52
45.0
 41
0.1
 77
     0
 78
     1
 53
45.0
 43
0.0
 44
0.0
 45
-0.0707106781186548
 46
0.0707106781186548
 79
     0
 98
        1
 10
0.0
 20
0.0
  0
HATCH
  5
311
330
78
100
AcDbEntity
  8
1
  6
Continuous
 62
     2
100
AcDbHatch
 10
0.0
 20
0.0
 30
0.0
210
0.0
220
0.0
230
1.0
  2
_USER
 70
     0
 71
     1
 91
        1
 92
        1
 93
       12
 72
     1
 10
135.8726959443273
 20
807.9564994171724
 11
135.8726959443273
 21
804.9026898933612
 72
     1
 10
135.8726959443273
 20
804.9026898933612
 11
134.6799032421609
 21
804.9026898933612
 72
     1
 10
134.6799032421609
 20
804.9026898933612
 11
134.6799032421609
 21
806.036962002205
 72
     1
 10
134.6799032421609
 20
806.036962002205
 11
133.6302456642534
 21
806.036962002205
 72
     1
 10
133.6302456642534
 20
806.036962002205
 11
133.6302456642534
 21
804.9026898933612
 72
     1
 10
133.6302456642534
 20
804.9026898933612
 11
132.4374529620868
 21
804.9026898933612
 72
     1
 10
132.4374529620868
 20
804.9026898933612
 11
132.4374529620868
 21
807.9564994171724
 72
     1
 10
132.4374529620868
 20
807.9564994171724
 11
133.6302456642534
 21
807.9564994171724
 72
     1
 10
133.6302456642534
 20
807.9564994171724
 11
133.6302456642534
 21
806.8876660838378
 72
     1
 10
133.6302456642534
 20
806.8876660838378
 11
134.6799032421609
 21
806.8876660838378
 72
     1
 10
134.6799032421609
 20
806.8876660838378
 11
134.6799032421609
 21
807.9564994171724
 72
     1
 10
134.6799032421609
 20
807.9564994171724
 11
135.8726959443273
 21
807.9564994171724
 97
       12
330
229
330
228
330
227
330
20F
330
210
330
226
330
211
330
225
330
224
330
223
330
20D
330
20E
 75
     1
 76
     0
 52
45.0
 41
0.1
 77
     0
 78
     1
 53
45.0
 43
0.0
 44
0.0
 45
-0.0707106781186548
 46
0.0707106781186548
 79
     0
 98
        1
 10
0.0
 20
0.0
  0
HATCH
  5
312
330
78
100
AcDbEntity
  8
1
  6
Continuous
 62
     2
100
AcDbHatch
 10
0.0
 20
0.0
 30
0.0
210
0.0
220
0.0
230
1.0
  2
_USER
 70
     0
 71
     1
 91
        1
 92
        1
 93
       12
 72
     1
 10
135.8726959443273
 20
807.9564994171724
 11
135.8726959443273
 21
804.9026898933612
 72
     1
 10
135.8726959443273
 20
804.9026898933612
 11
134.6799032421609
 21
804.9026898933612
 72
     1
 10
134.6799032421609
 20
804.9026898933612
 11
134.6799032421609
 21
806.036962002205
 72
     1
 10
134.6799032421609
 20
806.036962002205
 11
133.6302456642534
 21
806.036962002205
 72
     1
 10
133.6302456642534
 20
806.036962002205
 11
133.6302456642534
 21
804.9026898933612
 72
     1
 10
133.6302456642534
 20
804.9026898933612
 11
132.4374529620868
 21
804.9026898933612
 72
     1
 10
132.4374529620868
 20
804.9026898933612
 11
132.4374529620868
 21
807.9564994171724
 72
     1
 10
132.4374529620868
 20
807.9564994171724
 11
133.6302456642534
 21
807.9564994171724
 72
     1
 10
133.6302456642534
 20
807.9564994171724
 11
133.6302456642534
 21
806.8876660838378
 72
     1
 10
133.6302456642534
 20
806.8876660838378
 11
134.6799032421609
 21
806.8876660838378
 72
     1
 10
134.6799032421609
 20
806.8876660838378
 11
134.6799032421609
 21
807.9564994171724
 72
     1
 10
134.6799032421609
 20
807.9564994171724
 11
135.8726959443273
 21
807.9564994171724
 97
       12
330
229
330
228
330
227
330
20F
330
210
330
226
330
211
330
225
330
224
330
223
330
20D
330
20E
 75
     1
 76
     0
 52
45.0
 41
0.1
 77
     0
 78
     1
 53
45.0
 43
0.0
 44
0.0
 45
-0.0707106781186548
 46
0.0707106781186548
 79
     0
 98
        1
 10
0.0
 20
0.0
  0
ENDBLK
  5
7A
330
78
100
AcDbEntity
  8
0
100
AcDbBlockEnd
  0
BLOCK
  5
7C
330
7B
100
AcDbEntity
  8
0
100
AcDbBlockBegin
  2
_punkt
 70
     0
 10
247.7499997581163
 20
794.2499994171706
 30
0.0
  3
_punkt
  1

  0
LINE
  5
313
330
7B
100
AcDbEntity
  8
1
  6
Continuous
 62
     2
100
AcDbLine
 10
247.7499997581163
 20
794.2499994171706
 30
0.0
 11
247.7499997581163
 21
789.2499994171704
 31
0.0
  0
LINE
  5
314
330
7B
100
AcDbEntity
  8
1
  6
Continuous
 62
     2
100
AcDbLine
 10
247.7499997581163
 20
794.2499994171706
 30
0.0
 11
252.7499997581152
 21
794.2499994171706
 31
0.0
  0
ENDBLK
  5
7D
330
7B
100
AcDbEntity
  8
0
100
AcDbBlockEnd
  0
BLOCK
  5
81
330
7E
100
AcDbEntity
  8
0
100
AcDbBlockBegin
  2
A4I_CS
 70
     0
 10
247.7499997581163
 20
789.2499994171704
 30
0.0
  3
A4I_CS
  1

  0
INSERT
  5
7F
330
7E
100
AcDbEntity
  8
1
100
AcDbBlockReference
  2
_rahmen
 10
247.7499997581163
 20
789.2499994171704
 30
0.0
  0
INSERT
  5
80
330
7E
100
AcDbEntity
  8
1
100
AcDbBlockReference
  2
_punkt
 10
247.7499997581163
 20
794.2499994171706
 30
0.0
  0
ENDBLK
  5
82
330
7E
100
AcDbEntity
  8
0
100
AcDbBlockEnd
  0
BLOCK
  5
8C
330
83
100
AcDbEntity
  8
0
100
AcDbBlockBegin
  2
1
 70
     0
 10
0.0
 20
0.0
 30
0.0
  3
1
  1

  0
INSERT
  5
84
330
83
100
AcDbEntity
  8
0
100
AcDbBlockReference
  2
Allg1
 10
183.999999999998
 20
846.9999999999682
 30
0.0
  0
INSERT
  5
85
330
83
100
AcDbEntity
  8
0
100
AcDbBlockReference
  2
Drfsicht1
 10
98.0
 20
846.0
 30
0.0
  0
INSERT
  5
86
330
83
100
AcDbEntity
  8
0
100
AcDbBlockReference
  2
Rckans1
 10
206.7000010013685
 20
912.3500003814345
 30
0.0
  0
INSERT
  5
87
330
83
100
AcDbEntity
  8
0
100
AcDbBlockReference
  2
SA_Links1
 10
152.3500005006843
 20
912.3500003814346
 30
0.0
  0
INSERT
  5
88
330
83
100
AcDbEntity
  8
0
100
AcDbBlockReference
  2
SA_Rechts1
 10
13.64999949931184
 20
912.3500003814346
 30
0.0
  0
INSERT
  5
89
330
83
100
AcDbEntity
  8
0
100
AcDbBlockReference
  2
Untsicht1
 10
98.0
 20
958.7000007629471
 30
0.0
  0
INSERT
  5
8A
330
83
100
AcDbEntity
  8
0
100
AcDbBlockReference
  2
Vordans1
 10
97.99999999999999
 20
912.3500003814345
 30
0.0
  0
INSERT
  5
8B
330
83
100
AcDbEntity
  8
0
100
AcDbBlockReference
  2
A4I_CS
 10
247.7499997581163
 20
789.2499994171704
 30
0.0
  0
ENDBLK
  5
8D
330
83
100
AcDbEntity
  8
0
100
AcDbBlockEnd
  0
BLOCK
  5
F4
330
ED
100
AcDbEntity
  8
0
100
AcDbBlockBegin
  2
*D19
 70
     1
 10
0.0
 20
0.0
 30
0.0
  3
*D19
  1

  0
LINE
  5
EE
330
ED
100
AcDbEntity
  8
1
  6
Continuous
 62
     2
100
AcDbLine
 10
69.4384155658728
 20
835.4000000001781
 30
0.0
 11
69.4384155658728
 21
856.6000000001782
 31
0.0
  0
LINE
  5
EF
330
ED
100
AcDbEntity
  8
1
  6
Continuous
 62
     2
100
AcDbLine
 10
84.24999985752501
 20
835.4000000001781
 30
0.0
 11
67.9384155658728
 21
835.4000000001781
 31
0.0
  0
LINE
  5
F0
330
ED
100
AcDbEntity
  8
1
  6
Continuous
 62
     2
100
AcDbLine
 10
84.24999985752501
 20
856.6000000001782
 30
0.0
 11
67.9384155658728
 21
856.6000000001782
 31
0.0
  0
SOLID
  5
F1
330
ED
100
AcDbEntity
  8
1
 62
     2
100
AcDbTrace
 10
68.97763182431692
 20
838.9000000001781
 30
0.0
 11
69.89919930742869
 21
838.9000000001781
 31
0.0
 12
69.4384155658728
 22
835.4000000001781
 32
0.0
 13
69.4384155658728
 23
835.4000000001781
 33
0.0
  0
SOLID
  5
F2
330
ED
100
AcDbEntity
  8
1
 62
     2
100
AcDbTrace
 10
69.89919930742869
 20
853.1000000001782
 30
0.0
 11
68.97763182431692
 21
853.1000000001782
 31
0.0
 12
69.4384155658728
 22
856.6000000001782
 32
0.0
 13
69.4384155658728
 23
856.6000000001782
 33
0.0
  0
MTEXT
  5
F3
330
ED
100
AcDbEntity
  8
1
 62
     3
100
AcDbMText
 10
67.58841556587281
 20
841.628267991157
 30
0.0
 40
3.5
 41
0.0
 71
     7
 72
     1
  1
21,2
  7
CONVERTER_11
 11
0.0
 21
1.0
 31
0.0
 73
     1
 44
0.60024009603842
  0
ENDBLK
  5
F5
330
ED
100
AcDbEntity
  8
0
100
AcDbBlockEnd
  0
BLOCK
  5
1C2
330
1BB
100
AcDbEntity
  8
0
100
AcDbBlockBegin
  2
*D20
 70
     1
 10
0.0
 20
0.0
 30
0.0
  3
*D20
  1

  0
LINE
  5
1BC
330
1BB
100
AcDbEntity
  8
1
  6
Continuous
 62
     2
100
AcDbLine
 10
84.24999985752503
 20
876.801516269186
 30
0.0
 11
111.749999857525
 21
876.801516269186
 31
0.0
  0
LINE
  5
1BD
330
1BB
100
AcDbEntity
  8
1
  6
Continuous
 62
     2
100
AcDbLine
 10
84.24999985752503
 20
897.6000003814063
 30
0.0
 11
84.24999985752503
 21
875.301516269186
 31
0.0
  0
LINE
  5
1BE
330
1BB
100
AcDbEntity
  8
1
  6
Continuous
 62
     2
100
AcDbLine
 10
111.749999857525
 20
897.6000003814063
 30
0.0
 11
111.749999857525
 21
875.301516269186
 31
0.0
  0
SOLID
  5
1BF
330
1BB
100
AcDbEntity
  8
1
 62
     2
100
AcDbTrace
 10
87.74999985752503
 20
877.2623000107419
 30
0.0
 11
87.74999985752503
 21
876.34073252763
 31
0.0
 12
84.24999985752503
 22
876.801516269186
 32
0.0
 13
84.24999985752503
 23
876.801516269186
 33
0.0
  0
SOLID
  5
1C0
330
1BB
100
AcDbEntity
  8
1
 62
     2
100
AcDbTrace
 10
108.249999857525
 20
876.34073252763
 30
0.0
 11
108.249999857525
 21
877.2623000107419
 31
0.0
 12
111.749999857525
 22
876.801516269186
 32
0.0
 13
111.749999857525
 23
876.801516269186
 33
0.0
  0
MTEXT
  5
1C1
330
1BB
100
AcDbEntity
  8
1
 62
     3
100
AcDbMText
 10
94.7128422003501
 20
878.6515162691859
 30
0.0
 40
3.5
 41
0.0
 71
     7
 72
     1
  1
27,5
  7
CONVERTER_11
 11
0.9999999999970619
 21
2.424068405545306E-6
 31
0.0
 73
     1
 44
0.60024009603842
  0
ENDBLK
  5
1C3
330
1BB
100
AcDbEntity
  8
0
100
AcDbBlockEnd
  0
BLOCK
  5
1CD
330
1C6
100
AcDbEntity
  8
0
100
AcDbBlockBegin
  2
*D21
 70
     1
 10
0.0
 20
0.0
 30
0.0
  3
*D21
  1

  0
LINE
  5
1C7
330
1C6
100
AcDbEntity
  8
1
  6
Continuous
 62
     2
100
AcDbLine
 10
69.4384155658728
 20
933.1000003814063
 30
0.0
 11
69.4384155658728
 21
897.6000003814063
 31
0.0
  0
LINE
  5
1C8
330
1C6
100
AcDbEntity
  8
1
  6
Continuous
 62
     2
100
AcDbLine
 10
84.24999985752503
 20
933.1000003814063
 30
0.0
 11
67.9384155658728
 21
933.1000003814063
 31
0.0
  0
LINE
  5
1C9
330
1C6
100
AcDbEntity
  8
1
  6
Continuous
 62
     2
100
AcDbLine
 10
84.24999985752503
 20
897.6000003814063
 30
0.0
 11
67.9384155658728
 21
897.6000003814063
 31
0.0
  0
SOLID
  5
1CA
330
1C6
100
AcDbEntity
  8
1
 62
     2
100
AcDbTrace
 10
69.89919930742869
 20
929.6000003814063
 30
0.0
 11
68.97763182431692
 21
929.6000003814063
 31
0.0
 12
69.4384155658728
 22
933.1000003814063
 32
0.0
 13
69.4384155658728
 23
933.1000003814063
 33
0.0
  0
SOLID
  5
1CB
330
1C6
100
AcDbEntity
  8
1
 62
     2
100
AcDbTrace
 10
68.97763182431692
 20
901.1000003814063
 30
0.0
 11
69.89919930742869
 21
901.1000003814063
 31
0.0
 12
69.4384155658728
 22
897.6000003814063
 32
0.0
 13
69.4384155658728
 23
897.6000003814063
 33
0.0
  0
MTEXT
  5
1CC
330
1C6
100
AcDbEntity
  8
1
 62
     3
100
AcDbMText
 10
67.58841556587281
 20
911.541791727055
 30
0.0
 40
3.5
 41
0.0
 71
     7
 72
     1
  1
35,5
  7
CONVERTER_11
 11
0.0
 21
1.0
 31
0.0
 73
     1
 44
0.60024009603842
  0
ENDBLK
  5
1CE
330
1C6
100
AcDbEntity
  8
0
100
AcDbBlockEnd
  0
BLOCK
  5
1D8
330
1D1
100
AcDbEntity
  8
0
100
AcDbBlockBegin
  2
*D22
 70
     1
 10
0.0
 20
0.0
 30
0.0
  3
*D22
  1

  0
LINE
  5
1D2
330
1D1
100
AcDbEntity
  8
1
  6
Continuous
 62
     2
100
AcDbLine
 10
61.43841556587281
 20
933.1000003814063
 30
0.0
 11
61.43841556587281
 21
891.6000003813941
 31
0.0
  0
LINE
  5
1D3
330
1D1
100
AcDbEntity
  8
1
  6
Continuous
 62
     2
100
AcDbLine
 10
84.24999985752504
 20
933.1000003814063
 30
0.0
 11
59.93841556587281
 21
933.1000003814063
 31
0.0
  0
LINE
  5
1D4
330
1D1
100
AcDbEntity
  8
1
  6
Continuous
 62
     2
100
AcDbLine
 10
90.54999985752505
 20
891.6000003813941
 30
0.0
 11
59.93841556587281
 21
891.6000003813941
 31
0.0
  0
SOLID
  5
1D5
330
1D1
100
AcDbEntity
  8
1
 62
     2
100
AcDbTrace
 10
61.8991993074287
 20
929.6000003814063
 30
0.0
 11
60.97763182431692
 21
929.6000003814063
 31
0.0
 12
61.43841556587281
 22
933.1000003814063
 32
0.0
 13
61.43841556587281
 23
933.1000003814063
 33
0.0
  0
SOLID
  5
1D6
330
1D1
100
AcDbEntity
  8
1
 62
     2
100
AcDbTrace
 10
60.97763182431692
 20
895.1000003813941
 30
0.0
 11
61.8991993074287
 21
895.1000003813941
 31
0.0
 12
61.43841556587281
 22
891.6000003813941
 32
0.0
 13
61.43841556587281
 23
891.6000003813941
 33
0.0
  0
MTEXT
  5
1D7
330
1D1
100
AcDbEntity
  8
1
 62
     3
100
AcDbMText
 10
59.58841556587281
 20
908.0625003814001
 30
0.0
 40
3.5
 41
0.0
 71
     7
 72
     1
  1
41,5
  7
CONVERTER_11
 11
0.0
 21
1.0
 31
0.0
 73
     1
 44
0.60024009603842
  0
ENDBLK
  5
1D9
330
1D1
100
AcDbEntity
  8
0
100
AcDbBlockEnd
  0
ENDSEC
  0
SECTION
  2
ENTITIES
  0
INSERT
  5
8E
330
1F
100
AcDbEntity
  8
1
100
AcDbBlockReference
  2
1
 10
0.0
 20
0.0
 30
0.0
  0
ENDSEC
  0
SECTION
  2
OBJECTS
  0
DICTIONARY
  5
C
330
0
100
AcDbDictionary
281
     1
  3
ACAD_GROUP
350
D
  3
ACAD_LAYOUT
350
1A
  3
ACAD_MATERIAL
350
3B
  3
ACAD_MLEADERSTYLE
350
33C
  3
ACAD_MLINESTYLE
350
17
  3
ACAD_PLOTSETTINGS
350
19
  3
ACAD_PLOTSTYLENAME
350
E
  3
ACAD_TABLESTYLE
350
33B
  3
ACAD_VISUALSTYLE
350
2A
  0
DICTIONARY
  5
D
102
{ACAD_REACTORS
330
C
102
}
330
C
100
AcDbDictionary
281
     1
  0
DICTIONARY
  5
1A
102
{ACAD_REACTORS
330
C
102
}
330
C
100
AcDbDictionary
281
     1
  3
Layout1
350
1E
  3
Layout2
350
26
  3
Model
350
22
  0
DICTIONARY
  5
3B
102
{ACAD_REACTORS
330
C
102
}
330
C
100
AcDbDictionary
281
     1
  3
ByBlock
350
3D
  3
ByLayer
350
3C
  3
Global
350
3E
  0
DICTIONARY
  5
33C
102
{ACAD_REACTORS
330
C
102
}
330
C
100
AcDbDictionary
281
     1
  0
DICTIONARY
  5
17
102
{ACAD_REACTORS
330
C
102
}
330
C
100
AcDbDictionary
281
     1
  3
Standard
350
18
  0
DICTIONARY
  5
19
102
{ACAD_REACTORS
330
C
102
}
330
C
100
AcDbDictionary
281
     1
  0
ACDBDICTIONARYWDFLT
  5
E
102
{ACAD_REACTORS
330
C
102
}
330
C
100
AcDbDictionary
281
     1
  3
Normal
350
F
100
AcDbDictionaryWithDefault
340
F
  0
DICTIONARY
  5
33B
102
{ACAD_REACTORS
330
C
102
}
330
C
100
AcDbDictionary
281
     1
  0
DICTIONARY
  5
2A
102
{ACAD_REACTORS
330
C
102
}
330
C
100
AcDbDictionary
281
     1
  3
2dWireframe
350
2F
  3
3D Hidden
350
31
  3
3dWireframe
350
30
  3
Basic
350
32
  3
Brighten
350
36
  3
ColorChange
350
3A
  3
Conceptual
350
34
  3
Dim
350
35
  3
Facepattern
350
39
  3
Flat
350
2B
  3
FlatWithEdges
350
2C
  3
Gouraud
350
2D
  3
GouraudWithEdges
350
2E
  3
Linepattern
350
38
  3
Realistic
350
33
  3
Thicken
350
37
  0
LAYOUT
  5
1E
102
{ACAD_REACTORS
330
1A
102
}
330
1A
100
AcDbPlotSettings
  1

  2
none_device
  4

  6

 40
0.0
 41
0.0
 42
0.0
 43
0.0
 44
0.0
 45
0.0
 46
0.0
 47
0.0
 48
0.0
 49
0.0
140
0.0
141
0.0
142
1.0
143
1.0
 70
   688
 72
     0
 73
     0
 74
     5
  7

 75
    16
 76
     0
 77
     2
 78
   300
147
1.0
148
0.0
149
0.0
100
AcDbLayout
  1
Layout1
 70
     1
 71
     1
 10
0.0
 20
0.0
 11
12.0
 21
9.0
 12
0.0
 22
0.0
 32
0.0
 14
1.00000000000000E+20
 24
1.00000000000000E+20
 34
1.00000000000000E+20
 15
-1.00000000000000E+20
 25
-1.00000000000000E+20
 35
-1.00000000000000E+20
146
0.0
 13
0.0
 23
0.0
 33
0.0
 16
1.0
 26
0.0
 36
0.0
 17
0.0
 27
1.0
 37
0.0
 76
     0
330
1B
  0
LAYOUT
  5
26
102
{ACAD_REACTORS
330
1A
102
}
330
1A
100
AcDbPlotSettings
  1

  2
none_device
  4

  6

 40
0.0
 41
0.0
 42
0.0
 43
0.0
 44
0.0
 45
0.0
 46
0.0
 47
0.0
 48
0.0
 49
0.0
140
0.0
141
0.0
142
1.0
143
1.0
 70
   688
 72
     0
 73
     0
 74
     5
  7

 75
    16
 76
     0
 77
     2
 78
   300
147
1.0
148
0.0
149
0.0
100
AcDbLayout
  1
Layout2
 70
     1
 71
     2
 10
0.0
 20
0.0
 11
0.0
 21
0.0
 12
0.0
 22
0.0
 32
0.0
 14
0.0
 24
0.0
 34
0.0
 15
0.0
 25
0.0
 35
0.0
146
0.0
 13
0.0
 23
0.0
 33
0.0
 16
1.0
 26
0.0
 36
0.0
 17
0.0
 27
1.0
 37
0.0
 76
     0
330
23
  0
LAYOUT
  5
22
102
{ACAD_REACTORS
330
1A
102
}
330
1A
100
AcDbPlotSettings
  1

  2
none_device
  4

  6

 40
0.0
 41
0.0
 42
0.0
 43
0.0
 44
0.0
 45
0.0
 46
0.0
 47
0.0
 48
0.0
 49
0.0
140
0.0
141
0.0
142
1.0
143
1.0
 70
  1712
 72
     0
 73
     0
 74
     0
  7

 75
     0
 76
     0
 77
     2
 78
   300
147
1.0
148
0.0
149
0.0
100
AcDbLayout
  1
Model
 70
     1
 71
     0
 10
0.0
 20
0.0
 11
12.0
 21
9.0
 12
0.0
 22
0.0
 32
0.0
 14
-44.25000024188284
 24
789.2499994171704
 34
0.0
 15
252.7499997581152
 25
999.2499994171706
 35
0.0
146
0.0
 13
0.0
 23
0.0
 33
0.0
 16
1.0
 26
0.0
 36
0.0
 17
0.0
 27
1.0
 37
0.0
 76
     0
330
1F
331
29
  0
MATERIAL
  5
3D
102
{ACAD_REACTORS
330
3B
102
}
102
{ACAD_XDICTIONARY
360
337
102
}
330
3B
100
AcDbMaterial
  1
ByBlock
  0
MATERIAL
  5
3C
102
{ACAD_REACTORS
330
3B
102
}
102
{ACAD_XDICTIONARY
360
335
102
}
330
3B
100
AcDbMaterial
  1
ByLayer
  0
MATERIAL
  5
3E
102
{ACAD_REACTORS
330
3B
102
}
102
{ACAD_XDICTIONARY
360
339
102
}
330
3B
100
AcDbMaterial
  1
Global
  0
MLINESTYLE
  5
18
102
{ACAD_REACTORS
330
17
102
}
330
17
100
AcDbMlineStyle
  2
Standard
 70
     0
  3

 62
   256
 51
90.0
 52
90.0
 71
     2
 49
0.5
 62
   256
  6
BYLAYER
 49
-0.5
 62
   256
  6
BYLAYER
  0
ACDBPLACEHOLDER
  5
F
102
{ACAD_REACTORS
330
E
102
}
330
E
  0
VISUALSTYLE
  5
2F
102
{ACAD_REACTORS
330
2A
102
}
102
{ACAD_XDICTIONARY
360
31D
102
}
330
2A
100
AcDbVisualStyle
  2
2dWireframe
 70
     4
 71
     0
 72
     2
 73
     0
 90
        0
 40
-0.6
 41
-30.0
 62
     5
 63
     7
421
 16777215
 74
     1
 91
        4
 64
     7
 65
   257
 75
     1
175
     1
 42
1.0
 92
        0
 66
   257
 43
1.0
 76
     1
 77
     6
 78
     2
 67
     7
 79
     5
170
     0
171
     0
290
     0
174
     0
 93
        1
 44
0.0
173
     0
291
     0
 45
0.0
1001
ACAD
1000
AcDbSavedByObjectVersion
1070
     0
  0
VISUALSTYLE
  5
31
102
{ACAD_REACTORS
330
2A
102
}
102
{ACAD_XDICTIONARY
360
321
102
}
330
2A
100
AcDbVisualStyle
  2
3D Hidden
 70
     6
 71
     1
 72
     2
 73
     2
 90
        0
 40
-0.6
 41
-30.0
 62
     5
 63
     7
421
 16777215
 74
     2
 91
        2
 64
     7
 65
   257
 75
     2
175
     1
 42
40.0
 92
        0
 66
   257
 43
1.0
 76
     1
 77
     6
 78
     2
 67
     7
 79
     3
170
     0
171
     0
290
     0
174
     0
 93
        1
 44
0.0
173
     0
291
     0
 45
0.0
1001
ACAD
1000
AcDbSavedByObjectVersion
1070
     0
  0
VISUALSTYLE
  5
30
102
{ACAD_REACTORS
330
2A
102
}
102
{ACAD_XDICTIONARY
360
31F
102
}
330
2A
100
AcDbVisualStyle
  2
3dWireframe
 70
     5
 71
     0
 72
     2
 73
     0
 90
        0
 40
-0.6
 41
-30.0
 62
     5
 63
     7
421
 16777215
 74
     1
 91
        4
 64
     7
 65
   257
 75
     1
175
     1
 42
1.0
 92
        0
 66
   257
 43
1.0
 76
     1
 77
     6
 78
     2
 67
     7
 79
     5
170
     0
171
     0
290
     0
174
     0
 93
        1
 44
0.0
173
     0
291
     0
 45
0.0
1001
ACAD
1000
AcDbSavedByObjectVersion
1070
     0
  0
VISUALSTYLE
  5
32
102
{ACAD_REACTORS
330
2A
102
}
102
{ACAD_XDICTIONARY
360
323
102
}
330
2A
100
AcDbVisualStyle
  2
Basic
 70
     7
 71
     1
 72
     0
 73
     1
 90
        0
 40
-0.6
 41
-30.0
 62
     5
 63
     7
421
 16777215
 74
     0
 91
        4
 64
     7
 65
   257
 75
     1
175
     1
 42
1.0
 92
        8
 66
     7
 43
1.0
 76
     1
 77
     6
 78
     2
 67
     7
 79
     5
170
     0
171
     0
290
     0
174
     0
 93
        1
 44
0.0
173
     0
291
     1
 45
0.0
1001
ACAD
1000
AcDbSavedByObjectVersion
1070
     0
  0
VISUALSTYLE
  5
36
102
{ACAD_REACTORS
330
2A
102
}
102
{ACAD_XDICTIONARY
360
32B
102
}
330
2A
100
AcDbVisualStyle
  2
Brighten
 70
    12
 71
     2
 72
     2
 73
     0
 90
        0
 40
-0.6
 41
-30.0
 62
     5
 63
     7
421
 16777215
 74
     1
 91
        4
 64
     7
 65
   257
 75
     1
175
     1
 42
1.0
 92
        8
 66
     7
 43
1.0
 76
     1
 77
     6
 78
     2
 67
     7
 79
     5
170
     0
171
     0
290
     0
174
     0
 93
        1
 44
50.0
173
     0
291
     1
 45
0.0
1001
ACAD
1000
AcDbSavedByObjectVersion
1070
     0
  0
VISUALSTYLE
  5
3A
102
{ACAD_REACTORS
330
2A
102
}
102
{ACAD_XDICTIONARY
360
333
102
}
330
2A
100
AcDbVisualStyle
  2
ColorChange
 70
    16
 71
     2
 72
     2
 73
     3
 90
        0
 40
-0.6
 41
-30.0
 62
     5
 63
     8
421
  8421504
 74
     1
 91
        4
 64
     7
 65
   257
 75
     1
175
     1
 42
1.0
 92
        8
 66
     8
424
  8421504
 43
1.0
 76
     1
 77
     6
 78
     2
 67
     7
 79
     5
170
     0
171
     0
290
     0
174
     0
 93
        1
 44
0.0
173
     0
291
     1
 45
0.0
1001
ACAD
1000
AcDbSavedByObjectVersion
1070
     0
  0
VISUALSTYLE
  5
34
102
{ACAD_REACTORS
330
2A
102
}
102
{ACAD_XDICTIONARY
360
327
102
}
330
2A
100
AcDbVisualStyle
  2
Conceptual
 70
     9
 71
     3
 72
     2
 73
     0
 90
        0
 40
-0.6
 41
-30.0
 62
     5
 63
     7
421
 16777215
 74
     2
 91
        2
 64
     7
 65
   257
 75
     1
175
     1
 42
40.0
 92
        8
 66
     7
 43
1.0
 76
     1
 77
     6
 78
     2
 67
     7
 79
     3
170
     0
171
     0
290
     0
174
     0
 93
        1
 44
0.0
173
     0
291
     0
 45
0.0
1001
ACAD
1000
AcDbSavedByObjectVersion
1070
     0
  0
VISUALSTYLE
  5
35
102
{ACAD_REACTORS
330
2A
102
}
102
{ACAD_XDICTIONARY
360
329
102
}
330
2A
100
AcDbVisualStyle
  2
Dim
 70
    11
 71
     2
 72
     2
 73
     0
 90
        0
 40
-0.6
 41
-30.0
 62
     5
 63
     7
421
 16777215
 74
     1
 91
        4
 64
     7
 65
   257
 75
     1
175
     1
 42
1.0
 92
        8
 66
     7
 43
1.0
 76
     1
 77
     6
 78
     2
 67
     7
 79
     5
170
     0
171
     0
290
     0
174
     0
 93
        1
 44
-50.0
173
     0
291
     1
 45
0.0
1001
ACAD
1000
AcDbSavedByObjectVersion
1070
     0
  0
VISUALSTYLE
  5
39
102
{ACAD_REACTORS
330
2A
102
}
102
{ACAD_XDICTIONARY
360
331
102
}
330
2A
100
AcDbVisualStyle
  2
Facepattern
 70
    15
 71
     2
 72
     2
 73
     0
 90
        0
 40
-0.6
 41
-30.0
 62
     5
 63
     7
421
 16777215
 74
     1
 91
        4
 64
     7
 65
   257
 75
     1
175
     1
 42
1.0
 92
        8
 66
     7
 43
1.0
 76
     1
 77
     6
 78
     2
 67
     7
 79
     5
170
     0
171
     0
290
     0
174
     0
 93
        1
 44
0.0
173
     0
291
     1
 45
0.0
1001
ACAD
1000
AcDbSavedByObjectVersion
1070
     0
  0
VISUALSTYLE
  5
2B
102
{ACAD_REACTORS
330
2A
102
}
102
{ACAD_XDICTIONARY
360
315
102
}
330
2A
100
AcDbVisualStyle
  2
Flat
 70
     0
 71
     2
 72
     1
 73
     1
 90
        2
 40
-0.6
 41
30.0
 62
     5
 63
     7
421
 16777215
 74
     0
 91
        4
 64
     7
 65
   257
 75
     1
175
     1
 42
1.0
 92
        8
 66
     7
 43
1.0
 76
     1
 77
     6
 78
     2
 67
     7
 79
     5
170
     0
171
     0
290
     0
174
     0
 93
       13
 44
0.0
173
     0
291
     1
 45
0.0
1001
ACAD
1000
AcDbSavedByObjectVersion
1070
     0
  0
VISUALSTYLE
  5
2C
102
{ACAD_REACTORS
330
2A
102
}
102
{ACAD_XDICTIONARY
360
317
102
}
330
2A
100
AcDbVisualStyle
  2
FlatWithEdges
 70
     1
 71
     2
 72
     1
 73
     1
 90
        2
 40
-0.6
 41
30.0
 62
     5
 63
     7
421
 16777215
 74
     1
 91
        4
 64
     7
 65
   257
 75
     1
175
     1
 42
1.0
 92
        0
 66
   257
 43
1.0
 76
     1
 77
     6
 78
     2
 67
     7
 79
     5
170
     0
171
     0
290
     0
174
     0
 93
       13
 44
0.0
173
     0
291
     1
 45
0.0
1001
ACAD
1000
AcDbSavedByObjectVersion
1070
     0
  0
VISUALSTYLE
  5
2D
102
{ACAD_REACTORS
330
2A
102
}
102
{ACAD_XDICTIONARY
360
319
102
}
330
2A
100
AcDbVisualStyle
  2
Gouraud
 70
     2
 71
     2
 72
     2
 73
     1
 90
        2
 40
-0.6
 41
30.0
 62
     5
 63
     7
421
 16777215
 74
     0
 91
        4
 64
     7
 65
   257
 75
     1
175
     1
 42
1.0
 92
        0
 66
     7
 43
1.0
 76
     1
 77
     6
 78
     2
 67
     7
 79
     5
170
     0
171
     0
290
     0
174
     0
 93
       13
 44
0.0
173
     0
291
     1
 45
0.0
1001
ACAD
1000
AcDbSavedByObjectVersion
1070
     0
  0
VISUALSTYLE
  5
2E
102
{ACAD_REACTORS
330
2A
102
}
102
{ACAD_XDICTIONARY
360
31B
102
}
330
2A
100
AcDbVisualStyle
  2
GouraudWithEdges
 70
     3
 71
     2
 72
     2
 73
     1
 90
        2
 40
-0.6
 41
30.0
 62
     5
 63
     7
421
 16777215
 74
     1
 91
        4
 64
     7
 65
   257
 75
     1
175
     1
 42
1.0
 92
        0
 66
   257
 43
1.0
 76
     1
 77
     6
 78
     2
 67
     7
 79
     5
170
     0
171
     0
290
     0
174
     0
 93
       13
 44
0.0
173
     0
291
     1
 45
0.0
1001
ACAD
1000
AcDbSavedByObjectVersion
1070
     0
  0
VISUALSTYLE
  5
38
102
{ACAD_REACTORS
330
2A
102
}
102
{ACAD_XDICTIONARY
360
32F
102
}
330
2A
100
AcDbVisualStyle
  2
Linepattern
 70
    14
 71
     2
 72
     2
 73
     0
 90
        0
 40
-0.6
 41
-30.0
 62
     5
 63
     7
421
 16777215
 74
     1
 91
        4
 64
     7
 65
   257
 75
     7
175
     7
 42
1.0
 92
        8
 66
     7
 43
1.0
 76
     1
 77
     6
 78
     2
 67
     7
 79
     5
170
     0
171
     0
290
     0
174
     0
 93
        1
 44
0.0
173
     0
291
     1
 45
0.0
1001
ACAD
1000
AcDbSavedByObjectVersion
1070
     0
  0
VISUALSTYLE
  5
33
102
{ACAD_REACTORS
330
2A
102
}
102
{ACAD_XDICTIONARY
360
325
102
}
330
2A
100
AcDbVisualStyle
  2
Realistic
 70
     8
 71
     2
 72
     2
 73
     0
 90
        0
 40
-0.6
 41
-30.0
 62
     5
 63
     7
421
 16777215
 74
     1
 91
        0
 64
     7
 65
   257
 75
     1
175
     1
 42
1.0
 92
        8
 66
     8
424
  7895160
 43
1.0
 76
     1
 77
     6
 78
     2
 67
     7
 79
     5
170
     0
171
     0
290
     0
174
     0
 93
       13
 44
0.0
173
     0
291
     0
 45
0.0
1001
ACAD
1000
AcDbSavedByObjectVersion
1070
     0
  0
VISUALSTYLE
  5
37
102
{ACAD_REACTORS
330
2A
102
}
102
{ACAD_XDICTIONARY
360
32D
102
}
330
2A
100
AcDbVisualStyle
  2
Thicken
 70
    13
 71
     2
 72
     2
 73
     0
 90
        0
 40
-0.6
 41
-30.0
 62
     5
 63
     7
421
 16777215
 74
     1
 91
        4
 64
     7
 65
   257
 75
     1
175
     1
 42
1.0
 92
       12
 66
     7
 43
1.0
 76
     1
 77
     6
 78
     2
 67
     7
 79
     5
170
     0
171
     0
290
     0
174
     0
 93
        1
 44
0.0
173
     0
291
     1
 45
0.0
1001
ACAD
1000
AcDbSavedByObjectVersion
1070
     0
  0
DICTIONARY
  5
337
330
3D
100
AcDbDictionary
280
     1
281
     1
  3
ACAD_XREC_ROUNDTRIP
360
338
  0
DICTIONARY
  5
335
330
3C
100
AcDbDictionary
280
     1
281
     1
  3
ACAD_XREC_ROUNDTRIP
360
336
  0
DICTIONARY
  5
339
330
3E
100
AcDbDictionary
280
     1
281
     1
  3
ACAD_XREC_ROUNDTRIP
360
33A
  0
DICTIONARY
  5
31D
330
2F
100
AcDbDictionary
280
     1
281
     1
  3
ACAD_XREC_ROUNDTRIP
360
31E
  0
DICTIONARY
  5
321
330
31
100
AcDbDictionary
280
     1
281
     1
  3
ACAD_XREC_ROUNDTRIP
360
322
  0
DICTIONARY
  5
31F
330
30
100
AcDbDictionary
280
     1
281
     1
  3
ACAD_XREC_ROUNDTRIP
360
320
  0
DICTIONARY
  5
323
330
32
100
AcDbDictionary
280
     1
281
     1
  3
ACAD_XREC_ROUNDTRIP
360
324
  0
DICTIONARY
  5
32B
330
36
100
AcDbDictionary
280
     1
281
     1
  3
ACAD_XREC_ROUNDTRIP
360
32C
  0
DICTIONARY
  5
333
330
3A
100
AcDbDictionary
280
     1
281
     1
  3
ACAD_XREC_ROUNDTRIP
360
334
  0
DICTIONARY
  5
327
330
34
100
AcDbDictionary
280
     1
281
     1
  3
ACAD_XREC_ROUNDTRIP
360
328
  0
DICTIONARY
  5
329
330
35
100
AcDbDictionary
280
     1
281
     1
  3
ACAD_XREC_ROUNDTRIP
360
32A
  0
DICTIONARY
  5
331
330
39
100
AcDbDictionary
280
     1
281
     1
  3
ACAD_XREC_ROUNDTRIP
360
332
  0
DICTIONARY
  5
315
330
2B
100
AcDbDictionary
280
     1
281
     1
  3
ACAD_XREC_ROUNDTRIP
360
316
  0
DICTIONARY
  5
317
330
2C
100
AcDbDictionary
280
     1
281
     1
  3
ACAD_XREC_ROUNDTRIP
360
318
  0
DICTIONARY
  5
319
330
2D
100
AcDbDictionary
280
     1
281
     1
  3
ACAD_XREC_ROUNDTRIP
360
31A
  0
DICTIONARY
  5
31B
330
2E
100
AcDbDictionary
280
     1
281
     1
  3
ACAD_XREC_ROUNDTRIP
360
31C
  0
DICTIONARY
  5
32F
330
38
100
AcDbDictionary
280
     1
281
     1
  3
ACAD_XREC_ROUNDTRIP
360
330
  0
DICTIONARY
  5
325
330
33
100
AcDbDictionary
280
     1
281
     1
  3
ACAD_XREC_ROUNDTRIP
360
326
  0
DICTIONARY
  5
32D
330
37
100
AcDbDictionary
280
     1
281
     1
  3
ACAD_XREC_ROUNDTRIP
360
32E
  0
XRECORD
  5
338
102
{ACAD_REACTORS
330
337
102
}
330
337
100
AcDbXrecord
280
     1
102
MATERIAL
148
0.0
149
0.0
149
0.0
 93
        0
 94
      127
282
     0
 72
     1
 77
     1
171
     1
175
     1
179
     1
273
     0
  0
XRECORD
  5
336
102
{ACAD_REACTORS
330
335
102
}
330
335
100
AcDbXrecord
280
     1
102
MATERIAL
148
0.0
149
0.0
149
0.0
 93
        0
 94
      127
282
     0
 72
     1
 77
     1
171
     1
175
     1
179
     1
273
     0
  0
XRECORD
  5
33A
102
{ACAD_REACTORS
330
339
102
}
330
339
100
AcDbXrecord
280
     1
102
MATERIAL
148
0.0
149
0.0
149
0.0
 93
        0
 94
      127
282
     0
 72
     1
 77
     1
171
     1
175
     1
179
     1
273
     0
  0
XRECORD
  5
31E
102
{ACAD_REACTORS
330
31D
102
}
330
31D
100
AcDbXrecord
280
     1
102
RTVSPropertyOp0
 70
     1
102
RTVSPropertyOp1
 70
     1
102
RTVSPropertyOp2
 70
     1
102
RTVSPropertyOp3
 70
     1
102
RTVSPropertyOp4
 70
     1
102
RTVSPropertyOp5
 70
     1
102
RTVSPropertyOp6
 70
     1
102
RTVSPropertyOp7
 70
     1
102
RTVSPropertyOp8
 70
     1
102
RTVSPropertyOp9
 70
     1
102
RTVSPropertyOp10
 70
     1
102
RTVSPropertyOp11
 70
     1
102
RTVSPropertyOp12
 70
     1
102
RTVSPropertyOp13
 70
     1
102
RTVSPropertyOp14
 70
     1
102
RTVSPropertyOp15
 70
     1
102
RTVSPropertyOp16
 70
     1
102
RTVSPropertyOp17
 70
     1
102
RTVSPropertyOp18
 70
     1
102
RTVSPropertyOp19
 70
     1
102
RTVSPropertyOp20
 70
     1
102
RTVSPropertyOp21
 70
     1
102
RTVSPropertyOp22
 70
     1
102
RTVSPropertyOp23
 70
     1
102
RTVSPropertyOp24
 70
     1
102
RTVSPropertyOp25
 70
     1
102
RTVSPropertyOp26
 70
     1
102
RTVSPropertyOp27
 70
     1
102
RTVSPropertyOp28
 70
     1
102
RTVSPropertyOp29
 70
     1
102
RTVSPropertyOp30
 70
     1
102
RTVSPropertyOp31
 70
     1
102
RTVSPropertyOp32
 70
     1
  0
XRECORD
  5
322
102
{ACAD_REACTORS
330
321
102
}
330
321
100
AcDbXrecord
280
     1
102
RTVSPropertyOp0
 70
     1
102
RTVSPropertyOp1
 70
     1
102
RTVSPropertyOp2
 70
     1
102
RTVSPropertyOp3
 70
     1
102
RTVSPropertyOp4
 70
     1
102
RTVSPropertyOp5
 70
     1
102
RTVSPropertyOp6
 70
     1
102
RTVSPropertyOp7
 70
     1
102
RTVSPropertyOp8
 70
     1
102
RTVSPropertyOp9
 70
     1
102
RTVSPropertyOp10
 70
     1
102
RTVSPropertyOp11
 70
     1
102
RTVSPropertyOp12
 70
     1
102
RTVSPropertyOp13
 70
     1
102
RTVSPropertyOp14
 70
     1
102
RTVSPropertyOp15
 70
     1
102
RTVSPropertyOp16
 70
     1
102
RTVSPropertyOp17
 70
     1
102
RTVSPropertyOp18
 70
     1
102
RTVSPropertyOp19
 70
     1
102
RTVSPropertyOp20
 70
     1
102
RTVSPropertyOp21
 70
     1
102
RTVSPropertyOp22
 70
     1
102
RTVSPropertyOp23
 70
     1
102
RTVSPropertyOp24
 70
     1
102
RTVSPropertyOp25
 70
     1
102
RTVSPropertyOp26
 70
     1
102
RTVSPropertyOp27
 70
     1
102
RTVSPropertyOp28
 70
     1
102
RTVSPropertyOp29
 70
     1
102
RTVSPropertyOp30
 70
     1
102
RTVSPropertyOp31
 70
     1
102
RTVSPropertyOp32
 70
     1
  0
XRECORD
  5
320
102
{ACAD_REACTORS
330
31F
102
}
330
31F
100
AcDbXrecord
280
     1
102
RTVSPropertyOp0
 70
     1
102
RTVSPropertyOp1
 70
     1
102
RTVSPropertyOp2
 70
     1
102
RTVSPropertyOp3
 70
     1
102
RTVSPropertyOp4
 70
     1
102
RTVSPropertyOp5
 70
     1
102
RTVSPropertyOp6
 70
     1
102
RTVSPropertyOp7
 70
     1
102
RTVSPropertyOp8
 70
     1
102
RTVSPropertyOp9
 70
     1
102
RTVSPropertyOp10
 70
     1
102
RTVSPropertyOp11
 70
     1
102
RTVSPropertyOp12
 70
     1
102
RTVSPropertyOp13
 70
     1
102
RTVSPropertyOp14
 70
     1
102
RTVSPropertyOp15
 70
     1
102
RTVSPropertyOp16
 70
     1
102
RTVSPropertyOp17
 70
     1
102
RTVSPropertyOp18
 70
     1
102
RTVSPropertyOp19
 70
     1
102
RTVSPropertyOp20
 70
     1
102
RTVSPropertyOp21
 70
     1
102
RTVSPropertyOp22
 70
     1
102
RTVSPropertyOp23
 70
     1
102
RTVSPropertyOp24
 70
     1
102
RTVSPropertyOp25
 70
     1
102
RTVSPropertyOp26
 70
     1
102
RTVSPropertyOp27
 70
     1
102
RTVSPropertyOp28
 70
     1
102
RTVSPropertyOp29
 70
     1
102
RTVSPropertyOp30
 70
     1
102
RTVSPropertyOp31
 70
     1
102
RTVSPropertyOp32
 70
     1
  0
XRECORD
  5
324
102
{ACAD_REACTORS
330
323
102
}
330
323
100
AcDbXrecord
280
     1
102
RTVSPropertyOp0
 70
     1
102
RTVSPropertyOp1
 70
     1
102
RTVSPropertyOp2
 70
     1
102
RTVSPropertyOp3
 70
     1
102
RTVSPropertyOp4
 70
     1
102
RTVSPropertyOp5
 70
     1
102
RTVSPropertyOp6
 70
     1
102
RTVSPropertyOp7
 70
     1
102
RTVSPropertyOp8
 70
     1
102
RTVSPropertyOp9
 70
     1
102
RTVSPropertyOp10
 70
     1
102
RTVSPropertyOp11
 70
     1
102
RTVSPropertyOp12
 70
     1
102
RTVSPropertyOp13
 70
     1
102
RTVSPropertyOp14
 70
     1
102
RTVSPropertyOp15
 70
     1
102
RTVSPropertyOp16
 70
     1
102
RTVSPropertyOp17
 70
     1
102
RTVSPropertyOp18
 70
     1
102
RTVSPropertyOp19
 70
     1
102
RTVSPropertyOp20
 70
     1
102
RTVSPropertyOp21
 70
     1
102
RTVSPropertyOp22
 70
     1
102
RTVSPropertyOp23
 70
     1
102
RTVSPropertyOp24
 70
     1
102
RTVSPropertyOp25
 70
     1
102
RTVSPropertyOp26
 70
     1
102
RTVSPropertyOp27
 70
     1
102
RTVSPropertyOp28
 70
     1
102
RTVSPropertyOp29
 70
     1
102
RTVSPropertyOp30
 70
     1
102
RTVSPropertyOp31
 70
     1
102
RTVSPropertyOp32
 70
     1
  0
XRECORD
  5
32C
102
{ACAD_REACTORS
330
32B
102
}
330
32B
100
AcDbXrecord
280
     1
102
RTVSPropertyOp0
 70
     1
102
RTVSPropertyOp1
 70
     1
102
RTVSPropertyOp2
 70
     1
102
RTVSPropertyOp3
 70
     1
102
RTVSPropertyOp4
 70
     1
102
RTVSPropertyOp5
 70
     1
102
RTVSPropertyOp6
 70
     1
102
RTVSPropertyOp7
 70
     1
102
RTVSPropertyOp8
 70
     1
102
RTVSPropertyOp9
 70
     1
102
RTVSPropertyOp10
 70
     1
102
RTVSPropertyOp11
 70
     1
102
RTVSPropertyOp12
 70
     1
102
RTVSPropertyOp13
 70
     1
102
RTVSPropertyOp14
 70
     1
102
RTVSPropertyOp15
 70
     1
102
RTVSPropertyOp16
 70
     1
102
RTVSPropertyOp17
 70
     1
102
RTVSPropertyOp18
 70
     1
102
RTVSPropertyOp19
 70
     1
102
RTVSPropertyOp20
 70
     1
102
RTVSPropertyOp21
 70
     1
102
RTVSPropertyOp22
 70
     1
102
RTVSPropertyOp23
 70
     1
102
RTVSPropertyOp24
 70
     1
102
RTVSPropertyOp25
 70
     1
102
RTVSPropertyOp26
 70
     1
102
RTVSPropertyOp27
 70
     1
102
RTVSPropertyOp28
 70
     1
102
RTVSPropertyOp29
 70
     1
102
RTVSPropertyOp30
 70
     1
102
RTVSPropertyOp31
 70
     1
102
RTVSPropertyOp32
 70
     1
  0
XRECORD
  5
334
102
{ACAD_REACTORS
330
333
102
}
330
333
100
AcDbXrecord
280
     1
102
RTVSPropertyOp0
 70
     1
102
RTVSPropertyOp1
 70
     1
102
RTVSPropertyOp2
 70
     1
102
RTVSPropertyOp3
 70
     1
102
RTVSPropertyOp4
 70
     1
102
RTVSPropertyOp5
 70
     1
102
RTVSPropertyOp6
 70
     1
102
RTVSPropertyOp7
 70
     1
102
RTVSPropertyOp8
 70
     1
102
RTVSPropertyOp9
 70
     1
102
RTVSPropertyOp10
 70
     1
102
RTVSPropertyOp11
 70
     1
102
RTVSPropertyOp12
 70
     1
102
RTVSPropertyOp13
 70
     1
102
RTVSPropertyOp14
 70
     1
102
RTVSPropertyOp15
 70
     1
102
RTVSPropertyOp16
 70
     1
102
RTVSPropertyOp17
 70
     1
102
RTVSPropertyOp18
 70
     1
102
RTVSPropertyOp19
 70
     1
102
RTVSPropertyOp20
 70
     1
102
RTVSPropertyOp21
 70
     1
102
RTVSPropertyOp22
 70
     1
102
RTVSPropertyOp23
 70
     1
102
RTVSPropertyOp24
 70
     1
102
RTVSPropertyOp25
 70
     1
102
RTVSPropertyOp26
 70
     1
102
RTVSPropertyOp27
 70
     1
102
RTVSPropertyOp28
 70
     1
102
RTVSPropertyOp29
 70
     1
102
RTVSPropertyOp30
 70
     1
102
RTVSPropertyOp31
 70
     1
102
RTVSPropertyOp32
 70
     1
  0
XRECORD
  5
328
102
{ACAD_REACTORS
330
327
102
}
330
327
100
AcDbXrecord
280
     1
102
RTVSPropertyOp0
 70
     1
102
RTVSPropertyOp1
 70
     1
102
RTVSPropertyOp2
 70
     1
102
RTVSPropertyOp3
 70
     1
102
RTVSPropertyOp4
 70
     1
102
RTVSPropertyOp5
 70
     1
102
RTVSPropertyOp6
 70
     1
102
RTVSPropertyOp7
 70
     1
102
RTVSPropertyOp8
 70
     1
102
RTVSPropertyOp9
 70
     1
102
RTVSPropertyOp10
 70
     1
102
RTVSPropertyOp11
 70
     1
102
RTVSPropertyOp12
 70
     1
102
RTVSPropertyOp13
 70
     1
102
RTVSPropertyOp14
 70
     1
102
RTVSPropertyOp15
 70
     1
102
RTVSPropertyOp16
 70
     1
102
RTVSPropertyOp17
 70
     1
102
RTVSPropertyOp18
 70
     1
102
RTVSPropertyOp19
 70
     1
102
RTVSPropertyOp20
 70
     1
102
RTVSPropertyOp21
 70
     1
102
RTVSPropertyOp22
 70
     1
102
RTVSPropertyOp23
 70
     1
102
RTVSPropertyOp24
 70
     1
102
RTVSPropertyOp25
 70
     1
102
RTVSPropertyOp26
 70
     1
102
RTVSPropertyOp27
 70
     1
102
RTVSPropertyOp28
 70
     1
102
RTVSPropertyOp29
 70
     1
102
RTVSPropertyOp30
 70
     1
102
RTVSPropertyOp31
 70
     1
102
RTVSPropertyOp32
 70
     1
  0
XRECORD
  5
32A
102
{ACAD_REACTORS
330
329
102
}
330
329
100
AcDbXrecord
280
     1
102
RTVSPropertyOp0
 70
     1
102
RTVSPropertyOp1
 70
     1
102
RTVSPropertyOp2
 70
     1
102
RTVSPropertyOp3
 70
     1
102
RTVSPropertyOp4
 70
     1
102
RTVSPropertyOp5
 70
     1
102
RTVSPropertyOp6
 70
     1
102
RTVSPropertyOp7
 70
     1
102
RTVSPropertyOp8
 70
     1
102
RTVSPropertyOp9
 70
     1
102
RTVSPropertyOp10
 70
     1
102
RTVSPropertyOp11
 70
     1
102
RTVSPropertyOp12
 70
     1
102
RTVSPropertyOp13
 70
     1
102
RTVSPropertyOp14
 70
     1
102
RTVSPropertyOp15
 70
     1
102
RTVSPropertyOp16
 70
     1
102
RTVSPropertyOp17
 70
     1
102
RTVSPropertyOp18
 70
     1
102
RTVSPropertyOp19
 70
     1
102
RTVSPropertyOp20
 70
     1
102
RTVSPropertyOp21
 70
     1
102
RTVSPropertyOp22
 70
     1
102
RTVSPropertyOp23
 70
     1
102
RTVSPropertyOp24
 70
     1
102
RTVSPropertyOp25
 70
     1
102
RTVSPropertyOp26
 70
     1
102
RTVSPropertyOp27
 70
     1
102
RTVSPropertyOp28
 70
     1
102
RTVSPropertyOp29
 70
     1
102
RTVSPropertyOp30
 70
     1
102
RTVSPropertyOp31
 70
     1
102
RTVSPropertyOp32
 70
     1
  0
XRECORD
  5
332
102
{ACAD_REACTORS
330
331
102
}
330
331
100
AcDbXrecord
280
     1
102
RTVSPropertyOp0
 70
     1
102
RTVSPropertyOp1
 70
     1
102
RTVSPropertyOp2
 70
     1
102
RTVSPropertyOp3
 70
     1
102
RTVSPropertyOp4
 70
     1
102
RTVSPropertyOp5
 70
     1
102
RTVSPropertyOp6
 70
     1
102
RTVSPropertyOp7
 70
     1
102
RTVSPropertyOp8
 70
     1
102
RTVSPropertyOp9
 70
     1
102
RTVSPropertyOp10
 70
     1
102
RTVSPropertyOp11
 70
     1
102
RTVSPropertyOp12
 70
     1
102
RTVSPropertyOp13
 70
     1
102
RTVSPropertyOp14
 70
     1
102
RTVSPropertyOp15
 70
     1
102
RTVSPropertyOp16
 70
     1
102
RTVSPropertyOp17
 70
     1
102
RTVSPropertyOp18
 70
     1
102
RTVSPropertyOp19
 70
     1
102
RTVSPropertyOp20
 70
     1
102
RTVSPropertyOp21
 70
     1
102
RTVSPropertyOp22
 70
     1
102
RTVSPropertyOp23
 70
     1
102
RTVSPropertyOp24
 70
     1
102
RTVSPropertyOp25
 70
     1
102
RTVSPropertyOp26
 70
     1
102
RTVSPropertyOp27
 70
     1
102
RTVSPropertyOp28
 70
     1
102
RTVSPropertyOp29
 70
     1
102
RTVSPropertyOp30
 70
     1
102
RTVSPropertyOp31
 70
     1
102
RTVSPropertyOp32
 70
     1
  0
XRECORD
  5
316
102
{ACAD_REACTORS
330
315
102
}
330
315
100
AcDbXrecord
280
     1
102
RTVSPropertyOp0
 70
     1
102
RTVSPropertyOp1
 70
     1
102
RTVSPropertyOp2
 70
     1
102
RTVSPropertyOp3
 70
     1
102
RTVSPropertyOp4
 70
     1
102
RTVSPropertyOp5
 70
     1
102
RTVSPropertyOp6
 70
     1
102
RTVSPropertyOp7
 70
     1
102
RTVSPropertyOp8
 70
     1
102
RTVSPropertyOp9
 70
     1
102
RTVSPropertyOp10
 70
     1
102
RTVSPropertyOp11
 70
     1
102
RTVSPropertyOp12
 70
     1
102
RTVSPropertyOp13
 70
     1
102
RTVSPropertyOp14
 70
     1
102
RTVSPropertyOp15
 70
     1
102
RTVSPropertyOp16
 70
     1
102
RTVSPropertyOp17
 70
     1
102
RTVSPropertyOp18
 70
     1
102
RTVSPropertyOp19
 70
     1
102
RTVSPropertyOp20
 70
     1
102
RTVSPropertyOp21
 70
     1
102
RTVSPropertyOp22
 70
     1
102
RTVSPropertyOp23
 70
     1
102
RTVSPropertyOp24
 70
     1
102
RTVSPropertyOp25
 70
     1
102
RTVSPropertyOp26
 70
     1
102
RTVSPropertyOp27
 70
     1
102
RTVSPropertyOp28
 70
     1
102
RTVSPropertyOp29
 70
     1
102
RTVSPropertyOp30
 70
     1
102
RTVSPropertyOp31
 70
     1
102
RTVSPropertyOp32
 70
     1
  0
XRECORD
  5
318
102
{ACAD_REACTORS
330
317
102
}
330
317
100
AcDbXrecord
280
     1
102
RTVSPropertyOp0
 70
     1
102
RTVSPropertyOp1
 70
     1
102
RTVSPropertyOp2
 70
     1
102
RTVSPropertyOp3
 70
     1
102
RTVSPropertyOp4
 70
     1
102
RTVSPropertyOp5
 70
     1
102
RTVSPropertyOp6
 70
     1
102
RTVSPropertyOp7
 70
     1
102
RTVSPropertyOp8
 70
     1
102
RTVSPropertyOp9
 70
     1
102
RTVSPropertyOp10
 70
     1
102
RTVSPropertyOp11
 70
     1
102
RTVSPropertyOp12
 70
     1
102
RTVSPropertyOp13
 70
     1
102
RTVSPropertyOp14
 70
     1
102
RTVSPropertyOp15
 70
     1
102
RTVSPropertyOp16
 70
     1
102
RTVSPropertyOp17
 70
     1
102
RTVSPropertyOp18
 70
     1
102
RTVSPropertyOp19
 70
     1
102
RTVSPropertyOp20
 70
     1
102
RTVSPropertyOp21
 70
     1
102
RTVSPropertyOp22
 70
     1
102
RTVSPropertyOp23
 70
     1
102
RTVSPropertyOp24
 70
     1
102
RTVSPropertyOp25
 70
     1
102
RTVSPropertyOp26
 70
     1
102
RTVSPropertyOp27
 70
     1
102
RTVSPropertyOp28
 70
     1
102
RTVSPropertyOp29
 70
     1
102
RTVSPropertyOp30
 70
     1
102
RTVSPropertyOp31
 70
     1
102
RTVSPropertyOp32
 70
     1
  0
XRECORD
  5
31A
102
{ACAD_REACTORS
330
319
102
}
330
319
100
AcDbXrecord
280
     1
102
RTVSPropertyOp0
 70
     1
102
RTVSPropertyOp1
 70
     1
102
RTVSPropertyOp2
 70
     1
102
RTVSPropertyOp3
 70
     1
102
RTVSPropertyOp4
 70
     1
102
RTVSPropertyOp5
 70
     1
102
RTVSPropertyOp6
 70
     1
102
RTVSPropertyOp7
 70
     1
102
RTVSPropertyOp8
 70
     1
102
RTVSPropertyOp9
 70
     1
102
RTVSPropertyOp10
 70
     1
102
RTVSPropertyOp11
 70
     1
102
RTVSPropertyOp12
 70
     1
102
RTVSPropertyOp13
 70
     1
102
RTVSPropertyOp14
 70
     1
102
RTVSPropertyOp15
 70
     1
102
RTVSPropertyOp16
 70
     1
102
RTVSPropertyOp17
 70
     1
102
RTVSPropertyOp18
 70
     1
102
RTVSPropertyOp19
 70
     1
102
RTVSPropertyOp20
 70
     1
102
RTVSPropertyOp21
 70
     1
102
RTVSPropertyOp22
 70
     1
102
RTVSPropertyOp23
 70
     1
102
RTVSPropertyOp24
 70
     1
102
RTVSPropertyOp25
 70
     1
102
RTVSPropertyOp26
 70
     1
102
RTVSPropertyOp27
 70
     1
102
RTVSPropertyOp28
 70
     1
102
RTVSPropertyOp29
 70
     1
102
RTVSPropertyOp30
 70
     1
102
RTVSPropertyOp31
 70
     1
102
RTVSPropertyOp32
 70
     1
  0
XRECORD
  5
31C
102
{ACAD_REACTORS
330
31B
102
}
330
31B
100
AcDbXrecord
280
     1
102
RTVSPropertyOp0
 70
     1
102
RTVSPropertyOp1
 70
     1
102
RTVSPropertyOp2
 70
     1
102
RTVSPropertyOp3
 70
     1
102
RTVSPropertyOp4
 70
     1
102
RTVSPropertyOp5
 70
     1
102
RTVSPropertyOp6
 70
     1
102
RTVSPropertyOp7
 70
     1
102
RTVSPropertyOp8
 70
     1
102
RTVSPropertyOp9
 70
     1
102
RTVSPropertyOp10
 70
     1
102
RTVSPropertyOp11
 70
     1
102
RTVSPropertyOp12
 70
     1
102
RTVSPropertyOp13
 70
     1
102
RTVSPropertyOp14
 70
     1
102
RTVSPropertyOp15
 70
     1
102
RTVSPropertyOp16
 70
     1
102
RTVSPropertyOp17
 70
     1
102
RTVSPropertyOp18
 70
     1
102
RTVSPropertyOp19
 70
     1
102
RTVSPropertyOp20
 70
     1
102
RTVSPropertyOp21
 70
     1
102
RTVSPropertyOp22
 70
     1
102
RTVSPropertyOp23
 70
     1
102
RTVSPropertyOp24
 70
     1
102
RTVSPropertyOp25
 70
     1
102
RTVSPropertyOp26
 70
     1
102
RTVSPropertyOp27
 70
     1
102
RTVSPropertyOp28
 70
     1
102
RTVSPropertyOp29
 70
     1
102
RTVSPropertyOp30
 70
     1
102
RTVSPropertyOp31
 70
     1
102
RTVSPropertyOp32
 70
     1
  0
XRECORD
  5
330
102
{ACAD_REACTORS
330
32F
102
}
330
32F
100
AcDbXrecord
280
     1
102
RTVSPropertyOp0
 70
     1
102
RTVSPropertyOp1
 70
     1
102
RTVSPropertyOp2
 70
     1
102
RTVSPropertyOp3
 70
     1
102
RTVSPropertyOp4
 70
     1
102
RTVSPropertyOp5
 70
     1
102
RTVSPropertyOp6
 70
     1
102
RTVSPropertyOp7
 70
     1
102
RTVSPropertyOp8
 70
     1
102
RTVSPropertyOp9
 70
     1
102
RTVSPropertyOp10
 70
     1
102
RTVSPropertyOp11
 70
     1
102
RTVSPropertyOp12
 70
     1
102
RTVSPropertyOp13
 70
     1
102
RTVSPropertyOp14
 70
     1
102
RTVSPropertyOp15
 70
     1
102
RTVSPropertyOp16
 70
     1
102
RTVSPropertyOp17
 70
     1
102
RTVSPropertyOp18
 70
     1
102
RTVSPropertyOp19
 70
     1
102
RTVSPropertyOp20
 70
     1
102
RTVSPropertyOp21
 70
     1
102
RTVSPropertyOp22
 70
     1
102
RTVSPropertyOp23
 70
     1
102
RTVSPropertyOp24
 70
     1
102
RTVSPropertyOp25
 70
     1
102
RTVSPropertyOp26
 70
     1
102
RTVSPropertyOp27
 70
     1
102
RTVSPropertyOp28
 70
     1
102
RTVSPropertyOp29
 70
     1
102
RTVSPropertyOp30
 70
     1
102
RTVSPropertyOp31
 70
     1
102
RTVSPropertyOp32
 70
     1
  0
XRECORD
  5
326
102
{ACAD_REACTORS
330
325
102
}
330
325
100
AcDbXrecord
280
     1
102
RTVSPropertyOp0
 70
     1
102
RTVSPropertyOp1
 70
     1
102
RTVSPropertyOp2
 70
     1
102
RTVSPropertyOp3
 70
     1
102
RTVSPropertyOp4
 70
     1
102
RTVSPropertyOp5
 70
     1
102
RTVSPropertyOp6
 70
     1
102
RTVSPropertyOp7
 70
     1
102
RTVSPropertyOp8
 70
     1
102
RTVSPropertyOp9
 70
     1
102
RTVSPropertyOp10
 70
     1
102
RTVSPropertyOp11
 70
     1
102
RTVSPropertyOp12
 70
     1
102
RTVSPropertyOp13
 70
     1
102
RTVSPropertyOp14
 70
     1
102
RTVSPropertyOp15
 70
     1
102
RTVSPropertyOp16
 70
     1
102
RTVSPropertyOp17
 70
     1
102
RTVSPropertyOp18
 70
     1
102
RTVSPropertyOp19
 70
     1
102
RTVSPropertyOp20
 70
     1
102
RTVSPropertyOp21
 70
     1
102
RTVSPropertyOp22
 70
     1
102
RTVSPropertyOp23
 70
     1
102
RTVSPropertyOp24
 70
     1
102
RTVSPropertyOp25
 70
     1
102
RTVSPropertyOp26
 70
     1
102
RTVSPropertyOp27
 70
     1
102
RTVSPropertyOp28
 70
     1
102
RTVSPropertyOp29
 70
     1
102
RTVSPropertyOp30
 70
     1
102
RTVSPropertyOp31
 70
     1
102
RTVSPropertyOp32
 70
     1
  0
XRECORD
  5
32E
102
{ACAD_REACTORS
330
32D
102
}
330
32D
100
AcDbXrecord
280
     1
102
RTVSPropertyOp0
 70
     1
102
RTVSPropertyOp1
 70
     1
102
RTVSPropertyOp2
 70
     1
102
RTVSPropertyOp3
 70
     1
102
RTVSPropertyOp4
 70
     1
102
RTVSPropertyOp5
 70
     1
102
RTVSPropertyOp6
 70
     1
102
RTVSPropertyOp7
 70
     1
102
RTVSPropertyOp8
 70
     1
102
RTVSPropertyOp9
 70
     1
102
RTVSPropertyOp10
 70
     1
102
RTVSPropertyOp11
 70
     1
102
RTVSPropertyOp12
 70
     1
102
RTVSPropertyOp13
 70
     1
102
RTVSPropertyOp14
 70
     1
102
RTVSPropertyOp15
 70
     1
102
RTVSPropertyOp16
 70
     1
102
RTVSPropertyOp17
 70
     1
102
RTVSPropertyOp18
 70
     1
102
RTVSPropertyOp19
 70
     1
102
RTVSPropertyOp20
 70
     1
102
RTVSPropertyOp21
 70
     1
102
RTVSPropertyOp22
 70
     1
102
RTVSPropertyOp23
 70
     1
102
RTVSPropertyOp24
 70
     1
102
RTVSPropertyOp25
 70
     1
102
RTVSPropertyOp26
 70
     1
102
RTVSPropertyOp27
 70
     1
102
RTVSPropertyOp28
 70
     1
102
RTVSPropertyOp29
 70
     1
102
RTVSPropertyOp30
 70
     1
102
RTVSPropertyOp31
 70
     1
102
RTVSPropertyOp32
 70
     1
  0
ENDSEC
  0
EOF
