  0
SECTION
  2
HEADER
  9
$ACADVER
  1
AC1018
  9
$ACADMAINTVER
 70
     0
  9
$DWGCODEPAGE
  3
ANSI_1252
  9
$INSBASE
 10
0.0
 20
0.0
 30
0.0
  9
$EXTMIN
 10
-75.70000000006888
 20
227.374021708065
 30
0.0
  9
$EXTMAX
 10
344.2999999999295
 20
524.374021708065
 30
0.0
  9
$LIMMIN
 10
0.0
 20
0.0
  9
$LIMMAX
 10
12.0
 20
9.0
  9
$ORTHOMODE
 70
     0
  9
$REGENMODE
 70
     1
  9
$FILLMODE
 70
     1
  9
$QTEXTMODE
 70
     0
  9
$MIRRTEXT
 70
     1
  9
$LTSCALE
 40
1.0
  9
$ATTMODE
 70
     1
  9
$TEXTSIZE
 40
0.2
  9
$TRACEWID
 40
0.05
  9
$TEXTSTYLE
  7
Standard
  9
$CLAYER
  8
0
  9
$CELTYPE
  6
ByLayer
  9
$CECOLOR
 62
   256
  9
$CELTSCALE
 40
1.0
  9
$DISPSILH
 70
     0
  9
$DIMSCALE
 40
1.0
  9
$DIMASZ
 40
0.18
  9
$DIMEXO
 40
0.0625
  9
$DIMDLI
 40
0.38
  9
$DIMRND
 40
0.0
  9
$DIMDLE
 40
0.0
  9
$DIMEXE
 40
0.18
  9
$DIMTP
 40
0.0
  9
$DIMTM
 40
0.0
  9
$DIMTXT
 40
0.18
  9
$DIMCEN
 40
0.09
  9
$DIMTSZ
 40
0.0
  9
$DIMTOL
 70
     0
  9
$DIMLIM
 70
     0
  9
$DIMTIH
 70
     1
  9
$DIMTOH
 70
     1
  9
$DIMSE1
 70
     0
  9
$DIMSE2
 70
     0
  9
$DIMTAD
 70
     0
  9
$DIMZIN
 70
     0
  9
$DIMBLK
  1

  9
$DIMASO
 70
     1
  9
$DIMSHO
 70
     1
  9
$DIMPOST
  1

  9
$DIMAPOST
  1

  9
$DIMALT
 70
     0
  9
$DIMALTD
 70
     2
  9
$DIMALTF
 40
25.4
  9
$DIMLFAC
 40
1.0
  9
$DIMTOFL
 70
     0
  9
$DIMTVP
 40
0.0
  9
$DIMTIX
 70
     0
  9
$DIMSOXD
 70
     0
  9
$DIMSAH
 70
     0
  9
$DIMBLK1
  1

  9
$DIMBLK2
  1

  9
$DIMSTYLE
  2
Standard
  9
$DIMCLRD
 70
     0
  9
$DIMCLRE
 70
     0
  9
$DIMCLRT
 70
     0
  9
$DIMTFAC
 40
1.0
  9
$DIMGAP
 40
0.09
  9
$DIMJUST
 70
     0
  9
$DIMSD1
 70
     0
  9
$DIMSD2
 70
     0
  9
$DIMTOLJ
 70
     1
  9
$DIMTZIN
 70
     0
  9
$DIMALTZ
 70
     0
  9
$DIMALTTZ
 70
     0
  9
$DIMUPT
 70
     0
  9
$DIMDEC
 70
     4
  9
$DIMTDEC
 70
     4
  9
$DIMALTU
 70
     2
  9
$DIMALTTD
 70
     2
  9
$DIMTXSTY
  7
Standard
  9
$DIMAUNIT
 70
     0
  9
$DIMADEC
 70
     0
  9
$DIMALTRND
 40
0.0
  9
$DIMAZIN
 70
     0
  9
$DIMDSEP
 70
    46
  9
$DIMATFIT
 70
     3
  9
$DIMFRAC
 70
     0
  9
$DIMLDRBLK
  1

  9
$DIMLUNIT
 70
     2
  9
$DIMLWD
 70
    -2
  9
$DIMLWE
 70
    -2
  9
$DIMTMOVE
 70
     0
  9
$LUNITS
 70
     2
  9
$LUPREC
 70
     4
  9
$SKETCHINC
 40
0.1
  9
$FILLETRAD
 40
0.5
  9
$AUNITS
 70
     0
  9
$AUPREC
 70
     0
  9
$MENU
  1
.
  9
$ELEVATION
 40
0.0
  9
$PELEVATION
 40
0.0
  9
$THICKNESS
 40
0.0
  9
$LIMCHECK
 70
     0
  9
$CHAMFERA
 40
0.0
  9
$CHAMFERB
 40
0.0
  9
$CHAMFERC
 40
0.0
  9
$CHAMFERD
 40
0.0
  9
$SKPOLY
 70
     0
  9
$TDCREATE
 40
2458835.303570984
  9
$TDUCREATE
 40
2458835.261904317
  9
$TDUPDATE
 40
2458835.303571169
  9
$TDUUPDATE
 40
2458835.261904502
  9
$TDINDWG
 40
0.0000000116
  9
$TDUSRTIMER
 40
0.0000000116
  9
$USRTIMER
 70
     1
  9
$ANGBASE
 50
0.0
  9
$ANGDIR
 70
     0
  9
$PDMODE
 70
     0
  9
$PDSIZE
 40
0.0
  9
$PLINEWID
 40
0.0
  9
$SPLFRAME
 70
     0
  9
$SPLINETYPE
 70
     6
  9
$SPLINESEGS
 70
     8
  9
$HANDSEED
  5
364
  9
$SURFTAB1
 70
     6
  9
$SURFTAB2
 70
     6
  9
$SURFTYPE
 70
     6
  9
$SURFU
 70
     6
  9
$SURFV
 70
     6
  9
$UCSBASE
  2

  9
$UCSNAME
  2

  9
$UCSORG
 10
0.0
 20
0.0
 30
0.0
  9
$UCSXDIR
 10
1.0
 20
0.0
 30
0.0
  9
$UCSYDIR
 10
0.0
 20
1.0
 30
0.0
  9
$UCSORTHOREF
  2

  9
$UCSORTHOVIEW
 70
     0
  9
$UCSORGTOP
 10
0.0
 20
0.0
 30
0.0
  9
$UCSORGBOTTOM
 10
0.0
 20
0.0
 30
0.0
  9
$UCSORGLEFT
 10
0.0
 20
0.0
 30
0.0
  9
$UCSORGRIGHT
 10
0.0
 20
0.0
 30
0.0
  9
$UCSORGFRONT
 10
0.0
 20
0.0
 30
0.0
  9
$UCSORGBACK
 10
0.0
 20
0.0
 30
0.0
  9
$PUCSBASE
  2

  9
$PUCSNAME
  2

  9
$PUCSORG
 10
0.0
 20
0.0
 30
0.0
  9
$PUCSXDIR
 10
1.0
 20
0.0
 30
0.0
  9
$PUCSYDIR
 10
0.0
 20
1.0
 30
0.0
  9
$PUCSORTHOREF
  2

  9
$PUCSORTHOVIEW
 70
     0
  9
$PUCSORGTOP
 10
0.0
 20
0.0
 30
0.0
  9
$PUCSORGBOTTOM
 10
0.0
 20
0.0
 30
0.0
  9
$PUCSORGLEFT
 10
0.0
 20
0.0
 30
0.0
  9
$PUCSORGRIGHT
 10
0.0
 20
0.0
 30
0.0
  9
$PUCSORGFRONT
 10
0.0
 20
0.0
 30
0.0
  9
$PUCSORGBACK
 10
0.0
 20
0.0
 30
0.0
  9
$USERI1
 70
     0
  9
$USERI2
 70
     0
  9
$USERI3
 70
     0
  9
$USERI4
 70
     0
  9
$USERI5
 70
     0
  9
$USERR1
 40
20.1
  9
$USERR2
 40
0.0
  9
$USERR3
 40
0.0
  9
$USERR4
 40
0.0
  9
$USERR5
 40
0.0
  9
$WORLDVIEW
 70
     1
  9
$SHADEDGE
 70
     3
  9
$SHADEDIF
 70
    70
  9
$TILEMODE
 70
     1
  9
$MAXACTVP
 70
    64
  9
$PINSBASE
 10
0.0
 20
0.0
 30
0.0
  9
$PLIMCHECK
 70
     0
  9
$PEXTMIN
 10
1.00000000000000E+20
 20
1.00000000000000E+20
 30
1.00000000000000E+20
  9
$PEXTMAX
 10
-1.00000000000000E+20
 20
-1.00000000000000E+20
 30
-1.00000000000000E+20
  9
$PLIMMIN
 10
0.0
 20
0.0
  9
$PLIMMAX
 10
12.0
 20
9.0
  9
$UNITMODE
 70
     0
  9
$VISRETAIN
 70
     1
  9
$PLINEGEN
 70
     0
  9
$PSLTSCALE
 70
     1
  9
$TREEDEPTH
 70
  3020
  9
$CMLSTYLE
  2
Standard
  9
$CMLJUST
 70
     0
  9
$CMLSCALE
 40
1.0
  9
$PROXYGRAPHICS
 70
     1
  9
$MEASUREMENT
 70
     1
  9
$CELWEIGHT
370
    -1
  9
$ENDCAPS
280
     0
  9
$JOINSTYLE
280
     0
  9
$LWDISPLAY
290
     0
  9
$INSUNITS
 70
     4
  9
$HYPERLINKBASE
  1

  9
$STYLESHEET
  1

  9
$XEDIT
290
     1
  9
$CEPSNTYPE
380
     0
  9
$PSTYLEMODE
290
     1
  9
$FINGERPRINTGUID
  2
{ea4ab011-b70c-4a26-b3b7-55ac91e62558}
  9
$VERSIONGUID
  2
{FAEB1C32-E019-11D5-929B-00C0DF256EC4}
  9
$EXTNAMES
290
     1
  9
$PSVPSCALE
 40
0.0
  9
$OLESTARTUP
290
     0
  9
$SORTENTS
280
   127
  9
$INDEXCTL
280
     0
  9
$HIDETEXT
280
     1
  9
$XCLIPFRAME
290
     0
  9
$HALOGAP
280
     0
  9
$OBSCOLOR
 70
   257
  9
$OBSLTYPE
280
     0
  9
$INTERSECTIONDISPLAY
280
     0
  9
$INTERSECTIONCOLOR
 70
   257
  9
$DIMASSOC
280
     2
  9
$PROJECTNAME
  1

  0
ENDSEC
  0
SECTION
  2
CLASSES
  0
CLASS
  1
ACDBDICTIONARYWDFLT
  2
AcDbDictionaryWithDefault
  3
ObjectDBX Classes
 90
        0
 91
        3
280
     0
281
     0
  0
CLASS
  1
VISUALSTYLE
  2
AcDbVisualStyle
  3
ObjectDBX Classes
 90
     4095
 91
        3
280
     0
281
     0
  0
CLASS
  1
MATERIAL
  2
AcDbMaterial
  3
ObjectDBX Classes
 90
     1153
 91
        3
280
     0
281
     0
  0
CLASS
  1
SCALE
  2
AcDbScale
  3
ObjectDBX Classes
 90
     1153
 91
        3
280
     0
281
     0
  0
CLASS
  1
TABLESTYLE
  2
AcDbTableStyle
  3
ObjectDBX Classes
 90
     4095
 91
        3
280
     0
281
     0
  0
CLASS
  1
MLEADERSTYLE
  2
AcDbMLeaderStyle
  3
ACDB_MLEADERSTYLE_CLASS
 90
     4095
 91
        3
280
     0
281
     0
  0
CLASS
  1
SUN
  2
AcDbSun
  3
SCENEOE
 90
     1153
 91
        3
280
     0
281
     0
  0
CLASS
  1
DICTIONARYVAR
  2
AcDbDictionaryVar
  3
ObjectDBX Classes
 90
        0
 91
        3
280
     0
281
     0
  0
CLASS
  1
CELLSTYLEMAP
  2
AcDbCellStyleMap
  3
ObjectDBX Classes
 90
     1152
 91
        3
280
     0
281
     0
  0
ENDSEC
  0
SECTION
  2
TABLES
  0
TABLE
  2
VPORT
  5
8
102
{ACAD_XDICTIONARY
360
31D
102
}
330
0
100
AcDbSymbolTable
 70
     1
  0
VPORT
  5
29
330
8
100
AcDbSymbolTableRecord
100
AcDbViewportTableRecord
  2
*Active
 70
     0
 10
0.0
 20
0.0
 11
1.0
 21
1.0
 12
134.2999999999303
 22
375.874021708065
 13
0.0
 23
0.0
 14
0.5
 24
0.5
 15
0.5
 25
0.5
 16
0.0
 26
0.0
 36
1.0
 17
0.0
 27
0.0
 37
0.0
 40
326.7
 41
1.60267857142857
 42
50.0
 43
0.0
 44
0.0
 50
0.0
 51
0.0
 71
     0
 72
   100
 73
     1
 74
     3
 75
     0
 76
     0
 77
     0
 78
     0
281
     0
 65
     1
110
0.0
120
0.0
130
0.0
111
1.0
121
0.0
131
0.0
112
0.0
122
1.0
132
0.0
 79
     0
146
0.0
  0
ENDTAB
  0
TABLE
  2
LTYPE
  5
5
330
0
100
AcDbSymbolTable
 70
     8
  0
LTYPE
  5
14
330
5
100
AcDbSymbolTableRecord
100
AcDbLinetypeTableRecord
  2
ByBlock
 70
     0
  3

 72
    65
 73
     0
 40
0.0
  0
LTYPE
  5
15
330
5
100
AcDbSymbolTableRecord
100
AcDbLinetypeTableRecord
  2
ByLayer
 70
     0
  3

 72
    65
 73
     0
 40
0.0
  0
LTYPE
  5
16
330
5
100
AcDbSymbolTableRecord
100
AcDbLinetypeTableRecord
  2
Continuous
 70
     0
  3
Solid line
 72
    65
 73
     0
 40
0.0
  0
LTYPE
  5
6E
330
5
100
AcDbSymbolTableRecord
100
AcDbLinetypeTableRecord
  2
DASHED
 70
     0
  3
Dashed
 72
    65
 73
     2
 40
15.0
 49
7.0
 74
     0
 49
-8.0
 74
     0
  0
LTYPE
  5
6F
330
5
100
AcDbSymbolTableRecord
100
AcDbLinetypeTableRecord
  2
DOTTED
 70
     0
  3
Dotted
 72
    65
 73
     2
 40
1.0
 49
0.0
 74
     0
 49
-1.0
 74
     0
  0
LTYPE
  5
70
330
5
100
AcDbSymbolTableRecord
100
AcDbLinetypeTableRecord
  2
DOT_CENTER
 70
     0
  3
Dot_Center
 72
    65
 73
     4
 40
14.0
 49
12.0
 74
     0
 49
-1.0
 74
     0
 49
0.0
 74
     0
 49
-1.0
 74
     0
  0
LTYPE
  5
71
330
5
100
AcDbSymbolTableRecord
100
AcDbLinetypeTableRecord
  2
LONG_DASHED
 70
     0
  3
Long_Dashed
 72
    65
 73
     2
 40
15.0
 49
10.0
 74
     0
 49
-5.0
 74
     0
  0
LTYPE
  5
72
330
5
100
AcDbSymbolTableRecord
100
AcDbLinetypeTableRecord
  2
DASH_CENTER
 70
     0
  3
Dash_Center
 72
    65
 73
     4
 40
14.0
 49
11.0
 74
     0
 49
-1.0
 74
     0
 49
1.0
 74
     0
 49
-1.0
 74
     0
  0
LTYPE
  5
73
330
5
100
AcDbSymbolTableRecord
100
AcDbLinetypeTableRecord
  2
PHANTOM
 70
     0
  3
Phantom
 72
    65
 73
     6
 40
13.0
 49
10.0
 74
     0
 49
-1.0
 74
     0
 49
0.0
 74
     0
 49
-1.0
 74
     0
 49
0.0
 74
     0
 49
-1.0
 74
     0
  0
LTYPE
  5
74
330
5
100
AcDbSymbolTableRecord
100
AcDbLinetypeTableRecord
  2
CENTER_DASH_DASH
 70
     0
  3
Center_Dash_Dash
 72
    65
 73
     6
 40
14.0
 49
9.0
 74
     0
 49
-1.0
 74
     0
 49
1.0
 74
     0
 49
-1.0
 74
     0
 49
1.0
 74
     0
 49
-1.0
 74
     0
  0
ENDTAB
  0
TABLE
  2
LAYER
  5
2
330
0
100
AcDbSymbolTable
 70
     2
  0
LAYER
  5
10
330
2
100
AcDbSymbolTableRecord
100
AcDbLayerTableRecord
  2
0
 70
     0
 62
     7
  6
Continuous
370
    -3
390
F
  0
LAYER
  5
75
330
2
100
AcDbSymbolTableRecord
100
AcDbLayerTableRecord
  2
1
 70
     0
 62
     7
  6
Continuous
370
    -3
390
F
  0
ENDTAB
  0
TABLE
  2
STYLE
  5
3
330
0
100
AcDbSymbolTable
 70
     5
  0
STYLE
  5
11
330
3
100
AcDbSymbolTableRecord
100
AcDbTextStyleTableRecord
  2
Standard
 70
     0
 40
0.0
 41
1.0
 50
0.0
 71
     0
 42
0.2
  3
txt
  4

  0
STYLE
  5
D2
330
3
100
AcDbSymbolTableRecord
100
AcDbTextStyleTableRecord
  2
CONVERTER_11
 70
     0
 40
0.0
 41
0.9
 50
0.0
 71
     0
 42
0.2
  3
txt.shx
  4

  0
STYLE
  5
2E9
330
3
100
AcDbSymbolTableRecord
100
AcDbTextStyleTableRecord
  2
CONVERTER_12
 70
     0
 40
0.0
 41
0.81
 50
0.0
 71
     0
 42
0.2
  3
txt.shx
  4

  0
STYLE
  5
2EF
330
3
100
AcDbSymbolTableRecord
100
AcDbTextStyleTableRecord
  2
CONVERTER_13
 70
     0
 40
0.0
 41
0.855
 50
0.0
 71
     0
 42
0.2
  3
txt.shx
  4

  0
STYLE
  5
2F2
330
3
100
AcDbSymbolTableRecord
100
AcDbTextStyleTableRecord
  2
CONVERTER_14
 70
     0
 40
0.0
 41
0.72
 50
0.0
 71
     0
 42
0.2
  3
txt.shx
  4

  0
ENDTAB
  0
TABLE
  2
VIEW
  5
6
330
0
100
AcDbSymbolTable
 70
     0
  0
ENDTAB
  0
TABLE
  2
UCS
  5
7
330
0
100
AcDbSymbolTable
 70
     0
  0
ENDTAB
  0
TABLE
  2
APPID
  5
9
330
0
100
AcDbSymbolTable
 70
     2
  0
APPID
  5
12
330
9
100
AcDbSymbolTableRecord
100
AcDbRegAppTableRecord
  2
ACAD
 70
     0
  0
APPID
  5
35C
330
9
100
AcDbSymbolTableRecord
100
AcDbRegAppTableRecord
  2
ACAD_MLEADERVER
 70
     0
  0
ENDTAB
  0
TABLE
  2
DIMSTYLE
  5
A
330
0
100
AcDbSymbolTable
 70
     7
100
AcDbDimStyleTable
  0
DIMSTYLE
105
27
330
A
100
AcDbSymbolTableRecord
100
AcDbDimStyleTableRecord
  2
Standard
 70
     0
178
     0
340
11
  0
DIMSTYLE
105
E4
102
{ACAD_REACTORS
330
E5
102
}
330
A
100
AcDbSymbolTableRecord
100
AcDbDimStyleTableRecord
  2
ME10_DIM_10
 70
     0
 41
3.5
 42
0.0
 44
1.5
 73
     0
 74
     0
 77
     1
 78
     8
140
3.5
147
1.5
172
     1
173
     1
174
     1
175
     1
176
     2
177
     2
178
     3
340
D2
  0
DIMSTYLE
105
10E
102
{ACAD_REACTORS
330
10F
102
}
330
A
100
AcDbSymbolTableRecord
100
AcDbDimStyleTableRecord
  2
ME10_DIM_11
 70
     0
  3
<>
 41
3.5
 42
0.0
 44
2.0
 73
     0
 74
     0
 77
     1
 78
     8
140
3.5
147
2.0
172
     1
173
     1
174
     1
175
     1
176
     2
177
     2
178
     3
340
D2
  0
DIMSTYLE
105
119
102
{ACAD_REACTORS
330
11A
102
}
330
A
100
AcDbSymbolTableRecord
100
AcDbDimStyleTableRecord
  2
ME10_DIM_12
 70
     0
 41
3.5
 42
0.0
 44
2.0
 73
     0
 74
     0
 77
     1
 78
     8
140
3.5
147
2.0
172
     1
173
     1
174
     1
175
     1
176
     2
177
     2
178
     3
340
D2
  0
DIMSTYLE
105
124
102
{ACAD_REACTORS
330
125
102
}
330
A
100
AcDbSymbolTableRecord
100
AcDbDimStyleTableRecord
  2
ME10_DIM_13
 70
     0
 41
3.5
 42
0.0
 44
2.0
 73
     0
 74
     0
 77
     1
 78
     8
140
3.5
147
2.0
172
     1
173
     1
174
     1
175
     1
176
     2
177
     2
178
     3
340
D2
  0
DIMSTYLE
105
12F
102
{ACAD_REACTORS
330
130
102
}
330
A
100
AcDbSymbolTableRecord
100
AcDbDimStyleTableRecord
  2
ME10_DIM_14
 70
     0
 41
3.5
 42
0.0
 44
2.0
 73
     0
 74
     0
 77
     1
 78
     8
140
3.5
147
2.0
172
     1
173
     1
174
     1
175
     1
176
     2
177
     2
271
     2
178
     3
271
     2
340
D2
  0
DIMSTYLE
105
13A
102
{ACAD_REACTORS
330
13B
102
}
330
A
100
AcDbSymbolTableRecord
100
AcDbDimStyleTableRecord
  2
ME10_DIM_15
 70
     0
 41
3.5
 42
0.0
 44
2.0
 73
     0
 74
     0
 77
     1
 78
     8
140
3.5
147
2.0
172
     1
173
     1
174
     1
175
     1
176
     2
177
     2
178
     3
340
D2
  0
ENDTAB
  0
TABLE
  2
BLOCK_RECORD
  5
1
330
0
100
AcDbSymbolTable
 70
    23
  0
BLOCK_RECORD
  5
1F
330
1
100
AcDbSymbolTableRecord
100
AcDbBlockTableRecord
  2
*Model_Space
340
22
  0
BLOCK_RECORD
  5
1B
330
1
100
AcDbSymbolTableRecord
100
AcDbBlockTableRecord
  2
*Paper_Space
340
1E
  0
BLOCK_RECORD
  5
23
330
1
100
AcDbSymbolTableRecord
100
AcDbBlockTableRecord
  2
*Paper_Space0
340
26
  0
BLOCK_RECORD
  5
76
330
1
100
AcDbSymbolTableRecord
100
AcDbBlockTableRecord
  2
SFP_1_20_120AC-select__1
340
0
102
{BLKREFS
331
7A
102
}
  0
BLOCK_RECORD
  5
79
330
1
100
AcDbSymbolTableRecord
100
AcDbBlockTableRecord
  2
Allg1
340
0
102
{BLKREFS
331
AC
102
}
  0
BLOCK_RECORD
  5
7D
330
1
100
AcDbSymbolTableRecord
100
AcDbBlockTableRecord
  2
SFP_1_20_120AC-select__2
340
0
102
{BLKREFS
331
81
102
}
  0
BLOCK_RECORD
  5
80
330
1
100
AcDbSymbolTableRecord
100
AcDbBlockTableRecord
  2
Drfsicht1
340
0
102
{BLKREFS
331
AD
102
}
  0
BLOCK_RECORD
  5
84
330
1
100
AcDbSymbolTableRecord
100
AcDbBlockTableRecord
  2
SFP_1_20_120AC-select__3
340
0
102
{BLKREFS
331
88
102
}
  0
BLOCK_RECORD
  5
87
330
1
100
AcDbSymbolTableRecord
100
AcDbBlockTableRecord
  2
Rcksicht1
340
0
102
{BLKREFS
331
AE
102
}
  0
BLOCK_RECORD
  5
8B
330
1
100
AcDbSymbolTableRecord
100
AcDbBlockTableRecord
  2
SFP_1_20_120AC-select__4
340
0
102
{BLKREFS
331
8F
102
}
  0
BLOCK_RECORD
  5
8E
330
1
100
AcDbSymbolTableRecord
100
AcDbBlockTableRecord
  2
Vordans1
340
0
102
{BLKREFS
331
AF
102
}
  0
BLOCK_RECORD
  5
92
330
1
100
AcDbSymbolTableRecord
100
AcDbBlockTableRecord
  2
SFP_1_20_120AC-select__5
340
0
102
{BLKREFS
331
96
102
}
  0
BLOCK_RECORD
  5
95
330
1
100
AcDbSymbolTableRecord
100
AcDbBlockTableRecord
  2
SA_links1
340
0
102
{BLKREFS
331
B0
102
}
  0
BLOCK_RECORD
  5
99
330
1
100
AcDbSymbolTableRecord
100
AcDbBlockTableRecord
  2
SFP_1_20_120AC-select__6
340
0
102
{BLKREFS
331
9D
102
}
  0
BLOCK_RECORD
  5
9C
330
1
100
AcDbSymbolTableRecord
100
AcDbBlockTableRecord
  2
SA_rechts1
340
0
102
{BLKREFS
331
B1
102
}
  0
BLOCK_RECORD
  5
A0
330
1
100
AcDbSymbolTableRecord
100
AcDbBlockTableRecord
  2
_rahmen
340
0
102
{BLKREFS
331
A7
102
}
  0
BLOCK_RECORD
  5
A3
330
1
100
AcDbSymbolTableRecord
100
AcDbBlockTableRecord
  2
_punkt
340
0
102
{BLKREFS
331
A8
102
}
  0
BLOCK_RECORD
  5
A6
330
1
100
AcDbSymbolTableRecord
100
AcDbBlockTableRecord
  2
A3I_CS
340
0
102
{BLKREFS
331
B2
102
}
  0
BLOCK_RECORD
  5
AB
330
1
100
AcDbSymbolTableRecord
100
AcDbBlockTableRecord
  2
1
340
0
102
{BLKREFS
331
B5
102
}
  0
BLOCK_RECORD
  5
DB
330
1
100
AcDbSymbolTableRecord
100
AcDbBlockTableRecord
  2
*D17
340
0
  0
BLOCK_RECORD
  5
105
330
1
100
AcDbSymbolTableRecord
100
AcDbBlockTableRecord
  2
*D18
340
0
  0
BLOCK_RECORD
  5
110
330
1
100
AcDbSymbolTableRecord
100
AcDbBlockTableRecord
  2
*D19
340
0
  0
BLOCK_RECORD
  5
11B
330
1
100
AcDbSymbolTableRecord
100
AcDbBlockTableRecord
  2
*D20
340
0
  0
BLOCK_RECORD
  5
126
330
1
100
AcDbSymbolTableRecord
100
AcDbBlockTableRecord
  2
*D21
340
0
  0
BLOCK_RECORD
  5
131
330
1
100
AcDbSymbolTableRecord
100
AcDbBlockTableRecord
  2
*D22
340
0
  0
ENDTAB
  0
ENDSEC
  0
SECTION
  2
BLOCKS
  0
BLOCK
  5
20
330
1F
100
AcDbEntity
  8
0
100
AcDbBlockBegin
  2
*Model_Space
 70
     0
 10
0.0
 20
0.0
 30
0.0
  3
*Model_Space
  1

  0
ENDBLK
  5
21
330
1F
100
AcDbEntity
  8
0
100
AcDbBlockEnd
  0
BLOCK
  5
1C
330
1B
100
AcDbEntity
 67
     1
  8
0
100
AcDbBlockBegin
  2
*Paper_Space
 70
     0
 10
0.0
 20
0.0
 30
0.0
  3
*Paper_Space
  1

  0
ENDBLK
  5
1D
330
1B
100
AcDbEntity
 67
     1
  8
0
100
AcDbBlockEnd
  0
BLOCK
  5
24
330
23
100
AcDbEntity
  8
0
100
AcDbBlockBegin
  2
*Paper_Space0
 70
     0
 10
0.0
 20
0.0
 30
0.0
  3
*Paper_Space0
  1

  0
ENDBLK
  5
25
330
23
100
AcDbEntity
  8
0
100
AcDbBlockEnd
  0
BLOCK
  5
77
330
76
100
AcDbEntity
  8
0
100
AcDbBlockBegin
  2
SFP_1_20_120AC-select__1
 70
     0
 10
186.5010968731338
 20
272.2379017410815
 30
0.0
  3
SFP_1_20_120AC-select__1
  1

  0
LINE
  5
B6
330
76
100
AcDbEntity
  8
0
  6
Continuous
 62
     7
100
AcDbLine
 10
242.5010968731337
 20
409.7621007674196
 30
0.0
 11
309.5314631259687
 21
390.4121007674429
 31
0.0
  0
LINE
  5
B7
330
76
100
AcDbEntity
  8
0
  6
Continuous
 62
     7
100
AcDbLine
 10
309.5314631259687
 20
390.4121007674429
 30
0.0
 11
253.5314631259687
 21
341.9146781555143
 31
0.0
  0
LINE
  5
B8
330
76
100
AcDbEntity
  8
0
  6
Continuous
 62
     7
100
AcDbLine
 10
309.5314631259687
 20
390.4121007674429
 30
0.0
 11
309.5314631259687
 21
382.6178721333829
 31
0.0
  0
LINE
  5
B9
330
76
100
AcDbEntity
  8
0
  6
Continuous
 62
     7
100
AcDbLine
 10
309.5314631259687
 20
382.6178721333829
 30
0.0
 11
317.4988968407452
 21
380.3178721333946
 31
0.0
  0
LINE
  5
BA
330
76
100
AcDbEntity
  8
0
  6
Continuous
 62
     7
100
AcDbLine
 10
317.4988968407452
 20
380.3178721333946
 30
0.0
 11
317.4988968407452
 21
320.7353243530101
 31
0.0
  0
LINE
  5
BB
330
76
100
AcDbEntity
  8
0
  6
Continuous
 62
     7
100
AcDbLine
 10
309.5314631259687
 20
382.6178721333829
 30
0.0
 11
253.5314631259687
 21
334.1204495214543
 31
0.0
  0
LINE
  5
BC
330
76
100
AcDbEntity
  8
0
  6
Continuous
 62
     7
100
AcDbLine
 10
317.4988968407452
 20
380.3178721333946
 30
0.0
 11
261.4988968407452
 21
331.820449521466
 31
0.0
  0
LINE
  5
BD
330
76
100
AcDbEntity
  8
0
  6
Continuous
 62
     7
100
AcDbLine
 10
186.5010968731338
 20
298.044823679227
 30
0.0
 11
199.8458583649094
 21
294.192522859453
 31
0.0
  0
LINE
  5
BE
330
76
100
AcDbEntity
  8
0
  6
Continuous
 62
     7
100
AcDbLine
 10
186.5010968731338
 20
298.044823679227
 30
0.0
 11
186.5010968731338
 21
361.264678155491
 31
0.0
  0
LINE
  5
BF
330
76
100
AcDbEntity
  8
0
  6
Continuous
 62
     7
100
AcDbLine
 10
186.5010968731338
 20
361.264678155491
 30
0.0
 11
253.5314631259687
 21
341.9146781555143
 31
0.0
  0
LINE
  5
C0
330
76
100
AcDbEntity
  8
0
  6
Continuous
 62
     7
100
AcDbLine
 10
235.7403574930301
 20
283.8306734924293
 30
0.0
 11
234.497654289256
 21
282.7544609485966
 31
0.0
  0
LINE
  5
C1
330
76
100
AcDbEntity
  8
0
  6
Continuous
 62
     7
100
AcDbLine
 10
212.1460072430441
 20
290.6417757265212
 30
0.0
 11
211.0155294607561
 21
289.662753248646
 31
0.0
  0
LINE
  5
C2
330
76
100
AcDbEntity
  8
0
  6
Continuous
 62
     7
100
AcDbLine
 10
211.0155294607561
 20
289.662753248646
 30
0.0
 11
211.0155294607562
 21
288.2689258992221
 31
0.0
  0
LINE
  5
C3
330
76
100
AcDbEntity
  8
0
  6
Continuous
 62
     7
100
AcDbLine
 10
213.3530971361347
 20
290.2933188891652
 30
0.0
 11
211.0155294607562
 21
288.2689258992221
 31
0.0
  0
LINE
  5
C4
330
76
100
AcDbEntity
  8
0
  6
Continuous
 62
     7
100
AcDbLine
 10
209.8959312834509
 20
290.8521451933034
 30
0.0
 11
211.0155294607561
 21
289.662753248646
 31
0.0
  0
LINE
  5
C5
330
76
100
AcDbEntity
  8
0
  6
Continuous
 62
     7
100
AcDbLine
 10
209.895931283451
 20
291.2913167070053
 30
0.0
 11
209.8959312834509
 21
290.8521451933034
 31
0.0
  0
LINE
  5
C6
330
76
100
AcDbEntity
  8
0
  6
Continuous
 62
     7
100
AcDbLine
 10
210.2762649709354
 20
291.1815238285798
 30
0.0
 11
209.8959312834509
 21
290.8521451933034
 31
0.0
  0
LINE
  5
C7
330
76
100
AcDbEntity
  8
0
  6
Continuous
 62
     7
100
AcDbLine
 10
211.0155294607562
 20
288.2689258992221
 30
0.0
 11
205.9430641466213
 21
289.7332205065075
 31
0.0
  0
LINE
  5
C8
330
76
100
AcDbEntity
  8
0
  6
Continuous
 62
     7
100
AcDbLine
 10
236.0608073389654
 20
283.7381675900231
 30
0.0
 11
209.895931283451
 21
291.2913167070053
 31
0.0
  0
LINE
  5
C9
330
76
100
AcDbEntity
  8
0
  6
Continuous
 62
     7
100
AcDbLine
 10
234.497654289256
 20
282.7544609485966
 30
0.0
 11
236.0608073389654
 21
283.7381675900231
 31
0.0
  0
LINE
  5
CA
330
76
100
AcDbEntity
  8
0
  6
Continuous
 62
     7
100
AcDbLine
 10
238.1162109385654
 20
278.9879017410815
 30
0.0
 11
234.497654289256
 21
282.7544609485966
 31
0.0
  0
LINE
  5
CB
330
76
100
AcDbEntity
  8
0
  6
Continuous
 62
     7
100
AcDbLine
 10
261.4988968407452
 20
272.2379017410815
 30
0.0
 11
238.1162109385654
 21
278.9879017410815
 31
0.0
  0
LINE
  5
CC
330
76
100
AcDbEntity
  8
0
  6
Continuous
 62
     7
100
AcDbLine
 10
261.4988968407452
 20
331.820449521466
 30
0.0
 11
261.4988968407452
 21
272.2379017410815
 31
0.0
  0
LINE
  5
CD
330
76
100
AcDbEntity
  8
0
  6
Continuous
 62
     7
100
AcDbLine
 10
253.5314631259687
 20
334.1204495214543
 30
0.0
 11
261.4988968407452
 21
331.820449521466
 31
0.0
  0
LINE
  5
CE
330
76
100
AcDbEntity
  8
0
  6
Continuous
 62
     7
100
AcDbLine
 10
253.5314631259687
 20
341.9146781555143
 30
0.0
 11
253.5314631259687
 21
334.1204495214543
 31
0.0
  0
LINE
  5
CF
330
76
100
AcDbEntity
  8
0
  6
Continuous
 62
     7
100
AcDbLine
 10
317.4988968407452
 20
320.7353243530101
 30
0.0
 11
261.4988968407452
 21
272.2379017410815
 31
0.0
  0
LINE
  5
D0
330
76
100
AcDbEntity
  8
0
  6
Continuous
 62
     7
100
AcDbLine
 10
205.9430641466213
 20
289.7332205065075
 30
0.0
 11
199.8458583649094
 21
294.192522859453
 31
0.0
  0
LINE
  5
D1
330
76
100
AcDbEntity
  8
0
  6
Continuous
 62
     7
100
AcDbLine
 10
242.5010968731337
 20
409.7621007674196
 30
0.0
 11
186.5010968731338
 21
361.264678155491
 31
0.0
  0
ENDBLK
  5
78
330
76
100
AcDbEntity
  8
0
100
AcDbBlockEnd
  0
BLOCK
  5
7B
330
79
100
AcDbEntity
  8
0
100
AcDbBlockBegin
  2
Allg1
 70
     0
 10
252.0000000000003
 20
340.9999999999999
 30
0.0
  3
Allg1
  1

  0
INSERT
  5
7A
330
79
100
AcDbEntity
  8
0
100
AcDbBlockReference
  2
SFP_1_20_120AC-select__1
 10
186.5010968731338
 20
272.2379017410815
 30
0.0
  0
MTEXT
  5
D3
330
79
100
AcDbEntity
  8
1
 62
     6
100
AcDbMText
 10
252.0000000000001
 20
267.2378995727122
 30
0.0
 40
5.0
 41
0.0
 71
     2
 72
     1
  1
 
  7
CONVERTER_11
 73
     1
 44
1.32052821128451
  0
ENDBLK
  5
7C
330
79
100
AcDbEntity
  8
0
100
AcDbBlockEnd
  0
BLOCK
  5
7E
330
7D
100
AcDbEntity
  8
0
100
AcDbBlockBegin
  2
SFP_1_20_120AC-select__2
 70
     0
 10
53.0769660213504
 20
248.4857824161214
 30
0.0
  3
SFP_1_20_120AC-select__2
  1

  0
LINE
  5
D4
330
7D
100
AcDbEntity
  8
0
  6
Continuous
 62
     7
100
AcDbLine
 10
130.4769660212573
 20
360.4857824161214
 30
0.0
 11
130.4769660212573
 21
248.4857824161214
 31
0.0
  0
LINE
  5
D5
330
7D
100
AcDbEntity
  8
0
  6
Continuous
 62
     7
100
AcDbLine
 10
53.0769660213504
 20
248.4857824161214
 30
0.0
 11
130.4769660212573
 21
248.4857824161214
 31
0.0
  0
LINE
  5
D6
330
7D
100
AcDbEntity
  8
0
  6
Continuous
 62
     7
100
AcDbLine
 10
53.0769660213504
 20
360.4857824161214
 30
0.0
 11
130.4769660212573
 21
360.4857824161214
 31
0.0
  0
LINE
  5
D7
330
7D
100
AcDbEntity
  8
0
  6
Continuous
 62
     7
100
AcDbLine
 10
130.4769660212573
 20
248.4857824161214
 30
0.0
 11
139.6769660212108
 21
248.4857824161214
 31
0.0
  0
LINE
  5
D8
330
7D
100
AcDbEntity
  8
0
  6
Continuous
 62
     7
100
AcDbLine
 10
130.4769660212573
 20
360.4857824161214
 30
0.0
 11
139.6769660212108
 21
360.4857824161214
 31
0.0
  0
LINE
  5
D9
330
7D
100
AcDbEntity
  8
0
  6
Continuous
 62
     7
100
AcDbLine
 10
53.0769660213504
 20
360.4857824161214
 30
0.0
 11
53.0769660213504
 21
248.4857824161214
 31
0.0
  0
LINE
  5
DA
330
7D
100
AcDbEntity
  8
0
  6
Continuous
 62
     7
100
AcDbLine
 10
139.6769660212108
 20
360.4857824161214
 30
0.0
 11
139.6769660212108
 21
248.4857824161214
 31
0.0
  0
ENDBLK
  5
7F
330
7D
100
AcDbEntity
  8
0
100
AcDbBlockEnd
  0
BLOCK
  5
82
330
80
100
AcDbEntity
  8
0
100
AcDbBlockBegin
  2
Drfsicht1
 70
     0
 10
96.3769660212806
 20
304.4857824161214
 30
0.0
  3
Drfsicht1
  1

  0
INSERT
  5
81
330
80
100
AcDbEntity
  8
0
100
AcDbBlockReference
  2
SFP_1_20_120AC-select__2
 10
53.0769660213504
 20
248.4857824161214
 30
0.0
  0
DIMENSION
  5
E5
330
80
100
AcDbEntity
  8
1
100
AcDbDimension
  2
*D17
 10
43.0769660213504
 20
248.4857824161214
 30
0.0
 11
39.8269660213504
 21
305.6736939218533
 31
0.0
 70
    32
  1
<>
 71
     5
 42
-1.0
 53
90.0
  3
ME10_DIM_10
100
AcDbAlignedDimension
 13
53.0769660213504
 23
360.4857824161214
 33
0.0
 14
53.0769660213504
 24
248.4857824161214
 34
0.0
 50
90.0
100
AcDbRotatedDimension
  0
ENDBLK
  5
83
330
80
100
AcDbEntity
  8
0
100
AcDbBlockEnd
  0
BLOCK
  5
85
330
84
100
AcDbEntity
  8
0
100
AcDbBlockBegin
  2
SFP_1_20_120AC-select__3
 70
     0
 10
242.0000000000003
 20
425.4622609999918
 30
0.0
  3
SFP_1_20_120AC-select__3
  1

  0
LINE
  5
E6
330
84
100
AcDbEntity
  8
0
  6
Continuous
 62
     7
100
AcDbLine
 10
273.1783493111137
 20
428.6053233949771
 30
0.0
 11
271.3733756430451
 21
430.2622610000093
 31
0.0
  0
LINE
  5
E7
330
84
100
AcDbEntity
  8
0
  6
Continuous
 62
     7
100
AcDbLine
 10
269.0000000000003
 20
425.4622609999918
 30
0.0
 11
273.1783493111137
 21
428.6053233949771
 31
0.0
  0
LINE
  5
E8
330
84
100
AcDbEntity
  8
0
  6
Continuous
 62
     7
100
AcDbLine
 10
271.3733756430451
 20
430.2622610000093
 30
0.0
 11
301.5859721109739
 21
430.2622610000093
 31
0.0
  0
LINE
  5
E9
330
84
100
AcDbEntity
  8
0
  6
Continuous
 62
     7
100
AcDbLine
 10
301.5859721109739
 20
430.2622610000093
 30
0.0
 11
301.585972110974
 21
429.7551494166968
 31
0.0
  0
LINE
  5
EA
330
84
100
AcDbEntity
  8
0
  6
Continuous
 62
     7
100
AcDbLine
 10
301.585972110974
 20
429.7551494166968
 30
0.0
 11
300.2931714928712
 21
428.7549572902922
 31
0.0
  0
LINE
  5
EB
330
84
100
AcDbEntity
  8
0
  6
Continuous
 62
     7
100
AcDbLine
 10
300.2931714928712
 20
428.7549572902922
 30
0.0
 11
300.2931714928712
 21
427.1455040995046
 31
0.0
  0
LINE
  5
EC
330
84
100
AcDbEntity
  8
0
  6
Continuous
 62
     7
100
AcDbLine
 10
300.2931714928712
 20
427.1455040995046
 30
0.0
 11
306.1503499220129
 21
427.1455040995046
 31
0.0
  0
LINE
  5
ED
330
84
100
AcDbEntity
  8
0
  6
Continuous
 62
     7
100
AcDbLine
 10
328.5999999998607
 20
503.2622610000093
 30
0.0
 11
251.1999999999538
 21
503.2622610000093
 31
0.0
  0
LINE
  5
EE
330
84
100
AcDbEntity
  8
0
  6
Continuous
 62
     7
100
AcDbLine
 10
242.0000000000003
 20
425.4622609999918
 30
0.0
 11
269.0000000000003
 21
425.4622609999918
 31
0.0
  0
LINE
  5
EF
330
84
100
AcDbEntity
  8
0
  6
Continuous
 62
     7
100
AcDbLine
 10
242.0000000000003
 20
494.2622610000093
 30
0.0
 11
242.0000000000003
 21
425.4622609999918
 31
0.0
  0
LINE
  5
F0
330
84
100
AcDbEntity
  8
0
  6
Continuous
 62
     7
100
AcDbLine
 10
251.1999999999538
 20
494.2622610000093
 30
0.0
 11
242.0000000000003
 21
494.2622610000093
 31
0.0
  0
LINE
  5
F1
330
84
100
AcDbEntity
  8
0
  6
Continuous
 62
     7
100
AcDbLine
 10
251.1999999999538
 20
503.2622610000093
 30
0.0
 11
251.1999999999538
 21
494.2622610000093
 31
0.0
  0
LINE
  5
F2
330
84
100
AcDbEntity
  8
0
  6
Continuous
 62
     7
100
AcDbLine
 10
328.5999999998607
 20
430.2622610000093
 30
0.0
 11
328.5999999998607
 21
503.2622610000093
 31
0.0
  0
LINE
  5
F3
330
84
100
AcDbEntity
  8
0
  6
Continuous
 62
     7
100
AcDbLine
 10
328.5999999998607
 20
430.2622610000093
 30
0.0
 11
313.1907967207647
 21
430.2622610000093
 31
0.0
  0
LINE
  5
F4
330
84
100
AcDbEntity
  8
0
  6
Continuous
 62
     7
100
AcDbLine
 10
306.1503499220129
 20
427.1455040995046
 30
0.0
 11
313.1907967207647
 21
430.2622610000093
 31
0.0
  0
ENDBLK
  5
86
330
84
100
AcDbEntity
  8
0
100
AcDbBlockEnd
  0
BLOCK
  5
89
330
87
100
AcDbEntity
  8
0
100
AcDbBlockBegin
  2
Rcksicht1
 70
     0
 10
285.2999999999305
 20
464.3622610000006
 30
0.0
  3
Rcksicht1
  1

  0
INSERT
  5
88
330
87
100
AcDbEntity
  8
0
100
AcDbBlockReference
  2
SFP_1_20_120AC-select__3
 10
242.0000000000003
 20
425.4622609999918
 30
0.0
  0
ENDBLK
  5
8A
330
87
100
AcDbEntity
  8
0
100
AcDbBlockEnd
  0
BLOCK
  5
8C
330
8B
100
AcDbEntity
  8
0
100
AcDbBlockBegin
  2
SFP_1_20_120AC-select__4
 70
     0
 10
53.07696628401742
 20
425.4622608610804
 30
0.0
  3
SFP_1_20_120AC-select__4
  1

  0
LINE
  5
F5
330
8B
100
AcDbEntity
  8
0
  6
Continuous
 62
     7
100
AcDbLine
 10
53.07696628401742
 20
430.2622608610978
 30
0.0
 11
53.07696628401742
 21
503.2622608610978
 31
0.0
  0
LINE
  5
F6
330
8B
100
AcDbEntity
  8
0
  6
Continuous
 62
     7
100
AcDbLine
 10
110.303590640833
 20
430.2622608610978
 30
0.0
 11
80.09099417290417
 21
430.2622608610978
 31
0.0
  0
LINE
  5
F7
330
8B
100
AcDbEntity
  8
0
  6
Continuous
 62
     7
100
AcDbLine
 10
53.07696628401742
 20
430.2622608610978
 30
0.0
 11
68.48616956311338
 21
430.2622608610978
 31
0.0
  0
LINE
  5
F8
330
8B
100
AcDbEntity
  8
0
  6
Continuous
 62
     7
100
AcDbLine
 10
53.07696628401742
 20
503.2622608610978
 30
0.0
 11
130.4769662839244
 21
503.2622608610978
 31
0.0
  0
LINE
  5
F9
330
8B
100
AcDbEntity
  8
0
  6
Continuous
 62
     7
100
AcDbLine
 10
112.6769662838778
 20
425.4622608610804
 30
0.0
 11
108.4986169727644
 21
428.6053232560656
 31
0.0
  0
LINE
  5
FA
330
8B
100
AcDbEntity
  8
0
  6
Continuous
 62
     7
100
AcDbLine
 10
108.4986169727644
 20
428.6053232560656
 30
0.0
 11
110.303590640833
 21
430.2622608610978
 31
0.0
  0
LINE
  5
FB
330
8B
100
AcDbEntity
  8
0
  6
Continuous
 62
     7
100
AcDbLine
 10
139.6769662838778
 20
425.4622608610804
 30
0.0
 11
112.6769662838778
 21
425.4622608610804
 31
0.0
  0
LINE
  5
FC
330
8B
100
AcDbEntity
  8
0
  6
Continuous
 62
     7
100
AcDbLine
 10
80.09099417290417
 20
430.2622608610978
 30
0.0
 11
80.09099417290408
 21
429.7551492777853
 31
0.0
  0
LINE
  5
FD
330
8B
100
AcDbEntity
  8
0
  6
Continuous
 62
     7
100
AcDbLine
 10
80.09099417290408
 20
429.7551492777853
 30
0.0
 11
81.38379479100688
 21
428.7549571513807
 31
0.0
  0
LINE
  5
FE
330
8B
100
AcDbEntity
  8
0
  6
Continuous
 62
     7
100
AcDbLine
 10
81.38379479100688
 20
428.7549571513807
 30
0.0
 11
81.38379479100698
 21
427.1455039605932
 31
0.0
  0
LINE
  5
FF
330
8B
100
AcDbEntity
  8
0
  6
Continuous
 62
     7
100
AcDbLine
 10
81.38379479100698
 20
427.1455039605932
 30
0.0
 11
75.52661636186528
 21
427.1455039605932
 31
0.0
  0
LINE
  5
100
330
8B
100
AcDbEntity
  8
0
  6
Continuous
 62
     7
100
AcDbLine
 10
139.6769662838778
 20
494.2622608610978
 30
0.0
 11
139.6769662838778
 21
425.4622608610804
 31
0.0
  0
LINE
  5
101
330
8B
100
AcDbEntity
  8
0
  6
Continuous
 62
     7
100
AcDbLine
 10
130.4769662839244
 20
494.2622608610978
 30
0.0
 11
139.6769662838778
 21
494.2622608610978
 31
0.0
  0
LINE
  5
102
330
8B
100
AcDbEntity
  8
0
  6
Continuous
 62
     7
100
AcDbLine
 10
130.4769662839244
 20
503.2622608610978
 30
0.0
 11
130.4769662839244
 21
494.2622608610978
 31
0.0
  0
LINE
  5
103
330
8B
100
AcDbEntity
  8
0
  6
Continuous
 62
     7
100
AcDbLine
 10
75.52661636186528
 20
427.1455039605932
 30
0.0
 11
68.48616956311338
 21
430.2622608610978
 31
0.0
  0
ENDBLK
  5
8D
330
8B
100
AcDbEntity
  8
0
100
AcDbBlockEnd
  0
BLOCK
  5
90
330
8E
100
AcDbEntity
  8
0
100
AcDbBlockBegin
  2
Vordans1
 70
     0
 10
96.37696628394758
 20
464.3622608610891
 30
0.0
  3
Vordans1
  1

  0
INSERT
  5
8F
330
8E
100
AcDbEntity
  8
0
100
AcDbBlockReference
  2
SFP_1_20_120AC-select__4
 10
53.07696628401742
 20
425.4622608610804
 30
0.0
  0
LINE
  5
104
330
8E
100
AcDbEntity
  8
1
  6
DOT_CENTER
 62
     2
100
AcDbLine
 10
92.80359064083336
 20
432.986153736775
 30
0.0
 11
92.80359064083336
 21
422.986153736775
 31
0.0
  0
DIMENSION
  5
10F
330
8E
100
AcDbEntity
  8
1
100
AcDbDimension
  2
*D18
 10
34.54632337193596
 20
425.4622608610804
 30
0.0
 11
30.62132337193595
 21
474.2713914166084
 31
0.0
 70
    32
  1
<>
 71
     5
 42
-1.0
 53
90.0
  3
ME10_DIM_11
100
AcDbAlignedDimension
 13
130.4769662839244
 23
503.2622608610978
 33
0.0
 14
139.6769662838778
 24
425.4622608610804
 34
0.0
 50
90.0
100
AcDbRotatedDimension
  0
DIMENSION
  5
11A
330
8E
100
AcDbEntity
  8
1
100
AcDbDimension
  2
*D19
 10
53.07696628401742
 20
399.3067091667916
 30
0.0
 11
95.4678354245295
 21
403.2317091667916
 31
0.0
 70
    32
  1
<>
 71
     5
 42
-1.0
 53
0.00013888888889
  3
ME10_DIM_12
100
AcDbAlignedDimension
 13
139.6769662838778
 23
425.4622608610804
 33
0.0
 14
53.07696628401742
 24
430.2622608610978
 34
0.0
100
AcDbRotatedDimension
  0
DIMENSION
  5
125
330
8E
100
AcDbEntity
  8
1
100
AcDbDimension
  2
*D20
 10
92.80359064083335
 20
418.4391714974626
 30
0.0
 11
101.6998609131003
 21
422.3641714974626
 31
0.0
 70
    32
  1
<>
 71
     5
 42
-1.0
 53
0.00013888888889
  3
ME10_DIM_13
100
AcDbAlignedDimension
 13
110.303590640833
 23
430.2622608610978
 33
0.0
 14
92.80359064083336
 24
422.986153736775
 34
0.0
100
AcDbRotatedDimension
  0
DIMENSION
  5
130
330
8E
100
AcDbEntity
  8
1
100
AcDbDimension
  2
*D21
 10
92.80359064083338
 20
408.190589565627
 30
0.0
 11
114.7525707464124
 21
412.115589565627
 31
0.0
 70
    32
  1
<>
 71
     5
 42
-1.0
 53
0.00013888888889
  3
ME10_DIM_14
100
AcDbAlignedDimension
 13
139.6769662838778
 23
425.4622608610804
 33
0.0
 14
92.80359064083336
 24
422.986153736775
 34
0.0
100
AcDbRotatedDimension
  0
DIMENSION
  5
13B
330
8E
100
AcDbEntity
  8
1
100
AcDbDimension
  2
*D22
 10
42.54632337193601
 20
430.2622608610978
 30
0.0
 11
38.79632337193601
 21
476.2713914166085
 31
0.0
 70
    32
  1
<>
 71
     5
 42
-1.0
 53
90.0
  3
ME10_DIM_15
100
AcDbAlignedDimension
 13
130.4769662839244
 23
503.2622608610978
 33
0.0
 14
110.303590640833
 24
430.2622608610978
 34
0.0
 50
90.0
100
AcDbRotatedDimension
  0
ENDBLK
  5
91
330
8E
100
AcDbEntity
  8
0
100
AcDbBlockEnd
  0
BLOCK
  5
93
330
92
100
AcDbEntity
  8
0
100
AcDbBlockBegin
  2
SFP_1_20_120AC-select__5
 70
     0
 10
157.5948619699132
 20
425.4622601936845
 30
0.0
  3
SFP_1_20_120AC-select__5
  1

  0
LINE
  5
13C
330
92
100
AcDbEntity
  8
0
  6
Continuous
 62
     7
100
AcDbLine
 10
196.1913886365641
 20
503.2622601937019
 30
0.0
 11
228.5948619699132
 21
503.2622601937019
 31
0.0
  0
LINE
  5
13D
330
92
100
AcDbEntity
  8
0
  6
Continuous
 62
     2
100
AcDbLine
 10
195.1247219699032
 20
474.8622601936932
 30
0.0
 11
197.1247219699033
 21
477.8622601936932
 31
0.0
  0
LINE
  5
13E
330
92
100
AcDbEntity
  8
0
  6
Continuous
 62
     2
100
AcDbLine
 10
197.1247219699033
 20
471.8622601936932
 30
0.0
 11
195.1247219699032
 21
474.8622601936932
 31
0.0
  0
LINE
  5
13F
330
92
100
AcDbEntity
  8
0
  6
Continuous
 62
     2
100
AcDbLine
 10
195.1247219699032
 20
468.8622601936932
 30
0.0
 11
197.1247219699033
 21
471.8622601936932
 31
0.0
  0
LINE
  5
140
330
92
100
AcDbEntity
  8
0
  6
Continuous
 62
     2
100
AcDbLine
 10
197.1247219699032
 20
465.8622601936932
 30
0.0
 11
195.1247219699032
 21
468.8622601936932
 31
0.0
  0
LINE
  5
141
330
92
100
AcDbEntity
  8
0
  6
Continuous
 62
     2
100
AcDbLine
 10
195.1247219699033
 20
462.8622601936932
 30
0.0
 11
197.1247219699032
 21
465.8622601936932
 31
0.0
  0
LINE
  5
142
330
92
100
AcDbEntity
  8
0
  6
Continuous
 62
     2
100
AcDbLine
 10
195.1247219699032
 20
456.8622601936932
 30
0.0
 11
197.1247219699033
 21
459.8622601936932
 31
0.0
  0
LINE
  5
143
330
92
100
AcDbEntity
  8
0
  6
Continuous
 62
     2
100
AcDbLine
 10
197.1247219699032
 20
453.8622601936932
 30
0.0
 11
195.1247219699032
 21
456.8622601936932
 31
0.0
  0
LINE
  5
144
330
92
100
AcDbEntity
  8
0
  6
Continuous
 62
     2
100
AcDbLine
 10
195.1247219699033
 20
450.8622601936932
 30
0.0
 11
197.1247219699032
 21
453.8622601936932
 31
0.0
  0
LINE
  5
145
330
92
100
AcDbEntity
  8
0
  6
Continuous
 62
     2
100
AcDbLine
 10
197.1247219699032
 20
447.8622601936932
 30
0.0
 11
195.1247219699033
 21
450.8622601936932
 31
0.0
  0
LINE
  5
146
330
92
100
AcDbEntity
  8
0
  6
Continuous
 62
     2
100
AcDbLine
 10
195.1247219699032
 20
444.8622601936932
 30
0.0
 11
197.1247219699032
 21
447.8622601936932
 31
0.0
  0
LINE
  5
147
330
92
100
AcDbEntity
  8
0
  6
Continuous
 62
     2
100
AcDbLine
 10
197.1247219699032
 20
441.8622601936932
 30
0.0
 11
195.1247219699032
 21
444.8622601936932
 31
0.0
  0
LINE
  5
148
330
92
100
AcDbEntity
  8
0
  6
Continuous
 62
     2
100
AcDbLine
 10
195.1247219699032
 20
498.8622601936932
 30
0.0
 11
197.1247219699032
 21
501.8622601936932
 31
0.0
  0
LINE
  5
149
330
92
100
AcDbEntity
  8
0
  6
Continuous
 62
     2
100
AcDbLine
 10
195.1247219699032
 20
480.8622601936932
 30
0.0
 11
197.1247219699033
 21
483.8622601936932
 31
0.0
  0
LINE
  5
14A
330
92
100
AcDbEntity
  8
0
  6
Continuous
 62
     2
100
AcDbLine
 10
197.1247219699033
 20
477.8622601936932
 30
0.0
 11
195.1247219699032
 21
480.8622601936932
 31
0.0
  0
LINE
  5
14B
330
92
100
AcDbEntity
  8
0
  6
Continuous
 62
     2
100
AcDbLine
 10
197.1247219699033
 20
483.8622601936932
 30
0.0
 11
195.1247219699032
 21
486.8622601936932
 31
0.0
  0
LINE
  5
14C
330
92
100
AcDbEntity
  8
0
  6
Continuous
 62
     2
100
AcDbLine
 10
195.1247219699032
 20
492.8622601936932
 30
0.0
 11
197.1247219699032
 21
495.8622601936932
 31
0.0
  0
LINE
  5
14D
330
92
100
AcDbEntity
  8
0
  6
Continuous
 62
     2
100
AcDbLine
 10
197.1247219699032
 20
489.8622601936933
 30
0.0
 11
195.1247219699032
 21
492.8622601936932
 31
0.0
  0
LINE
  5
14E
330
92
100
AcDbEntity
  8
0
  6
Continuous
 62
     2
100
AcDbLine
 10
197.1247219699032
 20
495.8622601936932
 30
0.0
 11
195.1247219699032
 21
498.8622601936932
 31
0.0
  0
LINE
  5
14F
330
92
100
AcDbEntity
  8
0
  6
Continuous
 62
     2
100
AcDbLine
 10
197.1247219699032
 20
501.8622601936932
 30
0.0
 11
196.1913886365641
 21
503.2622601937019
 31
0.0
  0
LINE
  5
150
330
92
100
AcDbEntity
  8
0
  6
Continuous
 62
     7
100
AcDbLine
 10
228.5948619699132
 20
430.2622601937019
 30
0.0
 11
228.5948619699132
 21
503.2622601937019
 31
0.0
  0
LINE
  5
151
330
92
100
AcDbEntity
  8
0
  6
Continuous
 62
     2
100
AcDbLine
 10
187.1247219699032
 20
429.8622601936932
 30
0.0
 11
186.2867635665542
 21
428.6053225886698
 31
0.0
  0
LINE
  5
152
330
92
100
AcDbEntity
  8
0
  6
Continuous
 62
     2
100
AcDbLine
 10
186.1913886365641
 20
503.2622601937019
 30
0.0
 11
187.1247219699032
 21
501.8622601936932
 31
0.0
  0
LINE
  5
153
330
92
100
AcDbEntity
  8
0
  6
Continuous
 62
     2
100
AcDbLine
 10
197.1247219699033
 20
459.8622601936932
 30
0.0
 11
195.1247219699033
 21
462.8622601936932
 31
0.0
  0
LINE
  5
154
330
92
100
AcDbEntity
  8
0
  6
Continuous
 62
     2
100
AcDbLine
 10
195.1247219699032
 20
486.8622601936932
 30
0.0
 11
197.1247219699032
 21
489.8622601936933
 31
0.0
  0
LINE
  5
155
330
92
100
AcDbEntity
  8
0
  6
Continuous
 62
     7
100
AcDbLine
 10
228.5948619699132
 20
427.1455032931972
 30
0.0
 11
228.5948619699132
 21
430.2622601937019
 31
0.0
  0
LINE
  5
156
330
92
100
AcDbEntity
  8
0
  6
Continuous
 62
     2
100
AcDbLine
 10
185.1247219699032
 20
426.8622601936932
 30
0.0
 11
186.0580553032424
 21
425.4622601936845
 31
0.0
  0
LINE
  5
157
330
92
100
AcDbEntity
  8
0
  6
Continuous
 62
     2
100
AcDbLine
 10
196.0580553032424
 20
425.4622601936845
 30
0.0
 11
195.1247219699033
 21
426.8622601936932
 31
0.0
  0
LINE
  5
158
330
92
100
AcDbEntity
  8
0
  6
Continuous
 62
     7
100
AcDbLine
 10
228.5948619699132
 20
425.4622601936845
 30
0.0
 11
228.5948619699132
 21
427.1455032931972
 31
0.0
  0
LINE
  5
159
330
92
100
AcDbEntity
  8
0
  6
Continuous
 62
     7
100
AcDbLine
 10
185.3135507029059
 20
427.1455032931972
 30
0.0
 11
157.5948619699132
 21
427.1455032931972
 31
0.0
  0
LINE
  5
15A
330
92
100
AcDbEntity
  8
0
  6
Continuous
 62
     7
100
AcDbLine
 10
228.5948619699132
 20
427.1455032931972
 30
0.0
 11
195.3135507029059
 21
427.1455032931972
 31
0.0
  0
LINE
  5
15B
330
92
100
AcDbEntity
  8
0
  6
Continuous
 62
     7
100
AcDbLine
 10
157.5948619699132
 20
427.1455032931972
 30
0.0
 11
157.5948619699132
 21
430.2622601937019
 31
0.0
  0
LINE
  5
15C
330
92
100
AcDbEntity
  8
0
  6
Continuous
 62
     7
100
AcDbLine
 10
157.5948619699132
 20
430.2622601937019
 30
0.0
 11
157.5948619699132
 21
503.2622601937019
 31
0.0
  0
LINE
  5
15D
330
92
100
AcDbEntity
  8
0
  6
Continuous
 62
     7
100
AcDbLine
 10
157.5948619699132
 20
430.2622601937019
 30
0.0
 11
186.8580553032308
 21
430.2622601937019
 31
0.0
  0
LINE
  5
15E
330
92
100
AcDbEntity
  8
0
  6
Continuous
 62
     2
100
AcDbLine
 10
197.1247219699033
 20
429.8622601936932
 30
0.0
 11
196.8580553032308
 21
430.2622601937019
 31
0.0
  0
LINE
  5
15F
330
92
100
AcDbEntity
  8
0
  6
Continuous
 62
     7
100
AcDbLine
 10
196.8580553032308
 20
430.2622601937019
 30
0.0
 11
228.5948619699132
 21
430.2622601937019
 31
0.0
  0
LINE
  5
160
330
92
100
AcDbEntity
  8
0
  6
Continuous
 62
     2
100
AcDbLine
 10
196.8580553032308
 20
430.2622601937019
 30
0.0
 11
195.1247219699032
 21
432.8622601936932
 31
0.0
  0
LINE
  5
161
330
92
100
AcDbEntity
  8
0
  6
Continuous
 62
     2
100
AcDbLine
 10
195.1247219699032
 20
432.8622601936932
 30
0.0
 11
197.1247219699032
 21
435.8622601936932
 31
0.0
  0
LINE
  5
162
330
92
100
AcDbEntity
  8
0
  6
Continuous
 62
     2
100
AcDbLine
 10
186.8580553032308
 20
430.2622601937019
 30
0.0
 11
187.1247219699032
 21
429.8622601936932
 31
0.0
  0
LINE
  5
163
330
92
100
AcDbEntity
  8
0
  6
Continuous
 62
     2
100
AcDbLine
 10
185.1247219699032
 20
432.8622601936932
 30
0.0
 11
186.8580553032308
 21
430.2622601937019
 31
0.0
  0
LINE
  5
164
330
92
100
AcDbEntity
  8
0
  6
Continuous
 62
     2
100
AcDbLine
 10
195.1247219699032
 20
438.8622601936932
 30
0.0
 11
197.1247219699032
 21
441.8622601936932
 31
0.0
  0
LINE
  5
165
330
92
100
AcDbEntity
  8
0
  6
Continuous
 62
     2
100
AcDbLine
 10
185.1247219699033
 20
438.8622601936932
 30
0.0
 11
187.1247219699032
 21
435.8622601936932
 31
0.0
  0
LINE
  5
166
330
92
100
AcDbEntity
  8
0
  6
Continuous
 62
     2
100
AcDbLine
 10
187.1247219699032
 20
435.8622601936932
 30
0.0
 11
185.1247219699032
 21
432.8622601936932
 31
0.0
  0
LINE
  5
167
330
92
100
AcDbEntity
  8
0
  6
Continuous
 62
     2
100
AcDbLine
 10
185.1247219699032
 20
444.8622601936932
 30
0.0
 11
187.1247219699032
 21
441.8622601936932
 31
0.0
  0
LINE
  5
168
330
92
100
AcDbEntity
  8
0
  6
Continuous
 62
     2
100
AcDbLine
 10
187.1247219699032
 20
447.8622601936932
 30
0.0
 11
185.1247219699032
 21
444.8622601936932
 31
0.0
  0
LINE
  5
169
330
92
100
AcDbEntity
  8
0
  6
Continuous
 62
     2
100
AcDbLine
 10
185.1247219699032
 20
450.8622601936932
 30
0.0
 11
187.1247219699032
 21
447.8622601936932
 31
0.0
  0
LINE
  5
16A
330
92
100
AcDbEntity
  8
0
  6
Continuous
 62
     2
100
AcDbLine
 10
187.1247219699032
 20
453.8622601936932
 30
0.0
 11
185.1247219699032
 21
450.8622601936932
 31
0.0
  0
LINE
  5
16B
330
92
100
AcDbEntity
  8
0
  6
Continuous
 62
     2
100
AcDbLine
 10
185.1247219699032
 20
456.8622601936932
 30
0.0
 11
187.1247219699032
 21
453.8622601936932
 31
0.0
  0
LINE
  5
16C
330
92
100
AcDbEntity
  8
0
  6
Continuous
 62
     2
100
AcDbLine
 10
187.1247219699032
 20
459.8622601936932
 30
0.0
 11
185.1247219699032
 21
456.8622601936932
 31
0.0
  0
LINE
  5
16D
330
92
100
AcDbEntity
  8
0
  6
Continuous
 62
     2
100
AcDbLine
 10
185.1247219699032
 20
462.8622601936932
 30
0.0
 11
187.1247219699032
 21
459.8622601936932
 31
0.0
  0
LINE
  5
16E
330
92
100
AcDbEntity
  8
0
  6
Continuous
 62
     2
100
AcDbLine
 10
187.1247219699032
 20
465.8622601936932
 30
0.0
 11
185.1247219699032
 21
462.8622601936932
 31
0.0
  0
LINE
  5
16F
330
92
100
AcDbEntity
  8
0
  6
Continuous
 62
     2
100
AcDbLine
 10
185.1247219699032
 20
468.8622601936932
 30
0.0
 11
187.1247219699032
 21
465.8622601936932
 31
0.0
  0
LINE
  5
170
330
92
100
AcDbEntity
  8
0
  6
Continuous
 62
     2
100
AcDbLine
 10
187.1247219699032
 20
471.8622601936932
 30
0.0
 11
185.1247219699032
 21
468.8622601936932
 31
0.0
  0
LINE
  5
171
330
92
100
AcDbEntity
  8
0
  6
Continuous
 62
     2
100
AcDbLine
 10
185.1247219699032
 20
474.8622601936932
 30
0.0
 11
187.1247219699032
 21
471.8622601936932
 31
0.0
  0
LINE
  5
172
330
92
100
AcDbEntity
  8
0
  6
Continuous
 62
     2
100
AcDbLine
 10
187.1247219699032
 20
477.8622601936932
 30
0.0
 11
185.1247219699032
 21
474.8622601936932
 31
0.0
  0
LINE
  5
173
330
92
100
AcDbEntity
  8
0
  6
Continuous
 62
     2
100
AcDbLine
 10
185.1247219699032
 20
480.8622601936932
 30
0.0
 11
187.1247219699032
 21
477.8622601936932
 31
0.0
  0
LINE
  5
174
330
92
100
AcDbEntity
  8
0
  6
Continuous
 62
     2
100
AcDbLine
 10
187.1247219699032
 20
483.8622601936932
 30
0.0
 11
185.1247219699032
 21
480.8622601936932
 31
0.0
  0
LINE
  5
175
330
92
100
AcDbEntity
  8
0
  6
Continuous
 62
     2
100
AcDbLine
 10
185.1247219699032
 20
486.8622601936932
 30
0.0
 11
187.1247219699032
 21
483.8622601936932
 31
0.0
  0
LINE
  5
176
330
92
100
AcDbEntity
  8
0
  6
Continuous
 62
     2
100
AcDbLine
 10
187.1247219699032
 20
489.8622601936933
 30
0.0
 11
185.1247219699032
 21
486.8622601936932
 31
0.0
  0
LINE
  5
177
330
92
100
AcDbEntity
  8
0
  6
Continuous
 62
     2
100
AcDbLine
 10
185.1247219699032
 20
492.8622601936932
 30
0.0
 11
187.1247219699032
 21
489.8622601936933
 31
0.0
  0
LINE
  5
178
330
92
100
AcDbEntity
  8
0
  6
Continuous
 62
     2
100
AcDbLine
 10
187.1247219699032
 20
495.8622601936932
 30
0.0
 11
185.1247219699032
 21
492.8622601936932
 31
0.0
  0
LINE
  5
179
330
92
100
AcDbEntity
  8
0
  6
Continuous
 62
     2
100
AcDbLine
 10
185.1247219699032
 20
498.8622601936932
 30
0.0
 11
187.1247219699032
 21
495.8622601936932
 31
0.0
  0
LINE
  5
17A
330
92
100
AcDbEntity
  8
0
  6
Continuous
 62
     2
100
AcDbLine
 10
187.1247219699032
 20
501.8622601936932
 30
0.0
 11
185.1247219699032
 21
498.8622601936932
 31
0.0
  0
LINE
  5
17B
330
92
100
AcDbEntity
  8
0
  6
Continuous
 62
     7
100
AcDbLine
 10
157.5948619699132
 20
503.2622601937019
 30
0.0
 11
186.1913886365641
 21
503.2622601937019
 31
0.0
  0
LINE
  5
17C
330
92
100
AcDbEntity
  8
0
  6
Continuous
 62
     2
100
AcDbLine
 10
195.1247219699033
 20
426.8622601936932
 30
0.0
 11
195.3135507029059
 21
427.1455032931972
 31
0.0
  0
LINE
  5
17D
330
92
100
AcDbEntity
  8
0
  6
Continuous
 62
     2
100
AcDbLine
 10
196.2867635665542
 20
428.6053225886698
 30
0.0
 11
197.1247219699033
 21
429.8622601936932
 31
0.0
  0
LINE
  5
17E
330
92
100
AcDbEntity
  8
0
  6
Continuous
 62
     2
100
AcDbLine
 10
185.3135507029059
 20
427.1455032931972
 30
0.0
 11
185.1247219699032
 21
426.8622601936932
 31
0.0
  0
LINE
  5
17F
330
92
100
AcDbEntity
  8
0
  6
Continuous
 62
     2
100
AcDbLine
 10
186.2867635665542
 20
428.6053225886698
 30
0.0
 11
185.3135507029059
 21
427.1455032931972
 31
0.0
  0
LINE
  5
180
330
92
100
AcDbEntity
  8
0
  6
Continuous
 62
     2
100
AcDbLine
 10
195.3135507029059
 20
427.1455032931972
 30
0.0
 11
196.2867635665542
 21
428.6053225886698
 31
0.0
  0
LINE
  5
181
330
92
100
AcDbEntity
  8
0
  6
Continuous
 62
     2
100
AcDbLine
 10
197.1247219699032
 20
435.8622601936932
 30
0.0
 11
195.1247219699032
 21
438.8622601936932
 31
0.0
  0
LINE
  5
182
330
92
100
AcDbEntity
  8
0
  6
Continuous
 62
     7
100
AcDbLine
 10
186.0580553032424
 20
425.4622601936845
 30
0.0
 11
157.5948619699132
 21
425.4622601936845
 31
0.0
  0
LINE
  5
183
330
92
100
AcDbEntity
  8
0
  6
Continuous
 62
     7
100
AcDbLine
 10
228.5948619699132
 20
425.4622601936845
 30
0.0
 11
196.0580553032424
 21
425.4622601936845
 31
0.0
  0
LINE
  5
184
330
92
100
AcDbEntity
  8
0
  6
Continuous
 62
     7
100
AcDbLine
 10
157.5948619699132
 20
425.4622601936845
 30
0.0
 11
157.5948619699132
 21
427.1455032931972
 31
0.0
  0
LINE
  5
185
330
92
100
AcDbEntity
  8
0
  6
Continuous
 62
     2
100
AcDbLine
 10
187.1247219699032
 20
441.8622601936932
 30
0.0
 11
185.1247219699033
 21
438.8622601936932
 31
0.0
  0
ENDBLK
  5
94
330
92
100
AcDbEntity
  8
0
100
AcDbBlockEnd
  0
BLOCK
  5
97
330
95
100
AcDbEntity
  8
0
100
AcDbBlockBegin
  2
SA_links1
 70
     0
 10
213.5948619699132
 20
464.3622601936932
 30
0.0
  3
SA_links1
  1

  0
INSERT
  5
96
330
95
100
AcDbEntity
  8
0
100
AcDbBlockReference
  2
SFP_1_20_120AC-select__5
 10
157.5948619699132
 20
425.4622601936845
 30
0.0
  0
ENDBLK
  5
98
330
95
100
AcDbEntity
  8
0
100
AcDbBlockEnd
  0
BLOCK
  5
9A
330
99
100
AcDbEntity
  8
0
100
AcDbBlockBegin
  2
SFP_1_20_120AC-select__6
 70
     0
 10
-48.5
 20
425.4622609999913
 30
0.0
  3
SFP_1_20_120AC-select__6
  1

  0
LINE
  5
186
330
99
100
AcDbEntity
  8
0
  6
Continuous
 62
     2
100
AcDbLine
 10
-15.02986000000001
 20
501.862261
 30
0.0
 11
-17.02985999999999
 21
498.862261
 31
0.0
  0
LINE
  5
187
330
99
100
AcDbEntity
  8
0
  6
Continuous
 62
     2
100
AcDbLine
 10
-15.02985999999999
 20
489.862261
 30
0.0
 11
-17.02985999999999
 21
486.862261
 31
0.0
  0
LINE
  5
188
330
99
100
AcDbEntity
  8
0
  6
Continuous
 62
     2
100
AcDbLine
 10
-6.09652666666086
 20
494.2622610000087
 30
0.0
 11
-5.02985999999998
 21
495.862261
 31
0.0
  0
LINE
  5
189
330
99
100
AcDbEntity
  8
0
  6
Continuous
 62
     2
100
AcDbLine
 10
-5.02985999999998
 20
495.862261
 30
0.0
 11
-7.02986000000001
 21
498.862261
 31
0.0
  0
LINE
  5
18A
330
99
100
AcDbEntity
  8
0
  6
Continuous
 62
     2
100
AcDbLine
 10
-5.02985999999998
 20
501.862261
 30
0.0
 11
-5.96319333333911
 21
503.2622610000087
 31
0.0
  0
LINE
  5
18B
330
99
100
AcDbEntity
  8
0
  6
Continuous
 62
     7
100
AcDbLine
 10
22.50000000000001
 20
503.2622610000087
 30
0.0
 11
-5.96319333333911
 21
503.2622610000087
 31
0.0
  0
LINE
  5
18C
330
99
100
AcDbEntity
  8
0
  6
Continuous
 62
     7
100
AcDbLine
 10
22.50000000000001
 20
503.2622610000087
 30
0.0
 11
22.50000000000001
 21
494.2622610000087
 31
0.0
  0
LINE
  5
18D
330
99
100
AcDbEntity
  8
0
  6
Continuous
 62
     2
100
AcDbLine
 10
-15.96319333333911
 20
503.2622610000087
 30
0.0
 11
-15.02986000000001
 21
501.862261
 31
0.0
  0
LINE
  5
18E
330
99
100
AcDbEntity
  8
0
  6
Continuous
 62
     2
100
AcDbLine
 10
-7.02986000000001
 20
498.862261
 30
0.0
 11
-5.02985999999998
 21
501.862261
 31
0.0
  0
LINE
  5
18F
330
99
100
AcDbEntity
  8
0
  6
Continuous
 62
     2
100
AcDbLine
 10
-17.02985999999999
 20
468.862261
 30
0.0
 11
-15.02986000000001
 21
465.862261
 31
0.0
  0
LINE
  5
190
330
99
100
AcDbEntity
  8
0
  6
Continuous
 62
     2
100
AcDbLine
 10
-15.02986000000001
 20
471.862261
 30
0.0
 11
-17.02985999999999
 21
468.862261
 31
0.0
  0
LINE
  5
191
330
99
100
AcDbEntity
  8
0
  6
Continuous
 62
     2
100
AcDbLine
 10
-15.02986000000001
 20
477.862261
 30
0.0
 11
-17.02985999999996
 21
474.862261
 31
0.0
  0
LINE
  5
192
330
99
100
AcDbEntity
  8
0
  6
Continuous
 62
     2
100
AcDbLine
 10
-17.02985999999996
 20
480.862261
 30
0.0
 11
-15.02986000000001
 21
477.862261
 31
0.0
  0
LINE
  5
193
330
99
100
AcDbEntity
  8
0
  6
Continuous
 62
     2
100
AcDbLine
 10
-15.02985999999999
 20
429.862261
 30
0.0
 11
-15.10126772220256
 21
429.7551494166962
 31
0.0
  0
LINE
  5
194
330
99
100
AcDbEntity
  8
0
  6
Continuous
 62
     2
100
AcDbLine
 10
-15.10126772220256
 20
429.7551494166962
 30
0.0
 11
-15.76806247313903
 21
428.7549572902914
 31
0.0
  0
LINE
  5
195
330
99
100
AcDbEntity
  8
0
  6
Continuous
 62
     2
100
AcDbLine
 10
-15.76806247313903
 20
428.7549572902914
 30
0.0
 11
-16.84103126699734
 21
427.145504099504
 31
0.0
  0
LINE
  5
196
330
99
100
AcDbEntity
  8
0
  6
Continuous
 62
     2
100
AcDbLine
 10
-16.84103126699734
 20
427.145504099504
 30
0.0
 11
-17.02985999999999
 21
426.862261
 31
0.0
  0
LINE
  5
197
330
99
100
AcDbEntity
  8
0
  6
Continuous
 62
     2
100
AcDbLine
 10
-15.02986000000001
 20
453.862261
 30
0.0
 11
-17.02985999999996
 21
450.862261
 31
0.0
  0
LINE
  5
198
330
99
100
AcDbEntity
  8
0
  6
Continuous
 62
     2
100
AcDbLine
 10
-15.02986000000001
 20
447.862261
 30
0.0
 11
-17.02985999999999
 21
444.862261
 31
0.0
  0
LINE
  5
199
330
99
100
AcDbEntity
  8
0
  6
Continuous
 62
     2
100
AcDbLine
 10
-17.02985999999999
 20
444.862261
 30
0.0
 11
-15.02985999999999
 21
441.862261
 31
0.0
  0
LINE
  5
19A
330
99
100
AcDbEntity
  8
0
  6
Continuous
 62
     2
100
AcDbLine
 10
-15.02986000000001
 20
435.862261
 30
0.0
 11
-17.02985999999999
 21
432.862261
 31
0.0
  0
LINE
  5
19B
330
99
100
AcDbEntity
  8
0
  6
Continuous
 62
     2
100
AcDbLine
 10
-15.29652666667241
 20
430.2622610000087
 30
0.0
 11
-15.02985999999999
 21
429.862261
 31
0.0
  0
LINE
  5
19C
330
99
100
AcDbEntity
  8
0
  6
Continuous
 62
     7
100
AcDbLine
 10
-16.09652666666084
 20
425.4622609999913
 30
0.0
 11
-48.5
 21
425.4622609999913
 31
0.0
  0
LINE
  5
19D
330
99
100
AcDbEntity
  8
0
  6
Continuous
 62
     2
100
AcDbLine
 10
-17.02985999999999
 20
456.862261
 30
0.0
 11
-15.02986000000001
 21
453.862261
 31
0.0
  0
LINE
  5
19E
330
99
100
AcDbEntity
  8
0
  6
Continuous
 62
     2
100
AcDbLine
 10
-17.02985999999999
 20
432.862261
 30
0.0
 11
-15.29652666667241
 21
430.2622610000087
 31
0.0
  0
LINE
  5
19F
330
99
100
AcDbEntity
  8
0
  6
Continuous
 62
     7
100
AcDbLine
 10
-48.5
 20
494.2622610000087
 30
0.0
 11
-48.5
 21
425.4622609999913
 31
0.0
  0
LINE
  5
1A0
330
99
100
AcDbEntity
  8
0
  6
Continuous
 62
     7
100
AcDbLine
 10
-48.5
 20
503.2622610000087
 30
0.0
 11
-48.5
 21
494.2622610000087
 31
0.0
  0
LINE
  5
1A1
330
99
100
AcDbEntity
  8
0
  6
Continuous
 62
     2
100
AcDbLine
 10
-16.09652666666084
 20
494.2622610000087
 30
0.0
 11
-17.02985999999999
 21
492.862261
 31
0.0
  0
LINE
  5
1A2
330
99
100
AcDbEntity
  8
0
  6
Continuous
 62
     2
100
AcDbLine
 10
-17.02985999999999
 20
492.862261
 30
0.0
 11
-15.02985999999999
 21
489.862261
 31
0.0
  0
LINE
  5
1A3
330
99
100
AcDbEntity
  8
0
  6
Continuous
 62
     2
100
AcDbLine
 10
-15.02985999999999
 20
495.862261
 30
0.0
 11
-16.09652666666084
 21
494.2622610000087
 31
0.0
  0
LINE
  5
1A4
330
99
100
AcDbEntity
  8
0
  6
Continuous
 62
     2
100
AcDbLine
 10
-17.02985999999999
 20
486.862261
 30
0.0
 11
-15.02985999999999
 21
483.862261
 31
0.0
  0
LINE
  5
1A5
330
99
100
AcDbEntity
  8
0
  6
Continuous
 62
     2
100
AcDbLine
 10
-15.02985999999999
 20
483.862261
 30
0.0
 11
-17.02985999999996
 21
480.862261
 31
0.0
  0
LINE
  5
1A6
330
99
100
AcDbEntity
  8
0
  6
Continuous
 62
     7
100
AcDbLine
 10
22.50000000000001
 20
425.4622609999913
 30
0.0
 11
-6.09652666666084
 21
425.4622609999913
 31
0.0
  0
LINE
  5
1A7
330
99
100
AcDbEntity
  8
0
  6
Continuous
 62
     2
100
AcDbLine
 10
-5.02985999999998
 20
441.862261
 30
0.0
 11
-7.02986000000001
 21
444.862261
 31
0.0
  0
LINE
  5
1A8
330
99
100
AcDbEntity
  8
0
  6
Continuous
 62
     2
100
AcDbLine
 10
-7.02986000000001
 20
444.862261
 30
0.0
 11
-5.02985999999998
 21
447.862261
 31
0.0
  0
LINE
  5
1A9
330
99
100
AcDbEntity
  8
0
  6
Continuous
 62
     2
100
AcDbLine
 10
-5.02985999999998
 20
447.862261
 30
0.0
 11
-7.02986000000001
 21
450.862261
 31
0.0
  0
LINE
  5
1AA
330
99
100
AcDbEntity
  8
0
  6
Continuous
 62
     2
100
AcDbLine
 10
-5.02985999999998
 20
453.862261
 30
0.0
 11
-7.02985999999999
 21
456.862261
 31
0.0
  0
LINE
  5
1AB
330
99
100
AcDbEntity
  8
0
  6
Continuous
 62
     2
100
AcDbLine
 10
-7.02985999999999
 20
456.862261
 30
0.0
 11
-5.02985999999998
 21
459.862261
 31
0.0
  0
LINE
  5
1AC
330
99
100
AcDbEntity
  8
0
  6
Continuous
 62
     2
100
AcDbLine
 10
-7.02986000000001
 20
438.862261
 30
0.0
 11
-5.02985999999998
 21
441.862261
 31
0.0
  0
LINE
  5
1AD
330
99
100
AcDbEntity
  8
0
  6
Continuous
 62
     2
100
AcDbLine
 10
-5.02985999999998
 20
435.862261
 30
0.0
 11
-7.02986000000001
 21
438.862261
 31
0.0
  0
LINE
  5
1AE
330
99
100
AcDbEntity
  8
0
  6
Continuous
 62
     7
100
AcDbLine
 10
22.50000000000001
 20
494.2622610000087
 30
0.0
 11
22.50000000000001
 21
425.4622609999913
 31
0.0
  0
LINE
  5
1AF
330
99
100
AcDbEntity
  8
0
  6
Continuous
 62
     2
100
AcDbLine
 10
-6.09652666666084
 20
425.4622609999913
 30
0.0
 11
-7.02985999999999
 21
426.862261
 31
0.0
  0
LINE
  5
1B0
330
99
100
AcDbEntity
  8
0
  6
Continuous
 62
     2
100
AcDbLine
 10
-7.02985999999999
 20
426.862261
 30
0.0
 11
-6.84103126699734
 21
427.145504099504
 31
0.0
  0
LINE
  5
1B1
330
99
100
AcDbEntity
  8
0
  6
Continuous
 62
     2
100
AcDbLine
 10
-5.29652666667243
 20
430.2622610000087
 30
0.0
 11
-7.02986000000001
 21
432.862261
 31
0.0
  0
LINE
  5
1B2
330
99
100
AcDbEntity
  8
0
  6
Continuous
 62
     2
100
AcDbLine
 10
-5.10126772220256
 20
429.7551494166962
 30
0.0
 11
-5.02985999999998
 21
429.862261
 31
0.0
  0
LINE
  5
1B3
330
99
100
AcDbEntity
  8
0
  6
Continuous
 62
     2
100
AcDbLine
 10
-5.02985999999998
 20
429.862261
 30
0.0
 11
-5.29652666667243
 21
430.2622610000087
 31
0.0
  0
LINE
  5
1B4
330
99
100
AcDbEntity
  8
0
  6
Continuous
 62
     2
100
AcDbLine
 10
-7.02986000000001
 20
432.862261
 30
0.0
 11
-5.02985999999998
 21
435.862261
 31
0.0
  0
LINE
  5
1B5
330
99
100
AcDbEntity
  8
0
  6
Continuous
 62
     2
100
AcDbLine
 10
-6.84103126699734
 20
427.145504099504
 30
0.0
 11
-5.76806247313902
 21
428.7549572902914
 31
0.0
  0
LINE
  5
1B6
330
99
100
AcDbEntity
  8
0
  6
Continuous
 62
     2
100
AcDbLine
 10
-5.76806247313902
 20
428.7549572902914
 30
0.0
 11
-5.10126772220256
 21
429.7551494166962
 31
0.0
  0
LINE
  5
1B7
330
99
100
AcDbEntity
  8
0
  6
Continuous
 62
     2
100
AcDbLine
 10
-17.02985999999996
 20
438.862261
 30
0.0
 11
-15.02986000000001
 21
435.862261
 31
0.0
  0
LINE
  5
1B8
330
99
100
AcDbEntity
  8
0
  6
Continuous
 62
     2
100
AcDbLine
 10
-15.02985999999999
 20
459.862261
 30
0.0
 11
-17.02985999999999
 21
456.862261
 31
0.0
  0
LINE
  5
1B9
330
99
100
AcDbEntity
  8
0
  6
Continuous
 62
     2
100
AcDbLine
 10
-17.02985999999999
 20
426.862261
 30
0.0
 11
-16.09652666666084
 21
425.4622609999913
 31
0.0
  0
LINE
  5
1BA
330
99
100
AcDbEntity
  8
0
  6
Continuous
 62
     2
100
AcDbLine
 10
-17.02985999999996
 20
450.862261
 30
0.0
 11
-15.02986000000001
 21
447.862261
 31
0.0
  0
LINE
  5
1BB
330
99
100
AcDbEntity
  8
0
  6
Continuous
 62
     2
100
AcDbLine
 10
-7.02986000000001
 20
450.862261
 30
0.0
 11
-5.02985999999998
 21
453.862261
 31
0.0
  0
LINE
  5
1BC
330
99
100
AcDbEntity
  8
0
  6
Continuous
 62
     2
100
AcDbLine
 10
-7.02986000000001
 20
474.862261
 30
0.0
 11
-5.02985999999998
 21
477.862261
 31
0.0
  0
LINE
  5
1BD
330
99
100
AcDbEntity
  8
0
  6
Continuous
 62
     2
100
AcDbLine
 10
-7.02986000000001
 20
468.862261
 30
0.0
 11
-5.02985999999998
 21
471.862261
 31
0.0
  0
LINE
  5
1BE
330
99
100
AcDbEntity
  8
0
  6
Continuous
 62
     2
100
AcDbLine
 10
-5.02985999999998
 20
465.862261
 30
0.0
 11
-7.02986000000001
 21
468.862261
 31
0.0
  0
LINE
  5
1BF
330
99
100
AcDbEntity
  8
0
  6
Continuous
 62
     2
100
AcDbLine
 10
-5.02985999999998
 20
471.862261
 30
0.0
 11
-7.02986000000001
 21
474.862261
 31
0.0
  0
LINE
  5
1C0
330
99
100
AcDbEntity
  8
0
  6
Continuous
 62
     2
100
AcDbLine
 10
-5.02985999999998
 20
459.862261
 30
0.0
 11
-7.02986000000001
 21
462.862261
 31
0.0
  0
LINE
  5
1C1
330
99
100
AcDbEntity
  8
0
  6
Continuous
 62
     2
100
AcDbLine
 10
-7.02986000000001
 20
480.862261
 30
0.0
 11
-5.02985999999998
 21
483.862261
 31
0.0
  0
LINE
  5
1C2
330
99
100
AcDbEntity
  8
0
  6
Continuous
 62
     2
100
AcDbLine
 10
-5.02985999999998
 20
477.862261
 30
0.0
 11
-7.02986000000001
 21
480.862261
 31
0.0
  0
LINE
  5
1C3
330
99
100
AcDbEntity
  8
0
  6
Continuous
 62
     2
100
AcDbLine
 10
-5.02985999999998
 20
483.862261
 30
0.0
 11
-7.02985999999999
 21
486.862261
 31
0.0
  0
LINE
  5
1C4
330
99
100
AcDbEntity
  8
0
  6
Continuous
 62
     2
100
AcDbLine
 10
-7.02985999999999
 20
486.862261
 30
0.0
 11
-5.02985999999999
 21
489.862261
 31
0.0
  0
LINE
  5
1C5
330
99
100
AcDbEntity
  8
0
  6
Continuous
 62
     2
100
AcDbLine
 10
-5.02985999999999
 20
489.862261
 30
0.0
 11
-7.02985999999999
 21
492.862261
 31
0.0
  0
LINE
  5
1C6
330
99
100
AcDbEntity
  8
0
  6
Continuous
 62
     2
100
AcDbLine
 10
-7.02985999999999
 20
492.862261
 30
0.0
 11
-6.09652666666086
 21
494.2622610000087
 31
0.0
  0
LINE
  5
1C7
330
99
100
AcDbEntity
  8
0
  6
Continuous
 62
     7
100
AcDbLine
 10
22.50000000000001
 20
494.2622610000087
 30
0.0
 11
-6.09652666666086
 21
494.2622610000087
 31
0.0
  0
LINE
  5
1C8
330
99
100
AcDbEntity
  8
0
  6
Continuous
 62
     2
100
AcDbLine
 10
-17.02985999999996
 20
462.862261
 30
0.0
 11
-15.02985999999999
 21
459.862261
 31
0.0
  0
LINE
  5
1C9
330
99
100
AcDbEntity
  8
0
  6
Continuous
 62
     2
100
AcDbLine
 10
-15.02986000000001
 20
465.862261
 30
0.0
 11
-17.02985999999996
 21
462.862261
 31
0.0
  0
LINE
  5
1CA
330
99
100
AcDbEntity
  8
0
  6
Continuous
 62
     2
100
AcDbLine
 10
-17.02985999999996
 20
474.862261
 30
0.0
 11
-15.02986000000001
 21
471.862261
 31
0.0
  0
LINE
  5
1CB
330
99
100
AcDbEntity
  8
0
  6
Continuous
 62
     2
100
AcDbLine
 10
-7.02986000000001
 20
462.862261
 30
0.0
 11
-5.02985999999998
 21
465.862261
 31
0.0
  0
LINE
  5
1CC
330
99
100
AcDbEntity
  8
0
  6
Continuous
 62
     2
100
AcDbLine
 10
-17.02985999999999
 20
498.862261
 30
0.0
 11
-15.02985999999999
 21
495.862261
 31
0.0
  0
LINE
  5
1CD
330
99
100
AcDbEntity
  8
0
  6
Continuous
 62
     7
100
AcDbLine
 10
-16.09652666666084
 20
494.2622610000087
 30
0.0
 11
-48.5
 21
494.2622610000087
 31
0.0
  0
LINE
  5
1CE
330
99
100
AcDbEntity
  8
0
  6
Continuous
 62
     7
100
AcDbLine
 10
-15.96319333333911
 20
503.2622610000087
 30
0.0
 11
-48.5
 21
503.2622610000087
 31
0.0
  0
LINE
  5
1CF
330
99
100
AcDbEntity
  8
0
  6
Continuous
 62
     2
100
AcDbLine
 10
-15.02985999999999
 20
441.862261
 30
0.0
 11
-17.02985999999996
 21
438.862261
 31
0.0
  0
ENDBLK
  5
9B
330
99
100
AcDbEntity
  8
0
100
AcDbBlockEnd
  0
BLOCK
  5
9E
330
9C
100
AcDbEntity
  8
0
100
AcDbBlockBegin
  2
SA_rechts1
 70
     0
 10
7.5
 20
464.362261
 30
0.0
  3
SA_rechts1
  1

  0
INSERT
  5
9D
330
9C
100
AcDbEntity
  8
0
100
AcDbBlockReference
  2
SFP_1_20_120AC-select__6
 10
-48.5
 20
425.4622609999913
 30
0.0
  0
ENDBLK
  5
9F
330
9C
100
AcDbEntity
  8
0
100
AcDbBlockEnd
  0
BLOCK
  5
A1
330
A0
100
AcDbEntity
  8
0
100
AcDbBlockBegin
  2
_rahmen
 70
     0
 10
339.2999999999319
 20
227.374021708065
 30
0.0
  3
_rahmen
  1

  0
LINE
  5
1D0
330
A0
100
AcDbEntity
  8
1
  6
Continuous
 62
     6
100
AcDbLine
 10
270.9666666665985
 20
232.374021708065
 30
0.0
 11
339.2999999999319
 21
232.3740217080645
 31
0.0
  0
LINE
  5
1D1
330
A0
100
AcDbEntity
  8
1
  6
Continuous
 62
     6
100
AcDbLine
 10
339.2999999999315
 20
240.8740217080645
 30
0.0
 11
339.2999999999319
 21
249.3740217080645
 31
0.0
  0
LINE
  5
1D2
330
A0
100
AcDbEntity
  8
1
  6
Continuous
 62
     6
100
AcDbLine
 10
339.2999999999319
 20
249.3740217080645
 30
0.0
 11
339.299999999931
 21
253.6240217080645
 31
0.0
  0
LINE
  5
1D3
330
A0
100
AcDbEntity
  8
1
  6
Continuous
 62
     6
100
AcDbLine
 10
339.299999999931
 20
253.6240217080645
 30
0.0
 11
339.2999999999319
 21
289.7740217080651
 31
0.0
  0
LINE
  5
1D4
330
A0
100
AcDbEntity
  8
1
  6
Continuous
 62
     2
100
AcDbLine
 10
134.2999999999319
 20
227.374021708065
 30
0.0
 11
65.96666666659883
 21
227.374021708065
 31
0.0
  0
LINE
  5
1D5
330
A0
100
AcDbEntity
  8
1
  6
Continuous
 62
     2
100
AcDbLine
 10
270.9666666665985
 20
227.374021708065
 30
0.0
 11
339.2999999999319
 21
227.374021708065
 31
0.0
  0
LINE
  5
1D6
330
A0
100
AcDbEntity
  8
1
  6
Continuous
 62
     2
100
AcDbLine
 10
270.9666666665985
 20
227.374021708065
 30
0.0
 11
270.9666666665985
 21
232.374021708065
 31
0.0
  0
LINE
  5
1D7
330
A0
100
AcDbEntity
  8
1
  6
Continuous
 62
     2
100
AcDbLine
 10
202.6333333332653
 20
227.374021708065
 30
0.0
 11
202.6333333332653
 21
232.3740217080621
 31
0.0
  0
LINE
  5
1D8
330
A0
100
AcDbEntity
  8
1
  6
Continuous
 62
     2
100
AcDbLine
 10
134.2999999999319
 20
227.374021708065
 30
0.0
 11
134.2999999999319
 21
232.374021708065
 31
0.0
  0
LINE
  5
1D9
330
A0
100
AcDbEntity
  8
1
  6
Continuous
 62
     2
100
AcDbLine
 10
344.2999999999294
 20
289.7740217080651
 30
0.0
 11
344.2999999999294
 21
347.1740217080652
 31
0.0
  0
LINE
  5
1DA
330
A0
100
AcDbEntity
  8
1
  6
Continuous
 62
     2
100
AcDbLine
 10
344.2999999999294
 20
289.7740217080651
 30
0.0
 11
339.2999999999319
 21
289.7740217080651
 31
0.0
  0
LINE
  5
1DB
330
A0
100
AcDbEntity
  8
1
  6
Continuous
 62
     2
100
AcDbLine
 10
-55.70000000006877
 20
227.374021708065
 30
0.0
 11
-75.70000000006888
 21
227.374021708065
 31
0.0
  0
LINE
  5
1DC
330
A0
100
AcDbEntity
  8
1
  6
Continuous
 62
     2
100
AcDbLine
 10
-2.36666666673472
 20
227.374021708065
 30
0.0
 11
-2.36666666673472
 21
232.374021708065
 31
0.0
  0
LINE
  5
1DD
330
A0
100
AcDbEntity
  8
1
  6
Continuous
 62
     2
100
AcDbLine
 10
-2.36666666673472
 20
227.374021708065
 30
0.0
 11
65.96666666659883
 21
227.374021708065
 31
0.0
  0
LINE
  5
1DE
330
A0
100
AcDbEntity
  8
1
  6
Continuous
 62
     6
100
AcDbLine
 10
-2.36666666673472
 20
232.374021708065
 30
0.0
 11
65.96666666659883
 21
232.374021708065
 31
0.0
  0
LINE
  5
1DF
330
A0
100
AcDbEntity
  8
1
  6
Continuous
 62
     6
100
AcDbLine
 10
-2.36666666673472
 20
232.374021708065
 30
0.0
 11
-55.7000000000678
 21
232.374021708065
 31
0.0
  0
LINE
  5
1E0
330
A0
100
AcDbEntity
  8
1
  6
Continuous
 62
     2
100
AcDbLine
 10
65.96666666659883
 20
227.374021708065
 30
0.0
 11
65.96666666659883
 21
232.374021708065
 31
0.0
  0
LINE
  5
1E1
330
A0
100
AcDbEntity
  8
1
  6
Continuous
 62
     2
100
AcDbLine
 10
-55.70000000006877
 20
227.374021708065
 30
0.0
 11
-55.70000000006877
 21
231.374021708065
 31
0.0
  0
LINE
  5
1E2
330
A0
100
AcDbEntity
  8
1
  6
Continuous
 62
     2
100
AcDbLine
 10
-55.70000000006877
 20
227.374021708065
 30
0.0
 11
-2.36666666673472
 21
227.374021708065
 31
0.0
  0
LINE
  5
1E3
330
A0
100
AcDbEntity
  8
1
  6
Continuous
 62
     2
100
AcDbLine
 10
154.2999999999291
 20
227.374021708065
 30
0.0
 11
134.2999999999319
 21
227.374021708065
 31
0.0
  0
LINE
  5
1E4
330
A0
100
AcDbEntity
  8
1
  6
Continuous
 62
     2
100
AcDbLine
 10
154.2999999999291
 20
227.374021708065
 30
0.0
 11
154.2999999999291
 21
231.374021708065
 31
0.0
  0
LINE
  5
1E5
330
A0
100
AcDbEntity
  8
1
  6
Continuous
 62
     2
100
AcDbLine
 10
154.2999999999291
 20
227.374021708065
 30
0.0
 11
202.6333333332653
 21
227.374021708065
 31
0.0
  0
LINE
  5
1E6
330
A0
100
AcDbEntity
  8
1
  6
Continuous
 62
     2
100
AcDbLine
 10
202.6333333332653
 20
227.374021708065
 30
0.0
 11
270.9666666665985
 21
227.374021708065
 31
0.0
  0
LINE
  5
1E7
330
A0
100
AcDbEntity
  8
1
  6
Continuous
 62
     2
100
AcDbLine
 10
344.2999999999294
 20
227.374021708065
 30
0.0
 11
339.2999999999319
 21
227.374021708065
 31
0.0
  0
LINE
  5
1E8
330
A0
100
AcDbEntity
  8
1
  6
Continuous
 62
     2
100
AcDbLine
 10
344.2999999999294
 20
232.374021708065
 30
0.0
 11
344.2999999999294
 21
227.374021708065
 31
0.0
  0
LINE
  5
1E9
330
A0
100
AcDbEntity
  8
1
  6
Continuous
 62
     2
100
AcDbLine
 10
344.2999999999294
 20
232.374021708065
 30
0.0
 11
344.2999999999294
 21
289.7740217080651
 31
0.0
  0
LINE
  5
1EA
330
A0
100
AcDbEntity
  8
1
  6
Continuous
 62
     2
100
AcDbLine
 10
344.2999999999294
 20
524.374021708065
 30
0.0
 11
339.2999999999294
 21
524.374021708065
 31
0.0
  0
LINE
  5
1EB
330
A0
100
AcDbEntity
  8
1
  6
Continuous
 62
     6
100
AcDbLine
 10
339.2999999999294
 20
519.374021708065
 30
0.0
 11
339.2999999999299
 21
461.9740217080649
 31
0.0
  0
LINE
  5
1EC
330
A0
100
AcDbEntity
  8
1
  6
Continuous
 62
     2
100
AcDbLine
 10
344.2999999999294
 20
524.374021708065
 30
0.0
 11
344.2999999999294
 21
519.374021708065
 31
0.0
  0
LINE
  5
1ED
330
A0
100
AcDbEntity
  8
1
  6
Continuous
 62
     2
100
AcDbLine
 10
339.2999999999294
 20
519.374021708065
 30
0.0
 11
339.2999999999294
 21
524.374021708065
 31
0.0
  0
LINE
  5
1EE
330
A0
100
AcDbEntity
  8
1
  6
Continuous
 62
     2
100
AcDbLine
 10
339.2999999999294
 20
519.374021708065
 30
0.0
 11
344.2999999999294
 21
519.374021708065
 31
0.0
  0
LINE
  5
1EF
330
A0
100
AcDbEntity
  8
1
  6
Continuous
 62
     2
100
AcDbLine
 10
344.2999999999294
 20
519.374021708065
 30
0.0
 11
344.2999999999294
 21
461.9740217080649
 31
0.0
  0
LINE
  5
1F0
330
A0
100
AcDbEntity
  8
1
  6
Continuous
 62
     2
100
AcDbLine
 10
339.2999999999299
 20
461.9740217080649
 30
0.0
 11
344.2999999999294
 21
461.9740217080649
 31
0.0
  0
LINE
  5
1F1
330
A0
100
AcDbEntity
  8
1
  6
Continuous
 62
     6
100
AcDbLine
 10
339.2999999999299
 20
461.9740217080649
 30
0.0
 11
339.2999999999319
 21
404.5740217080651
 31
0.0
  0
LINE
  5
1F2
330
A0
100
AcDbEntity
  8
1
  6
Continuous
 62
     2
100
AcDbLine
 10
344.2999999999294
 20
461.9740217080649
 30
0.0
 11
344.2999999999294
 21
404.5740217080651
 31
0.0
  0
LINE
  5
1F3
330
A0
100
AcDbEntity
  8
1
  6
Continuous
 62
     2
100
AcDbLine
 10
339.2999999999319
 20
404.5740217080651
 30
0.0
 11
344.2999999999294
 21
404.5740217080651
 31
0.0
  0
LINE
  5
1F4
330
A0
100
AcDbEntity
  8
1
  6
Continuous
 62
     6
100
AcDbLine
 10
339.2999999999319
 20
404.5740217080651
 30
0.0
 11
339.2999999999319
 21
347.1740217080652
 31
0.0
  0
LINE
  5
1F5
330
A0
100
AcDbEntity
  8
1
  6
Continuous
 62
     2
100
AcDbLine
 10
344.2999999999294
 20
404.5740217080651
 30
0.0
 11
344.2999999999294
 21
347.1740217080652
 31
0.0
  0
LINE
  5
1F6
330
A0
100
AcDbEntity
  8
1
  6
Continuous
 62
     2
100
AcDbLine
 10
339.2999999999319
 20
347.1740217080652
 30
0.0
 11
344.2999999999294
 21
347.1740217080652
 31
0.0
  0
LINE
  5
1F7
330
A0
100
AcDbEntity
  8
1
  6
Continuous
 62
     6
100
AcDbLine
 10
339.2999999999319
 20
347.1740217080652
 30
0.0
 11
339.2999999999319
 21
289.7740217080651
 31
0.0
  0
LINE
  5
1F8
330
A0
100
AcDbEntity
  8
1
  6
Continuous
 62
     6
100
AcDbLine
 10
-55.70000000006877
 20
519.3740217080652
 30
0.0
 11
-2.36666666673472
 21
519.3740217080652
 31
0.0
  0
LINE
  5
1F9
330
A0
100
AcDbEntity
  8
1
  6
Continuous
 62
     2
100
AcDbLine
 10
339.2999999999294
 20
524.374021708065
 30
0.0
 11
270.9666666665985
 21
524.374021708065
 31
0.0
  0
LINE
  5
1FA
330
A0
100
AcDbEntity
  8
1
  6
Continuous
 62
     2
100
AcDbLine
 10
270.9666666665985
 20
519.374021708065
 30
0.0
 11
270.9666666665985
 21
524.374021708065
 31
0.0
  0
LINE
  5
1FB
330
A0
100
AcDbEntity
  8
1
  6
Continuous
 62
     6
100
AcDbLine
 10
270.9666666665985
 20
519.374021708065
 30
0.0
 11
339.2999999999294
 21
519.374021708065
 31
0.0
  0
LINE
  5
1FC
330
A0
100
AcDbEntity
  8
1
  6
Continuous
 62
     2
100
AcDbLine
 10
270.9666666665985
 20
524.374021708065
 30
0.0
 11
202.6333333332653
 21
524.374021708065
 31
0.0
  0
LINE
  5
1FD
330
A0
100
AcDbEntity
  8
1
  6
Continuous
 62
     2
100
AcDbLine
 10
202.6333333332653
 20
519.374021708065
 30
0.0
 11
202.6333333332653
 21
524.374021708065
 31
0.0
  0
LINE
  5
1FE
330
A0
100
AcDbEntity
  8
1
  6
Continuous
 62
     6
100
AcDbLine
 10
202.6333333332653
 20
519.374021708065
 30
0.0
 11
270.9666666665985
 21
519.374021708065
 31
0.0
  0
LINE
  5
1FF
330
A0
100
AcDbEntity
  8
1
  6
Continuous
 62
     2
100
AcDbLine
 10
202.6333333332653
 20
524.374021708065
 30
0.0
 11
154.2999999999291
 21
524.374021708065
 31
0.0
  0
LINE
  5
200
330
A0
100
AcDbEntity
  8
1
  6
Continuous
 62
     2
100
AcDbLine
 10
134.2999999999319
 20
519.374021708065
 30
0.0
 11
134.2999999999319
 21
524.374021708065
 31
0.0
  0
LINE
  5
201
330
A0
100
AcDbEntity
  8
1
  6
Continuous
 62
     6
100
AcDbLine
 10
134.2999999999319
 20
519.374021708065
 30
0.0
 11
202.6333333332653
 21
519.374021708065
 31
0.0
  0
LINE
  5
202
330
A0
100
AcDbEntity
  8
1
  6
Continuous
 62
     2
100
AcDbLine
 10
134.2999999999319
 20
524.374021708065
 30
0.0
 11
65.96666666659883
 21
524.374021708065
 31
0.0
  0
LINE
  5
203
330
A0
100
AcDbEntity
  8
1
  6
Continuous
 62
     2
100
AcDbLine
 10
65.96666666659883
 20
519.374021708065
 30
0.0
 11
65.96666666659883
 21
524.374021708065
 31
0.0
  0
LINE
  5
204
330
A0
100
AcDbEntity
  8
1
  6
Continuous
 62
     6
100
AcDbLine
 10
65.96666666659883
 20
519.374021708065
 30
0.0
 11
134.2999999999319
 21
519.374021708065
 31
0.0
  0
LINE
  5
205
330
A0
100
AcDbEntity
  8
1
  6
Continuous
 62
     2
100
AcDbLine
 10
65.96666666659883
 20
524.374021708065
 30
0.0
 11
-2.36666666673472
 21
524.374021708065
 31
0.0
  0
LINE
  5
206
330
A0
100
AcDbEntity
  8
1
  6
Continuous
 62
     2
100
AcDbLine
 10
-2.36666666673472
 20
519.3740217080652
 30
0.0
 11
-2.36666666673472
 21
524.374021708065
 31
0.0
  0
LINE
  5
207
330
A0
100
AcDbEntity
  8
1
  6
Continuous
 62
     6
100
AcDbLine
 10
-2.36666666673472
 20
519.3740217080652
 30
0.0
 11
65.96666666659883
 21
519.374021708065
 31
0.0
  0
LINE
  5
208
330
A0
100
AcDbEntity
  8
1
  6
Continuous
 62
     2
100
AcDbLine
 10
-2.36666666673472
 20
524.374021708065
 30
0.0
 11
-55.70000000006877
 21
524.374021708065
 31
0.0
  0
LINE
  5
209
330
A0
100
AcDbEntity
  8
1
  6
Continuous
 62
     2
100
AcDbLine
 10
-55.70000000006877
 20
524.374021708065
 30
0.0
 11
-55.70000000006877
 21
520.3740217080652
 31
0.0
  0
LINE
  5
20A
330
A0
100
AcDbEntity
  8
1
  6
Continuous
 62
     2
100
AcDbLine
 10
-55.70000000006877
 20
524.374021708065
 30
0.0
 11
-75.70000000006888
 21
524.374021708065
 31
0.0
  0
LINE
  5
20B
330
A0
100
AcDbEntity
  8
1
  6
Continuous
 62
     2
100
AcDbLine
 10
154.2999999999291
 20
524.374021708065
 30
0.0
 11
154.2999999999291
 21
520.3740217080652
 31
0.0
  0
LINE
  5
20C
330
A0
100
AcDbEntity
  8
1
  6
Continuous
 62
     2
100
AcDbLine
 10
154.2999999999291
 20
524.374021708065
 30
0.0
 11
134.2999999999319
 21
524.374021708065
 31
0.0
  0
LINE
  5
20D
330
A0
100
AcDbEntity
  8
1
  6
Continuous
 62
     2
100
AcDbLine
 10
-75.70000000006888
 20
524.374021708065
 30
0.0
 11
-75.70000000006888
 21
375.874021708065
 31
0.0
  0
LINE
  5
20E
330
A0
100
AcDbEntity
  8
1
  6
Continuous
 62
     2
100
AcDbLine
 10
-75.70000000006888
 20
375.874021708065
 30
0.0
 11
-65.70000000006877
 21
375.874021708065
 31
0.0
  0
LINE
  5
20F
330
A0
100
AcDbEntity
  8
1
  6
Continuous
 62
     2
100
AcDbLine
 10
-75.70000000006888
 20
375.874021708065
 30
0.0
 11
-75.70000000006888
 21
227.374021708065
 31
0.0
  0
LINE
  5
210
330
A0
100
AcDbEntity
  8
1
  6
Continuous
 62
     6
100
AcDbLine
 10
-55.7000000000678
 20
232.374021708065
 30
0.0
 11
-55.70000000006877
 21
519.3740217080652
 31
0.0
  0
LINE
  5
211
330
A0
100
AcDbEntity
  8
1
  6
Continuous
 62
     6
100
AcDbLine
 10
339.2999999999319
 20
232.3740217080645
 30
0.0
 11
339.2999999999315
 21
240.8740217080645
 31
0.0
  0
LINE
  5
212
330
A0
100
AcDbEntity
  8
1
  6
Continuous
 62
     6
100
AcDbLine
 10
65.96666666659883
 20
232.374021708065
 30
0.0
 11
209.755195473182
 21
232.374021708062
 31
0.0
  0
LINE
  5
213
330
A0
100
AcDbEntity
  8
1
  6
Continuous
 62
     2
100
AcDbLine
 10
202.6333333332653
 20
232.3740217080621
 30
0.0
 11
202.6333333332653
 21
232.374021708065
 31
0.0
  0
LINE
  5
214
330
A0
100
AcDbEntity
  8
1
  6
Continuous
 62
     6
100
AcDbLine
 10
339.2999999999337
 20
249.3740217080645
 30
0.0
 11
339.2999999999337
 21
257.8740217080645
 31
0.0
  0
LINE
  5
215
330
A0
100
AcDbEntity
  8
1
  6
Continuous
 62
     7
100
AcDbLine
 10
274.0551954731819
 20
240.8740217080645
 30
0.0
 11
274.0551954731819
 21
249.3740217080645
 31
0.0
  0
LINE
  5
216
330
A0
100
AcDbEntity
  8
1
  6
Continuous
 62
     6
100
AcDbLine
 10
246.1551954731819
 20
249.3740217080645
 30
0.0
 11
339.2999999999337
 21
249.3740217080645
 31
0.0
  0
LINE
  5
217
330
A0
100
AcDbEntity
  8
1
  6
Continuous
 62
     7
100
AcDbLine
 10
209.755195473182
 20
249.3740217080645
 30
0.0
 11
209.755195473182
 21
257.8740217080645
 31
0.0
  0
LINE
  5
218
330
A0
100
AcDbEntity
  8
1
  6
Continuous
 62
     7
100
AcDbLine
 10
246.1551954731819
 20
249.3740217080645
 30
0.0
 11
246.1551954731819
 21
257.8740217080645
 31
0.0
  0
LINE
  5
219
330
A0
100
AcDbEntity
  8
1
  6
Continuous
 62
     7
100
AcDbLine
 10
303.8815917182549
 20
257.8740217080645
 30
0.0
 11
303.8815917182549
 21
249.3740217080645
 31
0.0
  0
LINE
  5
21A
330
A0
100
AcDbEntity
  8
1
  6
Continuous
 62
     7
100
AcDbLine
 10
330.3815917182545
 20
257.8740217080645
 30
0.0
 11
330.3815917182545
 21
249.3740217080645
 31
0.0
  0
LINE
  5
21B
330
A0
100
AcDbEntity
  8
1
  6
Continuous
 62
     7
100
AcDbLine
 10
339.2999999999332
 20
240.8740217080645
 30
0.0
 11
246.1551954731819
 21
240.8740217080645
 31
0.0
  0
LINE
  5
21C
102
{ACAD_REACTORS
330
301
330
302
102
}
330
A0
100
AcDbEntity
  8
0
  6
Continuous
 62
     2
100
AcDbLine
 10
223.4626244149494
 20
241.6743108237278
 30
0.0
 11
223.4626244149494
 21
242.546827830531
 31
0.0
  0
LINE
  5
21D
102
{ACAD_REACTORS
330
301
330
302
102
}
330
A0
100
AcDbEntity
  8
0
  6
Continuous
 62
     2
100
AcDbLine
 10
223.4626244149494
 20
240.714542116245
 30
0.0
 11
223.4626244149494
 21
239.8420251094416
 31
0.0
  0
LINE
  5
21E
102
{ACAD_REACTORS
330
303
330
304
102
}
330
A0
100
AcDbEntity
  8
0
  6
Continuous
 62
     2
100
AcDbLine
 10
238.7956685512398
 20
241.9360659257682
 30
0.0
 11
239.8993078508079
 21
241.9360659257682
 31
0.0
  0
LINE
  5
21F
102
{ACAD_REACTORS
330
303
330
304
102
}
330
A0
100
AcDbEntity
  8
0
  6
Continuous
 62
     2
100
AcDbLine
 10
239.5653258942012
 20
240.7145421162444
 30
0.0
 11
239.5653258942012
 21
239.8420251094411
 31
0.0
  0
LINE
  5
220
102
{ACAD_REACTORS
330
30D
330
30E
102
}
330
A0
100
AcDbEntity
  8
0
  6
Continuous
 62
     2
100
AcDbLine
 10
237.7045692788214
 20
243.0267121842551
 30
0.0
 11
239.1025223257617
 21
244.60757117803
 31
0.0
  0
LINE
  5
221
102
{ACAD_REACTORS
330
30D
330
30E
102
}
330
A0
100
AcDbEntity
  8
0
  6
Continuous
 62
     2
100
AcDbLine
 10
237.7999926949942
 20
246.0805217080662
 30
0.0
 11
239.1025223257617
 21
244.60757117803
 31
0.0
  0
LINE
  5
222
102
{ACAD_REACTORS
330
30D
330
30E
102
}
330
A0
100
AcDbEntity
  8
0
  6
Continuous
 62
     2
100
AcDbLine
 10
240.4050519565281
 20
246.0805217080662
 30
0.0
 11
241.8077761742753
 21
246.0805217080662
 31
0.0
  0
LINE
  5
223
102
{ACAD_REACTORS
330
30D
330
30E
102
}
330
A0
100
AcDbEntity
  8
0
  6
Continuous
 62
     2
100
AcDbLine
 10
239.1072934965695
 20
243.0267121842551
 30
0.0
 11
239.8038844346353
 21
243.8144439695489
 31
0.0
  0
LINE
  5
224
102
{ACAD_REACTORS
330
30D
330
30E
102
}
330
A0
100
AcDbEntity
  8
0
  6
Continuous
 62
     2
100
AcDbLine
 10
239.1072934965695
 20
243.0267121842551
 30
0.0
 11
237.7045692788214
 21
243.0267121842551
 31
0.0
  0
LINE
  5
225
102
{ACAD_REACTORS
330
30F
330
310
102
}
330
A0
100
AcDbEntity
  8
0
  6
Continuous
 62
     2
100
AcDbLine
 10
237.5852900086045
 20
243.0267121842551
 30
0.0
 11
236.3447855983516
 21
243.0267121842551
 31
0.0
  0
LINE
  5
226
102
{ACAD_REACTORS
330
311
330
312
102
}
330
A0
100
AcDbEntity
  8
0
  6
Continuous
 62
     2
100
AcDbLine
 10
235.4768059901965
 20
240.8890455176052
 30
0.0
 11
235.1766407530063
 21
241.6568604835919
 31
0.0
  0
LINE
  5
227
102
{ACAD_REACTORS
330
311
330
312
102
}
330
A0
100
AcDbEntity
  8
0
  6
Continuous
 62
     2
100
AcDbLine
 10
234.876475515814
 20
240.8890455176052
 30
0.0
 11
235.4768059901965
 21
240.8890455176052
 31
0.0
  0
LINE
  5
228
102
{ACAD_REACTORS
330
311
330
312
102
}
330
A0
100
AcDbEntity
  8
0
  6
Continuous
 62
     2
100
AcDbLine
 10
233.1584355009402
 20
239.6675217080808
 30
0.0
 11
234.3989399111931
 21
239.6675217080808
 31
0.0
  0
LINE
  5
229
102
{ACAD_REACTORS
330
311
330
312
102
}
330
A0
100
AcDbEntity
  8
0
  6
Continuous
 62
     2
100
AcDbLine
 10
234.5563885478794
 20
242.721331231892
 30
0.0
 11
235.7968929581322
 21
242.721331231892
 31
0.0
  0
LINE
  5
22A
102
{ACAD_REACTORS
330
311
330
312
102
}
330
A0
100
AcDbEntity
  8
0
  6
Continuous
 62
     2
100
AcDbLine
 10
235.7968929581322
 20
242.721331231892
 30
0.0
 11
237.1948460050725
 21
239.6675217080808
 31
0.0
  0
LINE
  5
22B
102
{ACAD_REACTORS
330
311
330
312
102
}
330
A0
100
AcDbEntity
  8
0
  6
Continuous
 62
     2
100
AcDbLine
 10
235.9543415948186
 20
239.6675217080808
 30
0.0
 11
235.7428615413428
 21
240.2084822522986
 31
0.0
  0
LINE
  5
22C
102
{ACAD_REACTORS
330
313
330
314
102
}
330
A0
100
AcDbEntity
  8
0
  6
Continuous
 62
     2
100
AcDbLine
 10
231.8120223992326
 20
239.6675217080808
 30
0.0
 11
233.004815101399
 21
239.6675217080808
 31
0.0
  0
LINE
  5
22D
102
{ACAD_REACTORS
330
313
330
314
102
}
330
A0
100
AcDbEntity
  8
0
  6
Continuous
 62
     2
100
AcDbLine
 10
231.8120223992326
 20
241.9360659257682
 30
0.0
 11
231.8120223992326
 21
239.6675217080808
 31
0.0
  0
LINE
  5
22E
102
{ACAD_REACTORS
330
313
330
314
102
}
330
A0
100
AcDbEntity
  8
0
  6
Continuous
 62
     2
100
AcDbLine
 10
231.0009233617579
 20
242.721331231892
 30
0.0
 11
231.0009233617579
 21
241.9360659257682
 31
0.0
  0
LINE
  5
22F
102
{ACAD_REACTORS
330
315
330
316
102
}
330
A0
100
AcDbEntity
  8
0
  6
Continuous
 62
     2
100
AcDbLine
 10
232.4801372433306
 20
243.0267121842551
 30
0.0
 11
233.672929945497
 21
243.0267121842551
 31
0.0
  0
LINE
  5
230
102
{ACAD_REACTORS
330
315
330
316
102
}
330
A0
100
AcDbEntity
  8
0
  6
Continuous
 62
     2
100
AcDbLine
 10
234.9134343557511
 20
244.7717461978612
 30
0.0
 11
233.672929945497
 21
246.0805217080662
 31
0.0
  0
LINE
  5
231
102
{ACAD_REACTORS
330
315
330
316
102
}
330
A0
100
AcDbEntity
  8
0
  6
Continuous
 62
     2
100
AcDbLine
 10
236.1062270579177
 20
246.0805217080662
 30
0.0
 11
234.9134343557511
 21
246.0805217080662
 31
0.0
  0
LINE
  5
232
102
{ACAD_REACTORS
330
315
330
316
102
}
330
A0
100
AcDbEntity
  8
0
  6
Continuous
 62
     2
100
AcDbLine
 10
236.1062270579177
 20
243.0267121842551
 30
0.0
 11
236.1062270579177
 21
246.0805217080662
 31
0.0
  0
LINE
  5
233
102
{ACAD_REACTORS
330
315
330
316
102
}
330
A0
100
AcDbEntity
  8
0
  6
Continuous
 62
     2
100
AcDbLine
 10
234.9134343557511
 20
243.0267121842551
 30
0.0
 11
236.1062270579177
 21
243.0267121842551
 31
0.0
  0
LINE
  5
234
102
{ACAD_REACTORS
330
315
330
316
102
}
330
A0
100
AcDbEntity
  8
0
  6
Continuous
 62
     2
100
AcDbLine
 10
233.672929945497
 20
244.3354876944599
 30
0.0
 11
234.9134343557511
 21
243.0267121842551
 31
0.0
  0
LINE
  5
235
102
{ACAD_REACTORS
330
317
330
318
102
}
330
A0
100
AcDbEntity
  8
0
  6
Continuous
 62
     2
100
AcDbLine
 10
229.6649955353314
 20
241.4125557216867
 30
0.0
 11
228.4244911250784
 21
242.721331231892
 31
0.0
  0
LINE
  5
236
102
{ACAD_REACTORS
330
317
330
318
102
}
330
A0
100
AcDbEntity
  8
0
  6
Continuous
 62
     2
100
AcDbLine
 10
229.6649955353314
 20
242.721331231892
 30
0.0
 11
229.6649955353314
 21
241.4125557216867
 31
0.0
  0
LINE
  5
237
102
{ACAD_REACTORS
330
317
330
318
102
}
330
A0
100
AcDbEntity
  8
0
  6
Continuous
 62
     2
100
AcDbLine
 10
230.8577882374978
 20
242.721331231892
 30
0.0
 11
229.6649955353314
 21
242.721331231892
 31
0.0
  0
LINE
  5
238
102
{ACAD_REACTORS
330
317
330
318
102
}
330
A0
100
AcDbEntity
  8
0
  6
Continuous
 62
     2
100
AcDbLine
 10
230.8577882374978
 20
239.6675217080808
 30
0.0
 11
230.8577882374978
 21
242.721331231892
 31
0.0
  0
LINE
  5
239
102
{ACAD_REACTORS
330
317
330
318
102
}
330
A0
100
AcDbEntity
  8
0
  6
Continuous
 62
     2
100
AcDbLine
 10
228.4244911250784
 20
240.9762972182853
 30
0.0
 11
229.6649955353314
 21
239.6675217080808
 31
0.0
  0
LINE
  5
23A
102
{ACAD_REACTORS
330
317
330
318
102
}
330
A0
100
AcDbEntity
  8
0
  6
Continuous
 62
     2
100
AcDbLine
 10
228.4244911250784
 20
239.6675217080808
 30
0.0
 11
228.4244911250784
 21
240.9762972182853
 31
0.0
  0
LINE
  5
23B
102
{ACAD_REACTORS
330
307
330
308
102
}
330
A0
100
AcDbEntity
  8
0
  6
Continuous
 62
     2
100
AcDbLine
 10
230.90565087647
 20
245.3825081026233
 30
0.0
 11
232.2415787028976
 21
245.3825081026233
 31
0.0
  0
LINE
  5
23C
102
{ACAD_REACTORS
330
307
330
308
102
}
330
A0
100
AcDbEntity
  8
0
  6
Continuous
 62
     2
100
AcDbLine
 10
230.90565087647
 20
243.7247257896975
 30
0.0
 11
230.90565087647
 21
244.2046101434393
 31
0.0
  0
LINE
  5
23D
102
{ACAD_REACTORS
330
307
330
308
102
}
330
A0
100
AcDbEntity
  8
0
  6
Continuous
 62
     2
100
AcDbLine
 10
232.2415787028976
 20
243.7247257896975
 30
0.0
 11
230.90565087647
 21
243.7247257896975
 31
0.0
  0
LINE
  5
23E
102
{ACAD_REACTORS
330
307
330
308
102
}
330
A0
100
AcDbEntity
  8
0
  6
Continuous
 62
     2
100
AcDbLine
 10
232.2415787028976
 20
243.0267121842551
 30
0.0
 11
232.2415787028976
 21
243.7247257896975
 31
0.0
  0
LINE
  5
23F
102
{ACAD_REACTORS
330
307
330
308
102
}
330
A0
100
AcDbEntity
  8
0
  6
Continuous
 62
     2
100
AcDbLine
 10
229.0912589791167
 20
243.0267121842551
 30
0.0
 11
232.2415787028976
 21
243.0267121842551
 31
0.0
  0
LINE
  5
240
102
{ACAD_REACTORS
330
307
330
308
102
}
330
A0
100
AcDbEntity
  8
0
  6
Continuous
 62
     2
100
AcDbLine
 10
229.0912589791167
 20
246.0805217080662
 30
0.0
 11
232.2415787028976
 21
246.0805217080662
 31
0.0
  0
LINE
  5
241
102
{ACAD_REACTORS
330
307
330
308
102
}
330
A0
100
AcDbEntity
  8
0
  6
Continuous
 62
     2
100
AcDbLine
 10
232.2415787028976
 20
245.3825081026233
 30
0.0
 11
232.2415787028976
 21
246.0805217080662
 31
0.0
  0
LINE
  5
242
102
{ACAD_REACTORS
330
319
330
31A
102
}
330
A0
100
AcDbEntity
  8
0
  6
Continuous
 62
     2
100
AcDbLine
 10
226.2299034839766
 20
245.0116883747317
 30
0.0
 11
226.2299034839766
 21
246.0805217080662
 31
0.0
  0
LINE
  5
243
102
{ACAD_REACTORS
330
319
330
31A
102
}
330
A0
100
AcDbEntity
  8
0
  6
Continuous
 62
     2
100
AcDbLine
 10
226.2299034839766
 20
246.0805217080662
 30
0.0
 11
227.4226961861431
 21
246.0805217080662
 31
0.0
  0
LINE
  5
244
102
{ACAD_REACTORS
330
319
330
31A
102
}
330
A0
100
AcDbEntity
  8
0
  6
Continuous
 62
     2
100
AcDbLine
 10
226.2299034839766
 20
244.1609842930988
 30
0.0
 11
225.1802459060692
 21
244.1609842930988
 31
0.0
  0
LINE
  5
245
102
{ACAD_REACTORS
330
319
330
31A
102
}
330
A0
100
AcDbEntity
  8
0
  6
Continuous
 62
     2
100
AcDbLine
 10
225.1802459060692
 20
244.1609842930988
 30
0.0
 11
225.1802459060692
 21
243.0267121842551
 31
0.0
  0
LINE
  5
246
102
{ACAD_REACTORS
330
319
330
31A
102
}
330
A0
100
AcDbEntity
  8
0
  6
Continuous
 62
     2
100
AcDbLine
 10
223.9874532039026
 20
246.0805217080662
 30
0.0
 11
223.9874532039026
 21
243.0267121842551
 31
0.0
  0
LINE
  5
247
102
{ACAD_REACTORS
330
30B
330
30C
102
}
330
A0
100
AcDbEntity
  8
0
  6
Continuous
 62
     2
100
AcDbLine
 10
222.0312731723489
 20
244.7116882132839
 30
0.0
 11
222.0312731723489
 21
245.4174158626262
 31
0.0
  0
LINE
  5
248
102
{ACAD_REACTORS
330
30B
330
30C
102
}
330
A0
100
AcDbEntity
  8
0
  6
Continuous
 62
     2
100
AcDbLine
 10
220.7907687620949
 20
243.0267121842551
 30
0.0
 11
222.0312731723489
 21
243.0267121842551
 31
0.0
  0
LINE
  5
249
102
{ACAD_REACTORS
330
30B
330
30C
102
}
330
A0
100
AcDbEntity
  8
0
  6
Continuous
 62
     2
100
AcDbLine
 10
222.0312731723489
 20
243.0267121842551
 30
0.0
 11
222.0312731723489
 21
243.9697904253989
 31
0.0
  0
LINE
  5
24A
102
{ACAD_REACTORS
330
305
330
306
102
}
330
A0
100
AcDbEntity
  8
0
  6
Continuous
 62
     2
100
AcDbLine
 10
216.4858229128834
 20
240.3800772636377
 30
0.0
 11
215.0099896518738
 21
240.3800772636377
 31
0.0
  0
LINE
  5
24B
102
{ACAD_REACTORS
330
305
330
306
102
}
330
A0
100
AcDbEntity
  8
0
  6
Continuous
 62
     2
100
AcDbLine
 10
213.9918503597445
 20
245.6562770926643
 30
0.0
 11
213.9918503597445
 21
240.091766323464
 31
0.0
  0
LINE
  5
24C
102
{ACAD_REACTORS
330
305
330
306
102
}
330
A0
100
AcDbEntity
  8
0
  6
Continuous
 62
     2
100
AcDbLine
 10
214.4160949751273
 20
246.0805217080481
 30
0.0
 11
219.8894070658442
 21
246.0805217080481
 31
0.0
  0
LINE
  5
24D
102
{ACAD_REACTORS
330
305
330
306
102
}
330
A0
100
AcDbEntity
  8
0
  6
Continuous
 62
     2
100
AcDbLine
 10
220.3136516812281
 20
245.6562770926643
 30
0.0
 11
220.3136516812281
 21
240.091766323464
 31
0.0
  0
LINE
  5
24E
102
{ACAD_REACTORS
330
305
330
306
102
}
330
A0
100
AcDbEntity
  8
0
  6
Continuous
 62
     2
100
AcDbLine
 10
219.8894070658442
 20
239.6675217080808
 30
0.0
 11
214.4160949751273
 21
239.6675217080808
 31
0.0
  0
LINE
  5
24F
102
{ACAD_REACTORS
330
305
330
306
102
}
330
A0
100
AcDbEntity
  8
0
  6
Continuous
 62
     2
100
AcDbLine
 10
216.80153983596
 20
240.6957941867144
 30
0.0
 11
216.80153983596
 21
242.226565118246
 31
0.0
  0
LINE
  5
250
102
{ACAD_REACTORS
330
305
330
306
102
}
330
A0
100
AcDbEntity
  8
0
  6
Continuous
 62
     2
100
AcDbLine
 10
216.80153983596
 20
244.4482246103709
 30
0.0
 11
216.80153983596
 21
245.0522492294315
 31
0.0
  0
LINE
  5
251
102
{ACAD_REACTORS
330
305
330
306
102
}
330
A0
100
AcDbEntity
  8
0
  6
Continuous
 62
     2
100
AcDbLine
 10
215.0099896518738
 20
245.3679661525076
 30
0.0
 11
216.4858229128834
 21
245.3679661525076
 31
0.0
  0
LINE
  5
252
102
{ACAD_REACTORS
330
305
330
306
102
}
330
A0
100
AcDbEntity
  8
0
  6
Continuous
 62
     2
100
AcDbLine
 10
214.6942727287982
 20
245.0522492294315
 30
0.0
 11
214.6942727287982
 21
240.6957941867144
 31
0.0
  0
LINE
  5
253
102
{ACAD_REACTORS
330
30B
330
30C
102
}
330
A0
100
AcDbEntity
  8
0
  6
Continuous
 62
     2
100
AcDbLine
 10
222.0312731723489
 20
243.9697904253989
 30
0.0
 11
222.7900407601293
 21
243.9697904253989
 31
0.0
  0
LINE
  5
254
102
{ACAD_REACTORS
330
30B
330
30C
102
}
330
A0
100
AcDbEntity
  8
0
  6
Continuous
 62
     2
100
AcDbLine
 10
220.7907687620949
 20
246.0805217080662
 30
0.0
 11
222.7900407601293
 21
246.0805217080662
 31
0.0
  0
LINE
  5
255
102
{ACAD_REACTORS
330
30B
330
30C
102
}
330
A0
100
AcDbEntity
  8
0
  6
Continuous
 62
     2
100
AcDbLine
 10
220.7907687620949
 20
246.0805217080662
 30
0.0
 11
220.7907687620949
 21
243.0267121842551
 31
0.0
  0
LINE
  5
256
102
{ACAD_REACTORS
330
30B
330
30C
102
}
330
A0
100
AcDbEntity
  8
0
  6
Continuous
 62
     2
100
AcDbLine
 10
222.0312731723489
 20
244.7116882132839
 30
0.0
 11
222.3485682338909
 21
244.7116882132839
 31
0.0
  0
LINE
  5
257
102
{ACAD_REACTORS
330
30B
330
30C
102
}
330
A0
100
AcDbEntity
  8
0
  6
Continuous
 62
     2
100
AcDbLine
 10
222.0312731723489
 20
245.4174158626262
 30
0.0
 11
222.3485682338909
 21
245.4174158626262
 31
0.0
  0
LINE
  5
258
102
{ACAD_REACTORS
330
319
330
31A
102
}
330
A0
100
AcDbEntity
  8
0
  6
Continuous
 62
     2
100
AcDbLine
 10
225.1802459060692
 20
245.0116883747317
 30
0.0
 11
226.2299034839766
 21
245.0116883747317
 31
0.0
  0
LINE
  5
259
102
{ACAD_REACTORS
330
319
330
31A
102
}
330
A0
100
AcDbEntity
  8
0
  6
Continuous
 62
     2
100
AcDbLine
 10
225.1802459060692
 20
246.0805217080662
 30
0.0
 11
225.1802459060692
 21
245.0116883747317
 31
0.0
  0
LINE
  5
25A
102
{ACAD_REACTORS
330
319
330
31A
102
}
330
A0
100
AcDbEntity
  8
0
  6
Continuous
 62
     2
100
AcDbLine
 10
223.9874532039026
 20
246.0805217080662
 30
0.0
 11
225.1802459060692
 21
246.0805217080662
 31
0.0
  0
LINE
  5
25B
102
{ACAD_REACTORS
330
319
330
31A
102
}
330
A0
100
AcDbEntity
  8
0
  6
Continuous
 62
     2
100
AcDbLine
 10
225.1802459060692
 20
243.0267121842551
 30
0.0
 11
223.9874532039026
 21
243.0267121842551
 31
0.0
  0
LINE
  5
25C
102
{ACAD_REACTORS
330
319
330
31A
102
}
330
A0
100
AcDbEntity
  8
0
  6
Continuous
 62
     2
100
AcDbLine
 10
226.2299034839766
 20
243.0267121842551
 30
0.0
 11
226.2299034839766
 21
244.1609842930988
 31
0.0
  0
LINE
  5
25D
102
{ACAD_REACTORS
330
319
330
31A
102
}
330
A0
100
AcDbEntity
  8
0
  6
Continuous
 62
     2
100
AcDbLine
 10
227.4226961861431
 20
243.0267121842551
 30
0.0
 11
226.2299034839766
 21
243.0267121842551
 31
0.0
  0
LINE
  5
25E
102
{ACAD_REACTORS
330
319
330
31A
102
}
330
A0
100
AcDbEntity
  8
0
  6
Continuous
 62
     2
100
AcDbLine
 10
227.4226961861431
 20
246.0805217080662
 30
0.0
 11
227.4226961861431
 21
243.0267121842551
 31
0.0
  0
LINE
  5
25F
102
{ACAD_REACTORS
330
307
330
308
102
}
330
A0
100
AcDbEntity
  8
0
  6
Continuous
 62
     2
100
AcDbLine
 10
230.90565087647
 20
244.2046101434393
 30
0.0
 11
232.2415787028976
 21
244.2046101434393
 31
0.0
  0
LINE
  5
260
102
{ACAD_REACTORS
330
307
330
308
102
}
330
A0
100
AcDbEntity
  8
0
  6
Continuous
 62
     2
100
AcDbLine
 10
232.2415787028976
 20
244.2046101434393
 30
0.0
 11
232.2415787028976
 21
244.9026237488816
 31
0.0
  0
LINE
  5
261
102
{ACAD_REACTORS
330
307
330
308
102
}
330
A0
100
AcDbEntity
  8
0
  6
Continuous
 62
     2
100
AcDbLine
 10
232.2415787028976
 20
244.9026237488816
 30
0.0
 11
230.90565087647
 21
244.9026237488816
 31
0.0
  0
LINE
  5
262
102
{ACAD_REACTORS
330
307
330
308
102
}
330
A0
100
AcDbEntity
  8
0
  6
Continuous
 62
     2
100
AcDbLine
 10
230.90565087647
 20
244.9026237488816
 30
0.0
 11
230.90565087647
 21
245.3825081026233
 31
0.0
  0
LINE
  5
263
102
{ACAD_REACTORS
330
317
330
318
102
}
330
A0
100
AcDbEntity
  8
0
  6
Continuous
 62
     2
100
AcDbLine
 10
227.2316984229109
 20
239.6675217080808
 30
0.0
 11
228.4244911250784
 21
239.6675217080808
 31
0.0
  0
LINE
  5
264
102
{ACAD_REACTORS
330
317
330
318
102
}
330
A0
100
AcDbEntity
  8
0
  6
Continuous
 62
     2
100
AcDbLine
 10
229.6649955353314
 20
239.6675217080808
 30
0.0
 11
230.8577882374978
 21
239.6675217080808
 31
0.0
  0
LINE
  5
265
102
{ACAD_REACTORS
330
317
330
318
102
}
330
A0
100
AcDbEntity
  8
0
  6
Continuous
 62
     2
100
AcDbLine
 10
228.4244911250784
 20
242.721331231892
 30
0.0
 11
227.2316984229109
 21
242.721331231892
 31
0.0
  0
LINE
  5
266
102
{ACAD_REACTORS
330
317
330
318
102
}
330
A0
100
AcDbEntity
  8
0
  6
Continuous
 62
     2
100
AcDbLine
 10
227.2316984229109
 20
242.721331231892
 30
0.0
 11
227.2316984229109
 21
239.6675217080808
 31
0.0
  0
LINE
  5
267
102
{ACAD_REACTORS
330
315
330
316
102
}
330
A0
100
AcDbEntity
  8
0
  6
Continuous
 62
     2
100
AcDbLine
 10
234.9134343557511
 20
246.0805217080662
 30
0.0
 11
234.9134343557511
 21
244.7717461978612
 31
0.0
  0
LINE
  5
268
102
{ACAD_REACTORS
330
315
330
316
102
}
330
A0
100
AcDbEntity
  8
0
  6
Continuous
 62
     2
100
AcDbLine
 10
233.672929945497
 20
246.0805217080662
 30
0.0
 11
232.4801372433306
 21
246.0805217080662
 31
0.0
  0
LINE
  5
269
102
{ACAD_REACTORS
330
315
330
316
102
}
330
A0
100
AcDbEntity
  8
0
  6
Continuous
 62
     2
100
AcDbLine
 10
232.4801372433306
 20
246.0805217080662
 30
0.0
 11
232.4801372433306
 21
243.0267121842551
 31
0.0
  0
LINE
  5
26A
102
{ACAD_REACTORS
330
315
330
316
102
}
330
A0
100
AcDbEntity
  8
0
  6
Continuous
 62
     2
100
AcDbLine
 10
233.672929945497
 20
243.0267121842551
 30
0.0
 11
233.672929945497
 21
244.3354876944599
 31
0.0
  0
LINE
  5
26B
102
{ACAD_REACTORS
330
313
330
314
102
}
330
A0
100
AcDbEntity
  8
0
  6
Continuous
 62
     2
100
AcDbLine
 10
233.004815101399
 20
239.6675217080808
 30
0.0
 11
233.004815101399
 21
241.9360659257682
 31
0.0
  0
LINE
  5
26C
102
{ACAD_REACTORS
330
313
330
314
102
}
330
A0
100
AcDbEntity
  8
0
  6
Continuous
 62
     2
100
AcDbLine
 10
233.004815101399
 20
241.9360659257682
 30
0.0
 11
233.8159141388716
 21
241.9360659257682
 31
0.0
  0
LINE
  5
26D
102
{ACAD_REACTORS
330
313
330
314
102
}
330
A0
100
AcDbEntity
  8
0
  6
Continuous
 62
     2
100
AcDbLine
 10
233.8159141388716
 20
241.9360659257682
 30
0.0
 11
233.8159141388716
 21
242.721331231892
 31
0.0
  0
LINE
  5
26E
102
{ACAD_REACTORS
330
313
330
314
102
}
330
A0
100
AcDbEntity
  8
0
  6
Continuous
 62
     2
100
AcDbLine
 10
233.8159141388716
 20
242.721331231892
 30
0.0
 11
231.0009233617579
 21
242.721331231892
 31
0.0
  0
LINE
  5
26F
102
{ACAD_REACTORS
330
313
330
314
102
}
330
A0
100
AcDbEntity
  8
0
  6
Continuous
 62
     2
100
AcDbLine
 10
231.0009233617579
 20
241.9360659257682
 30
0.0
 11
231.8120223992326
 21
241.9360659257682
 31
0.0
  0
LINE
  5
270
102
{ACAD_REACTORS
330
311
330
312
102
}
330
A0
100
AcDbEntity
  8
0
  6
Continuous
 62
     2
100
AcDbLine
 10
234.6104199646689
 20
240.2084822522986
 30
0.0
 11
235.7428615413428
 21
240.2084822522986
 31
0.0
  0
LINE
  5
271
102
{ACAD_REACTORS
330
311
330
312
102
}
330
A0
100
AcDbEntity
  8
0
  6
Continuous
 62
     2
100
AcDbLine
 10
237.1948460050725
 20
239.6675217080808
 30
0.0
 11
235.9543415948186
 21
239.6675217080808
 31
0.0
  0
LINE
  5
272
102
{ACAD_REACTORS
330
311
330
312
102
}
330
A0
100
AcDbEntity
  8
0
  6
Continuous
 62
     2
100
AcDbLine
 10
234.5563885478794
 20
242.721331231892
 30
0.0
 11
233.1584355009402
 21
239.6675217080808
 31
0.0
  0
LINE
  5
273
102
{ACAD_REACTORS
330
311
330
312
102
}
330
A0
100
AcDbEntity
  8
0
  6
Continuous
 62
     2
100
AcDbLine
 10
234.3989399111931
 20
239.6675217080808
 30
0.0
 11
234.6104199646689
 21
240.2084822522986
 31
0.0
  0
LINE
  5
274
102
{ACAD_REACTORS
330
311
330
312
102
}
330
A0
100
AcDbEntity
  8
0
  6
Continuous
 62
     2
100
AcDbLine
 10
234.876475515814
 20
240.8890455176052
 30
0.0
 11
235.1766407530063
 21
241.6568604835919
 31
0.0
  0
LINE
  5
275
102
{ACAD_REACTORS
330
30F
330
310
102
}
330
A0
100
AcDbEntity
  8
0
  6
Continuous
 62
     2
100
AcDbLine
 10
236.3447855983516
 20
243.0267121842551
 30
0.0
 11
236.3447855983516
 21
246.0805217080662
 31
0.0
  0
LINE
  5
276
102
{ACAD_REACTORS
330
30F
330
310
102
}
330
A0
100
AcDbEntity
  8
0
  6
Continuous
 62
     2
100
AcDbLine
 10
237.5852900086045
 20
246.0805217080662
 30
0.0
 11
237.5852900086045
 21
243.0267121842551
 31
0.0
  0
LINE
  5
277
102
{ACAD_REACTORS
330
30F
330
310
102
}
330
A0
100
AcDbEntity
  8
0
  6
Continuous
 62
     2
100
AcDbLine
 10
236.3447855983516
 20
246.0805217080662
 30
0.0
 11
237.5852900086045
 21
246.0805217080662
 31
0.0
  0
LINE
  5
278
102
{ACAD_REACTORS
330
30D
330
30E
102
}
330
A0
100
AcDbEntity
  8
0
  6
Continuous
 62
     2
100
AcDbLine
 10
239.8038844346353
 20
243.8144439695489
 30
0.0
 11
240.5004753727007
 21
243.0267121842551
 31
0.0
  0
LINE
  5
279
102
{ACAD_REACTORS
330
30D
330
30E
102
}
330
A0
100
AcDbEntity
  8
0
  6
Continuous
 62
     2
100
AcDbLine
 10
240.5004753727007
 20
243.0267121842551
 30
0.0
 11
241.903199590449
 21
243.0267121842551
 31
0.0
  0
LINE
  5
27A
102
{ACAD_REACTORS
330
30D
330
30E
102
}
330
A0
100
AcDbEntity
  8
0
  6
Continuous
 62
     2
100
AcDbLine
 10
240.5052465435087
 20
244.60757117803
 30
0.0
 11
241.903199590449
 21
243.0267121842551
 31
0.0
  0
LINE
  5
27B
102
{ACAD_REACTORS
330
30D
330
30E
102
}
330
A0
100
AcDbEntity
  8
0
  6
Continuous
 62
     2
100
AcDbLine
 10
240.5052465435087
 20
244.60757117803
 30
0.0
 11
241.8077761742753
 21
246.0805217080662
 31
0.0
  0
LINE
  5
27C
102
{ACAD_REACTORS
330
30D
330
30E
102
}
330
A0
100
AcDbEntity
  8
0
  6
Continuous
 62
     2
100
AcDbLine
 10
239.8038844346353
 20
245.4006983865107
 30
0.0
 11
240.4050519565281
 21
246.0805217080662
 31
0.0
  0
LINE
  5
27D
102
{ACAD_REACTORS
330
30D
330
30E
102
}
330
A0
100
AcDbEntity
  8
0
  6
Continuous
 62
     2
100
AcDbLine
 10
239.2027169127434
 20
246.0805217080662
 30
0.0
 11
239.8038844346353
 21
245.4006983865107
 31
0.0
  0
LINE
  5
27E
102
{ACAD_REACTORS
330
30D
330
30E
102
}
330
A0
100
AcDbEntity
  8
0
  6
Continuous
 62
     2
100
AcDbLine
 10
239.2027169127434
 20
246.0805217080662
 30
0.0
 11
237.7999926949942
 21
246.0805217080662
 31
0.0
  0
LINE
  5
27F
102
{ACAD_REACTORS
330
303
330
304
102
}
330
A0
100
AcDbEntity
  8
0
  6
Continuous
 62
     2
100
AcDbLine
 10
239.8993078508079
 20
239.6675217080808
 30
0.0
 11
241.0921005529756
 21
239.6675217080808
 31
0.0
  0
LINE
  5
280
102
{ACAD_REACTORS
330
303
330
304
102
}
330
A0
100
AcDbEntity
  8
0
  6
Continuous
 62
     2
100
AcDbLine
 10
241.0921005529756
 20
239.6675217080808
 30
0.0
 11
241.0921005529756
 21
241.9360659257682
 31
0.0
  0
LINE
  5
281
102
{ACAD_REACTORS
330
303
330
304
102
}
330
A0
100
AcDbEntity
  8
0
  6
Continuous
 62
     2
100
AcDbLine
 10
241.0921005529756
 20
241.9360659257682
 30
0.0
 11
241.903199590449
 21
241.9360659257682
 31
0.0
  0
LINE
  5
282
102
{ACAD_REACTORS
330
303
330
304
102
}
330
A0
100
AcDbEntity
  8
0
  6
Continuous
 62
     2
100
AcDbLine
 10
241.903199590449
 20
241.9360659257682
 30
0.0
 11
241.903199590449
 21
242.721331231892
 31
0.0
  0
LINE
  5
283
102
{ACAD_REACTORS
330
303
330
304
102
}
330
A0
100
AcDbEntity
  8
0
  6
Continuous
 62
     2
100
AcDbLine
 10
238.5182540718204
 20
242.7213312318913
 30
0.0
 11
241.903199590449
 21
242.721331231892
 31
0.0
  0
LINE
  5
284
102
{ACAD_REACTORS
330
303
330
304
102
}
330
A0
100
AcDbEntity
  8
0
  6
Continuous
 62
     2
100
AcDbLine
 10
239.8993078508079
 20
241.9360659257682
 30
0.0
 11
239.8993078508079
 21
239.6675217080808
 31
0.0
  0
LINE
  5
285
102
{ACAD_REACTORS
330
305
330
306
102
}
330
A0
100
AcDbEntity
  8
0
  6
Continuous
 62
     2
100
AcDbLine
 10
217.2698214153288
 20
241.6464018576453
 30
0.0
 11
217.2698214153288
 21
242.2282532643404
 31
0.0
  0
LINE
  5
286
102
{ACAD_REACTORS
330
305
330
306
102
}
330
A0
100
AcDbEntity
  8
0
  6
Continuous
 62
     2
100
AcDbLine
 10
217.2698214153288
 20
244.4465364642765
 30
0.0
 11
217.2698214153288
 21
245.0520717527833
 31
0.0
  0
LINE
  5
287
330
A0
100
AcDbEntity
  8
1
  6
Continuous
 62
     6
100
AcDbLine
 10
295.7999999999319
 20
232.3740217080645
 30
0.0
 11
339.2999999999319
 21
232.3740217080645
 31
0.0
  0
LINE
  5
288
330
A0
100
AcDbEntity
  8
1
  6
Continuous
 62
     6
100
AcDbLine
 10
245.7999999999319
 20
232.3740217080645
 30
0.0
 11
227.9551954731819
 21
232.3740217080645
 31
0.0
  0
LINE
  5
289
330
A0
100
AcDbEntity
  8
1
  6
Continuous
 62
     6
100
AcDbLine
 10
209.755195473182
 20
249.3740217080645
 30
0.0
 11
246.1551954731819
 21
249.3740217080645
 31
0.0
  0
LINE
  5
28A
330
A0
100
AcDbEntity
  8
1
  6
Continuous
 62
     6
100
AcDbLine
 10
339.2999999999319
 20
232.3740217080645
 30
0.0
 11
339.2999999999332
 21
240.8740217080645
 31
0.0
  0
LINE
  5
28B
330
A0
100
AcDbEntity
  8
1
  6
Continuous
 62
     6
100
AcDbLine
 10
246.1551954731819
 20
232.3740217080645
 30
0.0
 11
295.7999999999319
 21
232.3740217080645
 31
0.0
  0
LINE
  5
28C
330
A0
100
AcDbEntity
  8
1
  6
Continuous
 62
     7
100
AcDbLine
 10
209.755195473182
 20
249.3740217080645
 30
0.0
 11
209.755195473182
 21
236.6240217080645
 31
0.0
  0
LINE
  5
28D
330
A0
100
AcDbEntity
  8
1
  6
Continuous
 62
     7
100
AcDbLine
 10
246.1551954731819
 20
249.3740217080645
 30
0.0
 11
246.1551954731819
 21
236.6240217080645
 31
0.0
  0
LINE
  5
28E
330
A0
100
AcDbEntity
  8
1
  6
Continuous
 62
     6
100
AcDbLine
 10
246.1551954731819
 20
232.3740217080645
 30
0.0
 11
245.7999999999319
 21
232.3740217080645
 31
0.0
  0
LINE
  5
28F
330
A0
100
AcDbEntity
  8
1
  6
Continuous
 62
     6
100
AcDbLine
 10
339.2999999999337
 20
249.3740217080645
 30
0.0
 11
339.2999999999332
 21
240.8740217080645
 31
0.0
  0
LINE
  5
290
330
A0
100
AcDbEntity
  8
1
  6
Continuous
 62
     2
100
AcDbLine
 10
213.9918503597445
 20
254.7490217080643
 30
0.0
 11
218.9918503597445
 21
255.9990217080643
 31
0.0
  0
LINE
  5
291
330
A0
100
AcDbEntity
  8
1
  6
Continuous
 62
     2
100
AcDbLine
 10
213.9918503597445
 20
252.2490217080643
 30
0.0
 11
213.9918503597445
 21
254.7490217080643
 31
0.0
  0
LINE
  5
292
330
A0
100
AcDbEntity
  8
1
  6
Continuous
 62
     2
100
AcDbLine
 10
218.9918503597445
 20
250.9990217080643
 30
0.0
 11
213.9918503597445
 21
252.2490217080643
 31
0.0
  0
LINE
  5
293
330
A0
100
AcDbEntity
  8
1
  6
Continuous
 62
     2
100
AcDbLine
 10
218.9918503597445
 20
255.9990217080643
 30
0.0
 11
218.9918503597445
 21
250.9990217080643
 31
0.0
  0
LINE
  5
294
330
A0
100
AcDbEntity
  8
1
  6
Continuous
 62
     7
100
AcDbLine
 10
209.755195473182
 20
236.6240217080645
 30
0.0
 11
227.9551954731819
 21
236.6240217080645
 31
0.0
  0
LINE
  5
295
330
A0
100
AcDbEntity
  8
1
  6
Continuous
 62
     7
100
AcDbLine
 10
209.755195473182
 20
236.6240217080645
 30
0.0
 11
209.755195473182
 21
232.3740217080645
 31
0.0
  0
LINE
  5
296
330
A0
100
AcDbEntity
  8
1
  6
Continuous
 62
     7
100
AcDbLine
 10
246.1551954731819
 20
236.6240217080645
 30
0.0
 11
246.1551954731819
 21
232.3740217080645
 31
0.0
  0
LINE
  5
297
330
A0
100
AcDbEntity
  8
1
  6
Continuous
 62
     7
100
AcDbLine
 10
227.9551954731819
 20
236.6240217080645
 30
0.0
 11
227.9551954731819
 21
232.3740217080645
 31
0.0
  0
LINE
  5
298
330
A0
100
AcDbEntity
  8
1
  6
Continuous
 62
     6
100
AcDbLine
 10
227.9551954731819
 20
232.3740217080645
 30
0.0
 11
209.755195473182
 21
232.3740217080645
 31
0.0
  0
LINE
  5
299
330
A0
100
AcDbEntity
  8
1
  6
Continuous
 62
     7
100
AcDbLine
 10
227.9551954731819
 20
236.6240217080645
 30
0.0
 11
246.1551954731819
 21
236.6240217080645
 31
0.0
  0
LINE
  5
29A
330
A0
100
AcDbEntity
  8
1
  6
Continuous
 62
     6
100
AcDbLine
 10
209.755195473182
 20
257.8740217080645
 30
0.0
 11
339.2999999999337
 21
257.8740217080645
 31
0.0
  0
LINE
  5
29B
330
A0
100
AcDbEntity
  8
1
  6
PHANTOM
 62
     2
100
AcDbLine
 10
225.2418503597445
 20
253.4990217080643
 30
0.0
 11
219.7418503597445
 21
253.4990217080643
 31
0.0
  0
LINE
  5
29C
330
A0
100
AcDbEntity
  8
1
  6
PHANTOM
 62
     2
100
AcDbLine
 10
222.4918503597445
 20
256.2490217080645
 30
0.0
 11
222.4918503597445
 21
250.7490217080645
 31
0.0
  0
LINE
  5
29D
330
A0
100
AcDbEntity
  8
1
  6
DOT_CENTER
 62
     2
100
AcDbLine
 10
213.7418503597445
 20
253.4990217080643
 30
0.0
 11
219.2418503597445
 21
253.4990217080643
 31
0.0
  0
ARC
  5
29E
102
{ACAD_REACTORS
330
309
330
30A
102
}
330
A0
100
AcDbEntity
  8
0
  6
Continuous
 62
     2
100
AcDbCircle
 10
225.146843472142
 20
241.194426469986
 30
0.0
 40
0.7717997786795
100
AcDbArc
 50
321.8795802028465
 51
38.12041979717011
  0
ARC
  5
29F
102
{ACAD_REACTORS
330
309
330
30A
102
}
330
A0
100
AcDbEntity
  8
0
  6
Continuous
 62
     2
100
AcDbCircle
 10
225.3465835084884
 20
241.0376952918662
 30
0.0
 40
0.5179085730138424
100
AcDbArc
 50
218.1204197971879
 51
321.8795802027908
  0
ARC
  5
2A0
102
{ACAD_REACTORS
330
309
330
30A
102
}
330
A0
100
AcDbEntity
  8
0
  6
Continuous
 62
     2
100
AcDbCircle
 10
225.5463235448344
 20
241.194426469986
 30
0.0
 40
0.771799778679586
100
AcDbArc
 50
141.8795802028247
 51
218.1204197971587
  0
ARC
  5
2A1
102
{ACAD_REACTORS
330
309
330
30A
102
}
330
A0
100
AcDbEntity
  8
0
  6
Continuous
 62
     2
100
AcDbCircle
 10
225.3465835084884
 20
241.3511576481066
 30
0.0
 40
0.5179085730132806
100
AcDbArc
 50
38.12041979716469
 51
141.8795802028567
  0
ARC
  5
2A2
102
{ACAD_REACTORS
330
301
330
302
102
}
330
A0
100
AcDbEntity
  8
0
  6
Continuous
 62
     2
100
AcDbCircle
 10
222.2845693729244
 20
239.7839601045779
 30
0.0
 40
2.227384008973562
100
AcDbArc
 50
58.06909105003864
 51
71.5519238818677
  0
ARC
  5
2A3
102
{ACAD_REACTORS
330
301
330
302
102
}
330
A0
100
AcDbEntity
  8
0
  6
Continuous
 62
     2
100
AcDbCircle
 10
222.5462970738832
 20
241.3994978993251
 30
0.0
 40
0.5115800601948554
100
AcDbArc
 50
113.3722778881933
 51
151.4785267423128
  0
ARC
  5
2A4
102
{ACAD_REACTORS
330
301
330
302
102
}
330
A0
100
AcDbEntity
  8
0
  6
Continuous
 62
     2
100
AcDbCircle
 10
222.9236543319636
 20
241.194426469986
 30
0.0
 40
0.9410597353333294
100
AcDbArc
 50
151.4785267422693
 51
208.5214732576987
  0
ARC
  5
2A5
102
{ACAD_REACTORS
330
301
330
302
102
}
330
A0
100
AcDbEntity
  8
0
  6
Continuous
 62
     2
100
AcDbCircle
 10
222.1266964978316
 20
244.5071074152426
 30
0.0
 40
4.852596863498329
100
AcDbArc
 50
275.1581447696237
 51
285.9799912583524
  0
ARC
  5
2A6
102
{ACAD_REACTORS
330
301
330
302
102
}
330
A0
100
AcDbEntity
  8
0
  6
Continuous
 62
     2
100
AcDbCircle
 10
222.4155525925675
 20
241.3072168320209
 30
0.0
 40
1.639695123939444
100
AcDbArc
 50
195.0618917770932
 51
275.1581447696362
  0
ARC
  5
2A7
102
{ACAD_REACTORS
330
301
330
302
102
}
330
A0
100
AcDbEntity
  8
0
  6
Continuous
 62
     2
100
AcDbCircle
 10
221.9964247491047
 20
241.194426469986
 30
0.0
 40
1.205656168390964
100
AcDbArc
 50
164.9381082228781
 51
195.0618917770958
  0
ARC
  5
2A8
102
{ACAD_REACTORS
330
301
330
302
102
}
330
A0
100
AcDbEntity
  8
0
  6
Continuous
 62
     2
100
AcDbCircle
 10
222.4155525925675
 20
241.0816361079512
 30
0.0
 40
1.639695123940499
100
AcDbArc
 50
84.84185523036533
 51
164.9381082228905
  0
ARC
  5
2A9
102
{ACAD_REACTORS
330
305
330
306
102
}
330
A0
100
AcDbEntity
  8
0
  6
Continuous
 62
     2
100
AcDbCircle
 10
217.5855383384056
 20
242.2282532643404
 30
0.0
 40
0.3157169230765328
100
AcDbArc
 50
115.3740086783519
 51
180.0
  0
ARC
  5
2AA
102
{ACAD_REACTORS
330
305
330
306
102
}
330
A0
100
AcDbEntity
  8
0
  6
Continuous
 62
     2
100
AcDbCircle
 10
217.5855383384056
 20
244.4465364642765
 30
0.0
 40
0.315716923076792
100
AcDbArc
 50
180.0
 51
244.6259913216305
  0
ARC
  5
2AB
102
{ACAD_REACTORS
330
305
330
306
102
}
330
A0
100
AcDbEntity
  8
0
  6
Continuous
 62
     2
100
AcDbCircle
 10
217.5911544737156
 20
243.3492368052143
 30
0.0
 40
2.018561131933266
100
AcDbArc
 50
269.8110329575834
 51
90.18896704241658
  0
ARC
  5
2AC
102
{ACAD_REACTORS
330
305
330
306
102
}
330
A0
100
AcDbEntity
  8
0
  6
Continuous
 62
     2
100
AcDbCircle
 10
217.5855383384056
 20
241.6464018576453
 30
0.0
 40
0.315716923076792
100
AcDbArc
 50
180.0
 51
269.8110329574335
  0
ARC
  5
2AD
102
{ACAD_REACTORS
330
303
330
304
102
}
330
A0
100
AcDbEntity
  8
0
  6
Continuous
 62
     2
100
AcDbCircle
 10
238.6489985531361
 20
241.3994978993251
 30
0.0
 40
0.5115800601944143
100
AcDbArc
 50
109.3371432194853
 51
151.4785267424141
  0
ARC
  5
2AE
102
{ACAD_REACTORS
330
303
330
304
102
}
330
A0
100
AcDbEntity
  8
0
  6
Continuous
 62
     2
100
AcDbCircle
 10
238.6489985531361
 20
240.9893550406475
 30
0.0
 40
0.511580060196008
100
AcDbArc
 50
208.5214732576838
 51
246.6277221118399
  0
ARC
  5
2AF
102
{ACAD_REACTORS
330
303
330
304
102
}
330
A0
100
AcDbEntity
  8
0
  6
Continuous
 62
     2
100
AcDbCircle
 10
238.0991262283587
 20
241.194426469986
 30
0.0
 40
1.205656168392968
100
AcDbArc
 50
164.9381082229037
 51
195.0618917770924
  0
ARC
  5
2B0
102
{ACAD_REACTORS
330
303
330
304
102
}
330
A0
100
AcDbEntity
  8
0
  6
Continuous
 62
     2
100
AcDbCircle
 10
238.5182540718204
 20
241.0816361079512
 30
0.0
 40
1.639695123940101
100
AcDbArc
 50
90.0
 51
164.9381082228993
  0
ARC
  5
2B1
102
{ACAD_REACTORS
330
307
330
308
102
}
330
A0
100
AcDbEntity
  8
0
  6
Continuous
 62
     2
100
AcDbCircle
 10
229.0912589791167
 20
244.5536169461605
 30
0.0
 40
1.526904761905683
100
AcDbArc
 50
90.0
 51
270.0
  0
ARC
  5
2B2
102
{ACAD_REACTORS
330
30B
330
30C
102
}
330
A0
100
AcDbEntity
  8
0
  6
Continuous
 62
     2
100
AcDbCircle
 10
222.3485682338909
 20
245.064552037955
 30
0.0
 40
0.3528638246710898
100
AcDbArc
 50
270.0
 51
90.0
  0
ARC
  5
2B3
102
{ACAD_REACTORS
330
305
330
306
102
}
330
A0
100
AcDbEntity
  8
0
  6
Continuous
 62
     2
100
AcDbCircle
 10
215.0099896518738
 20
245.0522492294315
 30
0.0
 40
0.3157169230760815
100
AcDbArc
 50
90.0
 51
180.0
  0
ARC
  5
2B4
102
{ACAD_REACTORS
330
305
330
306
102
}
330
A0
100
AcDbEntity
  8
0
  6
Continuous
 62
     2
100
AcDbCircle
 10
217.0084073604584
 20
243.3373948643088
 30
0.0
 40
0.9118975235576555
100
AcDbArc
 50
115.1944106485211
 51
244.8055893514895
  0
ARC
  5
2B5
102
{ACAD_REACTORS
330
305
330
306
102
}
330
A0
100
AcDbEntity
  8
0
  6
Continuous
 62
     2
100
AcDbCircle
 10
216.4858229128834
 20
242.226565118246
 30
0.0
 40
0.315716923076593
100
AcDbArc
 50
0.0
 51
64.80558935145724
  0
ARC
  5
2B6
102
{ACAD_REACTORS
330
305
330
306
102
}
330
A0
100
AcDbEntity
  8
0
  6
Continuous
 62
     2
100
AcDbCircle
 10
214.4160949751273
 20
240.091766323464
 30
0.0
 40
0.4242446153828041
100
AcDbArc
 50
180.0
 51
270.0
  0
ARC
  5
2B7
102
{ACAD_REACTORS
330
307
330
308
102
}
330
A0
100
AcDbEntity
  8
0
  6
Continuous
 62
     2
100
AcDbCircle
 10
229.3075309892819
 20
244.7103481242809
 30
0.0
 40
0.5179085730133846
100
AcDbArc
 50
38.12041979714368
 51
141.8795802028641
  0
ARC
  5
2B8
102
{ACAD_REACTORS
330
307
330
308
102
}
330
A0
100
AcDbEntity
  8
0
  6
Continuous
 62
     2
100
AcDbCircle
 10
229.5072710256281
 20
244.5536169461605
 30
0.0
 40
0.7717997786795895
100
AcDbArc
 50
141.8795802028517
 51
218.1204197971599
  0
ARC
  5
2B9
102
{ACAD_REACTORS
330
309
330
30A
102
}
330
A0
100
AcDbEntity
  8
0
  6
Continuous
 62
     2
100
AcDbCircle
 10
225.3465835084884
 20
241.7330014802894
 30
0.0
 40
2.065479772208637
100
AcDbArc
 50
242.4518518243384
 51
297.548148175686
  0
ARC
  5
2BA
102
{ACAD_REACTORS
330
309
330
30A
102
}
330
A0
100
AcDbEntity
  8
0
  6
Continuous
 62
     2
100
AcDbCircle
 10
225.3465835084884
 20
240.6558514596832
 30
0.0
 40
2.065479772208769
100
AcDbArc
 50
62.45185182430927
 51
117.5481481756663
  0
ARC
  5
2BB
102
{ACAD_REACTORS
330
309
330
30A
102
}
330
A0
100
AcDbEntity
  8
0
  6
Continuous
 62
     2
100
AcDbCircle
 10
225.065643616655
 20
241.194426469986
 30
0.0
 40
1.458034083651667
100
AcDbArc
 50
117.5481481756588
 51
242.4518518243375
  0
ARC
  5
2BC
102
{ACAD_REACTORS
330
309
330
30A
102
}
330
A0
100
AcDbEntity
  8
0
  6
Continuous
 62
     2
100
AcDbCircle
 10
225.6275234003216
 20
241.194426469986
 30
0.0
 40
1.458034083652055
100
AcDbArc
 50
297.548148175705
 51
62.45185182429861
  0
ARC
  5
2BD
102
{ACAD_REACTORS
330
307
330
308
102
}
330
A0
100
AcDbEntity
  8
0
  6
Continuous
 62
     2
100
AcDbCircle
 10
229.3075309892819
 20
244.3968857680399
 30
0.0
 40
0.5179085730134739
100
AcDbArc
 50
218.1204197971359
 51
321.8795802028563
  0
ARC
  5
2BE
102
{ACAD_REACTORS
330
307
330
308
102
}
330
A0
100
AcDbEntity
  8
0
  6
Continuous
 62
     2
100
AcDbCircle
 10
229.1077909529357
 20
244.5536169461605
 30
0.0
 40
0.7717997786796229
100
AcDbArc
 50
321.8795802028349
 51
38.12041979715352
  0
ARC
  5
2BF
102
{ACAD_REACTORS
330
305
330
306
102
}
330
A0
100
AcDbEntity
  8
0
  6
Continuous
 62
     2
100
AcDbCircle
 10
219.8894070658442
 20
240.091766323464
 30
0.0
 40
0.4242446153831736
100
AcDbArc
 50
270.0
 51
0.0
  0
ARC
  5
2C0
102
{ACAD_REACTORS
330
305
330
306
102
}
330
A0
100
AcDbEntity
  8
0
  6
Continuous
 62
     2
100
AcDbCircle
 10
219.8894070658442
 20
245.6562770926643
 30
0.0
 40
0.4242446153838841
100
AcDbArc
 50
0.0
 51
90.0
  0
ARC
  5
2C1
102
{ACAD_REACTORS
330
305
330
306
102
}
330
A0
100
AcDbEntity
  8
0
  6
Continuous
 62
     2
100
AcDbCircle
 10
214.4160949751273
 20
245.6562770926643
 30
0.0
 40
0.4242446153837989
100
AcDbArc
 50
90.0
 51
180.0
  0
ARC
  5
2C2
102
{ACAD_REACTORS
330
305
330
306
102
}
330
A0
100
AcDbEntity
  8
0
  6
Continuous
 62
     2
100
AcDbCircle
 10
216.4858229128834
 20
240.6957941867144
 30
0.0
 40
0.3157169230767067
100
AcDbArc
 50
270.0
 51
0.0
  0
ARC
  5
2C3
102
{ACAD_REACTORS
330
305
330
306
102
}
330
A0
100
AcDbEntity
  8
0
  6
Continuous
 62
     2
100
AcDbCircle
 10
216.4858229128834
 20
244.4482246103709
 30
0.0
 40
0.3157169230759765
100
AcDbArc
 50
295.1944106485691
 51
0.0
  0
ARC
  5
2C4
102
{ACAD_REACTORS
330
305
330
306
102
}
330
A0
100
AcDbEntity
  8
0
  6
Continuous
 62
     2
100
AcDbCircle
 10
216.4858229128834
 20
245.0522492294315
 30
0.0
 40
0.315716923076593
100
AcDbArc
 50
0.0
 51
90.0
  0
ARC
  5
2C5
102
{ACAD_REACTORS
330
305
330
306
102
}
330
A0
100
AcDbEntity
  8
0
  6
Continuous
 62
     2
100
AcDbCircle
 10
215.0099896518738
 20
240.6957941867144
 30
0.0
 40
0.3157169230755983
100
AcDbArc
 50
180.0
 51
270.0
  0
ARC
  5
2C6
102
{ACAD_REACTORS
330
30B
330
30C
102
}
330
A0
100
AcDbEntity
  8
0
  6
Continuous
 62
     2
100
AcDbCircle
 10
222.7900407601293
 20
245.0251560667325
 30
0.0
 40
1.055365641333594
100
AcDbArc
 50
270.0
 51
90.0
  0
ARC
  5
2C7
102
{ACAD_REACTORS
330
303
330
304
102
}
330
A0
100
AcDbEntity
  8
0
  6
Continuous
 62
     2
100
AcDbCircle
 10
238.5182540718204
 20
241.3072168320209
 30
0.0
 40
1.639695123940503
100
AcDbArc
 50
195.0618917771007
 51
275.1581447696762
  0
ARC
  5
2C8
102
{ACAD_REACTORS
330
303
330
304
102
}
330
A0
100
AcDbEntity
  8
0
  6
Continuous
 62
     2
100
AcDbCircle
 10
238.2293979770845
 20
244.5071074152426
 30
0.0
 40
4.852596863498918
100
AcDbArc
 50
275.1581447696373
 51
285.9799912583384
  0
ARC
  5
2C9
102
{ACAD_REACTORS
330
303
330
304
102
}
330
A0
100
AcDbEntity
  8
0
  6
Continuous
 62
     2
100
AcDbCircle
 10
238.3872708521773
 20
242.6048928353943
 30
0.0
 40
2.22738400897288
100
AcDbArc
 50
288.4480761181323
 51
301.9309089499378
  0
ARC
  5
2CA
102
{ACAD_REACTORS
330
303
330
304
102
}
330
A0
100
AcDbEntity
  8
0
  6
Continuous
 62
     2
100
AcDbCircle
 10
238.8054385858393
 20
241.3513470593575
 30
0.0
 40
0.9059297849852208
100
AcDbArc
 50
246.6277221118088
 51
288.4480761180766
  0
ARC
  5
2CB
102
{ACAD_REACTORS
330
303
330
304
102
}
330
A0
100
AcDbEntity
  8
0
  6
Continuous
 62
     2
100
AcDbCircle
 10
239.0263558112176
 20
241.194426469986
 30
0.0
 40
0.9410597353350737
100
AcDbArc
 50
151.4785267423566
 51
208.5214732576662
  0
ARC
  5
2CC
102
{ACAD_REACTORS
330
303
330
304
102
}
330
A0
100
AcDbEntity
  8
0
  6
Continuous
 62
     2
100
AcDbCircle
 10
238.7956685512398
 20
240.9815429189421
 30
0.0
 40
0.9545230068260935
100
AcDbArc
 50
90.0
 51
109.3371432194297
  0
ARC
  5
2CD
102
{ACAD_REACTORS
330
305
330
306
102
}
330
A0
100
AcDbEntity
  8
0
  6
Continuous
 62
     2
100
AcDbCircle
 10
217.5855383384056
 20
245.0520717527833
 30
0.0
 40
0.3157169230761851
100
AcDbArc
 50
90.1889670425665
 51
180.0
  0
ARC
  5
2CE
102
{ACAD_REACTORS
330
305
330
306
102
}
330
A0
100
AcDbEntity
  8
0
  6
Continuous
 62
     2
100
AcDbCircle
 10
217.0594956403177
 20
243.3373948643088
 30
0.0
 40
0.9118481501444712
100
AcDbArc
 50
295.3740086781781
 51
64.62599132180893
  0
ARC
  5
2CF
102
{ACAD_REACTORS
330
301
330
302
102
}
330
A0
100
AcDbEntity
  8
0
  6
Continuous
 62
     2
100
AcDbCircle
 10
222.2845693729244
 20
242.6048928353947
 30
0.0
 40
2.227384008972665
100
AcDbArc
 50
288.4480761181342
 51
301.9309089499644
  0
ARC
  5
2D0
102
{ACAD_REACTORS
330
301
330
302
102
}
330
A0
100
AcDbEntity
  8
0
  6
Continuous
 62
     2
100
AcDbCircle
 10
222.7027371065853
 20
241.3513470593575
 30
0.0
 40
0.9059297849848149
100
AcDbArc
 50
246.6277221118682
 51
288.4480761181573
  0
ARC
  5
2D1
102
{ACAD_REACTORS
330
301
330
302
102
}
330
A0
100
AcDbEntity
  8
0
  6
Continuous
 62
     2
100
AcDbCircle
 10
222.5462970738832
 20
240.9893550406475
 30
0.0
 40
0.5115800601947491
100
AcDbArc
 50
208.5214732576844
 51
246.6277221118282
  0
ARC
  5
2D2
102
{ACAD_REACTORS
330
301
330
302
102
}
330
A0
100
AcDbEntity
  8
0
  6
Continuous
 62
     2
100
AcDbCircle
 10
222.7027371065853
 20
241.0375058806145
 30
0.0
 40
0.9059297849854128
100
AcDbArc
 50
71.55192388185917
 51
113.372277888129
  0
ARC
  5
2D3
102
{ACAD_REACTORS
330
301
330
302
102
}
330
A0
100
AcDbEntity
  8
0
  6
Continuous
 62
     2
100
AcDbCircle
 10
222.1266964978316
 20
237.8817455247302
 30
0.0
 40
4.852596863497959
100
AcDbArc
 50
74.02000874164702
 51
84.84185523037605
  0
CIRCLE
  5
2D4
102
{ACAD_REACTORS
330
305
330
306
102
}
330
A0
100
AcDbEntity
  8
0
  6
Continuous
 62
     2
100
AcDbCircle
 10
217.0356806256449
 20
243.3373948643088
 30
0.0
 40
0.4709789327785074
  0
CIRCLE
  5
2D5
330
A0
100
AcDbEntity
  8
1
  6
Continuous
 62
     2
100
AcDbCircle
 10
222.4918503597445
 20
253.4990217080643
 30
0.0
 40
1.25
  0
CIRCLE
  5
2D6
330
A0
100
AcDbEntity
  8
1
  6
Continuous
 62
     2
100
AcDbCircle
 10
222.4918503597445
 20
253.4990217080643
 30
0.0
 40
2.5
  0
TEXT
  5
2D7
330
A0
100
AcDbEntity
  8
1
 62
     7
100
AcDbText
 10
303.9666666665985
 20
228.374021708065
 30
0.0
 40
2.5
  1
6
 41
0.9
  7
CONVERTER_11
100
AcDbText
  0
TEXT
  5
2D8
330
A0
100
AcDbEntity
  8
1
 62
     7
100
AcDbText
 10
235.6333333332651
 20
228.374021708065
 30
0.0
 40
2.5
  1
5
 41
0.9
  7
CONVERTER_11
100
AcDbText
  0
TEXT
  5
2D9
330
A0
100
AcDbEntity
  8
1
 62
     7
100
AcDbText
 10
167.2999999999319
 20
228.374021708065
 30
0.0
 40
2.5
  1
4
 41
0.9
  7
CONVERTER_11
100
AcDbText
  0
TEXT
  5
2DA
330
A0
100
AcDbEntity
  8
1
 62
     7
100
AcDbText
 10
98.96666666659883
 20
228.374021708065
 30
0.0
 40
2.5
  1
3
 41
0.9
  7
CONVERTER_11
100
AcDbText
  0
TEXT
  5
2DB
330
A0
100
AcDbEntity
  8
1
 62
     7
100
AcDbText
 10
340.2999999999319
 20
259.874021708065
 30
0.0
 40
2.5
  1
E
 41
0.9
  7
CONVERTER_11
100
AcDbText
  0
TEXT
  5
2DC
330
A0
100
AcDbEntity
  8
1
 62
     7
100
AcDbText
 10
-37.7000000000678
 20
228.374021708065
 30
0.0
 40
2.5
  1
1
 41
0.9
  7
CONVERTER_11
100
AcDbText
  0
TEXT
  5
2DD
330
A0
100
AcDbEntity
  8
1
 62
     7
100
AcDbText
 10
30.63333333326528
 20
228.374021708065
 30
0.0
 40
2.5
  1
2
 41
0.9
  7
CONVERTER_11
100
AcDbText
  0
TEXT
  5
2DE
330
A0
100
AcDbEntity
  8
1
 62
     7
100
AcDbText
 10
340.2999999999319
 20
317.2740217080651
 30
0.0
 40
2.5
  1
D
 41
0.9
  7
CONVERTER_11
100
AcDbText
  0
TEXT
  5
2DF
330
A0
100
AcDbEntity
  8
1
 62
     7
100
AcDbText
 10
340.2999999999319
 20
374.6740217080652
 30
0.0
 40
2.5
  1
C
 41
0.9
  7
CONVERTER_11
100
AcDbText
  0
TEXT
  5
2E0
330
A0
100
AcDbEntity
  8
1
 62
     7
100
AcDbText
 10
340.2999999999319
 20
432.0740217080651
 30
0.0
 40
2.5
  1
B
 41
0.9
  7
CONVERTER_11
100
AcDbText
  0
TEXT
  5
2E1
330
A0
100
AcDbEntity
  8
1
 62
     7
100
AcDbText
 10
340.2999999999319
 20
489.4740217080649
 30
0.0
 40
2.5
  1
A
 41
0.9
  7
CONVERTER_11
100
AcDbText
  0
TEXT
  5
2E2
330
A0
100
AcDbEntity
  8
1
 62
     7
100
AcDbText
 10
303.9666666665985
 20
520.3740217080652
 30
0.0
 40
2.5
  1
6
 41
0.9
  7
CONVERTER_11
100
AcDbText
  0
TEXT
  5
2E3
330
A0
100
AcDbEntity
  8
1
 62
     7
100
AcDbText
 10
235.6333333332653
 20
520.3740217080652
 30
0.0
 40
2.5
  1
5
 41
0.9
  7
CONVERTER_11
100
AcDbText
  0
TEXT
  5
2E4
330
A0
100
AcDbEntity
  8
1
 62
     7
100
AcDbText
 10
167.2999999999319
 20
520.3740217080652
 30
0.0
 40
2.5
  1
4
 41
0.9
  7
CONVERTER_11
100
AcDbText
  0
TEXT
  5
2E5
330
A0
100
AcDbEntity
  8
1
 62
     7
100
AcDbText
 10
98.96666666659883
 20
520.3740217080652
 30
0.0
 40
2.5
  1
3
 41
0.9
  7
CONVERTER_11
100
AcDbText
  0
TEXT
  5
2E6
330
A0
100
AcDbEntity
  8
1
 62
     7
100
AcDbText
 10
30.63333333326528
 20
520.3740217080652
 30
0.0
 40
2.5
  1
2
 41
0.9
  7
CONVERTER_11
100
AcDbText
  0
TEXT
  5
2E7
330
A0
100
AcDbEntity
  8
1
 62
     7
100
AcDbText
 10
-37.7000000000678
 20
520.3740217080652
 30
0.0
 40
2.5
  1
1
 41
0.9
  7
CONVERTER_11
100
AcDbText
  0
TEXT
  5
2E8
330
A0
100
AcDbEntity
  8
1
 62
     7
100
AcDbText
 10
265.1287431951957
 20
250.6740217080645
 30
0.0
 40
2.5
  1
/
 41
0.9
  7
CONVERTER_11
100
AcDbText
  0
TEXT
  5
2EA
330
A0
100
AcDbEntity
  8
1
 62
     7
100
AcDbText
 10
267.2851076922377
 20
250.6740217080645
 30
0.0
 40
2.5
  1
00
 41
0.81
  7
CONVERTER_12
100
AcDbText
  0
TEXT
  5
2EB
330
A0
100
AcDbEntity
  8
1
 62
     3
100
AcDbText
 10
304.8815917182549
 20
250.6740217080645
 30
0.0
 40
2.5
  1
29.01.2018
 41
0.81
  7
CONVERTER_12
100
AcDbText
  0
MTEXT
  5
2EC
330
A0
100
AcDbEntity
  8
1
 62
     2
100
AcDbMText
 10
304.8815917182549
 20
256.8740217080645
 30
0.0
 40
1.8
 41
0.0
 71
     1
 72
     1
  1
date
  7
CONVERTER_11
 73
     1
 44
1.32052821128451
  0
MTEXT
  5
2ED
330
A0
100
AcDbEntity
  8
1
 62
     2
100
AcDbMText
 10
275.0551954731819
 20
248.3740217080645
 30
0.0
 40
1.8
 41
0.0
 71
     1
 72
     1
  1
document-type
  7
CONVERTER_11
 73
     1
 44
1.20048019207683
  0
TEXT
  5
2EE
330
A0
100
AcDbEntity
  8
1
 62
     3
100
AcDbText
 10
275.0551954731819
 20
242.1740217080645
 30
0.0
 40
2.5
  1
TECDOC 2D_Productdrawing
 41
0.81
  7
CONVERTER_12
100
AcDbText
  0
MTEXT
  5
2F0
330
A0
100
AcDbEntity
  8
1
 62
     2
100
AcDbMText
 10
247.2551954731819
 20
256.8740217080645
 30
0.0
 40
1.8
 41
0.0
 71
     1
 72
     1
  1
document-No. / RI
  7
CONVERTER_13
 73
     1
 44
1.32052821128451
  0
TEXT
  5
2F1
330
A0
100
AcDbEntity
  8
1
 62
     7
100
AcDbText
 10
247.2551954731819
 20
250.6740217080645
 30
0.0
 40
2.5
  1
00322555
 41
0.81
  7
CONVERTER_12
100
AcDbText
  0
MTEXT
  5
2F3
330
A0
100
AcDbEntity
  8
1
 62
     3
100
AcDbMText
 10
334.8407958590942
 20
250.6740217080645
 30
0.0
 40
2.5
 41
0.0
 71
     8
 72
     1
  1
1:1
  7
CONVERTER_14
 73
     1
 44
1.32052821128451
  0
MTEXT
  5
2F4
330
A0
100
AcDbEntity
  8
1
 62
     2
100
AcDbMText
 10
331.4815917182547
 20
256.8740217080645
 30
0.0
 40
1.8
 41
0.0
 71
     1
 72
     1
  1
scale
  7
CONVERTER_11
 73
     1
 44
1.20048019207683
  0
MTEXT
  5
2F5
330
A0
100
AcDbEntity
  8
1
 62
     2
100
AcDbMText
 10
247.2551954731819
 20
248.3740217080645
 30
0.0
 40
1.8
 41
0.0
 71
     1
 72
     1
  1
ident.-No.
  7
CONVERTER_11
 73
     1
 44
1.20048019207683
  0
TEXT
  5
2F6
330
A0
100
AcDbEntity
  8
1
 62
     7
100
AcDbText
 10
247.6551954731817
 20
242.1740217080645
 30
0.0
 40
2.5
  1
2856702
 41
0.81
  7
CONVERTER_12
100
AcDbText
  0
MTEXT
  5
2F7
330
A0
100
AcDbEntity
  8
1
 62
     2
100
AcDbMText
 10
175.3441722039724
 20
245.1240217080633
 30
0.0
 40
2.0
 41
0.0
 71
     5
 72
     1
  1
General Information\P- Simplified representation\P- Document excluded from change process\P- Linear dimensions [mm]
  7
CONVERTER_11
 73
     1
 44
1.20048019207683
  0
MTEXT
  5
2F8
330
A0
100
AcDbEntity
  8
1
 62
     3
100
AcDbMText
 10
235.9551954731819
 20
253.4990217080645
 30
0.0
 40
2.5
 41
0.0
 71
     5
 72
     1
  1
DIN A3
  7
CONVERTER_11
 73
     1
 44
1.20048019207683
  0
MTEXT
  5
2F9
330
A0
100
AcDbEntity
  8
1
 62
     2
100
AcDbMText
 10
247.1551954731819
 20
239.8740217080645
 30
0.0
 40
1.8
 41
0.0
 71
     1
 72
     1
  1
description
  7
CONVERTER_11
 73
     1
 44
1.20048019207683
  0
MTEXT
  5
2FA
330
A0
100
AcDbEntity
  8
1
 62
     7
100
AcDbMText
 10
292.7275977365574
 20
235.6240217080646
 30
0.0
 40
3.0
 41
0.0
 71
     5
 72
     1
  1
SFP 1-20/120AC
  7
CONVERTER_12
 73
     1
 44
1.20048019207683
  0
TEXT
  5
2FB
330
A0
100
AcDbEntity
  8
1
 62
     2
100
AcDbText
 10
234.1905042829955
 20
233.6240217080645
 30
0.0
 40
1.8
  1
1
 41
0.9
  7
CONVERTER_11
100
AcDbText
  0
TEXT
  5
2FC
330
A0
100
AcDbEntity
  8
1
 62
     2
100
AcDbText
 10
219.401460443524
 20
233.5747730542626
 30
0.0
 40
1.8
  1
1
 41
0.9
  7
CONVERTER_11
100
AcDbText
  0
TEXT
  5
2FD
330
A0
100
AcDbEntity
  8
1
 62
     2
100
AcDbText
 10
210.755195473182
 20
233.6150044930727
 30
0.0
 40
1.8
  1
page
 41
0.9
  7
CONVERTER_11
100
AcDbText
  0
TEXT
  5
2FE
330
A0
100
AcDbEntity
  8
1
 62
     2
100
AcDbText
 10
228.9551954731818
 20
233.615004493073
 30
0.0
 40
1.8
  1
of
 41
0.9
  7
CONVERTER_11
100
AcDbText
  0
MTEXT
  5
2FF
330
A0
100
AcDbEntity
  8
1
 62
     3
100
AcDbMText
 10
-57.43153299980878
 20
405.3603058217187
 30
0.0
 40
1.8
 41
0.0
 71
     7
 72
     1
  3
Transfer or duplication of this document as well as the utilisation or\Pcommunication of its content are not permitted unless express consent\Pis granted. Violations give rise to claims for damages. All rights reserved\Pin case of patent, utility mo
  1
del or design patent registrations.
  7
CONVERTER_11
 11
0.0
 21
1.0
 31
0.0
 73
     1
 44
0.99639855942377
  0
MTEXT
  5
300
330
A0
100
AcDbEntity
  8
1
 62
     3
100
AcDbMText
 10
-57.27732668871488
 20
232.4009358075657
 30
0.0
 40
1.8
 41
0.0
 71
     7
 72
     1
  3
Weitergabe sowie Vervielfältigung dieses Dokuments, Verwertung und \PMitteilung seines Inhalts sind verboten, soweit nicht ausdrücklich gestattet. \PZuwiderhandlungen verpflichten zu Schadenersatz. Alle Rechte für den Fall\Pder Patent-, Gebrauchsmus
  1
ter- oder Designeintragung vorbehalten.
  7
CONVERTER_11
 11
0.0
 21
1.0
 31
0.0
 73
     1
 44
0.99639855942377
  0
HATCH
  5
301
330
A0
100
AcDbEntity
  8
1
  6
Continuous
 62
     2
100
AcDbHatch
 10
0.0
 20
0.0
 30
0.0
210
0.0
220
0.0
230
1.0
  2
CUSTOM0
 70
     0
 71
     1
 91
        1
 92
        1
 93
       14
 72
     2
 10
221.9964247491047
 20
241.194426469986
 40
1.205656168390964
 50
164.9381082228781
 51
195.0618917770958
 73
     1
 72
     2
 10
222.4155525925675
 20
241.3072168320209
 40
1.639695123939444
 50
195.0618917770932
 51
275.1581447696362
 73
     1
 72
     2
 10
222.1266964978316
 20
244.5071074152426
 40
4.852596863498329
 50
275.1581447696237
 51
285.9799912583524
 73
     1
 72
     1
 10
223.4626244149494
 20
239.8420251094416
 11
223.4626244149494
 21
240.714542116245
 72
     2
 10
222.2845693729244
 20
242.6048928353947
 40
2.227384008972665
 50
58.06909105003557
 51
71.5519238818658
 73
     0
 72
     2
 10
222.7027371065853
 20
241.3513470593575
 40
0.9059297849848149
 50
71.55192388184265
 51
113.3722778881318
 73
     0
 72
     2
 10
222.5462970738832
 20
240.9893550406475
 40
0.5115800601947491
 50
113.3722778881718
 51
151.4785267423156
 73
     0
 72
     2
 10
222.9236543319636
 20
241.194426469986
 40
0.9410597353333294
 50
151.4785267423013
 51
208.5214732577306
 73
     0
 72
     2
 10
222.5462970738832
 20
241.3994978993251
 40
0.5115800601948554
 50
208.5214732576871
 51
246.6277221118067
 73
     0
 72
     2
 10
222.7027371065853
 20
241.0375058806145
 40
0.9059297849854128
 50
246.627722111871
 51
288.4480761181408
 73
     0
 72
     2
 10
222.2845693729244
 20
239.7839601045779
 40
2.227384008973562
 50
288.4480761181323
 51
301.9309089499613
 73
     0
 72
     1
 10
223.4626244149494
 20
241.6743108237278
 11
223.4626244149494
 21
242.546827830531
 72
     2
 10
222.1266964978316
 20
237.8817455247302
 40
4.852596863497959
 50
74.02000874164702
 51
84.84185523037605
 73
     1
 72
     2
 10
222.4155525925675
 20
241.0816361079512
 40
1.639695123940499
 50
84.84185523036533
 51
164.9381082228905
 73
     1
 97
       14
330
2D3
330
21C
330
2A2
330
2D2
330
2A3
330
2A4
330
2D1
330
2D0
330
2CF
330
21D
330
2A5
330
2A6
330
2A7
330
2A8
 75
     1
 76
     2
 52
45.0
 41
0.1
 77
     0
 78
     1
 53
45.0
 43
62.7811309658083
 44
-72.3161373035813
 45
-0.1414213562373095
 46
0.0
 79
     0
 98
        1
 10
0.0
 20
0.0
  0
HATCH
  5
302
330
A0
100
AcDbEntity
  8
1
  6
Continuous
 62
     2
100
AcDbHatch
 10
0.0
 20
0.0
 30
0.0
210
0.0
220
0.0
230
1.0
  2
CUSTOM1
 70
     0
 71
     1
 91
        1
 92
        1
 93
       14
 72
     2
 10
221.9964247491047
 20
241.194426469986
 40
1.205656168390964
 50
164.9381082228781
 51
195.0618917770958
 73
     1
 72
     2
 10
222.4155525925675
 20
241.3072168320209
 40
1.639695123939444
 50
195.0618917770932
 51
275.1581447696362
 73
     1
 72
     2
 10
222.1266964978316
 20
244.5071074152426
 40
4.852596863498329
 50
275.1581447696237
 51
285.9799912583524
 73
     1
 72
     1
 10
223.4626244149494
 20
239.8420251094416
 11
223.4626244149494
 21
240.714542116245
 72
     2
 10
222.2845693729244
 20
242.6048928353947
 40
2.227384008972665
 50
58.06909105003557
 51
71.5519238818658
 73
     0
 72
     2
 10
222.7027371065853
 20
241.3513470593575
 40
0.9059297849848149
 50
71.55192388184265
 51
113.3722778881318
 73
     0
 72
     2
 10
222.5462970738832
 20
240.9893550406475
 40
0.5115800601947491
 50
113.3722778881718
 51
151.4785267423156
 73
     0
 72
     2
 10
222.9236543319636
 20
241.194426469986
 40
0.9410597353333294
 50
151.4785267423013
 51
208.5214732577306
 73
     0
 72
     2
 10
222.5462970738832
 20
241.3994978993251
 40
0.5115800601948554
 50
208.5214732576871
 51
246.6277221118067
 73
     0
 72
     2
 10
222.7027371065853
 20
241.0375058806145
 40
0.9059297849854128
 50
246.627722111871
 51
288.4480761181408
 73
     0
 72
     2
 10
222.2845693729244
 20
239.7839601045779
 40
2.227384008973562
 50
288.4480761181323
 51
301.9309089499613
 73
     0
 72
     1
 10
223.4626244149494
 20
241.6743108237278
 11
223.4626244149494
 21
242.546827830531
 72
     2
 10
222.1266964978316
 20
237.8817455247302
 40
4.852596863497959
 50
74.02000874164702
 51
84.84185523037605
 73
     1
 72
     2
 10
222.4155525925675
 20
241.0816361079512
 40
1.639695123940499
 50
84.84185523036533
 51
164.9381082228905
 73
     1
 97
       14
330
2D3
330
21C
330
2A2
330
2D2
330
2A3
330
2A4
330
2D1
330
2D0
330
2CF
330
21D
330
2A5
330
2A6
330
2A7
330
2A8
 75
     1
 76
     2
 52
45.0
 41
0.1
 77
     0
 78
     1
 53
45.0
 43
62.7811309658083
 44
-72.3161373035813
 45
-0.1414213562373095
 46
0.0
 79
     0
 98
        1
 10
0.0
 20
0.0
  0
HATCH
  5
303
330
A0
100
AcDbEntity
  8
1
  6
Continuous
 62
     2
100
AcDbHatch
 10
0.0
 20
0.0
 30
0.0
210
0.0
220
0.0
230
1.0
  2
CUSTOM2
 70
     0
 71
     1
 91
        1
 92
        1
 93
       18
 72
     2
 10
238.5182540718204
 20
241.0816361079512
 40
1.639695123940101
 50
90.0
 51
164.9381082228993
 73
     1
 72
     2
 10
238.0991262283587
 20
241.194426469986
 40
1.205656168392968
 50
164.9381082229037
 51
195.0618917770924
 73
     1
 72
     2
 10
238.5182540718204
 20
241.3072168320209
 40
1.639695123940503
 50
195.0618917771007
 51
275.1581447696762
 73
     1
 72
     2
 10
238.2293979770845
 20
244.5071074152426
 40
4.852596863498918
 50
275.1581447696373
 51
285.9799912583384
 73
     1
 72
     1
 10
239.5653258942012
 20
239.8420251094411
 11
239.5653258942012
 21
240.7145421162444
 72
     2
 10
238.3872708521773
 20
242.6048928353943
 40
2.22738400897288
 50
58.06909105006223
 51
71.5519238818677
 73
     0
 72
     2
 10
238.8054385858393
 20
241.3513470593575
 40
0.9059297849852208
 50
71.55192388192341
 51
113.3722778881912
 73
     0
 72
     2
 10
238.6489985531361
 20
240.9893550406475
 40
0.511580060196008
 50
113.3722778881601
 51
151.4785267423162
 73
     0
 72
     2
 10
239.0263558112176
 20
241.194426469986
 40
0.9410597353350737
 50
151.4785267423338
 51
208.5214732576434
 73
     0
 72
     2
 10
238.6489985531361
 20
241.3994978993251
 40
0.5115800601944143
 50
208.5214732575859
 51
250.6628567805147
 73
     0
 72
     2
 10
238.7956685512398
 20
240.9815429189421
 40
0.9545230068260935
 50
250.6628567805703
 51
270.0
 73
     0
 72
     1
 10
238.7956685512398
 20
241.9360659257682
 11
239.8993078508079
 21
241.9360659257682
 72
     1
 10
239.8993078508079
 20
241.9360659257682
 11
239.8993078508079
 21
239.6675217080808
 72
     1
 10
239.8993078508079
 20
239.6675217080808
 11
241.0921005529756
 21
239.6675217080808
 72
     1
 10
241.0921005529756
 20
239.6675217080808
 11
241.0921005529756
 21
241.9360659257682
 72
     1
 10
241.0921005529756
 20
241.9360659257682
 11
241.903199590449
 21
241.9360659257682
 72
     1
 10
241.903199590449
 20
241.9360659257682
 11
241.903199590449
 21
242.721331231892
 72
     1
 10
241.903199590449
 20
242.721331231892
 11
238.5182540718204
 21
242.7213312318913
 97
       18
330
282
330
281
330
280
330
27F
330
284
330
21E
330
2CC
330
2AD
330
2CB
330
2AE
330
2CA
330
2C9
330
21F
330
2C8
330
2C7
330
2AF
330
2B0
330
283
 75
     1
 76
     2
 52
45.0
 41
0.1
 77
     0
 78
     1
 53
45.0
 43
62.7811309658083
 44
-72.3161373035813
 45
-0.1414213562373095
 46
0.0
 79
     0
 98
        1
 10
0.0
 20
0.0
  0
HATCH
  5
304
330
A0
100
AcDbEntity
  8
1
  6
Continuous
 62
     2
100
AcDbHatch
 10
0.0
 20
0.0
 30
0.0
210
0.0
220
0.0
230
1.0
  2
CUSTOM3
 70
     0
 71
     1
 91
        1
 92
        1
 93
       18
 72
     2
 10
238.5182540718204
 20
241.0816361079512
 40
1.639695123940101
 50
90.0
 51
164.9381082228993
 73
     1
 72
     2
 10
238.0991262283587
 20
241.194426469986
 40
1.205656168392968
 50
164.9381082229037
 51
195.0618917770924
 73
     1
 72
     2
 10
238.5182540718204
 20
241.3072168320209
 40
1.639695123940503
 50
195.0618917771007
 51
275.1581447696762
 73
     1
 72
     2
 10
238.2293979770845
 20
244.5071074152426
 40
4.852596863498918
 50
275.1581447696373
 51
285.9799912583384
 73
     1
 72
     1
 10
239.5653258942012
 20
239.8420251094411
 11
239.5653258942012
 21
240.7145421162444
 72
     2
 10
238.3872708521773
 20
242.6048928353943
 40
2.22738400897288
 50
58.06909105006223
 51
71.5519238818677
 73
     0
 72
     2
 10
238.8054385858393
 20
241.3513470593575
 40
0.9059297849852208
 50
71.55192388192341
 51
113.3722778881912
 73
     0
 72
     2
 10
238.6489985531361
 20
240.9893550406475
 40
0.511580060196008
 50
113.3722778881601
 51
151.4785267423162
 73
     0
 72
     2
 10
239.0263558112176
 20
241.194426469986
 40
0.9410597353350737
 50
151.4785267423338
 51
208.5214732576434
 73
     0
 72
     2
 10
238.6489985531361
 20
241.3994978993251
 40
0.5115800601944143
 50
208.5214732575859
 51
250.6628567805147
 73
     0
 72
     2
 10
238.7956685512398
 20
240.9815429189421
 40
0.9545230068260935
 50
250.6628567805703
 51
270.0
 73
     0
 72
     1
 10
238.7956685512398
 20
241.9360659257682
 11
239.8993078508079
 21
241.9360659257682
 72
     1
 10
239.8993078508079
 20
241.9360659257682
 11
239.8993078508079
 21
239.6675217080808
 72
     1
 10
239.8993078508079
 20
239.6675217080808
 11
241.0921005529756
 21
239.6675217080808
 72
     1
 10
241.0921005529756
 20
239.6675217080808
 11
241.0921005529756
 21
241.9360659257682
 72
     1
 10
241.0921005529756
 20
241.9360659257682
 11
241.903199590449
 21
241.9360659257682
 72
     1
 10
241.903199590449
 20
241.9360659257682
 11
241.903199590449
 21
242.721331231892
 72
     1
 10
241.903199590449
 20
242.721331231892
 11
238.5182540718204
 21
242.7213312318913
 97
       18
330
282
330
281
330
280
330
27F
330
284
330
21E
330
2CC
330
2AD
330
2CB
330
2AE
330
2CA
330
2C9
330
21F
330
2C8
330
2C7
330
2AF
330
2B0
330
283
 75
     1
 76
     2
 52
45.0
 41
0.1
 77
     0
 78
     1
 53
45.0
 43
62.7811309658083
 44
-72.3161373035813
 45
-0.1414213562373095
 46
0.0
 79
     0
 98
        1
 10
0.0
 20
0.0
  0
HATCH
  5
305
330
A0
100
AcDbEntity
  8
1
  6
Continuous
 62
     2
100
AcDbHatch
 10
0.0
 20
0.0
 30
0.0
210
0.0
220
0.0
230
1.0
  2
CUSTOM4
 70
     0
 71
     1
 91
        4
 92
        1
 93
        8
 72
     2
 10
214.4160949751273
 20
245.6562770926643
 40
0.4242446153837989
 50
90.0
 51
180.0
 73
     1
 72
     1
 10
213.9918503597445
 20
245.6562770926643
 11
213.9918503597445
 21
240.091766323464
 72
     2
 10
214.4160949751273
 20
240.091766323464
 40
0.4242446153828041
 50
180.0
 51
270.0
 73
     1
 72
     1
 10
214.4160949751273
 20
239.6675217080808
 11
219.8894070658442
 21
239.6675217080808
 72
     2
 10
219.8894070658442
 20
240.091766323464
 40
0.4242446153831736
 50
270.0
 51
360.0
 73
     1
 72
     1
 10
220.3136516812281
 20
240.091766323464
 11
220.3136516812281
 21
245.6562770926643
 72
     2
 10
219.8894070658442
 20
245.6562770926643
 40
0.4242446153838841
 50
0.0
 51
90.0
 73
     1
 72
     1
 10
219.8894070658442
 20
246.0805217080481
 11
214.4160949751273
 21
246.0805217080481
 97
        8
330
2C0
330
24D
330
2BF
330
24E
330
2B6
330
24B
330
2C1
330
24C
 92
       16
 93
       12
 72
     1
 10
215.0099896518738
 20
240.3800772636377
 11
216.4858229128834
 21
240.3800772636377
 72
     2
 10
216.4858229128834
 20
240.6957941867144
 40
0.3157169230767067
 50
270.0
 51
360.0
 73
     1
 72
     1
 10
216.80153983596
 20
240.6957941867144
 11
216.80153983596
 21
242.226565118246
 72
     2
 10
216.4858229128834
 20
242.226565118246
 40
0.315716923076593
 50
0.0
 51
64.80558935145724
 73
     1
 72
     2
 10
217.0084073604584
 20
243.3373948643088
 40
0.9118975235576555
 50
115.1944106485105
 51
244.8055893514789
 73
     0
 72
     2
 10
216.4858229128834
 20
244.4482246103709
 40
0.3157169230759765
 50
295.1944106485691
 51
360.0
 73
     1
 72
     1
 10
216.80153983596
 20
244.4482246103709
 11
216.80153983596
 21
245.0522492294315
 72
     2
 10
216.4858229128834
 20
245.0522492294315
 40
0.315716923076593
 50
0.0
 51
90.0
 73
     1
 72
     1
 10
216.4858229128834
 20
245.3679661525076
 11
215.0099896518738
 21
245.3679661525076
 72
     2
 10
215.0099896518738
 20
245.0522492294315
 40
0.3157169230760815
 50
90.0
 51
180.0
 73
     1
 72
     1
 10
214.6942727287982
 20
245.0522492294315
 11
214.6942727287982
 21
240.6957941867144
 72
     2
 10
215.0099896518738
 20
240.6957941867144
 40
0.3157169230755983
 50
180.0
 51
270.0
 73
     1
 97
       12
330
252
330
2B3
330
251
330
2C4
330
250
330
2C3
330
2B4
330
2B5
330
24F
330
2C2
330
24A
330
2C5
 92
       16
 93
        8
 72
     2
 10
217.0594956403177
 20
243.3373948643088
 40
0.9118481501444712
 50
295.3740086781781
 51
424.6259913218089
 73
     1
 72
     2
 10
217.5855383384056
 20
244.4465364642765
 40
0.315716923076792
 50
115.3740086783695
 51
180.0
 73
     0
 72
     1
 10
217.2698214153288
 20
244.4465364642765
 11
217.2698214153288
 21
245.0520717527833
 72
     2
 10
217.5855383384056
 20
245.0520717527833
 40
0.3157169230761851
 50
180.0
 51
269.8110329574335
 73
     0
 72
     2
 10
217.5911544737156
 20
243.3492368052143
 40
2.018561131933266
 50
269.8110329575834
 51
450.1889670424166
 73
     0
 72
     2
 10
217.5855383384056
 20
241.6464018576453
 40
0.315716923076792
 50
90.18896704256652
 51
180.0
 73
     0
 72
     1
 10
217.2698214153288
 20
241.6464018576453
 11
217.2698214153288
 21
242.2282532643404
 72
     2
 10
217.5855383384056
 20
242.2282532643404
 40
0.3157169230765328
 50
180.0
 51
244.6259913216482
 73
     0
 97
        8
330
2CE
330
2AA
330
286
330
2CD
330
2AB
330
2AC
330
285
330
2A9
 92
       16
 93
        1
 72
     2
 10
217.0356806256449
 20
243.3373948643088
 40
0.4709789327785074
 50
0.0
 51
360.0
 73
     1
 97
        1
330
2D4
 75
     1
 76
     2
 52
45.0
 41
0.1
 77
     0
 78
     1
 53
45.0
 43
62.7811309658083
 44
-72.3161373035813
 45
-0.1414213562373095
 46
0.0
 79
     0
 98
        1
 10
0.0
 20
0.0
  0
HATCH
  5
306
330
A0
100
AcDbEntity
  8
1
  6
Continuous
 62
     2
100
AcDbHatch
 10
0.0
 20
0.0
 30
0.0
210
0.0
220
0.0
230
1.0
  2
CUSTOM5
 70
     0
 71
     1
 91
        4
 92
        1
 93
        8
 72
     2
 10
214.4160949751273
 20
245.6562770926643
 40
0.4242446153837989
 50
90.0
 51
180.0
 73
     1
 72
     1
 10
213.9918503597445
 20
245.6562770926643
 11
213.9918503597445
 21
240.091766323464
 72
     2
 10
214.4160949751273
 20
240.091766323464
 40
0.4242446153828041
 50
180.0
 51
270.0
 73
     1
 72
     1
 10
214.4160949751273
 20
239.6675217080808
 11
219.8894070658442
 21
239.6675217080808
 72
     2
 10
219.8894070658442
 20
240.091766323464
 40
0.4242446153831736
 50
270.0
 51
360.0
 73
     1
 72
     1
 10
220.3136516812281
 20
240.091766323464
 11
220.3136516812281
 21
245.6562770926643
 72
     2
 10
219.8894070658442
 20
245.6562770926643
 40
0.4242446153838841
 50
0.0
 51
90.0
 73
     1
 72
     1
 10
219.8894070658442
 20
246.0805217080481
 11
214.4160949751273
 21
246.0805217080481
 97
        8
330
2C0
330
24D
330
2BF
330
24E
330
2B6
330
24B
330
2C1
330
24C
 92
       16
 93
       12
 72
     1
 10
215.0099896518738
 20
240.3800772636377
 11
216.4858229128834
 21
240.3800772636377
 72
     2
 10
216.4858229128834
 20
240.6957941867144
 40
0.3157169230767067
 50
270.0
 51
360.0
 73
     1
 72
     1
 10
216.80153983596
 20
240.6957941867144
 11
216.80153983596
 21
242.226565118246
 72
     2
 10
216.4858229128834
 20
242.226565118246
 40
0.315716923076593
 50
0.0
 51
64.80558935145724
 73
     1
 72
     2
 10
217.0084073604584
 20
243.3373948643088
 40
0.9118975235576555
 50
115.1944106485105
 51
244.8055893514789
 73
     0
 72
     2
 10
216.4858229128834
 20
244.4482246103709
 40
0.3157169230759765
 50
295.1944106485691
 51
360.0
 73
     1
 72
     1
 10
216.80153983596
 20
244.4482246103709
 11
216.80153983596
 21
245.0522492294315
 72
     2
 10
216.4858229128834
 20
245.0522492294315
 40
0.315716923076593
 50
0.0
 51
90.0
 73
     1
 72
     1
 10
216.4858229128834
 20
245.3679661525076
 11
215.0099896518738
 21
245.3679661525076
 72
     2
 10
215.0099896518738
 20
245.0522492294315
 40
0.3157169230760815
 50
90.0
 51
180.0
 73
     1
 72
     1
 10
214.6942727287982
 20
245.0522492294315
 11
214.6942727287982
 21
240.6957941867144
 72
     2
 10
215.0099896518738
 20
240.6957941867144
 40
0.3157169230755983
 50
180.0
 51
270.0
 73
     1
 97
       12
330
252
330
2B3
330
251
330
2C4
330
250
330
2C3
330
2B4
330
2B5
330
24F
330
2C2
330
24A
330
2C5
 92
       16
 93
        8
 72
     2
 10
217.0594956403177
 20
243.3373948643088
 40
0.9118481501444712
 50
295.3740086781781
 51
424.6259913218089
 73
     1
 72
     2
 10
217.5855383384056
 20
244.4465364642765
 40
0.315716923076792
 50
115.3740086783695
 51
180.0
 73
     0
 72
     1
 10
217.2698214153288
 20
244.4465364642765
 11
217.2698214153288
 21
245.0520717527833
 72
     2
 10
217.5855383384056
 20
245.0520717527833
 40
0.3157169230761851
 50
180.0
 51
269.8110329574335
 73
     0
 72
     2
 10
217.5911544737156
 20
243.3492368052143
 40
2.018561131933266
 50
269.8110329575834
 51
450.1889670424166
 73
     0
 72
     2
 10
217.5855383384056
 20
241.6464018576453
 40
0.315716923076792
 50
90.18896704256652
 51
180.0
 73
     0
 72
     1
 10
217.2698214153288
 20
241.6464018576453
 11
217.2698214153288
 21
242.2282532643404
 72
     2
 10
217.5855383384056
 20
242.2282532643404
 40
0.3157169230765328
 50
180.0
 51
244.6259913216482
 73
     0
 97
        8
330
2CE
330
2AA
330
286
330
2CD
330
2AB
330
2AC
330
285
330
2A9
 92
       16
 93
        1
 72
     2
 10
217.0356806256449
 20
243.3373948643088
 40
0.4709789327785074
 50
0.0
 51
360.0
 73
     1
 97
        1
330
2D4
 75
     1
 76
     2
 52
45.0
 41
0.1
 77
     0
 78
     1
 53
45.0
 43
62.7811309658083
 44
-72.3161373035813
 45
-0.1414213562373095
 46
0.0
 79
     0
 98
        1
 10
0.0
 20
0.0
  0
HATCH
  5
307
330
A0
100
AcDbEntity
  8
1
  6
Continuous
 62
     2
100
AcDbHatch
 10
0.0
 20
0.0
 30
0.0
210
0.0
220
0.0
230
1.0
  2
CUSTOM6
 70
     0
 71
     1
 91
        2
 92
        1
 93
       12
 72
     2
 10
229.0912589791167
 20
244.5536169461605
 40
1.526904761905683
 50
90.0
 51
270.0
 73
     1
 72
     1
 10
229.0912589791167
 20
243.0267121842551
 11
232.2415787028976
 21
243.0267121842551
 72
     1
 10
232.2415787028976
 20
243.0267121842551
 11
232.2415787028976
 21
243.7247257896975
 72
     1
 10
232.2415787028976
 20
243.7247257896975
 11
230.90565087647
 21
243.7247257896975
 72
     1
 10
230.90565087647
 20
243.7247257896975
 11
230.90565087647
 21
244.2046101434393
 72
     1
 10
230.90565087647
 20
244.2046101434393
 11
232.2415787028976
 21
244.2046101434393
 72
     1
 10
232.2415787028976
 20
244.2046101434393
 11
232.2415787028976
 21
244.9026237488816
 72
     1
 10
232.2415787028976
 20
244.9026237488816
 11
230.90565087647
 21
244.9026237488816
 72
     1
 10
230.90565087647
 20
244.9026237488816
 11
230.90565087647
 21
245.3825081026233
 72
     1
 10
230.90565087647
 20
245.3825081026233
 11
232.2415787028976
 21
245.3825081026233
 72
     1
 10
232.2415787028976
 20
245.3825081026233
 11
232.2415787028976
 21
246.0805217080662
 72
     1
 10
232.2415787028976
 20
246.0805217080662
 11
229.0912589791167
 21
246.0805217080662
 97
       12
330
241
330
23B
330
262
330
261
330
260
330
25F
330
23C
330
23D
330
23E
330
23F
330
2B1
330
240
 92
       16
 93
        4
 72
     2
 10
229.5072710256281
 20
244.5536169461605
 40
0.7717997786795895
 50
141.8795802028517
 51
218.1204197971599
 73
     1
 72
     2
 10
229.3075309892819
 20
244.3968857680399
 40
0.5179085730134739
 50
218.1204197971359
 51
321.8795802028563
 73
     1
 72
     2
 10
229.1077909529357
 20
244.5536169461605
 40
0.7717997786796229
 50
321.8795802028349
 51
398.1204197971535
 73
     1
 72
     2
 10
229.3075309892819
 20
244.7103481242809
 40
0.5179085730133846
 50
38.12041979714368
 51
141.8795802028641
 73
     1
 97
        4
330
2BE
330
2BD
330
2B8
330
2B7
 75
     1
 76
     2
 52
45.0
 41
0.1
 77
     0
 78
     1
 53
45.0
 43
62.7811309658083
 44
-72.3161373035813
 45
-0.1414213562373095
 46
0.0
 79
     0
 98
        1
 10
0.0
 20
0.0
  0
HATCH
  5
308
330
A0
100
AcDbEntity
  8
1
  6
Continuous
 62
     2
100
AcDbHatch
 10
0.0
 20
0.0
 30
0.0
210
0.0
220
0.0
230
1.0
  2
CUSTOM7
 70
     0
 71
     1
 91
        2
 92
        1
 93
       12
 72
     2
 10
229.0912589791167
 20
244.5536169461605
 40
1.526904761905683
 50
90.0
 51
270.0
 73
     1
 72
     1
 10
229.0912589791167
 20
243.0267121842551
 11
232.2415787028976
 21
243.0267121842551
 72
     1
 10
232.2415787028976
 20
243.0267121842551
 11
232.2415787028976
 21
243.7247257896975
 72
     1
 10
232.2415787028976
 20
243.7247257896975
 11
230.90565087647
 21
243.7247257896975
 72
     1
 10
230.90565087647
 20
243.7247257896975
 11
230.90565087647
 21
244.2046101434393
 72
     1
 10
230.90565087647
 20
244.2046101434393
 11
232.2415787028976
 21
244.2046101434393
 72
     1
 10
232.2415787028976
 20
244.2046101434393
 11
232.2415787028976
 21
244.9026237488816
 72
     1
 10
232.2415787028976
 20
244.9026237488816
 11
230.90565087647
 21
244.9026237488816
 72
     1
 10
230.90565087647
 20
244.9026237488816
 11
230.90565087647
 21
245.3825081026233
 72
     1
 10
230.90565087647
 20
245.3825081026233
 11
232.2415787028976
 21
245.3825081026233
 72
     1
 10
232.2415787028976
 20
245.3825081026233
 11
232.2415787028976
 21
246.0805217080662
 72
     1
 10
232.2415787028976
 20
246.0805217080662
 11
229.0912589791167
 21
246.0805217080662
 97
       12
330
241
330
23B
330
262
330
261
330
260
330
25F
330
23C
330
23D
330
23E
330
23F
330
2B1
330
240
 92
       16
 93
        4
 72
     2
 10
229.5072710256281
 20
244.5536169461605
 40
0.7717997786795895
 50
141.8795802028517
 51
218.1204197971599
 73
     1
 72
     2
 10
229.3075309892819
 20
244.3968857680399
 40
0.5179085730134739
 50
218.1204197971359
 51
321.8795802028563
 73
     1
 72
     2
 10
229.1077909529357
 20
244.5536169461605
 40
0.7717997786796229
 50
321.8795802028349
 51
398.1204197971535
 73
     1
 72
     2
 10
229.3075309892819
 20
244.7103481242809
 40
0.5179085730133846
 50
38.12041979714368
 51
141.8795802028641
 73
     1
 97
        4
330
2BE
330
2BD
330
2B8
330
2B7
 75
     1
 76
     2
 52
45.0
 41
0.1
 77
     0
 78
     1
 53
45.0
 43
62.7811309658083
 44
-72.3161373035813
 45
-0.1414213562373095
 46
0.0
 79
     0
 98
        1
 10
0.0
 20
0.0
  0
HATCH
  5
309
330
A0
100
AcDbEntity
  8
1
  6
Continuous
 62
     2
100
AcDbHatch
 10
0.0
 20
0.0
 30
0.0
210
0.0
220
0.0
230
1.0
  2
CUSTOM8
 70
     0
 71
     1
 91
        2
 92
        1
 93
        4
 72
     2
 10
225.065643616655
 20
241.194426469986
 40
1.458034083651667
 50
117.5481481756588
 51
242.4518518243375
 73
     1
 72
     2
 10
225.3465835084884
 20
241.7330014802894
 40
2.065479772208637
 50
242.4518518243384
 51
297.548148175686
 73
     1
 72
     2
 10
225.6275234003216
 20
241.194426469986
 40
1.458034083652055
 50
297.548148175705
 51
422.4518518242986
 73
     1
 72
     2
 10
225.3465835084884
 20
240.6558514596832
 40
2.065479772208769
 50
62.45185182430927
 51
117.5481481756663
 73
     1
 97
        4
330
2BC
330
2B9
330
2BB
330
2BA
 92
       16
 93
        4
 72
     2
 10
225.3465835084884
 20
241.3511576481066
 40
0.5179085730132806
 50
38.12041979716469
 51
141.8795802028567
 73
     1
 72
     2
 10
225.5463235448344
 20
241.194426469986
 40
0.771799778679586
 50
141.8795802028247
 51
218.1204197971587
 73
     1
 72
     2
 10
225.3465835084884
 20
241.0376952918662
 40
0.5179085730138424
 50
218.1204197971879
 51
321.8795802027908
 73
     1
 72
     2
 10
225.146843472142
 20
241.194426469986
 40
0.7717997786795
 50
321.8795802028465
 51
398.1204197971701
 73
     1
 97
        4
330
29F
330
2A0
330
2A1
330
29E
 75
     1
 76
     2
 52
45.0
 41
0.1
 77
     0
 78
     1
 53
45.0
 43
62.7811309658083
 44
-72.3161373035813
 45
-0.1414213562373095
 46
0.0
 79
     0
 98
        1
 10
0.0
 20
0.0
  0
HATCH
  5
30A
330
A0
100
AcDbEntity
  8
1
  6
Continuous
 62
     2
100
AcDbHatch
 10
0.0
 20
0.0
 30
0.0
210
0.0
220
0.0
230
1.0
  2
CUSTOM9
 70
     0
 71
     1
 91
        2
 92
        1
 93
        4
 72
     2
 10
225.065643616655
 20
241.194426469986
 40
1.458034083651667
 50
117.5481481756588
 51
242.4518518243375
 73
     1
 72
     2
 10
225.3465835084884
 20
241.7330014802894
 40
2.065479772208637
 50
242.4518518243384
 51
297.548148175686
 73
     1
 72
     2
 10
225.6275234003216
 20
241.194426469986
 40
1.458034083652055
 50
297.548148175705
 51
422.4518518242986
 73
     1
 72
     2
 10
225.3465835084884
 20
240.6558514596832
 40
2.065479772208769
 50
62.45185182430927
 51
117.5481481756663
 73
     1
 97
        4
330
2BC
330
2B9
330
2BB
330
2BA
 92
       16
 93
        4
 72
     2
 10
225.3465835084884
 20
241.3511576481066
 40
0.5179085730132806
 50
38.12041979716469
 51
141.8795802028567
 73
     1
 72
     2
 10
225.5463235448344
 20
241.194426469986
 40
0.771799778679586
 50
141.8795802028247
 51
218.1204197971587
 73
     1
 72
     2
 10
225.3465835084884
 20
241.0376952918662
 40
0.5179085730138424
 50
218.1204197971879
 51
321.8795802027908
 73
     1
 72
     2
 10
225.146843472142
 20
241.194426469986
 40
0.7717997786795
 50
321.8795802028465
 51
398.1204197971701
 73
     1
 97
        4
330
29F
330
2A0
330
2A1
330
29E
 75
     1
 76
     2
 52
45.0
 41
0.1
 77
     0
 78
     1
 53
45.0
 43
62.7811309658083
 44
-72.3161373035813
 45
-0.1414213562373095
 46
0.0
 79
     0
 98
        1
 10
0.0
 20
0.0
  0
HATCH
  5
30B
330
A0
100
AcDbEntity
  8
1
  6
Continuous
 62
     2
100
AcDbHatch
 10
0.0
 20
0.0
 30
0.0
210
0.0
220
0.0
230
1.0
  2
CUSTOM10
 70
     0
 71
     1
 91
        2
 92
        1
 93
        6
 72
     1
 10
220.7907687620949
 20
246.0805217080662
 11
220.7907687620949
 21
243.0267121842551
 72
     1
 10
220.7907687620949
 20
243.0267121842551
 11
222.0312731723489
 21
243.0267121842551
 72
     1
 10
222.0312731723489
 20
243.0267121842551
 11
222.0312731723489
 21
243.9697904253989
 72
     1
 10
222.0312731723489
 20
243.9697904253989
 11
222.7900407601293
 21
243.9697904253989
 72
     2
 10
222.7900407601293
 20
245.0251560667325
 40
1.055365641333594
 50
270.0
 51
450.0
 73
     1
 72
     1
 10
222.7900407601293
 20
246.0805217080662
 11
220.7907687620949
 21
246.0805217080662
 97
        6
330
2C6
330
253
330
249
330
248
330
255
330
254
 92
       16
 93
        4
 72
     1
 10
222.3485682338909
 20
245.4174158626262
 11
222.0312731723489
 21
245.4174158626262
 72
     1
 10
222.0312731723489
 20
245.4174158626262
 11
222.0312731723489
 21
244.7116882132839
 72
     1
 10
222.0312731723489
 20
244.7116882132839
 11
222.3485682338909
 21
244.7116882132839
 72
     2
 10
222.3485682338909
 20
245.064552037955
 40
0.3528638246710898
 50
270.0
 51
450.0
 73
     1
 97
        4
330
256
330
247
330
257
330
2B2
 75
     1
 76
     2
 52
45.0
 41
0.1
 77
     0
 78
     1
 53
45.0
 43
62.7811309658083
 44
-72.3161373035813
 45
-0.1414213562373095
 46
0.0
 79
     0
 98
        1
 10
0.0
 20
0.0
  0
HATCH
  5
30C
330
A0
100
AcDbEntity
  8
1
  6
Continuous
 62
     2
100
AcDbHatch
 10
0.0
 20
0.0
 30
0.0
210
0.0
220
0.0
230
1.0
  2
CUSTOM11
 70
     0
 71
     1
 91
        2
 92
        1
 93
        6
 72
     1
 10
220.7907687620949
 20
246.0805217080662
 11
220.7907687620949
 21
243.0267121842551
 72
     1
 10
220.7907687620949
 20
243.0267121842551
 11
222.0312731723489
 21
243.0267121842551
 72
     1
 10
222.0312731723489
 20
243.0267121842551
 11
222.0312731723489
 21
243.9697904253989
 72
     1
 10
222.0312731723489
 20
243.9697904253989
 11
222.7900407601293
 21
243.9697904253989
 72
     2
 10
222.7900407601293
 20
245.0251560667325
 40
1.055365641333594
 50
270.0
 51
450.0
 73
     1
 72
     1
 10
222.7900407601293
 20
246.0805217080662
 11
220.7907687620949
 21
246.0805217080662
 97
        6
330
2C6
330
253
330
249
330
248
330
255
330
254
 92
       16
 93
        4
 72
     1
 10
222.3485682338909
 20
245.4174158626262
 11
222.0312731723489
 21
245.4174158626262
 72
     1
 10
222.0312731723489
 20
245.4174158626262
 11
222.0312731723489
 21
244.7116882132839
 72
     1
 10
222.0312731723489
 20
244.7116882132839
 11
222.3485682338909
 21
244.7116882132839
 72
     2
 10
222.3485682338909
 20
245.064552037955
 40
0.3528638246710898
 50
270.0
 51
450.0
 73
     1
 97
        4
330
256
330
247
330
257
330
2B2
 75
     1
 76
     2
 52
45.0
 41
0.1
 77
     0
 78
     1
 53
45.0
 43
62.7811309658083
 44
-72.3161373035813
 45
-0.1414213562373095
 46
0.0
 79
     0
 98
        1
 10
0.0
 20
0.0
  0
HATCH
  5
30D
330
A0
100
AcDbEntity
  8
1
  6
Continuous
 62
     2
100
AcDbHatch
 10
0.0
 20
0.0
 30
0.0
210
0.0
220
0.0
230
1.0
  2
CUSTOM12
 70
     0
 71
     1
 91
        1
 92
        1
 93
       12
 72
     1
 10
240.4050519565281
 20
246.0805217080662
 11
241.8077761742753
 21
246.0805217080662
 72
     1
 10
241.8077761742753
 20
246.0805217080662
 11
240.5052465435087
 21
244.60757117803
 72
     1
 10
240.5052465435087
 20
244.60757117803
 11
241.903199590449
 21
243.0267121842551
 72
     1
 10
241.903199590449
 20
243.0267121842551
 11
240.5004753727007
 21
243.0267121842551
 72
     1
 10
240.5004753727007
 20
243.0267121842551
 11
239.8038844346353
 21
243.8144439695489
 72
     1
 10
239.8038844346353
 20
243.8144439695489
 11
239.1072934965695
 21
243.0267121842551
 72
     1
 10
239.1072934965695
 20
243.0267121842551
 11
237.7045692788214
 21
243.0267121842551
 72
     1
 10
237.7045692788214
 20
243.0267121842551
 11
239.1025223257617
 21
244.60757117803
 72
     1
 10
239.1025223257617
 20
244.60757117803
 11
237.7999926949942
 21
246.0805217080662
 72
     1
 10
237.7999926949942
 20
246.0805217080662
 11
239.2027169127434
 21
246.0805217080662
 72
     1
 10
239.2027169127434
 20
246.0805217080662
 11
239.8038844346353
 21
245.4006983865107
 72
     1
 10
239.8038844346353
 20
245.4006983865107
 11
240.4050519565281
 21
246.0805217080662
 97
       12
330
222
330
27B
330
27A
330
279
330
278
330
223
330
224
330
220
330
221
330
27E
330
27D
330
27C
 75
     1
 76
     2
 52
45.0
 41
0.1
 77
     0
 78
     1
 53
45.0
 43
62.7811309658083
 44
-72.3161373035813
 45
-0.1414213562373095
 46
0.0
 79
     0
 98
        1
 10
0.0
 20
0.0
  0
HATCH
  5
30E
330
A0
100
AcDbEntity
  8
1
  6
Continuous
 62
     2
100
AcDbHatch
 10
0.0
 20
0.0
 30
0.0
210
0.0
220
0.0
230
1.0
  2
CUSTOM13
 70
     0
 71
     1
 91
        1
 92
        1
 93
       12
 72
     1
 10
240.4050519565281
 20
246.0805217080662
 11
241.8077761742753
 21
246.0805217080662
 72
     1
 10
241.8077761742753
 20
246.0805217080662
 11
240.5052465435087
 21
244.60757117803
 72
     1
 10
240.5052465435087
 20
244.60757117803
 11
241.903199590449
 21
243.0267121842551
 72
     1
 10
241.903199590449
 20
243.0267121842551
 11
240.5004753727007
 21
243.0267121842551
 72
     1
 10
240.5004753727007
 20
243.0267121842551
 11
239.8038844346353
 21
243.8144439695489
 72
     1
 10
239.8038844346353
 20
243.8144439695489
 11
239.1072934965695
 21
243.0267121842551
 72
     1
 10
239.1072934965695
 20
243.0267121842551
 11
237.7045692788214
 21
243.0267121842551
 72
     1
 10
237.7045692788214
 20
243.0267121842551
 11
239.1025223257617
 21
244.60757117803
 72
     1
 10
239.1025223257617
 20
244.60757117803
 11
237.7999926949942
 21
246.0805217080662
 72
     1
 10
237.7999926949942
 20
246.0805217080662
 11
239.2027169127434
 21
246.0805217080662
 72
     1
 10
239.2027169127434
 20
246.0805217080662
 11
239.8038844346353
 21
245.4006983865107
 72
     1
 10
239.8038844346353
 20
245.4006983865107
 11
240.4050519565281
 21
246.0805217080662
 97
       12
330
222
330
27B
330
27A
330
279
330
278
330
223
330
224
330
220
330
221
330
27E
330
27D
330
27C
 75
     1
 76
     2
 52
45.0
 41
0.1
 77
     0
 78
     1
 53
45.0
 43
62.7811309658083
 44
-72.3161373035813
 45
-0.1414213562373095
 46
0.0
 79
     0
 98
        1
 10
0.0
 20
0.0
  0
HATCH
  5
30F
330
A0
100
AcDbEntity
  8
1
  6
Continuous
 62
     2
100
AcDbHatch
 10
0.0
 20
0.0
 30
0.0
210
0.0
220
0.0
230
1.0
  2
CUSTOM14
 70
     0
 71
     1
 91
        1
 92
        1
 93
        4
 72
     1
 10
237.5852900086045
 20
246.0805217080662
 11
237.5852900086045
 21
243.0267121842551
 72
     1
 10
237.5852900086045
 20
243.0267121842551
 11
236.3447855983516
 21
243.0267121842551
 72
     1
 10
236.3447855983516
 20
243.0267121842551
 11
236.3447855983516
 21
246.0805217080662
 72
     1
 10
236.3447855983516
 20
246.0805217080662
 11
237.5852900086045
 21
246.0805217080662
 97
        4
330
276
330
225
330
275
330
277
 75
     1
 76
     2
 52
45.0
 41
0.1
 77
     0
 78
     1
 53
45.0
 43
62.7811309658083
 44
-72.3161373035813
 45
-0.1414213562373095
 46
0.0
 79
     0
 98
        1
 10
0.0
 20
0.0
  0
HATCH
  5
310
330
A0
100
AcDbEntity
  8
1
  6
Continuous
 62
     2
100
AcDbHatch
 10
0.0
 20
0.0
 30
0.0
210
0.0
220
0.0
230
1.0
  2
CUSTOM15
 70
     0
 71
     1
 91
        1
 92
        1
 93
        4
 72
     1
 10
237.5852900086045
 20
246.0805217080662
 11
237.5852900086045
 21
243.0267121842551
 72
     1
 10
237.5852900086045
 20
243.0267121842551
 11
236.3447855983516
 21
243.0267121842551
 72
     1
 10
236.3447855983516
 20
243.0267121842551
 11
236.3447855983516
 21
246.0805217080662
 72
     1
 10
236.3447855983516
 20
246.0805217080662
 11
237.5852900086045
 21
246.0805217080662
 97
        4
330
276
330
225
330
275
330
277
 75
     1
 76
     2
 52
45.0
 41
0.1
 77
     0
 78
     1
 53
45.0
 43
62.7811309658083
 44
-72.3161373035813
 45
-0.1414213562373095
 46
0.0
 79
     0
 98
        1
 10
0.0
 20
0.0
  0
HATCH
  5
311
330
A0
100
AcDbEntity
  8
1
  6
Continuous
 62
     2
100
AcDbHatch
 10
0.0
 20
0.0
 30
0.0
210
0.0
220
0.0
230
1.0
  2
CUSTOM16
 70
     0
 71
     1
 91
        2
 92
        1
 93
        8
 72
     1
 10
237.1948460050725
 20
239.6675217080808
 11
235.9543415948186
 21
239.6675217080808
 72
     1
 10
235.9543415948186
 20
239.6675217080808
 11
235.7428615413428
 21
240.2084822522986
 72
     1
 10
235.7428615413428
 20
240.2084822522986
 11
234.6104199646689
 21
240.2084822522986
 72
     1
 10
234.6104199646689
 20
240.2084822522986
 11
234.3989399111931
 21
239.6675217080808
 72
     1
 10
234.3989399111931
 20
239.6675217080808
 11
233.1584355009402
 21
239.6675217080808
 72
     1
 10
233.1584355009402
 20
239.6675217080808
 11
234.5563885478794
 21
242.721331231892
 72
     1
 10
234.5563885478794
 20
242.721331231892
 11
235.7968929581322
 21
242.721331231892
 72
     1
 10
235.7968929581322
 20
242.721331231892
 11
237.1948460050725
 21
239.6675217080808
 97
        8
330
271
330
22B
330
270
330
273
330
228
330
272
330
229
330
22A
 92
       16
 93
        3
 72
     1
 10
234.876475515814
 20
240.8890455176052
 11
235.4768059901965
 21
240.8890455176052
 72
     1
 10
235.4768059901965
 20
240.8890455176052
 11
235.1766407530063
 21
241.6568604835919
 72
     1
 10
235.1766407530063
 20
241.6568604835919
 11
234.876475515814
 21
240.8890455176052
 97
        3
330
227
330
226
330
274
 75
     1
 76
     2
 52
45.0
 41
0.1
 77
     0
 78
     1
 53
45.0
 43
62.7811309658083
 44
-72.3161373035813
 45
-0.1414213562373095
 46
0.0
 79
     0
 98
        1
 10
0.0
 20
0.0
  0
HATCH
  5
312
330
A0
100
AcDbEntity
  8
1
  6
Continuous
 62
     2
100
AcDbHatch
 10
0.0
 20
0.0
 30
0.0
210
0.0
220
0.0
230
1.0
  2
CUSTOM17
 70
     0
 71
     1
 91
        2
 92
        1
 93
        8
 72
     1
 10
237.1948460050725
 20
239.6675217080808
 11
235.9543415948186
 21
239.6675217080808
 72
     1
 10
235.9543415948186
 20
239.6675217080808
 11
235.7428615413428
 21
240.2084822522986
 72
     1
 10
235.7428615413428
 20
240.2084822522986
 11
234.6104199646689
 21
240.2084822522986
 72
     1
 10
234.6104199646689
 20
240.2084822522986
 11
234.3989399111931
 21
239.6675217080808
 72
     1
 10
234.3989399111931
 20
239.6675217080808
 11
233.1584355009402
 21
239.6675217080808
 72
     1
 10
233.1584355009402
 20
239.6675217080808
 11
234.5563885478794
 21
242.721331231892
 72
     1
 10
234.5563885478794
 20
242.721331231892
 11
235.7968929581322
 21
242.721331231892
 72
     1
 10
235.7968929581322
 20
242.721331231892
 11
237.1948460050725
 21
239.6675217080808
 97
        8
330
271
330
22B
330
270
330
273
330
228
330
272
330
229
330
22A
 92
       16
 93
        3
 72
     1
 10
234.876475515814
 20
240.8890455176052
 11
235.4768059901965
 21
240.8890455176052
 72
     1
 10
235.4768059901965
 20
240.8890455176052
 11
235.1766407530063
 21
241.6568604835919
 72
     1
 10
235.1766407530063
 20
241.6568604835919
 11
234.876475515814
 21
240.8890455176052
 97
        3
330
227
330
226
330
274
 75
     1
 76
     2
 52
45.0
 41
0.1
 77
     0
 78
     1
 53
45.0
 43
62.7811309658083
 44
-72.3161373035813
 45
-0.1414213562373095
 46
0.0
 79
     0
 98
        1
 10
0.0
 20
0.0
  0
HATCH
  5
313
330
A0
100
AcDbEntity
  8
1
  6
Continuous
 62
     2
100
AcDbHatch
 10
0.0
 20
0.0
 30
0.0
210
0.0
220
0.0
230
1.0
  2
CUSTOM18
 70
     0
 71
     1
 91
        1
 92
        1
 93
        8
 72
     1
 10
231.0009233617579
 20
242.721331231892
 11
231.0009233617579
 21
241.9360659257682
 72
     1
 10
231.0009233617579
 20
241.9360659257682
 11
231.8120223992326
 21
241.9360659257682
 72
     1
 10
231.8120223992326
 20
241.9360659257682
 11
231.8120223992326
 21
239.6675217080808
 72
     1
 10
231.8120223992326
 20
239.6675217080808
 11
233.004815101399
 21
239.6675217080808
 72
     1
 10
233.004815101399
 20
239.6675217080808
 11
233.004815101399
 21
241.9360659257682
 72
     1
 10
233.004815101399
 20
241.9360659257682
 11
233.8159141388716
 21
241.9360659257682
 72
     1
 10
233.8159141388716
 20
241.9360659257682
 11
233.8159141388716
 21
242.721331231892
 72
     1
 10
233.8159141388716
 20
242.721331231892
 11
231.0009233617579
 21
242.721331231892
 97
        8
330
26D
330
26C
330
26B
330
22C
330
22D
330
26F
330
22E
330
26E
 75
     1
 76
     2
 52
45.0
 41
0.1
 77
     0
 78
     1
 53
45.0
 43
62.7811309658083
 44
-72.3161373035813
 45
-0.1414213562373095
 46
0.0
 79
     0
 98
        1
 10
0.0
 20
0.0
  0
HATCH
  5
314
330
A0
100
AcDbEntity
  8
1
  6
Continuous
 62
     2
100
AcDbHatch
 10
0.0
 20
0.0
 30
0.0
210
0.0
220
0.0
230
1.0
  2
CUSTOM19
 70
     0
 71
     1
 91
        1
 92
        1
 93
        8
 72
     1
 10
231.0009233617579
 20
242.721331231892
 11
231.0009233617579
 21
241.9360659257682
 72
     1
 10
231.0009233617579
 20
241.9360659257682
 11
231.8120223992326
 21
241.9360659257682
 72
     1
 10
231.8120223992326
 20
241.9360659257682
 11
231.8120223992326
 21
239.6675217080808
 72
     1
 10
231.8120223992326
 20
239.6675217080808
 11
233.004815101399
 21
239.6675217080808
 72
     1
 10
233.004815101399
 20
239.6675217080808
 11
233.004815101399
 21
241.9360659257682
 72
     1
 10
233.004815101399
 20
241.9360659257682
 11
233.8159141388716
 21
241.9360659257682
 72
     1
 10
233.8159141388716
 20
241.9360659257682
 11
233.8159141388716
 21
242.721331231892
 72
     1
 10
233.8159141388716
 20
242.721331231892
 11
231.0009233617579
 21
242.721331231892
 97
        8
330
26D
330
26C
330
26B
330
22C
330
22D
330
26F
330
22E
330
26E
 75
     1
 76
     2
 52
45.0
 41
0.1
 77
     0
 78
     1
 53
45.0
 43
62.7811309658083
 44
-72.3161373035813
 45
-0.1414213562373095
 46
0.0
 79
     0
 98
        1
 10
0.0
 20
0.0
  0
HATCH
  5
315
330
A0
100
AcDbEntity
  8
1
  6
Continuous
 62
     2
100
AcDbHatch
 10
0.0
 20
0.0
 30
0.0
210
0.0
220
0.0
230
1.0
  2
CUSTOM20
 70
     0
 71
     1
 91
        1
 92
        1
 93
       10
 72
     1
 10
233.672929945497
 20
246.0805217080662
 11
232.4801372433306
 21
246.0805217080662
 72
     1
 10
232.4801372433306
 20
246.0805217080662
 11
232.4801372433306
 21
243.0267121842551
 72
     1
 10
232.4801372433306
 20
243.0267121842551
 11
233.672929945497
 21
243.0267121842551
 72
     1
 10
233.672929945497
 20
243.0267121842551
 11
233.672929945497
 21
244.3354876944599
 72
     1
 10
233.672929945497
 20
244.3354876944599
 11
234.9134343557511
 21
243.0267121842551
 72
     1
 10
234.9134343557511
 20
243.0267121842551
 11
236.1062270579177
 21
243.0267121842551
 72
     1
 10
236.1062270579177
 20
243.0267121842551
 11
236.1062270579177
 21
246.0805217080662
 72
     1
 10
236.1062270579177
 20
246.0805217080662
 11
234.9134343557511
 21
246.0805217080662
 72
     1
 10
234.9134343557511
 20
246.0805217080662
 11
234.9134343557511
 21
244.7717461978612
 72
     1
 10
234.9134343557511
 20
244.7717461978612
 11
233.672929945497
 21
246.0805217080662
 97
       10
330
267
330
231
330
232
330
233
330
234
330
26A
330
22F
330
269
330
268
330
230
 75
     1
 76
     2
 52
45.0
 41
0.1
 77
     0
 78
     1
 53
45.0
 43
62.7811309658083
 44
-72.3161373035813
 45
-0.1414213562373095
 46
0.0
 79
     0
 98
        1
 10
0.0
 20
0.0
  0
HATCH
  5
316
330
A0
100
AcDbEntity
  8
1
  6
Continuous
 62
     2
100
AcDbHatch
 10
0.0
 20
0.0
 30
0.0
210
0.0
220
0.0
230
1.0
  2
CUSTOM21
 70
     0
 71
     1
 91
        1
 92
        1
 93
       10
 72
     1
 10
233.672929945497
 20
246.0805217080662
 11
232.4801372433306
 21
246.0805217080662
 72
     1
 10
232.4801372433306
 20
246.0805217080662
 11
232.4801372433306
 21
243.0267121842551
 72
     1
 10
232.4801372433306
 20
243.0267121842551
 11
233.672929945497
 21
243.0267121842551
 72
     1
 10
233.672929945497
 20
243.0267121842551
 11
233.672929945497
 21
244.3354876944599
 72
     1
 10
233.672929945497
 20
244.3354876944599
 11
234.9134343557511
 21
243.0267121842551
 72
     1
 10
234.9134343557511
 20
243.0267121842551
 11
236.1062270579177
 21
243.0267121842551
 72
     1
 10
236.1062270579177
 20
243.0267121842551
 11
236.1062270579177
 21
246.0805217080662
 72
     1
 10
236.1062270579177
 20
246.0805217080662
 11
234.9134343557511
 21
246.0805217080662
 72
     1
 10
234.9134343557511
 20
246.0805217080662
 11
234.9134343557511
 21
244.7717461978612
 72
     1
 10
234.9134343557511
 20
244.7717461978612
 11
233.672929945497
 21
246.0805217080662
 97
       10
330
267
330
231
330
232
330
233
330
234
330
26A
330
22F
330
269
330
268
330
230
 75
     1
 76
     2
 52
45.0
 41
0.1
 77
     0
 78
     1
 53
45.0
 43
62.7811309658083
 44
-72.3161373035813
 45
-0.1414213562373095
 46
0.0
 79
     0
 98
        1
 10
0.0
 20
0.0
  0
HATCH
  5
317
330
A0
100
AcDbEntity
  8
1
  6
Continuous
 62
     2
100
AcDbHatch
 10
0.0
 20
0.0
 30
0.0
210
0.0
220
0.0
230
1.0
  2
CUSTOM22
 70
     0
 71
     1
 91
        1
 92
        1
 93
       10
 72
     1
 10
228.4244911250784
 20
242.721331231892
 11
227.2316984229109
 21
242.721331231892
 72
     1
 10
227.2316984229109
 20
242.721331231892
 11
227.2316984229109
 21
239.6675217080808
 72
     1
 10
227.2316984229109
 20
239.6675217080808
 11
228.4244911250784
 21
239.6675217080808
 72
     1
 10
228.4244911250784
 20
239.6675217080808
 11
228.4244911250784
 21
240.9762972182853
 72
     1
 10
228.4244911250784
 20
240.9762972182853
 11
229.6649955353314
 21
239.6675217080808
 72
     1
 10
229.6649955353314
 20
239.6675217080808
 11
230.8577882374978
 21
239.6675217080808
 72
     1
 10
230.8577882374978
 20
239.6675217080808
 11
230.8577882374978
 21
242.721331231892
 72
     1
 10
230.8577882374978
 20
242.721331231892
 11
229.6649955353314
 21
242.721331231892
 72
     1
 10
229.6649955353314
 20
242.721331231892
 11
229.6649955353314
 21
241.4125557216867
 72
     1
 10
229.6649955353314
 20
241.4125557216867
 11
228.4244911250784
 21
242.721331231892
 97
       10
330
236
330
237
330
238
330
264
330
239
330
23A
330
263
330
266
330
265
330
235
 75
     1
 76
     2
 52
45.0
 41
0.1
 77
     0
 78
     1
 53
45.0
 43
62.7811309658083
 44
-72.3161373035813
 45
-0.1414213562373095
 46
0.0
 79
     0
 98
        1
 10
0.0
 20
0.0
  0
HATCH
  5
318
330
A0
100
AcDbEntity
  8
1
  6
Continuous
 62
     2
100
AcDbHatch
 10
0.0
 20
0.0
 30
0.0
210
0.0
220
0.0
230
1.0
  2
CUSTOM23
 70
     0
 71
     1
 91
        1
 92
        1
 93
       10
 72
     1
 10
228.4244911250784
 20
242.721331231892
 11
227.2316984229109
 21
242.721331231892
 72
     1
 10
227.2316984229109
 20
242.721331231892
 11
227.2316984229109
 21
239.6675217080808
 72
     1
 10
227.2316984229109
 20
239.6675217080808
 11
228.4244911250784
 21
239.6675217080808
 72
     1
 10
228.4244911250784
 20
239.6675217080808
 11
228.4244911250784
 21
240.9762972182853
 72
     1
 10
228.4244911250784
 20
240.9762972182853
 11
229.6649955353314
 21
239.6675217080808
 72
     1
 10
229.6649955353314
 20
239.6675217080808
 11
230.8577882374978
 21
239.6675217080808
 72
     1
 10
230.8577882374978
 20
239.6675217080808
 11
230.8577882374978
 21
242.721331231892
 72
     1
 10
230.8577882374978
 20
242.721331231892
 11
229.6649955353314
 21
242.721331231892
 72
     1
 10
229.6649955353314
 20
242.721331231892
 11
229.6649955353314
 21
241.4125557216867
 72
     1
 10
229.6649955353314
 20
241.4125557216867
 11
228.4244911250784
 21
242.721331231892
 97
       10
330
236
330
237
330
238
330
264
330
239
330
23A
330
263
330
266
330
265
330
235
 75
     1
 76
     2
 52
45.0
 41
0.1
 77
     0
 78
     1
 53
45.0
 43
62.7811309658083
 44
-72.3161373035813
 45
-0.1414213562373095
 46
0.0
 79
     0
 98
        1
 10
0.0
 20
0.0
  0
HATCH
  5
319
330
A0
100
AcDbEntity
  8
1
  6
Continuous
 62
     2
100
AcDbHatch
 10
0.0
 20
0.0
 30
0.0
210
0.0
220
0.0
230
1.0
  2
CUSTOM24
 70
     0
 71
     1
 91
        1
 92
        1
 93
       12
 72
     1
 10
227.4226961861431
 20
246.0805217080662
 11
227.4226961861431
 21
243.0267121842551
 72
     1
 10
227.4226961861431
 20
243.0267121842551
 11
226.2299034839766
 21
243.0267121842551
 72
     1
 10
226.2299034839766
 20
243.0267121842551
 11
226.2299034839766
 21
244.1609842930988
 72
     1
 10
226.2299034839766
 20
244.1609842930988
 11
225.1802459060692
 21
244.1609842930988
 72
     1
 10
225.1802459060692
 20
244.1609842930988
 11
225.1802459060692
 21
243.0267121842551
 72
     1
 10
225.1802459060692
 20
243.0267121842551
 11
223.9874532039026
 21
243.0267121842551
 72
     1
 10
223.9874532039026
 20
243.0267121842551
 11
223.9874532039026
 21
246.0805217080662
 72
     1
 10
223.9874532039026
 20
246.0805217080662
 11
225.1802459060692
 21
246.0805217080662
 72
     1
 10
225.1802459060692
 20
246.0805217080662
 11
225.1802459060692
 21
245.0116883747317
 72
     1
 10
225.1802459060692
 20
245.0116883747317
 11
226.2299034839766
 21
245.0116883747317
 72
     1
 10
226.2299034839766
 20
245.0116883747317
 11
226.2299034839766
 21
246.0805217080662
 72
     1
 10
226.2299034839766
 20
246.0805217080662
 11
227.4226961861431
 21
246.0805217080662
 97
       12
330
25E
330
25D
330
25C
330
244
330
245
330
25B
330
246
330
25A
330
259
330
258
330
242
330
243
 75
     1
 76
     2
 52
45.0
 41
0.1
 77
     0
 78
     1
 53
45.0
 43
62.7811309658083
 44
-72.3161373035813
 45
-0.1414213562373095
 46
0.0
 79
     0
 98
        1
 10
0.0
 20
0.0
  0
HATCH
  5
31A
330
A0
100
AcDbEntity
  8
1
  6
Continuous
 62
     2
100
AcDbHatch
 10
0.0
 20
0.0
 30
0.0
210
0.0
220
0.0
230
1.0
  2
CUSTOM25
 70
     0
 71
     1
 91
        1
 92
        1
 93
       12
 72
     1
 10
227.4226961861431
 20
246.0805217080662
 11
227.4226961861431
 21
243.0267121842551
 72
     1
 10
227.4226961861431
 20
243.0267121842551
 11
226.2299034839766
 21
243.0267121842551
 72
     1
 10
226.2299034839766
 20
243.0267121842551
 11
226.2299034839766
 21
244.1609842930988
 72
     1
 10
226.2299034839766
 20
244.1609842930988
 11
225.1802459060692
 21
244.1609842930988
 72
     1
 10
225.1802459060692
 20
244.1609842930988
 11
225.1802459060692
 21
243.0267121842551
 72
     1
 10
225.1802459060692
 20
243.0267121842551
 11
223.9874532039026
 21
243.0267121842551
 72
     1
 10
223.9874532039026
 20
243.0267121842551
 11
223.9874532039026
 21
246.0805217080662
 72
     1
 10
223.9874532039026
 20
246.0805217080662
 11
225.1802459060692
 21
246.0805217080662
 72
     1
 10
225.1802459060692
 20
246.0805217080662
 11
225.1802459060692
 21
245.0116883747317
 72
     1
 10
225.1802459060692
 20
245.0116883747317
 11
226.2299034839766
 21
245.0116883747317
 72
     1
 10
226.2299034839766
 20
245.0116883747317
 11
226.2299034839766
 21
246.0805217080662
 72
     1
 10
226.2299034839766
 20
246.0805217080662
 11
227.4226961861431
 21
246.0805217080662
 97
       12
330
25E
330
25D
330
25C
330
244
330
245
330
25B
330
246
330
25A
330
259
330
258
330
242
330
243
 75
     1
 76
     2
 52
45.0
 41
0.1
 77
     0
 78
     1
 53
45.0
 43
62.7811309658083
 44
-72.3161373035813
 45
-0.1414213562373095
 46
0.0
 79
     0
 98
        1
 10
0.0
 20
0.0
  0
ENDBLK
  5
A2
330
A0
100
AcDbEntity
  8
0
100
AcDbBlockEnd
  0
BLOCK
  5
A4
330
A3
100
AcDbEntity
  8
0
100
AcDbBlockBegin
  2
_punkt
 70
     0
 10
339.2999999999319
 20
232.3740217080645
 30
0.0
  3
_punkt
  1

  0
LINE
  5
31B
330
A3
100
AcDbEntity
  8
1
  6
Continuous
 62
     2
100
AcDbLine
 10
339.2999999999319
 20
232.3740217080645
 30
0.0
 11
339.2999999999319
 21
227.374021708065
 31
0.0
  0
LINE
  5
31C
330
A3
100
AcDbEntity
  8
1
  6
Continuous
 62
     2
100
AcDbLine
 10
339.2999999999319
 20
232.3740217080645
 30
0.0
 11
344.2999999999295
 21
232.3740217080645
 31
0.0
  0
ENDBLK
  5
A5
330
A3
100
AcDbEntity
  8
0
100
AcDbBlockEnd
  0
BLOCK
  5
A9
330
A6
100
AcDbEntity
  8
0
100
AcDbBlockBegin
  2
A3I_CS
 70
     0
 10
339.2999999999319
 20
227.374021708065
 30
0.0
  3
A3I_CS
  1

  0
INSERT
  5
A7
330
A6
100
AcDbEntity
  8
1
100
AcDbBlockReference
  2
_rahmen
 10
339.2999999999319
 20
227.374021708065
 30
0.0
  0
INSERT
  5
A8
330
A6
100
AcDbEntity
  8
1
100
AcDbBlockReference
  2
_punkt
 10
339.2999999999319
 20
232.3740217080645
 30
0.0
  0
ENDBLK
  5
AA
330
A6
100
AcDbEntity
  8
0
100
AcDbBlockEnd
  0
BLOCK
  5
B3
330
AB
100
AcDbEntity
  8
0
100
AcDbBlockBegin
  2
1
 70
     0
 10
0.0
 20
0.0
 30
0.0
  3
1
  1

  0
INSERT
  5
AC
330
AB
100
AcDbEntity
  8
0
100
AcDbBlockReference
  2
Allg1
 10
252.0000000000003
 20
340.9999999999999
 30
0.0
  0
INSERT
  5
AD
330
AB
100
AcDbEntity
  8
0
100
AcDbBlockReference
  2
Drfsicht1
 10
96.3769660212806
 20
304.4857824161214
 30
0.0
  0
INSERT
  5
AE
330
AB
100
AcDbEntity
  8
0
100
AcDbBlockReference
  2
Rcksicht1
 10
285.2999999999305
 20
464.3622610000006
 30
0.0
  0
INSERT
  5
AF
330
AB
100
AcDbEntity
  8
0
100
AcDbBlockReference
  2
Vordans1
 10
96.37696628394758
 20
464.3622608610891
 30
0.0
  0
INSERT
  5
B0
330
AB
100
AcDbEntity
  8
0
100
AcDbBlockReference
  2
SA_links1
 10
213.5948619699132
 20
464.3622601936932
 30
0.0
  0
INSERT
  5
B1
330
AB
100
AcDbEntity
  8
0
100
AcDbBlockReference
  2
SA_rechts1
 10
7.5
 20
464.362261
 30
0.0
  0
INSERT
  5
B2
330
AB
100
AcDbEntity
  8
0
100
AcDbBlockReference
  2
A3I_CS
 10
339.2999999999319
 20
227.374021708065
 30
0.0
  0
ENDBLK
  5
B4
330
AB
100
AcDbEntity
  8
0
100
AcDbBlockEnd
  0
BLOCK
  5
E2
330
DB
100
AcDbEntity
  8
0
100
AcDbBlockBegin
  2
*D17
 70
     1
 10
0.0
 20
0.0
 30
0.0
  3
*D17
  1

  0
LINE
  5
DC
330
DB
100
AcDbEntity
  8
1
  6
Continuous
 62
     2
100
AcDbLine
 10
43.0769660213504
 20
248.4857824161214
 30
0.0
 11
43.0769660213504
 21
360.4857824161214
 31
0.0
  0
LINE
  5
DD
330
DB
100
AcDbEntity
  8
1
  6
Continuous
 62
     2
100
AcDbLine
 10
53.0769660213504
 20
248.4857824161214
 30
0.0
 11
41.5769660213504
 21
248.4857824161214
 31
0.0
  0
LINE
  5
DE
330
DB
100
AcDbEntity
  8
1
  6
Continuous
 62
     2
100
AcDbLine
 10
53.0769660213504
 20
360.4857824161214
 30
0.0
 11
41.5769660213504
 21
360.4857824161214
 31
0.0
  0
SOLID
  5
DF
330
DB
100
AcDbEntity
  8
1
 62
     2
100
AcDbTrace
 10
42.61618227979451
 20
251.9857824161214
 30
0.0
 11
43.53774976290629
 21
251.9857824161214
 31
0.0
 12
43.0769660213504
 22
248.4857824161214
 32
0.0
 13
43.0769660213504
 23
248.4857824161214
 33
0.0
  0
SOLID
  5
E0
330
DB
100
AcDbEntity
  8
1
 62
     2
100
AcDbTrace
 10
43.53774976290629
 20
356.9857824161214
 30
0.0
 11
42.61618227979451
 21
356.9857824161214
 31
0.0
 12
43.0769660213504
 22
360.4857824161214
 32
0.0
 13
43.0769660213504
 23
360.4857824161214
 33
0.0
  0
MTEXT
  5
E1
330
DB
100
AcDbEntity
  8
1
 62
     3
100
AcDbMText
 10
41.5769660213504
 20
302.5236939218534
 30
0.0
 40
3.5
 41
0.0
 71
     7
 72
     1
  1
112
  7
CONVERTER_11
 11
0.0
 21
1.0
 31
0.0
 73
     1
 44
0.60024009603842
  0
ENDBLK
  5
E3
330
DB
100
AcDbEntity
  8
0
100
AcDbBlockEnd
  0
BLOCK
  5
10C
330
105
100
AcDbEntity
  8
0
100
AcDbBlockBegin
  2
*D18
 70
     1
 10
0.0
 20
0.0
 30
0.0
  3
*D18
  1

  0
LINE
  5
106
330
105
100
AcDbEntity
  8
1
  6
Continuous
 62
     2
100
AcDbLine
 10
34.54632337193596
 20
425.4622608610804
 30
0.0
 11
34.54632337193596
 21
503.2622608610978
 31
0.0
  0
LINE
  5
107
330
105
100
AcDbEntity
  8
1
  6
Continuous
 62
     2
100
AcDbLine
 10
139.6769662838778
 20
425.4622608610804
 30
0.0
 11
32.54632337193596
 21
425.4622608610804
 31
0.0
  0
LINE
  5
108
330
105
100
AcDbEntity
  8
1
  6
Continuous
 62
     2
100
AcDbLine
 10
130.4769662839244
 20
503.2622608610978
 30
0.0
 11
32.54632337193596
 21
503.2622608610978
 31
0.0
  0
SOLID
  5
109
330
105
100
AcDbEntity
  8
1
 62
     2
100
AcDbTrace
 10
34.08553963038007
 20
428.9622608610804
 30
0.0
 11
35.00710711349184
 21
428.9622608610804
 31
0.0
 12
34.54632337193596
 22
425.4622608610804
 32
0.0
 13
34.54632337193596
 23
425.4622608610804
 33
0.0
  0
SOLID
  5
10A
330
105
100
AcDbEntity
  8
1
 62
     2
100
AcDbTrace
 10
35.00710711349184
 20
499.7622608610978
 30
0.0
 11
34.08553963038007
 21
499.7622608610978
 31
0.0
 12
34.54632337193596
 22
503.2622608610978
 32
0.0
 13
34.54632337193596
 23
503.2622608610978
 33
0.0
  0
MTEXT
  5
10B
330
105
100
AcDbEntity
  8
1
 62
     3
100
AcDbMText
 10
32.19632337193595
 20
469.4588914166084
 30
0.0
 40
3.5
 41
0.0
 71
     7
 72
     1
  1
\C3;\C3;77,8\C3;
  7
CONVERTER_11
 11
0.0
 21
1.0
 31
0.0
 73
     1
 44
0.60024009603842
  0
ENDBLK
  5
10D
330
105
100
AcDbEntity
  8
0
100
AcDbBlockEnd
  0
BLOCK
  5
117
330
110
100
AcDbEntity
  8
0
100
AcDbBlockBegin
  2
*D19
 70
     1
 10
0.0
 20
0.0
 30
0.0
  3
*D19
  1

  0
LINE
  5
111
330
110
100
AcDbEntity
  8
1
  6
Continuous
 62
     2
100
AcDbLine
 10
53.07696628401742
 20
399.3067091667916
 30
0.0
 11
139.6769662838778
 21
399.3067091667916
 31
0.0
  0
LINE
  5
112
330
110
100
AcDbEntity
  8
1
  6
Continuous
 62
     2
100
AcDbLine
 10
53.07696628401742
 20
430.2622608610978
 30
0.0
 11
53.07696628401742
 21
397.3067091667916
 31
0.0
  0
LINE
  5
113
330
110
100
AcDbEntity
  8
1
  6
Continuous
 62
     2
100
AcDbLine
 10
139.6769662838778
 20
425.4622608610804
 30
0.0
 11
139.6769662838778
 21
397.3067091667916
 31
0.0
  0
SOLID
  5
114
330
110
100
AcDbEntity
  8
1
 62
     2
100
AcDbTrace
 10
56.57696628401742
 20
399.7674929083474
 30
0.0
 11
56.57696628401742
 21
398.8459254252357
 31
0.0
 12
53.07696628401742
 22
399.3067091667916
 32
0.0
 13
53.07696628401742
 23
399.3067091667916
 33
0.0
  0
SOLID
  5
115
330
110
100
AcDbEntity
  8
1
 62
     2
100
AcDbTrace
 10
136.1769662838778
 20
398.8459254252357
 30
0.0
 11
136.1769662838778
 21
399.7674929083474
 31
0.0
 12
139.6769662838778
 22
399.3067091667916
 32
0.0
 13
139.6769662838778
 23
399.3067091667916
 33
0.0
  0
MTEXT
  5
116
330
110
100
AcDbEntity
  8
1
 62
     3
100
AcDbMText
 10
90.6553354245295
 20
401.6567091667916
 30
0.0
 40
3.5
 41
0.0
 71
     7
 72
     1
  1
86,6
  7
CONVERTER_11
 11
0.9999999999970619
 21
2.424068405545306E-6
 31
0.0
 73
     1
 44
0.60024009603842
  0
ENDBLK
  5
118
330
110
100
AcDbEntity
  8
0
100
AcDbBlockEnd
  0
BLOCK
  5
122
330
11B
100
AcDbEntity
  8
0
100
AcDbBlockBegin
  2
*D20
 70
     1
 10
0.0
 20
0.0
 30
0.0
  3
*D20
  1

  0
LINE
  5
11C
330
11B
100
AcDbEntity
  8
1
  6
Continuous
 62
     2
100
AcDbLine
 10
92.80359064083335
 20
418.4391714974626
 30
0.0
 11
110.303590640833
 21
418.4391714974626
 31
0.0
  0
LINE
  5
11D
330
11B
100
AcDbEntity
  8
1
  6
Continuous
 62
     2
100
AcDbLine
 10
92.80359064083335
 20
422.986153736775
 30
0.0
 11
92.80359064083335
 21
416.4391714974626
 31
0.0
  0
LINE
  5
11E
330
11B
100
AcDbEntity
  8
1
  6
Continuous
 62
     2
100
AcDbLine
 10
110.303590640833
 20
430.2622608610978
 30
0.0
 11
110.303590640833
 21
416.4391714974626
 31
0.0
  0
SOLID
  5
11F
330
11B
100
AcDbEntity
  8
1
 62
     2
100
AcDbTrace
 10
96.30359064083335
 20
418.8999552390185
 30
0.0
 11
96.30359064083335
 21
417.9783877559067
 31
0.0
 12
92.80359064083335
 22
418.4391714974626
 32
0.0
 13
92.80359064083335
 23
418.4391714974626
 33
0.0
  0
SOLID
  5
120
330
11B
100
AcDbEntity
  8
1
 62
     2
100
AcDbTrace
 10
106.803590640833
 20
417.9783877559067
 30
0.0
 11
106.803590640833
 21
418.8999552390185
 31
0.0
 12
110.303590640833
 22
418.4391714974626
 32
0.0
 13
110.303590640833
 23
418.4391714974626
 33
0.0
  0
MTEXT
  5
121
330
11B
100
AcDbEntity
  8
1
 62
     3
100
AcDbMText
 10
97.41236091310029
 20
420.7891714974626
 30
0.0
 40
3.5
 41
0.0
 71
     7
 72
     1
  1
17,5
  7
CONVERTER_11
 11
0.9999999999970619
 21
2.424068405545306E-6
 31
0.0
 73
     1
 44
0.60024009603842
  0
ENDBLK
  5
123
330
11B
100
AcDbEntity
  8
0
100
AcDbBlockEnd
  0
BLOCK
  5
12D
330
126
100
AcDbEntity
  8
0
100
AcDbBlockBegin
  2
*D21
 70
     1
 10
0.0
 20
0.0
 30
0.0
  3
*D21
  1

  0
LINE
  5
127
330
126
100
AcDbEntity
  8
1
  6
Continuous
 62
     2
100
AcDbLine
 10
92.80359064083338
 20
408.190589565627
 30
0.0
 11
139.6769662838778
 21
408.190589565627
 31
0.0
  0
LINE
  5
128
330
126
100
AcDbEntity
  8
1
  6
Continuous
 62
     2
100
AcDbLine
 10
92.80359064083338
 20
422.986153736775
 30
0.0
 11
92.80359064083338
 21
406.190589565627
 31
0.0
  0
LINE
  5
129
330
126
100
AcDbEntity
  8
1
  6
Continuous
 62
     2
100
AcDbLine
 10
139.6769662838778
 20
425.4622608610804
 30
0.0
 11
139.6769662838778
 21
406.190589565627
 31
0.0
  0
SOLID
  5
12A
330
126
100
AcDbEntity
  8
1
 62
     2
100
AcDbTrace
 10
96.30359064083338
 20
408.6513733071828
 30
0.0
 11
96.30359064083338
 21
407.7298058240711
 31
0.0
 12
92.80359064083338
 22
408.190589565627
 32
0.0
 13
92.80359064083338
 23
408.190589565627
 33
0.0
  0
SOLID
  5
12B
330
126
100
AcDbEntity
  8
1
 62
     2
100
AcDbTrace
 10
136.1769662838778
 20
407.7298058240711
 30
0.0
 11
136.1769662838778
 21
408.6513733071828
 31
0.0
 12
139.6769662838778
 22
408.190589565627
 32
0.0
 13
139.6769662838778
 23
408.190589565627
 33
0.0
  0
MTEXT
  5
12C
330
126
100
AcDbEntity
  8
1
 62
     3
100
AcDbMText
 10
108.3650707464124
 20
410.540589565627
 30
0.0
 40
3.5
 41
0.0
 71
     7
 72
     1
  1
46,87
  7
CONVERTER_11
 11
0.9999999999970619
 21
2.424068405545306E-6
 31
0.0
 73
     1
 44
0.60024009603842
  0
ENDBLK
  5
12E
330
126
100
AcDbEntity
  8
0
100
AcDbBlockEnd
  0
BLOCK
  5
138
330
131
100
AcDbEntity
  8
0
100
AcDbBlockBegin
  2
*D22
 70
     1
 10
0.0
 20
0.0
 30
0.0
  3
*D22
  1

  0
LINE
  5
132
330
131
100
AcDbEntity
  8
1
  6
Continuous
 62
     2
100
AcDbLine
 10
42.54632337193601
 20
430.2622608610978
 30
0.0
 11
42.54632337193601
 21
503.2622608610978
 31
0.0
  0
LINE
  5
133
330
131
100
AcDbEntity
  8
1
  6
Continuous
 62
     2
100
AcDbLine
 10
110.303590640833
 20
430.2622608610978
 30
0.0
 11
40.54632337193601
 21
430.2622608610978
 31
0.0
  0
LINE
  5
134
330
131
100
AcDbEntity
  8
1
  6
Continuous
 62
     2
100
AcDbLine
 10
130.4769662839244
 20
503.2622608610978
 30
0.0
 11
40.54632337193601
 21
503.2622608610978
 31
0.0
  0
SOLID
  5
135
330
131
100
AcDbEntity
  8
1
 62
     2
100
AcDbTrace
 10
42.08553963038013
 20
433.7622608610978
 30
0.0
 11
43.0071071134919
 21
433.7622608610978
 31
0.0
 12
42.54632337193601
 22
430.2622608610978
 32
0.0
 13
42.54632337193601
 23
430.2622608610978
 33
0.0
  0
SOLID
  5
136
330
131
100
AcDbEntity
  8
1
 62
     2
100
AcDbTrace
 10
43.0071071134919
 20
499.7622608610978
 30
0.0
 11
42.08553963038013
 21
499.7622608610978
 31
0.0
 12
42.54632337193601
 22
503.2622608610978
 32
0.0
 13
42.54632337193601
 23
503.2622608610978
 33
0.0
  0
MTEXT
  5
137
330
131
100
AcDbEntity
  8
1
 62
     3
100
AcDbMText
 10
40.54632337193601
 20
473.6463914166085
 30
0.0
 40
3.5
 41
0.0
 71
     7
 72
     1
  1
73
  7
CONVERTER_11
 11
0.0
 21
1.0
 31
0.0
 73
     1
 44
0.60024009603842
  0
ENDBLK
  5
139
330
131
100
AcDbEntity
  8
0
100
AcDbBlockEnd
  0
ENDSEC
  0
SECTION
  2
ENTITIES
  0
INSERT
  5
B5
330
1F
100
AcDbEntity
  8
1
100
AcDbBlockReference
  2
1
 10
0.0
 20
0.0
 30
0.0
  0
ENDSEC
  0
SECTION
  2
OBJECTS
  0
DICTIONARY
  5
C
330
0
100
AcDbDictionary
281
     1
  3
ACAD_DETAILVIEWSTYLE
350
362
  3
ACAD_GROUP
350
D
  3
ACAD_LAYOUT
350
1A
  3
ACAD_MATERIAL
350
43
  3
ACAD_MLEADERSTYLE
350
6B
  3
ACAD_MLINESTYLE
350
17
  3
ACAD_PLOTSETTINGS
350
19
  3
ACAD_PLOTSTYLENAME
350
E
  3
ACAD_SCALELIST
350
47
  3
ACAD_SECTIONVIEWSTYLE
350
363
  3
ACAD_TABLESTYLE
350
69
  3
ACAD_VISUALSTYLE
350
2A
  3
ACDB_RECOMPOSE_DATA
350
35F
  3
AcDbVariableDictionary
350
31F
  0
DICTIONARY
  5
31D
330
8
100
AcDbDictionary
280
     1
281
     1
  3
ACAD_XREC_ROUNDTRIP
360
31E
  0
DICTIONARY
  5
362
102
{ACAD_REACTORS
330
C
102
}
330
C
100
AcDbDictionary
281
     1
  0
DICTIONARY
  5
D
102
{ACAD_REACTORS
330
C
102
}
330
C
100
AcDbDictionary
281
     1
  0
DICTIONARY
  5
1A
102
{ACAD_REACTORS
330
C
102
}
330
C
100
AcDbDictionary
281
     1
  3
Layout1
350
1E
  3
Layout2
350
26
  3
Model
350
22
  0
DICTIONARY
  5
43
102
{ACAD_REACTORS
330
C
102
}
330
C
100
AcDbDictionary
281
     1
  3
ByBlock
350
45
  3
ByLayer
350
44
  3
Global
350
46
  0
DICTIONARY
  5
6B
102
{ACAD_REACTORS
330
C
102
}
330
C
100
AcDbDictionary
281
     1
  3
Standard
350
6C
  0
DICTIONARY
  5
17
102
{ACAD_REACTORS
330
C
102
}
330
C
100
AcDbDictionary
281
     1
  3
Standard
350
18
  0
DICTIONARY
  5
19
102
{ACAD_REACTORS
330
C
102
}
330
C
100
AcDbDictionary
281
     1
  0
ACDBDICTIONARYWDFLT
  5
E
102
{ACAD_REACTORS
330
C
102
}
330
C
100
AcDbDictionary
281
     1
  3
Normal
350
F
100
AcDbDictionaryWithDefault
340
F
  0
DICTIONARY
  5
47
102
{ACAD_REACTORS
330
C
102
}
330
C
100
AcDbDictionary
281
     1
  3
A0
350
48
  3
A1
350
49
  3
A2
350
4A
  3
A3
350
4B
  3
A4
350
4C
  3
A5
350
4D
  3
A6
350
4E
  3
A7
350
4F
  3
A8
350
50
  3
A9
350
51
  3
B0
350
52
  3
B1
350
53
  3
B2
350
54
  3
B3
350
55
  3
B4
350
56
  3
B5
350
57
  3
B6
350
58
  3
B7
350
59
  3
B8
350
5A
  3
B9
350
5B
  3
C0
350
5C
  3
C1
350
5D
  3
C2
350
5E
  3
C3
350
5F
  3
C4
350
60
  3
C5
350
61
  3
C6
350
62
  3
C7
350
63
  3
C8
350
64
  3
C9
350
65
  3
D0
350
66
  3
D1
350
67
  3
D2
350
68
  0
DICTIONARY
  5
363
102
{ACAD_REACTORS
330
C
102
}
330
C
100
AcDbDictionary
281
     1
  0
DICTIONARY
  5
69
102
{ACAD_REACTORS
330
C
102
}
330
C
100
AcDbDictionary
281
     1
  3
Standard
350
6A
  0
DICTIONARY
  5
2A
102
{ACAD_REACTORS
330
C
102
}
330
C
100
AcDbDictionary
281
     1
  3
2dWireframe
350
2F
  3
Basic
350
32
  3
Brighten
350
36
  3
ColorChange
350
3A
  3
Conceptual
350
34
  3
Dim
350
35
  3
EdgeColorOff
350
3D
  3
Facepattern
350
39
  3
Flat
350
2B
  3
FlatWithEdges
350
2C
  3
Gouraud
350
2D
  3
GouraudWithEdges
350
2E
  3
Hidden
350
31
  3
JitterOff
350
3B
  3
Linepattern
350
38
  3
OverhangOff
350
3C
  3
Realistic
350
33
  3
Shaded
350
42
  3
Shaded with edges
350
41
  3
Shades of Gray
350
3E
  3
Sketchy
350
3F
  3
Thicken
350
37
  3
Wireframe
350
30
  3
X-Ray
350
40
  0
XRECORD
  5
35F
102
{ACAD_REACTORS
330
C
102
}
330
C
100
AcDbXrecord
280
     1
 90
        1
330
6A
  0
DICTIONARY
  5
31F
102
{ACAD_REACTORS
330
C
102
}
330
C
100
AcDbDictionary
281
     1
  3
CANNOSCALE
350
320
  3
CMLEADERSTYLE
350
361
  3
CTABLESTYLE
350
360
  3
MSLTSCALE
350
321
  3
XCLIPFRAME
350
322
  0
XRECORD
  5
31E
102
{ACAD_REACTORS
330
31D
102
}
330
31D
100
AcDbXrecord
280
     1
102
VTR_0.000_0.000_1.000_1.000_VISUALSTYLE
340
2F
102
VTR_0.000_0.000_1.000_1.000_GRIDDISPLAY
 70
     3
102
VTR_0.000_0.000_1.000_1.000_GRIDMAJOR
 70
     5
102
VTR_0.000_0.000_1.000_1.000_DEFAULTLIGHTING
280
     1
102
VTR_0.000_0.000_1.000_1.000_DEFAULTLIGHTINGTYPE
 70
     1
102
VTR_0.000_0.000_1.000_1.000_BRIGHTNESS
141
0.0
102
VTR_0.000_0.000_1.000_1.000_CONTRAST
142
0.0
  0
LAYOUT
  5
1E
102
{ACAD_REACTORS
330
1A
102
}
330
1A
100
AcDbPlotSettings
  1

  2
none_device
  4

  6

 40
0.0
 41
0.0
 42
0.0
 43
0.0
 44
0.0
 45
0.0
 46
0.0
 47
0.0
 48
0.0
 49
0.0
140
0.0
141
0.0
142
1.0
143
1.0
 70
   688
 72
     0
 73
     0
 74
     5
  7

 75
    16
 76
     0
 77
     2
 78
   300
147
1.0
148
0.0
149
0.0
100
AcDbLayout
  1
Layout1
 70
     1
 71
     1
 10
0.0
 20
0.0
 11
12.0
 21
9.0
 12
0.0
 22
0.0
 32
0.0
 14
1.00000000000000E+20
 24
1.00000000000000E+20
 34
1.00000000000000E+20
 15
-1.00000000000000E+20
 25
-1.00000000000000E+20
 35
-1.00000000000000E+20
146
0.0
 13
0.0
 23
0.0
 33
0.0
 16
1.0
 26
0.0
 36
0.0
 17
0.0
 27
1.0
 37
0.0
 76
     0
330
1B
  0
LAYOUT
  5
26
102
{ACAD_REACTORS
330
1A
102
}
330
1A
100
AcDbPlotSettings
  1

  2
none_device
  4

  6

 40
0.0
 41
0.0
 42
0.0
 43
0.0
 44
0.0
 45
0.0
 46
0.0
 47
0.0
 48
0.0
 49
0.0
140
0.0
141
0.0
142
1.0
143
1.0
 70
   688
 72
     0
 73
     0
 74
     5
  7

 75
    16
 76
     0
 77
     2
 78
   300
147
1.0
148
0.0
149
0.0
100
AcDbLayout
  1
Layout2
 70
     1
 71
     2
 10
0.0
 20
0.0
 11
0.0
 21
0.0
 12
0.0
 22
0.0
 32
0.0
 14
0.0
 24
0.0
 34
0.0
 15
0.0
 25
0.0
 35
0.0
146
0.0
 13
0.0
 23
0.0
 33
0.0
 16
1.0
 26
0.0
 36
0.0
 17
0.0
 27
1.0
 37
0.0
 76
     0
330
23
  0
LAYOUT
  5
22
102
{ACAD_REACTORS
330
1A
102
}
330
1A
100
AcDbPlotSettings
  1

  2
none_device
  4
Letter_(8.50_x_11.00_Inches)
  6

 40
6.35
 41
6.35
 42
6.35000508
 43
6.35000508
 44
215.9
 45
279.4
 46
0.0
 47
0.0
 48
0.0
 49
0.0
140
0.0
141
0.0
142
1.0
143
1.0
 70
  1712
 72
     0
 73
     0
 74
     0
  7

 75
     0
 76
     0
 77
     2
 78
   300
147
1.0
148
0.0
149
0.0
100
AcDbLayout
  1
Model
 70
     1
 71
     0
 10
0.0
 20
0.0
 11
12.0
 21
9.0
 12
0.0
 22
0.0
 32
0.0
 14
-75.70000000006888
 24
227.374021708065
 34
0.0
 15
344.2999999999295
 25
524.374021708065
 35
0.0
146
0.0
 13
0.0
 23
0.0
 33
0.0
 16
1.0
 26
0.0
 36
0.0
 17
0.0
 27
1.0
 37
0.0
 76
     0
330
1F
331
29
  0
MATERIAL
  5
45
102
{ACAD_REACTORS
330
43
102
}
102
{ACAD_XDICTIONARY
360
355
102
}
330
43
100
AcDbMaterial
  1
ByBlock
  0
MATERIAL
  5
44
102
{ACAD_REACTORS
330
43
102
}
102
{ACAD_XDICTIONARY
360
353
102
}
330
43
100
AcDbMaterial
  1
ByLayer
  0
MATERIAL
  5
46
102
{ACAD_REACTORS
330
43
102
}
102
{ACAD_XDICTIONARY
360
357
102
}
330
43
100
AcDbMaterial
  1
Global
  0
MLEADERSTYLE
  5
6C
102
{ACAD_REACTORS
330
6B
102
}
102
{ACAD_XDICTIONARY
360
35D
102
}
330
6B
100
AcDbMLeaderStyle
170
     2
171
     1
172
     0
 90
        2
 40
0.0
 41
0.0
173
     1
 91
-1056964608
340
14
 92
       -2
290
     1
 42
0.09
291
     1
 43
0.36
  3
Standard
341
0
 44
0.18
300

342
11
174
     1
178
     6
175
     1
176
     0
 93
-1056964608
 45
0.18
292
     0
297
     0
 46
0.18
343
0
 94
-1056964608
 47
1.0
 49
1.0
140
1.0
293
     1
141
0.0
294
     1
177
     0
142
1.0
295
     0
296
     0
143
0.125
1001
ACAD_MLEADERVER
1070
     2
  0
MLINESTYLE
  5
18
102
{ACAD_REACTORS
330
17
102
}
330
17
100
AcDbMlineStyle
  2
Standard
 70
     0
  3

 62
   256
 51
90.0
 52
90.0
 71
     2
 49
0.5
 62
   256
  6
BYLAYER
 49
-0.5
 62
   256
  6
BYLAYER
  0
ACDBPLACEHOLDER
  5
F
102
{ACAD_REACTORS
330
E
102
}
330
E
  0
SCALE
  5
48
102
{ACAD_REACTORS
330
47
102
}
330
47
100
AcDbScale
 70
     0
300
1:1
140
1.0
141
1.0
290
     1
  0
SCALE
  5
49
102
{ACAD_REACTORS
330
47
102
}
330
47
100
AcDbScale
 70
     0
300
1:2
140
1.0
141
2.0
290
     0
  0
SCALE
  5
4A
102
{ACAD_REACTORS
330
47
102
}
330
47
100
AcDbScale
 70
     0
300
1:4
140
1.0
141
4.0
290
     0
  0
SCALE
  5
4B
102
{ACAD_REACTORS
330
47
102
}
330
47
100
AcDbScale
 70
     0
300
1:5
140
1.0
141
5.0
290
     0
  0
SCALE
  5
4C
102
{ACAD_REACTORS
330
47
102
}
330
47
100
AcDbScale
 70
     0
300
1:8
140
1.0
141
8.0
290
     0
  0
SCALE
  5
4D
102
{ACAD_REACTORS
330
47
102
}
330
47
100
AcDbScale
 70
     0
300
1:10
140
1.0
141
10.0
290
     0
  0
SCALE
  5
4E
102
{ACAD_REACTORS
330
47
102
}
330
47
100
AcDbScale
 70
     0
300
1:16
140
1.0
141
16.0
290
     0
  0
SCALE
  5
4F
102
{ACAD_REACTORS
330
47
102
}
330
47
100
AcDbScale
 70
     0
300
1:20
140
1.0
141
20.0
290
     0
  0
SCALE
  5
50
102
{ACAD_REACTORS
330
47
102
}
330
47
100
AcDbScale
 70
     0
300
1:30
140
1.0
141
30.0
290
     0
  0
SCALE
  5
51
102
{ACAD_REACTORS
330
47
102
}
330
47
100
AcDbScale
 70
     0
300
1:40
140
1.0
141
40.0
290
     0
  0
SCALE
  5
52
102
{ACAD_REACTORS
330
47
102
}
330
47
100
AcDbScale
 70
     0
300
1:50
140
1.0
141
50.0
290
     0
  0
SCALE
  5
53
102
{ACAD_REACTORS
330
47
102
}
330
47
100
AcDbScale
 70
     0
300
1:100
140
1.0
141
100.0
290
     0
  0
SCALE
  5
54
102
{ACAD_REACTORS
330
47
102
}
330
47
100
AcDbScale
 70
     0
300
2:1
140
2.0
141
1.0
290
     0
  0
SCALE
  5
55
102
{ACAD_REACTORS
330
47
102
}
330
47
100
AcDbScale
 70
     0
300
4:1
140
4.0
141
1.0
290
     0
  0
SCALE
  5
56
102
{ACAD_REACTORS
330
47
102
}
330
47
100
AcDbScale
 70
     0
300
8:1
140
8.0
141
1.0
290
     0
  0
SCALE
  5
57
102
{ACAD_REACTORS
330
47
102
}
330
47
100
AcDbScale
 70
     0
300
10:1
140
10.0
141
1.0
290
     0
  0
SCALE
  5
58
102
{ACAD_REACTORS
330
47
102
}
330
47
100
AcDbScale
 70
     0
300
100:1
140
100.0
141
1.0
290
     0
  0
SCALE
  5
59
102
{ACAD_REACTORS
330
47
102
}
330
47
100
AcDbScale
 70
     0
300
1/128" = 1'-0"
140
0.0078125
141
12.0
290
     0
  0
SCALE
  5
5A
102
{ACAD_REACTORS
330
47
102
}
330
47
100
AcDbScale
 70
     0
300
1/64" = 1'-0"
140
0.015625
141
12.0
290
     0
  0
SCALE
  5
5B
102
{ACAD_REACTORS
330
47
102
}
330
47
100
AcDbScale
 70
     0
300
1/32" = 1'-0"
140
0.03125
141
12.0
290
     0
  0
SCALE
  5
5C
102
{ACAD_REACTORS
330
47
102
}
330
47
100
AcDbScale
 70
     0
300
1/16" = 1'-0"
140
0.0625
141
12.0
290
     0
  0
SCALE
  5
5D
102
{ACAD_REACTORS
330
47
102
}
330
47
100
AcDbScale
 70
     0
300
3/32" = 1'-0"
140
0.09375
141
12.0
290
     0
  0
SCALE
  5
5E
102
{ACAD_REACTORS
330
47
102
}
330
47
100
AcDbScale
 70
     0
300
1/8" = 1'-0"
140
0.125
141
12.0
290
     0
  0
SCALE
  5
5F
102
{ACAD_REACTORS
330
47
102
}
330
47
100
AcDbScale
 70
     0
300
3/16" = 1'-0"
140
0.1875
141
12.0
290
     0
  0
SCALE
  5
60
102
{ACAD_REACTORS
330
47
102
}
330
47
100
AcDbScale
 70
     0
300
1/4" = 1'-0"
140
0.25
141
12.0
290
     0
  0
SCALE
  5
61
102
{ACAD_REACTORS
330
47
102
}
330
47
100
AcDbScale
 70
     0
300
3/8" = 1'-0"
140
0.375
141
12.0
290
     0
  0
SCALE
  5
62
102
{ACAD_REACTORS
330
47
102
}
330
47
100
AcDbScale
 70
     0
300
1/2" = 1'-0"
140
0.5
141
12.0
290
     0
  0
SCALE
  5
63
102
{ACAD_REACTORS
330
47
102
}
330
47
100
AcDbScale
 70
     0
300
3/4" = 1'-0"
140
0.75
141
12.0
290
     0
  0
SCALE
  5
64
102
{ACAD_REACTORS
330
47
102
}
330
47
100
AcDbScale
 70
     0
300
1" = 1'-0"
140
1.0
141
12.0
290
     0
  0
SCALE
  5
65
102
{ACAD_REACTORS
330
47
102
}
330
47
100
AcDbScale
 70
     0
300
1-1/2" = 1'-0"
140
1.5
141
12.0
290
     0
  0
SCALE
  5
66
102
{ACAD_REACTORS
330
47
102
}
330
47
100
AcDbScale
 70
     0
300
3" = 1'-0"
140
3.0
141
12.0
290
     0
  0
SCALE
  5
67
102
{ACAD_REACTORS
330
47
102
}
330
47
100
AcDbScale
 70
     0
300
6" = 1'-0"
140
6.0
141
12.0
290
     0
  0
SCALE
  5
68
102
{ACAD_REACTORS
330
47
102
}
330
47
100
AcDbScale
 70
     0
300
1'-0" = 1'-0"
140
12.0
141
12.0
290
     0
  0
TABLESTYLE
  5
6A
102
{ACAD_REACTORS
330
69
102
}
102
{ACAD_XDICTIONARY
360
359
102
}
330
69
100
AcDbTableStyle
  3
Standard
 70
     0
 71
     0
 40
0.06
 41
0.06
280
     0
281
     0
  7
Standard
140
0.18
170
     2
 62
     0
 63
   257
283
     0
274
    -2
284
     1
 64
     0
275
    -2
285
     1
 65
     0
276
    -2
286
     1
 66
     0
277
    -2
287
     1
 67
     0
278
    -2
288
     1
 68
     0
279
    -2
289
     1
 69
     0
  7
Standard
140
0.25
170
     5
 62
     0
 63
   257
283
     0
274
    -2
284
     1
 64
     0
275
    -2
285
     1
 65
     0
276
    -2
286
     1
 66
     0
277
    -2
287
     1
 67
     0
278
    -2
288
     1
 68
     0
279
    -2
289
     1
 69
     0
  7
Standard
140
0.18
170
     5
 62
     0
 63
   257
283
     0
274
    -2
284
     1
 64
     0
275
    -2
285
     1
 65
     0
276
    -2
286
     1
 66
     0
277
    -2
287
     1
 67
     0
278
    -2
288
     1
 68
     0
279
    -2
289
     1
 69
     0
  0
VISUALSTYLE
  5
2F
102
{ACAD_REACTORS
330
2A
102
}
102
{ACAD_XDICTIONARY
360
32B
102
}
330
2A
100
AcDbVisualStyle
  2
2dWireframe
 70
     4
 71
     0
 72
     2
 73
     0
 90
        0
 40
0.6
 41
30.0
 62
     5
 63
     7
421
 16777215
 74
     1
 91
        4
 64
     7
 65
   257
 75
     1
175
     1
 42
1.0
 92
        0
 66
   257
 43
1.0
 76
     1
 77
     6
 78
     2
 67
     7
 79
     5
170
     0
171
     0
290
     0
174
     0
 93
        1
 44
0.0
173
     0
291
     0
 45
0.0
1001
ACAD
1000
AcDbSavedByObjectVersion
1070
     0
  0
VISUALSTYLE
  5
32
102
{ACAD_REACTORS
330
2A
102
}
102
{ACAD_XDICTIONARY
360
331
102
}
330
2A
100
AcDbVisualStyle
  2
Basic
 70
     7
 71
     1
 72
     0
 73
     1
 90
        0
 40
0.6
 41
30.0
 62
     5
 63
     7
421
 16777215
 74
     0
 91
        4
 64
     7
 65
   257
 75
     1
175
     1
 42
1.0
 92
        8
 66
     7
 43
1.0
 76
     1
 77
     6
 78
     2
 67
     7
 79
     5
170
     0
171
     0
290
     0
174
     0
 93
        1
 44
0.0
173
     0
291
     1
 45
0.0
1001
ACAD
1000
AcDbSavedByObjectVersion
1070
     0
  0
VISUALSTYLE
  5
36
102
{ACAD_REACTORS
330
2A
102
}
102
{ACAD_XDICTIONARY
360
339
102
}
330
2A
100
AcDbVisualStyle
  2
Brighten
 70
    12
 71
     2
 72
     2
 73
     0
 90
        0
 40
0.6
 41
30.0
 62
     5
 63
     7
421
 16777215
 74
     1
 91
        4
 64
     7
 65
   257
 75
     1
175
     1
 42
1.0
 92
        8
 66
     7
 43
1.0
 76
     1
 77
     6
 78
     2
 67
     7
 79
     5
170
     0
171
     0
290
     0
174
     0
 93
        1
 44
50.0
173
     0
291
     1
 45
0.0
1001
ACAD
1000
AcDbSavedByObjectVersion
1070
     0
  0
VISUALSTYLE
  5
3A
102
{ACAD_REACTORS
330
2A
102
}
102
{ACAD_XDICTIONARY
360
341
102
}
330
2A
100
AcDbVisualStyle
  2
ColorChange
 70
    16
 71
     2
 72
     2
 73
     3
 90
        0
 40
0.6
 41
30.0
 62
     5
 63
     8
421
  8421504
 74
     1
 91
        4
 64
     7
 65
   257
 75
     1
175
     1
 42
1.0
 92
        8
 66
     8
424
  8421504
 43
1.0
 76
     1
 77
     6
 78
     2
 67
     7
 79
     5
170
     0
171
     0
290
     0
174
     0
 93
        1
 44
0.0
173
     0
291
     1
 45
0.0
1001
ACAD
1000
AcDbSavedByObjectVersion
1070
     0
  0
VISUALSTYLE
  5
34
102
{ACAD_REACTORS
330
2A
102
}
102
{ACAD_XDICTIONARY
360
335
102
}
330
2A
100
AcDbVisualStyle
  2
Conceptual
 70
     9
 71
     3
 72
     2
 73
     0
 90
        0
 40
0.6
 41
30.0
 62
     5
 63
     7
421
 16777215
 74
     2
 91
        2
 64
     7
 65
   257
 75
     1
175
     1
 42
179.0
 92
        8
 66
     7
 43
1.0
 76
     1
 77
     6
 78
     2
 67
     7
 79
     3
170
     0
171
     0
290
     0
174
     0
 93
        1
 44
0.0
173
     0
291
     0
 45
0.0
1001
ACAD
1000
AcDbSavedByObjectVersion
1070
     0
  0
VISUALSTYLE
  5
35
102
{ACAD_REACTORS
330
2A
102
}
102
{ACAD_XDICTIONARY
360
337
102
}
330
2A
100
AcDbVisualStyle
  2
Dim
 70
    11
 71
     2
 72
     2
 73
     0
 90
        0
 40
0.6
 41
30.0
 62
     5
 63
     7
421
 16777215
 74
     1
 91
        4
 64
     7
 65
   257
 75
     1
175
     1
 42
1.0
 92
        8
 66
     7
 43
1.0
 76
     1
 77
     6
 78
     2
 67
     7
 79
     5
170
     0
171
     0
290
     0
174
     0
 93
        1
 44
-50.0
173
     0
291
     1
 45
0.0
1001
ACAD
1000
AcDbSavedByObjectVersion
1070
     0
  0
VISUALSTYLE
  5
3D
102
{ACAD_REACTORS
330
2A
102
}
102
{ACAD_XDICTIONARY
360
347
102
}
330
2A
100
AcDbVisualStyle
  2
EdgeColorOff
 70
    22
 71
     2
 72
     2
 73
     0
 90
        0
 40
0.6
 41
30.0
 62
     5
 63
     7
421
 16777215
 74
     1
 91
        4
 64
     7
 65
   257
 75
     1
175
     1
 42
1.0
 92
        8
 66
     7
 43
1.0
 76
     1
 77
     6
 78
     2
 67
     7
 79
     5
170
     0
171
     0
290
     0
174
     0
 93
        1
 44
0.0
173
     0
291
     1
 45
0.0
1001
ACAD
1000
AcDbSavedByObjectVersion
1070
     0
  0
VISUALSTYLE
  5
39
102
{ACAD_REACTORS
330
2A
102
}
102
{ACAD_XDICTIONARY
360
33F
102
}
330
2A
100
AcDbVisualStyle
  2
Facepattern
 70
    15
 71
     2
 72
     2
 73
     0
 90
        0
 40
0.6
 41
30.0
 62
     5
 63
     7
421
 16777215
 74
     1
 91
        4
 64
     7
 65
   257
 75
     1
175
     1
 42
1.0
 92
        8
 66
     7
 43
1.0
 76
     1
 77
     6
 78
     2
 67
     7
 79
     5
170
     0
171
     0
290
     0
174
     0
 93
        1
 44
0.0
173
     0
291
     1
 45
0.0
1001
ACAD
1000
AcDbSavedByObjectVersion
1070
     0
  0
VISUALSTYLE
  5
2B
102
{ACAD_REACTORS
330
2A
102
}
102
{ACAD_XDICTIONARY
360
323
102
}
330
2A
100
AcDbVisualStyle
  2
Flat
 70
     0
 71
     2
 72
     1
 73
     1
 90
        2
 40
0.6
 41
30.0
 62
     5
 63
     7
421
 16777215
 74
     0
 91
        0
 64
     7
 65
   257
 75
     1
175
     1
 42
1.0
 92
        8
 66
     7
 43
1.0
 76
     1
 77
     6
 78
     2
 67
     7
 79
     5
170
     0
171
     0
290
     0
174
     0
 93
       13
 44
0.0
173
     0
291
     1
 45
0.0
1001
ACAD
1000
AcDbSavedByObjectVersion
1070
     0
  0
VISUALSTYLE
  5
2C
102
{ACAD_REACTORS
330
2A
102
}
102
{ACAD_XDICTIONARY
360
325
102
}
330
2A
100
AcDbVisualStyle
  2
FlatWithEdges
 70
     1
 71
     2
 72
     1
 73
     1
 90
        2
 40
0.6
 41
30.0
 62
     5
 63
     7
421
 16777215
 74
     1
 91
        0
 64
     7
 65
   257
 75
     1
175
     1
 42
1.0
 92
        0
 66
   257
 43
1.0
 76
     1
 77
     6
 78
     2
 67
     7
 79
     5
170
     0
171
     0
290
     0
174
     0
 93
       13
 44
0.0
173
     0
291
     1
 45
0.0
1001
ACAD
1000
AcDbSavedByObjectVersion
1070
     0
  0
VISUALSTYLE
  5
2D
102
{ACAD_REACTORS
330
2A
102
}
102
{ACAD_XDICTIONARY
360
327
102
}
330
2A
100
AcDbVisualStyle
  2
Gouraud
 70
     2
 71
     2
 72
     2
 73
     1
 90
        2
 40
0.6
 41
30.0
 62
     5
 63
     7
421
 16777215
 74
     0
 91
        0
 64
     7
 65
   257
 75
     1
175
     1
 42
1.0
 92
        0
 66
     7
 43
1.0
 76
     1
 77
     6
 78
     2
 67
     7
 79
     5
170
     0
171
     0
290
     0
174
     0
 93
       13
 44
0.0
173
     0
291
     1
 45
0.0
1001
ACAD
1000
AcDbSavedByObjectVersion
1070
     0
  0
VISUALSTYLE
  5
2E
102
{ACAD_REACTORS
330
2A
102
}
102
{ACAD_XDICTIONARY
360
329
102
}
330
2A
100
AcDbVisualStyle
  2
GouraudWithEdges
 70
     3
 71
     2
 72
     2
 73
     1
 90
        2
 40
0.6
 41
30.0
 62
     5
 63
     7
421
 16777215
 74
     1
 91
        0
 64
     7
 65
   257
 75
     1
175
     1
 42
1.0
 92
        0
 66
   257
 43
1.0
 76
     1
 77
     6
 78
     2
 67
     7
 79
     5
170
     0
171
     0
290
     0
174
     0
 93
       13
 44
0.0
173
     0
291
     1
 45
0.0
1001
ACAD
1000
AcDbSavedByObjectVersion
1070
     0
  0
VISUALSTYLE
  5
31
102
{ACAD_REACTORS
330
2A
102
}
102
{ACAD_XDICTIONARY
360
32F
102
}
330
2A
100
AcDbVisualStyle
  2
Hidden
 70
     6
 71
     1
 72
     2
 73
     2
 90
        0
 40
0.6
 41
30.0
 62
     5
 63
     7
421
 16777215
 74
     2
 91
        2
 64
     7
 65
   257
 75
     2
175
     1
 42
40.0
 92
        0
 66
   257
 43
1.0
 76
     1
 77
     6
 78
     2
 67
     7
 79
     3
170
     0
171
     0
290
     0
174
     0
 93
        1
 44
0.0
173
     0
291
     0
 45
0.0
1001
ACAD
1000
AcDbSavedByObjectVersion
1070
     0
  0
VISUALSTYLE
  5
3B
102
{ACAD_REACTORS
330
2A
102
}
102
{ACAD_XDICTIONARY
360
343
102
}
330
2A
100
AcDbVisualStyle
  2
JitterOff
 70
    20
 71
     2
 72
     2
 73
     0
 90
        0
 40
0.6
 41
30.0
 62
     5
 63
     7
421
 16777215
 74
     1
 91
        4
 64
     7
 65
   257
 75
     1
175
     1
 42
1.0
 92
       10
 66
     7
 43
1.0
 76
     1
 77
     6
 78
     2
 67
     7
 79
     5
170
     0
171
     0
290
     0
174
     0
 93
        1
 44
0.0
173
     0
291
     1
 45
0.0
1001
ACAD
1000
AcDbSavedByObjectVersion
1070
     0
  0
VISUALSTYLE
  5
38
102
{ACAD_REACTORS
330
2A
102
}
102
{ACAD_XDICTIONARY
360
33D
102
}
330
2A
100
AcDbVisualStyle
  2
Linepattern
 70
    14
 71
     2
 72
     2
 73
     0
 90
        0
 40
0.6
 41
30.0
 62
     5
 63
     7
421
 16777215
 74
     1
 91
        4
 64
     7
 65
   257
 75
     7
175
     7
 42
1.0
 92
        8
 66
     7
 43
1.0
 76
     1
 77
     6
 78
     2
 67
     7
 79
     5
170
     0
171
     0
290
     0
174
     0
 93
        1
 44
0.0
173
     0
291
     1
 45
0.0
1001
ACAD
1000
AcDbSavedByObjectVersion
1070
     0
  0
VISUALSTYLE
  5
3C
102
{ACAD_REACTORS
330
2A
102
}
102
{ACAD_XDICTIONARY
360
345
102
}
330
2A
100
AcDbVisualStyle
  2
OverhangOff
 70
    21
 71
     2
 72
     2
 73
     0
 90
        0
 40
0.6
 41
30.0
 62
     5
 63
     7
421
 16777215
 74
     1
 91
        4
 64
     7
 65
   257
 75
     1
175
     1
 42
1.0
 92
        9
 66
     7
 43
1.0
 76
     1
 77
     6
 78
     2
 67
     7
 79
     5
170
     0
171
     0
290
     0
174
     0
 93
        1
 44
0.0
173
     0
291
     1
 45
0.0
1001
ACAD
1000
AcDbSavedByObjectVersion
1070
     0
  0
VISUALSTYLE
  5
33
102
{ACAD_REACTORS
330
2A
102
}
102
{ACAD_XDICTIONARY
360
333
102
}
330
2A
100
AcDbVisualStyle
  2
Realistic
 70
     8
 71
     2
 72
     3
 73
     0
 90
        2
 40
0.6
 41
30.0
 62
     5
 63
     7
421
 16777215
 74
     0
 91
        0
 64
     7
 65
   257
 75
     1
175
     1
 42
1.0
 92
        8
 66
   257
 43
1.0
 76
     1
 77
     6
 78
     2
 67
     7
 79
     3
170
     0
171
     0
290
     0
174
     0
 93
       13
 44
0.0
173
     0
291
     0
 45
0.0
1001
ACAD
1000
AcDbSavedByObjectVersion
1070
     0
  0
VISUALSTYLE
  5
42
102
{ACAD_REACTORS
330
2A
102
}
102
{ACAD_XDICTIONARY
360
351
102
}
330
2A
100
AcDbVisualStyle
  2
Shaded
 70
    27
 71
     2
 72
     2
 73
     1
 90
        2
 40
0.6
 41
30.0
 62
     5
 63
     7
421
 16777215
 74
     0
 91
        4
 64
     7
 65
   257
 75
     1
175
     1
 42
1.0
 92
        8
 66
   257
 43
1.0
 76
     1
 77
     6
 78
     2
 67
     8
425
  7895160
 79
     3
170
     0
171
     0
290
     0
174
     0
 93
        5
 44
0.0
173
     0
291
     0
 45
0.0
1001
ACAD
1000
AcDbSavedByObjectVersion
1070
     0
  0
VISUALSTYLE
  5
41
102
{ACAD_REACTORS
330
2A
102
}
102
{ACAD_XDICTIONARY
360
34F
102
}
330
2A
100
AcDbVisualStyle
  2
Shaded with edges
 70
    26
 71
     2
 72
     2
 73
     1
 90
        2
 40
0.6
 41
30.0
 62
     5
 63
     7
421
 16777215
 74
     1
 91
       10
 64
     7
 65
   257
 75
     2
175
     1
 42
1.0
 92
        8
 66
   257
 43
1.0
 76
     1
 77
     6
 78
     2
 67
     7
 79
     3
170
     0
171
     0
290
     0
174
     0
 93
        5
 44
0.0
173
     0
291
     0
 45
0.0
1001
ACAD
1000
AcDbSavedByObjectVersion
1070
     0
  0
VISUALSTYLE
  5
3E
102
{ACAD_REACTORS
330
2A
102
}
102
{ACAD_XDICTIONARY
360
349
102
}
330
2A
100
AcDbVisualStyle
  2
Shades of Gray
 70
    23
 71
     2
 72
     2
 73
     3
 90
        0
 40
0.6
 41
30.0
 62
     5
 63
     7
421
 16777215
 74
     2
 91
        2
 64
     7
 65
     7
 75
     1
175
     1
 42
40.0
 92
        8
 66
     7
 43
1.0
 76
     1
 77
     6
 78
     2
 67
     7
 79
     3
170
     0
171
     0
290
     0
174
     0
 93
        1
 44
0.0
173
     0
291
     0
 45
0.0
1001
ACAD
1000
AcDbSavedByObjectVersion
1070
     0
  0
VISUALSTYLE
  5
3F
102
{ACAD_REACTORS
330
2A
102
}
102
{ACAD_XDICTIONARY
360
34B
102
}
330
2A
100
AcDbVisualStyle
  2
Sketchy
 70
    24
 71
     1
 72
     2
 73
     2
 90
        0
 40
0.6
 41
30.0
 62
     5
 63
     7
421
 16777215
 74
     2
 91
        2
 64
     7
 65
     7
 75
     1
175
     1
 42
40.0
 92
       11
 66
     7
 43
1.0
 76
     1
 77
     6
 78
     2
 67
     7
 79
     6
170
     0
171
     0
290
     0
174
     0
 93
        1
 44
0.0
173
     0
291
     0
 45
0.0
1001
ACAD
1000
AcDbSavedByObjectVersion
1070
     0
  0
VISUALSTYLE
  5
37
102
{ACAD_REACTORS
330
2A
102
}
102
{ACAD_XDICTIONARY
360
33B
102
}
330
2A
100
AcDbVisualStyle
  2
Thicken
 70
    13
 71
     2
 72
     2
 73
     0
 90
        0
 40
0.6
 41
30.0
 62
     5
 63
     7
421
 16777215
 74
     1
 91
        4
 64
     7
 65
   257
 75
     1
175
     1
 42
1.0
 92
       12
 66
     7
 43
1.0
 76
     1
 77
     6
 78
     2
 67
     7
 79
     5
170
     0
171
     0
290
     0
174
     0
 93
        1
 44
0.0
173
     0
291
     1
 45
0.0
1001
ACAD
1000
AcDbSavedByObjectVersion
1070
     0
  0
VISUALSTYLE
  5
30
102
{ACAD_REACTORS
330
2A
102
}
102
{ACAD_XDICTIONARY
360
32D
102
}
330
2A
100
AcDbVisualStyle
  2
Wireframe
 70
     5
 71
     0
 72
     2
 73
     0
 90
        0
 40
0.6
 41
30.0
 62
     5
 63
     7
421
 16777215
 74
     1
 91
        4
 64
     7
 65
   257
 75
     1
175
     1
 42
1.0
 92
        0
 66
   257
 43
1.0
 76
     1
 77
     6
 78
     2
 67
     7
 79
     3
170
     0
171
     0
290
     0
174
     0
 93
        1
 44
0.0
173
     0
291
     0
 45
0.0
1001
ACAD
1000
AcDbSavedByObjectVersion
1070
     0
  0
VISUALSTYLE
  5
40
102
{ACAD_REACTORS
330
2A
102
}
102
{ACAD_XDICTIONARY
360
34D
102
}
330
2A
100
AcDbVisualStyle
  2
X-Ray
 70
    25
 71
     2
 72
     2
 73
     1
 90
        1
 40
0.5
 41
30.0
 62
     5
 63
     7
421
 16777215
 74
     1
 91
        0
 64
     7
 65
   257
 75
     1
175
     1
 42
1.0
 92
        8
 66
     7
 43
1.0
 76
     1
 77
     6
 78
     2
 67
     7
 79
     3
170
     0
171
     0
290
     0
174
     0
 93
       13
 44
0.0
173
     0
291
     0
 45
0.0
1001
ACAD
1000
AcDbSavedByObjectVersion
1070
     0
  0
DICTIONARYVAR
  5
320
102
{ACAD_REACTORS
330
31F
102
}
330
31F
100
DictionaryVariables
280
     0
  1
1:1
  0
DICTIONARYVAR
  5
361
102
{ACAD_REACTORS
330
31F
102
}
330
31F
100
DictionaryVariables
280
     0
  1
Standard
  0
DICTIONARYVAR
  5
360
102
{ACAD_REACTORS
330
31F
102
}
330
31F
100
DictionaryVariables
280
     0
  1
Standard
  0
DICTIONARYVAR
  5
321
102
{ACAD_REACTORS
330
31F
102
}
330
31F
100
DictionaryVariables
280
     0
  1
1
  0
DICTIONARYVAR
  5
322
102
{ACAD_REACTORS
330
31F
102
}
330
31F
100
DictionaryVariables
280
     0
  1
2
  0
DICTIONARY
  5
355
330
45
100
AcDbDictionary
280
     1
281
     1
  3
ACAD_XREC_ROUNDTRIP
360
356
  0
DICTIONARY
  5
353
330
44
100
AcDbDictionary
280
     1
281
     1
  3
ACAD_XREC_ROUNDTRIP
360
354
  0
DICTIONARY
  5
357
330
46
100
AcDbDictionary
280
     1
281
     1
  3
ACAD_XREC_ROUNDTRIP
360
358
  0
DICTIONARY
  5
35D
330
6C
100
AcDbDictionary
280
     1
281
     1
  3
ACAD_XREC_ROUNDTRIP
360
35E
  0
DICTIONARY
  5
359
330
6A
100
AcDbDictionary
280
     1
281
     1
  3
ACAD_ROUNDTRIP_2008_TABLESTYLE_CELLSTYLEMAP
360
35B
  3
ACAD_XREC_ROUNDTRIP
360
35A
  0
DICTIONARY
  5
32B
330
2F
100
AcDbDictionary
280
     1
281
     1
  3
ACAD_XREC_ROUNDTRIP
360
32C
  0
DICTIONARY
  5
331
330
32
100
AcDbDictionary
280
     1
281
     1
  3
ACAD_XREC_ROUNDTRIP
360
332
  0
DICTIONARY
  5
339
330
36
100
AcDbDictionary
280
     1
281
     1
  3
ACAD_XREC_ROUNDTRIP
360
33A
  0
DICTIONARY
  5
341
330
3A
100
AcDbDictionary
280
     1
281
     1
  3
ACAD_XREC_ROUNDTRIP
360
342
  0
DICTIONARY
  5
335
330
34
100
AcDbDictionary
280
     1
281
     1
  3
ACAD_XREC_ROUNDTRIP
360
336
  0
DICTIONARY
  5
337
330
35
100
AcDbDictionary
280
     1
281
     1
  3
ACAD_XREC_ROUNDTRIP
360
338
  0
DICTIONARY
  5
347
330
3D
100
AcDbDictionary
280
     1
281
     1
  3
ACAD_XREC_ROUNDTRIP
360
348
  0
DICTIONARY
  5
33F
330
39
100
AcDbDictionary
280
     1
281
     1
  3
ACAD_XREC_ROUNDTRIP
360
340
  0
DICTIONARY
  5
323
330
2B
100
AcDbDictionary
280
     1
281
     1
  3
ACAD_XREC_ROUNDTRIP
360
324
  0
DICTIONARY
  5
325
330
2C
100
AcDbDictionary
280
     1
281
     1
  3
ACAD_XREC_ROUNDTRIP
360
326
  0
DICTIONARY
  5
327
330
2D
100
AcDbDictionary
280
     1
281
     1
  3
ACAD_XREC_ROUNDTRIP
360
328
  0
DICTIONARY
  5
329
330
2E
100
AcDbDictionary
280
     1
281
     1
  3
ACAD_XREC_ROUNDTRIP
360
32A
  0
DICTIONARY
  5
32F
330
31
100
AcDbDictionary
280
     1
281
     1
  3
ACAD_XREC_ROUNDTRIP
360
330
  0
DICTIONARY
  5
343
330
3B
100
AcDbDictionary
280
     1
281
     1
  3
ACAD_XREC_ROUNDTRIP
360
344
  0
DICTIONARY
  5
33D
330
38
100
AcDbDictionary
280
     1
281
     1
  3
ACAD_XREC_ROUNDTRIP
360
33E
  0
DICTIONARY
  5
345
330
3C
100
AcDbDictionary
280
     1
281
     1
  3
ACAD_XREC_ROUNDTRIP
360
346
  0
DICTIONARY
  5
333
330
33
100
AcDbDictionary
280
     1
281
     1
  3
ACAD_XREC_ROUNDTRIP
360
334
  0
DICTIONARY
  5
351
330
42
100
AcDbDictionary
280
     1
281
     1
  3
ACAD_XREC_ROUNDTRIP
360
352
  0
DICTIONARY
  5
34F
330
41
100
AcDbDictionary
280
     1
281
     1
  3
ACAD_XREC_ROUNDTRIP
360
350
  0
DICTIONARY
  5
349
330
3E
100
AcDbDictionary
280
     1
281
     1
  3
ACAD_XREC_ROUNDTRIP
360
34A
  0
DICTIONARY
  5
34B
330
3F
100
AcDbDictionary
280
     1
281
     1
  3
ACAD_XREC_ROUNDTRIP
360
34C
  0
DICTIONARY
  5
33B
330
37
100
AcDbDictionary
280
     1
281
     1
  3
ACAD_XREC_ROUNDTRIP
360
33C
  0
DICTIONARY
  5
32D
330
30
100
AcDbDictionary
280
     1
281
     1
  3
ACAD_XREC_ROUNDTRIP
360
32E
  0
DICTIONARY
  5
34D
330
40
100
AcDbDictionary
280
     1
281
     1
  3
ACAD_XREC_ROUNDTRIP
360
34E
  0
XRECORD
  5
356
102
{ACAD_REACTORS
330
355
102
}
330
355
100
AcDbXrecord
280
     1
102
MATERIAL
148
0.0
149
0.0
149
0.0
 93
        0
 94
      127
282
     0
 72
     1
 77
     1
171
     1
175
     1
179
     1
273
     0
  0
XRECORD
  5
354
102
{ACAD_REACTORS
330
353
102
}
330
353
100
AcDbXrecord
280
     1
102
MATERIAL
148
0.0
149
0.0
149
0.0
 93
        0
 94
      127
282
     0
 72
     1
 77
     1
171
     1
175
     1
179
     1
273
     0
  0
XRECORD
  5
358
102
{ACAD_REACTORS
330
357
102
}
330
357
100
AcDbXrecord
280
     1
102
MATERIAL
148
0.0
149
0.0
149
0.0
 93
        0
 94
      127
282
     0
 72
     1
 77
     1
171
     1
175
     1
179
     1
273
     0
  0
XRECORD
  5
35E
102
{ACAD_REACTORS
330
35D
102
}
330
35D
100
AcDbXrecord
280
     1
102
ACAD_ROUNDTRIP_2010_MLEADER_STYLE
  0
CELLSTYLEMAP
  5
35B
102
{ACAD_REACTORS
330
359
102
}
330
359
100
AcDbCellStyleMap
 90
        3
300
CELLSTYLE
  1
TABLEFORMAT_BEGIN
 90
        5
170
     1
 91
        0
 92
    32768
 62
   257
 93
        1
300
CONTENTFORMAT
  1
CONTENTFORMAT_BEGIN
 90
        0
 91
        0
 92
        4
 93
        0
300

 40
0.0
140
1.0
 94
        5
 62
     0
340
11
144
0.25
309
CONTENTFORMAT_END
171
     1
301
MARGIN
  1
CELLMARGIN_BEGIN
 40
0.06
 40
0.06
 40
0.06
 40
0.06
 40
0.06
 40
0.06
309
CELLMARGIN_END
 94
        6
 95
        1
302
GRIDFORMAT
  1
GRIDFORMAT_BEGIN
 90
        0
 91
        1
 62
     0
 92
       -2
340
14
 93
        0
 40
0.045
309
GRIDFORMAT_END
 95
        2
302
GRIDFORMAT
  1
GRIDFORMAT_BEGIN
 90
        0
 91
        1
 62
     0
 92
       -2
340
14
 93
        0
 40
0.045
309
GRIDFORMAT_END
 95
        4
302
GRIDFORMAT
  1
GRIDFORMAT_BEGIN
 90
        0
 91
        1
 62
     0
 92
       -2
340
14
 93
        0
 40
0.045
309
GRIDFORMAT_END
 95
        8
302
GRIDFORMAT
  1
GRIDFORMAT_BEGIN
 90
        0
 91
        1
 62
     0
 92
       -2
340
14
 93
        0
 40
0.045
309
GRIDFORMAT_END
 95
       16
302
GRIDFORMAT
  1
GRIDFORMAT_BEGIN
 90
        0
 91
        1
 62
     0
 92
       -2
340
14
 93
        0
 40
0.045
309
GRIDFORMAT_END
 95
       32
302
GRIDFORMAT
  1
GRIDFORMAT_BEGIN
 90
        0
 91
        1
 62
     0
 92
       -2
340
14
 93
        0
 40
0.045
309
GRIDFORMAT_END
309
TABLEFORMAT_END
  1
CELLSTYLE_BEGIN
 90
        1
 91
        1
300
_TITLE
309
CELLSTYLE_END
300
CELLSTYLE
  1
TABLEFORMAT_BEGIN
 90
        5
170
     1
 91
        0
 92
        0
 62
   257
 93
        1
300
CONTENTFORMAT
  1
CONTENTFORMAT_BEGIN
 90
        0
 91
        0
 92
        4
 93
        0
300

 40
0.0
140
1.0
 94
        5
 62
     0
340
11
144
0.18
309
CONTENTFORMAT_END
171
     1
301
MARGIN
  1
CELLMARGIN_BEGIN
 40
0.06
 40
0.06
 40
0.06
 40
0.06
 40
0.06
 40
0.06
309
CELLMARGIN_END
 94
        6
 95
        1
302
GRIDFORMAT
  1
GRIDFORMAT_BEGIN
 90
        0
 91
        1
 62
     0
 92
       -2
340
14
 93
        0
 40
0.045
309
GRIDFORMAT_END
 95
        2
302
GRIDFORMAT
  1
GRIDFORMAT_BEGIN
 90
        0
 91
        1
 62
     0
 92
       -2
340
14
 93
        0
 40
0.045
309
GRIDFORMAT_END
 95
        4
302
GRIDFORMAT
  1
GRIDFORMAT_BEGIN
 90
        0
 91
        1
 62
     0
 92
       -2
340
14
 93
        0
 40
0.045
309
GRIDFORMAT_END
 95
        8
302
GRIDFORMAT
  1
GRIDFORMAT_BEGIN
 90
        0
 91
        1
 62
     0
 92
       -2
340
14
 93
        0
 40
0.045
309
GRIDFORMAT_END
 95
       16
302
GRIDFORMAT
  1
GRIDFORMAT_BEGIN
 90
        0
 91
        1
 62
     0
 92
       -2
340
14
 93
        0
 40
0.045
309
GRIDFORMAT_END
 95
       32
302
GRIDFORMAT
  1
GRIDFORMAT_BEGIN
 90
        0
 91
        1
 62
     0
 92
       -2
340
14
 93
        0
 40
0.045
309
GRIDFORMAT_END
309
TABLEFORMAT_END
  1
CELLSTYLE_BEGIN
 90
        2
 91
        1
300
_HEADER
309
CELLSTYLE_END
300
CELLSTYLE
  1
TABLEFORMAT_BEGIN
 90
        5
170
     1
 91
        0
 92
        0
 62
   257
 93
        1
300
CONTENTFORMAT
  1
CONTENTFORMAT_BEGIN
 90
        0
 91
        0
 92
        4
 93
        0
300

 40
0.0
140
1.0
 94
        2
 62
     0
340
11
144
0.18
309
CONTENTFORMAT_END
171
     1
301
MARGIN
  1
CELLMARGIN_BEGIN
 40
0.06
 40
0.06
 40
0.06
 40
0.06
 40
0.06
 40
0.06
309
CELLMARGIN_END
 94
        6
 95
        1
302
GRIDFORMAT
  1
GRIDFORMAT_BEGIN
 90
        0
 91
        1
 62
     0
 92
       -2
340
14
 93
        0
 40
0.045
309
GRIDFORMAT_END
 95
        2
302
GRIDFORMAT
  1
GRIDFORMAT_BEGIN
 90
        0
 91
        1
 62
     0
 92
       -2
340
14
 93
        0
 40
0.045
309
GRIDFORMAT_END
 95
        4
302
GRIDFORMAT
  1
GRIDFORMAT_BEGIN
 90
        0
 91
        1
 62
     0
 92
       -2
340
14
 93
        0
 40
0.045
309
GRIDFORMAT_END
 95
        8
302
GRIDFORMAT
  1
GRIDFORMAT_BEGIN
 90
        0
 91
        1
 62
     0
 92
       -2
340
14
 93
        0
 40
0.045
309
GRIDFORMAT_END
 95
       16
302
GRIDFORMAT
  1
GRIDFORMAT_BEGIN
 90
        0
 91
        1
 62
     0
 92
       -2
340
14
 93
        0
 40
0.045
309
GRIDFORMAT_END
 95
       32
302
GRIDFORMAT
  1
GRIDFORMAT_BEGIN
 90
        0
 91
        1
 62
     0
 92
       -2
340
14
 93
        0
 40
0.045
309
GRIDFORMAT_END
309
TABLEFORMAT_END
  1
CELLSTYLE_BEGIN
 90
        3
 91
        2
300
_DATA
309
CELLSTYLE_END
  0
XRECORD
  5
35A
102
{ACAD_REACTORS
330
359
102
}
330
359
100
AcDbXrecord
280
     1
102
ACAD_ROUNDTRIP_PRE2007_TABLESTYLE
 90
        4
 91
        0
  1

 92
        4
 93
        0
  2

 94
        4
 95
        0
  3

  0
XRECORD
  5
32C
102
{ACAD_REACTORS
330
32B
102
}
330
32B
100
AcDbXrecord
280
     1
102
RTVSPropertyOp0
 70
     1
102
RTVSPropertyOp1
 70
     1
102
RTVSPropertyOp2
 70
     1
102
RTVSPropertyOp3
 70
     1
102
RTVSPropertyOp4
 70
     1
102
RTVSPropertyOp5
 70
     1
102
RTVSPropertyOp6
 70
     1
102
RTVSPropertyOp7
 70
     1
102
RTVSPropertyOp8
 70
     1
102
RTVSPropertyOp9
 70
     1
102
RTVSPropertyOp10
 70
     1
102
RTVSPropertyOp11
 70
     1
102
RTVSPropertyOp12
 70
     1
102
RTVSPropertyOp13
 70
     1
102
RTVSPropertyOp14
 70
     1
102
RTVSPropertyOp15
 70
     1
102
RTVSPropertyOp16
 70
     1
102
RTVSPropertyOp17
 70
     1
102
RTVSPropertyOp18
 70
     1
102
RTVSPropertyOp19
 70
     1
102
RTVSPropertyOp20
 70
     1
102
RTVSPropertyOp21
 70
     1
102
RTVSPropertyOp22
 70
     1
102
RTVSPropertyOp23
 70
     1
102
RTVSPropertyOp24
 70
     1
102
RTVSPropertyOp25
 70
     1
102
RTVSPropertyOp26
 70
     1
102
RTVSPropertyOp27
 70
     1
102
RTVSPropertyOp28
 70
     1
102
RTVSPropertyOp29
 70
     1
102
RTVSPropertyOp30
 70
     1
102
RTVSPropertyOp31
 70
     1
102
RTVSPropertyOp32
 70
     1
102
RTVSPropertyOp33
 70
     1
102
RTVSPropertyOp34
 70
     1
102
RTVSPropertyOp35
 70
     1
102
RTVSPropertyOp36
 70
     1
102
RTVSPropertyOp37
 70
     1
102
RTVSPropertyOp38
 70
     1
102
RTVSPropertyOp39
 70
     1
102
RTVSPropertyOp40
 70
     1
102
RTVSPropertyOp41
 70
     1
102
RTVSPropertyOp42
 70
     1
102
RTVSPropertyOp43
 70
     1
102
RTVSPropertyOp44
 70
     1
102
RTVSPropertyOp45
 70
     1
102
RTVSPropertyOp46
 70
     1
102
RTVSPropertyOp47
 70
     1
102
RTVSPropertyOp48
 70
     1
102
RTVSPropertyOp49
 70
     1
102
RTVSPropertyOp50
 70
     1
102
RTVSPropertyOp51
 70
     0
102
RTVSPropertyOp52
 70
     0
102
RTVSPropertyOp53
 70
     1
102
RTVSPropertyOp54
 70
     1
102
RTVSPropertyOp55
 70
     1
102
RTVSPropertyOp56
 70
     1
102
RTVSPropertyOp57
 70
     1
102
RTVSPost2010Prop28
280
     1
102
RTVSPost2010PropOp28
 70
     1
102
RTVSPost2010Prop29
280
     1
102
RTVSPost2010PropOp29
 70
     1
102
RTVSPost2010Prop30
280
     0
102
RTVSPost2010PropOp30
 70
     1
102
RTVSPost2010Prop31
280
     0
102
RTVSPost2010PropOp31
 70
     1
102
RTVSPost2010Prop32
280
     0
102
RTVSPost2010PropOp32
 70
     1
102
RTVSPost2010Prop33
280
     0
102
RTVSPost2010PropOp33
 70
     1
102
RTVSPost2010Prop34
280
     0
102
RTVSPost2010PropOp34
 70
     1
102
RTVSPost2010Prop35
280
     0
102
RTVSPost2010PropOp35
 70
     1
102
RTVSPost2010Prop36
280
     0
102
RTVSPost2010PropOp36
 70
     1
102
RTVSPost2010Prop37
 90
       50
102
RTVSPost2010PropOp37
 70
     1
102
RTVSPost2010Prop38
140
0.0
102
RTVSPost2010PropOp38
 70
     1
102
RTVSPost2010Prop39
140
1.0
102
RTVSPost2010PropOp39
 70
     1
102
RTVSPost2010Prop40
 90
        0
102
RTVSPost2010PropOp40
 70
     1
102
RTVSPost2010Prop41ColorIndex
 90
       18
102
RTVSPost2010Prop41ColorRGB
 90
        0
102
RTVSPost2010PropOp41
 70
     1
102
RTVSPost2010Prop42
 90
       50
102
RTVSPost2010PropOp42
 70
     1
102
RTVSPost2010Prop43
 90
        3
102
RTVSPost2010PropOp43
 70
     1
102
RTVSPost2010Prop44ColorIndex
 90
        5
102
RTVSPost2010Prop44ColorRGB
 90
      255
102
RTVSPost2010PropOp44
 70
     1
102
RTVSPost2010Prop45
280
     0
102
RTVSPost2010PropOp45
 70
     1
102
RTVSPost2010Prop46
 90
       50
102
RTVSPost2010PropOp46
 70
     1
102
RTVSPost2010Prop47
 90
       50
102
RTVSPost2010PropOp47
 70
     1
102
RTVSPost2010Prop48
 90
       50
102
RTVSPost2010PropOp48
 70
     1
102
RTVSPost2010Prop49
280
     0
102
RTVSPost2010PropOp49
 70
     1
102
RTVSPost2010Prop50
 90
       50
102
RTVSPost2010PropOp50
 70
     1
102
RTVSPost2010Prop51ColorIndex
 90
      256
102
RTVSPost2010Prop51ColorRGB
 90
-16777216
102
RTVSPost2010PropOp51
 70
     0
102
RTVSPost2010Prop52
140
1.0
102
RTVSPost2010PropOp52
 70
     0
102
RTVSPost2010Prop53
 90
        2
102
RTVSPost2010PropOp53
 70
     1
102
RTVSPost2010Prop54
  1
strokes_ogs.tif
102
RTVSPost2010PropOp54
 70
     1
102
RTVSPost2010Prop55
280
     0
102
RTVSPost2010PropOp55
 70
     1
102
RTVSPost2010Prop56
140
1.0
102
RTVSPost2010PropOp56
 70
     1
102
RTVSPost2010Prop57
140
1.0
102
RTVSPost2010PropOp57
 70
     1
  0
XRECORD
  5
332
102
{ACAD_REACTORS
330
331
102
}
330
331
100
AcDbXrecord
280
     1
102
RTVSPropertyOp0
 70
     1
102
RTVSPropertyOp1
 70
     1
102
RTVSPropertyOp2
 70
     1
102
RTVSPropertyOp3
 70
     1
102
RTVSPropertyOp4
 70
     1
102
RTVSPropertyOp5
 70
     1
102
RTVSPropertyOp6
 70
     1
102
RTVSPropertyOp7
 70
     1
102
RTVSPropertyOp8
 70
     1
102
RTVSPropertyOp9
 70
     1
102
RTVSPropertyOp10
 70
     1
102
RTVSPropertyOp11
 70
     1
102
RTVSPropertyOp12
 70
     1
102
RTVSPropertyOp13
 70
     1
102
RTVSPropertyOp14
 70
     1
102
RTVSPropertyOp15
 70
     1
102
RTVSPropertyOp16
 70
     1
102
RTVSPropertyOp17
 70
     1
102
RTVSPropertyOp18
 70
     1
102
RTVSPropertyOp19
 70
     1
102
RTVSPropertyOp20
 70
     1
102
RTVSPropertyOp21
 70
     1
102
RTVSPropertyOp22
 70
     1
102
RTVSPropertyOp23
 70
     1
102
RTVSPropertyOp24
 70
     1
102
RTVSPropertyOp25
 70
     1
102
RTVSPropertyOp26
 70
     1
102
RTVSPropertyOp27
 70
     1
102
RTVSPropertyOp28
 70
     1
102
RTVSPropertyOp29
 70
     1
102
RTVSPropertyOp30
 70
     1
102
RTVSPropertyOp31
 70
     1
102
RTVSPropertyOp32
 70
     1
102
RTVSPropertyOp33
 70
     1
102
RTVSPropertyOp34
 70
     1
102
RTVSPropertyOp35
 70
     1
102
RTVSPropertyOp36
 70
     1
102
RTVSPropertyOp37
 70
     1
102
RTVSPropertyOp38
 70
     1
102
RTVSPropertyOp39
 70
     1
102
RTVSPropertyOp40
 70
     1
102
RTVSPropertyOp41
 70
     1
102
RTVSPropertyOp42
 70
     1
102
RTVSPropertyOp43
 70
     1
102
RTVSPropertyOp44
 70
     1
102
RTVSPropertyOp45
 70
     1
102
RTVSPropertyOp46
 70
     1
102
RTVSPropertyOp47
 70
     1
102
RTVSPropertyOp48
 70
     1
102
RTVSPropertyOp49
 70
     1
102
RTVSPropertyOp50
 70
     1
102
RTVSPropertyOp51
 70
     0
102
RTVSPropertyOp52
 70
     0
102
RTVSPropertyOp53
 70
     1
102
RTVSPropertyOp54
 70
     1
102
RTVSPropertyOp55
 70
     1
102
RTVSPropertyOp56
 70
     1
102
RTVSPropertyOp57
 70
     1
102
RTVSPost2010Prop28
280
     0
102
RTVSPost2010PropOp28
 70
     1
102
RTVSPost2010Prop29
280
     1
102
RTVSPost2010PropOp29
 70
     1
102
RTVSPost2010Prop30
280
     1
102
RTVSPost2010PropOp30
 70
     1
102
RTVSPost2010Prop31
280
     0
102
RTVSPost2010PropOp31
 70
     1
102
RTVSPost2010Prop32
280
     0
102
RTVSPost2010PropOp32
 70
     1
102
RTVSPost2010Prop33
280
     0
102
RTVSPost2010PropOp33
 70
     1
102
RTVSPost2010Prop34
280
     0
102
RTVSPost2010PropOp34
 70
     1
102
RTVSPost2010Prop35
280
     0
102
RTVSPost2010PropOp35
 70
     1
102
RTVSPost2010Prop36
280
     0
102
RTVSPost2010PropOp36
 70
     1
102
RTVSPost2010Prop37
 90
       50
102
RTVSPost2010PropOp37
 70
     1
102
RTVSPost2010Prop38
140
0.0
102
RTVSPost2010PropOp38
 70
     1
102
RTVSPost2010Prop39
140
1.0
102
RTVSPost2010PropOp39
 70
     1
102
RTVSPost2010Prop40
 90
        0
102
RTVSPost2010PropOp40
 70
     1
102
RTVSPost2010Prop41ColorIndex
 90
       18
102
RTVSPost2010Prop41ColorRGB
 90
        0
102
RTVSPost2010PropOp41
 70
     1
102
RTVSPost2010Prop42
 90
       50
102
RTVSPost2010PropOp42
 70
     1
102
RTVSPost2010Prop43
 90
        3
102
RTVSPost2010PropOp43
 70
     1
102
RTVSPost2010Prop44ColorIndex
 90
        5
102
RTVSPost2010Prop44ColorRGB
 90
      255
102
RTVSPost2010PropOp44
 70
     1
102
RTVSPost2010Prop45
280
     0
102
RTVSPost2010PropOp45
 70
     1
102
RTVSPost2010Prop46
 90
       50
102
RTVSPost2010PropOp46
 70
     1
102
RTVSPost2010Prop47
 90
       50
102
RTVSPost2010PropOp47
 70
     1
102
RTVSPost2010Prop48
 90
       50
102
RTVSPost2010PropOp48
 70
     1
102
RTVSPost2010Prop49
280
     0
102
RTVSPost2010PropOp49
 70
     1
102
RTVSPost2010Prop50
 90
       50
102
RTVSPost2010PropOp50
 70
     1
102
RTVSPost2010Prop51ColorIndex
 90
      256
102
RTVSPost2010Prop51ColorRGB
 90
-16777216
102
RTVSPost2010PropOp51
 70
     0
102
RTVSPost2010Prop52
140
1.0
102
RTVSPost2010PropOp52
 70
     0
102
RTVSPost2010Prop53
 90
        2
102
RTVSPost2010PropOp53
 70
     1
102
RTVSPost2010Prop54
  1
strokes_ogs.tif
102
RTVSPost2010PropOp54
 70
     1
102
RTVSPost2010Prop55
280
     0
102
RTVSPost2010PropOp55
 70
     1
102
RTVSPost2010Prop56
140
1.0
102
RTVSPost2010PropOp56
 70
     1
102
RTVSPost2010Prop57
140
1.0
102
RTVSPost2010PropOp57
 70
     1
  0
XRECORD
  5
33A
102
{ACAD_REACTORS
330
339
102
}
330
339
100
AcDbXrecord
280
     1
102
RTVSPropertyOp0
 70
     1
102
RTVSPropertyOp1
 70
     1
102
RTVSPropertyOp2
 70
     1
102
RTVSPropertyOp3
 70
     1
102
RTVSPropertyOp4
 70
     1
102
RTVSPropertyOp5
 70
     1
102
RTVSPropertyOp6
 70
     1
102
RTVSPropertyOp7
 70
     1
102
RTVSPropertyOp8
 70
     1
102
RTVSPropertyOp9
 70
     1
102
RTVSPropertyOp10
 70
     1
102
RTVSPropertyOp11
 70
     1
102
RTVSPropertyOp12
 70
     1
102
RTVSPropertyOp13
 70
     1
102
RTVSPropertyOp14
 70
     1
102
RTVSPropertyOp15
 70
     1
102
RTVSPropertyOp16
 70
     1
102
RTVSPropertyOp17
 70
     1
102
RTVSPropertyOp18
 70
     1
102
RTVSPropertyOp19
 70
     1
102
RTVSPropertyOp20
 70
     1
102
RTVSPropertyOp21
 70
     1
102
RTVSPropertyOp22
 70
     1
102
RTVSPropertyOp23
 70
     1
102
RTVSPropertyOp24
 70
     1
102
RTVSPropertyOp25
 70
     1
102
RTVSPropertyOp26
 70
     1
102
RTVSPropertyOp27
 70
     1
102
RTVSPropertyOp28
 70
     1
102
RTVSPropertyOp29
 70
     1
102
RTVSPropertyOp30
 70
     1
102
RTVSPropertyOp31
 70
     1
102
RTVSPropertyOp32
 70
     1
102
RTVSPropertyOp33
 70
     1
102
RTVSPropertyOp34
 70
     1
102
RTVSPropertyOp35
 70
     1
102
RTVSPropertyOp36
 70
     1
102
RTVSPropertyOp37
 70
     1
102
RTVSPropertyOp38
 70
     1
102
RTVSPropertyOp39
 70
     1
102
RTVSPropertyOp40
 70
     1
102
RTVSPropertyOp41
 70
     1
102
RTVSPropertyOp42
 70
     1
102
RTVSPropertyOp43
 70
     1
102
RTVSPropertyOp44
 70
     1
102
RTVSPropertyOp45
 70
     1
102
RTVSPropertyOp46
 70
     1
102
RTVSPropertyOp47
 70
     1
102
RTVSPropertyOp48
 70
     1
102
RTVSPropertyOp49
 70
     1
102
RTVSPropertyOp50
 70
     1
102
RTVSPropertyOp51
 70
     0
102
RTVSPropertyOp52
 70
     0
102
RTVSPropertyOp53
 70
     1
102
RTVSPropertyOp54
 70
     1
102
RTVSPropertyOp55
 70
     1
102
RTVSPropertyOp56
 70
     1
102
RTVSPropertyOp57
 70
     1
102
RTVSPost2010Prop28
280
     0
102
RTVSPost2010PropOp28
 70
     1
102
RTVSPost2010Prop29
280
     1
102
RTVSPost2010PropOp29
 70
     1
102
RTVSPost2010Prop30
280
     1
102
RTVSPost2010PropOp30
 70
     1
102
RTVSPost2010Prop31
280
     0
102
RTVSPost2010PropOp31
 70
     1
102
RTVSPost2010Prop32
280
     0
102
RTVSPost2010PropOp32
 70
     1
102
RTVSPost2010Prop33
280
     0
102
RTVSPost2010PropOp33
 70
     1
102
RTVSPost2010Prop34
280
     0
102
RTVSPost2010PropOp34
 70
     1
102
RTVSPost2010Prop35
280
     0
102
RTVSPost2010PropOp35
 70
     1
102
RTVSPost2010Prop36
280
     0
102
RTVSPost2010PropOp36
 70
     1
102
RTVSPost2010Prop37
 90
       50
102
RTVSPost2010PropOp37
 70
     1
102
RTVSPost2010Prop38
140
0.0
102
RTVSPost2010PropOp38
 70
     1
102
RTVSPost2010Prop39
140
1.0
102
RTVSPost2010PropOp39
 70
     1
102
RTVSPost2010Prop40
 90
        0
102
RTVSPost2010PropOp40
 70
     1
102
RTVSPost2010Prop41ColorIndex
 90
       18
102
RTVSPost2010Prop41ColorRGB
 90
        0
102
RTVSPost2010PropOp41
 70
     1
102
RTVSPost2010Prop42
 90
       50
102
RTVSPost2010PropOp42
 70
     1
102
RTVSPost2010Prop43
 90
        3
102
RTVSPost2010PropOp43
 70
     1
102
RTVSPost2010Prop44ColorIndex
 90
        5
102
RTVSPost2010Prop44ColorRGB
 90
      255
102
RTVSPost2010PropOp44
 70
     1
102
RTVSPost2010Prop45
280
     0
102
RTVSPost2010PropOp45
 70
     1
102
RTVSPost2010Prop46
 90
       50
102
RTVSPost2010PropOp46
 70
     1
102
RTVSPost2010Prop47
 90
       50
102
RTVSPost2010PropOp47
 70
     1
102
RTVSPost2010Prop48
 90
       50
102
RTVSPost2010PropOp48
 70
     1
102
RTVSPost2010Prop49
280
     0
102
RTVSPost2010PropOp49
 70
     1
102
RTVSPost2010Prop50
 90
       50
102
RTVSPost2010PropOp50
 70
     1
102
RTVSPost2010Prop51ColorIndex
 90
      256
102
RTVSPost2010Prop51ColorRGB
 90
-16777216
102
RTVSPost2010PropOp51
 70
     0
102
RTVSPost2010Prop52
140
1.0
102
RTVSPost2010PropOp52
 70
     0
102
RTVSPost2010Prop53
 90
        2
102
RTVSPost2010PropOp53
 70
     1
102
RTVSPost2010Prop54
  1
strokes_ogs.tif
102
RTVSPost2010PropOp54
 70
     1
102
RTVSPost2010Prop55
280
     0
102
RTVSPost2010PropOp55
 70
     1
102
RTVSPost2010Prop56
140
1.0
102
RTVSPost2010PropOp56
 70
     1
102
RTVSPost2010Prop57
140
1.0
102
RTVSPost2010PropOp57
 70
     1
  0
XRECORD
  5
342
102
{ACAD_REACTORS
330
341
102
}
330
341
100
AcDbXrecord
280
     1
102
RTVSPropertyOp0
 70
     1
102
RTVSPropertyOp1
 70
     1
102
RTVSPropertyOp2
 70
     1
102
RTVSPropertyOp3
 70
     1
102
RTVSPropertyOp4
 70
     1
102
RTVSPropertyOp5
 70
     1
102
RTVSPropertyOp6
 70
     1
102
RTVSPropertyOp7
 70
     1
102
RTVSPropertyOp8
 70
     1
102
RTVSPropertyOp9
 70
     1
102
RTVSPropertyOp10
 70
     1
102
RTVSPropertyOp11
 70
     1
102
RTVSPropertyOp12
 70
     1
102
RTVSPropertyOp13
 70
     1
102
RTVSPropertyOp14
 70
     1
102
RTVSPropertyOp15
 70
     1
102
RTVSPropertyOp16
 70
     1
102
RTVSPropertyOp17
 70
     1
102
RTVSPropertyOp18
 70
     1
102
RTVSPropertyOp19
 70
     1
102
RTVSPropertyOp20
 70
     1
102
RTVSPropertyOp21
 70
     1
102
RTVSPropertyOp22
 70
     1
102
RTVSPropertyOp23
 70
     1
102
RTVSPropertyOp24
 70
     1
102
RTVSPropertyOp25
 70
     1
102
RTVSPropertyOp26
 70
     1
102
RTVSPropertyOp27
 70
     1
102
RTVSPropertyOp28
 70
     1
102
RTVSPropertyOp29
 70
     1
102
RTVSPropertyOp30
 70
     1
102
RTVSPropertyOp31
 70
     1
102
RTVSPropertyOp32
 70
     1
102
RTVSPropertyOp33
 70
     1
102
RTVSPropertyOp34
 70
     1
102
RTVSPropertyOp35
 70
     1
102
RTVSPropertyOp36
 70
     1
102
RTVSPropertyOp37
 70
     1
102
RTVSPropertyOp38
 70
     1
102
RTVSPropertyOp39
 70
     1
102
RTVSPropertyOp40
 70
     1
102
RTVSPropertyOp41
 70
     1
102
RTVSPropertyOp42
 70
     1
102
RTVSPropertyOp43
 70
     1
102
RTVSPropertyOp44
 70
     1
102
RTVSPropertyOp45
 70
     1
102
RTVSPropertyOp46
 70
     1
102
RTVSPropertyOp47
 70
     1
102
RTVSPropertyOp48
 70
     1
102
RTVSPropertyOp49
 70
     1
102
RTVSPropertyOp50
 70
     1
102
RTVSPropertyOp51
 70
     0
102
RTVSPropertyOp52
 70
     0
102
RTVSPropertyOp53
 70
     1
102
RTVSPropertyOp54
 70
     1
102
RTVSPropertyOp55
 70
     1
102
RTVSPropertyOp56
 70
     1
102
RTVSPropertyOp57
 70
     1
102
RTVSPost2010Prop28
280
     0
102
RTVSPost2010PropOp28
 70
     1
102
RTVSPost2010Prop29
280
     1
102
RTVSPost2010PropOp29
 70
     1
102
RTVSPost2010Prop30
280
     1
102
RTVSPost2010PropOp30
 70
     1
102
RTVSPost2010Prop31
280
     0
102
RTVSPost2010PropOp31
 70
     1
102
RTVSPost2010Prop32
280
     0
102
RTVSPost2010PropOp32
 70
     1
102
RTVSPost2010Prop33
280
     0
102
RTVSPost2010PropOp33
 70
     1
102
RTVSPost2010Prop34
280
     0
102
RTVSPost2010PropOp34
 70
     1
102
RTVSPost2010Prop35
280
     0
102
RTVSPost2010PropOp35
 70
     1
102
RTVSPost2010Prop36
280
     0
102
RTVSPost2010PropOp36
 70
     1
102
RTVSPost2010Prop37
 90
       50
102
RTVSPost2010PropOp37
 70
     1
102
RTVSPost2010Prop38
140
0.0
102
RTVSPost2010PropOp38
 70
     1
102
RTVSPost2010Prop39
140
1.0
102
RTVSPost2010PropOp39
 70
     1
102
RTVSPost2010Prop40
 90
        0
102
RTVSPost2010PropOp40
 70
     1
102
RTVSPost2010Prop41ColorIndex
 90
       18
102
RTVSPost2010Prop41ColorRGB
 90
        0
102
RTVSPost2010PropOp41
 70
     1
102
RTVSPost2010Prop42
 90
       50
102
RTVSPost2010PropOp42
 70
     1
102
RTVSPost2010Prop43
 90
        3
102
RTVSPost2010PropOp43
 70
     1
102
RTVSPost2010Prop44ColorIndex
 90
        5
102
RTVSPost2010Prop44ColorRGB
 90
      255
102
RTVSPost2010PropOp44
 70
     1
102
RTVSPost2010Prop45
280
     0
102
RTVSPost2010PropOp45
 70
     1
102
RTVSPost2010Prop46
 90
       50
102
RTVSPost2010PropOp46
 70
     1
102
RTVSPost2010Prop47
 90
       50
102
RTVSPost2010PropOp47
 70
     1
102
RTVSPost2010Prop48
 90
       50
102
RTVSPost2010PropOp48
 70
     1
102
RTVSPost2010Prop49
280
     0
102
RTVSPost2010PropOp49
 70
     1
102
RTVSPost2010Prop50
 90
       50
102
RTVSPost2010PropOp50
 70
     1
102
RTVSPost2010Prop51ColorIndex
 90
      256
102
RTVSPost2010Prop51ColorRGB
 90
-16777216
102
RTVSPost2010PropOp51
 70
     0
102
RTVSPost2010Prop52
140
1.0
102
RTVSPost2010PropOp52
 70
     0
102
RTVSPost2010Prop53
 90
        2
102
RTVSPost2010PropOp53
 70
     1
102
RTVSPost2010Prop54
  1
strokes_ogs.tif
102
RTVSPost2010PropOp54
 70
     1
102
RTVSPost2010Prop55
280
     0
102
RTVSPost2010PropOp55
 70
     1
102
RTVSPost2010Prop56
140
1.0
102
RTVSPost2010PropOp56
 70
     1
102
RTVSPost2010Prop57
140
1.0
102
RTVSPost2010PropOp57
 70
     1
  0
XRECORD
  5
336
102
{ACAD_REACTORS
330
335
102
}
330
335
100
AcDbXrecord
280
     1
102
RTVSPropertyOp0
 70
     1
102
RTVSPropertyOp1
 70
     1
102
RTVSPropertyOp2
 70
     1
102
RTVSPropertyOp3
 70
     1
102
RTVSPropertyOp4
 70
     1
102
RTVSPropertyOp5
 70
     1
102
RTVSPropertyOp6
 70
     1
102
RTVSPropertyOp7
 70
     1
102
RTVSPropertyOp8
 70
     1
102
RTVSPropertyOp9
 70
     1
102
RTVSPropertyOp10
 70
     1
102
RTVSPropertyOp11
 70
     1
102
RTVSPropertyOp12
 70
     1
102
RTVSPropertyOp13
 70
     1
102
RTVSPropertyOp14
 70
     1
102
RTVSPropertyOp15
 70
     1
102
RTVSPropertyOp16
 70
     1
102
RTVSPropertyOp17
 70
     1
102
RTVSPropertyOp18
 70
     1
102
RTVSPropertyOp19
 70
     1
102
RTVSPropertyOp20
 70
     1
102
RTVSPropertyOp21
 70
     1
102
RTVSPropertyOp22
 70
     1
102
RTVSPropertyOp23
 70
     1
102
RTVSPropertyOp24
 70
     1
102
RTVSPropertyOp25
 70
     1
102
RTVSPropertyOp26
 70
     1
102
RTVSPropertyOp27
 70
     1
102
RTVSPropertyOp28
 70
     1
102
RTVSPropertyOp29
 70
     1
102
RTVSPropertyOp30
 70
     1
102
RTVSPropertyOp31
 70
     1
102
RTVSPropertyOp32
 70
     1
102
RTVSPropertyOp33
 70
     1
102
RTVSPropertyOp34
 70
     1
102
RTVSPropertyOp35
 70
     1
102
RTVSPropertyOp36
 70
     1
102
RTVSPropertyOp37
 70
     1
102
RTVSPropertyOp38
 70
     1
102
RTVSPropertyOp39
 70
     1
102
RTVSPropertyOp40
 70
     1
102
RTVSPropertyOp41
 70
     1
102
RTVSPropertyOp42
 70
     1
102
RTVSPropertyOp43
 70
     1
102
RTVSPropertyOp44
 70
     1
102
RTVSPropertyOp45
 70
     1
102
RTVSPropertyOp46
 70
     1
102
RTVSPropertyOp47
 70
     1
102
RTVSPropertyOp48
 70
     1
102
RTVSPropertyOp49
 70
     1
102
RTVSPropertyOp50
 70
     1
102
RTVSPropertyOp51
 70
     0
102
RTVSPropertyOp52
 70
     0
102
RTVSPropertyOp53
 70
     1
102
RTVSPropertyOp54
 70
     1
102
RTVSPropertyOp55
 70
     1
102
RTVSPropertyOp56
 70
     1
102
RTVSPropertyOp57
 70
     1
102
RTVSPost2010Prop28
280
     0
102
RTVSPost2010PropOp28
 70
     1
102
RTVSPost2010Prop29
280
     1
102
RTVSPost2010PropOp29
 70
     1
102
RTVSPost2010Prop30
280
     1
102
RTVSPost2010PropOp30
 70
     1
102
RTVSPost2010Prop31
280
     0
102
RTVSPost2010PropOp31
 70
     1
102
RTVSPost2010Prop32
280
     0
102
RTVSPost2010PropOp32
 70
     1
102
RTVSPost2010Prop33
280
     0
102
RTVSPost2010PropOp33
 70
     1
102
RTVSPost2010Prop34
280
     0
102
RTVSPost2010PropOp34
 70
     1
102
RTVSPost2010Prop35
280
     0
102
RTVSPost2010PropOp35
 70
     1
102
RTVSPost2010Prop36
280
     0
102
RTVSPost2010PropOp36
 70
     1
102
RTVSPost2010Prop37
 90
       50
102
RTVSPost2010PropOp37
 70
     1
102
RTVSPost2010Prop38
140
0.0
102
RTVSPost2010PropOp38
 70
     1
102
RTVSPost2010Prop39
140
1.0
102
RTVSPost2010PropOp39
 70
     1
102
RTVSPost2010Prop40
 90
        0
102
RTVSPost2010PropOp40
 70
     1
102
RTVSPost2010Prop41ColorIndex
 90
       18
102
RTVSPost2010Prop41ColorRGB
 90
        0
102
RTVSPost2010PropOp41
 70
     1
102
RTVSPost2010Prop42
 90
       50
102
RTVSPost2010PropOp42
 70
     1
102
RTVSPost2010Prop43
 90
        3
102
RTVSPost2010PropOp43
 70
     1
102
RTVSPost2010Prop44ColorIndex
 90
        5
102
RTVSPost2010Prop44ColorRGB
 90
      255
102
RTVSPost2010PropOp44
 70
     1
102
RTVSPost2010Prop45
280
     0
102
RTVSPost2010PropOp45
 70
     1
102
RTVSPost2010Prop46
 90
       50
102
RTVSPost2010PropOp46
 70
     1
102
RTVSPost2010Prop47
 90
       50
102
RTVSPost2010PropOp47
 70
     1
102
RTVSPost2010Prop48
 90
       50
102
RTVSPost2010PropOp48
 70
     1
102
RTVSPost2010Prop49
280
     0
102
RTVSPost2010PropOp49
 70
     1
102
RTVSPost2010Prop50
 90
       50
102
RTVSPost2010PropOp50
 70
     1
102
RTVSPost2010Prop51ColorIndex
 90
      256
102
RTVSPost2010Prop51ColorRGB
 90
-16777216
102
RTVSPost2010PropOp51
 70
     0
102
RTVSPost2010Prop52
140
1.0
102
RTVSPost2010PropOp52
 70
     0
102
RTVSPost2010Prop53
 90
        2
102
RTVSPost2010PropOp53
 70
     1
102
RTVSPost2010Prop54
  1
strokes_ogs.tif
102
RTVSPost2010PropOp54
 70
     1
102
RTVSPost2010Prop55
280
     0
102
RTVSPost2010PropOp55
 70
     1
102
RTVSPost2010Prop56
140
1.0
102
RTVSPost2010PropOp56
 70
     1
102
RTVSPost2010Prop57
140
1.0
102
RTVSPost2010PropOp57
 70
     1
  0
XRECORD
  5
338
102
{ACAD_REACTORS
330
337
102
}
330
337
100
AcDbXrecord
280
     1
102
RTVSPropertyOp0
 70
     1
102
RTVSPropertyOp1
 70
     1
102
RTVSPropertyOp2
 70
     1
102
RTVSPropertyOp3
 70
     1
102
RTVSPropertyOp4
 70
     1
102
RTVSPropertyOp5
 70
     1
102
RTVSPropertyOp6
 70
     1
102
RTVSPropertyOp7
 70
     1
102
RTVSPropertyOp8
 70
     1
102
RTVSPropertyOp9
 70
     1
102
RTVSPropertyOp10
 70
     1
102
RTVSPropertyOp11
 70
     1
102
RTVSPropertyOp12
 70
     1
102
RTVSPropertyOp13
 70
     1
102
RTVSPropertyOp14
 70
     1
102
RTVSPropertyOp15
 70
     1
102
RTVSPropertyOp16
 70
     1
102
RTVSPropertyOp17
 70
     1
102
RTVSPropertyOp18
 70
     1
102
RTVSPropertyOp19
 70
     1
102
RTVSPropertyOp20
 70
     1
102
RTVSPropertyOp21
 70
     1
102
RTVSPropertyOp22
 70
     1
102
RTVSPropertyOp23
 70
     1
102
RTVSPropertyOp24
 70
     1
102
RTVSPropertyOp25
 70
     1
102
RTVSPropertyOp26
 70
     1
102
RTVSPropertyOp27
 70
     1
102
RTVSPropertyOp28
 70
     1
102
RTVSPropertyOp29
 70
     1
102
RTVSPropertyOp30
 70
     1
102
RTVSPropertyOp31
 70
     1
102
RTVSPropertyOp32
 70
     1
102
RTVSPropertyOp33
 70
     1
102
RTVSPropertyOp34
 70
     1
102
RTVSPropertyOp35
 70
     1
102
RTVSPropertyOp36
 70
     1
102
RTVSPropertyOp37
 70
     1
102
RTVSPropertyOp38
 70
     1
102
RTVSPropertyOp39
 70
     1
102
RTVSPropertyOp40
 70
     1
102
RTVSPropertyOp41
 70
     1
102
RTVSPropertyOp42
 70
     1
102
RTVSPropertyOp43
 70
     1
102
RTVSPropertyOp44
 70
     1
102
RTVSPropertyOp45
 70
     1
102
RTVSPropertyOp46
 70
     1
102
RTVSPropertyOp47
 70
     1
102
RTVSPropertyOp48
 70
     1
102
RTVSPropertyOp49
 70
     1
102
RTVSPropertyOp50
 70
     1
102
RTVSPropertyOp51
 70
     0
102
RTVSPropertyOp52
 70
     0
102
RTVSPropertyOp53
 70
     1
102
RTVSPropertyOp54
 70
     1
102
RTVSPropertyOp55
 70
     1
102
RTVSPropertyOp56
 70
     1
102
RTVSPropertyOp57
 70
     1
102
RTVSPost2010Prop28
280
     0
102
RTVSPost2010PropOp28
 70
     1
102
RTVSPost2010Prop29
280
     1
102
RTVSPost2010PropOp29
 70
     1
102
RTVSPost2010Prop30
280
     1
102
RTVSPost2010PropOp30
 70
     1
102
RTVSPost2010Prop31
280
     0
102
RTVSPost2010PropOp31
 70
     1
102
RTVSPost2010Prop32
280
     0
102
RTVSPost2010PropOp32
 70
     1
102
RTVSPost2010Prop33
280
     0
102
RTVSPost2010PropOp33
 70
     1
102
RTVSPost2010Prop34
280
     0
102
RTVSPost2010PropOp34
 70
     1
102
RTVSPost2010Prop35
280
     0
102
RTVSPost2010PropOp35
 70
     1
102
RTVSPost2010Prop36
280
     0
102
RTVSPost2010PropOp36
 70
     1
102
RTVSPost2010Prop37
 90
       50
102
RTVSPost2010PropOp37
 70
     1
102
RTVSPost2010Prop38
140
0.0
102
RTVSPost2010PropOp38
 70
     1
102
RTVSPost2010Prop39
140
1.0
102
RTVSPost2010PropOp39
 70
     1
102
RTVSPost2010Prop40
 90
        0
102
RTVSPost2010PropOp40
 70
     1
102
RTVSPost2010Prop41ColorIndex
 90
       18
102
RTVSPost2010Prop41ColorRGB
 90
        0
102
RTVSPost2010PropOp41
 70
     1
102
RTVSPost2010Prop42
 90
       50
102
RTVSPost2010PropOp42
 70
     1
102
RTVSPost2010Prop43
 90
        3
102
RTVSPost2010PropOp43
 70
     1
102
RTVSPost2010Prop44ColorIndex
 90
        5
102
RTVSPost2010Prop44ColorRGB
 90
      255
102
RTVSPost2010PropOp44
 70
     1
102
RTVSPost2010Prop45
280
     0
102
RTVSPost2010PropOp45
 70
     1
102
RTVSPost2010Prop46
 90
       50
102
RTVSPost2010PropOp46
 70
     1
102
RTVSPost2010Prop47
 90
       50
102
RTVSPost2010PropOp47
 70
     1
102
RTVSPost2010Prop48
 90
       50
102
RTVSPost2010PropOp48
 70
     1
102
RTVSPost2010Prop49
280
     0
102
RTVSPost2010PropOp49
 70
     1
102
RTVSPost2010Prop50
 90
       50
102
RTVSPost2010PropOp50
 70
     1
102
RTVSPost2010Prop51ColorIndex
 90
      256
102
RTVSPost2010Prop51ColorRGB
 90
-16777216
102
RTVSPost2010PropOp51
 70
     0
102
RTVSPost2010Prop52
140
1.0
102
RTVSPost2010PropOp52
 70
     0
102
RTVSPost2010Prop53
 90
        2
102
RTVSPost2010PropOp53
 70
     1
102
RTVSPost2010Prop54
  1
strokes_ogs.tif
102
RTVSPost2010PropOp54
 70
     1
102
RTVSPost2010Prop55
280
     0
102
RTVSPost2010PropOp55
 70
     1
102
RTVSPost2010Prop56
140
1.0
102
RTVSPost2010PropOp56
 70
     1
102
RTVSPost2010Prop57
140
1.0
102
RTVSPost2010PropOp57
 70
     1
  0
XRECORD
  5
348
102
{ACAD_REACTORS
330
347
102
}
330
347
100
AcDbXrecord
280
     1
102
RTVSPropertyOp0
 70
     0
102
RTVSPropertyOp1
 70
     0
102
RTVSPropertyOp2
 70
     0
102
RTVSPropertyOp3
 70
     0
102
RTVSPropertyOp4
 70
     0
102
RTVSPropertyOp5
 70
     0
102
RTVSPropertyOp6
 70
     0
102
RTVSPropertyOp7
 70
     0
102
RTVSPropertyOp8
 70
     0
102
RTVSPropertyOp9
 70
     0
102
RTVSPropertyOp10
 70
     0
102
RTVSPropertyOp11
 70
     0
102
RTVSPropertyOp12
 70
     0
102
RTVSPropertyOp13
 70
     0
102
RTVSPropertyOp14
 70
     2
102
RTVSPropertyOp15
 70
     0
102
RTVSPropertyOp16
 70
     0
102
RTVSPropertyOp17
 70
     0
102
RTVSPropertyOp18
 70
     0
102
RTVSPropertyOp19
 70
     0
102
RTVSPropertyOp20
 70
     0
102
RTVSPropertyOp21
 70
     0
102
RTVSPropertyOp22
 70
     0
102
RTVSPropertyOp23
 70
     0
102
RTVSPropertyOp24
 70
     0
102
RTVSPropertyOp25
 70
     0
102
RTVSPropertyOp26
 70
     0
102
RTVSPropertyOp27
 70
     0
102
RTVSPropertyOp28
 70
     0
102
RTVSPropertyOp29
 70
     0
102
RTVSPropertyOp30
 70
     0
102
RTVSPropertyOp31
 70
     0
102
RTVSPropertyOp32
 70
     0
102
RTVSPropertyOp33
 70
     0
102
RTVSPropertyOp34
 70
     0
102
RTVSPropertyOp35
 70
     0
102
RTVSPropertyOp36
 70
     0
102
RTVSPropertyOp37
 70
     0
102
RTVSPropertyOp38
 70
     0
102
RTVSPropertyOp39
 70
     0
102
RTVSPropertyOp40
 70
     0
102
RTVSPropertyOp41
 70
     0
102
RTVSPropertyOp42
 70
     0
102
RTVSPropertyOp43
 70
     0
102
RTVSPropertyOp44
 70
     0
102
RTVSPropertyOp45
 70
     0
102
RTVSPropertyOp46
 70
     0
102
RTVSPropertyOp47
 70
     0
102
RTVSPropertyOp48
 70
     0
102
RTVSPropertyOp49
 70
     0
102
RTVSPropertyOp50
 70
     0
102
RTVSPropertyOp51
 70
     0
102
RTVSPropertyOp52
 70
     0
102
RTVSPropertyOp53
 70
     0
102
RTVSPropertyOp54
 70
     0
102
RTVSPropertyOp55
 70
     0
102
RTVSPropertyOp56
 70
     0
102
RTVSPropertyOp57
 70
     0
102
RTVSPost2010Prop28
280
     0
102
RTVSPost2010PropOp28
 70
     0
102
RTVSPost2010Prop29
280
     1
102
RTVSPost2010PropOp29
 70
     0
102
RTVSPost2010Prop30
280
     1
102
RTVSPost2010PropOp30
 70
     0
102
RTVSPost2010Prop31
280
     0
102
RTVSPost2010PropOp31
 70
     0
102
RTVSPost2010Prop32
280
     0
102
RTVSPost2010PropOp32
 70
     0
102
RTVSPost2010Prop33
280
     0
102
RTVSPost2010PropOp33
 70
     0
102
RTVSPost2010Prop34
280
     0
102
RTVSPost2010PropOp34
 70
     0
102
RTVSPost2010Prop35
280
     0
102
RTVSPost2010PropOp35
 70
     0
102
RTVSPost2010Prop36
280
     0
102
RTVSPost2010PropOp36
 70
     0
102
RTVSPost2010Prop37
 90
       50
102
RTVSPost2010PropOp37
 70
     0
102
RTVSPost2010Prop38
140
0.0
102
RTVSPost2010PropOp38
 70
     0
102
RTVSPost2010Prop39
140
1.0
102
RTVSPost2010PropOp39
 70
     0
102
RTVSPost2010Prop40
 90
        0
102
RTVSPost2010PropOp40
 70
     0
102
RTVSPost2010Prop41ColorIndex
 90
       18
102
RTVSPost2010Prop41ColorRGB
 90
        0
102
RTVSPost2010PropOp41
 70
     0
102
RTVSPost2010Prop42
 90
       50
102
RTVSPost2010PropOp42
 70
     0
102
RTVSPost2010Prop43
 90
        3
102
RTVSPost2010PropOp43
 70
     0
102
RTVSPost2010Prop44ColorIndex
 90
        5
102
RTVSPost2010Prop44ColorRGB
 90
      255
102
RTVSPost2010PropOp44
 70
     0
102
RTVSPost2010Prop45
280
     0
102
RTVSPost2010PropOp45
 70
     0
102
RTVSPost2010Prop46
 90
       50
102
RTVSPost2010PropOp46
 70
     0
102
RTVSPost2010Prop47
 90
       50
102
RTVSPost2010PropOp47
 70
     0
102
RTVSPost2010Prop48
 90
       50
102
RTVSPost2010PropOp48
 70
     0
102
RTVSPost2010Prop49
280
     0
102
RTVSPost2010PropOp49
 70
     0
102
RTVSPost2010Prop50
 90
       50
102
RTVSPost2010PropOp50
 70
     0
102
RTVSPost2010Prop51ColorIndex
 90
      256
102
RTVSPost2010Prop51ColorRGB
 90
-16777216
102
RTVSPost2010PropOp51
 70
     0
102
RTVSPost2010Prop52
140
1.0
102
RTVSPost2010PropOp52
 70
     0
102
RTVSPost2010Prop53
 90
        2
102
RTVSPost2010PropOp53
 70
     0
102
RTVSPost2010Prop54
  1
strokes_ogs.tif
102
RTVSPost2010PropOp54
 70
     0
102
RTVSPost2010Prop55
280
     0
102
RTVSPost2010PropOp55
 70
     0
102
RTVSPost2010Prop56
140
1.0
102
RTVSPost2010PropOp56
 70
     0
102
RTVSPost2010Prop57
140
1.0
102
RTVSPost2010PropOp57
 70
     0
  0
XRECORD
  5
340
102
{ACAD_REACTORS
330
33F
102
}
330
33F
100
AcDbXrecord
280
     1
102
RTVSPropertyOp0
 70
     1
102
RTVSPropertyOp1
 70
     1
102
RTVSPropertyOp2
 70
     1
102
RTVSPropertyOp3
 70
     1
102
RTVSPropertyOp4
 70
     1
102
RTVSPropertyOp5
 70
     1
102
RTVSPropertyOp6
 70
     1
102
RTVSPropertyOp7
 70
     1
102
RTVSPropertyOp8
 70
     1
102
RTVSPropertyOp9
 70
     1
102
RTVSPropertyOp10
 70
     1
102
RTVSPropertyOp11
 70
     1
102
RTVSPropertyOp12
 70
     1
102
RTVSPropertyOp13
 70
     1
102
RTVSPropertyOp14
 70
     1
102
RTVSPropertyOp15
 70
     1
102
RTVSPropertyOp16
 70
     1
102
RTVSPropertyOp17
 70
     1
102
RTVSPropertyOp18
 70
     1
102
RTVSPropertyOp19
 70
     1
102
RTVSPropertyOp20
 70
     1
102
RTVSPropertyOp21
 70
     1
102
RTVSPropertyOp22
 70
     1
102
RTVSPropertyOp23
 70
     1
102
RTVSPropertyOp24
 70
     1
102
RTVSPropertyOp25
 70
     1
102
RTVSPropertyOp26
 70
     1
102
RTVSPropertyOp27
 70
     1
102
RTVSPropertyOp28
 70
     1
102
RTVSPropertyOp29
 70
     1
102
RTVSPropertyOp30
 70
     1
102
RTVSPropertyOp31
 70
     1
102
RTVSPropertyOp32
 70
     1
102
RTVSPropertyOp33
 70
     1
102
RTVSPropertyOp34
 70
     1
102
RTVSPropertyOp35
 70
     1
102
RTVSPropertyOp36
 70
     1
102
RTVSPropertyOp37
 70
     1
102
RTVSPropertyOp38
 70
     1
102
RTVSPropertyOp39
 70
     1
102
RTVSPropertyOp40
 70
     1
102
RTVSPropertyOp41
 70
     1
102
RTVSPropertyOp42
 70
     1
102
RTVSPropertyOp43
 70
     1
102
RTVSPropertyOp44
 70
     1
102
RTVSPropertyOp45
 70
     1
102
RTVSPropertyOp46
 70
     1
102
RTVSPropertyOp47
 70
     1
102
RTVSPropertyOp48
 70
     1
102
RTVSPropertyOp49
 70
     1
102
RTVSPropertyOp50
 70
     1
102
RTVSPropertyOp51
 70
     0
102
RTVSPropertyOp52
 70
     0
102
RTVSPropertyOp53
 70
     1
102
RTVSPropertyOp54
 70
     1
102
RTVSPropertyOp55
 70
     1
102
RTVSPropertyOp56
 70
     1
102
RTVSPropertyOp57
 70
     1
102
RTVSPost2010Prop28
280
     0
102
RTVSPost2010PropOp28
 70
     1
102
RTVSPost2010Prop29
280
     1
102
RTVSPost2010PropOp29
 70
     1
102
RTVSPost2010Prop30
280
     1
102
RTVSPost2010PropOp30
 70
     1
102
RTVSPost2010Prop31
280
     0
102
RTVSPost2010PropOp31
 70
     1
102
RTVSPost2010Prop32
280
     0
102
RTVSPost2010PropOp32
 70
     1
102
RTVSPost2010Prop33
280
     0
102
RTVSPost2010PropOp33
 70
     1
102
RTVSPost2010Prop34
280
     0
102
RTVSPost2010PropOp34
 70
     1
102
RTVSPost2010Prop35
280
     0
102
RTVSPost2010PropOp35
 70
     1
102
RTVSPost2010Prop36
280
     0
102
RTVSPost2010PropOp36
 70
     1
102
RTVSPost2010Prop37
 90
       50
102
RTVSPost2010PropOp37
 70
     1
102
RTVSPost2010Prop38
140
0.0
102
RTVSPost2010PropOp38
 70
     1
102
RTVSPost2010Prop39
140
1.0
102
RTVSPost2010PropOp39
 70
     1
102
RTVSPost2010Prop40
 90
        0
102
RTVSPost2010PropOp40
 70
     1
102
RTVSPost2010Prop41ColorIndex
 90
       18
102
RTVSPost2010Prop41ColorRGB
 90
        0
102
RTVSPost2010PropOp41
 70
     1
102
RTVSPost2010Prop42
 90
       50
102
RTVSPost2010PropOp42
 70
     1
102
RTVSPost2010Prop43
 90
        3
102
RTVSPost2010PropOp43
 70
     1
102
RTVSPost2010Prop44ColorIndex
 90
        5
102
RTVSPost2010Prop44ColorRGB
 90
      255
102
RTVSPost2010PropOp44
 70
     1
102
RTVSPost2010Prop45
280
     0
102
RTVSPost2010PropOp45
 70
     1
102
RTVSPost2010Prop46
 90
       50
102
RTVSPost2010PropOp46
 70
     1
102
RTVSPost2010Prop47
 90
       50
102
RTVSPost2010PropOp47
 70
     1
102
RTVSPost2010Prop48
 90
       50
102
RTVSPost2010PropOp48
 70
     1
102
RTVSPost2010Prop49
280
     0
102
RTVSPost2010PropOp49
 70
     1
102
RTVSPost2010Prop50
 90
       50
102
RTVSPost2010PropOp50
 70
     1
102
RTVSPost2010Prop51ColorIndex
 90
      256
102
RTVSPost2010Prop51ColorRGB
 90
-16777216
102
RTVSPost2010PropOp51
 70
     0
102
RTVSPost2010Prop52
140
1.0
102
RTVSPost2010PropOp52
 70
     0
102
RTVSPost2010Prop53
 90
        2
102
RTVSPost2010PropOp53
 70
     1
102
RTVSPost2010Prop54
  1
strokes_ogs.tif
102
RTVSPost2010PropOp54
 70
     1
102
RTVSPost2010Prop55
280
     0
102
RTVSPost2010PropOp55
 70
     1
102
RTVSPost2010Prop56
140
1.0
102
RTVSPost2010PropOp56
 70
     1
102
RTVSPost2010Prop57
140
1.0
102
RTVSPost2010PropOp57
 70
     1
  0
XRECORD
  5
324
102
{ACAD_REACTORS
330
323
102
}
330
323
100
AcDbXrecord
280
     1
102
RTVSPropertyOp0
 70
     1
102
RTVSPropertyOp1
 70
     1
102
RTVSPropertyOp2
 70
     1
102
RTVSPropertyOp3
 70
     1
102
RTVSPropertyOp4
 70
     1
102
RTVSPropertyOp5
 70
     1
102
RTVSPropertyOp6
 70
     1
102
RTVSPropertyOp7
 70
     1
102
RTVSPropertyOp8
 70
     1
102
RTVSPropertyOp9
 70
     1
102
RTVSPropertyOp10
 70
     1
102
RTVSPropertyOp11
 70
     1
102
RTVSPropertyOp12
 70
     1
102
RTVSPropertyOp13
 70
     1
102
RTVSPropertyOp14
 70
     1
102
RTVSPropertyOp15
 70
     1
102
RTVSPropertyOp16
 70
     1
102
RTVSPropertyOp17
 70
     1
102
RTVSPropertyOp18
 70
     1
102
RTVSPropertyOp19
 70
     1
102
RTVSPropertyOp20
 70
     1
102
RTVSPropertyOp21
 70
     1
102
RTVSPropertyOp22
 70
     1
102
RTVSPropertyOp23
 70
     1
102
RTVSPropertyOp24
 70
     1
102
RTVSPropertyOp25
 70
     1
102
RTVSPropertyOp26
 70
     1
102
RTVSPropertyOp27
 70
     1
102
RTVSPropertyOp28
 70
     1
102
RTVSPropertyOp29
 70
     1
102
RTVSPropertyOp30
 70
     1
102
RTVSPropertyOp31
 70
     1
102
RTVSPropertyOp32
 70
     1
102
RTVSPropertyOp33
 70
     1
102
RTVSPropertyOp34
 70
     1
102
RTVSPropertyOp35
 70
     1
102
RTVSPropertyOp36
 70
     1
102
RTVSPropertyOp37
 70
     1
102
RTVSPropertyOp38
 70
     1
102
RTVSPropertyOp39
 70
     1
102
RTVSPropertyOp40
 70
     1
102
RTVSPropertyOp41
 70
     1
102
RTVSPropertyOp42
 70
     1
102
RTVSPropertyOp43
 70
     1
102
RTVSPropertyOp44
 70
     1
102
RTVSPropertyOp45
 70
     1
102
RTVSPropertyOp46
 70
     1
102
RTVSPropertyOp47
 70
     1
102
RTVSPropertyOp48
 70
     1
102
RTVSPropertyOp49
 70
     1
102
RTVSPropertyOp50
 70
     1
102
RTVSPropertyOp51
 70
     0
102
RTVSPropertyOp52
 70
     0
102
RTVSPropertyOp53
 70
     1
102
RTVSPropertyOp54
 70
     1
102
RTVSPropertyOp55
 70
     1
102
RTVSPropertyOp56
 70
     1
102
RTVSPropertyOp57
 70
     1
102
RTVSPost2010Prop28
280
     0
102
RTVSPost2010PropOp28
 70
     1
102
RTVSPost2010Prop29
280
     1
102
RTVSPost2010PropOp29
 70
     1
102
RTVSPost2010Prop30
280
     1
102
RTVSPost2010PropOp30
 70
     1
102
RTVSPost2010Prop31
280
     0
102
RTVSPost2010PropOp31
 70
     1
102
RTVSPost2010Prop32
280
     0
102
RTVSPost2010PropOp32
 70
     1
102
RTVSPost2010Prop33
280
     0
102
RTVSPost2010PropOp33
 70
     1
102
RTVSPost2010Prop34
280
     0
102
RTVSPost2010PropOp34
 70
     1
102
RTVSPost2010Prop35
280
     0
102
RTVSPost2010PropOp35
 70
     1
102
RTVSPost2010Prop36
280
     0
102
RTVSPost2010PropOp36
 70
     1
102
RTVSPost2010Prop37
 90
       50
102
RTVSPost2010PropOp37
 70
     1
102
RTVSPost2010Prop38
140
0.0
102
RTVSPost2010PropOp38
 70
     1
102
RTVSPost2010Prop39
140
1.0
102
RTVSPost2010PropOp39
 70
     1
102
RTVSPost2010Prop40
 90
        0
102
RTVSPost2010PropOp40
 70
     1
102
RTVSPost2010Prop41ColorIndex
 90
       18
102
RTVSPost2010Prop41ColorRGB
 90
        0
102
RTVSPost2010PropOp41
 70
     1
102
RTVSPost2010Prop42
 90
       50
102
RTVSPost2010PropOp42
 70
     1
102
RTVSPost2010Prop43
 90
        3
102
RTVSPost2010PropOp43
 70
     1
102
RTVSPost2010Prop44ColorIndex
 90
        5
102
RTVSPost2010Prop44ColorRGB
 90
      255
102
RTVSPost2010PropOp44
 70
     1
102
RTVSPost2010Prop45
280
     0
102
RTVSPost2010PropOp45
 70
     1
102
RTVSPost2010Prop46
 90
       50
102
RTVSPost2010PropOp46
 70
     1
102
RTVSPost2010Prop47
 90
       50
102
RTVSPost2010PropOp47
 70
     1
102
RTVSPost2010Prop48
 90
       50
102
RTVSPost2010PropOp48
 70
     1
102
RTVSPost2010Prop49
280
     0
102
RTVSPost2010PropOp49
 70
     1
102
RTVSPost2010Prop50
 90
       50
102
RTVSPost2010PropOp50
 70
     1
102
RTVSPost2010Prop51ColorIndex
 90
      256
102
RTVSPost2010Prop51ColorRGB
 90
-16777216
102
RTVSPost2010PropOp51
 70
     0
102
RTVSPost2010Prop52
140
1.0
102
RTVSPost2010PropOp52
 70
     0
102
RTVSPost2010Prop53
 90
        2
102
RTVSPost2010PropOp53
 70
     1
102
RTVSPost2010Prop54
  1
strokes_ogs.tif
102
RTVSPost2010PropOp54
 70
     1
102
RTVSPost2010Prop55
280
     0
102
RTVSPost2010PropOp55
 70
     1
102
RTVSPost2010Prop56
140
1.0
102
RTVSPost2010PropOp56
 70
     1
102
RTVSPost2010Prop57
140
1.0
102
RTVSPost2010PropOp57
 70
     1
  0
XRECORD
  5
326
102
{ACAD_REACTORS
330
325
102
}
330
325
100
AcDbXrecord
280
     1
102
RTVSPropertyOp0
 70
     1
102
RTVSPropertyOp1
 70
     1
102
RTVSPropertyOp2
 70
     1
102
RTVSPropertyOp3
 70
     1
102
RTVSPropertyOp4
 70
     1
102
RTVSPropertyOp5
 70
     1
102
RTVSPropertyOp6
 70
     1
102
RTVSPropertyOp7
 70
     1
102
RTVSPropertyOp8
 70
     1
102
RTVSPropertyOp9
 70
     1
102
RTVSPropertyOp10
 70
     1
102
RTVSPropertyOp11
 70
     1
102
RTVSPropertyOp12
 70
     1
102
RTVSPropertyOp13
 70
     1
102
RTVSPropertyOp14
 70
     1
102
RTVSPropertyOp15
 70
     1
102
RTVSPropertyOp16
 70
     1
102
RTVSPropertyOp17
 70
     1
102
RTVSPropertyOp18
 70
     1
102
RTVSPropertyOp19
 70
     1
102
RTVSPropertyOp20
 70
     1
102
RTVSPropertyOp21
 70
     1
102
RTVSPropertyOp22
 70
     1
102
RTVSPropertyOp23
 70
     1
102
RTVSPropertyOp24
 70
     1
102
RTVSPropertyOp25
 70
     1
102
RTVSPropertyOp26
 70
     1
102
RTVSPropertyOp27
 70
     1
102
RTVSPropertyOp28
 70
     1
102
RTVSPropertyOp29
 70
     1
102
RTVSPropertyOp30
 70
     1
102
RTVSPropertyOp31
 70
     1
102
RTVSPropertyOp32
 70
     1
102
RTVSPropertyOp33
 70
     1
102
RTVSPropertyOp34
 70
     1
102
RTVSPropertyOp35
 70
     1
102
RTVSPropertyOp36
 70
     1
102
RTVSPropertyOp37
 70
     1
102
RTVSPropertyOp38
 70
     1
102
RTVSPropertyOp39
 70
     1
102
RTVSPropertyOp40
 70
     1
102
RTVSPropertyOp41
 70
     1
102
RTVSPropertyOp42
 70
     1
102
RTVSPropertyOp43
 70
     1
102
RTVSPropertyOp44
 70
     1
102
RTVSPropertyOp45
 70
     1
102
RTVSPropertyOp46
 70
     1
102
RTVSPropertyOp47
 70
     1
102
RTVSPropertyOp48
 70
     1
102
RTVSPropertyOp49
 70
     1
102
RTVSPropertyOp50
 70
     1
102
RTVSPropertyOp51
 70
     0
102
RTVSPropertyOp52
 70
     0
102
RTVSPropertyOp53
 70
     1
102
RTVSPropertyOp54
 70
     1
102
RTVSPropertyOp55
 70
     1
102
RTVSPropertyOp56
 70
     1
102
RTVSPropertyOp57
 70
     1
102
RTVSPost2010Prop28
280
     0
102
RTVSPost2010PropOp28
 70
     1
102
RTVSPost2010Prop29
280
     1
102
RTVSPost2010PropOp29
 70
     1
102
RTVSPost2010Prop30
280
     1
102
RTVSPost2010PropOp30
 70
     1
102
RTVSPost2010Prop31
280
     0
102
RTVSPost2010PropOp31
 70
     1
102
RTVSPost2010Prop32
280
     0
102
RTVSPost2010PropOp32
 70
     1
102
RTVSPost2010Prop33
280
     0
102
RTVSPost2010PropOp33
 70
     1
102
RTVSPost2010Prop34
280
     0
102
RTVSPost2010PropOp34
 70
     1
102
RTVSPost2010Prop35
280
     0
102
RTVSPost2010PropOp35
 70
     1
102
RTVSPost2010Prop36
280
     0
102
RTVSPost2010PropOp36
 70
     1
102
RTVSPost2010Prop37
 90
       50
102
RTVSPost2010PropOp37
 70
     1
102
RTVSPost2010Prop38
140
0.0
102
RTVSPost2010PropOp38
 70
     1
102
RTVSPost2010Prop39
140
1.0
102
RTVSPost2010PropOp39
 70
     1
102
RTVSPost2010Prop40
 90
        0
102
RTVSPost2010PropOp40
 70
     1
102
RTVSPost2010Prop41ColorIndex
 90
       18
102
RTVSPost2010Prop41ColorRGB
 90
        0
102
RTVSPost2010PropOp41
 70
     1
102
RTVSPost2010Prop42
 90
       50
102
RTVSPost2010PropOp42
 70
     1
102
RTVSPost2010Prop43
 90
        3
102
RTVSPost2010PropOp43
 70
     1
102
RTVSPost2010Prop44ColorIndex
 90
        5
102
RTVSPost2010Prop44ColorRGB
 90
      255
102
RTVSPost2010PropOp44
 70
     1
102
RTVSPost2010Prop45
280
     0
102
RTVSPost2010PropOp45
 70
     1
102
RTVSPost2010Prop46
 90
       50
102
RTVSPost2010PropOp46
 70
     1
102
RTVSPost2010Prop47
 90
       50
102
RTVSPost2010PropOp47
 70
     1
102
RTVSPost2010Prop48
 90
       50
102
RTVSPost2010PropOp48
 70
     1
102
RTVSPost2010Prop49
280
     0
102
RTVSPost2010PropOp49
 70
     1
102
RTVSPost2010Prop50
 90
       50
102
RTVSPost2010PropOp50
 70
     1
102
RTVSPost2010Prop51ColorIndex
 90
      256
102
RTVSPost2010Prop51ColorRGB
 90
-16777216
102
RTVSPost2010PropOp51
 70
     0
102
RTVSPost2010Prop52
140
1.0
102
RTVSPost2010PropOp52
 70
     0
102
RTVSPost2010Prop53
 90
        2
102
RTVSPost2010PropOp53
 70
     1
102
RTVSPost2010Prop54
  1
strokes_ogs.tif
102
RTVSPost2010PropOp54
 70
     1
102
RTVSPost2010Prop55
280
     0
102
RTVSPost2010PropOp55
 70
     1
102
RTVSPost2010Prop56
140
1.0
102
RTVSPost2010PropOp56
 70
     1
102
RTVSPost2010Prop57
140
1.0
102
RTVSPost2010PropOp57
 70
     1
  0
XRECORD
  5
328
102
{ACAD_REACTORS
330
327
102
}
330
327
100
AcDbXrecord
280
     1
102
RTVSPropertyOp0
 70
     1
102
RTVSPropertyOp1
 70
     1
102
RTVSPropertyOp2
 70
     1
102
RTVSPropertyOp3
 70
     1
102
RTVSPropertyOp4
 70
     1
102
RTVSPropertyOp5
 70
     1
102
RTVSPropertyOp6
 70
     1
102
RTVSPropertyOp7
 70
     1
102
RTVSPropertyOp8
 70
     1
102
RTVSPropertyOp9
 70
     1
102
RTVSPropertyOp10
 70
     1
102
RTVSPropertyOp11
 70
     1
102
RTVSPropertyOp12
 70
     1
102
RTVSPropertyOp13
 70
     1
102
RTVSPropertyOp14
 70
     1
102
RTVSPropertyOp15
 70
     1
102
RTVSPropertyOp16
 70
     1
102
RTVSPropertyOp17
 70
     1
102
RTVSPropertyOp18
 70
     1
102
RTVSPropertyOp19
 70
     1
102
RTVSPropertyOp20
 70
     1
102
RTVSPropertyOp21
 70
     1
102
RTVSPropertyOp22
 70
     1
102
RTVSPropertyOp23
 70
     1
102
RTVSPropertyOp24
 70
     1
102
RTVSPropertyOp25
 70
     1
102
RTVSPropertyOp26
 70
     1
102
RTVSPropertyOp27
 70
     1
102
RTVSPropertyOp28
 70
     1
102
RTVSPropertyOp29
 70
     1
102
RTVSPropertyOp30
 70
     1
102
RTVSPropertyOp31
 70
     1
102
RTVSPropertyOp32
 70
     1
102
RTVSPropertyOp33
 70
     1
102
RTVSPropertyOp34
 70
     1
102
RTVSPropertyOp35
 70
     1
102
RTVSPropertyOp36
 70
     1
102
RTVSPropertyOp37
 70
     1
102
RTVSPropertyOp38
 70
     1
102
RTVSPropertyOp39
 70
     1
102
RTVSPropertyOp40
 70
     1
102
RTVSPropertyOp41
 70
     1
102
RTVSPropertyOp42
 70
     1
102
RTVSPropertyOp43
 70
     1
102
RTVSPropertyOp44
 70
     1
102
RTVSPropertyOp45
 70
     1
102
RTVSPropertyOp46
 70
     1
102
RTVSPropertyOp47
 70
     1
102
RTVSPropertyOp48
 70
     1
102
RTVSPropertyOp49
 70
     1
102
RTVSPropertyOp50
 70
     1
102
RTVSPropertyOp51
 70
     0
102
RTVSPropertyOp52
 70
     0
102
RTVSPropertyOp53
 70
     1
102
RTVSPropertyOp54
 70
     1
102
RTVSPropertyOp55
 70
     1
102
RTVSPropertyOp56
 70
     1
102
RTVSPropertyOp57
 70
     1
102
RTVSPost2010Prop28
280
     0
102
RTVSPost2010PropOp28
 70
     1
102
RTVSPost2010Prop29
280
     1
102
RTVSPost2010PropOp29
 70
     1
102
RTVSPost2010Prop30
280
     1
102
RTVSPost2010PropOp30
 70
     1
102
RTVSPost2010Prop31
280
     0
102
RTVSPost2010PropOp31
 70
     1
102
RTVSPost2010Prop32
280
     0
102
RTVSPost2010PropOp32
 70
     1
102
RTVSPost2010Prop33
280
     0
102
RTVSPost2010PropOp33
 70
     1
102
RTVSPost2010Prop34
280
     0
102
RTVSPost2010PropOp34
 70
     1
102
RTVSPost2010Prop35
280
     0
102
RTVSPost2010PropOp35
 70
     1
102
RTVSPost2010Prop36
280
     0
102
RTVSPost2010PropOp36
 70
     1
102
RTVSPost2010Prop37
 90
       50
102
RTVSPost2010PropOp37
 70
     1
102
RTVSPost2010Prop38
140
0.0
102
RTVSPost2010PropOp38
 70
     1
102
RTVSPost2010Prop39
140
1.0
102
RTVSPost2010PropOp39
 70
     1
102
RTVSPost2010Prop40
 90
        0
102
RTVSPost2010PropOp40
 70
     1
102
RTVSPost2010Prop41ColorIndex
 90
       18
102
RTVSPost2010Prop41ColorRGB
 90
        0
102
RTVSPost2010PropOp41
 70
     1
102
RTVSPost2010Prop42
 90
       50
102
RTVSPost2010PropOp42
 70
     1
102
RTVSPost2010Prop43
 90
        3
102
RTVSPost2010PropOp43
 70
     1
102
RTVSPost2010Prop44ColorIndex
 90
        5
102
RTVSPost2010Prop44ColorRGB
 90
      255
102
RTVSPost2010PropOp44
 70
     1
102
RTVSPost2010Prop45
280
     0
102
RTVSPost2010PropOp45
 70
     1
102
RTVSPost2010Prop46
 90
       50
102
RTVSPost2010PropOp46
 70
     1
102
RTVSPost2010Prop47
 90
       50
102
RTVSPost2010PropOp47
 70
     1
102
RTVSPost2010Prop48
 90
       50
102
RTVSPost2010PropOp48
 70
     1
102
RTVSPost2010Prop49
280
     0
102
RTVSPost2010PropOp49
 70
     1
102
RTVSPost2010Prop50
 90
       50
102
RTVSPost2010PropOp50
 70
     1
102
RTVSPost2010Prop51ColorIndex
 90
      256
102
RTVSPost2010Prop51ColorRGB
 90
-16777216
102
RTVSPost2010PropOp51
 70
     0
102
RTVSPost2010Prop52
140
1.0
102
RTVSPost2010PropOp52
 70
     0
102
RTVSPost2010Prop53
 90
        2
102
RTVSPost2010PropOp53
 70
     1
102
RTVSPost2010Prop54
  1
strokes_ogs.tif
102
RTVSPost2010PropOp54
 70
     1
102
RTVSPost2010Prop55
280
     0
102
RTVSPost2010PropOp55
 70
     1
102
RTVSPost2010Prop56
140
1.0
102
RTVSPost2010PropOp56
 70
     1
102
RTVSPost2010Prop57
140
1.0
102
RTVSPost2010PropOp57
 70
     1
  0
XRECORD
  5
32A
102
{ACAD_REACTORS
330
329
102
}
330
329
100
AcDbXrecord
280
     1
102
RTVSPropertyOp0
 70
     1
102
RTVSPropertyOp1
 70
     1
102
RTVSPropertyOp2
 70
     1
102
RTVSPropertyOp3
 70
     1
102
RTVSPropertyOp4
 70
     1
102
RTVSPropertyOp5
 70
     1
102
RTVSPropertyOp6
 70
     1
102
RTVSPropertyOp7
 70
     1
102
RTVSPropertyOp8
 70
     1
102
RTVSPropertyOp9
 70
     1
102
RTVSPropertyOp10
 70
     1
102
RTVSPropertyOp11
 70
     1
102
RTVSPropertyOp12
 70
     1
102
RTVSPropertyOp13
 70
     1
102
RTVSPropertyOp14
 70
     1
102
RTVSPropertyOp15
 70
     1
102
RTVSPropertyOp16
 70
     1
102
RTVSPropertyOp17
 70
     1
102
RTVSPropertyOp18
 70
     1
102
RTVSPropertyOp19
 70
     1
102
RTVSPropertyOp20
 70
     1
102
RTVSPropertyOp21
 70
     1
102
RTVSPropertyOp22
 70
     1
102
RTVSPropertyOp23
 70
     1
102
RTVSPropertyOp24
 70
     1
102
RTVSPropertyOp25
 70
     1
102
RTVSPropertyOp26
 70
     1
102
RTVSPropertyOp27
 70
     1
102
RTVSPropertyOp28
 70
     1
102
RTVSPropertyOp29
 70
     1
102
RTVSPropertyOp30
 70
     1
102
RTVSPropertyOp31
 70
     1
102
RTVSPropertyOp32
 70
     1
102
RTVSPropertyOp33
 70
     1
102
RTVSPropertyOp34
 70
     1
102
RTVSPropertyOp35
 70
     1
102
RTVSPropertyOp36
 70
     1
102
RTVSPropertyOp37
 70
     1
102
RTVSPropertyOp38
 70
     1
102
RTVSPropertyOp39
 70
     1
102
RTVSPropertyOp40
 70
     1
102
RTVSPropertyOp41
 70
     1
102
RTVSPropertyOp42
 70
     1
102
RTVSPropertyOp43
 70
     1
102
RTVSPropertyOp44
 70
     1
102
RTVSPropertyOp45
 70
     1
102
RTVSPropertyOp46
 70
     1
102
RTVSPropertyOp47
 70
     1
102
RTVSPropertyOp48
 70
     1
102
RTVSPropertyOp49
 70
     1
102
RTVSPropertyOp50
 70
     1
102
RTVSPropertyOp51
 70
     0
102
RTVSPropertyOp52
 70
     0
102
RTVSPropertyOp53
 70
     1
102
RTVSPropertyOp54
 70
     1
102
RTVSPropertyOp55
 70
     1
102
RTVSPropertyOp56
 70
     1
102
RTVSPropertyOp57
 70
     1
102
RTVSPost2010Prop28
280
     0
102
RTVSPost2010PropOp28
 70
     1
102
RTVSPost2010Prop29
280
     1
102
RTVSPost2010PropOp29
 70
     1
102
RTVSPost2010Prop30
280
     1
102
RTVSPost2010PropOp30
 70
     1
102
RTVSPost2010Prop31
280
     0
102
RTVSPost2010PropOp31
 70
     1
102
RTVSPost2010Prop32
280
     0
102
RTVSPost2010PropOp32
 70
     1
102
RTVSPost2010Prop33
280
     0
102
RTVSPost2010PropOp33
 70
     1
102
RTVSPost2010Prop34
280
     0
102
RTVSPost2010PropOp34
 70
     1
102
RTVSPost2010Prop35
280
     0
102
RTVSPost2010PropOp35
 70
     1
102
RTVSPost2010Prop36
280
     0
102
RTVSPost2010PropOp36
 70
     1
102
RTVSPost2010Prop37
 90
       50
102
RTVSPost2010PropOp37
 70
     1
102
RTVSPost2010Prop38
140
0.0
102
RTVSPost2010PropOp38
 70
     1
102
RTVSPost2010Prop39
140
1.0
102
RTVSPost2010PropOp39
 70
     1
102
RTVSPost2010Prop40
 90
        0
102
RTVSPost2010PropOp40
 70
     1
102
RTVSPost2010Prop41ColorIndex
 90
       18
102
RTVSPost2010Prop41ColorRGB
 90
        0
102
RTVSPost2010PropOp41
 70
     1
102
RTVSPost2010Prop42
 90
       50
102
RTVSPost2010PropOp42
 70
     1
102
RTVSPost2010Prop43
 90
        3
102
RTVSPost2010PropOp43
 70
     1
102
RTVSPost2010Prop44ColorIndex
 90
        5
102
RTVSPost2010Prop44ColorRGB
 90
      255
102
RTVSPost2010PropOp44
 70
     1
102
RTVSPost2010Prop45
280
     0
102
RTVSPost2010PropOp45
 70
     1
102
RTVSPost2010Prop46
 90
       50
102
RTVSPost2010PropOp46
 70
     1
102
RTVSPost2010Prop47
 90
       50
102
RTVSPost2010PropOp47
 70
     1
102
RTVSPost2010Prop48
 90
       50
102
RTVSPost2010PropOp48
 70
     1
102
RTVSPost2010Prop49
280
     0
102
RTVSPost2010PropOp49
 70
     1
102
RTVSPost2010Prop50
 90
       50
102
RTVSPost2010PropOp50
 70
     1
102
RTVSPost2010Prop51ColorIndex
 90
      256
102
RTVSPost2010Prop51ColorRGB
 90
-16777216
102
RTVSPost2010PropOp51
 70
     0
102
RTVSPost2010Prop52
140
1.0
102
RTVSPost2010PropOp52
 70
     0
102
RTVSPost2010Prop53
 90
        2
102
RTVSPost2010PropOp53
 70
     1
102
RTVSPost2010Prop54
  1
strokes_ogs.tif
102
RTVSPost2010PropOp54
 70
     1
102
RTVSPost2010Prop55
280
     0
102
RTVSPost2010PropOp55
 70
     1
102
RTVSPost2010Prop56
140
1.0
102
RTVSPost2010PropOp56
 70
     1
102
RTVSPost2010Prop57
140
1.0
102
RTVSPost2010PropOp57
 70
     1
  0
XRECORD
  5
330
102
{ACAD_REACTORS
330
32F
102
}
330
32F
100
AcDbXrecord
280
     1
102
RTVSPropertyOp0
 70
     1
102
RTVSPropertyOp1
 70
     1
102
RTVSPropertyOp2
 70
     1
102
RTVSPropertyOp3
 70
     1
102
RTVSPropertyOp4
 70
     1
102
RTVSPropertyOp5
 70
     1
102
RTVSPropertyOp6
 70
     1
102
RTVSPropertyOp7
 70
     1
102
RTVSPropertyOp8
 70
     1
102
RTVSPropertyOp9
 70
     1
102
RTVSPropertyOp10
 70
     1
102
RTVSPropertyOp11
 70
     1
102
RTVSPropertyOp12
 70
     1
102
RTVSPropertyOp13
 70
     1
102
RTVSPropertyOp14
 70
     1
102
RTVSPropertyOp15
 70
     1
102
RTVSPropertyOp16
 70
     1
102
RTVSPropertyOp17
 70
     1
102
RTVSPropertyOp18
 70
     1
102
RTVSPropertyOp19
 70
     1
102
RTVSPropertyOp20
 70
     1
102
RTVSPropertyOp21
 70
     1
102
RTVSPropertyOp22
 70
     1
102
RTVSPropertyOp23
 70
     1
102
RTVSPropertyOp24
 70
     1
102
RTVSPropertyOp25
 70
     1
102
RTVSPropertyOp26
 70
     1
102
RTVSPropertyOp27
 70
     1
102
RTVSPropertyOp28
 70
     1
102
RTVSPropertyOp29
 70
     1
102
RTVSPropertyOp30
 70
     1
102
RTVSPropertyOp31
 70
     1
102
RTVSPropertyOp32
 70
     1
102
RTVSPropertyOp33
 70
     1
102
RTVSPropertyOp34
 70
     1
102
RTVSPropertyOp35
 70
     1
102
RTVSPropertyOp36
 70
     1
102
RTVSPropertyOp37
 70
     1
102
RTVSPropertyOp38
 70
     1
102
RTVSPropertyOp39
 70
     1
102
RTVSPropertyOp40
 70
     1
102
RTVSPropertyOp41
 70
     1
102
RTVSPropertyOp42
 70
     1
102
RTVSPropertyOp43
 70
     1
102
RTVSPropertyOp44
 70
     1
102
RTVSPropertyOp45
 70
     1
102
RTVSPropertyOp46
 70
     1
102
RTVSPropertyOp47
 70
     1
102
RTVSPropertyOp48
 70
     1
102
RTVSPropertyOp49
 70
     1
102
RTVSPropertyOp50
 70
     1
102
RTVSPropertyOp51
 70
     0
102
RTVSPropertyOp52
 70
     0
102
RTVSPropertyOp53
 70
     1
102
RTVSPropertyOp54
 70
     1
102
RTVSPropertyOp55
 70
     1
102
RTVSPropertyOp56
 70
     1
102
RTVSPropertyOp57
 70
     1
102
RTVSPost2010Prop28
280
     0
102
RTVSPost2010PropOp28
 70
     1
102
RTVSPost2010Prop29
280
     1
102
RTVSPost2010PropOp29
 70
     1
102
RTVSPost2010Prop30
280
     1
102
RTVSPost2010PropOp30
 70
     1
102
RTVSPost2010Prop31
280
     0
102
RTVSPost2010PropOp31
 70
     1
102
RTVSPost2010Prop32
280
     0
102
RTVSPost2010PropOp32
 70
     1
102
RTVSPost2010Prop33
280
     0
102
RTVSPost2010PropOp33
 70
     1
102
RTVSPost2010Prop34
280
     0
102
RTVSPost2010PropOp34
 70
     1
102
RTVSPost2010Prop35
280
     0
102
RTVSPost2010PropOp35
 70
     1
102
RTVSPost2010Prop36
280
     0
102
RTVSPost2010PropOp36
 70
     1
102
RTVSPost2010Prop37
 90
       50
102
RTVSPost2010PropOp37
 70
     1
102
RTVSPost2010Prop38
140
0.0
102
RTVSPost2010PropOp38
 70
     1
102
RTVSPost2010Prop39
140
1.0
102
RTVSPost2010PropOp39
 70
     1
102
RTVSPost2010Prop40
 90
        0
102
RTVSPost2010PropOp40
 70
     1
102
RTVSPost2010Prop41ColorIndex
 90
       18
102
RTVSPost2010Prop41ColorRGB
 90
        0
102
RTVSPost2010PropOp41
 70
     1
102
RTVSPost2010Prop42
 90
       50
102
RTVSPost2010PropOp42
 70
     1
102
RTVSPost2010Prop43
 90
        3
102
RTVSPost2010PropOp43
 70
     1
102
RTVSPost2010Prop44ColorIndex
 90
        5
102
RTVSPost2010Prop44ColorRGB
 90
      255
102
RTVSPost2010PropOp44
 70
     1
102
RTVSPost2010Prop45
280
     0
102
RTVSPost2010PropOp45
 70
     1
102
RTVSPost2010Prop46
 90
       50
102
RTVSPost2010PropOp46
 70
     1
102
RTVSPost2010Prop47
 90
       50
102
RTVSPost2010PropOp47
 70
     1
102
RTVSPost2010Prop48
 90
       50
102
RTVSPost2010PropOp48
 70
     1
102
RTVSPost2010Prop49
280
     0
102
RTVSPost2010PropOp49
 70
     1
102
RTVSPost2010Prop50
 90
       50
102
RTVSPost2010PropOp50
 70
     1
102
RTVSPost2010Prop51ColorIndex
 90
      256
102
RTVSPost2010Prop51ColorRGB
 90
-16777216
102
RTVSPost2010PropOp51
 70
     0
102
RTVSPost2010Prop52
140
1.0
102
RTVSPost2010PropOp52
 70
     0
102
RTVSPost2010Prop53
 90
        2
102
RTVSPost2010PropOp53
 70
     1
102
RTVSPost2010Prop54
  1
strokes_ogs.tif
102
RTVSPost2010PropOp54
 70
     1
102
RTVSPost2010Prop55
280
     0
102
RTVSPost2010PropOp55
 70
     1
102
RTVSPost2010Prop56
140
1.0
102
RTVSPost2010PropOp56
 70
     1
102
RTVSPost2010Prop57
140
1.0
102
RTVSPost2010PropOp57
 70
     1
  0
XRECORD
  5
344
102
{ACAD_REACTORS
330
343
102
}
330
343
100
AcDbXrecord
280
     1
102
RTVSPropertyOp0
 70
     0
102
RTVSPropertyOp1
 70
     0
102
RTVSPropertyOp2
 70
     0
102
RTVSPropertyOp3
 70
     0
102
RTVSPropertyOp4
 70
     0
102
RTVSPropertyOp5
 70
     0
102
RTVSPropertyOp6
 70
     0
102
RTVSPropertyOp7
 70
     0
102
RTVSPropertyOp8
 70
     0
102
RTVSPropertyOp9
 70
     0
102
RTVSPropertyOp10
 70
     0
102
RTVSPropertyOp11
 70
     0
102
RTVSPropertyOp12
 70
     0
102
RTVSPropertyOp13
 70
     0
102
RTVSPropertyOp14
 70
     2
102
RTVSPropertyOp15
 70
     0
102
RTVSPropertyOp16
 70
     0
102
RTVSPropertyOp17
 70
     0
102
RTVSPropertyOp18
 70
     0
102
RTVSPropertyOp19
 70
     0
102
RTVSPropertyOp20
 70
     0
102
RTVSPropertyOp21
 70
     0
102
RTVSPropertyOp22
 70
     0
102
RTVSPropertyOp23
 70
     0
102
RTVSPropertyOp24
 70
     0
102
RTVSPropertyOp25
 70
     0
102
RTVSPropertyOp26
 70
     0
102
RTVSPropertyOp27
 70
     0
102
RTVSPropertyOp28
 70
     0
102
RTVSPropertyOp29
 70
     0
102
RTVSPropertyOp30
 70
     0
102
RTVSPropertyOp31
 70
     0
102
RTVSPropertyOp32
 70
     0
102
RTVSPropertyOp33
 70
     0
102
RTVSPropertyOp34
 70
     0
102
RTVSPropertyOp35
 70
     0
102
RTVSPropertyOp36
 70
     0
102
RTVSPropertyOp37
 70
     0
102
RTVSPropertyOp38
 70
     0
102
RTVSPropertyOp39
 70
     0
102
RTVSPropertyOp40
 70
     0
102
RTVSPropertyOp41
 70
     0
102
RTVSPropertyOp42
 70
     0
102
RTVSPropertyOp43
 70
     0
102
RTVSPropertyOp44
 70
     0
102
RTVSPropertyOp45
 70
     0
102
RTVSPropertyOp46
 70
     0
102
RTVSPropertyOp47
 70
     0
102
RTVSPropertyOp48
 70
     0
102
RTVSPropertyOp49
 70
     0
102
RTVSPropertyOp50
 70
     0
102
RTVSPropertyOp51
 70
     0
102
RTVSPropertyOp52
 70
     0
102
RTVSPropertyOp53
 70
     0
102
RTVSPropertyOp54
 70
     0
102
RTVSPropertyOp55
 70
     0
102
RTVSPropertyOp56
 70
     0
102
RTVSPropertyOp57
 70
     0
102
RTVSPost2010Prop28
280
     0
102
RTVSPost2010PropOp28
 70
     0
102
RTVSPost2010Prop29
280
     1
102
RTVSPost2010PropOp29
 70
     0
102
RTVSPost2010Prop30
280
     1
102
RTVSPost2010PropOp30
 70
     0
102
RTVSPost2010Prop31
280
     0
102
RTVSPost2010PropOp31
 70
     0
102
RTVSPost2010Prop32
280
     0
102
RTVSPost2010PropOp32
 70
     0
102
RTVSPost2010Prop33
280
     0
102
RTVSPost2010PropOp33
 70
     0
102
RTVSPost2010Prop34
280
     0
102
RTVSPost2010PropOp34
 70
     0
102
RTVSPost2010Prop35
280
     0
102
RTVSPost2010PropOp35
 70
     0
102
RTVSPost2010Prop36
280
     0
102
RTVSPost2010PropOp36
 70
     0
102
RTVSPost2010Prop37
 90
       50
102
RTVSPost2010PropOp37
 70
     0
102
RTVSPost2010Prop38
140
0.0
102
RTVSPost2010PropOp38
 70
     0
102
RTVSPost2010Prop39
140
1.0
102
RTVSPost2010PropOp39
 70
     0
102
RTVSPost2010Prop40
 90
        0
102
RTVSPost2010PropOp40
 70
     0
102
RTVSPost2010Prop41ColorIndex
 90
       18
102
RTVSPost2010Prop41ColorRGB
 90
        0
102
RTVSPost2010PropOp41
 70
     0
102
RTVSPost2010Prop42
 90
       50
102
RTVSPost2010PropOp42
 70
     0
102
RTVSPost2010Prop43
 90
        3
102
RTVSPost2010PropOp43
 70
     0
102
RTVSPost2010Prop44ColorIndex
 90
        5
102
RTVSPost2010Prop44ColorRGB
 90
      255
102
RTVSPost2010PropOp44
 70
     0
102
RTVSPost2010Prop45
280
     0
102
RTVSPost2010PropOp45
 70
     0
102
RTVSPost2010Prop46
 90
       50
102
RTVSPost2010PropOp46
 70
     0
102
RTVSPost2010Prop47
 90
       50
102
RTVSPost2010PropOp47
 70
     0
102
RTVSPost2010Prop48
 90
       50
102
RTVSPost2010PropOp48
 70
     0
102
RTVSPost2010Prop49
280
     0
102
RTVSPost2010PropOp49
 70
     0
102
RTVSPost2010Prop50
 90
       50
102
RTVSPost2010PropOp50
 70
     0
102
RTVSPost2010Prop51ColorIndex
 90
      256
102
RTVSPost2010Prop51ColorRGB
 90
-16777216
102
RTVSPost2010PropOp51
 70
     0
102
RTVSPost2010Prop52
140
1.0
102
RTVSPost2010PropOp52
 70
     0
102
RTVSPost2010Prop53
 90
        2
102
RTVSPost2010PropOp53
 70
     0
102
RTVSPost2010Prop54
  1
strokes_ogs.tif
102
RTVSPost2010PropOp54
 70
     0
102
RTVSPost2010Prop55
280
     0
102
RTVSPost2010PropOp55
 70
     0
102
RTVSPost2010Prop56
140
1.0
102
RTVSPost2010PropOp56
 70
     0
102
RTVSPost2010Prop57
140
1.0
102
RTVSPost2010PropOp57
 70
     0
  0
XRECORD
  5
33E
102
{ACAD_REACTORS
330
33D
102
}
330
33D
100
AcDbXrecord
280
     1
102
RTVSPropertyOp0
 70
     1
102
RTVSPropertyOp1
 70
     1
102
RTVSPropertyOp2
 70
     1
102
RTVSPropertyOp3
 70
     1
102
RTVSPropertyOp4
 70
     1
102
RTVSPropertyOp5
 70
     1
102
RTVSPropertyOp6
 70
     1
102
RTVSPropertyOp7
 70
     1
102
RTVSPropertyOp8
 70
     1
102
RTVSPropertyOp9
 70
     1
102
RTVSPropertyOp10
 70
     1
102
RTVSPropertyOp11
 70
     1
102
RTVSPropertyOp12
 70
     1
102
RTVSPropertyOp13
 70
     1
102
RTVSPropertyOp14
 70
     1
102
RTVSPropertyOp15
 70
     1
102
RTVSPropertyOp16
 70
     1
102
RTVSPropertyOp17
 70
     1
102
RTVSPropertyOp18
 70
     1
102
RTVSPropertyOp19
 70
     1
102
RTVSPropertyOp20
 70
     1
102
RTVSPropertyOp21
 70
     1
102
RTVSPropertyOp22
 70
     1
102
RTVSPropertyOp23
 70
     1
102
RTVSPropertyOp24
 70
     1
102
RTVSPropertyOp25
 70
     1
102
RTVSPropertyOp26
 70
     1
102
RTVSPropertyOp27
 70
     1
102
RTVSPropertyOp28
 70
     1
102
RTVSPropertyOp29
 70
     1
102
RTVSPropertyOp30
 70
     1
102
RTVSPropertyOp31
 70
     1
102
RTVSPropertyOp32
 70
     1
102
RTVSPropertyOp33
 70
     1
102
RTVSPropertyOp34
 70
     1
102
RTVSPropertyOp35
 70
     1
102
RTVSPropertyOp36
 70
     1
102
RTVSPropertyOp37
 70
     1
102
RTVSPropertyOp38
 70
     1
102
RTVSPropertyOp39
 70
     1
102
RTVSPropertyOp40
 70
     1
102
RTVSPropertyOp41
 70
     1
102
RTVSPropertyOp42
 70
     1
102
RTVSPropertyOp43
 70
     1
102
RTVSPropertyOp44
 70
     1
102
RTVSPropertyOp45
 70
     1
102
RTVSPropertyOp46
 70
     1
102
RTVSPropertyOp47
 70
     1
102
RTVSPropertyOp48
 70
     1
102
RTVSPropertyOp49
 70
     1
102
RTVSPropertyOp50
 70
     1
102
RTVSPropertyOp51
 70
     0
102
RTVSPropertyOp52
 70
     0
102
RTVSPropertyOp53
 70
     1
102
RTVSPropertyOp54
 70
     1
102
RTVSPropertyOp55
 70
     1
102
RTVSPropertyOp56
 70
     1
102
RTVSPropertyOp57
 70
     1
102
RTVSPost2010Prop28
280
     0
102
RTVSPost2010PropOp28
 70
     1
102
RTVSPost2010Prop29
280
     1
102
RTVSPost2010PropOp29
 70
     1
102
RTVSPost2010Prop30
280
     1
102
RTVSPost2010PropOp30
 70
     1
102
RTVSPost2010Prop31
280
     0
102
RTVSPost2010PropOp31
 70
     1
102
RTVSPost2010Prop32
280
     0
102
RTVSPost2010PropOp32
 70
     1
102
RTVSPost2010Prop33
280
     0
102
RTVSPost2010PropOp33
 70
     1
102
RTVSPost2010Prop34
280
     0
102
RTVSPost2010PropOp34
 70
     1
102
RTVSPost2010Prop35
280
     0
102
RTVSPost2010PropOp35
 70
     1
102
RTVSPost2010Prop36
280
     0
102
RTVSPost2010PropOp36
 70
     1
102
RTVSPost2010Prop37
 90
       50
102
RTVSPost2010PropOp37
 70
     1
102
RTVSPost2010Prop38
140
0.0
102
RTVSPost2010PropOp38
 70
     1
102
RTVSPost2010Prop39
140
1.0
102
RTVSPost2010PropOp39
 70
     1
102
RTVSPost2010Prop40
 90
        0
102
RTVSPost2010PropOp40
 70
     1
102
RTVSPost2010Prop41ColorIndex
 90
       18
102
RTVSPost2010Prop41ColorRGB
 90
        0
102
RTVSPost2010PropOp41
 70
     1
102
RTVSPost2010Prop42
 90
       50
102
RTVSPost2010PropOp42
 70
     1
102
RTVSPost2010Prop43
 90
        3
102
RTVSPost2010PropOp43
 70
     1
102
RTVSPost2010Prop44ColorIndex
 90
        5
102
RTVSPost2010Prop44ColorRGB
 90
      255
102
RTVSPost2010PropOp44
 70
     1
102
RTVSPost2010Prop45
280
     0
102
RTVSPost2010PropOp45
 70
     1
102
RTVSPost2010Prop46
 90
       50
102
RTVSPost2010PropOp46
 70
     1
102
RTVSPost2010Prop47
 90
       50
102
RTVSPost2010PropOp47
 70
     1
102
RTVSPost2010Prop48
 90
       50
102
RTVSPost2010PropOp48
 70
     1
102
RTVSPost2010Prop49
280
     0
102
RTVSPost2010PropOp49
 70
     1
102
RTVSPost2010Prop50
 90
       50
102
RTVSPost2010PropOp50
 70
     1
102
RTVSPost2010Prop51ColorIndex
 90
      256
102
RTVSPost2010Prop51ColorRGB
 90
-16777216
102
RTVSPost2010PropOp51
 70
     0
102
RTVSPost2010Prop52
140
1.0
102
RTVSPost2010PropOp52
 70
     0
102
RTVSPost2010Prop53
 90
        2
102
RTVSPost2010PropOp53
 70
     1
102
RTVSPost2010Prop54
  1
strokes_ogs.tif
102
RTVSPost2010PropOp54
 70
     1
102
RTVSPost2010Prop55
280
     0
102
RTVSPost2010PropOp55
 70
     1
102
RTVSPost2010Prop56
140
1.0
102
RTVSPost2010PropOp56
 70
     1
102
RTVSPost2010Prop57
140
1.0
102
RTVSPost2010PropOp57
 70
     1
  0
XRECORD
  5
346
102
{ACAD_REACTORS
330
345
102
}
330
345
100
AcDbXrecord
280
     1
102
RTVSPropertyOp0
 70
     0
102
RTVSPropertyOp1
 70
     0
102
RTVSPropertyOp2
 70
     0
102
RTVSPropertyOp3
 70
     0
102
RTVSPropertyOp4
 70
     0
102
RTVSPropertyOp5
 70
     0
102
RTVSPropertyOp6
 70
     0
102
RTVSPropertyOp7
 70
     0
102
RTVSPropertyOp8
 70
     0
102
RTVSPropertyOp9
 70
     0
102
RTVSPropertyOp10
 70
     0
102
RTVSPropertyOp11
 70
     0
102
RTVSPropertyOp12
 70
     0
102
RTVSPropertyOp13
 70
     0
102
RTVSPropertyOp14
 70
     2
102
RTVSPropertyOp15
 70
     0
102
RTVSPropertyOp16
 70
     0
102
RTVSPropertyOp17
 70
     0
102
RTVSPropertyOp18
 70
     0
102
RTVSPropertyOp19
 70
     0
102
RTVSPropertyOp20
 70
     0
102
RTVSPropertyOp21
 70
     0
102
RTVSPropertyOp22
 70
     0
102
RTVSPropertyOp23
 70
     0
102
RTVSPropertyOp24
 70
     0
102
RTVSPropertyOp25
 70
     0
102
RTVSPropertyOp26
 70
     0
102
RTVSPropertyOp27
 70
     0
102
RTVSPropertyOp28
 70
     0
102
RTVSPropertyOp29
 70
     0
102
RTVSPropertyOp30
 70
     0
102
RTVSPropertyOp31
 70
     0
102
RTVSPropertyOp32
 70
     0
102
RTVSPropertyOp33
 70
     0
102
RTVSPropertyOp34
 70
     0
102
RTVSPropertyOp35
 70
     0
102
RTVSPropertyOp36
 70
     0
102
RTVSPropertyOp37
 70
     0
102
RTVSPropertyOp38
 70
     0
102
RTVSPropertyOp39
 70
     0
102
RTVSPropertyOp40
 70
     0
102
RTVSPropertyOp41
 70
     0
102
RTVSPropertyOp42
 70
     0
102
RTVSPropertyOp43
 70
     0
102
RTVSPropertyOp44
 70
     0
102
RTVSPropertyOp45
 70
     0
102
RTVSPropertyOp46
 70
     0
102
RTVSPropertyOp47
 70
     0
102
RTVSPropertyOp48
 70
     0
102
RTVSPropertyOp49
 70
     0
102
RTVSPropertyOp50
 70
     0
102
RTVSPropertyOp51
 70
     0
102
RTVSPropertyOp52
 70
     0
102
RTVSPropertyOp53
 70
     0
102
RTVSPropertyOp54
 70
     0
102
RTVSPropertyOp55
 70
     0
102
RTVSPropertyOp56
 70
     0
102
RTVSPropertyOp57
 70
     0
102
RTVSPost2010Prop28
280
     0
102
RTVSPost2010PropOp28
 70
     0
102
RTVSPost2010Prop29
280
     1
102
RTVSPost2010PropOp29
 70
     0
102
RTVSPost2010Prop30
280
     1
102
RTVSPost2010PropOp30
 70
     0
102
RTVSPost2010Prop31
280
     0
102
RTVSPost2010PropOp31
 70
     0
102
RTVSPost2010Prop32
280
     0
102
RTVSPost2010PropOp32
 70
     0
102
RTVSPost2010Prop33
280
     0
102
RTVSPost2010PropOp33
 70
     0
102
RTVSPost2010Prop34
280
     0
102
RTVSPost2010PropOp34
 70
     0
102
RTVSPost2010Prop35
280
     0
102
RTVSPost2010PropOp35
 70
     0
102
RTVSPost2010Prop36
280
     0
102
RTVSPost2010PropOp36
 70
     0
102
RTVSPost2010Prop37
 90
       50
102
RTVSPost2010PropOp37
 70
     0
102
RTVSPost2010Prop38
140
0.0
102
RTVSPost2010PropOp38
 70
     0
102
RTVSPost2010Prop39
140
1.0
102
RTVSPost2010PropOp39
 70
     0
102
RTVSPost2010Prop40
 90
        0
102
RTVSPost2010PropOp40
 70
     0
102
RTVSPost2010Prop41ColorIndex
 90
       18
102
RTVSPost2010Prop41ColorRGB
 90
        0
102
RTVSPost2010PropOp41
 70
     0
102
RTVSPost2010Prop42
 90
       50
102
RTVSPost2010PropOp42
 70
     0
102
RTVSPost2010Prop43
 90
        3
102
RTVSPost2010PropOp43
 70
     0
102
RTVSPost2010Prop44ColorIndex
 90
        5
102
RTVSPost2010Prop44ColorRGB
 90
      255
102
RTVSPost2010PropOp44
 70
     0
102
RTVSPost2010Prop45
280
     0
102
RTVSPost2010PropOp45
 70
     0
102
RTVSPost2010Prop46
 90
       50
102
RTVSPost2010PropOp46
 70
     0
102
RTVSPost2010Prop47
 90
       50
102
RTVSPost2010PropOp47
 70
     0
102
RTVSPost2010Prop48
 90
       50
102
RTVSPost2010PropOp48
 70
     0
102
RTVSPost2010Prop49
280
     0
102
RTVSPost2010PropOp49
 70
     0
102
RTVSPost2010Prop50
 90
       50
102
RTVSPost2010PropOp50
 70
     0
102
RTVSPost2010Prop51ColorIndex
 90
      256
102
RTVSPost2010Prop51ColorRGB
 90
-16777216
102
RTVSPost2010PropOp51
 70
     0
102
RTVSPost2010Prop52
140
1.0
102
RTVSPost2010PropOp52
 70
     0
102
RTVSPost2010Prop53
 90
        2
102
RTVSPost2010PropOp53
 70
     0
102
RTVSPost2010Prop54
  1
strokes_ogs.tif
102
RTVSPost2010PropOp54
 70
     0
102
RTVSPost2010Prop55
280
     0
102
RTVSPost2010PropOp55
 70
     0
102
RTVSPost2010Prop56
140
1.0
102
RTVSPost2010PropOp56
 70
     0
102
RTVSPost2010Prop57
140
1.0
102
RTVSPost2010PropOp57
 70
     0
  0
XRECORD
  5
334
102
{ACAD_REACTORS
330
333
102
}
330
333
100
AcDbXrecord
280
     1
102
RTVSPropertyOp0
 70
     1
102
RTVSPropertyOp1
 70
     1
102
RTVSPropertyOp2
 70
     1
102
RTVSPropertyOp3
 70
     1
102
RTVSPropertyOp4
 70
     1
102
RTVSPropertyOp5
 70
     1
102
RTVSPropertyOp6
 70
     1
102
RTVSPropertyOp7
 70
     1
102
RTVSPropertyOp8
 70
     1
102
RTVSPropertyOp9
 70
     1
102
RTVSPropertyOp10
 70
     1
102
RTVSPropertyOp11
 70
     1
102
RTVSPropertyOp12
 70
     1
102
RTVSPropertyOp13
 70
     1
102
RTVSPropertyOp14
 70
     1
102
RTVSPropertyOp15
 70
     1
102
RTVSPropertyOp16
 70
     1
102
RTVSPropertyOp17
 70
     1
102
RTVSPropertyOp18
 70
     1
102
RTVSPropertyOp19
 70
     1
102
RTVSPropertyOp20
 70
     1
102
RTVSPropertyOp21
 70
     1
102
RTVSPropertyOp22
 70
     1
102
RTVSPropertyOp23
 70
     1
102
RTVSPropertyOp24
 70
     1
102
RTVSPropertyOp25
 70
     1
102
RTVSPropertyOp26
 70
     1
102
RTVSPropertyOp27
 70
     1
102
RTVSPropertyOp28
 70
     1
102
RTVSPropertyOp29
 70
     1
102
RTVSPropertyOp30
 70
     1
102
RTVSPropertyOp31
 70
     1
102
RTVSPropertyOp32
 70
     1
102
RTVSPropertyOp33
 70
     1
102
RTVSPropertyOp34
 70
     1
102
RTVSPropertyOp35
 70
     1
102
RTVSPropertyOp36
 70
     1
102
RTVSPropertyOp37
 70
     1
102
RTVSPropertyOp38
 70
     1
102
RTVSPropertyOp39
 70
     1
102
RTVSPropertyOp40
 70
     1
102
RTVSPropertyOp41
 70
     1
102
RTVSPropertyOp42
 70
     1
102
RTVSPropertyOp43
 70
     1
102
RTVSPropertyOp44
 70
     1
102
RTVSPropertyOp45
 70
     1
102
RTVSPropertyOp46
 70
     1
102
RTVSPropertyOp47
 70
     1
102
RTVSPropertyOp48
 70
     1
102
RTVSPropertyOp49
 70
     1
102
RTVSPropertyOp50
 70
     1
102
RTVSPropertyOp51
 70
     0
102
RTVSPropertyOp52
 70
     0
102
RTVSPropertyOp53
 70
     1
102
RTVSPropertyOp54
 70
     1
102
RTVSPropertyOp55
 70
     1
102
RTVSPropertyOp56
 70
     1
102
RTVSPropertyOp57
 70
     1
102
RTVSPost2010Prop28
280
     0
102
RTVSPost2010PropOp28
 70
     1
102
RTVSPost2010Prop29
280
     1
102
RTVSPost2010PropOp29
 70
     1
102
RTVSPost2010Prop30
280
     1
102
RTVSPost2010PropOp30
 70
     1
102
RTVSPost2010Prop31
280
     0
102
RTVSPost2010PropOp31
 70
     1
102
RTVSPost2010Prop32
280
     0
102
RTVSPost2010PropOp32
 70
     1
102
RTVSPost2010Prop33
280
     0
102
RTVSPost2010PropOp33
 70
     1
102
RTVSPost2010Prop34
280
     0
102
RTVSPost2010PropOp34
 70
     1
102
RTVSPost2010Prop35
280
     0
102
RTVSPost2010PropOp35
 70
     1
102
RTVSPost2010Prop36
280
     0
102
RTVSPost2010PropOp36
 70
     1
102
RTVSPost2010Prop37
 90
       50
102
RTVSPost2010PropOp37
 70
     1
102
RTVSPost2010Prop38
140
0.0
102
RTVSPost2010PropOp38
 70
     1
102
RTVSPost2010Prop39
140
1.0
102
RTVSPost2010PropOp39
 70
     1
102
RTVSPost2010Prop40
 90
        0
102
RTVSPost2010PropOp40
 70
     1
102
RTVSPost2010Prop41ColorIndex
 90
       18
102
RTVSPost2010Prop41ColorRGB
 90
        0
102
RTVSPost2010PropOp41
 70
     1
102
RTVSPost2010Prop42
 90
       50
102
RTVSPost2010PropOp42
 70
     1
102
RTVSPost2010Prop43
 90
        3
102
RTVSPost2010PropOp43
 70
     1
102
RTVSPost2010Prop44ColorIndex
 90
        5
102
RTVSPost2010Prop44ColorRGB
 90
      255
102
RTVSPost2010PropOp44
 70
     1
102
RTVSPost2010Prop45
280
     0
102
RTVSPost2010PropOp45
 70
     1
102
RTVSPost2010Prop46
 90
       50
102
RTVSPost2010PropOp46
 70
     1
102
RTVSPost2010Prop47
 90
       50
102
RTVSPost2010PropOp47
 70
     1
102
RTVSPost2010Prop48
 90
       50
102
RTVSPost2010PropOp48
 70
     1
102
RTVSPost2010Prop49
280
     0
102
RTVSPost2010PropOp49
 70
     1
102
RTVSPost2010Prop50
 90
       50
102
RTVSPost2010PropOp50
 70
     1
102
RTVSPost2010Prop51ColorIndex
 90
      256
102
RTVSPost2010Prop51ColorRGB
 90
-16777216
102
RTVSPost2010PropOp51
 70
     0
102
RTVSPost2010Prop52
140
1.0
102
RTVSPost2010PropOp52
 70
     0
102
RTVSPost2010Prop53
 90
        2
102
RTVSPost2010PropOp53
 70
     1
102
RTVSPost2010Prop54
  1
strokes_ogs.tif
102
RTVSPost2010PropOp54
 70
     1
102
RTVSPost2010Prop55
280
     0
102
RTVSPost2010PropOp55
 70
     1
102
RTVSPost2010Prop56
140
1.0
102
RTVSPost2010PropOp56
 70
     1
102
RTVSPost2010Prop57
140
1.0
102
RTVSPost2010PropOp57
 70
     1
  0
XRECORD
  5
352
102
{ACAD_REACTORS
330
351
102
}
330
351
100
AcDbXrecord
280
     1
102
RTVSPropertyOp0
 70
     1
102
RTVSPropertyOp1
 70
     1
102
RTVSPropertyOp2
 70
     1
102
RTVSPropertyOp3
 70
     1
102
RTVSPropertyOp4
 70
     1
102
RTVSPropertyOp5
 70
     1
102
RTVSPropertyOp6
 70
     1
102
RTVSPropertyOp7
 70
     1
102
RTVSPropertyOp8
 70
     1
102
RTVSPropertyOp9
 70
     1
102
RTVSPropertyOp10
 70
     1
102
RTVSPropertyOp11
 70
     1
102
RTVSPropertyOp12
 70
     1
102
RTVSPropertyOp13
 70
     1
102
RTVSPropertyOp14
 70
     1
102
RTVSPropertyOp15
 70
     1
102
RTVSPropertyOp16
 70
     1
102
RTVSPropertyOp17
 70
     1
102
RTVSPropertyOp18
 70
     1
102
RTVSPropertyOp19
 70
     1
102
RTVSPropertyOp20
 70
     1
102
RTVSPropertyOp21
 70
     1
102
RTVSPropertyOp22
 70
     1
102
RTVSPropertyOp23
 70
     1
102
RTVSPropertyOp24
 70
     1
102
RTVSPropertyOp25
 70
     1
102
RTVSPropertyOp26
 70
     1
102
RTVSPropertyOp27
 70
     1
102
RTVSPropertyOp28
 70
     1
102
RTVSPropertyOp29
 70
     1
102
RTVSPropertyOp30
 70
     1
102
RTVSPropertyOp31
 70
     1
102
RTVSPropertyOp32
 70
     1
102
RTVSPropertyOp33
 70
     1
102
RTVSPropertyOp34
 70
     1
102
RTVSPropertyOp35
 70
     1
102
RTVSPropertyOp36
 70
     1
102
RTVSPropertyOp37
 70
     1
102
RTVSPropertyOp38
 70
     1
102
RTVSPropertyOp39
 70
     1
102
RTVSPropertyOp40
 70
     1
102
RTVSPropertyOp41
 70
     1
102
RTVSPropertyOp42
 70
     1
102
RTVSPropertyOp43
 70
     1
102
RTVSPropertyOp44
 70
     1
102
RTVSPropertyOp45
 70
     1
102
RTVSPropertyOp46
 70
     1
102
RTVSPropertyOp47
 70
     1
102
RTVSPropertyOp48
 70
     1
102
RTVSPropertyOp49
 70
     1
102
RTVSPropertyOp50
 70
     1
102
RTVSPropertyOp51
 70
     0
102
RTVSPropertyOp52
 70
     0
102
RTVSPropertyOp53
 70
     1
102
RTVSPropertyOp54
 70
     1
102
RTVSPropertyOp55
 70
     1
102
RTVSPropertyOp56
 70
     1
102
RTVSPropertyOp57
 70
     1
102
RTVSPost2010Prop28
280
     0
102
RTVSPost2010PropOp28
 70
     1
102
RTVSPost2010Prop29
280
     1
102
RTVSPost2010PropOp29
 70
     1
102
RTVSPost2010Prop30
280
     1
102
RTVSPost2010PropOp30
 70
     1
102
RTVSPost2010Prop31
280
     0
102
RTVSPost2010PropOp31
 70
     1
102
RTVSPost2010Prop32
280
     0
102
RTVSPost2010PropOp32
 70
     1
102
RTVSPost2010Prop33
280
     0
102
RTVSPost2010PropOp33
 70
     1
102
RTVSPost2010Prop34
280
     0
102
RTVSPost2010PropOp34
 70
     1
102
RTVSPost2010Prop35
280
     0
102
RTVSPost2010PropOp35
 70
     1
102
RTVSPost2010Prop36
280
     0
102
RTVSPost2010PropOp36
 70
     1
102
RTVSPost2010Prop37
 90
       50
102
RTVSPost2010PropOp37
 70
     1
102
RTVSPost2010Prop38
140
0.0
102
RTVSPost2010PropOp38
 70
     1
102
RTVSPost2010Prop39
140
1.0
102
RTVSPost2010PropOp39
 70
     1
102
RTVSPost2010Prop40
 90
        0
102
RTVSPost2010PropOp40
 70
     1
102
RTVSPost2010Prop41ColorIndex
 90
       18
102
RTVSPost2010Prop41ColorRGB
 90
        0
102
RTVSPost2010PropOp41
 70
     1
102
RTVSPost2010Prop42
 90
       50
102
RTVSPost2010PropOp42
 70
     1
102
RTVSPost2010Prop43
 90
        3
102
RTVSPost2010PropOp43
 70
     1
102
RTVSPost2010Prop44ColorIndex
 90
        5
102
RTVSPost2010Prop44ColorRGB
 90
      255
102
RTVSPost2010PropOp44
 70
     1
102
RTVSPost2010Prop45
280
     0
102
RTVSPost2010PropOp45
 70
     1
102
RTVSPost2010Prop46
 90
       50
102
RTVSPost2010PropOp46
 70
     1
102
RTVSPost2010Prop47
 90
       50
102
RTVSPost2010PropOp47
 70
     1
102
RTVSPost2010Prop48
 90
       50
102
RTVSPost2010PropOp48
 70
     1
102
RTVSPost2010Prop49
280
     0
102
RTVSPost2010PropOp49
 70
     1
102
RTVSPost2010Prop50
 90
       50
102
RTVSPost2010PropOp50
 70
     1
102
RTVSPost2010Prop51ColorIndex
 90
      256
102
RTVSPost2010Prop51ColorRGB
 90
-16777216
102
RTVSPost2010PropOp51
 70
     0
102
RTVSPost2010Prop52
140
1.0
102
RTVSPost2010PropOp52
 70
     0
102
RTVSPost2010Prop53
 90
        2
102
RTVSPost2010PropOp53
 70
     1
102
RTVSPost2010Prop54
  1
strokes_ogs.tif
102
RTVSPost2010PropOp54
 70
     1
102
RTVSPost2010Prop55
280
     0
102
RTVSPost2010PropOp55
 70
     1
102
RTVSPost2010Prop56
140
1.0
102
RTVSPost2010PropOp56
 70
     1
102
RTVSPost2010Prop57
140
1.0
102
RTVSPost2010PropOp57
 70
     1
  0
XRECORD
  5
350
102
{ACAD_REACTORS
330
34F
102
}
330
34F
100
AcDbXrecord
280
     1
102
RTVSPropertyOp0
 70
     1
102
RTVSPropertyOp1
 70
     1
102
RTVSPropertyOp2
 70
     1
102
RTVSPropertyOp3
 70
     1
102
RTVSPropertyOp4
 70
     1
102
RTVSPropertyOp5
 70
     1
102
RTVSPropertyOp6
 70
     1
102
RTVSPropertyOp7
 70
     1
102
RTVSPropertyOp8
 70
     1
102
RTVSPropertyOp9
 70
     1
102
RTVSPropertyOp10
 70
     1
102
RTVSPropertyOp11
 70
     1
102
RTVSPropertyOp12
 70
     1
102
RTVSPropertyOp13
 70
     1
102
RTVSPropertyOp14
 70
     1
102
RTVSPropertyOp15
 70
     1
102
RTVSPropertyOp16
 70
     1
102
RTVSPropertyOp17
 70
     1
102
RTVSPropertyOp18
 70
     1
102
RTVSPropertyOp19
 70
     1
102
RTVSPropertyOp20
 70
     1
102
RTVSPropertyOp21
 70
     1
102
RTVSPropertyOp22
 70
     1
102
RTVSPropertyOp23
 70
     1
102
RTVSPropertyOp24
 70
     1
102
RTVSPropertyOp25
 70
     1
102
RTVSPropertyOp26
 70
     1
102
RTVSPropertyOp27
 70
     1
102
RTVSPropertyOp28
 70
     1
102
RTVSPropertyOp29
 70
     1
102
RTVSPropertyOp30
 70
     1
102
RTVSPropertyOp31
 70
     1
102
RTVSPropertyOp32
 70
     1
102
RTVSPropertyOp33
 70
     1
102
RTVSPropertyOp34
 70
     1
102
RTVSPropertyOp35
 70
     1
102
RTVSPropertyOp36
 70
     1
102
RTVSPropertyOp37
 70
     1
102
RTVSPropertyOp38
 70
     1
102
RTVSPropertyOp39
 70
     1
102
RTVSPropertyOp40
 70
     1
102
RTVSPropertyOp41
 70
     1
102
RTVSPropertyOp42
 70
     1
102
RTVSPropertyOp43
 70
     1
102
RTVSPropertyOp44
 70
     1
102
RTVSPropertyOp45
 70
     1
102
RTVSPropertyOp46
 70
     1
102
RTVSPropertyOp47
 70
     1
102
RTVSPropertyOp48
 70
     1
102
RTVSPropertyOp49
 70
     1
102
RTVSPropertyOp50
 70
     1
102
RTVSPropertyOp51
 70
     0
102
RTVSPropertyOp52
 70
     0
102
RTVSPropertyOp53
 70
     1
102
RTVSPropertyOp54
 70
     1
102
RTVSPropertyOp55
 70
     1
102
RTVSPropertyOp56
 70
     1
102
RTVSPropertyOp57
 70
     1
102
RTVSPost2010Prop28
280
     0
102
RTVSPost2010PropOp28
 70
     1
102
RTVSPost2010Prop29
280
     1
102
RTVSPost2010PropOp29
 70
     1
102
RTVSPost2010Prop30
280
     1
102
RTVSPost2010PropOp30
 70
     1
102
RTVSPost2010Prop31
280
     0
102
RTVSPost2010PropOp31
 70
     1
102
RTVSPost2010Prop32
280
     0
102
RTVSPost2010PropOp32
 70
     1
102
RTVSPost2010Prop33
280
     0
102
RTVSPost2010PropOp33
 70
     1
102
RTVSPost2010Prop34
280
     0
102
RTVSPost2010PropOp34
 70
     1
102
RTVSPost2010Prop35
280
     0
102
RTVSPost2010PropOp35
 70
     1
102
RTVSPost2010Prop36
280
     0
102
RTVSPost2010PropOp36
 70
     1
102
RTVSPost2010Prop37
 90
       50
102
RTVSPost2010PropOp37
 70
     1
102
RTVSPost2010Prop38
140
0.0
102
RTVSPost2010PropOp38
 70
     1
102
RTVSPost2010Prop39
140
1.0
102
RTVSPost2010PropOp39
 70
     1
102
RTVSPost2010Prop40
 90
        0
102
RTVSPost2010PropOp40
 70
     1
102
RTVSPost2010Prop41ColorIndex
 90
       18
102
RTVSPost2010Prop41ColorRGB
 90
        0
102
RTVSPost2010PropOp41
 70
     1
102
RTVSPost2010Prop42
 90
       50
102
RTVSPost2010PropOp42
 70
     1
102
RTVSPost2010Prop43
 90
        3
102
RTVSPost2010PropOp43
 70
     1
102
RTVSPost2010Prop44ColorIndex
 90
        5
102
RTVSPost2010Prop44ColorRGB
 90
      255
102
RTVSPost2010PropOp44
 70
     1
102
RTVSPost2010Prop45
280
     0
102
RTVSPost2010PropOp45
 70
     1
102
RTVSPost2010Prop46
 90
       50
102
RTVSPost2010PropOp46
 70
     1
102
RTVSPost2010Prop47
 90
       50
102
RTVSPost2010PropOp47
 70
     1
102
RTVSPost2010Prop48
 90
       50
102
RTVSPost2010PropOp48
 70
     1
102
RTVSPost2010Prop49
280
     0
102
RTVSPost2010PropOp49
 70
     1
102
RTVSPost2010Prop50
 90
       50
102
RTVSPost2010PropOp50
 70
     1
102
RTVSPost2010Prop51ColorIndex
 90
      256
102
RTVSPost2010Prop51ColorRGB
 90
-16777216
102
RTVSPost2010PropOp51
 70
     0
102
RTVSPost2010Prop52
140
1.0
102
RTVSPost2010PropOp52
 70
     0
102
RTVSPost2010Prop53
 90
        2
102
RTVSPost2010PropOp53
 70
     1
102
RTVSPost2010Prop54
  1
strokes_ogs.tif
102
RTVSPost2010PropOp54
 70
     1
102
RTVSPost2010Prop55
280
     0
102
RTVSPost2010PropOp55
 70
     1
102
RTVSPost2010Prop56
140
1.0
102
RTVSPost2010PropOp56
 70
     1
102
RTVSPost2010Prop57
140
1.0
102
RTVSPost2010PropOp57
 70
     1
  0
XRECORD
  5
34A
102
{ACAD_REACTORS
330
349
102
}
330
349
100
AcDbXrecord
280
     1
102
RTVSPropertyOp0
 70
     1
102
RTVSPropertyOp1
 70
     1
102
RTVSPropertyOp2
 70
     1
102
RTVSPropertyOp3
 70
     1
102
RTVSPropertyOp4
 70
     1
102
RTVSPropertyOp5
 70
     1
102
RTVSPropertyOp6
 70
     1
102
RTVSPropertyOp7
 70
     1
102
RTVSPropertyOp8
 70
     1
102
RTVSPropertyOp9
 70
     1
102
RTVSPropertyOp10
 70
     1
102
RTVSPropertyOp11
 70
     1
102
RTVSPropertyOp12
 70
     1
102
RTVSPropertyOp13
 70
     1
102
RTVSPropertyOp14
 70
     1
102
RTVSPropertyOp15
 70
     1
102
RTVSPropertyOp16
 70
     1
102
RTVSPropertyOp17
 70
     1
102
RTVSPropertyOp18
 70
     1
102
RTVSPropertyOp19
 70
     1
102
RTVSPropertyOp20
 70
     1
102
RTVSPropertyOp21
 70
     1
102
RTVSPropertyOp22
 70
     1
102
RTVSPropertyOp23
 70
     1
102
RTVSPropertyOp24
 70
     1
102
RTVSPropertyOp25
 70
     1
102
RTVSPropertyOp26
 70
     1
102
RTVSPropertyOp27
 70
     1
102
RTVSPropertyOp28
 70
     1
102
RTVSPropertyOp29
 70
     1
102
RTVSPropertyOp30
 70
     1
102
RTVSPropertyOp31
 70
     1
102
RTVSPropertyOp32
 70
     1
102
RTVSPropertyOp33
 70
     1
102
RTVSPropertyOp34
 70
     1
102
RTVSPropertyOp35
 70
     1
102
RTVSPropertyOp36
 70
     1
102
RTVSPropertyOp37
 70
     1
102
RTVSPropertyOp38
 70
     1
102
RTVSPropertyOp39
 70
     1
102
RTVSPropertyOp40
 70
     1
102
RTVSPropertyOp41
 70
     1
102
RTVSPropertyOp42
 70
     1
102
RTVSPropertyOp43
 70
     1
102
RTVSPropertyOp44
 70
     1
102
RTVSPropertyOp45
 70
     1
102
RTVSPropertyOp46
 70
     1
102
RTVSPropertyOp47
 70
     1
102
RTVSPropertyOp48
 70
     1
102
RTVSPropertyOp49
 70
     1
102
RTVSPropertyOp50
 70
     1
102
RTVSPropertyOp51
 70
     0
102
RTVSPropertyOp52
 70
     0
102
RTVSPropertyOp53
 70
     1
102
RTVSPropertyOp54
 70
     1
102
RTVSPropertyOp55
 70
     1
102
RTVSPropertyOp56
 70
     1
102
RTVSPropertyOp57
 70
     1
102
RTVSPost2010Prop28
280
     0
102
RTVSPost2010PropOp28
 70
     1
102
RTVSPost2010Prop29
280
     1
102
RTVSPost2010PropOp29
 70
     1
102
RTVSPost2010Prop30
280
     1
102
RTVSPost2010PropOp30
 70
     1
102
RTVSPost2010Prop31
280
     0
102
RTVSPost2010PropOp31
 70
     1
102
RTVSPost2010Prop32
280
     0
102
RTVSPost2010PropOp32
 70
     1
102
RTVSPost2010Prop33
280
     0
102
RTVSPost2010PropOp33
 70
     1
102
RTVSPost2010Prop34
280
     0
102
RTVSPost2010PropOp34
 70
     1
102
RTVSPost2010Prop35
280
     0
102
RTVSPost2010PropOp35
 70
     1
102
RTVSPost2010Prop36
280
     0
102
RTVSPost2010PropOp36
 70
     1
102
RTVSPost2010Prop37
 90
       50
102
RTVSPost2010PropOp37
 70
     1
102
RTVSPost2010Prop38
140
0.0
102
RTVSPost2010PropOp38
 70
     1
102
RTVSPost2010Prop39
140
1.0
102
RTVSPost2010PropOp39
 70
     1
102
RTVSPost2010Prop40
 90
        0
102
RTVSPost2010PropOp40
 70
     1
102
RTVSPost2010Prop41ColorIndex
 90
       18
102
RTVSPost2010Prop41ColorRGB
 90
        0
102
RTVSPost2010PropOp41
 70
     1
102
RTVSPost2010Prop42
 90
       50
102
RTVSPost2010PropOp42
 70
     1
102
RTVSPost2010Prop43
 90
        3
102
RTVSPost2010PropOp43
 70
     1
102
RTVSPost2010Prop44ColorIndex
 90
        5
102
RTVSPost2010Prop44ColorRGB
 90
      255
102
RTVSPost2010PropOp44
 70
     1
102
RTVSPost2010Prop45
280
     0
102
RTVSPost2010PropOp45
 70
     1
102
RTVSPost2010Prop46
 90
       50
102
RTVSPost2010PropOp46
 70
     1
102
RTVSPost2010Prop47
 90
       50
102
RTVSPost2010PropOp47
 70
     1
102
RTVSPost2010Prop48
 90
       50
102
RTVSPost2010PropOp48
 70
     1
102
RTVSPost2010Prop49
280
     0
102
RTVSPost2010PropOp49
 70
     1
102
RTVSPost2010Prop50
 90
       50
102
RTVSPost2010PropOp50
 70
     1
102
RTVSPost2010Prop51ColorIndex
 90
      256
102
RTVSPost2010Prop51ColorRGB
 90
-16777216
102
RTVSPost2010PropOp51
 70
     0
102
RTVSPost2010Prop52
140
1.0
102
RTVSPost2010PropOp52
 70
     0
102
RTVSPost2010Prop53
 90
        2
102
RTVSPost2010PropOp53
 70
     1
102
RTVSPost2010Prop54
  1
strokes_ogs.tif
102
RTVSPost2010PropOp54
 70
     1
102
RTVSPost2010Prop55
280
     0
102
RTVSPost2010PropOp55
 70
     1
102
RTVSPost2010Prop56
140
1.0
102
RTVSPost2010PropOp56
 70
     1
102
RTVSPost2010Prop57
140
1.0
102
RTVSPost2010PropOp57
 70
     1
  0
XRECORD
  5
34C
102
{ACAD_REACTORS
330
34B
102
}
330
34B
100
AcDbXrecord
280
     1
102
RTVSPropertyOp0
 70
     1
102
RTVSPropertyOp1
 70
     1
102
RTVSPropertyOp2
 70
     1
102
RTVSPropertyOp3
 70
     1
102
RTVSPropertyOp4
 70
     1
102
RTVSPropertyOp5
 70
     1
102
RTVSPropertyOp6
 70
     1
102
RTVSPropertyOp7
 70
     1
102
RTVSPropertyOp8
 70
     1
102
RTVSPropertyOp9
 70
     1
102
RTVSPropertyOp10
 70
     1
102
RTVSPropertyOp11
 70
     1
102
RTVSPropertyOp12
 70
     1
102
RTVSPropertyOp13
 70
     1
102
RTVSPropertyOp14
 70
     1
102
RTVSPropertyOp15
 70
     1
102
RTVSPropertyOp16
 70
     1
102
RTVSPropertyOp17
 70
     1
102
RTVSPropertyOp18
 70
     1
102
RTVSPropertyOp19
 70
     1
102
RTVSPropertyOp20
 70
     1
102
RTVSPropertyOp21
 70
     1
102
RTVSPropertyOp22
 70
     1
102
RTVSPropertyOp23
 70
     1
102
RTVSPropertyOp24
 70
     1
102
RTVSPropertyOp25
 70
     1
102
RTVSPropertyOp26
 70
     1
102
RTVSPropertyOp27
 70
     1
102
RTVSPropertyOp28
 70
     1
102
RTVSPropertyOp29
 70
     1
102
RTVSPropertyOp30
 70
     1
102
RTVSPropertyOp31
 70
     1
102
RTVSPropertyOp32
 70
     1
102
RTVSPropertyOp33
 70
     1
102
RTVSPropertyOp34
 70
     1
102
RTVSPropertyOp35
 70
     1
102
RTVSPropertyOp36
 70
     1
102
RTVSPropertyOp37
 70
     1
102
RTVSPropertyOp38
 70
     1
102
RTVSPropertyOp39
 70
     1
102
RTVSPropertyOp40
 70
     1
102
RTVSPropertyOp41
 70
     1
102
RTVSPropertyOp42
 70
     1
102
RTVSPropertyOp43
 70
     1
102
RTVSPropertyOp44
 70
     1
102
RTVSPropertyOp45
 70
     1
102
RTVSPropertyOp46
 70
     1
102
RTVSPropertyOp47
 70
     1
102
RTVSPropertyOp48
 70
     1
102
RTVSPropertyOp49
 70
     1
102
RTVSPropertyOp50
 70
     1
102
RTVSPropertyOp51
 70
     0
102
RTVSPropertyOp52
 70
     0
102
RTVSPropertyOp53
 70
     1
102
RTVSPropertyOp54
 70
     1
102
RTVSPropertyOp55
 70
     1
102
RTVSPropertyOp56
 70
     1
102
RTVSPropertyOp57
 70
     1
102
RTVSPost2010Prop28
280
     0
102
RTVSPost2010PropOp28
 70
     1
102
RTVSPost2010Prop29
280
     1
102
RTVSPost2010PropOp29
 70
     1
102
RTVSPost2010Prop30
280
     1
102
RTVSPost2010PropOp30
 70
     1
102
RTVSPost2010Prop31
280
     0
102
RTVSPost2010PropOp31
 70
     1
102
RTVSPost2010Prop32
280
     0
102
RTVSPost2010PropOp32
 70
     1
102
RTVSPost2010Prop33
280
     0
102
RTVSPost2010PropOp33
 70
     1
102
RTVSPost2010Prop34
280
     0
102
RTVSPost2010PropOp34
 70
     1
102
RTVSPost2010Prop35
280
     0
102
RTVSPost2010PropOp35
 70
     1
102
RTVSPost2010Prop36
280
     0
102
RTVSPost2010PropOp36
 70
     1
102
RTVSPost2010Prop37
 90
       50
102
RTVSPost2010PropOp37
 70
     1
102
RTVSPost2010Prop38
140
0.0
102
RTVSPost2010PropOp38
 70
     1
102
RTVSPost2010Prop39
140
1.0
102
RTVSPost2010PropOp39
 70
     1
102
RTVSPost2010Prop40
 90
        0
102
RTVSPost2010PropOp40
 70
     1
102
RTVSPost2010Prop41ColorIndex
 90
       18
102
RTVSPost2010Prop41ColorRGB
 90
        0
102
RTVSPost2010PropOp41
 70
     1
102
RTVSPost2010Prop42
 90
       50
102
RTVSPost2010PropOp42
 70
     1
102
RTVSPost2010Prop43
 90
        3
102
RTVSPost2010PropOp43
 70
     1
102
RTVSPost2010Prop44ColorIndex
 90
        5
102
RTVSPost2010Prop44ColorRGB
 90
      255
102
RTVSPost2010PropOp44
 70
     1
102
RTVSPost2010Prop45
280
     0
102
RTVSPost2010PropOp45
 70
     1
102
RTVSPost2010Prop46
 90
       50
102
RTVSPost2010PropOp46
 70
     1
102
RTVSPost2010Prop47
 90
       50
102
RTVSPost2010PropOp47
 70
     1
102
RTVSPost2010Prop48
 90
       50
102
RTVSPost2010PropOp48
 70
     1
102
RTVSPost2010Prop49
280
     0
102
RTVSPost2010PropOp49
 70
     1
102
RTVSPost2010Prop50
 90
       50
102
RTVSPost2010PropOp50
 70
     1
102
RTVSPost2010Prop51ColorIndex
 90
      256
102
RTVSPost2010Prop51ColorRGB
 90
-16777216
102
RTVSPost2010PropOp51
 70
     0
102
RTVSPost2010Prop52
140
1.0
102
RTVSPost2010PropOp52
 70
     0
102
RTVSPost2010Prop53
 90
        2
102
RTVSPost2010PropOp53
 70
     1
102
RTVSPost2010Prop54
  1
strokes_ogs.tif
102
RTVSPost2010PropOp54
 70
     1
102
RTVSPost2010Prop55
280
     0
102
RTVSPost2010PropOp55
 70
     1
102
RTVSPost2010Prop56
140
1.0
102
RTVSPost2010PropOp56
 70
     1
102
RTVSPost2010Prop57
140
1.0
102
RTVSPost2010PropOp57
 70
     1
  0
XRECORD
  5
33C
102
{ACAD_REACTORS
330
33B
102
}
330
33B
100
AcDbXrecord
280
     1
102
RTVSPropertyOp0
 70
     1
102
RTVSPropertyOp1
 70
     1
102
RTVSPropertyOp2
 70
     1
102
RTVSPropertyOp3
 70
     1
102
RTVSPropertyOp4
 70
     1
102
RTVSPropertyOp5
 70
     1
102
RTVSPropertyOp6
 70
     1
102
RTVSPropertyOp7
 70
     1
102
RTVSPropertyOp8
 70
     1
102
RTVSPropertyOp9
 70
     1
102
RTVSPropertyOp10
 70
     1
102
RTVSPropertyOp11
 70
     1
102
RTVSPropertyOp12
 70
     1
102
RTVSPropertyOp13
 70
     1
102
RTVSPropertyOp14
 70
     1
102
RTVSPropertyOp15
 70
     1
102
RTVSPropertyOp16
 70
     1
102
RTVSPropertyOp17
 70
     1
102
RTVSPropertyOp18
 70
     1
102
RTVSPropertyOp19
 70
     1
102
RTVSPropertyOp20
 70
     1
102
RTVSPropertyOp21
 70
     1
102
RTVSPropertyOp22
 70
     1
102
RTVSPropertyOp23
 70
     1
102
RTVSPropertyOp24
 70
     1
102
RTVSPropertyOp25
 70
     1
102
RTVSPropertyOp26
 70
     1
102
RTVSPropertyOp27
 70
     1
102
RTVSPropertyOp28
 70
     1
102
RTVSPropertyOp29
 70
     1
102
RTVSPropertyOp30
 70
     1
102
RTVSPropertyOp31
 70
     1
102
RTVSPropertyOp32
 70
     1
102
RTVSPropertyOp33
 70
     1
102
RTVSPropertyOp34
 70
     1
102
RTVSPropertyOp35
 70
     1
102
RTVSPropertyOp36
 70
     1
102
RTVSPropertyOp37
 70
     1
102
RTVSPropertyOp38
 70
     1
102
RTVSPropertyOp39
 70
     1
102
RTVSPropertyOp40
 70
     1
102
RTVSPropertyOp41
 70
     1
102
RTVSPropertyOp42
 70
     1
102
RTVSPropertyOp43
 70
     1
102
RTVSPropertyOp44
 70
     1
102
RTVSPropertyOp45
 70
     1
102
RTVSPropertyOp46
 70
     1
102
RTVSPropertyOp47
 70
     1
102
RTVSPropertyOp48
 70
     1
102
RTVSPropertyOp49
 70
     1
102
RTVSPropertyOp50
 70
     1
102
RTVSPropertyOp51
 70
     0
102
RTVSPropertyOp52
 70
     0
102
RTVSPropertyOp53
 70
     1
102
RTVSPropertyOp54
 70
     1
102
RTVSPropertyOp55
 70
     1
102
RTVSPropertyOp56
 70
     1
102
RTVSPropertyOp57
 70
     1
102
RTVSPost2010Prop28
280
     0
102
RTVSPost2010PropOp28
 70
     1
102
RTVSPost2010Prop29
280
     1
102
RTVSPost2010PropOp29
 70
     1
102
RTVSPost2010Prop30
280
     1
102
RTVSPost2010PropOp30
 70
     1
102
RTVSPost2010Prop31
280
     0
102
RTVSPost2010PropOp31
 70
     1
102
RTVSPost2010Prop32
280
     0
102
RTVSPost2010PropOp32
 70
     1
102
RTVSPost2010Prop33
280
     0
102
RTVSPost2010PropOp33
 70
     1
102
RTVSPost2010Prop34
280
     0
102
RTVSPost2010PropOp34
 70
     1
102
RTVSPost2010Prop35
280
     0
102
RTVSPost2010PropOp35
 70
     1
102
RTVSPost2010Prop36
280
     0
102
RTVSPost2010PropOp36
 70
     1
102
RTVSPost2010Prop37
 90
       50
102
RTVSPost2010PropOp37
 70
     1
102
RTVSPost2010Prop38
140
0.0
102
RTVSPost2010PropOp38
 70
     1
102
RTVSPost2010Prop39
140
1.0
102
RTVSPost2010PropOp39
 70
     1
102
RTVSPost2010Prop40
 90
        0
102
RTVSPost2010PropOp40
 70
     1
102
RTVSPost2010Prop41ColorIndex
 90
       18
102
RTVSPost2010Prop41ColorRGB
 90
        0
102
RTVSPost2010PropOp41
 70
     1
102
RTVSPost2010Prop42
 90
       50
102
RTVSPost2010PropOp42
 70
     1
102
RTVSPost2010Prop43
 90
        3
102
RTVSPost2010PropOp43
 70
     1
102
RTVSPost2010Prop44ColorIndex
 90
        5
102
RTVSPost2010Prop44ColorRGB
 90
      255
102
RTVSPost2010PropOp44
 70
     1
102
RTVSPost2010Prop45
280
     0
102
RTVSPost2010PropOp45
 70
     1
102
RTVSPost2010Prop46
 90
       50
102
RTVSPost2010PropOp46
 70
     1
102
RTVSPost2010Prop47
 90
       50
102
RTVSPost2010PropOp47
 70
     1
102
RTVSPost2010Prop48
 90
       50
102
RTVSPost2010PropOp48
 70
     1
102
RTVSPost2010Prop49
280
     0
102
RTVSPost2010PropOp49
 70
     1
102
RTVSPost2010Prop50
 90
       50
102
RTVSPost2010PropOp50
 70
     1
102
RTVSPost2010Prop51ColorIndex
 90
      256
102
RTVSPost2010Prop51ColorRGB
 90
-16777216
102
RTVSPost2010PropOp51
 70
     0
102
RTVSPost2010Prop52
140
1.0
102
RTVSPost2010PropOp52
 70
     0
102
RTVSPost2010Prop53
 90
        2
102
RTVSPost2010PropOp53
 70
     1
102
RTVSPost2010Prop54
  1
strokes_ogs.tif
102
RTVSPost2010PropOp54
 70
     1
102
RTVSPost2010Prop55
280
     0
102
RTVSPost2010PropOp55
 70
     1
102
RTVSPost2010Prop56
140
1.0
102
RTVSPost2010PropOp56
 70
     1
102
RTVSPost2010Prop57
140
1.0
102
RTVSPost2010PropOp57
 70
     1
  0
XRECORD
  5
32E
102
{ACAD_REACTORS
330
32D
102
}
330
32D
100
AcDbXrecord
280
     1
102
RTVSPropertyOp0
 70
     1
102
RTVSPropertyOp1
 70
     1
102
RTVSPropertyOp2
 70
     1
102
RTVSPropertyOp3
 70
     1
102
RTVSPropertyOp4
 70
     1
102
RTVSPropertyOp5
 70
     1
102
RTVSPropertyOp6
 70
     1
102
RTVSPropertyOp7
 70
     1
102
RTVSPropertyOp8
 70
     1
102
RTVSPropertyOp9
 70
     1
102
RTVSPropertyOp10
 70
     1
102
RTVSPropertyOp11
 70
     1
102
RTVSPropertyOp12
 70
     1
102
RTVSPropertyOp13
 70
     1
102
RTVSPropertyOp14
 70
     1
102
RTVSPropertyOp15
 70
     1
102
RTVSPropertyOp16
 70
     1
102
RTVSPropertyOp17
 70
     1
102
RTVSPropertyOp18
 70
     1
102
RTVSPropertyOp19
 70
     1
102
RTVSPropertyOp20
 70
     1
102
RTVSPropertyOp21
 70
     1
102
RTVSPropertyOp22
 70
     1
102
RTVSPropertyOp23
 70
     1
102
RTVSPropertyOp24
 70
     1
102
RTVSPropertyOp25
 70
     1
102
RTVSPropertyOp26
 70
     1
102
RTVSPropertyOp27
 70
     1
102
RTVSPropertyOp28
 70
     1
102
RTVSPropertyOp29
 70
     1
102
RTVSPropertyOp30
 70
     1
102
RTVSPropertyOp31
 70
     1
102
RTVSPropertyOp32
 70
     1
102
RTVSPropertyOp33
 70
     1
102
RTVSPropertyOp34
 70
     1
102
RTVSPropertyOp35
 70
     1
102
RTVSPropertyOp36
 70
     1
102
RTVSPropertyOp37
 70
     1
102
RTVSPropertyOp38
 70
     1
102
RTVSPropertyOp39
 70
     1
102
RTVSPropertyOp40
 70
     1
102
RTVSPropertyOp41
 70
     1
102
RTVSPropertyOp42
 70
     1
102
RTVSPropertyOp43
 70
     1
102
RTVSPropertyOp44
 70
     1
102
RTVSPropertyOp45
 70
     1
102
RTVSPropertyOp46
 70
     1
102
RTVSPropertyOp47
 70
     1
102
RTVSPropertyOp48
 70
     1
102
RTVSPropertyOp49
 70
     1
102
RTVSPropertyOp50
 70
     1
102
RTVSPropertyOp51
 70
     0
102
RTVSPropertyOp52
 70
     0
102
RTVSPropertyOp53
 70
     1
102
RTVSPropertyOp54
 70
     1
102
RTVSPropertyOp55
 70
     1
102
RTVSPropertyOp56
 70
     1
102
RTVSPropertyOp57
 70
     1
102
RTVSPost2010Prop28
280
     0
102
RTVSPost2010PropOp28
 70
     1
102
RTVSPost2010Prop29
280
     1
102
RTVSPost2010PropOp29
 70
     1
102
RTVSPost2010Prop30
280
     1
102
RTVSPost2010PropOp30
 70
     1
102
RTVSPost2010Prop31
280
     0
102
RTVSPost2010PropOp31
 70
     1
102
RTVSPost2010Prop32
280
     0
102
RTVSPost2010PropOp32
 70
     1
102
RTVSPost2010Prop33
280
     0
102
RTVSPost2010PropOp33
 70
     1
102
RTVSPost2010Prop34
280
     0
102
RTVSPost2010PropOp34
 70
     1
102
RTVSPost2010Prop35
280
     0
102
RTVSPost2010PropOp35
 70
     1
102
RTVSPost2010Prop36
280
     0
102
RTVSPost2010PropOp36
 70
     1
102
RTVSPost2010Prop37
 90
       50
102
RTVSPost2010PropOp37
 70
     1
102
RTVSPost2010Prop38
140
0.0
102
RTVSPost2010PropOp38
 70
     1
102
RTVSPost2010Prop39
140
1.0
102
RTVSPost2010PropOp39
 70
     1
102
RTVSPost2010Prop40
 90
        0
102
RTVSPost2010PropOp40
 70
     1
102
RTVSPost2010Prop41ColorIndex
 90
       18
102
RTVSPost2010Prop41ColorRGB
 90
        0
102
RTVSPost2010PropOp41
 70
     1
102
RTVSPost2010Prop42
 90
       50
102
RTVSPost2010PropOp42
 70
     1
102
RTVSPost2010Prop43
 90
        3
102
RTVSPost2010PropOp43
 70
     1
102
RTVSPost2010Prop44ColorIndex
 90
        5
102
RTVSPost2010Prop44ColorRGB
 90
      255
102
RTVSPost2010PropOp44
 70
     1
102
RTVSPost2010Prop45
280
     0
102
RTVSPost2010PropOp45
 70
     1
102
RTVSPost2010Prop46
 90
       50
102
RTVSPost2010PropOp46
 70
     1
102
RTVSPost2010Prop47
 90
       50
102
RTVSPost2010PropOp47
 70
     1
102
RTVSPost2010Prop48
 90
       50
102
RTVSPost2010PropOp48
 70
     1
102
RTVSPost2010Prop49
280
     0
102
RTVSPost2010PropOp49
 70
     1
102
RTVSPost2010Prop50
 90
       50
102
RTVSPost2010PropOp50
 70
     1
102
RTVSPost2010Prop51ColorIndex
 90
      256
102
RTVSPost2010Prop51ColorRGB
 90
-16777216
102
RTVSPost2010PropOp51
 70
     0
102
RTVSPost2010Prop52
140
1.0
102
RTVSPost2010PropOp52
 70
     0
102
RTVSPost2010Prop53
 90
        2
102
RTVSPost2010PropOp53
 70
     1
102
RTVSPost2010Prop54
  1
strokes_ogs.tif
102
RTVSPost2010PropOp54
 70
     1
102
RTVSPost2010Prop55
280
     0
102
RTVSPost2010PropOp55
 70
     1
102
RTVSPost2010Prop56
140
1.0
102
RTVSPost2010PropOp56
 70
     1
102
RTVSPost2010Prop57
140
1.0
102
RTVSPost2010PropOp57
 70
     1
  0
XRECORD
  5
34E
102
{ACAD_REACTORS
330
34D
102
}
330
34D
100
AcDbXrecord
280
     1
102
RTVSPropertyOp0
 70
     1
102
RTVSPropertyOp1
 70
     1
102
RTVSPropertyOp2
 70
     1
102
RTVSPropertyOp3
 70
     1
102
RTVSPropertyOp4
 70
     1
102
RTVSPropertyOp5
 70
     1
102
RTVSPropertyOp6
 70
     1
102
RTVSPropertyOp7
 70
     1
102
RTVSPropertyOp8
 70
     1
102
RTVSPropertyOp9
 70
     1
102
RTVSPropertyOp10
 70
     1
102
RTVSPropertyOp11
 70
     1
102
RTVSPropertyOp12
 70
     1
102
RTVSPropertyOp13
 70
     1
102
RTVSPropertyOp14
 70
     1
102
RTVSPropertyOp15
 70
     1
102
RTVSPropertyOp16
 70
     1
102
RTVSPropertyOp17
 70
     1
102
RTVSPropertyOp18
 70
     1
102
RTVSPropertyOp19
 70
     1
102
RTVSPropertyOp20
 70
     1
102
RTVSPropertyOp21
 70
     1
102
RTVSPropertyOp22
 70
     1
102
RTVSPropertyOp23
 70
     1
102
RTVSPropertyOp24
 70
     1
102
RTVSPropertyOp25
 70
     1
102
RTVSPropertyOp26
 70
     1
102
RTVSPropertyOp27
 70
     1
102
RTVSPropertyOp28
 70
     1
102
RTVSPropertyOp29
 70
     1
102
RTVSPropertyOp30
 70
     1
102
RTVSPropertyOp31
 70
     1
102
RTVSPropertyOp32
 70
     1
102
RTVSPropertyOp33
 70
     1
102
RTVSPropertyOp34
 70
     1
102
RTVSPropertyOp35
 70
     1
102
RTVSPropertyOp36
 70
     1
102
RTVSPropertyOp37
 70
     1
102
RTVSPropertyOp38
 70
     1
102
RTVSPropertyOp39
 70
     1
102
RTVSPropertyOp40
 70
     1
102
RTVSPropertyOp41
 70
     1
102
RTVSPropertyOp42
 70
     1
102
RTVSPropertyOp43
 70
     1
102
RTVSPropertyOp44
 70
     1
102
RTVSPropertyOp45
 70
     1
102
RTVSPropertyOp46
 70
     1
102
RTVSPropertyOp47
 70
     1
102
RTVSPropertyOp48
 70
     1
102
RTVSPropertyOp49
 70
     1
102
RTVSPropertyOp50
 70
     1
102
RTVSPropertyOp51
 70
     0
102
RTVSPropertyOp52
 70
     0
102
RTVSPropertyOp53
 70
     1
102
RTVSPropertyOp54
 70
     1
102
RTVSPropertyOp55
 70
     1
102
RTVSPropertyOp56
 70
     1
102
RTVSPropertyOp57
 70
     1
102
RTVSPost2010Prop28
280
     0
102
RTVSPost2010PropOp28
 70
     1
102
RTVSPost2010Prop29
280
     1
102
RTVSPost2010PropOp29
 70
     1
102
RTVSPost2010Prop30
280
     1
102
RTVSPost2010PropOp30
 70
     1
102
RTVSPost2010Prop31
280
     0
102
RTVSPost2010PropOp31
 70
     1
102
RTVSPost2010Prop32
280
     0
102
RTVSPost2010PropOp32
 70
     1
102
RTVSPost2010Prop33
280
     0
102
RTVSPost2010PropOp33
 70
     1
102
RTVSPost2010Prop34
280
     0
102
RTVSPost2010PropOp34
 70
     1
102
RTVSPost2010Prop35
280
     0
102
RTVSPost2010PropOp35
 70
     1
102
RTVSPost2010Prop36
280
     0
102
RTVSPost2010PropOp36
 70
     1
102
RTVSPost2010Prop37
 90
       50
102
RTVSPost2010PropOp37
 70
     1
102
RTVSPost2010Prop38
140
0.0
102
RTVSPost2010PropOp38
 70
     1
102
RTVSPost2010Prop39
140
1.0
102
RTVSPost2010PropOp39
 70
     1
102
RTVSPost2010Prop40
 90
        0
102
RTVSPost2010PropOp40
 70
     1
102
RTVSPost2010Prop41ColorIndex
 90
       18
102
RTVSPost2010Prop41ColorRGB
 90
        0
102
RTVSPost2010PropOp41
 70
     1
102
RTVSPost2010Prop42
 90
       50
102
RTVSPost2010PropOp42
 70
     1
102
RTVSPost2010Prop43
 90
        3
102
RTVSPost2010PropOp43
 70
     1
102
RTVSPost2010Prop44ColorIndex
 90
        5
102
RTVSPost2010Prop44ColorRGB
 90
      255
102
RTVSPost2010PropOp44
 70
     1
102
RTVSPost2010Prop45
280
     0
102
RTVSPost2010PropOp45
 70
     1
102
RTVSPost2010Prop46
 90
       50
102
RTVSPost2010PropOp46
 70
     1
102
RTVSPost2010Prop47
 90
       50
102
RTVSPost2010PropOp47
 70
     1
102
RTVSPost2010Prop48
 90
       50
102
RTVSPost2010PropOp48
 70
     1
102
RTVSPost2010Prop49
280
     0
102
RTVSPost2010PropOp49
 70
     1
102
RTVSPost2010Prop50
 90
       50
102
RTVSPost2010PropOp50
 70
     1
102
RTVSPost2010Prop51ColorIndex
 90
      256
102
RTVSPost2010Prop51ColorRGB
 90
-16777216
102
RTVSPost2010PropOp51
 70
     0
102
RTVSPost2010Prop52
140
1.0
102
RTVSPost2010PropOp52
 70
     0
102
RTVSPost2010Prop53
 90
        2
102
RTVSPost2010PropOp53
 70
     1
102
RTVSPost2010Prop54
  1
strokes_ogs.tif
102
RTVSPost2010PropOp54
 70
     1
102
RTVSPost2010Prop55
280
     0
102
RTVSPost2010PropOp55
 70
     1
102
RTVSPost2010Prop56
140
1.0
102
RTVSPost2010PropOp56
 70
     1
102
RTVSPost2010Prop57
140
1.0
102
RTVSPost2010PropOp57
 70
     1
  0
ENDSEC
  0
EOF
