  0
SECTION
  2
HEADER
  9
$ACADVER
  1
AC1018
  9
$ACADMAINTVER
 70
     0
  9
$DWGCODEPAGE
  3
ANSI_1252
  9
$INSBASE
 10
0.0
 20
0.0
 30
0.0
  9
$EXTMIN
 10
-237.3000002812354
 20
9.65000002477683
 30
0.0
  9
$EXTMAX
 10
59.69999971876263
 20
219.6500000247769
 30
0.0
  9
$LIMMIN
 10
0.0
 20
0.0
  9
$LIMMAX
 10
12.0
 20
9.0
  9
$ORTHOMODE
 70
     0
  9
$REGENMODE
 70
     1
  9
$FILLMODE
 70
     1
  9
$QTEXTMODE
 70
     0
  9
$MIRRTEXT
 70
     1
  9
$LTSCALE
 40
1.0
  9
$ATTMODE
 70
     1
  9
$TEXTSIZE
 40
0.2
  9
$TRACEWID
 40
0.05
  9
$TEXTSTYLE
  7
Standard
  9
$CLAYER
  8
0
  9
$CELTYPE
  6
ByLayer
  9
$CECOLOR
 62
   256
  9
$CELTSCALE
 40
1.0
  9
$DISPSILH
 70
     0
  9
$DIMSCALE
 40
1.0
  9
$DIMASZ
 40
0.18
  9
$DIMEXO
 40
0.0625
  9
$DIMDLI
 40
0.38
  9
$DIMRND
 40
0.0
  9
$DIMDLE
 40
0.0
  9
$DIMEXE
 40
0.18
  9
$DIMTP
 40
0.0
  9
$DIMTM
 40
0.0
  9
$DIMTXT
 40
0.18
  9
$DIMCEN
 40
0.09
  9
$DIMTSZ
 40
0.0
  9
$DIMTOL
 70
     0
  9
$DIMLIM
 70
     0
  9
$DIMTIH
 70
     1
  9
$DIMTOH
 70
     1
  9
$DIMSE1
 70
     0
  9
$DIMSE2
 70
     0
  9
$DIMTAD
 70
     0
  9
$DIMZIN
 70
     0
  9
$DIMBLK
  1

  9
$DIMASO
 70
     1
  9
$DIMSHO
 70
     1
  9
$DIMPOST
  1

  9
$DIMAPOST
  1

  9
$DIMALT
 70
     0
  9
$DIMALTD
 70
     2
  9
$DIMALTF
 40
25.4
  9
$DIMLFAC
 40
1.0
  9
$DIMTOFL
 70
     0
  9
$DIMTVP
 40
0.0
  9
$DIMTIX
 70
     0
  9
$DIMSOXD
 70
     0
  9
$DIMSAH
 70
     0
  9
$DIMBLK1
  1

  9
$DIMBLK2
  1

  9
$DIMSTYLE
  2
Standard
  9
$DIMCLRD
 70
     0
  9
$DIMCLRE
 70
     0
  9
$DIMCLRT
 70
     0
  9
$DIMTFAC
 40
1.0
  9
$DIMGAP
 40
0.09
  9
$DIMJUST
 70
     0
  9
$DIMSD1
 70
     0
  9
$DIMSD2
 70
     0
  9
$DIMTOLJ
 70
     1
  9
$DIMTZIN
 70
     0
  9
$DIMALTZ
 70
     0
  9
$DIMALTTZ
 70
     0
  9
$DIMUPT
 70
     0
  9
$DIMDEC
 70
     4
  9
$DIMTDEC
 70
     4
  9
$DIMALTU
 70
     2
  9
$DIMALTTD
 70
     2
  9
$DIMTXSTY
  7
Standard
  9
$DIMAUNIT
 70
     0
  9
$DIMADEC
 70
     0
  9
$DIMALTRND
 40
0.0
  9
$DIMAZIN
 70
     0
  9
$DIMDSEP
 70
    46
  9
$DIMATFIT
 70
     3
  9
$DIMFRAC
 70
     0
  9
$DIMLDRBLK
  1

  9
$DIMLUNIT
 70
     2
  9
$DIMLWD
 70
    -2
  9
$DIMLWE
 70
    -2
  9
$DIMTMOVE
 70
     0
  9
$LUNITS
 70
     2
  9
$LUPREC
 70
     4
  9
$SKETCHINC
 40
0.1
  9
$FILLETRAD
 40
0.5
  9
$AUNITS
 70
     0
  9
$AUPREC
 70
     0
  9
$MENU
  1
.
  9
$ELEVATION
 40
0.0
  9
$PELEVATION
 40
0.0
  9
$THICKNESS
 40
0.0
  9
$LIMCHECK
 70
     0
  9
$CHAMFERA
 40
0.5
  9
$CHAMFERB
 40
0.5
  9
$CHAMFERC
 40
1.0
  9
$CHAMFERD
 40
0.0
  9
$SKPOLY
 70
     0
  9
$TDCREATE
 40
2458150.440082349
  9
$TDUCREATE
 40
2458150.398415683
  9
$TDUPDATE
 40
2458150.440082894
  9
$TDUUPDATE
 40
2458150.398416227
  9
$TDINDWG
 40
0.0000000116
  9
$TDUSRTIMER
 40
0.0000000116
  9
$USRTIMER
 70
     1
  9
$ANGBASE
 50
0.0
  9
$ANGDIR
 70
     0
  9
$PDMODE
 70
     0
  9
$PDSIZE
 40
0.0
  9
$PLINEWID
 40
0.0
  9
$SPLFRAME
 70
     0
  9
$SPLINETYPE
 70
     6
  9
$SPLINESEGS
 70
     8
  9
$HANDSEED
  5
446
  9
$SURFTAB1
 70
     6
  9
$SURFTAB2
 70
     6
  9
$SURFTYPE
 70
     6
  9
$SURFU
 70
     6
  9
$SURFV
 70
     6
  9
$UCSBASE
  2

  9
$UCSNAME
  2

  9
$UCSORG
 10
0.0
 20
0.0
 30
0.0
  9
$UCSXDIR
 10
1.0
 20
0.0
 30
0.0
  9
$UCSYDIR
 10
0.0
 20
1.0
 30
0.0
  9
$UCSORTHOREF
  2

  9
$UCSORTHOVIEW
 70
     0
  9
$UCSORGTOP
 10
0.0
 20
0.0
 30
0.0
  9
$UCSORGBOTTOM
 10
0.0
 20
0.0
 30
0.0
  9
$UCSORGLEFT
 10
0.0
 20
0.0
 30
0.0
  9
$UCSORGRIGHT
 10
0.0
 20
0.0
 30
0.0
  9
$UCSORGFRONT
 10
0.0
 20
0.0
 30
0.0
  9
$UCSORGBACK
 10
0.0
 20
0.0
 30
0.0
  9
$PUCSBASE
  2

  9
$PUCSNAME
  2

  9
$PUCSORG
 10
0.0
 20
0.0
 30
0.0
  9
$PUCSXDIR
 10
1.0
 20
0.0
 30
0.0
  9
$PUCSYDIR
 10
0.0
 20
1.0
 30
0.0
  9
$PUCSORTHOREF
  2

  9
$PUCSORTHOVIEW
 70
     0
  9
$PUCSORGTOP
 10
0.0
 20
0.0
 30
0.0
  9
$PUCSORGBOTTOM
 10
0.0
 20
0.0
 30
0.0
  9
$PUCSORGLEFT
 10
0.0
 20
0.0
 30
0.0
  9
$PUCSORGRIGHT
 10
0.0
 20
0.0
 30
0.0
  9
$PUCSORGFRONT
 10
0.0
 20
0.0
 30
0.0
  9
$PUCSORGBACK
 10
0.0
 20
0.0
 30
0.0
  9
$USERI1
 70
     0
  9
$USERI2
 70
     0
  9
$USERI3
 70
     0
  9
$USERI4
 70
     0
  9
$USERI5
 70
     0
  9
$USERR1
 40
18.1
  9
$USERR2
 40
0.0
  9
$USERR3
 40
0.0
  9
$USERR4
 40
0.0
  9
$USERR5
 40
0.0
  9
$WORLDVIEW
 70
     1
  9
$SHADEDGE
 70
     3
  9
$SHADEDIF
 70
    70
  9
$TILEMODE
 70
     1
  9
$MAXACTVP
 70
    64
  9
$PINSBASE
 10
0.0
 20
0.0
 30
0.0
  9
$PLIMCHECK
 70
     0
  9
$PEXTMIN
 10
1.00000000000000E+20
 20
1.00000000000000E+20
 30
1.00000000000000E+20
  9
$PEXTMAX
 10
-1.00000000000000E+20
 20
-1.00000000000000E+20
 30
-1.00000000000000E+20
  9
$PLIMMIN
 10
0.0
 20
0.0
  9
$PLIMMAX
 10
12.0
 20
9.0
  9
$UNITMODE
 70
     0
  9
$VISRETAIN
 70
     1
  9
$PLINEGEN
 70
     0
  9
$PSLTSCALE
 70
     1
  9
$TREEDEPTH
 70
  3020
  9
$CMLSTYLE
  2
Standard
  9
$CMLJUST
 70
     0
  9
$CMLSCALE
 40
1.0
  9
$PROXYGRAPHICS
 70
     1
  9
$MEASUREMENT
 70
     1
  9
$CELWEIGHT
370
    -1
  9
$ENDCAPS
280
     0
  9
$JOINSTYLE
280
     0
  9
$LWDISPLAY
290
     0
  9
$INSUNITS
 70
     4
  9
$HYPERLINKBASE
  1

  9
$STYLESHEET
  1

  9
$XEDIT
290
     1
  9
$CEPSNTYPE
380
     0
  9
$PSTYLEMODE
290
     1
  9
$FINGERPRINTGUID
  2
{1F95BF92-6121-4BE4-90DF-80CC1580FCC5}
  9
$VERSIONGUID
  2
{FAEB1C32-E019-11D5-929B-00C0DF256EC4}
  9
$EXTNAMES
290
     1
  9
$PSVPSCALE
 40
0.0
  9
$OLESTARTUP
290
     0
  9
$SORTENTS
280
   127
  9
$INDEXCTL
280
     0
  9
$HIDETEXT
280
     1
  9
$XCLIPFRAME
290
     0
  9
$HALOGAP
280
     0
  9
$OBSCOLOR
 70
   257
  9
$OBSLTYPE
280
     0
  9
$INTERSECTIONDISPLAY
280
     0
  9
$INTERSECTIONCOLOR
 70
   257
  9
$DIMASSOC
280
     2
  9
$PROJECTNAME
  1

  0
ENDSEC
  0
SECTION
  2
CLASSES
  0
CLASS
  1
ACDBDICTIONARYWDFLT
  2
AcDbDictionaryWithDefault
  3
ObjectDBX Classes
 90
        0
 91
        4
280
     0
281
     0
  0
CLASS
  1
VISUALSTYLE
  2
AcDbVisualStyle
  3
ObjectDBX Classes
 90
     4095
 91
        4
280
     0
281
     0
  0
CLASS
  1
MATERIAL
  2
AcDbMaterial
  3
ObjectDBX Classes
 90
     1153
 91
        4
280
     0
281
     0
  0
ENDSEC
  0
SECTION
  2
TABLES
  0
TABLE
  2
VPORT
  5
8
330
0
100
AcDbSymbolTable
 70
     1
  0
VPORT
  5
29
330
8
100
AcDbSymbolTableRecord
100
AcDbViewportTableRecord
  2
*Active
 70
     0
 10
0.0
 20
0.0
 11
1.0
 21
1.0
 12
-88.8000002812364
 22
114.6500000247769
 13
0.0
 23
0.0
 14
0.5
 24
0.5
 15
0.5
 25
0.5
 16
0.0
 26
0.0
 36
1.0
 17
0.0
 27
0.0
 37
0.0
 40
231.0000000000001
 41
1.60267857142857
 42
50.0
 43
0.0
 44
0.0
 50
0.0
 51
0.0
 71
     0
 72
   100
 73
     1
 74
     3
 75
     0
 76
     0
 77
     0
 78
     0
281
     0
 65
     1
110
0.0
120
0.0
130
0.0
111
1.0
121
0.0
131
0.0
112
0.0
122
1.0
132
0.0
 79
     0
146
0.0
  0
ENDTAB
  0
TABLE
  2
LTYPE
  5
5
330
0
100
AcDbSymbolTable
 70
     8
  0
LTYPE
  5
14
330
5
100
AcDbSymbolTableRecord
100
AcDbLinetypeTableRecord
  2
ByBlock
 70
     0
  3

 72
    65
 73
     0
 40
0.0
  0
LTYPE
  5
15
330
5
100
AcDbSymbolTableRecord
100
AcDbLinetypeTableRecord
  2
ByLayer
 70
     0
  3

 72
    65
 73
     0
 40
0.0
  0
LTYPE
  5
16
330
5
100
AcDbSymbolTableRecord
100
AcDbLinetypeTableRecord
  2
Continuous
 70
     0
  3
Solid line
 72
    65
 73
     0
 40
0.0
  0
LTYPE
  5
3F
330
5
100
AcDbSymbolTableRecord
100
AcDbLinetypeTableRecord
  2
DASHED
 70
     0
  3
Dashed
 72
    65
 73
     2
 40
15.0
 49
7.0
 74
     0
 49
-8.0
 74
     0
  0
LTYPE
  5
40
330
5
100
AcDbSymbolTableRecord
100
AcDbLinetypeTableRecord
  2
DOTTED
 70
     0
  3
Dotted
 72
    65
 73
     2
 40
1.0
 49
0.0
 74
     0
 49
-1.0
 74
     0
  0
LTYPE
  5
41
330
5
100
AcDbSymbolTableRecord
100
AcDbLinetypeTableRecord
  2
DOT_CENTER
 70
     0
  3
Dot_Center
 72
    65
 73
     4
 40
14.0
 49
12.0
 74
     0
 49
-1.0
 74
     0
 49
0.0
 74
     0
 49
-1.0
 74
     0
  0
LTYPE
  5
42
330
5
100
AcDbSymbolTableRecord
100
AcDbLinetypeTableRecord
  2
LONG_DASHED
 70
     0
  3
Long_Dashed
 72
    65
 73
     2
 40
15.0
 49
10.0
 74
     0
 49
-5.0
 74
     0
  0
LTYPE
  5
43
330
5
100
AcDbSymbolTableRecord
100
AcDbLinetypeTableRecord
  2
DASH_CENTER
 70
     0
  3
Dash_Center
 72
    65
 73
     4
 40
14.0
 49
11.0
 74
     0
 49
-1.0
 74
     0
 49
1.0
 74
     0
 49
-1.0
 74
     0
  0
LTYPE
  5
44
330
5
100
AcDbSymbolTableRecord
100
AcDbLinetypeTableRecord
  2
PHANTOM
 70
     0
  3
Phantom
 72
    65
 73
     6
 40
13.0
 49
10.0
 74
     0
 49
-1.0
 74
     0
 49
0.0
 74
     0
 49
-1.0
 74
     0
 49
0.0
 74
     0
 49
-1.0
 74
     0
  0
LTYPE
  5
45
330
5
100
AcDbSymbolTableRecord
100
AcDbLinetypeTableRecord
  2
CENTER_DASH_DASH
 70
     0
  3
Center_Dash_Dash
 72
    65
 73
     6
 40
14.0
 49
9.0
 74
     0
 49
-1.0
 74
     0
 49
1.0
 74
     0
 49
-1.0
 74
     0
 49
1.0
 74
     0
 49
-1.0
 74
     0
  0
ENDTAB
  0
TABLE
  2
LAYER
  5
2
330
0
100
AcDbSymbolTable
 70
     2
  0
LAYER
  5
10
330
2
100
AcDbSymbolTableRecord
100
AcDbLayerTableRecord
  2
0
 70
     0
 62
     7
  6
Continuous
370
    -3
390
F
  0
LAYER
  5
46
330
2
100
AcDbSymbolTableRecord
100
AcDbLayerTableRecord
  2
1
 70
     0
 62
     7
  6
Continuous
370
    -3
390
F
  0
ENDTAB
  0
TABLE
  2
STYLE
  5
3
330
0
100
AcDbSymbolTable
 70
     5
  0
STYLE
  5
11
330
3
100
AcDbSymbolTableRecord
100
AcDbTextStyleTableRecord
  2
Standard
 70
     0
 40
0.0
 41
1.0
 50
0.0
 71
     0
 42
0.2
  3
txt
  4

  0
STYLE
  5
101
330
3
100
AcDbSymbolTableRecord
100
AcDbTextStyleTableRecord
  2
CONVERTER_11
 70
     0
 40
0.0
 41
0.9
 50
0.0
 71
     0
 42
0.2
  3
txt.shx
  4

  0
STYLE
  5
3DC
330
3
100
AcDbSymbolTableRecord
100
AcDbTextStyleTableRecord
  2
CONVERTER_12
 70
     0
 40
0.0
 41
0.81
 50
0.0
 71
     0
 42
0.2
  3
txt.shx
  4

  0
STYLE
  5
3E2
330
3
100
AcDbSymbolTableRecord
100
AcDbTextStyleTableRecord
  2
CONVERTER_13
 70
     0
 40
0.0
 41
0.855
 50
0.0
 71
     0
 42
0.2
  3
txt.shx
  4

  0
STYLE
  5
3E5
330
3
100
AcDbSymbolTableRecord
100
AcDbTextStyleTableRecord
  2
CONVERTER_14
 70
     0
 40
0.0
 41
0.72
 50
0.0
 71
     0
 42
0.2
  3
txt.shx
  4

  0
ENDTAB
  0
TABLE
  2
VIEW
  5
6
330
0
100
AcDbSymbolTable
 70
     0
  0
ENDTAB
  0
TABLE
  2
UCS
  5
7
330
0
100
AcDbSymbolTable
 70
     0
  0
ENDTAB
  0
TABLE
  2
APPID
  5
9
330
0
100
AcDbSymbolTable
 70
     1
  0
APPID
  5
12
330
9
100
AcDbSymbolTableRecord
100
AcDbRegAppTableRecord
  2
ACAD
 70
     0
  0
ENDTAB
  0
TABLE
  2
DIMSTYLE
  5
A
330
0
100
AcDbSymbolTable
 70
     5
100
AcDbDimStyleTable
  0
DIMSTYLE
105
27
330
A
100
AcDbSymbolTableRecord
100
AcDbDimStyleTableRecord
  2
Standard
 70
     0
178
     0
340
11
  0
DIMSTYLE
105
131
102
{ACAD_REACTORS
330
132
102
}
330
A
100
AcDbSymbolTableRecord
100
AcDbDimStyleTableRecord
  2
ME10_DIM_10
 70
     0
 41
3.5
 42
0.0
 44
1.5
 73
     0
 74
     0
 77
     1
 78
     8
140
3.5
147
1.5
172
     1
173
     1
174
     1
175
     1
176
     2
177
     2
178
     3
340
101
  0
DIMSTYLE
105
2CD
102
{ACAD_REACTORS
330
2CE
102
}
330
A
100
AcDbSymbolTableRecord
100
AcDbDimStyleTableRecord
  2
ME10_DIM_11
 70
     0
 41
3.5
 42
0.0
 44
1.5
 73
     0
 74
     0
 77
     1
 78
     8
140
3.5
147
1.5
172
     1
173
     1
174
     1
175
     1
176
     2
177
     2
178
     3
340
101
  0
DIMSTYLE
105
2D8
102
{ACAD_REACTORS
330
2D9
102
}
330
A
100
AcDbSymbolTableRecord
100
AcDbDimStyleTableRecord
  2
ME10_DIM_12
 70
     0
 41
3.5
 42
0.0
 44
1.5
 73
     0
 74
     0
 77
     1
 78
     8
140
3.5
147
1.5
172
     1
173
     1
174
     1
175
     1
176
     2
177
     2
178
     3
340
101
  0
DIMSTYLE
105
2E3
102
{ACAD_REACTORS
330
2E4
102
}
330
A
100
AcDbSymbolTableRecord
100
AcDbDimStyleTableRecord
  2
ME10_DIM_13
 70
     0
 41
3.5
 42
0.0
 44
1.5
 73
     0
 74
     0
 77
     1
 78
     8
140
3.5
147
1.5
172
     1
173
     1
174
     1
175
     1
176
     2
177
     2
178
     3
340
101
  0
ENDTAB
  0
TABLE
  2
BLOCK_RECORD
  5
1
330
0
100
AcDbSymbolTable
 70
    21
  0
BLOCK_RECORD
  5
1F
330
1
100
AcDbSymbolTableRecord
100
AcDbBlockTableRecord
  2
*Model_Space
340
22
  0
BLOCK_RECORD
  5
1B
330
1
100
AcDbSymbolTableRecord
100
AcDbBlockTableRecord
  2
*Paper_Space
340
1E
  0
BLOCK_RECORD
  5
23
330
1
100
AcDbSymbolTableRecord
100
AcDbBlockTableRecord
  2
*Paper_Space0
340
26
  0
BLOCK_RECORD
  5
47
330
1
100
AcDbSymbolTableRecord
100
AcDbBlockTableRecord
  2
VAL_MS_500_ST-select__1
340
0
102
{BLKREFS
331
4B
102
}
  0
BLOCK_RECORD
  5
4A
330
1
100
AcDbSymbolTableRecord
100
AcDbBlockTableRecord
  2
Allg2
340
0
102
{BLKREFS
331
7D
102
}
  0
BLOCK_RECORD
  5
4E
330
1
100
AcDbSymbolTableRecord
100
AcDbBlockTableRecord
  2
VAL_MS_500_ST-select__2
340
0
102
{BLKREFS
331
52
102
}
  0
BLOCK_RECORD
  5
51
330
1
100
AcDbSymbolTableRecord
100
AcDbBlockTableRecord
  2
Drfsicht2
340
0
102
{BLKREFS
331
7E
102
}
  0
BLOCK_RECORD
  5
55
330
1
100
AcDbSymbolTableRecord
100
AcDbBlockTableRecord
  2
VAL_MS_500_ST-select__3
340
0
102
{BLKREFS
331
59
102
}
  0
BLOCK_RECORD
  5
58
330
1
100
AcDbSymbolTableRecord
100
AcDbBlockTableRecord
  2
Rckans2
340
0
102
{BLKREFS
331
7F
102
}
  0
BLOCK_RECORD
  5
5C
330
1
100
AcDbSymbolTableRecord
100
AcDbBlockTableRecord
  2
VAL_MS_500_ST-select__4
340
0
102
{BLKREFS
331
60
102
}
  0
BLOCK_RECORD
  5
5F
330
1
100
AcDbSymbolTableRecord
100
AcDbBlockTableRecord
  2
SA_Links2
340
0
102
{BLKREFS
331
80
102
}
  0
BLOCK_RECORD
  5
63
330
1
100
AcDbSymbolTableRecord
100
AcDbBlockTableRecord
  2
VAL_MS_500_ST-select__5
340
0
102
{BLKREFS
331
67
102
}
  0
BLOCK_RECORD
  5
66
330
1
100
AcDbSymbolTableRecord
100
AcDbBlockTableRecord
  2
SA_Rechts2
340
0
102
{BLKREFS
331
81
102
}
  0
BLOCK_RECORD
  5
6A
330
1
100
AcDbSymbolTableRecord
100
AcDbBlockTableRecord
  2
VAL_MS_500_ST-select__6
340
0
102
{BLKREFS
331
6E
102
}
  0
BLOCK_RECORD
  5
6D
330
1
100
AcDbSymbolTableRecord
100
AcDbBlockTableRecord
  2
Vordans2
340
0
102
{BLKREFS
331
82
102
}
  0
BLOCK_RECORD
  5
71
330
1
100
AcDbSymbolTableRecord
100
AcDbBlockTableRecord
  2
_rahmen
340
0
102
{BLKREFS
331
78
102
}
  0
BLOCK_RECORD
  5
74
330
1
100
AcDbSymbolTableRecord
100
AcDbBlockTableRecord
  2
_punkt
340
0
102
{BLKREFS
331
79
102
}
  0
BLOCK_RECORD
  5
77
330
1
100
AcDbSymbolTableRecord
100
AcDbBlockTableRecord
  2
A4I_CS
340
0
102
{BLKREFS
331
83
102
}
  0
BLOCK_RECORD
  5
7C
330
1
100
AcDbSymbolTableRecord
100
AcDbBlockTableRecord
  2
1
340
0
102
{BLKREFS
331
86
102
}
  0
BLOCK_RECORD
  5
128
330
1
100
AcDbSymbolTableRecord
100
AcDbBlockTableRecord
  2
*D17
340
0
  0
BLOCK_RECORD
  5
2C4
330
1
100
AcDbSymbolTableRecord
100
AcDbBlockTableRecord
  2
*D18
340
0
  0
BLOCK_RECORD
  5
2CF
330
1
100
AcDbSymbolTableRecord
100
AcDbBlockTableRecord
  2
*D19
340
0
  0
BLOCK_RECORD
  5
2DA
330
1
100
AcDbSymbolTableRecord
100
AcDbBlockTableRecord
  2
*D20
340
0
  0
ENDTAB
  0
ENDSEC
  0
SECTION
  2
BLOCKS
  0
BLOCK
  5
20
330
1F
100
AcDbEntity
  8
0
100
AcDbBlockBegin
  2
*Model_Space
 70
     0
 10
0.0
 20
0.0
 30
0.0
  3
*Model_Space
  1

  0
ENDBLK
  5
21
330
1F
100
AcDbEntity
  8
0
100
AcDbBlockEnd
  0
BLOCK
  5
1C
330
1B
100
AcDbEntity
 67
     1
  8
0
100
AcDbBlockBegin
  2
*Paper_Space
 70
     0
 10
0.0
 20
0.0
 30
0.0
  3
*Paper_Space
  1

  0
ENDBLK
  5
1D
330
1B
100
AcDbEntity
 67
     1
  8
0
100
AcDbBlockEnd
  0
BLOCK
  5
24
330
23
100
AcDbEntity
  8
0
100
AcDbBlockBegin
  2
*Paper_Space0
 70
     0
 10
0.0
 20
0.0
 30
0.0
  3
*Paper_Space0
  1

  0
ENDBLK
  5
25
330
23
100
AcDbEntity
  8
0
100
AcDbBlockEnd
  0
BLOCK
  5
48
330
47
100
AcDbEntity
  8
0
100
AcDbBlockBegin
  2
VAL_MS_500_ST-select__1
 70
     0
 10
-33.92396858986848
 20
54.93896338311454
 30
0.0
  3
VAL_MS_500_ST-select__1
  1

  0
LINE
  5
87
330
47
100
AcDbEntity
  8
0
  6
Continuous
 62
     7
100
AcDbLine
 10
-14.29713521724608
 20
59.49470021399037
 30
0.0
 11
-19.4932876399528
 21
60.99470021399037
 31
0.0
  0
LINE
  5
88
330
47
100
AcDbEntity
  8
0
  6
Continuous
 62
     7
100
AcDbLine
 10
-19.4932876399528
 20
60.99470021399037
 30
0.0
 11
-19.4932876399528
 21
63.76600620203274
 31
0.0
  0
LINE
  5
89
330
47
100
AcDbEntity
  8
0
  6
Continuous
 62
     7
100
AcDbLine
 10
-8.2744596203313
 20
55.85577370014299
 30
0.0
 11
-8.27445962033119
 21
60.52740951347218
 31
0.0
  0
LINE
  5
8A
330
47
100
AcDbEntity
  8
0
  6
Continuous
 62
     7
100
AcDbLine
 10
-0.71165834541699
 20
58.3442168375223
 30
0.0
 11
-0.71165834541699
 21
56.41006830928026
 31
0.0
  0
LINE
  5
8B
330
47
100
AcDbEntity
  8
0
  6
Continuous
 62
     7
100
AcDbLine
 10
-1.46165834541699
 20
55.76054925644195
 30
0.0
 11
-0.71165834541699
 21
56.41006830928026
 31
0.0
  0
LINE
  5
8C
330
47
100
AcDbEntity
  8
0
  6
Continuous
 62
     7
100
AcDbLine
 10
-6.6578107681236
 20
57.26054925644195
 30
0.0
 11
-6.6578107681236
 21
60.06072318846856
 31
0.0
  0
LINE
  5
8D
330
47
100
AcDbEntity
  8
0
  6
Continuous
 62
     7
100
AcDbLine
 10
-1.46165834541699
 20
58.56072318846843
 30
0.0
 11
-1.46165834541699
 21
55.76054925644195
 31
0.0
  0
LINE
  5
8E
330
47
100
AcDbEntity
  8
0
  6
Continuous
 62
     7
100
AcDbLine
 10
-13.83881679827428
 20
55.83657598219254
 30
0.0
 11
-13.8388167982742
 21
62.13370107074859
 31
0.0
  0
LINE
  5
8F
330
47
100
AcDbEntity
  8
0
  6
Continuous
 62
     2
100
AcDbLine
 10
-10.82803016507478
 20
61.26456183417344
 30
0.0
 11
-10.82803016507501
 21
55.05913105212068
 31
0.0
  0
LINE
  5
90
330
47
100
AcDbEntity
  8
0
  6
Continuous
 62
     7
100
AcDbLine
 10
-8.2750241650748
 20
60.52757248350201
 30
0.0
 11
-8.27502416507488
 21
55.83657616807057
 31
0.0
  0
LINE
  5
91
330
47
100
AcDbEntity
  8
0
  6
Continuous
 62
     7
100
AcDbLine
 10
-14.29713521724608
 20
62.26600620203263
 30
0.0
 11
-14.29713521724608
 21
59.49470021399037
 31
0.0
  0
LINE
  5
92
330
47
100
AcDbEntity
  8
0
  6
Continuous
 62
     7
100
AcDbLine
 10
-14.29713521724608
 20
59.49470021399037
 30
0.0
 11
-13.8388167982742
 21
59.89161560784238
 31
0.0
  0
LINE
  5
93
330
47
100
AcDbEntity
  8
0
  6
Continuous
 62
     7
100
AcDbLine
 10
2.49239967145442
 20
57.41928495825229
 30
0.0
 11
-31.54239869727388
 21
67.24428495825305
 31
0.0
  0
LINE
  5
94
330
47
100
AcDbEntity
  8
0
  6
Continuous
 62
     7
100
AcDbLine
 10
5.8489695318612
 20
57.57615972694224
 30
0.0
 11
5.84896953186171
 21
83.21051167896152
 31
0.0
  0
LINE
  5
95
330
47
100
AcDbEntity
  8
0
  6
Continuous
 62
     7
100
AcDbLine
 10
3.46739967145442
 20
58.26365972694215
 30
0.0
 11
2.49239967145442
 21
57.41928495825229
 31
0.0
  0
LINE
  5
96
330
47
100
AcDbEntity
  8
0
  6
Continuous
 62
     7
100
AcDbLine
 10
3.46739967145442
 20
58.26365972694215
 30
0.0
 11
3.46739967145442
 21
82.77217865404174
 31
0.0
  0
LINE
  5
97
330
47
100
AcDbEntity
  8
0
  6
Continuous
 62
     7
100
AcDbLine
 10
4.87396953186172
 20
85.31062225046229
 30
0.0
 11
4.87396953186172
 21
82.36613691027166
 31
0.0
  0
LINE
  5
98
330
47
100
AcDbEntity
  8
0
  6
Continuous
 62
     7
100
AcDbLine
 10
2.49239967145442
 20
57.41928495825229
 30
0.0
 11
2.49239967145442
 21
83.05363691027169
 31
0.0
  0
LINE
  5
99
330
47
100
AcDbEntity
  8
0
  6
Continuous
 62
     7
100
AcDbLine
 10
4.5275593703474
 20
85.61062450231668
 30
0.0
 11
4.87396953186172
 21
85.31062225046229
 31
0.0
  0
LINE
  5
9A
330
47
100
AcDbEntity
  8
0
  6
Continuous
 62
     7
100
AcDbLine
 10
2.49239967145442
 20
83.05363691027169
 30
0.0
 11
4.87396953186172
 21
82.36613691027166
 31
0.0
  0
LINE
  5
9B
330
47
100
AcDbEntity
  8
0
  6
Continuous
 62
     7
100
AcDbLine
 10
3.46739967145442
 20
58.26365972694215
 30
0.0
 11
5.8489695318612
 21
57.57615972694224
 31
0.0
  0
LINE
  5
9C
330
47
100
AcDbEntity
  8
0
  6
Continuous
 62
     7
100
AcDbLine
 10
-13.83881679827428
 20
55.83657598219254
 30
0.0
 11
-10.82803016507501
 21
55.05913105212068
 31
0.0
  0
LINE
  5
9D
330
47
100
AcDbEntity
  8
0
  6
Continuous
 62
     7
100
AcDbLine
 10
-1.46165834541699
 20
55.76054925644195
 30
0.0
 11
-6.6578107681236
 21
57.26054925644195
 31
0.0
  0
LINE
  5
9E
330
47
100
AcDbEntity
  8
0
  6
Continuous
 62
     7
100
AcDbLine
 10
-32.94896839590459
 20
68.77615968024212
 30
0.0
 11
-31.54239869727388
 21
68.37011798317289
 31
0.0
  0
LINE
  5
9F
330
47
100
AcDbEntity
  8
0
  6
Continuous
 62
     7
100
AcDbLine
 10
-32.94896855057669
 20
93.28467865199164
 30
0.0
 11
-32.94896839590459
 21
68.77615968024212
 31
0.0
  0
LINE
  5
A0
330
47
100
AcDbEntity
  8
0
  6
Continuous
 62
     7
100
AcDbLine
 10
4.5275593703474
 20
89.30773760016967
 30
0.0
 11
4.5275593703474
 21
87.77568801177779
 31
0.0
  0
LINE
  5
A1
330
47
100
AcDbEntity
  8
0
  6
Continuous
 62
     7
100
AcDbLine
 10
4.5275593703474
 20
91.4728011096314
 30
0.0
 11
4.5275593703474
 21
89.94075152123888
 31
0.0
  0
LINE
  5
A2
330
47
100
AcDbEntity
  8
0
  6
Continuous
 62
     7
100
AcDbLine
 10
4.5275593703474
 20
87.14267409070857
 30
0.0
 11
4.5275593703474
 21
85.61062450231668
 31
0.0
  0
LINE
  5
A3
330
47
100
AcDbEntity
  8
0
  6
Continuous
 62
     7
100
AcDbLine
 10
-31.54239869727388
 20
92.87863691027246
 30
0.0
 11
-31.54239869727388
 21
67.24428495825305
 31
0.0
  0
LINE
  5
A4
330
47
100
AcDbEntity
  8
0
  6
Continuous
 62
     7
100
AcDbLine
 10
-33.9239685576818
 20
102.5728011096308
 30
0.0
 11
-33.9239685576818
 21
104.3409143700025
 31
0.0
  0
LINE
  5
A5
330
47
100
AcDbEntity
  8
0
  6
Continuous
 62
     7
100
AcDbLine
 10
-33.9239685576818
 20
104.3409143700025
 30
0.0
 11
-27.4576455427611
 21
103.0805246658198
 31
0.0
  0
LINE
  5
A6
330
47
100
AcDbEntity
  8
0
  6
Continuous
 62
     7
100
AcDbLine
 10
-33.57755837421979
 20
100.9407514675732
 30
0.0
 11
-33.57755840258068
 21
102.472801111482
 31
0.0
  0
LINE
  5
A7
330
47
100
AcDbEntity
  8
0
  6
Continuous
 62
     7
100
AcDbLine
 10
4.5275593703474
 20
89.94075152123888
 30
0.0
 11
4.87396953186121
 21
89.64074926938494
 31
0.0
  0
LINE
  5
A8
330
47
100
AcDbEntity
  8
0
  6
Continuous
 62
     7
100
AcDbLine
 10
4.87396953186121
 20
91.37280110963013
 30
0.0
 11
4.5275593703474
 21
91.4728011096314
 31
0.0
  0
LINE
  5
A9
330
47
100
AcDbEntity
  8
0
  6
Continuous
 62
     7
100
AcDbLine
 10
-8.0586764979864
 20
97.84327149095652
 30
0.0
 11
-1.59235348306259
 21
95.61385799915195
 31
0.0
  0
LINE
  5
AA
330
47
100
AcDbEntity
  8
0
  6
Continuous
 62
     7
100
AcDbLine
 10
-14.52499951291358
 20
99.83068494211962
 30
0.0
 11
-8.0586764979864
 21
97.84327149095652
 31
0.0
  0
LINE
  5
AB
330
47
100
AcDbEntity
  8
0
  6
Continuous
 62
     7
100
AcDbLine
 10
-20.99132252783718
 20
101.5766048242909
 30
0.0
 11
-14.52499951291358
 21
99.83068494211962
 31
0.0
  0
LINE
  5
AC
330
47
100
AcDbEntity
  8
0
  6
Continuous
 62
     7
100
AcDbLine
 10
-27.4576455427611
 20
103.0805246658198
 30
0.0
 11
-20.99132252783718
 21
101.5766048242909
 31
0.0
  0
LINE
  5
AD
330
47
100
AcDbEntity
  8
0
  6
Continuous
 62
     7
100
AcDbLine
 10
13.21486606623591
 20
84.05751439181786
 30
0.0
 11
13.21486606623591
 21
85.61636011862986
 31
0.0
  0
LINE
  5
AE
330
47
100
AcDbEntity
  8
0
  6
Continuous
 62
     7
100
AcDbLine
 10
13.21486606623591
 20
85.61636011862986
 30
0.0
 11
12.16486606623582
 21
84.70703344465619
 31
0.0
  0
LINE
  5
AF
330
47
100
AcDbEntity
  8
0
  6
Continuous
 62
     7
100
AcDbLine
 10
13.2775593703474
 20
93.18834678543053
 30
0.0
 11
4.5275593703474
 21
85.61062450231668
 31
0.0
  0
LINE
  5
B0
330
47
100
AcDbEntity
  8
0
  6
Continuous
 62
     7
100
AcDbLine
 10
13.2775593703474
 20
95.35341029489163
 30
0.0
 11
4.5275593703474
 21
87.77568801177779
 31
0.0
  0
LINE
  5
B1
330
47
100
AcDbEntity
  8
0
  6
Continuous
 62
     7
100
AcDbLine
 10
13.62396953186772
 20
100.7186366531131
 30
0.0
 11
7.1576465169374
 21
103.1915802822658
 31
0.0
  0
LINE
  5
B2
330
47
100
AcDbEntity
  8
0
  6
Continuous
 62
     7
100
AcDbLine
 10
13.2775593703474
 20
93.18834678543053
 30
0.0
 11
13.62396953186172
 21
92.88834453357612
 31
0.0
  0
LINE
  5
B3
330
47
100
AcDbEntity
  8
0
  6
Continuous
 62
     7
100
AcDbLine
 10
13.62396953186772
 20
100.7186366531131
 30
0.0
 11
13.62396953186121
 21
98.95052339274396
 31
0.0
  0
LINE
  5
B4
330
47
100
AcDbEntity
  8
0
  6
Continuous
 62
     7
100
AcDbLine
 10
13.2775593703474
 20
98.65052339274398
 30
0.0
 11
13.2775593703474
 21
97.51847380435272
 31
0.0
  0
LINE
  5
B5
330
47
100
AcDbEntity
  8
0
  6
Continuous
 62
     7
100
AcDbLine
 10
13.62396953186121
 20
95.05340804303768
 30
0.0
 11
13.62396953186121
 21
94.6203963738224
 31
0.0
  0
LINE
  5
B6
330
47
100
AcDbEntity
  8
0
  6
Continuous
 62
     7
100
AcDbLine
 10
13.2775593703474
 20
95.35341029489163
 30
0.0
 11
13.62396953186121
 21
95.05340804303768
 31
0.0
  0
LINE
  5
B7
330
47
100
AcDbEntity
  8
0
  6
Continuous
 62
     7
100
AcDbLine
 10
13.2775593703474
 20
94.3203963738224
 30
0.0
 11
13.2775593703474
 21
93.18834678543053
 31
0.0
  0
LINE
  5
B8
330
47
100
AcDbEntity
  8
0
  6
Continuous
 62
     7
100
AcDbLine
 10
13.2775593703474
 20
96.48545988328351
 30
0.0
 11
13.2775593703474
 21
95.35341029489163
 31
0.0
  0
LINE
  5
B9
330
47
100
AcDbEntity
  8
0
  6
Continuous
 62
     7
100
AcDbLine
 10
13.62396953186121
 20
96.78545988328351
 30
0.0
 11
4.87396953186121
 21
89.20773760016966
 31
0.0
  0
LINE
  5
BA
330
47
100
AcDbEntity
  8
0
  6
Continuous
 62
     7
100
AcDbLine
 10
13.62396953186172
 20
92.88834453357612
 30
0.0
 11
13.62396953186172
 21
89.94385919338549
 31
0.0
  0
LINE
  5
BB
330
47
100
AcDbEntity
  8
0
  6
Continuous
 62
     7
100
AcDbLine
 10
13.62396953186172
 20
89.94385919338549
 30
0.0
 11
12.94896953186171
 21
89.35929204583105
 31
0.0
  0
LINE
  5
BC
330
47
100
AcDbEntity
  8
0
  6
Continuous
 62
     7
100
AcDbLine
 10
4.5275593703474
 20
87.77568801177779
 30
0.0
 11
4.87396953186121
 21
87.47568575992383
 31
0.0
  0
LINE
  5
BD
330
47
100
AcDbEntity
  8
0
  6
Continuous
 62
     7
100
AcDbLine
 10
9.9239695318617
 20
86.56636011862791
 30
0.0
 11
8.87396953186172
 21
85.65703344465425
 31
0.0
  0
LINE
  5
BE
330
47
100
AcDbEntity
  8
0
  6
Continuous
 62
     7
100
AcDbLine
 10
13.62396953186172
 20
92.88834453357612
 30
0.0
 11
4.87396953186172
 21
85.31062225046229
 31
0.0
  0
LINE
  5
BF
330
47
100
AcDbEntity
  8
0
  6
Continuous
 62
     7
100
AcDbLine
 10
13.62396953186121
 20
97.21847155249877
 30
0.0
 11
4.87396953186121
 21
89.64074926938494
 31
0.0
  0
LINE
  5
C0
330
47
100
AcDbEntity
  8
0
  6
Continuous
 62
     7
100
AcDbLine
 10
13.62396953186121
 20
95.05340804303768
 30
0.0
 11
4.87396953186121
 21
87.47568575992383
 31
0.0
  0
LINE
  5
C1
330
47
100
AcDbEntity
  8
0
  6
Continuous
 62
     7
100
AcDbLine
 10
13.2775593703474
 20
97.51847380435272
 30
0.0
 11
13.62396953186121
 21
97.21847155249877
 31
0.0
  0
LINE
  5
C2
330
47
100
AcDbEntity
  8
0
  6
Continuous
 62
     7
100
AcDbLine
 10
13.62396953186121
 20
97.21847155249877
 30
0.0
 11
13.62396953186121
 21
96.78545988328351
 31
0.0
  0
LINE
  5
C3
330
47
100
AcDbEntity
  8
0
  6
Continuous
 62
     7
100
AcDbLine
 10
13.62396953186772
 20
100.7186366531131
 30
0.0
 11
4.87396953186771
 21
93.14091436999925
 31
0.0
  0
LINE
  5
C4
330
47
100
AcDbEntity
  8
0
  6
Continuous
 62
     7
100
AcDbLine
 10
13.62396953186121
 20
94.6203963738224
 30
0.0
 11
4.87396953186121
 21
87.04267409070857
 31
0.0
  0
LINE
  5
C5
330
47
100
AcDbEntity
  8
0
  6
Continuous
 62
     7
100
AcDbLine
 10
13.62396953186121
 20
98.95052339274396
 30
0.0
 11
4.87396953186121
 21
91.37280110963013
 31
0.0
  0
LINE
  5
C6
330
47
100
AcDbEntity
  8
0
  6
Continuous
 62
     7
100
AcDbLine
 10
13.2775593703474
 20
97.51847380435272
 30
0.0
 11
4.5275593703474
 21
89.94075152123888
 31
0.0
  0
LINE
  5
C7
330
47
100
AcDbEntity
  8
0
  6
Continuous
 62
     7
100
AcDbLine
 10
13.21486606623591
 20
85.61636011862986
 30
0.0
 11
9.9239695318617
 21
86.56636011862791
 31
0.0
  0
LINE
  5
C8
330
47
100
AcDbEntity
  8
0
  6
Continuous
 62
     7
100
AcDbLine
 10
13.21486606623591
 20
84.05751439181786
 30
0.0
 11
12.16486606623582
 21
83.14818771784421
 31
0.0
  0
LINE
  5
C9
330
47
100
AcDbEntity
  8
0
  6
Continuous
 62
     7
100
AcDbLine
 10
-23.5203658053417
 20
110.8801876120331
 30
0.0
 11
-23.47994418162119
 21
110.4373969947406
 31
0.0
  0
LINE
  5
CA
330
47
100
AcDbEntity
  8
0
  6
Continuous
 62
     7
100
AcDbLine
 10
-25.1739685576818
 20
111.9186366531163
 30
0.0
 11
-33.9239685576818
 21
104.3409143700025
 31
0.0
  0
LINE
  5
CB
330
47
100
AcDbEntity
  8
0
  6
Continuous
 62
     7
100
AcDbLine
 10
-18.7076455427611
 20
110.6582469489337
 30
0.0
 11
-25.1739685576818
 21
111.9186366531163
 31
0.0
  0
LINE
  5
CC
330
47
100
AcDbEntity
  8
0
  6
Continuous
 62
     7
100
AcDbLine
 10
-23.5203658053417
 20
110.8801876120331
 30
0.0
 11
-30.62036580534169
 21
104.7314072451636
 31
0.0
  0
LINE
  5
CD
330
47
100
AcDbEntity
  8
0
  6
Continuous
 62
     7
100
AcDbLine
 10
-20.06575023989768
 20
109.7719160278446
 30
0.0
 11
-23.47994418162119
 21
110.4373969947406
 31
0.0
  0
LINE
  5
CE
330
47
100
AcDbEntity
  8
0
  6
Continuous
 62
     7
100
AcDbLine
 10
-19.65582015104098
 20
110.12692589857
 30
0.0
 11
-23.5203658053417
 21
110.8801876120331
 31
0.0
  0
LINE
  5
CF
330
47
100
AcDbEntity
  8
0
  6
Continuous
 62
     7
100
AcDbLine
 10
-26.75582015104098
 20
103.9781455317005
 30
0.0
 11
-19.65582015104098
 21
110.12692589857
 31
0.0
  0
LINE
  5
D0
330
47
100
AcDbEntity
  8
0
  6
Continuous
 62
     7
100
AcDbLine
 10
-23.47994418162119
 20
110.4373969947406
 30
0.0
 11
-30.1700140927646
 21
104.6436264985965
 31
0.0
  0
LINE
  5
D1
330
47
100
AcDbEntity
  8
0
  6
Continuous
 62
     7
100
AcDbLine
 10
-5.77499951291358
 20
107.4084072252335
 30
0.0
 11
-12.24132252783718
 21
109.1543271074047
 31
0.0
  0
LINE
  5
D2
330
47
100
AcDbEntity
  8
0
  6
Continuous
 62
     7
100
AcDbLine
 10
-12.24132252783718
 20
109.1543271074047
 30
0.0
 11
-18.7076455427611
 21
110.6582469489337
 31
0.0
  0
LINE
  5
D3
330
47
100
AcDbEntity
  8
0
  6
Continuous
 62
     7
100
AcDbLine
 10
0.6913235020136
 20
105.4209937740704
 30
0.0
 11
-5.77499951291358
 21
107.4084072252335
 31
0.0
  0
LINE
  5
D4
330
47
100
AcDbEntity
  8
0
  6
Continuous
 62
     7
100
AcDbLine
 10
-30.62036580534169
 20
104.7314072451636
 30
0.0
 11
-26.75582015104098
 21
103.9781455317005
 31
0.0
  0
LINE
  5
D5
330
47
100
AcDbEntity
  8
0
  6
Continuous
 62
     7
100
AcDbLine
 10
-1.59235348306259
 20
95.61385799915195
 30
0.0
 11
4.87396953186771
 21
93.14091436999925
 31
0.0
  0
LINE
  5
D6
330
47
100
AcDbEntity
  8
0
  6
Continuous
 62
     7
100
AcDbLine
 10
0.6913235020136
 20
105.4209937740704
 30
0.0
 11
-8.0586764979864
 21
97.84327149095652
 31
0.0
  0
LINE
  5
D7
330
47
100
AcDbEntity
  8
0
  6
Continuous
 62
     7
100
AcDbLine
 10
-18.7076455427611
 20
110.6582469489337
 30
0.0
 11
-27.4576455427611
 21
103.0805246658198
 31
0.0
  0
LINE
  5
D8
330
47
100
AcDbEntity
  8
0
  6
Continuous
 62
     7
100
AcDbLine
 10
-5.77499951291358
 20
107.4084072252335
 30
0.0
 11
-14.52499951291358
 21
99.83068494211962
 31
0.0
  0
LINE
  5
D9
330
47
100
AcDbEntity
  8
0
  6
Continuous
 62
     7
100
AcDbLine
 10
-12.24132252783718
 20
109.1543271074047
 30
0.0
 11
-20.99132252783718
 21
101.5766048242909
 31
0.0
  0
LINE
  5
DA
330
47
100
AcDbEntity
  8
0
  6
Continuous
 62
     7
100
AcDbLine
 10
4.87396953186121
 20
87.04267409070857
 30
0.0
 11
4.5275593703474
 21
87.14267409070857
 31
0.0
  0
LINE
  5
DB
330
47
100
AcDbEntity
  8
0
  6
Continuous
 62
     7
100
AcDbLine
 10
8.87396953186172
 20
85.65703344465425
 30
0.0
 11
8.8739695318616
 21
81.5001116603028
 31
0.0
  0
LINE
  5
DC
330
47
100
AcDbEntity
  8
0
  6
Continuous
 62
     7
100
AcDbLine
 10
7.1576465169374
 20
103.1915802822658
 30
0.0
 11
-1.59235348306259
 21
95.61385799915195
 31
0.0
  0
LINE
  5
DD
330
47
100
AcDbEntity
  8
0
  6
Continuous
 62
     7
100
AcDbLine
 10
7.1576465169374
 20
103.1915802822658
 30
0.0
 11
0.6913235020136
 21
105.4209937740704
 31
0.0
  0
LINE
  5
DE
330
47
100
AcDbEntity
  8
0
  6
Continuous
 62
     7
100
AcDbLine
 10
12.9489695318612
 20
63.72494009381177
 30
0.0
 11
5.8489695318612
 21
57.57615972694224
 31
0.0
  0
LINE
  5
DF
330
47
100
AcDbEntity
  8
0
  6
Continuous
 62
     7
100
AcDbLine
 10
-33.92396857500208
 20
98.67568585492583
 30
0.0
 11
-33.57755837421979
 21
98.77568795811253
 31
0.0
  0
LINE
  5
E0
330
47
100
AcDbEntity
  8
0
  6
Continuous
 62
     7
100
AcDbLine
 10
-33.57755837792209
 20
98.97568588572713
 30
0.0
 11
-33.92396857500208
 21
98.67568585492583
 31
0.0
  0
LINE
  5
E1
330
47
100
AcDbEntity
  8
0
  6
Continuous
 62
     7
100
AcDbLine
 10
-33.9239685576818
 20
93.56613691027266
 30
0.0
 11
-33.92396857626429
 21
96.51062234510036
 31
0.0
  0
LINE
  5
E2
330
47
100
AcDbEntity
  8
0
  6
Continuous
 62
     7
100
AcDbLine
 10
-33.92396858986848
 20
100.8407493600965
 30
0.0
 11
-33.57755837421979
 21
100.9407514675732
 31
0.0
  0
LINE
  5
E3
330
47
100
AcDbEntity
  8
0
  6
Continuous
 62
     7
100
AcDbLine
 10
-33.57755840258068
 20
98.14267409255979
 30
0.0
 11
-33.92396857500208
 21
98.24267409570855
 31
0.0
  0
LINE
  5
E4
330
47
100
AcDbEntity
  8
0
  6
Continuous
 62
     7
100
AcDbLine
 10
-33.92396857500208
 20
98.24267409570855
 30
0.0
 11
-33.92396857500208
 21
98.67568585492583
 31
0.0
  0
LINE
  5
E5
330
47
100
AcDbEntity
  8
0
  6
Continuous
 62
     7
100
AcDbLine
 10
-33.92396857626429
 20
96.51062234510036
 30
0.0
 11
-33.57755837421979
 21
96.61062444865144
 31
0.0
  0
LINE
  5
E6
330
47
100
AcDbEntity
  8
0
  6
Continuous
 62
     7
100
AcDbLine
 10
-33.57755837792209
 20
96.81062237699473
 30
0.0
 11
-33.92396857626429
 21
96.51062234510036
 31
0.0
  0
LINE
  5
E7
330
47
100
AcDbEntity
  8
0
  6
Continuous
 62
     7
100
AcDbLine
 10
-33.57755840258068
 20
100.3077376148956
 30
0.0
 11
-33.9239685576818
 21
100.407737587295
 31
0.0
  0
LINE
  5
E8
330
47
100
AcDbEntity
  8
0
  6
Continuous
 62
     7
100
AcDbLine
 10
-33.9239685576818
 20
100.407737587295
 30
0.0
 11
-33.92396858986848
 21
100.8407493600965
 31
0.0
  0
LINE
  5
E9
330
47
100
AcDbEntity
  8
0
  6
Continuous
 62
     7
100
AcDbLine
 10
4.87396953186121
 20
89.64074926938494
 30
0.0
 11
4.87396953186121
 21
89.20773760016966
 31
0.0
  0
LINE
  5
EA
330
47
100
AcDbEntity
  8
0
  6
Continuous
 62
     7
100
AcDbLine
 10
4.87396953186771
 20
93.14091436999925
 30
0.0
 11
4.87396953186121
 21
91.37280110963013
 31
0.0
  0
LINE
  5
EB
330
47
100
AcDbEntity
  8
0
  6
Continuous
 62
     7
100
AcDbLine
 10
-33.9239685576818
 20
93.56613691027266
 30
0.0
 11
-31.54239869727388
 21
92.87863691027246
 31
0.0
  0
LINE
  5
EC
330
47
100
AcDbEntity
  8
0
  6
Continuous
 62
     7
100
AcDbLine
 10
-33.57755837792209
 20
101.1407494037725
 30
0.0
 11
-33.92396858986848
 21
100.8407493600965
 31
0.0
  0
LINE
  5
ED
330
47
100
AcDbEntity
  8
0
  6
Continuous
 62
     7
100
AcDbLine
 10
11.47204571588091
 20
83.34818772573294
 30
0.0
 11
10.4778049937741
 21
83.43743352422725
 31
0.0
  0
LINE
  5
EE
330
47
100
AcDbEntity
  8
0
  6
Continuous
 62
     7
100
AcDbLine
 10
10.03071394449981
 20
83.26776090472264
 30
0.0
 11
9.07173628030711
 21
82.43726188586986
 31
0.0
  0
LINE
  5
EF
330
47
100
AcDbEntity
  8
0
  6
Continuous
 62
     7
100
AcDbLine
 10
12.16486606623582
 20
83.14818771784421
 30
0.0
 11
12.16486606623582
 21
84.70703344465619
 31
0.0
  0
LINE
  5
F0
330
47
100
AcDbEntity
  8
0
  6
Continuous
 62
     7
100
AcDbLine
 10
12.16486606623582
 20
83.14818771784421
 30
0.0
 11
11.47204571588091
 21
83.34818772573294
 31
0.0
  0
LINE
  5
F1
330
47
100
AcDbEntity
  8
0
  6
Continuous
 62
     7
100
AcDbLine
 10
10.1115773616242
 20
83.29844885481212
 30
0.0
 11
9.92396953186162
 21
82.40943819685896
 31
0.0
  0
LINE
  5
F2
330
47
100
AcDbEntity
  8
0
  6
Continuous
 62
     7
100
AcDbLine
 10
10.4778049937741
 20
83.43743352422725
 30
0.0
 11
9.63492840879351
 21
83.11755890735691
 31
0.0
  0
LINE
  5
F3
330
47
100
AcDbEntity
  8
0
  6
Continuous
 62
     7
100
AcDbLine
 10
9.07173628030711
 20
82.43726188586986
 30
0.0
 11
8.8739695318616
 21
81.5001116603028
 31
0.0
  0
LINE
  5
F4
330
47
100
AcDbEntity
  8
0
  6
Continuous
 62
     7
100
AcDbLine
 10
12.94896953186162
 20
85.69311783647862
 30
0.0
 11
12.94896953186171
 21
89.35929204583105
 31
0.0
  0
LINE
  5
F5
330
47
100
AcDbEntity
  8
0
  6
Continuous
 62
     7
100
AcDbLine
 10
12.9489695318612
 20
63.72494009381177
 30
0.0
 11
12.94896953186162
 21
83.82724123827155
 31
0.0
  0
LINE
  5
F6
330
47
100
AcDbEntity
  8
0
  6
Continuous
 62
     7
100
AcDbLine
 10
9.63492840879351
 20
83.11755890735691
 30
0.0
 11
9.07173628030711
 21
82.43726188586986
 31
0.0
  0
LINE
  5
F7
330
47
100
AcDbEntity
  8
0
  6
Continuous
 62
     7
100
AcDbLine
 10
4.87396953186172
 20
82.36613691027166
 30
0.0
 11
5.84896953186171
 21
83.21051167896152
 31
0.0
  0
LINE
  5
F8
330
47
100
AcDbEntity
  8
0
  6
Continuous
 62
     7
100
AcDbLine
 10
4.87396953186121
 20
87.47568575992383
 30
0.0
 11
4.87396953186121
 21
87.04267409070857
 31
0.0
  0
LINE
  5
F9
330
47
100
AcDbEntity
  8
0
  6
Continuous
 62
     7
100
AcDbLine
 10
8.8739695318616
 20
81.5001116603028
 30
0.0
 11
9.92396953186162
 21
82.40943819685896
 31
0.0
  0
LINE
  5
FA
330
47
100
AcDbEntity
  8
0
  6
Continuous
 62
     7
100
AcDbLine
 10
12.16486606623582
 20
84.70703344465619
 30
0.0
 11
8.87396953186172
 21
85.65703344465425
 31
0.0
  0
LINE
  5
FB
330
47
100
AcDbEntity
  8
0
  6
Continuous
 62
     7
100
AcDbLine
 10
-33.57755840258068
 20
102.472801111482
 30
0.0
 11
-33.9239685576818
 21
102.5728011096308
 31
0.0
  0
LINE
  5
FC
330
47
100
AcDbEntity
  8
0
  6
Continuous
 62
     7
100
AcDbLine
 10
-33.57755837421979
 20
96.61062444865144
 30
0.0
 11
-33.57755840258068
 21
98.14267409255979
 31
0.0
  0
LINE
  5
FD
330
47
100
AcDbEntity
  8
0
  6
Continuous
 62
     7
100
AcDbLine
 10
-33.57755837421979
 20
98.77568795811253
 30
0.0
 11
-33.57755840258068
 21
100.3077376148956
 31
0.0
  0
LINE
  5
FE
330
47
100
AcDbEntity
  8
0
  6
Continuous
 62
     7
100
AcDbLine
 10
4.87396953186121
 20
89.20773760016966
 30
0.0
 11
4.5275593703474
 21
89.30773760016967
 31
0.0
  0
ARC
  5
FF
330
47
100
AcDbEntity
  8
0
  6
Continuous
 62
     7
100
AcDbCircle
 10
-8.60136659018417
 20
55.85578003623091
 30
0.0
 40
0.3269069699142729
100
AcDbArc
 50
356.632269987937
 51
359.9988894972273
  0
SPLINE
  5
100
330
47
100
AcDbEntity
  8
0
  6
Continuous
 62
     7
100
AcDbSpline
210
0.0
220
0.0
230
1.0
 70
     8
 71
     3
 72
    13
 73
     9
 74
     7
 42
0.000000001
 43
0.0000000001
 44
0.00000001
 40
0.0
 40
0.0
 40
0.0
 40
0.0
 40
0.3097331823362462
 40
0.6994104186264595
 40
1.187907915927582
 40
1.751285692323196
 40
2.345306390956499
 40
2.919010699480431
 40
2.919010699480431
 40
2.919010699480431
 40
2.919010699480431
 10
-8.275024165074882
 20
55.83657616807057
 30
0.0
 10
-8.299251601528558
 20
55.73338905739929
 30
0.0
 10
-8.353959739962946
 20
55.50038161030446
 30
0.0
 10
-8.691369742805012
 20
55.24950639021191
 30
0.0
 10
-9.131914332969794
 20
55.06431940260436
 30
0.0
 10
-9.676327936891791
 20
54.96409973732253
 30
0.0
 10
-10.25672184517196
 20
54.94752925162739
 30
0.0
 10
-10.63981578201379
 20
55.02236445095828
 30
0.0
 10
-10.82803016507501
 20
55.05913105212068
 30
0.0
 11
-8.275024165074882
 21
55.83657616807057
 31
0.0
 11
-8.37593734829435
 21
55.54374314760412
 31
0.0
 11
-8.667030368564241
 21
55.28468097940663
 31
0.0
 11
-9.114739824781875
 21
55.089268475207
 31
0.0
 11
-9.667427238261498
 21
54.98003870893632
 31
0.0
 11
-10.2613560827433
 21
54.96959275194887
 31
0.0
 11
-10.82803016507501
 21
55.05913105212068
 31
0.0
  0
ENDBLK
  5
49
330
47
100
AcDbEntity
  8
0
100
AcDbBlockEnd
  0
BLOCK
  5
4C
330
4A
100
AcDbEntity
  8
0
100
AcDbBlockBegin
  2
Allg2
 70
     0
 10
-9.99999999999949
 20
85.0
 30
0.0
  3
Allg2
  1

  0
INSERT
  5
4B
330
4A
100
AcDbEntity
  8
0
100
AcDbBlockReference
  2
VAL_MS_500_ST-select__1
 10
-33.92396858986848
 20
54.93896338311454
 30
0.0
  0
MTEXT
  5
102
330
4A
100
AcDbEntity
  8
1
 62
     6
100
AcDbMText
 10
-9.99999999996999
 20
40.51938472480879
 30
0.0
 40
5.0
 41
0.0
 71
     2
 72
     1
  1
 
  7
CONVERTER_11
 73
     1
 44
1.32052821128451
  0
ENDBLK
  5
4D
330
4A
100
AcDbEntity
  8
0
100
AcDbBlockEnd
  0
BLOCK
  5
4F
330
4E
100
AcDbEntity
  8
0
100
AcDbBlockBegin
  2
VAL_MS_500_ST-select__2
 70
     0
 10
-139.199999437496
 20
67.94999999996003
 30
0.0
  3
VAL_MS_500_ST-select__2
  1

  0
LINE
  5
103
330
4E
100
AcDbEntity
  8
0
  6
Continuous
 62
     7
100
AcDbLine
 10
-135.3999994362336
 20
78.04999999996015
 30
0.0
 11
-135.3999994362336
 21
75.94999999996014
 31
0.0
  0
LINE
  5
104
330
4E
100
AcDbEntity
  8
0
  6
Continuous
 62
     7
100
AcDbLine
 10
-135.3999994362336
 20
75.94999999996014
 30
0.0
 11
-135.3999994589531
 21
67.94999999996003
 31
0.0
  0
LINE
  5
105
330
4E
100
AcDbEntity
  8
0
  6
Continuous
 62
     7
100
AcDbLine
 10
-132.7111605856975
 20
84.09999999996002
 30
0.0
 11
-132.7111605856975
 21
69.89999999996003
 31
0.0
  0
LINE
  5
106
330
4E
100
AcDbEntity
  8
0
  6
Continuous
 62
     7
100
AcDbLine
 10
-135.3999994589531
 20
85.44999999996003
 30
0.0
 11
-135.3999994362336
 21
78.04999999996015
 31
0.0
  0
LINE
  5
107
330
4E
100
AcDbEntity
  8
0
  6
Continuous
 62
     7
100
AcDbLine
 10
-132.6644857150253
 20
84.09999999996002
 30
0.0
 11
-132.6644857150253
 21
69.89999999996003
 31
0.0
  0
LINE
  5
108
330
4E
100
AcDbEntity
  8
0
  6
Continuous
 62
     7
100
AcDbLine
 10
-98.06666610416252
 20
67.94999999996003
 30
0.0
 11
-90.59999943748844
 21
67.94999999996003
 31
0.0
  0
LINE
  5
109
330
4E
100
AcDbEntity
  8
0
  6
Continuous
 62
     7
100
AcDbLine
 10
-127.933332770833
 20
67.94999999996003
 30
0.0
 11
-120.4666661041662
 21
67.94999999996003
 31
0.0
  0
LINE
  5
10A
330
4E
100
AcDbEntity
  8
0
  6
Continuous
 62
     7
100
AcDbLine
 10
-120.4666661041662
 20
67.94999999996003
 30
0.0
 11
-112.9999994374998
 21
67.94999999996003
 31
0.0
  0
LINE
  5
10B
330
4E
100
AcDbEntity
  8
0
  6
Continuous
 62
     7
100
AcDbLine
 10
-112.9999994374998
 20
67.94999999996003
 30
0.0
 11
-105.5333327708292
 21
67.94999999996003
 31
0.0
  0
LINE
  5
10C
330
4E
100
AcDbEntity
  8
0
  6
Continuous
 62
     7
100
AcDbLine
 10
-105.5333327708292
 20
67.94999999996003
 30
0.0
 11
-98.06666610416252
 21
67.94999999996003
 31
0.0
  0
LINE
  5
10D
330
4E
100
AcDbEntity
  8
0
  6
Continuous
 62
     7
100
AcDbLine
 10
-86.79999943750292
 20
78.04999999996015
 30
0.0
 11
-86.79999943750292
 21
75.94999999996014
 31
0.0
  0
LINE
  5
10E
330
4E
100
AcDbEntity
  8
0
  6
Continuous
 62
     7
100
AcDbLine
 10
-132.7111605856975
 20
69.89999999996003
 30
0.0
 11
-132.6644857150253
 21
69.89999999996003
 31
0.0
  0
LINE
  5
10F
330
4E
100
AcDbEntity
  8
0
  6
Continuous
 62
     7
100
AcDbLine
 10
-132.6644857150253
 20
69.89999999996003
 30
0.0
 11
-128.2487676380854
 21
69.89999999996003
 31
0.0
  0
LINE
  5
110
330
4E
100
AcDbEntity
  8
0
  6
Continuous
 62
     7
100
AcDbLine
 10
-86.79999943750292
 20
75.94999999996014
 30
0.0
 11
-90.59999943749511
 21
75.94999999996014
 31
0.0
  0
LINE
  5
111
330
4E
100
AcDbEntity
  8
0
  6
Continuous
 62
     7
100
AcDbLine
 10
-86.79999943750292
 20
78.04999999996015
 30
0.0
 11
-90.59999943749511
 21
78.04999999996015
 31
0.0
  0
LINE
  5
112
330
4E
100
AcDbEntity
  8
0
  6
Continuous
 62
     7
100
AcDbLine
 10
-135.3999994589531
 20
85.44999999996003
 30
0.0
 11
-127.933332770833
 21
85.44999999996003
 31
0.0
  0
LINE
  5
113
330
4E
100
AcDbEntity
  8
0
  6
Continuous
 62
     7
100
AcDbLine
 10
-135.3999994589531
 20
67.94999999996003
 30
0.0
 11
-127.933332770833
 21
67.94999999996003
 31
0.0
  0
LINE
  5
114
330
4E
100
AcDbEntity
  8
0
  6
Continuous
 62
     7
100
AcDbLine
 10
-139.199999437496
 20
75.94999999996014
 30
0.0
 11
-135.3999994362336
 21
75.94999999996014
 31
0.0
  0
LINE
  5
115
330
4E
100
AcDbEntity
  8
0
  6
Continuous
 62
     7
100
AcDbLine
 10
-139.199999437496
 20
78.04999999996015
 30
0.0
 11
-135.3999994362336
 21
78.04999999996015
 31
0.0
  0
LINE
  5
116
330
4E
100
AcDbEntity
  8
0
  6
Continuous
 62
     7
100
AcDbLine
 10
-139.199999437496
 20
78.04999999996015
 30
0.0
 11
-139.199999437496
 21
75.94999999996014
 31
0.0
  0
LINE
  5
117
330
4E
100
AcDbEntity
  8
0
  6
Continuous
 62
     7
100
AcDbLine
 10
-132.6644857150253
 20
84.09999999996002
 30
0.0
 11
-132.7111605856975
 21
84.09999999996002
 31
0.0
  0
LINE
  5
118
330
4E
100
AcDbEntity
  8
0
  6
Continuous
 62
     7
100
AcDbLine
 10
-128.2487676380854
 20
84.09999999996002
 30
0.0
 11
-132.6644857150253
 21
84.09999999996002
 31
0.0
  0
LINE
  5
119
330
4E
100
AcDbEntity
  8
0
  6
Continuous
 62
     7
100
AcDbLine
 10
-128.2487676380854
 20
69.89999999996003
 30
0.0
 11
-128.2487676380854
 21
84.09999999996002
 31
0.0
  0
LINE
  5
11A
330
4E
100
AcDbEntity
  8
0
  6
Continuous
 62
     7
100
AcDbLine
 10
-90.59999943749511
 20
78.04999999996015
 30
0.0
 11
-90.59999943749511
 21
75.94999999996014
 31
0.0
  0
LINE
  5
11B
330
4E
100
AcDbEntity
  8
0
  6
Continuous
 62
     7
100
AcDbLine
 10
-90.59999943749511
 20
75.94999999996014
 30
0.0
 11
-90.59999943748844
 21
67.94999999996003
 31
0.0
  0
LINE
  5
11C
330
4E
100
AcDbEntity
  8
0
  6
Continuous
 62
     7
100
AcDbLine
 10
-90.59999943748844
 20
85.44999999996003
 30
0.0
 11
-98.06666610416252
 21
85.44999999996003
 31
0.0
  0
LINE
  5
11D
330
4E
100
AcDbEntity
  8
0
  6
Continuous
 62
     7
100
AcDbLine
 10
-120.4666661041662
 20
85.44999999996003
 30
0.0
 11
-120.4666661041662
 21
67.94999999996003
 31
0.0
  0
LINE
  5
11E
330
4E
100
AcDbEntity
  8
0
  6
Continuous
 62
     7
100
AcDbLine
 10
-105.5333327708292
 20
85.44999999996003
 30
0.0
 11
-105.5333327708292
 21
67.94999999996003
 31
0.0
  0
LINE
  5
11F
330
4E
100
AcDbEntity
  8
0
  6
Continuous
 62
     7
100
AcDbLine
 10
-98.06666610416252
 20
85.44999999996003
 30
0.0
 11
-98.06666610416252
 21
67.94999999996003
 31
0.0
  0
LINE
  5
120
330
4E
100
AcDbEntity
  8
0
  6
Continuous
 62
     7
100
AcDbLine
 10
-90.59999943748844
 20
85.44999999996003
 30
0.0
 11
-90.59999943749511
 21
78.04999999996015
 31
0.0
  0
LINE
  5
121
330
4E
100
AcDbEntity
  8
0
  6
Continuous
 62
     7
100
AcDbLine
 10
-127.933332770833
 20
85.44999999996003
 30
0.0
 11
-127.933332770833
 21
67.94999999996003
 31
0.0
  0
LINE
  5
122
330
4E
100
AcDbEntity
  8
0
  6
Continuous
 62
     7
100
AcDbLine
 10
-120.4666661041662
 20
85.44999999996003
 30
0.0
 11
-127.933332770833
 21
85.44999999996003
 31
0.0
  0
LINE
  5
123
330
4E
100
AcDbEntity
  8
0
  6
Continuous
 62
     7
100
AcDbLine
 10
-112.9999994374998
 20
85.44999999996003
 30
0.0
 11
-120.4666661041662
 21
85.44999999996003
 31
0.0
  0
LINE
  5
124
330
4E
100
AcDbEntity
  8
0
  6
Continuous
 62
     7
100
AcDbLine
 10
-105.5333327708292
 20
85.44999999996003
 30
0.0
 11
-112.9999994374998
 21
85.44999999996003
 31
0.0
  0
LINE
  5
125
330
4E
100
AcDbEntity
  8
0
  6
Continuous
 62
     7
100
AcDbLine
 10
-98.06666610416252
 20
85.44999999996003
 30
0.0
 11
-105.5333327708292
 21
85.44999999996003
 31
0.0
  0
LINE
  5
126
330
4E
100
AcDbEntity
  8
0
  6
Continuous
 62
     7
100
AcDbLine
 10
-112.9999994374998
 20
85.44999999996003
 30
0.0
 11
-112.9999994374998
 21
67.94999999996003
 31
0.0
  0
ENDBLK
  5
50
330
4E
100
AcDbEntity
  8
0
100
AcDbBlockEnd
  0
BLOCK
  5
53
330
51
100
AcDbEntity
  8
0
100
AcDbBlockBegin
  2
Drfsicht2
 70
     0
 10
-112.9999999999493
 20
76.99999999997999
 30
0.0
  3
Drfsicht2
  1

  0
INSERT
  5
52
330
51
100
AcDbEntity
  8
0
100
AcDbBlockReference
  2
VAL_MS_500_ST-select__2
 10
-139.199999437496
 20
67.94999999996003
 30
0.0
  0
MTEXT
  5
127
330
51
100
AcDbEntity
  8
1
 62
     6
100
AcDbMText
 10
-112.99999999995
 20
63.24999999997988
 30
0.0
 40
5.0
 41
0.0
 71
     2
 72
     1
  1
 
  7
CONVERTER_11
 73
     1
 44
1.32052821128451
  0
DIMENSION
  5
132
330
51
100
AcDbEntity
  8
1
100
AcDbDimension
  2
*D17
 10
-145.3999994589531
 20
67.94999999996003
 30
0.0
 11
-148.8249994589531
 21
77.37802945510231
 31
0.0
 70
    33
  1
<>
 71
     5
 42
-1.0
 53
90.0
  3
ME10_DIM_10
100
AcDbAlignedDimension
 13
-135.3999994589531
 23
85.44999999996003
 33
0.0
 14
-135.3999994589531
 24
67.94999999996003
 34
0.0
  0
ENDBLK
  5
54
330
51
100
AcDbEntity
  8
0
100
AcDbBlockEnd
  0
BLOCK
  5
56
330
55
100
AcDbEntity
  8
0
100
AcDbBlockBegin
  2
VAL_MS_500_ST-select__3
 70
     0
 10
-24.30000156244647
 20
123.7500000495756
 30
0.0
  3
VAL_MS_500_ST-select__3
  1

  0
LINE
  5
133
330
55
100
AcDbEntity
  8
0
  6
Continuous
 62
     7
100
AcDbLine
 10
0.38445695257606
 20
123.7500000495757
 30
0.0
 11
0.15000146560313
 21
123.7500000495757
 31
0.0
  0
LINE
  5
134
330
55
100
AcDbEntity
  8
0
  6
Continuous
 62
     7
100
AcDbLine
 10
-8.450001560694
 20
135.7500000495743
 30
0.0
 11
-8.45000156069418
 21
127.0500000495759
 31
0.0
  0
LINE
  5
135
330
55
100
AcDbEntity
  8
0
  6
Continuous
 62
     7
100
AcDbLine
 10
6.39999843754613
 20
135.7500000495743
 30
0.0
 11
6.39999843754595
 21
127.0500000495756
 31
0.0
  0
LINE
  5
136
330
55
100
AcDbEntity
  8
0
  6
Continuous
 62
     7
100
AcDbLine
 10
-2.45000156069418
 20
127.0500000495758
 30
0.0
 11
-2.450001560694
 21
135.7500000495743
 31
0.0
  0
LINE
  5
137
330
55
100
AcDbEntity
  8
0
  6
Continuous
 62
     7
100
AcDbLine
 10
0.38445695257606
 20
123.7500000495757
 30
0.0
 11
0.55689223703484
 21
123.7500000495757
 31
0.0
  0
LINE
  5
138
330
55
100
AcDbEntity
  8
0
  6
Continuous
 62
     7
100
AcDbLine
 10
3.37286900458787
 20
123.7500000495757
 30
0.0
 11
0.55689223703484
 21
123.7500000495757
 31
0.0
  0
LINE
  5
139
330
55
100
AcDbEntity
  8
0
  6
Continuous
 62
     7
100
AcDbLine
 10
-8.45000156069418
 20
127.0500000495759
 30
0.0
 11
-2.45000156069418
 21
127.0500000495758
 31
0.0
  0
LINE
  5
13A
330
55
100
AcDbEntity
  8
0
  6
Continuous
 62
     7
100
AcDbLine
 10
6.39999843754595
 20
127.0500000495756
 30
0.0
 11
12.39999843754595
 21
127.0500000495755
 31
0.0
  0
LINE
  5
13B
330
55
100
AcDbEntity
  8
0
  6
Continuous
 62
     7
100
AcDbLine
 10
0.55689223703482
 20
132.7500000495743
 30
0.0
 11
0.55689223703484
 21
123.7500000495757
 31
0.0
  0
LINE
  5
13C
330
55
100
AcDbEntity
  8
0
  6
Continuous
 62
     7
100
AcDbLine
 10
3.37286900458787
 20
123.7500000495757
 30
0.0
 11
5.20284264438479
 21
123.7500000495756
 31
0.0
  0
LINE
  5
13D
330
55
100
AcDbEntity
  8
0
  6
Continuous
 62
     7
100
AcDbLine
 10
0.38445695257603
 20
132.7500000495743
 30
0.0
 11
0.38445695257606
 21
123.7500000495757
 31
0.0
  0
LINE
  5
13E
330
55
100
AcDbEntity
  8
0
  6
Continuous
 62
     7
100
AcDbLine
 10
6.10376090941585
 20
135.7500000495743
 30
0.0
 11
6.10376090941587
 21
132.7500000495743
 31
0.0
  0
LINE
  5
13F
330
55
100
AcDbEntity
  8
0
  6
Continuous
 62
     7
100
AcDbLine
 10
6.10376090941587
 20
132.7500000495743
 30
0.0
 11
5.49798954347581
 21
132.7500000495743
 31
0.0
  0
LINE
  5
140
330
55
100
AcDbEntity
  8
0
  6
Continuous
 62
     7
100
AcDbLine
 10
5.49798954347581
 20
135.7500000495743
 30
0.0
 11
5.49798954347581
 21
132.7500000495743
 31
0.0
  0
LINE
  5
141
330
55
100
AcDbEntity
  8
0
  6
Continuous
 62
     7
100
AcDbLine
 10
5.20284264438477
 20
132.7500000495743
 30
0.0
 11
5.49798954347581
 21
132.7500000495743
 31
0.0
  0
LINE
  5
142
330
55
100
AcDbEntity
  8
0
  6
Continuous
 62
     7
100
AcDbLine
 10
1.90376090941586
 20
132.7500000495743
 30
0.0
 11
3.37286900458786
 21
132.7500000495743
 31
0.0
  0
LINE
  5
143
330
55
100
AcDbEntity
  8
0
  6
Continuous
 62
     7
100
AcDbLine
 10
3.37286900458786
 20
132.7500000495743
 30
0.0
 11
5.20284264438477
 21
132.7500000495743
 31
0.0
  0
LINE
  5
144
330
55
100
AcDbEntity
  8
0
  6
Continuous
 62
     7
100
AcDbLine
 10
1.90376090941586
 20
135.7500000495743
 30
0.0
 11
1.90376090941586
 21
132.7500000495743
 31
0.0
  0
LINE
  5
145
330
55
100
AcDbEntity
  8
0
  6
Continuous
 62
     7
100
AcDbLine
 10
0.1500014656031
 20
132.7500000495743
 30
0.0
 11
0.38445695257603
 21
132.7500000495743
 31
0.0
  0
LINE
  5
146
330
55
100
AcDbEntity
  8
0
  6
Continuous
 62
     7
100
AcDbLine
 10
0.38445695257603
 20
132.7500000495743
 30
0.0
 11
0.55689223703482
 21
132.7500000495743
 31
0.0
  0
LINE
  5
147
330
55
100
AcDbEntity
  8
0
  6
Continuous
 62
     7
100
AcDbLine
 10
0.55689223703482
 20
132.7500000495743
 30
0.0
 11
1.90376090941586
 21
132.7500000495743
 31
0.0
  0
LINE
  5
148
330
55
100
AcDbEntity
  8
0
  6
Continuous
 62
     7
100
AcDbLine
 10
-1.69046772464407
 20
132.7500000495743
 30
0.0
 11
-2.29623909058414
 21
132.7500000495743
 31
0.0
  0
LINE
  5
149
330
55
100
AcDbEntity
  8
0
  6
Continuous
 62
     7
100
AcDbLine
 10
-1.69046772464407
 20
132.7500000495743
 30
0.0
 11
0.1500014656031
 21
132.7500000495743
 31
0.0
  0
LINE
  5
14A
330
55
100
AcDbEntity
  8
0
  6
Continuous
 62
     7
100
AcDbLine
 10
-1.69046772464407
 20
135.7500000495743
 30
0.0
 11
-1.69046772464407
 21
132.7500000495743
 31
0.0
  0
LINE
  5
14B
330
55
100
AcDbEntity
  8
0
  6
Continuous
 62
     7
100
AcDbLine
 10
-2.29623909058414
 20
135.7500000495743
 30
0.0
 11
-2.29623909058414
 21
132.7500000495743
 31
0.0
  0
LINE
  5
14C
330
55
100
AcDbEntity
  8
0
  6
Continuous
 62
     7
100
AcDbLine
 10
24.29999825074168
 20
135.7500000495743
 30
0.0
 11
21.54999843754509
 21
135.7500000495743
 31
0.0
  0
LINE
  5
14D
330
55
100
AcDbEntity
  8
0
  6
Continuous
 62
     7
100
AcDbLine
 10
-17.75000156245474
 20
135.7500000495742
 30
0.0
 11
-20.5000015624542
 21
135.7500000495742
 31
0.0
  0
LINE
  5
14E
330
55
100
AcDbEntity
  8
0
  6
Continuous
 62
     7
100
AcDbLine
 10
-2.450001560694
 20
135.7500000495743
 30
0.0
 11
-2.29623909058414
 21
135.7500000495743
 31
0.0
  0
LINE
  5
14F
330
55
100
AcDbEntity
  8
0
  6
Continuous
 62
     7
100
AcDbLine
 10
6.10376090941585
 20
135.7500000495743
 30
0.0
 11
6.39999843754613
 21
135.7500000495743
 31
0.0
  0
LINE
  5
150
330
55
100
AcDbEntity
  8
0
  6
Continuous
 62
     7
100
AcDbLine
 10
1.90376090941586
 20
135.7500000495743
 30
0.0
 11
5.49798954347581
 21
135.7500000495743
 31
0.0
  0
LINE
  5
151
330
55
100
AcDbEntity
  8
0
  6
Continuous
 62
     7
100
AcDbLine
 10
5.49798954347581
 20
135.7500000495743
 30
0.0
 11
6.10376090941585
 21
135.7500000495743
 31
0.0
  0
LINE
  5
152
330
55
100
AcDbEntity
  8
0
  6
Continuous
 62
     7
100
AcDbLine
 10
-2.29623909058414
 20
135.7500000495743
 30
0.0
 11
-1.69046772464407
 21
135.7500000495743
 31
0.0
  0
LINE
  5
153
330
55
100
AcDbEntity
  8
0
  6
Continuous
 62
     7
100
AcDbLine
 10
21.24999843218272
 20
135.7500000495743
 30
0.0
 11
21.54999843754509
 21
135.7500000495743
 31
0.0
  0
LINE
  5
154
330
55
100
AcDbEntity
  8
0
  6
Continuous
 62
     7
100
AcDbLine
 10
-1.69046772464407
 20
135.7500000495743
 30
0.0
 11
1.90376090941586
 21
135.7500000495743
 31
0.0
  0
LINE
  5
155
330
55
100
AcDbEntity
  8
0
  6
Continuous
 62
     7
100
AcDbLine
 10
6.39999843754613
 20
135.7500000495743
 30
0.0
 11
12.39999843754613
 21
135.7500000495743
 31
0.0
  0
LINE
  5
156
330
55
100
AcDbEntity
  8
0
  6
Continuous
 62
     7
100
AcDbLine
 10
-8.450001560694
 20
135.7500000495743
 30
0.0
 11
-2.450001560694
 21
135.7500000495743
 31
0.0
  0
LINE
  5
157
330
55
100
AcDbEntity
  8
0
  6
Continuous
 62
     2
100
AcDbLine
 10
3.37286900458786
 20
132.7500000495743
 30
0.0
 11
3.37286900458787
 21
123.7500000495757
 31
0.0
  0
LINE
  5
158
330
55
100
AcDbEntity
  8
0
  6
Continuous
 62
     7
100
AcDbLine
 10
5.20284264438479
 20
123.7500000495756
 30
0.0
 11
5.20284264438477
 21
132.7500000495743
 31
0.0
  0
LINE
  5
159
330
55
100
AcDbEntity
  8
0
  6
Continuous
 62
     7
100
AcDbLine
 10
-17.75000156245474
 20
135.7500000495742
 30
0.0
 11
-8.450001560694
 21
135.7500000495743
 31
0.0
  0
LINE
  5
15A
330
55
100
AcDbEntity
  8
0
  6
Continuous
 62
     7
100
AcDbLine
 10
0.1500014656031
 20
132.7500000495743
 30
0.0
 11
0.15000146560313
 21
123.7500000495757
 31
0.0
  0
LINE
  5
15B
330
55
100
AcDbEntity
  8
0
  6
Continuous
 62
     7
100
AcDbLine
 10
-20.72836293335769
 20
161.4980503466715
 30
0.0
 11
-20.5000015624542
 21
160.3500000685091
 31
0.0
  0
LINE
  5
15C
330
55
100
AcDbEntity
  8
0
  6
Continuous
 62
     7
100
AcDbLine
 10
-20.5000015624542
 20
165.1500000495762
 30
0.0
 11
-20.5000015624542
 21
165.3500000495743
 31
0.0
  0
LINE
  5
15D
330
55
100
AcDbEntity
  8
0
  6
Continuous
 62
     7
100
AcDbLine
 10
-20.50000156245355
 20
171.2499988571426
 30
0.0
 11
-20.50000156245356
 21
170.7500000495752
 31
0.0
  0
LINE
  5
15E
330
55
100
AcDbEntity
  8
0
  6
Continuous
 62
     7
100
AcDbLine
 10
-20.5000015624542
 20
160.3500000685091
 30
0.0
 11
-20.5000015624542
 21
165.1500000495762
 31
0.0
  0
LINE
  5
15F
330
55
100
AcDbEntity
  8
0
  6
Continuous
 62
     7
100
AcDbLine
 10
-20.10000156245349
 20
173.2500000495752
 30
0.0
 11
-20.50000156245351
 21
173.2500000495752
 31
0.0
  0
LINE
  5
160
330
55
100
AcDbEntity
  8
0
  6
Continuous
 62
     7
100
AcDbLine
 10
-20.5000015624535
 20
173.7499988571426
 30
0.0
 11
-20.50000156245351
 21
173.2500000495752
 31
0.0
  0
LINE
  5
161
330
55
100
AcDbEntity
  8
0
  6
Continuous
 62
     7
100
AcDbLine
 10
-20.10000156245349
 20
173.9809415650354
 30
0.0
 11
-20.5000015624535
 21
173.7499988571426
 31
0.0
  0
LINE
  5
162
330
55
100
AcDbEntity
  8
0
  6
Continuous
 62
     7
100
AcDbLine
 10
-20.10000156245354
 20
171.4809415650354
 30
0.0
 11
-20.50000156245355
 21
171.2499988571426
 31
0.0
  0
LINE
  5
163
330
55
100
AcDbEntity
  8
0
  6
Continuous
 62
     7
100
AcDbLine
 10
-20.10000156245356
 20
170.7500000495752
 30
0.0
 11
-20.50000156245356
 21
170.7500000495752
 31
0.0
  0
LINE
  5
164
330
55
100
AcDbEntity
  8
0
  6
Continuous
 62
     7
100
AcDbLine
 10
-20.5000015624542
 20
168.7499988571422
 30
0.0
 11
-20.5000015624542
 21
165.3500000495743
 31
0.0
  0
LINE
  5
165
330
55
100
AcDbEntity
  8
0
  6
Continuous
 62
     7
100
AcDbLine
 10
-20.5000015624542
 20
165.3500000495743
 30
0.0
 11
-17.7500015624541
 21
165.3500000495742
 31
0.0
  0
LINE
  5
166
330
55
100
AcDbEntity
  8
0
  6
Continuous
 62
     7
100
AcDbLine
 10
-20.10000156245349
 20
173.2500000495752
 30
0.0
 11
-20.10000156245354
 21
171.4809415650354
 31
0.0
  0
LINE
  5
167
330
55
100
AcDbEntity
  8
0
  6
Continuous
 62
     7
100
AcDbLine
 10
-20.10000156245356
 20
170.7500000495752
 30
0.0
 11
-20.10000156245359
 21
168.9809415650354
 31
0.0
  0
LINE
  5
168
330
55
100
AcDbEntity
  8
0
  6
Continuous
 62
     7
100
AcDbLine
 10
-20.50000156246095
 20
177.7916413832404
 30
0.0
 11
-20.50000156245344
 21
175.7500000495745
 31
0.0
  0
LINE
  5
169
330
55
100
AcDbEntity
  8
0
  6
Continuous
 62
     7
100
AcDbLine
 10
-20.10000156245344
 20
175.750000049576
 30
0.0
 11
-20.10000156245349
 21
173.9809415650354
 31
0.0
  0
LINE
  5
16A
330
55
100
AcDbEntity
  8
0
  6
Continuous
 62
     7
100
AcDbLine
 10
-20.10000156245344
 20
175.750000049576
 30
0.0
 11
-20.50000156245344
 21
175.7500000495745
 31
0.0
  0
LINE
  5
16B
330
55
100
AcDbEntity
  8
0
  6
Continuous
 62
     7
100
AcDbLine
 10
-17.7500015624541
 20
165.3500000495742
 30
0.0
 11
-17.75000156245474
 21
135.7500000495742
 31
0.0
  0
LINE
  5
16C
330
55
100
AcDbEntity
  8
0
  6
Continuous
 62
     7
100
AcDbLine
 10
-20.10000156245359
 20
168.9809415650354
 30
0.0
 11
-20.5000015624542
 21
168.7499988571422
 31
0.0
  0
LINE
  5
16D
330
55
100
AcDbEntity
  8
0
  6
Continuous
 62
     7
100
AcDbLine
 10
-20.5000015624542
 20
135.7500000495742
 30
0.0
 11
-20.5000015624542
 21
160.3500000685091
 31
0.0
  0
LINE
  5
16E
330
55
100
AcDbEntity
  8
0
  6
Continuous
 62
     7
100
AcDbLine
 10
-21.37868118733189
 20
162.4713203931359
 30
0.0
 11
-20.72836293335769
 21
161.4980503466715
 31
0.0
  0
LINE
  5
16F
330
55
100
AcDbEntity
  8
0
  6
Continuous
 62
     7
100
AcDbLine
 10
23.89999841220293
 20
168.9809415103832
 30
0.0
 11
23.89999844495132
 21
170.7500000495743
 31
0.0
  0
LINE
  5
170
330
55
100
AcDbEntity
  8
0
  6
Continuous
 62
     7
100
AcDbLine
 10
23.89999844495144
 20
175.7500000495743
 30
0.0
 11
23.89999841220303
 21
173.9809415103827
 31
0.0
  0
LINE
  5
171
330
55
100
AcDbEntity
  8
0
  6
Continuous
 62
     7
100
AcDbLine
 10
23.89999841220298
 20
171.4809415103832
 30
0.0
 11
23.89999844495138
 21
173.2500000644407
 31
0.0
  0
LINE
  5
172
330
55
100
AcDbEntity
  8
0
  6
Continuous
 62
     7
100
AcDbLine
 10
23.89999844495138
 20
173.2500000644407
 30
0.0
 11
24.29999843754668
 21
173.2500000347079
 31
0.0
  0
LINE
  5
173
330
55
100
AcDbEntity
  8
0
  6
Continuous
 62
     7
100
AcDbLine
 10
23.89999844495144
 20
175.7500000495743
 30
0.0
 11
24.29999843754671
 21
175.7500000495743
 31
0.0
  0
LINE
  5
174
330
55
100
AcDbEntity
  8
0
  6
Continuous
 62
     7
100
AcDbLine
 10
9.36666510421695
 20
178.9105736725094
 30
0.0
 11
16.83333177088375
 21
178.4917097182273
 31
0.0
  0
LINE
  5
175
330
55
100
AcDbEntity
  8
0
  6
Continuous
 62
     7
100
AcDbLine
 10
1.89999843755047
 20
179.0500000495739
 30
0.0
 11
9.36666510421695
 21
178.9105736725094
 31
0.0
  0
LINE
  5
176
330
55
100
AcDbEntity
  8
0
  6
Continuous
 62
     7
100
AcDbLine
 10
-5.56666822912008
 20
178.9105736725096
 30
0.0
 11
1.89999843755047
 21
179.0500000495739
 31
0.0
  0
LINE
  5
177
330
55
100
AcDbEntity
  8
0
  6
Continuous
 62
     7
100
AcDbLine
 10
-13.03333489578677
 20
178.4917097182276
 30
0.0
 11
-5.56666822912008
 21
178.9105736725096
 31
0.0
  0
LINE
  5
178
330
55
100
AcDbEntity
  8
0
  6
Continuous
 62
     7
100
AcDbLine
 10
24.29999845754641
 20
170.7500000495743
 30
0.0
 11
24.29999845754642
 21
171.249998961067
 31
0.0
  0
LINE
  5
179
330
55
100
AcDbEntity
  8
0
  6
Continuous
 62
     7
100
AcDbLine
 10
24.29999843754668
 20
173.2500000347079
 30
0.0
 11
24.29999847471265
 21
173.7499989511574
 31
0.0
  0
LINE
  5
17A
330
55
100
AcDbEntity
  8
0
  6
Continuous
 62
     7
100
AcDbLine
 10
24.29999843754671
 20
175.7500000495743
 30
0.0
 11
24.29999843754676
 21
177.791641383241
 31
0.0
  0
LINE
  5
17B
330
55
100
AcDbEntity
  8
0
  6
Continuous
 62
     7
100
AcDbLine
 10
24.52835980845781
 20
161.4980503466705
 30
0.0
 11
24.29999840599164
 21
160.3500000685081
 31
0.0
  0
LINE
  5
17C
330
55
100
AcDbEntity
  8
0
  6
Continuous
 62
     7
100
AcDbLine
 10
24.29999843628433
 20
165.1500000495753
 30
0.0
 11
24.29999840599164
 21
160.3500000685081
 31
0.0
  0
LINE
  5
17D
330
55
100
AcDbEntity
  8
0
  6
Continuous
 62
     7
100
AcDbLine
 10
24.29999843754651
 20
165.3500000495743
 30
0.0
 11
24.29999845900382
 21
168.7499989602255
 31
0.0
  0
LINE
  5
17E
330
55
100
AcDbEntity
  8
0
  6
Continuous
 62
     7
100
AcDbLine
 10
24.29999840599164
 20
160.3500000685081
 30
0.0
 11
24.29999825074168
 21
135.7500000495743
 31
0.0
  0
LINE
  5
17F
330
55
100
AcDbEntity
  8
0
  6
Continuous
 62
     7
100
AcDbLine
 10
-24.30000156244643
 20
165.1500000495763
 30
0.0
 11
-20.5000015624542
 21
165.1500000495762
 31
0.0
  0
LINE
  5
180
330
55
100
AcDbEntity
  8
0
  6
Continuous
 62
     7
100
AcDbLine
 10
-23.50000153089152
 20
163.3500000495763
 30
0.0
 11
-22.35195123379624
 21
163.1216386471101
 31
0.0
  0
LINE
  5
181
330
55
100
AcDbEntity
  8
0
  6
Continuous
 62
     7
100
AcDbLine
 10
-24.30000156244647
 20
163.3500000495763
 30
0.0
 11
-24.30000156244643
 21
165.1500000495763
 31
0.0
  0
LINE
  5
182
330
55
100
AcDbEntity
  8
0
  6
Continuous
 62
     7
100
AcDbLine
 10
-24.30000156244647
 20
163.3500000495763
 30
0.0
 11
-23.50000153089152
 21
163.3500000495763
 31
0.0
  0
LINE
  5
183
330
55
100
AcDbEntity
  8
0
  6
Continuous
 62
     7
100
AcDbLine
 10
28.09999843754666
 20
163.3500000495752
 30
0.0
 11
28.09999843754669
 21
165.1500000495752
 31
0.0
  0
LINE
  5
184
330
55
100
AcDbEntity
  8
0
  6
Continuous
 62
     7
100
AcDbLine
 10
28.09999843754666
 20
163.3500000495752
 30
0.0
 11
27.2999984059917
 21
163.3500000495752
 31
0.0
  0
LINE
  5
185
330
55
100
AcDbEntity
  8
0
  6
Continuous
 62
     7
100
AcDbLine
 10
21.54999843754571
 20
165.3500000495743
 30
0.0
 11
24.29999843754651
 21
165.3500000495743
 31
0.0
  0
LINE
  5
186
330
55
100
AcDbEntity
  8
0
  6
Continuous
 62
     7
100
AcDbLine
 10
26.15194810889643
 20
163.1216386471091
 30
0.0
 11
25.17867806243204
 21
162.4713203931349
 31
0.0
  0
LINE
  5
187
330
55
100
AcDbEntity
  8
0
  6
Continuous
 62
     7
100
AcDbLine
 10
27.2999984059917
 20
163.3500000495752
 30
0.0
 11
26.15194810889643
 21
163.1216386471091
 31
0.0
  0
LINE
  5
188
330
55
100
AcDbEntity
  8
0
  6
Continuous
 62
     7
100
AcDbLine
 10
28.09999843754669
 20
165.1500000495752
 30
0.0
 11
24.29999843628433
 21
165.1500000495753
 31
0.0
  0
LINE
  5
189
330
55
100
AcDbEntity
  8
0
  6
Continuous
 62
     7
100
AcDbLine
 10
-22.35195123379624
 20
163.1216386471101
 30
0.0
 11
-21.37868118733189
 21
162.4713203931359
 31
0.0
  0
LINE
  5
18A
330
55
100
AcDbEntity
  8
0
  6
Continuous
 62
     7
100
AcDbLine
 10
24.29999843754651
 20
165.3500000495743
 30
0.0
 11
24.29999843628433
 21
165.1500000495753
 31
0.0
  0
LINE
  5
18B
330
55
100
AcDbEntity
  8
0
  6
Continuous
 62
     7
100
AcDbLine
 10
23.89999844495132
 20
170.7500000495743
 30
0.0
 11
24.29999845754641
 21
170.7500000495743
 31
0.0
  0
LINE
  5
18C
330
55
100
AcDbEntity
  8
0
  6
Continuous
 62
     7
100
AcDbLine
 10
24.29999845900382
 20
168.7499989602255
 30
0.0
 11
23.89999841220293
 21
168.9809415103832
 31
0.0
  0
LINE
  5
18D
330
55
100
AcDbEntity
  8
0
  6
Continuous
 62
     7
100
AcDbLine
 10
25.17867806243204
 20
162.4713203931349
 30
0.0
 11
24.52835980845781
 21
161.4980503466705
 31
0.0
  0
LINE
  5
18E
330
55
100
AcDbEntity
  8
0
  6
Continuous
 62
     7
100
AcDbLine
 10
21.24999843218266
 20
133.5500000495753
 30
0.0
 11
18.64999843218267
 21
133.5500000495754
 31
0.0
  0
LINE
  5
18F
330
55
100
AcDbEntity
  8
0
  6
Continuous
 62
     7
100
AcDbLine
 10
18.64999843218271
 20
135.7500000495744
 30
0.0
 11
21.24999843218272
 21
135.7500000495743
 31
0.0
  0
LINE
  5
190
330
55
100
AcDbEntity
  8
0
  6
Continuous
 62
     7
100
AcDbLine
 10
18.64999843218271
 20
135.7500000495744
 30
0.0
 11
18.64999843218267
 21
133.5500000495754
 31
0.0
  0
LINE
  5
191
330
55
100
AcDbEntity
  8
0
  6
Continuous
 62
     7
100
AcDbLine
 10
12.39999843754595
 20
127.0500000495755
 30
0.0
 11
12.39999843754613
 21
135.7500000495743
 31
0.0
  0
LINE
  5
192
330
55
100
AcDbEntity
  8
0
  6
Continuous
 62
     7
100
AcDbLine
 10
21.24999843218272
 20
135.7500000495743
 30
0.0
 11
21.24999843218266
 21
133.5500000495753
 31
0.0
  0
LINE
  5
193
330
55
100
AcDbEntity
  8
0
  6
Continuous
 62
     7
100
AcDbLine
 10
21.54999843754509
 20
135.7500000495743
 30
0.0
 11
21.54999843754571
 21
165.3500000495743
 31
0.0
  0
LINE
  5
194
330
55
100
AcDbEntity
  8
0
  6
Continuous
 62
     7
100
AcDbLine
 10
12.39999843754613
 20
135.7500000495743
 30
0.0
 11
18.64999843218271
 21
135.7500000495744
 31
0.0
  0
LINE
  5
195
330
55
100
AcDbEntity
  8
0
  6
Continuous
 62
     7
100
AcDbLine
 10
24.29999845754642
 20
171.249998961067
 30
0.0
 11
23.89999841220298
 21
171.4809415103832
 31
0.0
  0
LINE
  5
196
330
55
100
AcDbEntity
  8
0
  6
Continuous
 62
     7
100
AcDbLine
 10
23.89999841220303
 20
173.9809415103827
 30
0.0
 11
24.29999847471265
 21
173.7499989511574
 31
0.0
  0
LINE
  5
197
330
55
100
AcDbEntity
  8
0
  6
Continuous
 62
     7
100
AcDbLine
 10
16.83333177088375
 20
178.4917097182273
 30
0.0
 11
24.29999843754676
 21
177.791641383241
 31
0.0
  0
LINE
  5
198
330
55
100
AcDbEntity
  8
0
  6
Continuous
 62
     7
100
AcDbLine
 10
-20.50000156246095
 20
177.7916413832404
 30
0.0
 11
-13.03333489578677
 21
178.4917097182276
 31
0.0
  0
LINE
  5
199
330
55
100
AcDbEntity
  8
1
  6
DOT_CENTER
 62
     2
100
AcDbLine
 10
19.94999843218272
 20
135.7500000495744
 30
0.0
 11
19.94999843218272
 21
133.5500000495753
 31
0.0
  0
ENDBLK
  5
57
330
55
100
AcDbEntity
  8
0
100
AcDbBlockEnd
  0
BLOCK
  5
5A
330
58
100
AcDbEntity
  8
0
100
AcDbBlockBegin
  2
Rckans2
 70
     0
 10
1.89999900000001
 20
157.4
 30
0.0
  3
Rckans2
  1

  0
INSERT
  5
59
330
58
100
AcDbEntity
  8
0
100
AcDbBlockReference
  2
VAL_MS_500_ST-select__3
 10
-24.30000156244647
 20
123.7500000495756
 30
0.0
  0
MTEXT
  5
19A
330
58
100
AcDbEntity
  8
1
 62
     6
100
AcDbMText
 10
1.89999866481219
 20
118.7500002384189
 30
0.0
 40
5.0
 41
0.0
 71
     2
 72
     1
  1
 
  7
CONVERTER_11
 73
     1
 44
1.32052821128451
  0
ENDBLK
  5
5B
330
58
100
AcDbEntity
  8
0
100
AcDbBlockEnd
  0
BLOCK
  5
5D
330
5C
100
AcDbEntity
  8
0
100
AcDbBlockBegin
  2
VAL_MS_500_ST-select__4
 70
     0
 10
-64.50000099997911
 20
123.7500000495747
 30
0.0
  3
VAL_MS_500_ST-select__4
  1

  0
LINE
  5
19B
330
5C
100
AcDbEntity
  8
0
  6
Continuous
 62
     7
100
AcDbLine
 10
-56.94502635073951
 20
123.7500000495748
 30
0.0
 11
-57.74995698923439
 21
123.7500000495748
 31
0.0
  0
LINE
  5
19C
330
5C
100
AcDbEntity
  8
0
  6
Continuous
 62
     7
100
AcDbLine
 10
-56.94502635073951
 20
123.7500000495748
 30
0.0
 11
-54.0930604049812
 21
123.7500000495747
 31
0.0
  0
LINE
  5
19D
330
5C
100
AcDbEntity
  8
0
  6
Continuous
 62
     7
100
AcDbLine
 10
-55.24995822536801
 20
127.0500000495745
 30
0.0
 11
-55.24995822536801
 21
133.5500000495742
 31
0.0
  0
LINE
  5
19E
330
5C
100
AcDbEntity
  8
0
  6
Continuous
 62
     7
100
AcDbLine
 10
-55.24995822536801
 20
127.0500000495745
 30
0.0
 11
-56.74995822536801
 21
127.0500000495745
 31
0.0
  0
LINE
  5
19F
330
5C
100
AcDbEntity
  8
0
  6
Continuous
 62
     7
100
AcDbLine
 10
-57.10000099997919
 20
163.3500000495743
 30
0.0
 11
-57.10000099997919
 21
163.1216386471082
 31
0.0
  0
LINE
  5
1A0
330
5C
100
AcDbEntity
  8
0
  6
Continuous
 62
     7
100
AcDbLine
 10
-55.00000099997919
 20
163.3500000495743
 30
0.0
 11
-55.00000099997919
 21
163.1216386471082
 31
0.0
  0
LINE
  5
1A1
330
5C
100
AcDbEntity
  8
0
  6
Continuous
 62
     7
100
AcDbLine
 10
-57.10000099997919
 20
163.3500000495743
 30
0.0
 11
-57.10000099997919
 21
165.1500000495743
 31
0.0
  0
LINE
  5
1A2
330
5C
100
AcDbEntity
  8
0
  6
Continuous
 62
     7
100
AcDbLine
 10
-55.00000099997919
 20
163.3500000495743
 30
0.0
 11
-55.00000099997919
 21
165.1500000495743
 31
0.0
  0
LINE
  5
1A3
330
5C
100
AcDbEntity
  8
0
  6
Continuous
 62
     7
100
AcDbLine
 10
-57.10000099997919
 20
162.471320393134
 30
0.0
 11
-57.10000099997919
 21
161.4980503466696
 31
0.0
  0
LINE
  5
1A4
330
5C
100
AcDbEntity
  8
0
  6
Continuous
 62
     7
100
AcDbLine
 10
-55.00000099997919
 20
162.471320393134
 30
0.0
 11
-55.00000099997919
 21
161.4980503466696
 31
0.0
  0
LINE
  5
1A5
330
5C
100
AcDbEntity
  8
0
  6
Continuous
 62
     7
100
AcDbLine
 10
-57.10000099997919
 20
163.1216386471082
 30
0.0
 11
-57.10000099997919
 21
162.471320393134
 31
0.0
  0
LINE
  5
1A6
330
5C
100
AcDbEntity
  8
0
  6
Continuous
 62
     7
100
AcDbLine
 10
-55.00000099997919
 20
163.1216386471082
 30
0.0
 11
-55.00000099997919
 21
162.471320393134
 31
0.0
  0
LINE
  5
1A7
330
5C
100
AcDbEntity
  8
0
  6
Continuous
 62
     7
100
AcDbLine
 10
-57.10000099997919
 20
162.471320393134
 30
0.0
 11
-55.00000099997919
 21
162.471320393134
 31
0.0
  0
LINE
  5
1A8
330
5C
100
AcDbEntity
  8
0
  6
Continuous
 62
     7
100
AcDbLine
 10
-57.10000099997919
 20
163.1216386471082
 30
0.0
 11
-55.00000099997919
 21
163.1216386471082
 31
0.0
  0
LINE
  5
1A9
330
5C
100
AcDbEntity
  8
0
  6
Continuous
 62
     7
100
AcDbLine
 10
-57.10000099997919
 20
161.4980503466696
 30
0.0
 11
-57.10000099997919
 21
160.3500000685072
 31
0.0
  0
LINE
  5
1AA
330
5C
100
AcDbEntity
  8
0
  6
Continuous
 62
     7
100
AcDbLine
 10
-55.00000099997919
 20
161.4980503466696
 30
0.0
 11
-55.00000099997919
 21
160.3500000685072
 31
0.0
  0
LINE
  5
1AB
330
5C
100
AcDbEntity
  8
0
  6
Continuous
 62
     7
100
AcDbLine
 10
-57.10000099997919
 20
160.3500000685072
 30
0.0
 11
-55.00000099997919
 21
160.3500000685072
 31
0.0
  0
LINE
  5
1AC
330
5C
100
AcDbEntity
  8
0
  6
Continuous
 62
     7
100
AcDbLine
 10
-57.10000099997919
 20
161.4980503466696
 30
0.0
 11
-55.00000099997919
 21
161.4980503466696
 31
0.0
  0
LINE
  5
1AD
330
5C
100
AcDbEntity
  8
0
  6
Continuous
 62
     7
100
AcDbLine
 10
-57.10000099997919
 20
163.3500000495743
 30
0.0
 11
-55.00000099997919
 21
163.3500000495743
 31
0.0
  0
LINE
  5
1AE
330
5C
100
AcDbEntity
  8
0
  6
Continuous
 62
     7
100
AcDbLine
 10
-57.10000099997919
 20
165.1500000495743
 30
0.0
 11
-55.00000099997919
 21
165.1500000495743
 31
0.0
  0
LINE
  5
1AF
330
5C
100
AcDbEntity
  8
0
  6
Continuous
 62
     2
100
AcDbLine
 10
-56.94502635073951
 20
132.7500000495734
 30
0.0
 11
-56.94502635073951
 21
123.7500000495748
 31
0.0
  0
LINE
  5
1B0
330
5C
100
AcDbEntity
  8
0
  6
Continuous
 62
     7
100
AcDbLine
 10
-56.74995822536801
 20
127.0500000495745
 30
0.0
 11
-56.74995822536801
 21
135.7500000495734
 31
0.0
  0
LINE
  5
1B1
330
5C
100
AcDbEntity
  8
0
  6
Continuous
 62
     7
100
AcDbLine
 10
-54.0930604049812
 20
123.7500000495747
 30
0.0
 11
-54.0930604049812
 21
132.7500000495734
 31
0.0
  0
LINE
  5
1B2
330
5C
100
AcDbEntity
  8
0
  6
Continuous
 62
     7
100
AcDbLine
 10
-57.74995698923439
 20
132.7500000495734
 30
0.0
 11
-57.74995698923439
 21
123.7500000495748
 31
0.0
  0
LINE
  5
1B3
330
5C
100
AcDbEntity
  8
0
  6
Continuous
 62
     7
100
AcDbLine
 10
-63.1500009999792
 20
165.3500000495734
 30
0.0
 11
-63.1500009999792
 21
135.7500000495734
 31
0.0
  0
LINE
  5
1B4
330
5C
100
AcDbEntity
  8
0
  6
Continuous
 62
     7
100
AcDbLine
 10
-63.15000099997909
 20
178.4621348125593
 30
0.0
 11
-63.15000099997909
 21
178.0437446338685
 31
0.0
  0
LINE
  5
1B5
330
5C
100
AcDbEntity
  8
0
  6
Continuous
 62
     7
100
AcDbLine
 10
-48.95000099997921
 20
165.3500000495734
 30
0.0
 11
-47.00000099997911
 21
165.3500000495734
 31
0.0
  0
LINE
  5
1B6
330
5C
100
AcDbEntity
  8
0
  6
Continuous
 62
     7
100
AcDbLine
 10
-48.95000099997921
 20
165.3500000495734
 30
0.0
 11
-48.95000099997921
 21
135.7500000495734
 31
0.0
  0
LINE
  5
1B7
330
5C
100
AcDbEntity
  8
0
  6
Continuous
 62
     7
100
AcDbLine
 10
-47.00000099997911
 20
165.3500000495734
 30
0.0
 11
-47.00000099997911
 21
168.7499989602246
 31
0.0
  0
LINE
  5
1B8
330
5C
100
AcDbEntity
  8
0
  6
Continuous
 62
     7
100
AcDbLine
 10
-47.00000099997911
 20
177.7916413832401
 30
0.0
 11
-47.00000099997911
 21
178.4917097182263
 31
0.0
  0
LINE
  5
1B9
330
5C
100
AcDbEntity
  8
0
  6
Continuous
 62
     7
100
AcDbLine
 10
-47.00000099997911
 20
178.4917097182263
 30
0.0
 11
-47.00000099997911
 21
178.9105736725085
 31
0.0
  0
LINE
  5
1BA
330
5C
100
AcDbEntity
  8
0
  6
Continuous
 62
     7
100
AcDbLine
 10
-47.00000099997911
 20
178.9105736725085
 30
0.0
 11
-47.00000099997911
 21
179.050000049573
 31
0.0
  0
LINE
  5
1BB
330
5C
100
AcDbEntity
  8
0
  6
Continuous
 62
     7
100
AcDbLine
 10
-63.1500009999792
 20
165.3500000495734
 30
0.0
 11
-64.50000099997911
 21
165.3500000495734
 31
0.0
  0
LINE
  5
1BC
330
5C
100
AcDbEntity
  8
0
  6
Continuous
 62
     7
100
AcDbLine
 10
-51.50000099997911
 20
135.7500000495734
 30
0.0
 11
-51.50000099997911
 21
132.7500000495734
 31
0.0
  0
LINE
  5
1BD
330
5C
100
AcDbEntity
  8
0
  6
Continuous
 62
     7
100
AcDbLine
 10
-60.84974326117191
 20
135.7500000495734
 30
0.0
 11
-60.84974326117199
 21
132.7500000495734
 31
0.0
  0
LINE
  5
1BE
330
5C
100
AcDbEntity
  8
0
  6
Continuous
 62
     7
100
AcDbLine
 10
-60.84974326117199
 20
132.7500000495734
 30
0.0
 11
-58.77461439176841
 21
132.7500000495734
 31
0.0
  0
LINE
  5
1BF
330
5C
100
AcDbEntity
  8
0
  6
Continuous
 62
     7
100
AcDbLine
 10
-51.50000099997911
 20
132.7500000495734
 30
0.0
 11
-53.57512986938269
 21
132.7500000495734
 31
0.0
  0
LINE
  5
1C0
330
5C
100
AcDbEntity
  8
0
  6
Continuous
 62
     7
100
AcDbLine
 10
-54.89995897105931
 20
133.5500000495744
 30
0.0
 11
-56.19995897105929
 21
133.5500000495744
 31
0.0
  0
LINE
  5
1C1
330
5C
100
AcDbEntity
  8
0
  6
Continuous
 62
     7
100
AcDbLine
 10
-56.19995897105929
 20
135.7500000495734
 30
0.0
 11
-56.19995897105929
 21
133.5500000495744
 31
0.0
  0
LINE
  5
1C2
330
5C
100
AcDbEntity
  8
0
  6
Continuous
 62
     7
100
AcDbLine
 10
-53.59995897105929
 20
135.7500000495734
 30
0.0
 11
-53.59995897105929
 21
133.5500000495744
 31
0.0
  0
LINE
  5
1C3
330
5C
100
AcDbEntity
  8
0
  6
Continuous
 62
     7
100
AcDbLine
 10
-53.59995897105929
 20
133.5500000495744
 30
0.0
 11
-54.89995897105931
 21
133.5500000495744
 31
0.0
  0
LINE
  5
1C4
330
5C
100
AcDbEntity
  8
0
  6
Continuous
 62
     7
100
AcDbLine
 10
-57.72538760818981
 20
132.7500000495734
 30
0.0
 11
-56.94502635073951
 21
132.7500000495734
 31
0.0
  0
LINE
  5
1C5
330
5C
100
AcDbEntity
  8
0
  6
Continuous
 62
     7
100
AcDbLine
 10
-56.94502635073951
 20
132.7500000495734
 30
0.0
 11
-56.74995822536801
 21
132.7500000495734
 31
0.0
  0
LINE
  5
1C6
330
5C
100
AcDbEntity
  8
0
  6
Continuous
 62
     7
100
AcDbLine
 10
-54.0930604049812
 20
132.7500000495734
 30
0.0
 11
-53.57512986938269
 21
132.7500000495734
 31
0.0
  0
LINE
  5
1C7
330
5C
100
AcDbEntity
  8
0
  6
Continuous
 62
     7
100
AcDbLine
 10
-55.24995822536801
 20
132.7500000495734
 30
0.0
 11
-54.0930604049812
 21
132.7500000495734
 31
0.0
  0
LINE
  5
1C8
330
5C
100
AcDbEntity
  8
0
  6
Continuous
 62
     7
100
AcDbLine
 10
-57.72538760818981
 20
135.7500000495734
 30
0.0
 11
-57.72538760818981
 21
132.7500000495734
 31
0.0
  0
LINE
  5
1C9
330
5C
100
AcDbEntity
  8
0
  6
Continuous
 62
     7
100
AcDbLine
 10
-57.72538760818981
 20
132.7500000495734
 30
0.0
 11
-57.74995698923439
 21
132.7500000495734
 31
0.0
  0
LINE
  5
1CA
330
5C
100
AcDbEntity
  8
0
  6
Continuous
 62
     7
100
AcDbLine
 10
-57.74995698923439
 20
132.7500000495734
 30
0.0
 11
-58.77461439176841
 21
132.7500000495734
 31
0.0
  0
LINE
  5
1CB
330
5C
100
AcDbEntity
  8
0
  6
Continuous
 62
     7
100
AcDbLine
 10
-53.57512986938269
 20
135.7500000495734
 30
0.0
 11
-53.57512986938269
 21
132.7500000495734
 31
0.0
  0
LINE
  5
1CC
330
5C
100
AcDbEntity
  8
0
  6
Continuous
 62
     7
100
AcDbLine
 10
-47.00000099997911
 20
135.7500000495734
 30
0.0
 11
-48.95000099997921
 21
135.7500000495734
 31
0.0
  0
LINE
  5
1CD
330
5C
100
AcDbEntity
  8
0
  6
Continuous
 62
     7
100
AcDbLine
 10
-64.50000099997911
 20
135.7500000495734
 30
0.0
 11
-63.1500009999792
 21
135.7500000495734
 31
0.0
  0
LINE
  5
1CE
330
5C
100
AcDbEntity
  8
0
  6
Continuous
 62
     7
100
AcDbLine
 10
-56.19995897105929
 20
135.7500000495734
 30
0.0
 11
-53.59995897105929
 21
135.7500000495734
 31
0.0
  0
LINE
  5
1CF
330
5C
100
AcDbEntity
  8
0
  6
Continuous
 62
     7
100
AcDbLine
 10
-56.74995822536801
 20
135.7500000495734
 30
0.0
 11
-56.19995897105929
 21
135.7500000495734
 31
0.0
  0
LINE
  5
1D0
330
5C
100
AcDbEntity
  8
0
  6
Continuous
 62
     7
100
AcDbLine
 10
-57.72538760818981
 20
135.7500000495734
 30
0.0
 11
-56.74995822536801
 21
135.7500000495734
 31
0.0
  0
LINE
  5
1D1
330
5C
100
AcDbEntity
  8
0
  6
Continuous
 62
     7
100
AcDbLine
 10
-53.59995897105929
 20
135.7500000495734
 30
0.0
 11
-53.57512986938269
 21
135.7500000495734
 31
0.0
  0
LINE
  5
1D2
330
5C
100
AcDbEntity
  8
0
  6
Continuous
 62
     7
100
AcDbLine
 10
-58.77461439176841
 20
135.7500000495734
 30
0.0
 11
-57.72538760818981
 21
135.7500000495734
 31
0.0
  0
LINE
  5
1D3
330
5C
100
AcDbEntity
  8
0
  6
Continuous
 62
     7
100
AcDbLine
 10
-60.84974326117191
 20
135.7500000495734
 30
0.0
 11
-58.77461439176841
 21
135.7500000495734
 31
0.0
  0
LINE
  5
1D4
330
5C
100
AcDbEntity
  8
0
  6
Continuous
 62
     7
100
AcDbLine
 10
-51.50000099997911
 20
135.7500000495734
 30
0.0
 11
-48.95000099997921
 21
135.7500000495734
 31
0.0
  0
LINE
  5
1D5
330
5C
100
AcDbEntity
  8
0
  6
Continuous
 62
     7
100
AcDbLine
 10
-53.57512986938269
 20
135.7500000495734
 30
0.0
 11
-51.50000099997911
 21
135.7500000495734
 31
0.0
  0
LINE
  5
1D6
330
5C
100
AcDbEntity
  8
0
  6
Continuous
 62
     7
100
AcDbLine
 10
-63.1500009999792
 20
135.7500000495734
 30
0.0
 11
-60.84974326117191
 21
135.7500000495734
 31
0.0
  0
LINE
  5
1D7
330
5C
100
AcDbEntity
  8
0
  6
Continuous
 62
     7
100
AcDbLine
 10
-58.77461439176841
 20
135.7500000495734
 30
0.0
 11
-58.77461439176841
 21
132.7500000495734
 31
0.0
  0
LINE
  5
1D8
330
5C
100
AcDbEntity
  8
0
  6
Continuous
 62
     7
100
AcDbLine
 10
-64.50000099997911
 20
168.7499989602246
 30
0.0
 11
-47.00000099997911
 21
168.7499989602246
 31
0.0
  0
LINE
  5
1D9
330
5C
100
AcDbEntity
  8
0
  6
Continuous
 62
     7
100
AcDbLine
 10
-63.15000099997909
 20
178.0437446338685
 30
0.0
 11
-48.9500009999791
 21
178.0437446338685
 31
0.0
  0
LINE
  5
1DA
330
5C
100
AcDbEntity
  8
0
  6
Continuous
 62
     7
100
AcDbLine
 10
-48.9500009999791
 20
178.0437446338685
 30
0.0
 11
-48.9500009999791
 21
178.4621348125593
 31
0.0
  0
LINE
  5
1DB
330
5C
100
AcDbEntity
  8
0
  6
Continuous
 62
     7
100
AcDbLine
 10
-47.00000099997911
 20
168.7499989602246
 30
0.0
 11
-47.00000099997911
 21
168.9809415103823
 31
0.0
  0
LINE
  5
1DC
330
5C
100
AcDbEntity
  8
0
  6
Continuous
 62
     7
100
AcDbLine
 10
-47.00000099997911
 20
168.9809415103823
 30
0.0
 11
-47.00000099997911
 21
170.7500000495734
 31
0.0
  0
LINE
  5
1DD
330
5C
100
AcDbEntity
  8
0
  6
Continuous
 62
     7
100
AcDbLine
 10
-47.00000099997911
 20
170.7500000495734
 30
0.0
 11
-47.00000099997911
 21
171.2499989610661
 31
0.0
  0
LINE
  5
1DE
330
5C
100
AcDbEntity
  8
0
  6
Continuous
 62
     7
100
AcDbLine
 10
-47.00000099997911
 20
171.2499989610661
 30
0.0
 11
-47.00000099997911
 21
171.4809415103823
 31
0.0
  0
LINE
  5
1DF
330
5C
100
AcDbEntity
  8
0
  6
Continuous
 62
     7
100
AcDbLine
 10
-47.00000099997911
 20
171.4809415103823
 30
0.0
 11
-47.00000099997911
 21
173.2500000644398
 31
0.0
  0
LINE
  5
1E0
330
5C
100
AcDbEntity
  8
0
  6
Continuous
 62
     7
100
AcDbLine
 10
-47.00000099997911
 20
173.2500000644398
 30
0.0
 11
-47.00000099997911
 21
173.7499989511565
 31
0.0
  0
LINE
  5
1E1
330
5C
100
AcDbEntity
  8
0
  6
Continuous
 62
     7
100
AcDbLine
 10
-47.00000099997911
 20
173.7499989511565
 30
0.0
 11
-47.00000099997911
 21
173.9809415103818
 31
0.0
  0
LINE
  5
1E2
330
5C
100
AcDbEntity
  8
0
  6
Continuous
 62
     7
100
AcDbLine
 10
-47.00000099997911
 20
173.9809415103818
 30
0.0
 11
-47.00000099997911
 21
175.7500000495734
 31
0.0
  0
LINE
  5
1E3
330
5C
100
AcDbEntity
  8
0
  6
Continuous
 62
     7
100
AcDbLine
 10
-47.00000099997911
 20
175.7500000495734
 30
0.0
 11
-47.00000099997911
 21
177.7916413832401
 31
0.0
  0
LINE
  5
1E4
330
5C
100
AcDbEntity
  8
0
  6
Continuous
 62
     7
100
AcDbLine
 10
-48.9500009999791
 20
178.4621348125593
 30
0.0
 11
-63.15000099997909
 21
178.4621348125593
 31
0.0
  0
LINE
  5
1E5
330
5C
100
AcDbEntity
  8
0
  6
Continuous
 62
     7
100
AcDbLine
 10
-64.50000099997911
 20
179.050000049573
 30
0.0
 11
-64.50000099997911
 21
178.9105736725085
 31
0.0
  0
LINE
  5
1E6
330
5C
100
AcDbEntity
  8
0
  6
Continuous
 62
     7
100
AcDbLine
 10
-64.50000099997911
 20
178.9105736725085
 30
0.0
 11
-64.50000099997911
 21
178.4917097182263
 31
0.0
  0
LINE
  5
1E7
330
5C
100
AcDbEntity
  8
0
  6
Continuous
 62
     7
100
AcDbLine
 10
-64.50000099997911
 20
178.4917097182263
 30
0.0
 11
-64.50000099997911
 21
177.7916413832401
 31
0.0
  0
LINE
  5
1E8
330
5C
100
AcDbEntity
  8
0
  6
Continuous
 62
     7
100
AcDbLine
 10
-64.50000099997911
 20
175.7500000495734
 30
0.0
 11
-64.50000099997911
 21
177.7916413832401
 31
0.0
  0
LINE
  5
1E9
330
5C
100
AcDbEntity
  8
0
  6
Continuous
 62
     7
100
AcDbLine
 10
-64.50000099997911
 20
173.9809415103818
 30
0.0
 11
-64.50000099997911
 21
173.7499989511565
 31
0.0
  0
LINE
  5
1EA
330
5C
100
AcDbEntity
  8
0
  6
Continuous
 62
     7
100
AcDbLine
 10
-64.50000099997911
 20
173.2500000644398
 30
0.0
 11
-64.50000099997911
 21
173.7499989511565
 31
0.0
  0
LINE
  5
1EB
330
5C
100
AcDbEntity
  8
0
  6
Continuous
 62
     7
100
AcDbLine
 10
-64.50000099997911
 20
171.2499989610661
 30
0.0
 11
-64.50000099997911
 21
171.4809415103823
 31
0.0
  0
LINE
  5
1EC
330
5C
100
AcDbEntity
  8
0
  6
Continuous
 62
     7
100
AcDbLine
 10
-64.50000099997911
 20
170.7500000495734
 30
0.0
 11
-64.50000099997911
 21
171.2499989610661
 31
0.0
  0
LINE
  5
1ED
330
5C
100
AcDbEntity
  8
0
  6
Continuous
 62
     7
100
AcDbLine
 10
-64.50000099997911
 20
168.9809415103823
 30
0.0
 11
-47.00000099997911
 21
168.9809415103823
 31
0.0
  0
LINE
  5
1EE
330
5C
100
AcDbEntity
  8
0
  6
Continuous
 62
     7
100
AcDbLine
 10
-64.50000099997911
 20
170.7500000495734
 30
0.0
 11
-47.00000099997911
 21
170.7500000495734
 31
0.0
  0
LINE
  5
1EF
330
5C
100
AcDbEntity
  8
0
  6
Continuous
 62
     7
100
AcDbLine
 10
-64.50000099997911
 20
171.2499989610661
 30
0.0
 11
-47.00000099997911
 21
171.2499989610661
 31
0.0
  0
LINE
  5
1F0
330
5C
100
AcDbEntity
  8
0
  6
Continuous
 62
     7
100
AcDbLine
 10
-64.50000099997911
 20
171.4809415103823
 30
0.0
 11
-47.00000099997911
 21
171.4809415103823
 31
0.0
  0
LINE
  5
1F1
330
5C
100
AcDbEntity
  8
0
  6
Continuous
 62
     7
100
AcDbLine
 10
-64.50000099997911
 20
173.2500000644398
 30
0.0
 11
-47.00000099997911
 21
173.2500000644398
 31
0.0
  0
LINE
  5
1F2
330
5C
100
AcDbEntity
  8
0
  6
Continuous
 62
     7
100
AcDbLine
 10
-64.50000099997911
 20
173.7499989511565
 30
0.0
 11
-47.00000099997911
 21
173.7499989511565
 31
0.0
  0
LINE
  5
1F3
330
5C
100
AcDbEntity
  8
0
  6
Continuous
 62
     7
100
AcDbLine
 10
-64.50000099997911
 20
173.9809415103818
 30
0.0
 11
-47.00000099997911
 21
173.9809415103818
 31
0.0
  0
LINE
  5
1F4
330
5C
100
AcDbEntity
  8
0
  6
Continuous
 62
     7
100
AcDbLine
 10
-64.50000099997911
 20
175.7500000495734
 30
0.0
 11
-47.00000099997911
 21
175.7500000495734
 31
0.0
  0
LINE
  5
1F5
330
5C
100
AcDbEntity
  8
0
  6
Continuous
 62
     7
100
AcDbLine
 10
-64.50000099997911
 20
177.7916413832401
 30
0.0
 11
-47.00000099997911
 21
177.7916413832401
 31
0.0
  0
LINE
  5
1F6
330
5C
100
AcDbEntity
  8
0
  6
Continuous
 62
     7
100
AcDbLine
 10
-64.50000099997911
 20
178.4917097182263
 30
0.0
 11
-47.00000099997911
 21
178.4917097182263
 31
0.0
  0
LINE
  5
1F7
330
5C
100
AcDbEntity
  8
0
  6
Continuous
 62
     7
100
AcDbLine
 10
-64.50000099997911
 20
178.9105736725085
 30
0.0
 11
-47.00000099997911
 21
178.9105736725085
 31
0.0
  0
LINE
  5
1F8
330
5C
100
AcDbEntity
  8
0
  6
Continuous
 62
     7
100
AcDbLine
 10
-64.50000099997911
 20
179.050000049573
 30
0.0
 11
-47.00000099997911
 21
179.050000049573
 31
0.0
  0
LINE
  5
1F9
330
5C
100
AcDbEntity
  8
0
  6
Continuous
 62
     7
100
AcDbLine
 10
-64.50000099997911
 20
165.3500000495734
 30
0.0
 11
-64.50000099997911
 21
168.7499989602246
 31
0.0
  0
LINE
  5
1FA
330
5C
100
AcDbEntity
  8
0
  6
Continuous
 62
     7
100
AcDbLine
 10
-64.50000099997911
 20
168.7499989602246
 30
0.0
 11
-64.50000099997911
 21
168.9809415103823
 31
0.0
  0
LINE
  5
1FB
330
5C
100
AcDbEntity
  8
0
  6
Continuous
 62
     7
100
AcDbLine
 10
-64.50000099997911
 20
168.9809415103823
 30
0.0
 11
-64.50000099997911
 21
170.7500000495734
 31
0.0
  0
LINE
  5
1FC
330
5C
100
AcDbEntity
  8
0
  6
Continuous
 62
     7
100
AcDbLine
 10
-64.50000099997911
 20
171.4809415103823
 30
0.0
 11
-64.50000099997911
 21
173.2500000644398
 31
0.0
  0
LINE
  5
1FD
330
5C
100
AcDbEntity
  8
0
  6
Continuous
 62
     7
100
AcDbLine
 10
-64.50000099997911
 20
175.7500000495734
 30
0.0
 11
-64.50000099997911
 21
173.9809415103818
 31
0.0
  0
LINE
  5
1FE
330
5C
100
AcDbEntity
  8
0
  6
Continuous
 62
     7
100
AcDbLine
 10
-64.50000099997911
 20
135.7500000495734
 30
0.0
 11
-64.50000099997911
 21
165.3500000495734
 31
0.0
  0
LINE
  5
1FF
330
5C
100
AcDbEntity
  8
0
  6
Continuous
 62
     7
100
AcDbLine
 10
-47.00000099997911
 20
165.3500000495734
 30
0.0
 11
-47.00000099997911
 21
135.7500000495734
 31
0.0
  0
LINE
  5
200
330
5C
100
AcDbEntity
  8
1
  6
DOT_CENTER
 62
     2
100
AcDbLine
 10
-54.89995897105929
 20
135.7500000495734
 30
0.0
 11
-54.89995897105931
 21
133.5500000495744
 31
0.0
  0
ENDBLK
  5
5E
330
5C
100
AcDbEntity
  8
0
100
AcDbBlockEnd
  0
BLOCK
  5
61
330
5F
100
AcDbEntity
  8
0
100
AcDbBlockBegin
  2
SA_Links2
 70
     0
 10
-56.0500009999991
 20
157.3999999999991
 30
0.0
  3
SA_Links2
  1

  0
INSERT
  5
60
330
5F
100
AcDbEntity
  8
0
100
AcDbBlockReference
  2
VAL_MS_500_ST-select__4
 10
-64.50000099997911
 20
123.7500000495747
 30
0.0
  0
MTEXT
  5
201
330
5F
100
AcDbEntity
  8
1
 62
     6
100
AcDbMText
 10
-56.05000066755133
 20
118.7500002384189
 30
0.0
 40
5.0
 41
0.0
 71
     2
 72
     1
  1
 
  7
CONVERTER_11
 73
     1
 44
1.32052821128451
  0
ENDBLK
  5
62
330
5F
100
AcDbEntity
  8
0
100
AcDbBlockEnd
  0
BLOCK
  5
64
330
63
100
AcDbEntity
  8
0
100
AcDbBlockBegin
  2
VAL_MS_500_ST-select__5
 70
     0
 10
-200.9999990000191
 20
123.7500000495756
 30
0.0
  3
VAL_MS_500_ST-select__5
  1

  0
LINE
  5
202
330
63
100
AcDbEntity
  8
0
  6
Continuous
 62
     7
100
AcDbLine
 10
-190.2500430107638
 20
132.7500000495742
 30
0.0
 11
-190.2746123918083
 21
132.7500000495742
 31
0.0
  0
LINE
  5
203
330
63
100
AcDbEntity
  8
0
  6
Continuous
 62
     7
100
AcDbLine
 10
-189.2253856082298
 20
132.7500000495742
 30
0.0
 11
-190.2500430107638
 21
132.7500000495742
 31
0.0
  0
LINE
  5
204
330
63
100
AcDbEntity
  8
0
  6
Continuous
 62
     7
100
AcDbLine
 10
-190.2746123918083
 20
135.7500000495742
 30
0.0
 11
-190.2746123918083
 21
132.7500000495742
 31
0.0
  0
LINE
  5
205
330
63
100
AcDbEntity
  8
0
  6
Continuous
 62
     7
100
AcDbLine
 10
-192.8000425203215
 20
132.7500000495742
 30
0.0
 11
-193.7481203973886
 21
132.7500000495742
 31
0.0
  0
LINE
  5
206
330
63
100
AcDbEntity
  8
0
  6
Continuous
 62
     7
100
AcDbLine
 10
-193.7481203973886
 20
132.7500000495742
 30
0.0
 11
-193.906939595017
 21
132.7500000495742
 31
0.0
  0
LINE
  5
207
330
63
100
AcDbEntity
  8
0
  6
Continuous
 62
     7
100
AcDbLine
 10
-193.906939595017
 20
132.7500000495742
 30
0.0
 11
-194.4248701306155
 21
132.7500000495742
 31
0.0
  0
LINE
  5
208
330
63
100
AcDbEntity
  8
0
  6
Continuous
 62
     7
100
AcDbLine
 10
-191.1250431572938
 20
132.7500000495742
 30
0.0
 11
-191.3000425203215
 21
132.7500000495742
 31
0.0
  0
LINE
  5
209
330
63
100
AcDbEntity
  8
0
  6
Continuous
 62
     7
100
AcDbLine
 10
-190.878188553682
 20
132.7500000495742
 30
0.0
 11
-191.1250431572938
 21
132.7500000495742
 31
0.0
  0
LINE
  5
20A
330
63
100
AcDbEntity
  8
0
  6
Continuous
 62
     7
100
AcDbLine
 10
-190.2746123918083
 20
132.7500000495742
 30
0.0
 11
-190.878188553682
 21
132.7500000495742
 31
0.0
  0
LINE
  5
20B
330
63
100
AcDbEntity
  8
0
  6
Continuous
 62
     7
100
AcDbLine
 10
-194.4248701306155
 20
135.7500000495742
 30
0.0
 11
-194.4248701306155
 21
132.7500000495742
 31
0.0
  0
LINE
  5
20C
330
63
100
AcDbEntity
  8
0
  6
Continuous
 62
     7
100
AcDbLine
 10
-189.2253856082298
 20
132.7500000495742
 30
0.0
 11
-187.1502567388262
 21
132.7500000495742
 31
0.0
  0
LINE
  5
20D
330
63
100
AcDbEntity
  8
0
  6
Continuous
 62
     7
100
AcDbLine
 10
-194.4248701306155
 20
132.7500000495742
 30
0.0
 11
-196.4999990000191
 21
132.7500000495742
 31
0.0
  0
LINE
  5
20E
330
63
100
AcDbEntity
  8
0
  6
Continuous
 62
     7
100
AcDbLine
 10
-196.4999990000191
 20
135.7500000495742
 30
0.0
 11
-196.4999990000191
 21
132.7500000495742
 31
0.0
  0
LINE
  5
20F
330
63
100
AcDbEntity
  8
0
  6
Continuous
 62
     7
100
AcDbLine
 10
-199.049999000019
 20
135.7500000495742
 30
0.0
 11
-200.9999990000191
 21
135.7500000495742
 31
0.0
  0
LINE
  5
210
330
63
100
AcDbEntity
  8
0
  6
Continuous
 62
     7
100
AcDbLine
 10
-192.8000425203215
 20
135.7500000495742
 30
0.0
 11
-194.4248701306155
 21
135.7500000495742
 31
0.0
  0
LINE
  5
211
330
63
100
AcDbEntity
  8
0
  6
Continuous
 62
     7
100
AcDbLine
 10
-191.3000425203215
 20
135.7500000495742
 30
0.0
 11
-192.8000425203215
 21
135.7500000495742
 31
0.0
  0
LINE
  5
212
330
63
100
AcDbEntity
  8
0
  6
Continuous
 62
     7
100
AcDbLine
 10
-190.2746123918083
 20
135.7500000495742
 30
0.0
 11
-191.3000425203215
 21
135.7500000495742
 31
0.0
  0
LINE
  5
213
330
63
100
AcDbEntity
  8
0
  6
Continuous
 62
     7
100
AcDbLine
 10
-187.1502567388262
 20
135.7500000495742
 30
0.0
 11
-189.2253856082298
 21
135.7500000495742
 31
0.0
  0
LINE
  5
214
330
63
100
AcDbEntity
  8
0
  6
Continuous
 62
     7
100
AcDbLine
 10
-189.2253856082298
 20
135.7500000495742
 30
0.0
 11
-190.2746123918083
 21
135.7500000495742
 31
0.0
  0
LINE
  5
215
330
63
100
AcDbEntity
  8
0
  6
Continuous
 62
     7
100
AcDbLine
 10
-184.849999000019
 20
135.7500000495742
 30
0.0
 11
-183.4999990000191
 21
135.7500000495742
 31
0.0
  0
LINE
  5
216
330
63
100
AcDbEntity
  8
0
  6
Continuous
 62
     7
100
AcDbLine
 10
-196.4999990000191
 20
135.7500000495742
 30
0.0
 11
-199.049999000019
 21
135.7500000495742
 31
0.0
  0
LINE
  5
217
330
63
100
AcDbEntity
  8
0
  6
Continuous
 62
     7
100
AcDbLine
 10
-194.4248701306155
 20
135.7500000495742
 30
0.0
 11
-196.4999990000191
 21
135.7500000495742
 31
0.0
  0
LINE
  5
218
330
63
100
AcDbEntity
  8
0
  6
Continuous
 62
     7
100
AcDbLine
 10
-184.849999000019
 20
135.7500000495742
 30
0.0
 11
-187.1502567388262
 21
135.7500000495742
 31
0.0
  0
LINE
  5
219
330
63
100
AcDbEntity
  8
0
  6
Continuous
 62
     7
100
AcDbLine
 10
-189.2253856082298
 20
135.7500000495742
 30
0.0
 11
-189.2253856082298
 21
132.7500000495742
 31
0.0
  0
LINE
  5
21A
330
63
100
AcDbEntity
  8
0
  6
Continuous
 62
     7
100
AcDbLine
 10
-187.1502567388262
 20
135.7500000495742
 30
0.0
 11
-187.1502567388262
 21
132.7500000495742
 31
0.0
  0
LINE
  5
21B
330
63
100
AcDbEntity
  8
0
  6
Continuous
 62
     7
100
AcDbLine
 10
-183.4999990000191
 20
168.9809415650354
 30
0.0
 11
-183.4999990000191
 21
168.7499988571422
 31
0.0
  0
LINE
  5
21C
330
63
100
AcDbEntity
  8
0
  6
Continuous
 62
     7
100
AcDbLine
 10
-183.4999990000191
 20
171.2499988571425
 30
0.0
 11
-183.4999990000191
 21
170.7500000495752
 31
0.0
  0
LINE
  5
21D
330
63
100
AcDbEntity
  8
0
  6
Continuous
 62
     7
100
AcDbLine
 10
-183.4999990000191
 20
170.7500000495752
 30
0.0
 11
-183.4999990000191
 21
168.9809415650354
 31
0.0
  0
LINE
  5
21E
330
63
100
AcDbEntity
  8
0
  6
Continuous
 62
     7
100
AcDbLine
 10
-183.4999990000191
 20
168.9809415650354
 30
0.0
 11
-200.9999990000191
 21
168.9809415650354
 31
0.0
  0
LINE
  5
21F
330
63
100
AcDbEntity
  8
0
  6
Continuous
 62
     7
100
AcDbLine
 10
-183.4999990000191
 20
170.7500000495752
 30
0.0
 11
-200.9999990000191
 21
170.7500000495752
 31
0.0
  0
LINE
  5
220
330
63
100
AcDbEntity
  8
0
  6
Continuous
 62
     7
100
AcDbLine
 10
-183.4999990000191
 20
171.4809415650354
 30
0.0
 11
-183.4999990000191
 21
171.2499988571425
 31
0.0
  0
LINE
  5
221
330
63
100
AcDbEntity
  8
0
  6
Continuous
 62
     7
100
AcDbLine
 10
-183.4999990000191
 20
171.2499988571425
 30
0.0
 11
-200.9999990000191
 21
171.2499988571425
 31
0.0
  0
LINE
  5
222
330
63
100
AcDbEntity
  8
0
  6
Continuous
 62
     7
100
AcDbLine
 10
-183.4999990000191
 20
173.2500000495752
 30
0.0
 11
-183.4999990000191
 21
171.4809415650354
 31
0.0
  0
LINE
  5
223
330
63
100
AcDbEntity
  8
0
  6
Continuous
 62
     7
100
AcDbLine
 10
-183.4999990000191
 20
171.4809415650354
 30
0.0
 11
-200.9999990000191
 21
171.4809415650354
 31
0.0
  0
LINE
  5
224
330
63
100
AcDbEntity
  8
0
  6
Continuous
 62
     7
100
AcDbLine
 10
-183.4999990000191
 20
173.2500000495752
 30
0.0
 11
-200.9999990000191
 21
173.2500000495752
 31
0.0
  0
LINE
  5
225
330
63
100
AcDbEntity
  8
0
  6
Continuous
 62
     7
100
AcDbLine
 10
-183.4999990000191
 20
168.7499988571422
 30
0.0
 11
-200.9999990000191
 21
168.7499988571422
 31
0.0
  0
LINE
  5
226
330
63
100
AcDbEntity
  8
0
  6
Continuous
 62
     7
100
AcDbLine
 10
-183.4999990000191
 20
173.7499988571425
 30
0.0
 11
-200.9999990000191
 21
173.7499988571425
 31
0.0
  0
LINE
  5
227
330
63
100
AcDbEntity
  8
0
  6
Continuous
 62
     7
100
AcDbLine
 10
-183.4999990000191
 20
165.3500000495742
 30
0.0
 11
-184.849999000019
 21
165.3500000495743
 31
0.0
  0
LINE
  5
228
330
63
100
AcDbEntity
  8
0
  6
Continuous
 62
     7
100
AcDbLine
 10
-190.899999000019
 20
165.1500000495763
 30
0.0
 11
-192.999999000019
 21
165.1500000495763
 31
0.0
  0
LINE
  5
229
330
63
100
AcDbEntity
  8
0
  6
Continuous
 62
     7
100
AcDbLine
 10
-184.849999000019
 20
135.7500000495742
 30
0.0
 11
-184.849999000019
 21
165.3500000495743
 31
0.0
  0
LINE
  5
22A
330
63
100
AcDbEntity
  8
0
  6
Continuous
 62
     7
100
AcDbLine
 10
-183.4999990000191
 20
173.9809415650354
 30
0.0
 11
-183.4999990000191
 21
173.7499988571425
 31
0.0
  0
LINE
  5
22B
330
63
100
AcDbEntity
  8
0
  6
Continuous
 62
     7
100
AcDbLine
 10
-183.4999990000191
 20
177.7916413832403
 30
0.0
 11
-183.4999990000191
 21
178.4917097182276
 31
0.0
  0
LINE
  5
22C
330
63
100
AcDbEntity
  8
0
  6
Continuous
 62
     7
100
AcDbLine
 10
-183.4999990000191
 20
178.4917097182276
 30
0.0
 11
-183.4999990000191
 21
178.9105736725095
 31
0.0
  0
LINE
  5
22D
330
63
100
AcDbEntity
  8
0
  6
Continuous
 62
     7
100
AcDbLine
 10
-183.4999990000191
 20
178.9105736725095
 30
0.0
 11
-183.4999990000191
 21
179.0500000495738
 31
0.0
  0
LINE
  5
22E
330
63
100
AcDbEntity
  8
0
  6
Continuous
 62
     7
100
AcDbLine
 10
-183.4999990000191
 20
168.7499988571422
 30
0.0
 11
-183.4999990000191
 21
165.3500000495742
 31
0.0
  0
LINE
  5
22F
330
63
100
AcDbEntity
  8
0
  6
Continuous
 62
     7
100
AcDbLine
 10
-183.4999990000191
 20
175.7500000495744
 30
0.0
 11
-183.4999990000191
 21
173.9809415650354
 31
0.0
  0
LINE
  5
230
330
63
100
AcDbEntity
  8
0
  6
Continuous
 62
     7
100
AcDbLine
 10
-183.4999990000191
 20
173.7499988571425
 30
0.0
 11
-183.4999990000191
 21
173.2500000495752
 31
0.0
  0
LINE
  5
231
330
63
100
AcDbEntity
  8
0
  6
Continuous
 62
     7
100
AcDbLine
 10
-200.9999990000191
 20
165.3500000495743
 30
0.0
 11
-199.049999000019
 21
165.3500000495743
 31
0.0
  0
LINE
  5
232
330
63
100
AcDbEntity
  8
0
  6
Continuous
 62
     7
100
AcDbLine
 10
-193.906939595017
 20
123.7500000495756
 30
0.0
 11
-193.7481203973886
 21
123.7500000495756
 31
0.0
  0
LINE
  5
233
330
63
100
AcDbEntity
  8
0
  6
Continuous
 62
     7
100
AcDbLine
 10
-191.1250431572938
 20
123.7500000495756
 30
0.0
 11
-193.7481203973886
 21
123.7500000495756
 31
0.0
  0
LINE
  5
234
330
63
100
AcDbEntity
  8
0
  6
Continuous
 62
     7
100
AcDbLine
 10
-191.1250431572938
 20
123.7500000495756
 30
0.0
 11
-190.878188553682
 21
123.7500000495756
 31
0.0
  0
LINE
  5
235
330
63
100
AcDbEntity
  8
0
  6
Continuous
 62
     7
100
AcDbLine
 10
-190.2500430107638
 20
123.7500000495756
 30
0.0
 11
-190.878188553682
 21
123.7500000495756
 31
0.0
  0
LINE
  5
236
330
63
100
AcDbEntity
  8
0
  6
Continuous
 62
     7
100
AcDbLine
 10
-192.8000425203215
 20
127.0500000495759
 30
0.0
 11
-191.3000425203215
 21
127.0500000495759
 31
0.0
  0
LINE
  5
237
330
63
100
AcDbEntity
  8
0
  6
Continuous
 62
     7
100
AcDbLine
 10
-190.899999000019
 20
163.3500000495762
 30
0.0
 11
-190.899999000019
 21
165.1500000495763
 31
0.0
  0
LINE
  5
238
330
63
100
AcDbEntity
  8
0
  6
Continuous
 62
     7
100
AcDbLine
 10
-192.999999000019
 20
163.3500000495762
 30
0.0
 11
-192.999999000019
 21
165.1500000495763
 31
0.0
  0
LINE
  5
239
330
63
100
AcDbEntity
  8
0
  6
Continuous
 62
     7
100
AcDbLine
 10
-190.899999000019
 20
163.3500000495762
 30
0.0
 11
-190.899999000019
 21
163.1216386471101
 31
0.0
  0
LINE
  5
23A
330
63
100
AcDbEntity
  8
0
  6
Continuous
 62
     7
100
AcDbLine
 10
-190.899999000019
 20
163.1216386471101
 30
0.0
 11
-190.899999000019
 21
162.4713203931358
 31
0.0
  0
LINE
  5
23B
330
63
100
AcDbEntity
  8
0
  6
Continuous
 62
     7
100
AcDbLine
 10
-192.999999000019
 20
163.1216386471101
 30
0.0
 11
-192.999999000019
 21
162.4713203931358
 31
0.0
  0
LINE
  5
23C
330
63
100
AcDbEntity
  8
0
  6
Continuous
 62
     7
100
AcDbLine
 10
-190.899999000019
 20
162.4713203931358
 30
0.0
 11
-190.899999000019
 21
161.4980503466715
 31
0.0
  0
LINE
  5
23D
330
63
100
AcDbEntity
  8
0
  6
Continuous
 62
     7
100
AcDbLine
 10
-192.999999000019
 20
162.4713203931358
 30
0.0
 11
-192.999999000019
 21
161.4980503466715
 31
0.0
  0
LINE
  5
23E
330
63
100
AcDbEntity
  8
0
  6
Continuous
 62
     7
100
AcDbLine
 10
-190.899999000019
 20
161.4980503466715
 30
0.0
 11
-190.899999000019
 21
160.350000068509
 31
0.0
  0
LINE
  5
23F
330
63
100
AcDbEntity
  8
0
  6
Continuous
 62
     7
100
AcDbLine
 10
-192.999999000019
 20
160.3500002271851
 30
0.0
 11
-190.899999000019
 21
160.350000068509
 31
0.0
  0
LINE
  5
240
330
63
100
AcDbEntity
  8
0
  6
Continuous
 62
     7
100
AcDbLine
 10
-190.899999000019
 20
161.4980503466715
 30
0.0
 11
-192.999999000019
 21
161.4980503466715
 31
0.0
  0
LINE
  5
241
330
63
100
AcDbEntity
  8
0
  6
Continuous
 62
     7
100
AcDbLine
 10
-192.999999000019
 20
161.4980503466715
 30
0.0
 11
-192.999999000019
 21
160.3500002271851
 31
0.0
  0
LINE
  5
242
330
63
100
AcDbEntity
  8
0
  6
Continuous
 62
     7
100
AcDbLine
 10
-190.899999000019
 20
162.4713203931358
 30
0.0
 11
-192.999999000019
 21
162.4713203931358
 31
0.0
  0
LINE
  5
243
330
63
100
AcDbEntity
  8
0
  6
Continuous
 62
     7
100
AcDbLine
 10
-190.899999000019
 20
163.1216386471101
 30
0.0
 11
-192.999999000019
 21
163.1216386471101
 31
0.0
  0
LINE
  5
244
330
63
100
AcDbEntity
  8
0
  6
Continuous
 62
     7
100
AcDbLine
 10
-192.999999000019
 20
163.3500000495762
 30
0.0
 11
-192.999999000019
 21
163.1216386471101
 31
0.0
  0
LINE
  5
245
330
63
100
AcDbEntity
  8
0
  6
Continuous
 62
     7
100
AcDbLine
 10
-190.899999000019
 20
163.3500000495762
 30
0.0
 11
-192.999999000019
 21
163.3500000495762
 31
0.0
  0
LINE
  5
246
330
63
100
AcDbEntity
  8
0
  6
Continuous
 62
     7
100
AcDbLine
 10
-190.878188553682
 20
132.7500000495742
 30
0.0
 11
-190.878188553682
 21
123.7500000495756
 31
0.0
  0
LINE
  5
247
330
63
100
AcDbEntity
  8
0
  6
Continuous
 62
     7
100
AcDbLine
 10
-191.1250431572938
 20
132.7500000495742
 30
0.0
 11
-191.1250431572938
 21
123.7500000495756
 31
0.0
  0
LINE
  5
248
330
63
100
AcDbEntity
  8
0
  6
Continuous
 62
     7
100
AcDbLine
 10
-190.2500430107638
 20
132.7500000495742
 30
0.0
 11
-190.2500430107638
 21
123.7500000495756
 31
0.0
  0
LINE
  5
249
330
63
100
AcDbEntity
  8
0
  6
Continuous
 62
     2
100
AcDbLine
 10
-193.7481203973886
 20
132.7500000495742
 30
0.0
 11
-193.7481203973886
 21
123.7500000495756
 31
0.0
  0
LINE
  5
24A
330
63
100
AcDbEntity
  8
0
  6
Continuous
 62
     7
100
AcDbLine
 10
-192.8000425203215
 20
135.7500000495742
 30
0.0
 11
-192.8000425203215
 21
127.0500000495759
 31
0.0
  0
LINE
  5
24B
330
63
100
AcDbEntity
  8
0
  6
Continuous
 62
     7
100
AcDbLine
 10
-193.906939595017
 20
123.7500000495756
 30
0.0
 11
-193.906939595017
 21
132.7500000495742
 31
0.0
  0
LINE
  5
24C
330
63
100
AcDbEntity
  8
0
  6
Continuous
 62
     7
100
AcDbLine
 10
-191.3000425203215
 20
135.7500000495742
 30
0.0
 11
-191.3000425203215
 21
127.0500000495759
 31
0.0
  0
LINE
  5
24D
330
63
100
AcDbEntity
  8
0
  6
Continuous
 62
     7
100
AcDbLine
 10
-183.4999990000191
 20
177.7916413832403
 30
0.0
 11
-183.4999990000191
 21
175.7500000495744
 31
0.0
  0
LINE
  5
24E
330
63
100
AcDbEntity
  8
0
  6
Continuous
 62
     7
100
AcDbLine
 10
-183.4999990000191
 20
179.0500000495738
 30
0.0
 11
-200.9999990000191
 21
179.0500000495738
 31
0.0
  0
LINE
  5
24F
330
63
100
AcDbEntity
  8
0
  6
Continuous
 62
     7
100
AcDbLine
 10
-183.4999990000191
 20
178.9105736725095
 30
0.0
 11
-200.9999990000191
 21
178.9105736725095
 31
0.0
  0
LINE
  5
250
330
63
100
AcDbEntity
  8
0
  6
Continuous
 62
     7
100
AcDbLine
 10
-183.4999990000191
 20
178.4917097182276
 30
0.0
 11
-200.9999990000191
 21
178.4917097182276
 31
0.0
  0
LINE
  5
251
330
63
100
AcDbEntity
  8
0
  6
Continuous
 62
     7
100
AcDbLine
 10
-183.4999990000191
 20
177.7916413832403
 30
0.0
 11
-200.9999990000191
 21
177.7916413832403
 31
0.0
  0
LINE
  5
252
330
63
100
AcDbEntity
  8
0
  6
Continuous
 62
     7
100
AcDbLine
 10
-183.4999990000191
 20
175.7500000495744
 30
0.0
 11
-200.9999990000191
 21
175.7500000495744
 31
0.0
  0
LINE
  5
253
330
63
100
AcDbEntity
  8
0
  6
Continuous
 62
     7
100
AcDbLine
 10
-183.4999990000191
 20
173.9809415650354
 30
0.0
 11
-200.9999990000191
 21
173.9809415650354
 31
0.0
  0
LINE
  5
254
330
63
100
AcDbEntity
  8
0
  6
Continuous
 62
     7
100
AcDbLine
 10
-200.9999990000191
 20
168.9809415650354
 30
0.0
 11
-200.9999990000191
 21
168.7499988571422
 31
0.0
  0
LINE
  5
255
330
63
100
AcDbEntity
  8
0
  6
Continuous
 62
     7
100
AcDbLine
 10
-200.9999990000191
 20
171.2499988571425
 30
0.0
 11
-200.9999990000191
 21
170.7500000495752
 31
0.0
  0
LINE
  5
256
330
63
100
AcDbEntity
  8
0
  6
Continuous
 62
     7
100
AcDbLine
 10
-200.9999990000191
 20
170.7500000495752
 30
0.0
 11
-200.9999990000191
 21
168.9809415650354
 31
0.0
  0
LINE
  5
257
330
63
100
AcDbEntity
  8
0
  6
Continuous
 62
     7
100
AcDbLine
 10
-200.9999990000191
 20
171.4809415650354
 30
0.0
 11
-200.9999990000191
 21
171.2499988571425
 31
0.0
  0
LINE
  5
258
330
63
100
AcDbEntity
  8
0
  6
Continuous
 62
     7
100
AcDbLine
 10
-200.9999990000191
 20
173.7499988571425
 30
0.0
 11
-200.9999990000191
 21
173.2500000495752
 31
0.0
  0
LINE
  5
259
330
63
100
AcDbEntity
  8
0
  6
Continuous
 62
     7
100
AcDbLine
 10
-200.9999990000191
 20
173.2500000495752
 30
0.0
 11
-200.9999990000191
 21
171.4809415650354
 31
0.0
  0
LINE
  5
25A
330
63
100
AcDbEntity
  8
0
  6
Continuous
 62
     7
100
AcDbLine
 10
-200.9999990000191
 20
173.9809415650354
 30
0.0
 11
-200.9999990000191
 21
173.7499988571425
 31
0.0
  0
LINE
  5
25B
330
63
100
AcDbEntity
  8
0
  6
Continuous
 62
     7
100
AcDbLine
 10
-200.9999990000191
 20
175.7500000495744
 30
0.0
 11
-200.9999990000191
 21
173.9809415650354
 31
0.0
  0
LINE
  5
25C
330
63
100
AcDbEntity
  8
0
  6
Continuous
 62
     7
100
AcDbLine
 10
-200.9999990000191
 20
178.4917097182276
 30
0.0
 11
-200.9999990000191
 21
177.7916413832403
 31
0.0
  0
LINE
  5
25D
330
63
100
AcDbEntity
  8
0
  6
Continuous
 62
     7
100
AcDbLine
 10
-200.9999990000191
 20
178.9105736725095
 30
0.0
 11
-200.9999990000191
 21
178.4917097182276
 31
0.0
  0
LINE
  5
25E
330
63
100
AcDbEntity
  8
0
  6
Continuous
 62
     7
100
AcDbLine
 10
-200.9999990000191
 20
179.0500000495738
 30
0.0
 11
-200.9999990000191
 21
178.9105736725095
 31
0.0
  0
LINE
  5
25F
330
63
100
AcDbEntity
  8
0
  6
Continuous
 62
     7
100
AcDbLine
 10
-200.9999990000191
 20
168.7499988571422
 30
0.0
 11
-200.9999990000191
 21
165.3500000495743
 31
0.0
  0
LINE
  5
260
330
63
100
AcDbEntity
  8
0
  6
Continuous
 62
     7
100
AcDbLine
 10
-200.9999990000191
 20
177.7916413832403
 30
0.0
 11
-200.9999990000191
 21
175.7500000495744
 31
0.0
  0
LINE
  5
261
330
63
100
AcDbEntity
  8
0
  6
Continuous
 62
     7
100
AcDbLine
 10
-200.9999990000191
 20
135.7500000495742
 30
0.0
 11
-200.9999990000191
 21
165.3500000495743
 31
0.0
  0
LINE
  5
262
330
63
100
AcDbEntity
  8
0
  6
Continuous
 62
     7
100
AcDbLine
 10
-183.4999990000191
 20
165.3500000495742
 30
0.0
 11
-183.4999990000191
 21
135.7500000495742
 31
0.0
  0
LINE
  5
263
330
63
100
AcDbEntity
  8
0
  6
Continuous
 62
     7
100
AcDbLine
 10
-199.049999000019
 20
135.7500000495742
 30
0.0
 11
-199.049999000019
 21
165.3500000495743
 31
0.0
  0
ENDBLK
  5
65
330
63
100
AcDbEntity
  8
0
100
AcDbBlockEnd
  0
BLOCK
  5
68
330
66
100
AcDbEntity
  8
0
100
AcDbBlockBegin
  2
SA_Rechts2
 70
     0
 10
-191.9499989999991
 20
157.4
 30
0.0
  3
SA_Rechts2
  1

  0
INSERT
  5
67
330
66
100
AcDbEntity
  8
0
100
AcDbBlockReference
  2
VAL_MS_500_ST-select__5
 10
-200.9999990000191
 20
123.7500000495756
 30
0.0
  0
MTEXT
  5
264
330
66
100
AcDbEntity
  8
1
 62
     6
100
AcDbMText
 10
-191.9499993324488
 20
118.7500002384189
 30
0.0
 40
5.0
 41
0.0
 71
     2
 72
     1
  1
 
  7
CONVERTER_11
 73
     1
 44
1.32052821128451
  0
ENDBLK
  5
69
330
66
100
AcDbEntity
  8
0
100
AcDbBlockEnd
  0
BLOCK
  5
6B
330
6A
100
AcDbEntity
  8
0
100
AcDbBlockBegin
  2
VAL_MS_500_ST-select__6
 70
     0
 10
-139.1999994375467
 20
123.7500000495756
 30
0.0
  3
VAL_MS_500_ST-select__6
  1

  0
LINE
  5
265
330
6A
100
AcDbEntity
  8
0
  6
Continuous
 62
     7
100
AcDbLine
 10
-123.499999437546
 20
127.0500000495755
 30
0.0
 11
-123.4999994375461
 21
135.7500000495743
 31
0.0
  0
LINE
  5
266
330
6A
100
AcDbEntity
  8
0
  6
Continuous
 62
     7
100
AcDbLine
 10
-117.4999994375459
 20
127.0500000495756
 30
0.0
 11
-123.499999437546
 21
127.0500000495755
 31
0.0
  0
LINE
  5
267
330
6A
100
AcDbEntity
  8
0
  6
Continuous
 62
     7
100
AcDbLine
 10
-105.5333327708799
 20
178.9105736725096
 30
0.0
 11
-98.06666610421323
 21
178.4917097182276
 31
0.0
  0
LINE
  5
268
330
6A
100
AcDbEntity
  8
0
  6
Continuous
 62
     7
100
AcDbLine
 10
-112.9999994375505
 20
179.0500000495739
 30
0.0
 11
-105.5333327708799
 21
178.9105736725096
 31
0.0
  0
LINE
  5
269
330
6A
100
AcDbEntity
  8
0
  6
Continuous
 62
     7
100
AcDbLine
 10
-120.466666104217
 20
178.9105736725094
 30
0.0
 11
-112.9999994375505
 21
179.0500000495739
 31
0.0
  0
LINE
  5
26A
330
6A
100
AcDbEntity
  8
0
  6
Continuous
 62
     7
100
AcDbLine
 10
-127.9333327708838
 20
178.4917097182273
 30
0.0
 11
-120.466666104217
 21
178.9105736725094
 31
0.0
  0
LINE
  5
26B
330
6A
100
AcDbEntity
  8
0
  6
Continuous
 62
     7
100
AcDbLine
 10
-135.3999994375468
 20
177.791641383241
 30
0.0
 11
-127.9333327708838
 21
178.4917097182273
 31
0.0
  0
LINE
  5
26C
330
6A
100
AcDbEntity
  8
0
  6
Continuous
 62
     7
100
AcDbLine
 10
-117.4999994375461
 20
135.7500000495743
 30
0.0
 11
-117.4999994375459
 21
127.0500000495756
 31
0.0
  0
LINE
  5
26D
330
6A
100
AcDbEntity
  8
0
  6
Continuous
 62
     7
100
AcDbLine
 10
-90.99999943754646
 20
171.4809415650354
 30
0.0
 11
-90.59999943754644
 21
171.2499988571426
 31
0.0
  0
LINE
  5
26E
330
6A
100
AcDbEntity
  8
0
  6
Continuous
 62
     7
100
AcDbLine
 10
-135.3999994575464
 20
171.249998961067
 30
0.0
 11
-134.999999412203
 21
171.4809415103832
 31
0.0
  0
LINE
  5
26F
330
6A
100
AcDbEntity
  8
0
  6
Continuous
 62
     7
100
AcDbLine
 10
-137.2519491088964
 20
163.1216386471091
 30
0.0
 11
-136.2786790624321
 21
162.4713203931349
 31
0.0
  0
LINE
  5
270
330
6A
100
AcDbEntity
  8
0
  6
Continuous
 62
     7
100
AcDbLine
 10
-136.2786790624321
 20
162.4713203931349
 30
0.0
 11
-135.6283608084578
 21
161.4980503466705
 31
0.0
  0
LINE
  5
271
330
6A
100
AcDbEntity
  8
0
  6
Continuous
 62
     7
100
AcDbLine
 10
-135.6283608084578
 20
161.4980503466705
 30
0.0
 11
-135.3999994059917
 21
160.3500000685081
 31
0.0
  0
LINE
  5
272
330
6A
100
AcDbEntity
  8
0
  6
Continuous
 62
     7
100
AcDbLine
 10
-90.99999943754655
 20
175.750000049576
 30
0.0
 11
-90.9999994375465
 21
173.9809415650354
 31
0.0
  0
LINE
  5
273
330
6A
100
AcDbEntity
  8
0
  6
Continuous
 62
     7
100
AcDbLine
 10
-134.999999412203
 20
173.9809415103827
 30
0.0
 11
-134.9999994449514
 21
175.7500000495743
 31
0.0
  0
LINE
  5
274
330
6A
100
AcDbEntity
  8
0
  6
Continuous
 62
     7
100
AcDbLine
 10
-132.3499994321827
 20
135.7500000495743
 30
0.0
 11
-132.3499994321827
 21
133.5500000495753
 31
0.0
  0
LINE
  5
275
330
6A
100
AcDbEntity
  8
0
  6
Continuous
 62
     7
100
AcDbLine
 10
-129.7499994321827
 20
133.5500000495754
 30
0.0
 11
-132.3499994321827
 21
133.5500000495753
 31
0.0
  0
LINE
  5
276
330
6A
100
AcDbEntity
  8
0
  6
Continuous
 62
     7
100
AcDbLine
 10
-129.7499994321827
 20
135.7500000495744
 30
0.0
 11
-129.7499994321827
 21
133.5500000495754
 31
0.0
  0
LINE
  5
277
330
6A
100
AcDbEntity
  8
0
  6
Continuous
 62
     7
100
AcDbLine
 10
-112.3979905434758
 20
135.7500000495743
 30
0.0
 11
-113.6095332753559
 21
135.7500000495743
 31
0.0
  0
LINE
  5
278
330
6A
100
AcDbEntity
  8
0
  6
Continuous
 62
     7
100
AcDbLine
 10
-108.8037619094159
 20
135.7500000495743
 30
0.0
 11
-112.3979905434758
 21
135.7500000495743
 31
0.0
  0
LINE
  5
279
330
6A
100
AcDbEntity
  8
0
  6
Continuous
 62
     7
100
AcDbLine
 10
-113.6095332753559
 20
135.7500000495743
 30
0.0
 11
-117.2037619094159
 21
135.7500000495743
 31
0.0
  0
LINE
  5
27A
330
6A
100
AcDbEntity
  8
0
  6
Continuous
 62
     7
100
AcDbLine
 10
-129.7499994321827
 20
135.7500000495744
 30
0.0
 11
-132.3499994321827
 21
135.7500000495743
 31
0.0
  0
LINE
  5
27B
330
6A
100
AcDbEntity
  8
0
  6
Continuous
 62
     7
100
AcDbLine
 10
-117.2037619094159
 20
135.7500000495743
 30
0.0
 11
-117.4999994375461
 21
135.7500000495743
 31
0.0
  0
LINE
  5
27C
330
6A
100
AcDbEntity
  8
0
  6
Continuous
 62
     7
100
AcDbLine
 10
-132.3499994321827
 20
135.7500000495743
 30
0.0
 11
-132.6499994375451
 21
135.7500000495743
 31
0.0
  0
LINE
  5
27D
330
6A
100
AcDbEntity
  8
0
  6
Continuous
 62
     7
100
AcDbLine
 10
-117.4999994375461
 20
135.7500000495743
 30
0.0
 11
-123.4999994375461
 21
135.7500000495743
 31
0.0
  0
LINE
  5
27E
330
6A
100
AcDbEntity
  8
0
  6
Continuous
 62
     7
100
AcDbLine
 10
-93.34999943754525
 20
135.7500000495743
 30
0.0
 11
-93.34999943754589
 21
165.3500000495743
 31
0.0
  0
LINE
  5
27F
330
6A
100
AcDbEntity
  8
0
  6
Continuous
 62
     7
100
AcDbLine
 10
-90.59999943754579
 20
160.3500002271852
 30
0.0
 11
-90.59999943754579
 21
165.1500000495763
 31
0.0
  0
LINE
  5
280
330
6A
100
AcDbEntity
  8
0
  6
Continuous
 62
     7
100
AcDbLine
 10
-135.3999994375465
 20
165.3500000495743
 30
0.0
 11
-135.3999994362843
 21
165.1500000495753
 31
0.0
  0
LINE
  5
281
330
6A
100
AcDbEntity
  8
0
  6
Continuous
 62
     7
100
AcDbLine
 10
-135.3999994362843
 20
165.1500000495753
 30
0.0
 11
-135.3999994059917
 21
160.3500000685081
 31
0.0
  0
LINE
  5
282
330
6A
100
AcDbEntity
  8
0
  6
Continuous
 62
     7
100
AcDbLine
 10
-135.3999992507417
 20
135.7500000495744
 30
0.0
 11
-132.6499994375451
 21
135.7500000495743
 31
0.0
  0
LINE
  5
283
330
6A
100
AcDbEntity
  8
0
  6
Continuous
 62
     7
100
AcDbLine
 10
-132.6499994375457
 20
165.3500000495744
 30
0.0
 11
-132.6499994375451
 21
135.7500000495743
 31
0.0
  0
LINE
  5
284
330
6A
100
AcDbEntity
  8
0
  6
Continuous
 62
     7
100
AcDbLine
 10
-90.59999943754579
 20
168.7499988571423
 30
0.0
 11
-90.59999943754579
 21
165.3500000495743
 31
0.0
  0
LINE
  5
285
330
6A
100
AcDbEntity
  8
0
  6
Continuous
 62
     7
100
AcDbLine
 10
-93.34999943754589
 20
165.3500000495743
 30
0.0
 11
-90.59999943754579
 21
165.3500000495743
 31
0.0
  0
LINE
  5
286
330
6A
100
AcDbEntity
  8
0
  6
Continuous
 62
     7
100
AcDbLine
 10
-135.3999994375465
 20
165.3500000495743
 30
0.0
 11
-132.6499994375457
 21
165.3500000495744
 31
0.0
  0
LINE
  5
287
330
6A
100
AcDbEntity
  8
0
  6
Continuous
 62
     7
100
AcDbLine
 10
-90.59999943754644
 20
170.7500000495753
 30
0.0
 11
-90.99999943754644
 21
170.7500000495752
 31
0.0
  0
LINE
  5
288
330
6A
100
AcDbEntity
  8
0
  6
Continuous
 62
     7
100
AcDbLine
 10
-90.99999943754644
 20
170.7500000495752
 30
0.0
 11
-90.99999943754639
 21
168.9809415650354
 31
0.0
  0
LINE
  5
289
330
6A
100
AcDbEntity
  8
0
  6
Continuous
 62
     7
100
AcDbLine
 10
-90.99999943754639
 20
168.9809415650354
 30
0.0
 11
-90.59999943754579
 21
168.7499988571423
 31
0.0
  0
LINE
  5
28A
330
6A
100
AcDbEntity
  8
0
  6
Continuous
 62
     7
100
AcDbLine
 10
-134.9999994122029
 20
168.9809415103832
 30
0.0
 11
-134.9999994449513
 21
170.7500000495743
 31
0.0
  0
LINE
  5
28B
330
6A
100
AcDbEntity
  8
0
  6
Continuous
 62
     7
100
AcDbLine
 10
-135.3999994590038
 20
168.7499989602256
 30
0.0
 11
-134.9999994122029
 21
168.9809415103832
 31
0.0
  0
LINE
  5
28C
330
6A
100
AcDbEntity
  8
0
  6
Continuous
 62
     7
100
AcDbLine
 10
-135.3999994375465
 20
165.3500000495743
 30
0.0
 11
-135.3999994590038
 21
168.7499989602256
 31
0.0
  0
LINE
  5
28D
330
6A
100
AcDbEntity
  8
0
  6
Continuous
 62
     7
100
AcDbLine
 10
-135.3999994059917
 20
160.3500000685081
 30
0.0
 11
-135.3999992507417
 21
135.7500000495744
 31
0.0
  0
LINE
  5
28E
330
6A
100
AcDbEntity
  8
0
  6
Continuous
 62
     7
100
AcDbLine
 10
-108.649999439306
 20
135.7500000495743
 30
0.0
 11
-108.8037619094159
 21
135.7500000495743
 31
0.0
  0
LINE
  5
28F
330
6A
100
AcDbEntity
  8
0
  6
Continuous
 62
     7
100
AcDbLine
 10
-123.4999994375461
 20
135.7500000495743
 30
0.0
 11
-129.7499994321827
 21
135.7500000495744
 31
0.0
  0
LINE
  5
290
330
6A
100
AcDbEntity
  8
0
  6
Continuous
 62
     7
100
AcDbLine
 10
-90.9999994375465
 20
173.9809415650354
 30
0.0
 11
-90.5999994375465
 21
173.7499988571426
 31
0.0
  0
LINE
  5
291
330
6A
100
AcDbEntity
  8
0
  6
Continuous
 62
     7
100
AcDbLine
 10
-135.3999994747126
 20
173.7499989511575
 30
0.0
 11
-134.999999412203
 21
173.9809415103827
 31
0.0
  0
LINE
  5
292
330
6A
100
AcDbEntity
  8
0
  6
Continuous
 62
     7
100
AcDbLine
 10
-90.5999994375465
 20
173.2500000495753
 30
0.0
 11
-90.9999994375465
 21
173.2500000495752
 31
0.0
  0
LINE
  5
293
330
6A
100
AcDbEntity
  8
0
  6
Continuous
 62
     7
100
AcDbLine
 10
-135.3999994375467
 20
173.2500000347079
 30
0.0
 11
-135.3999994747126
 21
173.7499989511575
 31
0.0
  0
LINE
  5
294
330
6A
100
AcDbEntity
  8
0
  6
Continuous
 62
     7
100
AcDbLine
 10
-134.9999994449514
 20
173.2500000644407
 30
0.0
 11
-135.3999994375467
 21
173.2500000347079
 31
0.0
  0
LINE
  5
295
330
6A
100
AcDbEntity
  8
0
  6
Continuous
 62
     7
100
AcDbLine
 10
-90.9999994375465
 20
173.2500000495752
 30
0.0
 11
-90.99999943754646
 21
171.4809415650354
 31
0.0
  0
LINE
  5
296
330
6A
100
AcDbEntity
  8
0
  6
Continuous
 62
     7
100
AcDbLine
 10
-134.999999412203
 20
171.4809415103832
 30
0.0
 11
-134.9999994449514
 21
173.2500000644407
 31
0.0
  0
LINE
  5
297
330
6A
100
AcDbEntity
  8
0
  6
Continuous
 62
     7
100
AcDbLine
 10
-139.1999994375466
 20
163.3500000495752
 30
0.0
 11
-138.3999994059917
 21
163.3500000495752
 31
0.0
  0
LINE
  5
298
330
6A
100
AcDbEntity
  8
0
  6
Continuous
 62
     7
100
AcDbLine
 10
-134.9999994449513
 20
170.7500000495743
 30
0.0
 11
-135.3999994575464
 21
170.7500000495743
 31
0.0
  0
LINE
  5
299
330
6A
100
AcDbEntity
  8
0
  6
Continuous
 62
     7
100
AcDbLine
 10
-90.59999943754644
 20
171.2499988571426
 30
0.0
 11
-90.59999943754644
 21
170.7500000495753
 31
0.0
  0
LINE
  5
29A
330
6A
100
AcDbEntity
  8
0
  6
Continuous
 62
     7
100
AcDbLine
 10
-135.3999994575464
 20
170.7500000495743
 30
0.0
 11
-135.3999994575464
 21
171.249998961067
 31
0.0
  0
LINE
  5
29B
330
6A
100
AcDbEntity
  8
0
  6
Continuous
 62
     7
100
AcDbLine
 10
-139.1999994375467
 20
165.1500000495752
 30
0.0
 11
-135.3999994362843
 21
165.1500000495753
 31
0.0
  0
LINE
  5
29C
330
6A
100
AcDbEntity
  8
0
  6
Continuous
 62
     7
100
AcDbLine
 10
-139.1999994375466
 20
163.3500000495752
 30
0.0
 11
-139.1999994375467
 21
165.1500000495752
 31
0.0
  0
LINE
  5
29D
330
6A
100
AcDbEntity
  8
0
  6
Continuous
 62
     7
100
AcDbLine
 10
-138.3999994059917
 20
163.3500000495752
 30
0.0
 11
-137.2519491088964
 21
163.1216386471091
 31
0.0
  0
LINE
  5
29E
330
6A
100
AcDbEntity
  8
0
  6
Continuous
 62
     7
100
AcDbLine
 10
-134.9999994449514
 20
175.7500000495743
 30
0.0
 11
-135.3999994375467
 21
175.7500000495743
 31
0.0
  0
LINE
  5
29F
330
6A
100
AcDbEntity
  8
0
  6
Continuous
 62
     7
100
AcDbLine
 10
-90.59999943754656
 20
175.7500000495745
 30
0.0
 11
-90.99999943754655
 21
175.750000049576
 31
0.0
  0
LINE
  5
2A0
330
6A
100
AcDbEntity
  8
0
  6
Continuous
 62
     7
100
AcDbLine
 10
-135.3999994375467
 20
175.7500000495743
 30
0.0
 11
-135.3999994375468
 21
177.791641383241
 31
0.0
  0
LINE
  5
2A1
330
6A
100
AcDbEntity
  8
0
  6
Continuous
 62
     7
100
AcDbLine
 10
-111.2500024656031
 20
132.7500000495743
 30
0.0
 11
-111.2500024656031
 21
123.7500000495757
 31
0.0
  0
LINE
  5
2A2
330
6A
100
AcDbEntity
  8
0
  6
Continuous
 62
     7
100
AcDbLine
 10
-111.2500024656031
 20
123.7500000495757
 30
0.0
 11
-112.9179810045877
 21
123.7500000495757
 31
0.0
  0
LINE
  5
2A3
330
6A
100
AcDbEntity
  8
0
  6
Continuous
 62
     7
100
AcDbLine
 10
-108.6499994393058
 20
127.0500000495758
 30
0.0
 11
-108.649999439306
 21
135.7500000495743
 31
0.0
  0
LINE
  5
2A4
330
6A
100
AcDbEntity
  8
0
  6
Continuous
 62
     2
100
AcDbLine
 10
-112.9179810045876
 20
132.7500000495743
 30
0.0
 11
-112.9179810045877
 21
123.7500000495757
 31
0.0
  0
LINE
  5
2A5
330
6A
100
AcDbEntity
  8
0
  6
Continuous
 62
     7
100
AcDbLine
 10
-102.649999439306
 20
135.7500000495743
 30
0.0
 11
-102.6499994393058
 21
127.0500000495759
 31
0.0
  0
LINE
  5
2A6
330
6A
100
AcDbEntity
  8
0
  6
Continuous
 62
     7
100
AcDbLine
 10
-102.6499994393058
 20
127.0500000495759
 30
0.0
 11
-108.6499994393058
 21
127.0500000495758
 31
0.0
  0
LINE
  5
2A7
330
6A
100
AcDbEntity
  8
0
  6
Continuous
 62
     7
100
AcDbLine
 10
-116.3028436443848
 20
123.7500000495756
 30
0.0
 11
-112.9179810045877
 21
123.7500000495757
 31
0.0
  0
LINE
  5
2A8
330
6A
100
AcDbEntity
  8
0
  6
Continuous
 62
     7
100
AcDbLine
 10
-108.8037619094159
 20
132.7500000495743
 30
0.0
 11
-111.2500024656031
 21
132.7500000495743
 31
0.0
  0
LINE
  5
2A9
330
6A
100
AcDbEntity
  8
0
  6
Continuous
 62
     7
100
AcDbLine
 10
-111.2500024656031
 20
132.7500000495743
 30
0.0
 11
-112.3979905434758
 21
132.7500000495743
 31
0.0
  0
LINE
  5
2AA
330
6A
100
AcDbEntity
  8
0
  6
Continuous
 62
     7
100
AcDbLine
 10
-108.8037619094159
 20
135.7500000495743
 30
0.0
 11
-108.8037619094159
 21
132.7500000495743
 31
0.0
  0
LINE
  5
2AB
330
6A
100
AcDbEntity
  8
0
  6
Continuous
 62
     7
100
AcDbLine
 10
-112.3979905434758
 20
132.7500000495743
 30
0.0
 11
-112.9179810045876
 21
132.7500000495743
 31
0.0
  0
LINE
  5
2AC
330
6A
100
AcDbEntity
  8
0
  6
Continuous
 62
     7
100
AcDbLine
 10
-112.9179810045876
 20
132.7500000495743
 30
0.0
 11
-113.6095332753559
 21
132.7500000495743
 31
0.0
  0
LINE
  5
2AD
330
6A
100
AcDbEntity
  8
0
  6
Continuous
 62
     7
100
AcDbLine
 10
-116.3028436443848
 20
132.7500000495743
 30
0.0
 11
-117.2037619094159
 21
132.7500000495743
 31
0.0
  0
LINE
  5
2AE
330
6A
100
AcDbEntity
  8
0
  6
Continuous
 62
     7
100
AcDbLine
 10
-113.6095332753559
 20
135.7500000495743
 30
0.0
 11
-113.6095332753559
 21
132.7500000495743
 31
0.0
  0
LINE
  5
2AF
330
6A
100
AcDbEntity
  8
0
  6
Continuous
 62
     7
100
AcDbLine
 10
-86.79999943755354
 20
163.3500000495763
 30
0.0
 11
-86.79999943755358
 21
165.1500000495763
 31
0.0
  0
LINE
  5
2B0
330
6A
100
AcDbEntity
  8
0
  6
Continuous
 62
     7
100
AcDbLine
 10
-86.79999943755354
 20
163.3500000495763
 30
0.0
 11
-87.59999946910848
 21
163.3500000495763
 31
0.0
  0
LINE
  5
2B1
330
6A
100
AcDbEntity
  8
0
  6
Continuous
 62
     7
100
AcDbLine
 10
-90.59999943754579
 20
165.1500000495763
 30
0.0
 11
-90.59999943754579
 21
165.3500000495743
 31
0.0
  0
LINE
  5
2B2
330
6A
100
AcDbEntity
  8
0
  6
Continuous
 62
     7
100
AcDbLine
 10
-93.34999943754525
 20
135.7500000495743
 30
0.0
 11
-90.59999943754579
 21
135.7500000495743
 31
0.0
  0
LINE
  5
2B3
330
6A
100
AcDbEntity
  8
0
  6
Continuous
 62
     7
100
AcDbLine
 10
-90.5999994375465
 20
173.7499988571426
 30
0.0
 11
-90.5999994375465
 21
173.2500000495753
 31
0.0
  0
LINE
  5
2B4
330
6A
100
AcDbEntity
  8
0
  6
Continuous
 62
     7
100
AcDbLine
 10
-90.59999943753905
 20
177.7916413832404
 30
0.0
 11
-90.59999943754656
 21
175.7500000495745
 31
0.0
  0
LINE
  5
2B5
330
6A
100
AcDbEntity
  8
0
  6
Continuous
 62
     7
100
AcDbLine
 10
-90.59999943754579
 20
135.7500000495743
 30
0.0
 11
-90.59999943754579
 21
160.3500002271852
 31
0.0
  0
LINE
  5
2B6
330
6A
100
AcDbEntity
  8
0
  6
Continuous
 62
     7
100
AcDbLine
 10
-90.3716380666423
 20
161.4980503466715
 30
0.0
 11
-90.59999943754579
 21
160.3500002271852
 31
0.0
  0
LINE
  5
2B7
330
6A
100
AcDbEntity
  8
0
  6
Continuous
 62
     7
100
AcDbLine
 10
-89.72131981266811
 20
162.4713203931359
 30
0.0
 11
-90.3716380666423
 21
161.4980503466715
 31
0.0
  0
LINE
  5
2B8
330
6A
100
AcDbEntity
  8
0
  6
Continuous
 62
     7
100
AcDbLine
 10
-88.74804976620375
 20
163.1216386471101
 30
0.0
 11
-89.72131981266811
 21
162.4713203931359
 31
0.0
  0
LINE
  5
2B9
330
6A
100
AcDbEntity
  8
0
  6
Continuous
 62
     7
100
AcDbLine
 10
-87.59999946910848
 20
163.3500000495763
 30
0.0
 11
-88.74804976620375
 21
163.1216386471101
 31
0.0
  0
LINE
  5
2BA
330
6A
100
AcDbEntity
  8
0
  6
Continuous
 62
     7
100
AcDbLine
 10
-86.79999943755358
 20
165.1500000495763
 30
0.0
 11
-90.59999943754579
 21
165.1500000495763
 31
0.0
  0
LINE
  5
2BB
330
6A
100
AcDbEntity
  8
0
  6
Continuous
 62
     7
100
AcDbLine
 10
-117.2037619094159
 20
135.7500000495743
 30
0.0
 11
-117.2037619094159
 21
132.7500000495743
 31
0.0
  0
LINE
  5
2BC
330
6A
100
AcDbEntity
  8
0
  6
Continuous
 62
     7
100
AcDbLine
 10
-113.6095332753559
 20
132.7500000495743
 30
0.0
 11
-116.3028436443848
 21
132.7500000495743
 31
0.0
  0
LINE
  5
2BD
330
6A
100
AcDbEntity
  8
0
  6
Continuous
 62
     7
100
AcDbLine
 10
-112.3979905434758
 20
135.7500000495743
 30
0.0
 11
-112.3979905434758
 21
132.7500000495743
 31
0.0
  0
LINE
  5
2BE
330
6A
100
AcDbEntity
  8
0
  6
Continuous
 62
     7
100
AcDbLine
 10
-102.649999439306
 20
135.7500000495743
 30
0.0
 11
-108.649999439306
 21
135.7500000495743
 31
0.0
  0
LINE
  5
2BF
330
6A
100
AcDbEntity
  8
0
  6
Continuous
 62
     7
100
AcDbLine
 10
-116.3028436443848
 20
123.7500000495756
 30
0.0
 11
-116.3028436443848
 21
132.7500000495743
 31
0.0
  0
LINE
  5
2C0
330
6A
100
AcDbEntity
  8
0
  6
Continuous
 62
     7
100
AcDbLine
 10
-93.34999943754525
 20
135.7500000495743
 30
0.0
 11
-102.649999439306
 21
135.7500000495743
 31
0.0
  0
LINE
  5
2C1
330
6A
100
AcDbEntity
  8
0
  6
Continuous
 62
     7
100
AcDbLine
 10
-98.06666610421323
 20
178.4917097182276
 30
0.0
 11
-90.59999943753905
 21
177.7916413832404
 31
0.0
  0
LINE
  5
2C2
330
6A
100
AcDbEntity
  8
1
  6
DOT_CENTER
 62
     2
100
AcDbLine
 10
-131.0499994321827
 20
135.7500000495744
 30
0.0
 11
-131.0499994321827
 21
133.5500000495753
 31
0.0
  0
ENDBLK
  5
6C
330
6A
100
AcDbEntity
  8
0
100
AcDbBlockEnd
  0
BLOCK
  5
6F
330
6D
100
AcDbEntity
  8
0
100
AcDbBlockBegin
  2
Vordans2
 70
     0
 10
-113.0
 20
157.4
 30
0.0
  3
Vordans2
  1

  0
INSERT
  5
6E
330
6D
100
AcDbEntity
  8
0
100
AcDbBlockReference
  2
VAL_MS_500_ST-select__6
 10
-139.1999994375467
 20
123.7500000495756
 30
0.0
  0
MTEXT
  5
2C3
330
6D
100
AcDbEntity
  8
1
 62
     6
100
AcDbMText
 10
-112.99999999995
 20
118.7500002384189
 30
0.0
 40
5.0
 41
0.0
 71
     2
 72
     1
  1
 
  7
CONVERTER_11
 73
     1
 44
1.32052821128451
  0
DIMENSION
  5
2CE
330
6D
100
AcDbEntity
  8
1
100
AcDbDimension
  2
*D18
 10
-135.3999992507417
 20
113.965313626899
 30
0.0
 11
-112.99999999995
 21
117.390313626899
 31
0.0
 70
    32
  1
<>
 71
     5
 42
-1.0
 53
0.00013888888889
  3
ME10_DIM_11
100
AcDbAlignedDimension
 13
-90.59999943754579
 23
160.3500002271852
 33
0.0
 14
-135.3999992507417
 24
135.7500000495744
 34
0.0
100
AcDbRotatedDimension
  0
DIMENSION
  5
2D9
330
6D
100
AcDbEntity
  8
1
100
AcDbDimension
  2
*D19
 10
-145.3999992507417
 20
135.7500000495744
 30
0.0
 11
-148.8249992507417
 21
160.3500000685082
 31
0.0
 70
    32
  1
<>
 71
     5
 42
-1.0
 53
90.0
  3
ME10_DIM_12
100
AcDbAlignedDimension
 13
-112.9999994375505
 23
179.0500000495739
 33
0.0
 14
-135.3999992507417
 24
135.7500000495744
 34
0.0
 50
90.0
100
AcDbRotatedDimension
  0
DIMENSION
  5
2E4
330
6D
100
AcDbEntity
  8
1
100
AcDbDimension
  2
*D20
 10
-153.875953172362
 20
179.0500000495739
 30
0.0
 11
-157.300953172362
 21
154.210015366667
 31
0.0
 70
    32
  1
<>
 71
     5
 42
-1.0
 53
90.0
  3
ME10_DIM_13
100
AcDbAlignedDimension
 13
-112.9179810045877
 23
123.7500000495757
 33
0.0
 14
-112.9999994375505
 24
179.0500000495739
 34
0.0
 50
90.0
100
AcDbRotatedDimension
  0
ENDBLK
  5
70
330
6D
100
AcDbEntity
  8
0
100
AcDbBlockEnd
  0
BLOCK
  5
72
330
71
100
AcDbEntity
  8
0
100
AcDbBlockBegin
  2
_rahmen
 70
     0
 10
54.69999971876364
 20
9.65000002477683
 30
0.0
  3
_rahmen
  1

  0
LINE
  5
2E5
330
71
100
AcDbEntity
  8
1
  6
DOT_CENTER
 62
     2
100
AcDbLine
 10
-70.85814992142377
 20
35.77500002477686
 30
0.0
 11
-65.35814992142377
 21
35.77500002477686
 31
0.0
  0
LINE
  5
2E6
330
71
100
AcDbEntity
  8
1
  6
PHANTOM
 62
     2
100
AcDbLine
 10
-62.10814992142377
 20
38.52500002477686
 30
0.0
 11
-62.10814992142377
 21
33.02500002477686
 31
0.0
  0
LINE
  5
2E7
330
71
100
AcDbEntity
  8
1
  6
PHANTOM
 62
     2
100
AcDbLine
 10
-59.35814992142377
 20
35.77500002477686
 30
0.0
 11
-64.85814992142377
 21
35.77500002477686
 31
0.0
  0
LINE
  5
2E8
330
71
100
AcDbEntity
  8
1
  6
Continuous
 62
     7
100
AcDbLine
 10
-10.54480480798637
 20
23.15000002477686
 30
0.0
 11
-10.54480480798637
 21
31.65000002477694
 31
0.0
  0
LINE
  5
2E9
330
71
100
AcDbEntity
  8
1
  6
Continuous
 62
     6
100
AcDbLine
 10
-38.44480480798646
 20
31.65000002477694
 30
0.0
 11
54.69999971876533
 21
31.65000002477694
 31
0.0
  0
LINE
  5
2EA
330
71
100
AcDbEntity
  8
1
  6
Continuous
 62
     7
100
AcDbLine
 10
-74.84480480798638
 20
31.65000002477694
 30
0.0
 11
-74.84480480798638
 21
40.15000002477694
 31
0.0
  0
LINE
  5
2EB
330
71
100
AcDbEntity
  8
1
  6
Continuous
 62
     7
100
AcDbLine
 10
-38.44480480798646
 20
31.65000002477694
 30
0.0
 11
-38.44480480798646
 21
40.15000002477694
 31
0.0
  0
LINE
  5
2EC
330
71
100
AcDbEntity
  8
1
  6
Continuous
 62
     7
100
AcDbLine
 10
19.28159143708652
 20
40.15000002477694
 30
0.0
 11
19.28159143708652
 21
31.65000002477694
 31
0.0
  0
LINE
  5
2ED
330
71
100
AcDbEntity
  8
1
  6
Continuous
 62
     7
100
AcDbLine
 10
45.78159143708612
 20
40.15000002477694
 30
0.0
 11
45.78159143708612
 21
31.65000002477694
 31
0.0
  0
LINE
  5
2EE
330
71
100
AcDbEntity
  8
1
  6
Continuous
 62
     6
100
AcDbLine
 10
-143.8448048079864
 20
14.65000002477694
 30
0.0
 11
-188.8000002812364
 21
14.65000002477694
 31
0.0
  0
LINE
  5
2EF
330
71
100
AcDbEntity
  8
1
  6
Continuous
 62
     7
100
AcDbLine
 10
54.69999971876493
 20
23.15000002477694
 30
0.0
 11
-38.44480480798646
 21
23.15000002477694
 31
0.0
  0
LINE
  5
2F0
102
{ACAD_REACTORS
330
402
330
403
102
}
330
71
100
AcDbEntity
  8
0
  6
Continuous
 62
     2
100
AcDbLine
 10
-61.13737586621897
 20
23.95028914044025
 30
0.0
 11
-61.13737586621897
 21
24.82280614724354
 31
0.0
  0
LINE
  5
2F1
102
{ACAD_REACTORS
330
402
330
403
102
}
330
71
100
AcDbEntity
  8
0
  6
Continuous
 62
     2
100
AcDbLine
 10
-61.13737586621897
 20
22.99052043295734
 30
0.0
 11
-61.13737586621897
 21
22.11800342615413
 31
0.0
  0
LINE
  5
2F2
102
{ACAD_REACTORS
330
404
330
405
102
}
330
71
100
AcDbEntity
  8
0
  6
Continuous
 62
     2
100
AcDbLine
 10
-45.80433172992846
 20
24.21204424248074
 30
0.0
 11
-44.70069243036036
 21
24.21204424248074
 31
0.0
  0
LINE
  5
2F3
102
{ACAD_REACTORS
330
404
330
405
102
}
330
71
100
AcDbEntity
  8
0
  6
Continuous
 62
     2
100
AcDbLine
 10
-45.03467438696706
 20
22.99052043295686
 30
0.0
 11
-45.03467438696706
 21
22.11800342615354
 31
0.0
  0
LINE
  5
2F4
102
{ACAD_REACTORS
330
40E
330
40F
102
}
330
71
100
AcDbEntity
  8
0
  6
Continuous
 62
     2
100
AcDbLine
 10
-46.89543100234698
 20
25.30269050096754
 30
0.0
 11
-45.49747795540668
 21
26.88354949474254
 31
0.0
  0
LINE
  5
2F5
102
{ACAD_REACTORS
330
40E
330
40F
102
}
330
71
100
AcDbEntity
  8
0
  6
Continuous
 62
     2
100
AcDbLine
 10
-46.80000758617416
 20
28.35650002477874
 30
0.0
 11
-45.49747795540668
 21
26.88354949474254
 31
0.0
  0
LINE
  5
2F6
102
{ACAD_REACTORS
330
40E
330
40F
102
}
330
71
100
AcDbEntity
  8
0
  6
Continuous
 62
     2
100
AcDbLine
 10
-44.19494832464028
 20
28.35650002477874
 30
0.0
 11
-42.79222410689306
 21
28.35650002477874
 31
0.0
  0
LINE
  5
2F7
102
{ACAD_REACTORS
330
40E
330
40F
102
}
330
71
100
AcDbEntity
  8
0
  6
Continuous
 62
     2
100
AcDbLine
 10
-45.49270678459877
 20
25.30269050096754
 30
0.0
 11
-44.79611584653307
 21
26.09042228626126
 31
0.0
  0
LINE
  5
2F8
102
{ACAD_REACTORS
330
40E
330
40F
102
}
330
71
100
AcDbEntity
  8
0
  6
Continuous
 62
     2
100
AcDbLine
 10
-45.49270678459877
 20
25.30269050096754
 30
0.0
 11
-46.89543100234698
 21
25.30269050096754
 31
0.0
  0
LINE
  5
2F9
102
{ACAD_REACTORS
330
410
330
411
102
}
330
71
100
AcDbEntity
  8
0
  6
Continuous
 62
     2
100
AcDbLine
 10
-47.01471027256386
 20
25.30269050096754
 30
0.0
 11
-48.25521468281676
 21
25.30269050096754
 31
0.0
  0
LINE
  5
2FA
102
{ACAD_REACTORS
330
412
330
413
102
}
330
71
100
AcDbEntity
  8
0
  6
Continuous
 62
     2
100
AcDbLine
 10
-49.12319429097187
 20
23.16502383431774
 30
0.0
 11
-49.42335952816197
 21
23.93283880030444
 31
0.0
  0
LINE
  5
2FB
102
{ACAD_REACTORS
330
412
330
413
102
}
330
71
100
AcDbEntity
  8
0
  6
Continuous
 62
     2
100
AcDbLine
 10
-49.72352476535437
 20
23.16502383431774
 30
0.0
 11
-49.12319429097187
 21
23.16502383431774
 31
0.0
  0
LINE
  5
2FC
102
{ACAD_REACTORS
330
412
330
413
102
}
330
71
100
AcDbEntity
  8
0
  6
Continuous
 62
     2
100
AcDbLine
 10
-51.44156478022816
 20
21.94350002479325
 30
0.0
 11
-50.20106036997518
 21
21.94350002479325
 31
0.0
  0
LINE
  5
2FD
102
{ACAD_REACTORS
330
412
330
413
102
}
330
71
100
AcDbEntity
  8
0
  6
Continuous
 62
     2
100
AcDbLine
 10
-50.04361173328886
 20
24.99730954860434
 30
0.0
 11
-48.80310732303616
 21
24.99730954860434
 31
0.0
  0
LINE
  5
2FE
102
{ACAD_REACTORS
330
412
330
413
102
}
330
71
100
AcDbEntity
  8
0
  6
Continuous
 62
     2
100
AcDbLine
 10
-48.80310732303616
 20
24.99730954860434
 30
0.0
 11
-47.40515427609586
 21
21.94350002479325
 31
0.0
  0
LINE
  5
2FF
102
{ACAD_REACTORS
330
412
330
413
102
}
330
71
100
AcDbEntity
  8
0
  6
Continuous
 62
     2
100
AcDbLine
 10
-48.64565868634978
 20
21.94350002479325
 30
0.0
 11
-48.85713873982556
 21
22.48446056901113
 31
0.0
  0
LINE
  5
300
102
{ACAD_REACTORS
330
414
330
415
102
}
330
71
100
AcDbEntity
  8
0
  6
Continuous
 62
     2
100
AcDbLine
 10
-52.78797788193577
 20
21.94350002479325
 30
0.0
 11
-51.59518517976926
 21
21.94350002479325
 31
0.0
  0
LINE
  5
301
102
{ACAD_REACTORS
330
414
330
415
102
}
330
71
100
AcDbEntity
  8
0
  6
Continuous
 62
     2
100
AcDbLine
 10
-52.78797788193577
 20
24.21204424248074
 30
0.0
 11
-52.78797788193577
 21
21.94350002479325
 31
0.0
  0
LINE
  5
302
102
{ACAD_REACTORS
330
414
330
415
102
}
330
71
100
AcDbEntity
  8
0
  6
Continuous
 62
     2
100
AcDbLine
 10
-53.59907691941038
 20
24.99730954860434
 30
0.0
 11
-53.59907691941038
 21
24.21204424248074
 31
0.0
  0
LINE
  5
303
102
{ACAD_REACTORS
330
416
330
417
102
}
330
71
100
AcDbEntity
  8
0
  6
Continuous
 62
     2
100
AcDbLine
 10
-52.11986303783777
 20
25.30269050096754
 30
0.0
 11
-50.92707033567126
 21
25.30269050096754
 31
0.0
  0
LINE
  5
304
102
{ACAD_REACTORS
330
416
330
417
102
}
330
71
100
AcDbEntity
  8
0
  6
Continuous
 62
     2
100
AcDbLine
 10
-49.68656592541726
 20
27.04772451457356
 30
0.0
 11
-50.92707033567126
 21
28.35650002477874
 31
0.0
  0
LINE
  5
305
102
{ACAD_REACTORS
330
416
330
417
102
}
330
71
100
AcDbEntity
  8
0
  6
Continuous
 62
     2
100
AcDbLine
 10
-48.49377322325066
 20
28.35650002477874
 30
0.0
 11
-49.68656592541726
 21
28.35650002477874
 31
0.0
  0
LINE
  5
306
102
{ACAD_REACTORS
330
416
330
417
102
}
330
71
100
AcDbEntity
  8
0
  6
Continuous
 62
     2
100
AcDbLine
 10
-48.49377322325066
 20
25.30269050096754
 30
0.0
 11
-48.49377322325066
 21
28.35650002477874
 31
0.0
  0
LINE
  5
307
102
{ACAD_REACTORS
330
416
330
417
102
}
330
71
100
AcDbEntity
  8
0
  6
Continuous
 62
     2
100
AcDbLine
 10
-49.68656592541726
 20
25.30269050096754
 30
0.0
 11
-48.49377322325066
 21
25.30269050096754
 31
0.0
  0
LINE
  5
308
102
{ACAD_REACTORS
330
416
330
417
102
}
330
71
100
AcDbEntity
  8
0
  6
Continuous
 62
     2
100
AcDbLine
 10
-50.92707033567126
 20
26.61146601117224
 30
0.0
 11
-49.68656592541726
 21
25.30269050096754
 31
0.0
  0
LINE
  5
309
102
{ACAD_REACTORS
330
418
330
419
102
}
330
71
100
AcDbEntity
  8
0
  6
Continuous
 62
     2
100
AcDbLine
 10
-54.93500474583698
 20
23.68853403839924
 30
0.0
 11
-56.17550915608987
 21
24.99730954860434
 31
0.0
  0
LINE
  5
30A
102
{ACAD_REACTORS
330
418
330
419
102
}
330
71
100
AcDbEntity
  8
0
  6
Continuous
 62
     2
100
AcDbLine
 10
-54.93500474583698
 20
24.99730954860434
 30
0.0
 11
-54.93500474583698
 21
23.68853403839924
 31
0.0
  0
LINE
  5
30B
102
{ACAD_REACTORS
330
418
330
419
102
}
330
71
100
AcDbEntity
  8
0
  6
Continuous
 62
     2
100
AcDbLine
 10
-53.74221204367058
 20
24.99730954860434
 30
0.0
 11
-54.93500474583698
 21
24.99730954860434
 31
0.0
  0
LINE
  5
30C
102
{ACAD_REACTORS
330
418
330
419
102
}
330
71
100
AcDbEntity
  8
0
  6
Continuous
 62
     2
100
AcDbLine
 10
-53.74221204367058
 20
21.94350002479325
 30
0.0
 11
-53.74221204367058
 21
24.99730954860434
 31
0.0
  0
LINE
  5
30D
102
{ACAD_REACTORS
330
418
330
419
102
}
330
71
100
AcDbEntity
  8
0
  6
Continuous
 62
     2
100
AcDbLine
 10
-56.17550915608987
 20
23.25227553499784
 30
0.0
 11
-54.93500474583698
 21
21.94350002479325
 31
0.0
  0
LINE
  5
30E
102
{ACAD_REACTORS
330
418
330
419
102
}
330
71
100
AcDbEntity
  8
0
  6
Continuous
 62
     2
100
AcDbLine
 10
-56.17550915608987
 20
21.94350002479325
 30
0.0
 11
-56.17550915608987
 21
23.25227553499784
 31
0.0
  0
LINE
  5
30F
102
{ACAD_REACTORS
330
408
330
409
102
}
330
71
100
AcDbEntity
  8
0
  6
Continuous
 62
     2
100
AcDbLine
 10
-53.69434940469836
 20
27.65848641933576
 30
0.0
 11
-52.35842157827068
 21
27.65848641933576
 31
0.0
  0
LINE
  5
310
102
{ACAD_REACTORS
330
408
330
409
102
}
330
71
100
AcDbEntity
  8
0
  6
Continuous
 62
     2
100
AcDbLine
 10
-53.69434940469836
 20
26.00070410641004
 30
0.0
 11
-53.69434940469836
 21
26.48058846015175
 31
0.0
  0
LINE
  5
311
102
{ACAD_REACTORS
330
408
330
409
102
}
330
71
100
AcDbEntity
  8
0
  6
Continuous
 62
     2
100
AcDbLine
 10
-52.35842157827068
 20
26.00070410641004
 30
0.0
 11
-53.69434940469836
 21
26.00070410641004
 31
0.0
  0
LINE
  5
312
102
{ACAD_REACTORS
330
408
330
409
102
}
330
71
100
AcDbEntity
  8
0
  6
Continuous
 62
     2
100
AcDbLine
 10
-52.35842157827068
 20
25.30269050096754
 30
0.0
 11
-52.35842157827068
 21
26.00070410641004
 31
0.0
  0
LINE
  5
313
102
{ACAD_REACTORS
330
408
330
409
102
}
330
71
100
AcDbEntity
  8
0
  6
Continuous
 62
     2
100
AcDbLine
 10
-55.50874130205168
 20
25.30269050096754
 30
0.0
 11
-52.35842157827068
 21
25.30269050096754
 31
0.0
  0
LINE
  5
314
102
{ACAD_REACTORS
330
408
330
409
102
}
330
71
100
AcDbEntity
  8
0
  6
Continuous
 62
     2
100
AcDbLine
 10
-55.50874130205168
 20
28.35650002477874
 30
0.0
 11
-52.35842157827068
 21
28.35650002477874
 31
0.0
  0
LINE
  5
315
102
{ACAD_REACTORS
330
408
330
409
102
}
330
71
100
AcDbEntity
  8
0
  6
Continuous
 62
     2
100
AcDbLine
 10
-52.35842157827068
 20
27.65848641933576
 30
0.0
 11
-52.35842157827068
 21
28.35650002477874
 31
0.0
  0
LINE
  5
316
102
{ACAD_REACTORS
330
41A
330
41B
102
}
330
71
100
AcDbEntity
  8
0
  6
Continuous
 62
     2
100
AcDbLine
 10
-58.37009679719168
 20
27.28766669144414
 30
0.0
 11
-58.37009679719168
 21
28.35650002477874
 31
0.0
  0
LINE
  5
317
102
{ACAD_REACTORS
330
41A
330
41B
102
}
330
71
100
AcDbEntity
  8
0
  6
Continuous
 62
     2
100
AcDbLine
 10
-58.37009679719168
 20
28.35650002477874
 30
0.0
 11
-57.17730409502528
 21
28.35650002477874
 31
0.0
  0
LINE
  5
318
102
{ACAD_REACTORS
330
41A
330
41B
102
}
330
71
100
AcDbEntity
  8
0
  6
Continuous
 62
     2
100
AcDbLine
 10
-58.37009679719168
 20
26.43696260981136
 30
0.0
 11
-59.41975437509916
 21
26.43696260981136
 31
0.0
  0
LINE
  5
319
102
{ACAD_REACTORS
330
41A
330
41B
102
}
330
71
100
AcDbEntity
  8
0
  6
Continuous
 62
     2
100
AcDbLine
 10
-59.41975437509916
 20
26.43696260981136
 30
0.0
 11
-59.41975437509916
 21
25.30269050096754
 31
0.0
  0
LINE
  5
31A
102
{ACAD_REACTORS
330
41A
330
41B
102
}
330
71
100
AcDbEntity
  8
0
  6
Continuous
 62
     2
100
AcDbLine
 10
-60.61254707726576
 20
28.35650002477874
 30
0.0
 11
-60.61254707726576
 21
25.30269050096754
 31
0.0
  0
LINE
  5
31B
102
{ACAD_REACTORS
330
40C
330
40D
102
}
330
71
100
AcDbEntity
  8
0
  6
Continuous
 62
     2
100
AcDbLine
 10
-62.56872710881936
 20
26.98766652999643
 30
0.0
 11
-62.56872710881936
 21
27.69339417933864
 31
0.0
  0
LINE
  5
31C
102
{ACAD_REACTORS
330
40C
330
40D
102
}
330
71
100
AcDbEntity
  8
0
  6
Continuous
 62
     2
100
AcDbLine
 10
-63.80923151907348
 20
25.30269050096754
 30
0.0
 11
-62.56872710881936
 21
25.30269050096754
 31
0.0
  0
LINE
  5
31D
102
{ACAD_REACTORS
330
40C
330
40D
102
}
330
71
100
AcDbEntity
  8
0
  6
Continuous
 62
     2
100
AcDbLine
 10
-62.56872710881936
 20
25.30269050096754
 30
0.0
 11
-62.56872710881936
 21
26.24576874211135
 31
0.0
  0
LINE
  5
31E
102
{ACAD_REACTORS
330
406
330
407
102
}
330
71
100
AcDbEntity
  8
0
  6
Continuous
 62
     2
100
AcDbLine
 10
-68.11417736828486
 20
22.65605558035014
 30
0.0
 11
-69.59001062929448
 21
22.65605558035014
 31
0.0
  0
LINE
  5
31F
102
{ACAD_REACTORS
330
406
330
407
102
}
330
71
100
AcDbEntity
  8
0
  6
Continuous
 62
     2
100
AcDbLine
 10
-70.60814992142377
 20
27.93225540937675
 30
0.0
 11
-70.60814992142377
 21
22.36774464017654
 31
0.0
  0
LINE
  5
320
102
{ACAD_REACTORS
330
406
330
407
102
}
330
71
100
AcDbEntity
  8
0
  6
Continuous
 62
     2
100
AcDbLine
 10
-70.18390530604097
 20
28.35650002476055
 30
0.0
 11
-64.71059321532417
 21
28.35650002476055
 31
0.0
  0
LINE
  5
321
102
{ACAD_REACTORS
330
406
330
407
102
}
330
71
100
AcDbEntity
  8
0
  6
Continuous
 62
     2
100
AcDbLine
 10
-64.28634859994028
 20
27.93225540937675
 30
0.0
 11
-64.28634859994028
 21
22.36774464017654
 31
0.0
  0
LINE
  5
322
102
{ACAD_REACTORS
330
406
330
407
102
}
330
71
100
AcDbEntity
  8
0
  6
Continuous
 62
     2
100
AcDbLine
 10
-64.71059321532417
 20
21.94350002479325
 30
0.0
 11
-70.18390530604097
 21
21.94350002479325
 31
0.0
  0
LINE
  5
323
102
{ACAD_REACTORS
330
406
330
407
102
}
330
71
100
AcDbEntity
  8
0
  6
Continuous
 62
     2
100
AcDbLine
 10
-67.79846044520826
 20
22.97177250342685
 30
0.0
 11
-67.79846044520826
 21
24.50254343495845
 31
0.0
  0
LINE
  5
324
102
{ACAD_REACTORS
330
406
330
407
102
}
330
71
100
AcDbEntity
  8
0
  6
Continuous
 62
     2
100
AcDbLine
 10
-67.79846044520826
 20
26.72420292708344
 30
0.0
 11
-67.79846044520826
 21
27.32822754614395
 31
0.0
  0
LINE
  5
325
102
{ACAD_REACTORS
330
406
330
407
102
}
330
71
100
AcDbEntity
  8
0
  6
Continuous
 62
     2
100
AcDbLine
 10
-69.59001062929448
 20
27.64394446922015
 30
0.0
 11
-68.11417736828486
 21
27.64394446922015
 31
0.0
  0
LINE
  5
326
102
{ACAD_REACTORS
330
406
330
407
102
}
330
71
100
AcDbEntity
  8
0
  6
Continuous
 62
     2
100
AcDbLine
 10
-69.90572755237017
 20
27.32822754614395
 30
0.0
 11
-69.90572755237017
 21
22.97177250342685
 31
0.0
  0
LINE
  5
327
102
{ACAD_REACTORS
330
40C
330
40D
102
}
330
71
100
AcDbEntity
  8
0
  6
Continuous
 62
     2
100
AcDbLine
 10
-62.56872710881936
 20
26.24576874211135
 30
0.0
 11
-61.80995952103908
 21
26.24576874211135
 31
0.0
  0
LINE
  5
328
102
{ACAD_REACTORS
330
40C
330
40D
102
}
330
71
100
AcDbEntity
  8
0
  6
Continuous
 62
     2
100
AcDbLine
 10
-63.80923151907348
 20
28.35650002477874
 30
0.0
 11
-61.80995952103908
 21
28.35650002477874
 31
0.0
  0
LINE
  5
329
102
{ACAD_REACTORS
330
40C
330
40D
102
}
330
71
100
AcDbEntity
  8
0
  6
Continuous
 62
     2
100
AcDbLine
 10
-63.80923151907348
 20
28.35650002477874
 30
0.0
 11
-63.80923151907348
 21
25.30269050096754
 31
0.0
  0
LINE
  5
32A
102
{ACAD_REACTORS
330
40C
330
40D
102
}
330
71
100
AcDbEntity
  8
0
  6
Continuous
 62
     2
100
AcDbLine
 10
-62.56872710881936
 20
26.98766652999643
 30
0.0
 11
-62.25143204727746
 21
26.98766652999643
 31
0.0
  0
LINE
  5
32B
102
{ACAD_REACTORS
330
40C
330
40D
102
}
330
71
100
AcDbEntity
  8
0
  6
Continuous
 62
     2
100
AcDbLine
 10
-62.56872710881936
 20
27.69339417933864
 30
0.0
 11
-62.25143204727746
 21
27.69339417933864
 31
0.0
  0
LINE
  5
32C
102
{ACAD_REACTORS
330
41A
330
41B
102
}
330
71
100
AcDbEntity
  8
0
  6
Continuous
 62
     2
100
AcDbLine
 10
-59.41975437509916
 20
27.28766669144414
 30
0.0
 11
-58.37009679719168
 21
27.28766669144414
 31
0.0
  0
LINE
  5
32D
102
{ACAD_REACTORS
330
41A
330
41B
102
}
330
71
100
AcDbEntity
  8
0
  6
Continuous
 62
     2
100
AcDbLine
 10
-59.41975437509916
 20
28.35650002477874
 30
0.0
 11
-59.41975437509916
 21
27.28766669144414
 31
0.0
  0
LINE
  5
32E
102
{ACAD_REACTORS
330
41A
330
41B
102
}
330
71
100
AcDbEntity
  8
0
  6
Continuous
 62
     2
100
AcDbLine
 10
-60.61254707726576
 20
28.35650002477874
 30
0.0
 11
-59.41975437509916
 21
28.35650002477874
 31
0.0
  0
LINE
  5
32F
102
{ACAD_REACTORS
330
41A
330
41B
102
}
330
71
100
AcDbEntity
  8
0
  6
Continuous
 62
     2
100
AcDbLine
 10
-59.41975437509916
 20
25.30269050096754
 30
0.0
 11
-60.61254707726576
 21
25.30269050096754
 31
0.0
  0
LINE
  5
330
102
{ACAD_REACTORS
330
41A
330
41B
102
}
330
71
100
AcDbEntity
  8
0
  6
Continuous
 62
     2
100
AcDbLine
 10
-58.37009679719168
 20
25.30269050096754
 30
0.0
 11
-58.37009679719168
 21
26.43696260981136
 31
0.0
  0
LINE
  5
331
102
{ACAD_REACTORS
330
41A
330
41B
102
}
330
71
100
AcDbEntity
  8
0
  6
Continuous
 62
     2
100
AcDbLine
 10
-57.17730409502528
 20
25.30269050096754
 30
0.0
 11
-58.37009679719168
 21
25.30269050096754
 31
0.0
  0
LINE
  5
332
102
{ACAD_REACTORS
330
41A
330
41B
102
}
330
71
100
AcDbEntity
  8
0
  6
Continuous
 62
     2
100
AcDbLine
 10
-57.17730409502528
 20
28.35650002477874
 30
0.0
 11
-57.17730409502528
 21
25.30269050096754
 31
0.0
  0
LINE
  5
333
102
{ACAD_REACTORS
330
408
330
409
102
}
330
71
100
AcDbEntity
  8
0
  6
Continuous
 62
     2
100
AcDbLine
 10
-53.69434940469836
 20
26.48058846015175
 30
0.0
 11
-52.35842157827068
 21
26.48058846015175
 31
0.0
  0
LINE
  5
334
102
{ACAD_REACTORS
330
408
330
409
102
}
330
71
100
AcDbEntity
  8
0
  6
Continuous
 62
     2
100
AcDbLine
 10
-52.35842157827068
 20
26.48058846015175
 30
0.0
 11
-52.35842157827068
 21
27.17860206559405
 31
0.0
  0
LINE
  5
335
102
{ACAD_REACTORS
330
408
330
409
102
}
330
71
100
AcDbEntity
  8
0
  6
Continuous
 62
     2
100
AcDbLine
 10
-52.35842157827068
 20
27.17860206559405
 30
0.0
 11
-53.69434940469836
 21
27.17860206559405
 31
0.0
  0
LINE
  5
336
102
{ACAD_REACTORS
330
408
330
409
102
}
330
71
100
AcDbEntity
  8
0
  6
Continuous
 62
     2
100
AcDbLine
 10
-53.69434940469836
 20
27.17860206559405
 30
0.0
 11
-53.69434940469836
 21
27.65848641933576
 31
0.0
  0
LINE
  5
337
102
{ACAD_REACTORS
330
418
330
419
102
}
330
71
100
AcDbEntity
  8
0
  6
Continuous
 62
     2
100
AcDbLine
 10
-57.36830185825747
 20
21.94350002479325
 30
0.0
 11
-56.17550915608987
 21
21.94350002479325
 31
0.0
  0
LINE
  5
338
102
{ACAD_REACTORS
330
418
330
419
102
}
330
71
100
AcDbEntity
  8
0
  6
Continuous
 62
     2
100
AcDbLine
 10
-54.93500474583698
 20
21.94350002479325
 30
0.0
 11
-53.74221204367058
 21
21.94350002479325
 31
0.0
  0
LINE
  5
339
102
{ACAD_REACTORS
330
418
330
419
102
}
330
71
100
AcDbEntity
  8
0
  6
Continuous
 62
     2
100
AcDbLine
 10
-56.17550915608987
 20
24.99730954860434
 30
0.0
 11
-57.36830185825747
 21
24.99730954860434
 31
0.0
  0
LINE
  5
33A
102
{ACAD_REACTORS
330
418
330
419
102
}
330
71
100
AcDbEntity
  8
0
  6
Continuous
 62
     2
100
AcDbLine
 10
-57.36830185825747
 20
24.99730954860434
 30
0.0
 11
-57.36830185825747
 21
21.94350002479325
 31
0.0
  0
LINE
  5
33B
102
{ACAD_REACTORS
330
416
330
417
102
}
330
71
100
AcDbEntity
  8
0
  6
Continuous
 62
     2
100
AcDbLine
 10
-49.68656592541726
 20
28.35650002477874
 30
0.0
 11
-49.68656592541726
 21
27.04772451457356
 31
0.0
  0
LINE
  5
33C
102
{ACAD_REACTORS
330
416
330
417
102
}
330
71
100
AcDbEntity
  8
0
  6
Continuous
 62
     2
100
AcDbLine
 10
-50.92707033567126
 20
28.35650002477874
 30
0.0
 11
-52.11986303783777
 21
28.35650002477874
 31
0.0
  0
LINE
  5
33D
102
{ACAD_REACTORS
330
416
330
417
102
}
330
71
100
AcDbEntity
  8
0
  6
Continuous
 62
     2
100
AcDbLine
 10
-52.11986303783777
 20
28.35650002477874
 30
0.0
 11
-52.11986303783777
 21
25.30269050096754
 31
0.0
  0
LINE
  5
33E
102
{ACAD_REACTORS
330
416
330
417
102
}
330
71
100
AcDbEntity
  8
0
  6
Continuous
 62
     2
100
AcDbLine
 10
-50.92707033567126
 20
25.30269050096754
 30
0.0
 11
-50.92707033567126
 21
26.61146601117224
 31
0.0
  0
LINE
  5
33F
102
{ACAD_REACTORS
330
414
330
415
102
}
330
71
100
AcDbEntity
  8
0
  6
Continuous
 62
     2
100
AcDbLine
 10
-51.59518517976926
 20
21.94350002479325
 30
0.0
 11
-51.59518517976926
 21
24.21204424248074
 31
0.0
  0
LINE
  5
340
102
{ACAD_REACTORS
330
414
330
415
102
}
330
71
100
AcDbEntity
  8
0
  6
Continuous
 62
     2
100
AcDbLine
 10
-51.59518517976926
 20
24.21204424248074
 30
0.0
 11
-50.78408614229676
 21
24.21204424248074
 31
0.0
  0
LINE
  5
341
102
{ACAD_REACTORS
330
414
330
415
102
}
330
71
100
AcDbEntity
  8
0
  6
Continuous
 62
     2
100
AcDbLine
 10
-50.78408614229676
 20
24.21204424248074
 30
0.0
 11
-50.78408614229676
 21
24.99730954860434
 31
0.0
  0
LINE
  5
342
102
{ACAD_REACTORS
330
414
330
415
102
}
330
71
100
AcDbEntity
  8
0
  6
Continuous
 62
     2
100
AcDbLine
 10
-50.78408614229676
 20
24.99730954860434
 30
0.0
 11
-53.59907691941038
 21
24.99730954860434
 31
0.0
  0
LINE
  5
343
102
{ACAD_REACTORS
330
414
330
415
102
}
330
71
100
AcDbEntity
  8
0
  6
Continuous
 62
     2
100
AcDbLine
 10
-53.59907691941038
 20
24.21204424248074
 30
0.0
 11
-52.78797788193577
 21
24.21204424248074
 31
0.0
  0
LINE
  5
344
102
{ACAD_REACTORS
330
412
330
413
102
}
330
71
100
AcDbEntity
  8
0
  6
Continuous
 62
     2
100
AcDbLine
 10
-49.98958031649937
 20
22.48446056901113
 30
0.0
 11
-48.85713873982556
 21
22.48446056901113
 31
0.0
  0
LINE
  5
345
102
{ACAD_REACTORS
330
412
330
413
102
}
330
71
100
AcDbEntity
  8
0
  6
Continuous
 62
     2
100
AcDbLine
 10
-47.40515427609586
 20
21.94350002479325
 30
0.0
 11
-48.64565868634978
 21
21.94350002479325
 31
0.0
  0
LINE
  5
346
102
{ACAD_REACTORS
330
412
330
413
102
}
330
71
100
AcDbEntity
  8
0
  6
Continuous
 62
     2
100
AcDbLine
 10
-50.04361173328886
 20
24.99730954860434
 30
0.0
 11
-51.44156478022816
 21
21.94350002479325
 31
0.0
  0
LINE
  5
347
102
{ACAD_REACTORS
330
412
330
413
102
}
330
71
100
AcDbEntity
  8
0
  6
Continuous
 62
     2
100
AcDbLine
 10
-50.20106036997518
 20
21.94350002479325
 30
0.0
 11
-49.98958031649937
 21
22.48446056901113
 31
0.0
  0
LINE
  5
348
102
{ACAD_REACTORS
330
412
330
413
102
}
330
71
100
AcDbEntity
  8
0
  6
Continuous
 62
     2
100
AcDbLine
 10
-49.72352476535437
 20
23.16502383431774
 30
0.0
 11
-49.42335952816197
 21
23.93283880030444
 31
0.0
  0
LINE
  5
349
102
{ACAD_REACTORS
330
410
330
411
102
}
330
71
100
AcDbEntity
  8
0
  6
Continuous
 62
     2
100
AcDbLine
 10
-48.25521468281676
 20
25.30269050096754
 30
0.0
 11
-48.25521468281676
 21
28.35650002477874
 31
0.0
  0
LINE
  5
34A
102
{ACAD_REACTORS
330
410
330
411
102
}
330
71
100
AcDbEntity
  8
0
  6
Continuous
 62
     2
100
AcDbLine
 10
-47.01471027256386
 20
28.35650002477874
 30
0.0
 11
-47.01471027256386
 21
25.30269050096754
 31
0.0
  0
LINE
  5
34B
102
{ACAD_REACTORS
330
410
330
411
102
}
330
71
100
AcDbEntity
  8
0
  6
Continuous
 62
     2
100
AcDbLine
 10
-48.25521468281676
 20
28.35650002477874
 30
0.0
 11
-47.01471027256386
 21
28.35650002477874
 31
0.0
  0
LINE
  5
34C
102
{ACAD_REACTORS
330
40E
330
40F
102
}
330
71
100
AcDbEntity
  8
0
  6
Continuous
 62
     2
100
AcDbLine
 10
-44.79611584653307
 20
26.09042228626126
 30
0.0
 11
-44.09952490846757
 21
25.30269050096754
 31
0.0
  0
LINE
  5
34D
102
{ACAD_REACTORS
330
40E
330
40F
102
}
330
71
100
AcDbEntity
  8
0
  6
Continuous
 62
     2
100
AcDbLine
 10
-44.09952490846757
 20
25.30269050096754
 30
0.0
 11
-42.69680069071927
 21
25.30269050096754
 31
0.0
  0
LINE
  5
34E
102
{ACAD_REACTORS
330
40E
330
40F
102
}
330
71
100
AcDbEntity
  8
0
  6
Continuous
 62
     2
100
AcDbLine
 10
-44.09475373765957
 20
26.88354949474254
 30
0.0
 11
-42.69680069071927
 21
25.30269050096754
 31
0.0
  0
LINE
  5
34F
102
{ACAD_REACTORS
330
40E
330
40F
102
}
330
71
100
AcDbEntity
  8
0
  6
Continuous
 62
     2
100
AcDbLine
 10
-44.09475373765957
 20
26.88354949474254
 30
0.0
 11
-42.79222410689306
 21
28.35650002477874
 31
0.0
  0
LINE
  5
350
102
{ACAD_REACTORS
330
40E
330
40F
102
}
330
71
100
AcDbEntity
  8
0
  6
Continuous
 62
     2
100
AcDbLine
 10
-44.79611584653307
 20
27.67667670322325
 30
0.0
 11
-44.19494832464028
 21
28.35650002477874
 31
0.0
  0
LINE
  5
351
102
{ACAD_REACTORS
330
40E
330
40F
102
}
330
71
100
AcDbEntity
  8
0
  6
Continuous
 62
     2
100
AcDbLine
 10
-45.39728336842487
 20
28.35650002477874
 30
0.0
 11
-44.79611584653307
 21
27.67667670322325
 31
0.0
  0
LINE
  5
352
102
{ACAD_REACTORS
330
40E
330
40F
102
}
330
71
100
AcDbEntity
  8
0
  6
Continuous
 62
     2
100
AcDbLine
 10
-45.39728336842487
 20
28.35650002477874
 30
0.0
 11
-46.80000758617416
 21
28.35650002477874
 31
0.0
  0
LINE
  5
353
102
{ACAD_REACTORS
330
404
330
405
102
}
330
71
100
AcDbEntity
  8
0
  6
Continuous
 62
     2
100
AcDbLine
 10
-44.70069243036036
 20
21.94350002479325
 30
0.0
 11
-43.50789972819266
 21
21.94350002479325
 31
0.0
  0
LINE
  5
354
102
{ACAD_REACTORS
330
404
330
405
102
}
330
71
100
AcDbEntity
  8
0
  6
Continuous
 62
     2
100
AcDbLine
 10
-43.50789972819266
 20
21.94350002479325
 30
0.0
 11
-43.50789972819266
 21
24.21204424248074
 31
0.0
  0
LINE
  5
355
102
{ACAD_REACTORS
330
404
330
405
102
}
330
71
100
AcDbEntity
  8
0
  6
Continuous
 62
     2
100
AcDbLine
 10
-43.50789972819266
 20
24.21204424248074
 30
0.0
 11
-42.69680069071927
 21
24.21204424248074
 31
0.0
  0
LINE
  5
356
102
{ACAD_REACTORS
330
404
330
405
102
}
330
71
100
AcDbEntity
  8
0
  6
Continuous
 62
     2
100
AcDbLine
 10
-42.69680069071927
 20
24.21204424248074
 30
0.0
 11
-42.69680069071927
 21
24.99730954860434
 31
0.0
  0
LINE
  5
357
102
{ACAD_REACTORS
330
404
330
405
102
}
330
71
100
AcDbEntity
  8
0
  6
Continuous
 62
     2
100
AcDbLine
 10
-46.08174620934796
 20
24.99730954860385
 30
0.0
 11
-42.69680069071927
 21
24.99730954860434
 31
0.0
  0
LINE
  5
358
102
{ACAD_REACTORS
330
404
330
405
102
}
330
71
100
AcDbEntity
  8
0
  6
Continuous
 62
     2
100
AcDbLine
 10
-44.70069243036036
 20
24.21204424248074
 30
0.0
 11
-44.70069243036036
 21
21.94350002479325
 31
0.0
  0
LINE
  5
359
102
{ACAD_REACTORS
330
406
330
407
102
}
330
71
100
AcDbEntity
  8
0
  6
Continuous
 62
     2
100
AcDbLine
 10
-67.33017886583957
 20
23.92238017435776
 30
0.0
 11
-67.33017886583957
 21
24.50423158105284
 31
0.0
  0
LINE
  5
35A
102
{ACAD_REACTORS
330
406
330
407
102
}
330
71
100
AcDbEntity
  8
0
  6
Continuous
 62
     2
100
AcDbLine
 10
-67.33017886583957
 20
26.72251478098906
 30
0.0
 11
-67.33017886583957
 21
27.32805006949585
 31
0.0
  0
LINE
  5
35B
330
71
100
AcDbEntity
  8
1
  6
Continuous
 62
     6
100
AcDbLine
 10
-88.80000028123635
 20
14.65000002477694
 30
0.0
 11
-74.84480480798638
 21
14.65000002477683
 31
0.0
  0
LINE
  5
35C
330
71
100
AcDbEntity
  8
1
  6
Continuous
 62
     6
100
AcDbLine
 10
-138.8000002812366
 20
14.65000002477694
 30
0.0
 11
-143.8448048079864
 21
14.65000002477694
 31
0.0
  0
LINE
  5
35D
330
71
100
AcDbEntity
  8
1
  6
Continuous
 62
     6
100
AcDbLine
 10
11.19999971876362
 20
14.65000002477694
 30
0.0
 11
54.69999971876364
 21
14.65000002477694
 31
0.0
  0
LINE
  5
35E
330
71
100
AcDbEntity
  8
1
  6
Continuous
 62
     6
100
AcDbLine
 10
-38.80000028123638
 20
14.65000002477694
 30
0.0
 11
-56.64480480798636
 21
14.65000002477694
 31
0.0
  0
LINE
  5
35F
330
71
100
AcDbEntity
  8
1
  6
Continuous
 62
     2
100
AcDbLine
 10
54.69999971876364
 20
14.65000002477694
 30
0.0
 11
59.69999971876263
 21
14.65000002477694
 31
0.0
  0
LINE
  5
360
330
71
100
AcDbEntity
  8
1
  6
Continuous
 62
     2
100
AcDbLine
 10
54.69999971876364
 20
14.65000002477694
 30
0.0
 11
54.69999971876364
 21
9.65000002477683
 31
0.0
  0
LINE
  5
361
330
71
100
AcDbEntity
  8
1
  6
Continuous
 62
     6
100
AcDbLine
 10
-74.84480480798638
 20
31.65000002477694
 30
0.0
 11
-38.44480480798646
 21
31.65000002477694
 31
0.0
  0
LINE
  5
362
330
71
100
AcDbEntity
  8
1
  6
Continuous
 62
     2
100
AcDbLine
 10
59.69999971876263
 20
9.65000002477683
 30
0.0
 11
59.69999971876263
 21
14.65000002477694
 31
0.0
  0
LINE
  5
363
330
71
100
AcDbEntity
  8
1
  6
Continuous
 62
     2
100
AcDbLine
 10
59.69999971876263
 20
9.65000002477683
 30
0.0
 11
54.69999971876364
 21
9.65000002477683
 31
0.0
  0
LINE
  5
364
330
71
100
AcDbEntity
  8
1
  6
Continuous
 62
     2
100
AcDbLine
 10
54.69999971876364
 20
9.65000002477683
 30
0.0
 11
11.19999971876362
 21
9.65000002477683
 31
0.0
  0
LINE
  5
365
330
71
100
AcDbEntity
  8
1
  6
Continuous
 62
     6
100
AcDbLine
 10
54.69999971876533
 20
31.65000002477694
 30
0.0
 11
54.69999971876453
 21
64.65000002477706
 31
0.0
  0
LINE
  5
366
330
71
100
AcDbEntity
  8
1
  6
Continuous
 62
     2
100
AcDbLine
 10
59.69999971876263
 20
219.6500000247769
 30
0.0
 11
-88.80000028123635
 21
219.6500000247769
 31
0.0
  0
LINE
  5
367
330
71
100
AcDbEntity
  8
1
  6
Continuous
 62
     6
100
AcDbLine
 10
54.69999971876263
 20
199.6500000247769
 30
0.0
 11
-232.3000002812354
 21
199.6500000247769
 31
0.0
  0
LINE
  5
368
330
71
100
AcDbEntity
  8
1
  6
Continuous
 62
     2
100
AcDbLine
 10
54.69999971876453
 20
64.65000002477706
 30
0.0
 11
59.69999971876263
 21
64.65000002477706
 31
0.0
  0
LINE
  5
369
330
71
100
AcDbEntity
  8
1
  6
Continuous
 62
     6
100
AcDbLine
 10
54.69999971876453
 20
64.65000002477706
 30
0.0
 11
54.69999971876403
 21
114.6500000247769
 31
0.0
  0
LINE
  5
36A
330
71
100
AcDbEntity
  8
1
  6
Continuous
 62
     2
100
AcDbLine
 10
59.69999971876263
 20
64.65000002477706
 30
0.0
 11
59.69999971876263
 21
114.6500000247769
 31
0.0
  0
LINE
  5
36B
330
71
100
AcDbEntity
  8
1
  6
Continuous
 62
     2
100
AcDbLine
 10
54.69999971876403
 20
114.6500000247769
 30
0.0
 11
59.69999971876263
 21
114.6500000247769
 31
0.0
  0
LINE
  5
36C
330
71
100
AcDbEntity
  8
1
  6
Continuous
 62
     6
100
AcDbLine
 10
54.69999971876403
 20
114.6500000247769
 30
0.0
 11
54.69999971876283
 21
164.6500000247769
 31
0.0
  0
LINE
  5
36D
330
71
100
AcDbEntity
  8
1
  6
Continuous
 62
     2
100
AcDbLine
 10
59.69999971876263
 20
114.6500000247769
 30
0.0
 11
59.69999971876263
 21
164.6500000247769
 31
0.0
  0
LINE
  5
36E
330
71
100
AcDbEntity
  8
1
  6
Continuous
 62
     2
100
AcDbLine
 10
54.69999971876283
 20
164.6500000247769
 30
0.0
 11
59.69999971876263
 21
164.6500000247769
 31
0.0
  0
LINE
  5
36F
330
71
100
AcDbEntity
  8
1
  6
Continuous
 62
     6
100
AcDbLine
 10
54.69999971876283
 20
164.6500000247769
 30
0.0
 11
54.69999971876263
 21
199.6500000247769
 31
0.0
  0
LINE
  5
370
330
71
100
AcDbEntity
  8
1
  6
Continuous
 62
     2
100
AcDbLine
 10
59.69999971876263
 20
164.6500000247769
 30
0.0
 11
59.69999971876263
 21
219.6500000247769
 31
0.0
  0
LINE
  5
371
330
71
100
AcDbEntity
  8
1
  6
Continuous
 62
     2
100
AcDbLine
 10
59.69999971876263
 20
14.65000002477694
 30
0.0
 11
59.69999971876263
 21
64.65000002477706
 31
0.0
  0
LINE
  5
372
330
71
100
AcDbEntity
  8
1
  6
Continuous
 62
     2
100
AcDbLine
 10
-88.80000028123635
 20
219.6500000247769
 30
0.0
 11
-237.3000002812354
 21
219.6500000247769
 31
0.0
  0
LINE
  5
373
330
71
100
AcDbEntity
  8
1
  6
Continuous
 62
     2
100
AcDbLine
 10
-88.80000028123635
 20
219.6500000247769
 30
0.0
 11
-88.80000028123635
 21
210.4413081800756
 31
0.0
  0
LINE
  5
374
330
71
100
AcDbEntity
  8
1
  6
Continuous
 62
     2
100
AcDbLine
 10
-237.3000002812354
 20
9.65000002477683
 30
0.0
 11
-232.3000002812345
 21
9.65000002477683
 31
0.0
  0
LINE
  5
375
330
71
100
AcDbEntity
  8
1
  6
Continuous
 62
     2
100
AcDbLine
 10
-237.3000002812354
 20
219.6500000247769
 30
0.0
 11
-237.3000002812354
 21
164.6500000247769
 31
0.0
  0
LINE
  5
376
330
71
100
AcDbEntity
  8
1
  6
Continuous
 62
     6
100
AcDbLine
 10
-232.3000002812354
 20
199.6500000247769
 30
0.0
 11
-232.3000002812354
 21
164.6500000247769
 31
0.0
  0
LINE
  5
377
330
71
100
AcDbEntity
  8
1
  6
Continuous
 62
     2
100
AcDbLine
 10
-237.3000002812354
 20
164.6500000247769
 30
0.0
 11
-232.3000002812354
 21
164.6500000247769
 31
0.0
  0
LINE
  5
378
330
71
100
AcDbEntity
  8
1
  6
Continuous
 62
     2
100
AcDbLine
 10
-237.3000002812354
 20
164.6500000247769
 30
0.0
 11
-237.3000002812354
 21
114.6500000247769
 31
0.0
  0
LINE
  5
379
330
71
100
AcDbEntity
  8
1
  6
Continuous
 62
     6
100
AcDbLine
 10
-232.3000002812354
 20
164.6500000247769
 30
0.0
 11
-232.3000002812349
 21
114.6500000247769
 31
0.0
  0
LINE
  5
37A
330
71
100
AcDbEntity
  8
1
  6
Continuous
 62
     2
100
AcDbLine
 10
-237.3000002812354
 20
114.6500000247769
 30
0.0
 11
-232.3000002812349
 21
114.6500000247769
 31
0.0
  0
LINE
  5
37B
330
71
100
AcDbEntity
  8
1
  6
Continuous
 62
     2
100
AcDbLine
 10
-237.3000002812354
 20
114.6500000247769
 30
0.0
 11
-237.3000002812354
 21
64.65000002477706
 31
0.0
  0
LINE
  5
37C
330
71
100
AcDbEntity
  8
1
  6
Continuous
 62
     6
100
AcDbLine
 10
-232.3000002812349
 20
114.6500000247769
 30
0.0
 11
-232.3000002812347
 21
64.65000002477706
 31
0.0
  0
LINE
  5
37D
330
71
100
AcDbEntity
  8
1
  6
Continuous
 62
     2
100
AcDbLine
 10
-237.3000002812354
 20
64.65000002477706
 30
0.0
 11
-232.3000002812347
 21
64.65000002477706
 31
0.0
  0
LINE
  5
37E
330
71
100
AcDbEntity
  8
1
  6
Continuous
 62
     2
100
AcDbLine
 10
-237.3000002812354
 20
64.65000002477706
 30
0.0
 11
-237.3000002812354
 21
14.65000002477694
 31
0.0
  0
LINE
  5
37F
330
71
100
AcDbEntity
  8
1
  6
Continuous
 62
     6
100
AcDbLine
 10
-232.3000002812347
 20
64.65000002477706
 30
0.0
 11
-232.3000002812345
 21
14.65000002477694
 31
0.0
  0
LINE
  5
380
330
71
100
AcDbEntity
  8
1
  6
Continuous
 62
     2
100
AcDbLine
 10
-188.8000002812364
 20
9.65000002477683
 30
0.0
 11
-188.8000002812364
 21
14.65000002477694
 31
0.0
  0
LINE
  5
381
330
71
100
AcDbEntity
  8
1
  6
Continuous
 62
     2
100
AcDbLine
 10
-188.8000002812364
 20
9.65000002477683
 30
0.0
 11
-138.8000002812366
 21
9.65000002477683
 31
0.0
  0
LINE
  5
382
330
71
100
AcDbEntity
  8
1
  6
Continuous
 62
     2
100
AcDbLine
 10
-138.8000002812366
 20
9.65000002477683
 30
0.0
 11
-138.8000002812366
 21
14.65000002477694
 31
0.0
  0
LINE
  5
383
330
71
100
AcDbEntity
  8
1
  6
Continuous
 62
     2
100
AcDbLine
 10
-138.8000002812366
 20
9.65000002477683
 30
0.0
 11
-88.80000028123635
 21
9.65000002477683
 31
0.0
  0
LINE
  5
384
330
71
100
AcDbEntity
  8
1
  6
Continuous
 62
     2
100
AcDbLine
 10
-88.80000028123635
 20
9.65000002477683
 30
0.0
 11
-88.80000028123635
 21
14.65000002477694
 31
0.0
  0
LINE
  5
385
330
71
100
AcDbEntity
  8
1
  6
Continuous
 62
     2
100
AcDbLine
 10
-88.80000028123635
 20
9.65000002477683
 30
0.0
 11
-38.80000028123638
 21
9.65000002477683
 31
0.0
  0
LINE
  5
386
330
71
100
AcDbEntity
  8
1
  6
Continuous
 62
     2
100
AcDbLine
 10
-38.80000028123638
 20
9.65000002477683
 30
0.0
 11
-38.80000028123638
 21
14.65000002477694
 31
0.0
  0
LINE
  5
387
330
71
100
AcDbEntity
  8
1
  6
Continuous
 62
     2
100
AcDbLine
 10
11.19999971876362
 20
9.65000002477683
 30
0.0
 11
11.19999971876362
 21
14.65000002477694
 31
0.0
  0
LINE
  5
388
330
71
100
AcDbEntity
  8
1
  6
Continuous
 62
     2
100
AcDbLine
 10
11.19999971876362
 20
9.65000002477683
 30
0.0
 11
-38.80000028123638
 21
9.65000002477683
 31
0.0
  0
LINE
  5
389
330
71
100
AcDbEntity
  8
1
  6
Continuous
 62
     2
100
AcDbLine
 10
-232.3000002812345
 20
14.65000002477694
 30
0.0
 11
-232.3000002812345
 21
9.65000002477683
 31
0.0
  0
LINE
  5
38A
330
71
100
AcDbEntity
  8
1
  6
Continuous
 62
     2
100
AcDbLine
 10
-232.3000002812345
 20
9.65000002477683
 30
0.0
 11
-188.8000002812364
 21
9.65000002477683
 31
0.0
  0
LINE
  5
38B
330
71
100
AcDbEntity
  8
1
  6
Continuous
 62
     2
100
AcDbLine
 10
-232.3000002812345
 20
14.65000002477694
 30
0.0
 11
-237.3000002812354
 21
14.65000002477694
 31
0.0
  0
LINE
  5
38C
330
71
100
AcDbEntity
  8
1
  6
Continuous
 62
     2
100
AcDbLine
 10
-237.3000002812354
 20
14.65000002477694
 30
0.0
 11
-237.3000002812354
 21
9.65000002477683
 31
0.0
  0
LINE
  5
38D
330
71
100
AcDbEntity
  8
1
  6
Continuous
 62
     6
100
AcDbLine
 10
54.69999971876364
 20
14.65000002477694
 30
0.0
 11
54.69999971876493
 21
23.15000002477694
 31
0.0
  0
LINE
  5
38E
330
71
100
AcDbEntity
  8
1
  6
Continuous
 62
     6
100
AcDbLine
 10
-38.44480480798646
 20
14.65000002477683
 30
0.0
 11
11.19999971876362
 21
14.65000002477694
 31
0.0
  0
LINE
  5
38F
330
71
100
AcDbEntity
  8
1
  6
Continuous
 62
     6
100
AcDbLine
 10
-191.1000002812366
 20
14.65000002477683
 30
0.0
 11
-188.8000002812364
 21
14.65000002477694
 31
0.0
  0
LINE
  5
390
330
71
100
AcDbEntity
  8
1
  6
Continuous
 62
     6
100
AcDbLine
 10
-88.80000028123635
 20
14.65000002477694
 30
0.0
 11
-138.8000002812366
 21
14.65000002477694
 31
0.0
  0
LINE
  5
391
330
71
100
AcDbEntity
  8
1
  6
Continuous
 62
     7
100
AcDbLine
 10
-74.84480480798638
 20
31.65000002477694
 30
0.0
 11
-74.84480480798638
 21
18.90000002477683
 31
0.0
  0
LINE
  5
392
330
71
100
AcDbEntity
  8
1
  6
Continuous
 62
     7
100
AcDbLine
 10
-38.44480480798646
 20
31.65000002477694
 30
0.0
 11
-38.44480480798646
 21
18.90000002477694
 31
0.0
  0
LINE
  5
393
330
71
100
AcDbEntity
  8
1
  6
Continuous
 62
     6
100
AcDbLine
 10
-191.1000002812366
 20
14.65000002477683
 30
0.0
 11
-197.3000002812346
 21
14.65000002477694
 31
0.0
  0
LINE
  5
394
330
71
100
AcDbEntity
  8
1
  6
Continuous
 62
     6
100
AcDbLine
 10
-38.44480480798646
 20
14.65000002477683
 30
0.0
 11
-38.80000028123638
 21
14.65000002477694
 31
0.0
  0
LINE
  5
395
330
71
100
AcDbEntity
  8
1
  6
Continuous
 62
     6
100
AcDbLine
 10
54.69999971876533
 20
31.65000002477694
 30
0.0
 11
54.69999971876493
 21
23.15000002477694
 31
0.0
  0
LINE
  5
396
330
71
100
AcDbEntity
  8
1
  6
Continuous
 62
     6
100
AcDbLine
 10
-197.3000002812346
 20
14.65000002477694
 30
0.0
 11
-232.3000002812345
 21
14.65000002477694
 31
0.0
  0
LINE
  5
397
330
71
100
AcDbEntity
  8
1
  6
Continuous
 62
     2
100
AcDbLine
 10
-70.60814992142377
 20
37.02500002477686
 30
0.0
 11
-65.60814992142377
 21
38.27500002477686
 31
0.0
  0
LINE
  5
398
330
71
100
AcDbEntity
  8
1
  6
Continuous
 62
     2
100
AcDbLine
 10
-70.60814992142377
 20
34.52500002477686
 30
0.0
 11
-70.60814992142377
 21
37.02500002477686
 31
0.0
  0
LINE
  5
399
330
71
100
AcDbEntity
  8
1
  6
Continuous
 62
     2
100
AcDbLine
 10
-65.60814992142377
 20
33.27500002477686
 30
0.0
 11
-70.60814992142377
 21
34.52500002477686
 31
0.0
  0
LINE
  5
39A
330
71
100
AcDbEntity
  8
1
  6
Continuous
 62
     2
100
AcDbLine
 10
-65.60814992142377
 20
38.27500002477686
 30
0.0
 11
-65.60814992142377
 21
33.27500002477686
 31
0.0
  0
LINE
  5
39B
330
71
100
AcDbEntity
  8
1
  6
Continuous
 62
     7
100
AcDbLine
 10
-74.84480480798638
 20
18.90000002477683
 30
0.0
 11
-56.64480480798636
 21
18.90000002477694
 31
0.0
  0
LINE
  5
39C
330
71
100
AcDbEntity
  8
1
  6
Continuous
 62
     7
100
AcDbLine
 10
-74.84480480798638
 20
18.90000002477683
 30
0.0
 11
-74.84480480798638
 21
14.65000002477683
 31
0.0
  0
LINE
  5
39D
330
71
100
AcDbEntity
  8
1
  6
Continuous
 62
     7
100
AcDbLine
 10
-38.44480480798646
 20
18.90000002477694
 30
0.0
 11
-38.44480480798646
 21
14.65000002477683
 31
0.0
  0
LINE
  5
39E
330
71
100
AcDbEntity
  8
1
  6
Continuous
 62
     7
100
AcDbLine
 10
-56.64480480798636
 20
18.90000002477694
 30
0.0
 11
-56.64480480798636
 21
14.65000002477694
 31
0.0
  0
LINE
  5
39F
330
71
100
AcDbEntity
  8
1
  6
Continuous
 62
     6
100
AcDbLine
 10
-56.64480480798636
 20
14.65000002477694
 30
0.0
 11
-74.84480480798638
 21
14.65000002477683
 31
0.0
  0
LINE
  5
3A0
330
71
100
AcDbEntity
  8
1
  6
Continuous
 62
     7
100
AcDbLine
 10
-56.64480480798636
 20
18.90000002477694
 30
0.0
 11
-38.44480480798646
 21
18.90000002477694
 31
0.0
  0
LINE
  5
3A1
330
71
100
AcDbEntity
  8
1
  6
Continuous
 62
     6
100
AcDbLine
 10
-74.84480480798638
 20
40.15000002477694
 30
0.0
 11
54.69999971876533
 21
40.15000002477694
 31
0.0
  0
ARC
  5
3A2
102
{ACAD_REACTORS
330
40A
330
40B
102
}
330
71
100
AcDbEntity
  8
0
  6
Continuous
 62
     2
100
AcDbCircle
 10
-59.45315680902638
 20
23.47040478669854
 30
0.0
 40
0.7717997786796947
100
AcDbArc
 50
321.8795802028417
 51
38.12041979715287
  0
ARC
  5
3A3
102
{ACAD_REACTORS
330
40A
330
40B
102
}
330
71
100
AcDbEntity
  8
0
  6
Continuous
 62
     2
100
AcDbCircle
 10
-59.25341677267997
 20
23.31367360857854
 30
0.0
 40
0.5179085730137332
100
AcDbArc
 50
218.1204197971929
 51
321.8795802028013
  0
ARC
  5
3A4
102
{ACAD_REACTORS
330
40A
330
40B
102
}
330
71
100
AcDbEntity
  8
0
  6
Continuous
 62
     2
100
AcDbCircle
 10
-59.05367673633387
 20
23.47040478669854
 30
0.0
 40
0.7717997786794588
100
AcDbArc
 50
141.8795802028367
 51
218.1204197971687
  0
ARC
  5
3A5
102
{ACAD_REACTORS
330
40A
330
40B
102
}
330
71
100
AcDbEntity
  8
0
  6
Continuous
 62
     2
100
AcDbCircle
 10
-59.25341677267997
 20
23.62713596481905
 30
0.0
 40
0.5179085730132954
100
AcDbArc
 50
38.12041979714641
 51
141.8795802028594
  0
ARC
  5
3A6
102
{ACAD_REACTORS
330
402
330
403
102
}
330
71
100
AcDbEntity
  8
0
  6
Continuous
 62
     2
100
AcDbCircle
 10
-62.31543090824385
 20
22.05993842129035
 30
0.0
 40
2.227384008973484
100
AcDbArc
 50
58.06909105004083
 51
71.5519238818674
  0
ARC
  5
3A7
102
{ACAD_REACTORS
330
402
330
403
102
}
330
71
100
AcDbEntity
  8
0
  6
Continuous
 62
     2
100
AcDbCircle
 10
-62.05370320728508
 20
23.67547621603754
 30
0.0
 40
0.5115800601948807
100
AcDbArc
 50
113.3722778881999
 51
151.4785267423044
  0
ARC
  5
3A8
102
{ACAD_REACTORS
330
402
330
403
102
}
330
71
100
AcDbEntity
  8
0
  6
Continuous
 62
     2
100
AcDbCircle
 10
-61.67634594920477
 20
23.47040478669854
 30
0.0
 40
0.9410597353332545
100
AcDbArc
 50
151.4785267422669
 51
208.5214732577059
  0
ARC
  5
3A9
102
{ACAD_REACTORS
330
402
330
403
102
}
330
71
100
AcDbEntity
  8
0
  6
Continuous
 62
     2
100
AcDbCircle
 10
-62.47330378333678
 20
26.78308573195494
 30
0.0
 40
4.852596863498135
100
AcDbArc
 50
275.158144769625
 51
285.979991258353
  0
ARC
  5
3AA
102
{ACAD_REACTORS
330
402
330
403
102
}
330
71
100
AcDbEntity
  8
0
  6
Continuous
 62
     2
100
AcDbCircle
 10
-62.18444768860087
 20
23.58319514873335
 30
0.0
 40
1.639695123939394
100
AcDbArc
 50
195.0618917770894
 51
275.1581447696395
  0
ARC
  5
3AB
102
{ACAD_REACTORS
330
402
330
403
102
}
330
71
100
AcDbEntity
  8
0
  6
Continuous
 62
     2
100
AcDbCircle
 10
-62.60357553206367
 20
23.47040478669854
 30
0.0
 40
1.20565616839095
100
AcDbArc
 50
164.9381082228767
 51
195.0618917770949
  0
ARC
  5
3AC
102
{ACAD_REACTORS
330
402
330
403
102
}
330
71
100
AcDbEntity
  8
0
  6
Continuous
 62
     2
100
AcDbCircle
 10
-62.18444768860087
 20
23.35761442466364
 30
0.0
 40
1.639695123940503
100
AcDbArc
 50
84.84185523036234
 51
164.9381082228866
  0
ARC
  5
3AD
102
{ACAD_REACTORS
330
406
330
407
102
}
330
71
100
AcDbEntity
  8
0
  6
Continuous
 62
     2
100
AcDbCircle
 10
-67.01446194276278
 20
24.50423158105284
 30
0.0
 40
0.3157169230765264
100
AcDbArc
 50
115.3740086783524
 51
180.0
  0
ARC
  5
3AE
102
{ACAD_REACTORS
330
406
330
407
102
}
330
71
100
AcDbEntity
  8
0
  6
Continuous
 62
     2
100
AcDbCircle
 10
-67.01446194276278
 20
26.72251478098906
 30
0.0
 40
0.315716923076792
100
AcDbArc
 50
180.0
 51
244.6259913216482
  0
ARC
  5
3AF
102
{ACAD_REACTORS
330
406
330
407
102
}
330
71
100
AcDbEntity
  8
0
  6
Continuous
 62
     2
100
AcDbCircle
 10
-67.00884580745276
 20
25.62521512192674
 30
0.0
 40
2.018561131933266
100
AcDbArc
 50
269.8110329575858
 51
90.18896704241416
  0
ARC
  5
3B0
102
{ACAD_REACTORS
330
406
330
407
102
}
330
71
100
AcDbEntity
  8
0
  6
Continuous
 62
     2
100
AcDbCircle
 10
-67.01446194276278
 20
23.92238017435776
 30
0.0
 40
0.315716923076792
100
AcDbArc
 50
180.0
 51
269.8110329574542
  0
ARC
  5
3B1
102
{ACAD_REACTORS
330
404
330
405
102
}
330
71
100
AcDbEntity
  8
0
  6
Continuous
 62
     2
100
AcDbCircle
 10
-45.95100172803217
 20
23.67547621603754
 30
0.0
 40
0.5115800601944053
100
AcDbArc
 50
109.3371432194848
 51
151.4785267424232
  0
ARC
  5
3B2
102
{ACAD_REACTORS
330
404
330
405
102
}
330
71
100
AcDbEntity
  8
0
  6
Continuous
 62
     2
100
AcDbCircle
 10
-45.95100172803217
 20
23.26533335736005
 30
0.0
 40
0.5115800601960261
100
AcDbArc
 50
208.5214732576859
 51
246.6277221118451
  0
ARC
  5
3B3
102
{ACAD_REACTORS
330
404
330
405
102
}
330
71
100
AcDbEntity
  8
0
  6
Continuous
 62
     2
100
AcDbCircle
 10
-46.50087405280956
 20
23.47040478669854
 30
0.0
 40
1.205656168393008
100
AcDbArc
 50
164.9381082229031
 51
195.0618917770962
  0
ARC
  5
3B4
102
{ACAD_REACTORS
330
404
330
405
102
}
330
71
100
AcDbEntity
  8
0
  6
Continuous
 62
     2
100
AcDbCircle
 10
-46.08174620934796
 20
23.35761442466364
 30
0.0
 40
1.639695123940211
100
AcDbArc
 50
90.0
 51
164.938108222895
  0
ARC
  5
3B5
102
{ACAD_REACTORS
330
408
330
409
102
}
330
71
100
AcDbEntity
  8
0
  6
Continuous
 62
     2
100
AcDbCircle
 10
-55.50874130205168
 20
26.82959526287286
 30
0.0
 40
1.526904761905879
100
AcDbArc
 50
90.0
 51
270.0
  0
ARC
  5
3B6
102
{ACAD_REACTORS
330
40C
330
40D
102
}
330
71
100
AcDbEntity
  8
0
  6
Continuous
 62
     2
100
AcDbCircle
 10
-62.25143204727746
 20
27.34053035466755
 30
0.0
 40
0.3528638246711182
100
AcDbArc
 50
270.0
 51
90.0
  0
ARC
  5
3B7
102
{ACAD_REACTORS
330
406
330
407
102
}
330
71
100
AcDbEntity
  8
0
  6
Continuous
 62
     2
100
AcDbCircle
 10
-69.59001062929448
 20
27.32822754614395
 30
0.0
 40
0.3157169230761987
100
AcDbArc
 50
90.0
 51
180.0
  0
ARC
  5
3B8
102
{ACAD_REACTORS
330
406
330
407
102
}
330
71
100
AcDbEntity
  8
0
  6
Continuous
 62
     2
100
AcDbCircle
 10
-67.59159292070987
 20
25.61337318102125
 30
0.0
 40
0.9118975235576114
100
AcDbArc
 50
115.1944106485283
 51
244.8055893514879
  0
ARC
  5
3B9
102
{ACAD_REACTORS
330
406
330
407
102
}
330
71
100
AcDbEntity
  8
0
  6
Continuous
 62
     2
100
AcDbCircle
 10
-68.11417736828486
 20
24.50254343495845
 30
0.0
 40
0.315716923076593
100
AcDbArc
 50
0.0
 51
64.80558935146027
  0
ARC
  5
3BA
102
{ACAD_REACTORS
330
406
330
407
102
}
330
71
100
AcDbEntity
  8
0
  6
Continuous
 62
     2
100
AcDbCircle
 10
-70.18390530604097
 20
22.36774464017654
 30
0.0
 40
0.4242446153828041
100
AcDbArc
 50
180.0
 51
270.0
  0
ARC
  5
3BB
102
{ACAD_REACTORS
330
408
330
409
102
}
330
71
100
AcDbEntity
  8
0
  6
Continuous
 62
     2
100
AcDbCircle
 10
-55.29246929188648
 20
26.98632644099334
 30
0.0
 40
0.5179085730135321
100
AcDbArc
 50
38.12041979714286
 51
141.8795802028484
  0
ARC
  5
3BC
102
{ACAD_REACTORS
330
408
330
409
102
}
330
71
100
AcDbEntity
  8
0
  6
Continuous
 62
     2
100
AcDbCircle
 10
-55.09272925554018
 20
26.82959526287286
 30
0.0
 40
0.7717997786796724
100
AcDbArc
 50
141.8795802028404
 51
218.1204197971566
  0
ARC
  5
3BD
102
{ACAD_REACTORS
330
40A
330
40B
102
}
330
71
100
AcDbEntity
  8
0
  6
Continuous
 62
     2
100
AcDbCircle
 10
-59.25341677267997
 20
24.00897979700184
 30
0.0
 40
2.065479772208505
100
AcDbArc
 50
242.4518518243401
 51
297.5481481756873
  0
ARC
  5
3BE
102
{ACAD_REACTORS
330
40A
330
40B
102
}
330
71
100
AcDbEntity
  8
0
  6
Continuous
 62
     2
100
AcDbCircle
 10
-59.25341677267997
 20
22.93182977639575
 30
0.0
 40
2.065479772208568
100
AcDbArc
 50
62.45185182430615
 51
117.5481481756664
  0
ARC
  5
3BF
102
{ACAD_REACTORS
330
40A
330
40B
102
}
330
71
100
AcDbEntity
  8
0
  6
Continuous
 62
     2
100
AcDbCircle
 10
-59.53435666451327
 20
23.47040478669854
 30
0.0
 40
1.45803408365149
100
AcDbArc
 50
117.5481481756624
 51
242.4518518243376
  0
ARC
  5
3C0
102
{ACAD_REACTORS
330
40A
330
40B
102
}
330
71
100
AcDbEntity
  8
0
  6
Continuous
 62
     2
100
AcDbCircle
 10
-58.97247688084667
 20
23.47040478669854
 30
0.0
 40
1.458034083652009
100
AcDbArc
 50
297.5481481757013
 51
62.45185182429871
  0
ARC
  5
3C1
102
{ACAD_REACTORS
330
408
330
409
102
}
330
71
100
AcDbEntity
  8
0
  6
Continuous
 62
     2
100
AcDbCircle
 10
-55.29246929188648
 20
26.67286408475243
 30
0.0
 40
0.5179085730134315
100
AcDbArc
 50
218.1204197971516
 51
321.8795802028571
  0
ARC
  5
3C2
102
{ACAD_REACTORS
330
408
330
409
102
}
330
71
100
AcDbEntity
  8
0
  6
Continuous
 62
     2
100
AcDbCircle
 10
-55.49220932823266
 20
26.82959526287286
 30
0.0
 40
0.7717997786796417
100
AcDbArc
 50
321.8795802028433
 51
38.12041979715956
  0
ARC
  5
3C3
102
{ACAD_REACTORS
330
406
330
407
102
}
330
71
100
AcDbEntity
  8
0
  6
Continuous
 62
     2
100
AcDbCircle
 10
-64.71059321532417
 20
22.36774464017654
 30
0.0
 40
0.4242446153832908
100
AcDbArc
 50
270.0
 51
0.0
  0
ARC
  5
3C4
102
{ACAD_REACTORS
330
406
330
407
102
}
330
71
100
AcDbEntity
  8
0
  6
Continuous
 62
     2
100
AcDbCircle
 10
-64.71059321532417
 20
27.93225540937675
 30
0.0
 40
0.4242446153838841
100
AcDbArc
 50
0.0
 51
90.0
  0
ARC
  5
3C5
102
{ACAD_REACTORS
330
406
330
407
102
}
330
71
100
AcDbEntity
  8
0
  6
Continuous
 62
     2
100
AcDbCircle
 10
-70.18390530604097
 20
27.93225540937675
 30
0.0
 40
0.4242446153837989
100
AcDbArc
 50
90.0
 51
180.0
  0
ARC
  5
3C6
102
{ACAD_REACTORS
330
406
330
407
102
}
330
71
100
AcDbEntity
  8
0
  6
Continuous
 62
     2
100
AcDbCircle
 10
-68.11417736828486
 20
22.97177250342685
 30
0.0
 40
0.3157169230767067
100
AcDbArc
 50
270.0
 51
0.0
  0
ARC
  5
3C7
102
{ACAD_REACTORS
330
406
330
407
102
}
330
71
100
AcDbEntity
  8
0
  6
Continuous
 62
     2
100
AcDbCircle
 10
-68.11417736828486
 20
26.72420292708344
 30
0.0
 40
0.3157169230761203
100
AcDbArc
 50
295.1944106485397
 51
0.0
  0
ARC
  5
3C8
102
{ACAD_REACTORS
330
406
330
407
102
}
330
71
100
AcDbEntity
  8
0
  6
Continuous
 62
     2
100
AcDbCircle
 10
-68.11417736828486
 20
27.32822754614395
 30
0.0
 40
0.315716923076593
100
AcDbArc
 50
0.0
 51
90.0
  0
ARC
  5
3C9
102
{ACAD_REACTORS
330
406
330
407
102
}
330
71
100
AcDbEntity
  8
0
  6
Continuous
 62
     2
100
AcDbCircle
 10
-69.59001062929448
 20
22.97177250342685
 30
0.0
 40
0.3157169230756836
100
AcDbArc
 50
180.0
 51
270.0
  0
ARC
  5
3CA
102
{ACAD_REACTORS
330
40C
330
40D
102
}
330
71
100
AcDbEntity
  8
0
  6
Continuous
 62
     2
100
AcDbCircle
 10
-61.80995952103908
 20
27.30113438344506
 30
0.0
 40
1.055365641333712
100
AcDbArc
 50
270.0
 51
90.0
  0
ARC
  5
3CB
102
{ACAD_REACTORS
330
404
330
405
102
}
330
71
100
AcDbEntity
  8
0
  6
Continuous
 62
     2
100
AcDbCircle
 10
-46.08174620934796
 20
23.58319514873335
 30
0.0
 40
1.639695123940442
100
AcDbArc
 50
195.0618917771013
 51
275.1581447696765
  0
ARC
  5
3CC
102
{ACAD_REACTORS
330
404
330
405
102
}
330
71
100
AcDbEntity
  8
0
  6
Continuous
 62
     2
100
AcDbCircle
 10
-46.37060230408378
 20
26.78308573195494
 30
0.0
 40
4.852596863498825
100
AcDbArc
 50
275.1581447696364
 51
285.9799912583387
  0
ARC
  5
3CD
102
{ACAD_REACTORS
330
404
330
405
102
}
330
71
100
AcDbEntity
  8
0
  6
Continuous
 62
     2
100
AcDbCircle
 10
-46.21272942899097
 20
24.88087115210664
 30
0.0
 40
2.227384008972746
100
AcDbArc
 50
288.4480761181335
 51
301.9309089499396
  0
ARC
  5
3CE
102
{ACAD_REACTORS
330
404
330
405
102
}
330
71
100
AcDbEntity
  8
0
  6
Continuous
 62
     2
100
AcDbCircle
 10
-45.79456169532907
 20
23.62732537607005
 30
0.0
 40
0.9059297849852838
100
AcDbArc
 50
246.6277221118188
 51
288.4480761180822
  0
ARC
  5
3CF
102
{ACAD_REACTORS
330
404
330
405
102
}
330
71
100
AcDbEntity
  8
0
  6
Continuous
 62
     2
100
AcDbCircle
 10
-45.57364446995078
 20
23.47040478669854
 30
0.0
 40
0.941059735334897
100
AcDbArc
 50
151.4785267423628
 51
208.5214732576693
  0
ARC
  5
3D0
102
{ACAD_REACTORS
330
404
330
405
102
}
330
71
100
AcDbEntity
  8
0
  6
Continuous
 62
     2
100
AcDbCircle
 10
-45.80433172992846
 20
23.25752123565465
 30
0.0
 40
0.9545230068260899
100
AcDbArc
 50
90.0
 51
109.3371432194321
  0
ARC
  5
3D1
102
{ACAD_REACTORS
330
406
330
407
102
}
330
71
100
AcDbEntity
  8
0
  6
Continuous
 62
     2
100
AcDbCircle
 10
-67.01446194276278
 20
27.32805006949585
 30
0.0
 40
0.315716923076064
100
AcDbArc
 50
90.18896704254594
 51
180.0
  0
ARC
  5
3D2
102
{ACAD_REACTORS
330
406
330
407
102
}
330
71
100
AcDbEntity
  8
0
  6
Continuous
 62
     2
100
AcDbCircle
 10
-67.54050464085066
 20
25.61337318102125
 30
0.0
 40
0.9118481501444653
100
AcDbArc
 50
295.3740086781763
 51
64.62599132180736
  0
ARC
  5
3D3
102
{ACAD_REACTORS
330
402
330
403
102
}
330
71
100
AcDbEntity
  8
0
  6
Continuous
 62
     2
100
AcDbCircle
 10
-62.31543090824385
 20
24.88087115210723
 30
0.0
 40
2.227384008972734
100
AcDbArc
 50
288.4480761181326
 51
301.9309089499593
  0
ARC
  5
3D4
102
{ACAD_REACTORS
330
402
330
403
102
}
330
71
100
AcDbEntity
  8
0
  6
Continuous
 62
     2
100
AcDbCircle
 10
-61.89726317458306
 20
23.62732537607005
 30
0.0
 40
0.9059297849849285
100
AcDbArc
 50
246.6277221118708
 51
288.4480761181583
  0
ARC
  5
3D5
102
{ACAD_REACTORS
330
402
330
403
102
}
330
71
100
AcDbEntity
  8
0
  6
Continuous
 62
     2
100
AcDbCircle
 10
-62.05370320728508
 20
23.26533335736005
 30
0.0
 40
0.5115800601948034
100
AcDbArc
 50
208.5214732576956
 51
246.6277221118268
  0
ARC
  5
3D6
102
{ACAD_REACTORS
330
402
330
403
102
}
330
71
100
AcDbEntity
  8
0
  6
Continuous
 62
     2
100
AcDbCircle
 10
-61.89726317458306
 20
23.31348419732694
 30
0.0
 40
0.9059297849853228
100
AcDbArc
 50
71.55192388185348
 51
113.3722778881292
  0
ARC
  5
3D7
102
{ACAD_REACTORS
330
402
330
403
102
}
330
71
100
AcDbEntity
  8
0
  6
Continuous
 62
     2
100
AcDbCircle
 10
-62.47330378333678
 20
20.15772384144265
 30
0.0
 40
4.852596863498069
100
AcDbArc
 50
74.0200087416472
 51
84.84185523037496
  0
CIRCLE
  5
3D8
102
{ACAD_REACTORS
330
406
330
407
102
}
330
71
100
AcDbEntity
  8
0
  6
Continuous
 62
     2
100
AcDbCircle
 10
-67.56431965552346
 20
25.61337318102125
 30
0.0
 40
0.4709789327785074
  0
CIRCLE
  5
3D9
330
71
100
AcDbEntity
  8
1
  6
Continuous
 62
     2
100
AcDbCircle
 10
-62.10814992142377
 20
35.77500002477686
 30
0.0
 40
1.249999999999908
  0
CIRCLE
  5
3DA
330
71
100
AcDbEntity
  8
1
  6
Continuous
 62
     2
100
AcDbCircle
 10
-62.10814992142377
 20
35.77500002477686
 30
0.0
 40
2.5
  0
TEXT
  5
3DB
330
71
100
AcDbEntity
  8
1
 62
     7
100
AcDbText
 10
-19.47125708597258
 20
32.95000002477684
 30
0.0
 40
2.5
  1
/
 41
0.9
  7
CONVERTER_11
100
AcDbText
  0
TEXT
  5
3DD
330
71
100
AcDbEntity
  8
1
 62
     7
100
AcDbText
 10
-17.31489258893058
 20
32.95000002477684
 30
0.0
 40
2.5
  1
01
 41
0.81
  7
CONVERTER_12
100
AcDbText
  0
TEXT
  5
3DE
330
71
100
AcDbEntity
  8
1
 62
     3
100
AcDbText
 10
20.28159143708652
 20
32.95000002477684
 30
0.0
 40
2.5
  1
29.01.2018
 41
0.81
  7
CONVERTER_12
100
AcDbText
  0
MTEXT
  5
3DF
330
71
100
AcDbEntity
  8
1
 62
     2
100
AcDbMText
 10
20.28159143708652
 20
39.15000002477686
 30
0.0
 40
1.8
 41
0.0
 71
     1
 72
     1
  1
date
  7
CONVERTER_11
 73
     1
 44
1.32052821128451
  0
MTEXT
  5
3E0
330
71
100
AcDbEntity
  8
1
 62
     2
100
AcDbMText
 10
-9.54480480798637
 20
30.65000002477686
 30
0.0
 40
1.8
 41
0.0
 71
     1
 72
     1
  1
document-type
  7
CONVERTER_11
 73
     1
 44
1.20048019207683
  0
TEXT
  5
3E1
330
71
100
AcDbEntity
  8
1
 62
     3
100
AcDbText
 10
-9.54480480798637
 20
24.45000002477684
 30
0.0
 40
2.5
  1
 
 41
0.81
  7
CONVERTER_12
100
AcDbText
  0
MTEXT
  5
3E3
330
71
100
AcDbEntity
  8
1
 62
     2
100
AcDbMText
 10
-37.34480480798638
 20
39.15000002477694
 30
0.0
 40
1.8
 41
0.0
 71
     1
 72
     1
  1
document-No. / RI
  7
CONVERTER_13
 73
     1
 44
1.32052821128451
  0
TEXT
  5
3E4
330
71
100
AcDbEntity
  8
1
 62
     7
100
AcDbText
 10
-37.34480480798638
 20
32.95000002477684
 30
0.0
 40
2.5
  1
83179127
 41
0.81
  7
CONVERTER_12
100
AcDbText
  0
MTEXT
  5
3E6
330
71
100
AcDbEntity
  8
1
 62
     3
100
AcDbMText
 10
50.24079557792594
 20
32.95000002477704
 30
0.0
 40
2.5
 41
0.0
 71
     8
 72
     1
  1
1:1
  7
CONVERTER_14
 73
     1
 44
1.32052821128451
  0
MTEXT
  5
3E7
330
71
100
AcDbEntity
  8
1
 62
     2
100
AcDbMText
 10
46.88159143708634
 20
39.15000002477694
 30
0.0
 40
1.8
 41
0.0
 71
     1
 72
     1
  1
scale
  7
CONVERTER_11
 73
     1
 44
1.20048019207683
  0
MTEXT
  5
3E8
330
71
100
AcDbEntity
  8
1
 62
     2
100
AcDbMText
 10
-37.34480480798638
 20
30.65000002477694
 30
0.0
 40
1.8
 41
0.0
 71
     1
 72
     1
  1
ident.-No.
  7
CONVERTER_11
 73
     1
 44
1.20048019207683
  0
TEXT
  5
3E9
330
71
100
AcDbEntity
  8
1
 62
     7
100
AcDbText
 10
-36.94480480798666
 20
24.45000002477684
 30
0.0
 40
2.5
  1
2856595
 41
0.81
  7
CONVERTER_12
100
AcDbText
  0
MTEXT
  5
3EA
330
71
100
AcDbEntity
  8
1
 62
     2
100
AcDbMText
 10
-109.2828195330339
 20
27.40000002477686
 30
0.0
 40
2.0
 41
0.0
 71
     5
 72
     1
  1
General Information\P- Simplified representation\P- Document excluded from change process\P- Linear dimensions [mm]
  7
CONVERTER_11
 73
     1
 44
1.20048019207683
  0
MTEXT
  5
3EB
330
71
100
AcDbEntity
  8
1
 62
     7
100
AcDbMText
 10
57.19999971876263
 20
89.65000002477885
 30
0.0
 40
3.5
 41
0.0
 71
     5
 72
     1
  1
C
  7
CONVERTER_11
 73
     1
 44
1.20048019207683
  0
MTEXT
  5
3EC
330
71
100
AcDbEntity
  8
1
 62
     7
100
AcDbMText
 10
57.19999971876263
 20
192.1500000247769
 30
0.0
 40
3.5
 41
0.0
 71
     5
 72
     1
  1
A
  7
CONVERTER_11
 73
     1
 44
1.20048019207683
  0
MTEXT
  5
3ED
330
71
100
AcDbEntity
  8
1
 62
     7
100
AcDbMText
 10
57.19999971876263
 20
139.6500000247789
 30
0.0
 40
3.5
 41
0.0
 71
     5
 72
     1
  1
B
  7
CONVERTER_11
 73
     1
 44
1.20048019207683
  0
MTEXT
  5
3EE
330
71
100
AcDbEntity
  8
1
 62
     7
100
AcDbMText
 10
57.19999971876263
 20
37.15000002477694
 30
0.0
 40
3.5
 41
0.0
 71
     5
 72
     1
  1
D
  7
CONVERTER_11
 73
     1
 44
1.20048019207683
  0
MTEXT
  5
3EF
330
71
100
AcDbEntity
  8
1
 62
     7
100
AcDbMText
 10
-213.050000281236
 20
12.15000002477683
 30
0.0
 40
3.5
 41
0.0
 71
     5
 72
     1
  1
1
  7
CONVERTER_11
 73
     1
 44
1.20048019207683
  0
MTEXT
  5
3F0
330
71
100
AcDbEntity
  8
1
 62
     7
100
AcDbMText
 10
-163.8000002812364
 20
12.15000002477683
 30
0.0
 40
3.5
 41
0.0
 71
     5
 72
     1
  1
2
  7
CONVERTER_11
 73
     1
 44
1.20048019207683
  0
MTEXT
  5
3F1
330
71
100
AcDbEntity
  8
1
 62
     7
100
AcDbMText
 10
-113.8000002812364
 20
12.15000002477683
 30
0.0
 40
3.5
 41
0.0
 71
     5
 72
     1
  1
3
  7
CONVERTER_11
 73
     1
 44
1.20048019207683
  0
MTEXT
  5
3F2
330
71
100
AcDbEntity
  8
1
 62
     7
100
AcDbMText
 10
-63.80000028123646
 20
12.15000002477683
 30
0.0
 40
3.5
 41
0.0
 71
     5
 72
     1
  1
4
  7
CONVERTER_11
 73
     1
 44
1.20048019207683
  0
MTEXT
  5
3F3
330
71
100
AcDbEntity
  8
1
 62
     7
100
AcDbMText
 10
-13.80000028123638
 20
12.15000002477683
 30
0.0
 40
3.5
 41
0.0
 71
     5
 72
     1
  1
5
  7
CONVERTER_11
 73
     1
 44
1.20048019207683
  0
MTEXT
  5
3F4
330
71
100
AcDbEntity
  8
1
 62
     7
100
AcDbMText
 10
35.44999971876283
 20
12.15000002477683
 30
0.0
 40
3.5
 41
0.0
 71
     5
 72
     1
  1
6
  7
CONVERTER_11
 73
     1
 44
1.20048019207683
  0
MTEXT
  5
3F5
330
71
100
AcDbEntity
  8
1
 62
     7
100
AcDbMText
 10
-234.8000002812354
 20
192.1500000247769
 30
0.0
 40
3.5
 41
0.0
 71
     5
 72
     1
  1
A
  7
CONVERTER_11
 73
     1
 44
1.20048019207683
  0
MTEXT
  5
3F6
330
71
100
AcDbEntity
  8
1
 62
     7
100
AcDbMText
 10
-234.8000002812354
 20
139.6500000247769
 30
0.0
 40
3.5
 41
0.0
 71
     5
 72
     1
  1
B
  7
CONVERTER_11
 73
     1
 44
1.20048019207683
  0
MTEXT
  5
3F7
330
71
100
AcDbEntity
  8
1
 62
     7
100
AcDbMText
 10
-234.8000002812354
 20
89.65000002477694
 30
0.0
 40
3.5
 41
0.0
 71
     5
 72
     1
  1
C
  7
CONVERTER_11
 73
     1
 44
1.20048019207683
  0
MTEXT
  5
3F8
330
71
100
AcDbEntity
  8
1
 62
     7
100
AcDbMText
 10
-234.8000002812354
 20
37.15000002477694
 30
0.0
 40
3.5
 41
0.0
 71
     5
 72
     1
  1
D
  7
CONVERTER_11
 73
     1
 44
1.20048019207683
  0
MTEXT
  5
3F9
330
71
100
AcDbEntity
  8
1
 62
     3
100
AcDbMText
 10
-48.64480480798648
 20
35.77500002477694
 30
0.0
 40
2.5
 41
0.0
 71
     5
 72
     1
  1
DIN A4
  7
CONVERTER_11
 73
     1
 44
1.20048019207683
  0
MTEXT
  5
3FA
330
71
100
AcDbEntity
  8
1
 62
     2
100
AcDbMText
 10
-37.44480480798646
 20
22.15000002477694
 30
0.0
 40
1.8
 41
0.0
 71
     1
 72
     1
  1
description
  7
CONVERTER_11
 73
     1
 44
1.20048019207683
  0
MTEXT
  5
3FB
330
71
100
AcDbEntity
  8
1
 62
     7
100
AcDbMText
 10
8.12759745538912
 20
17.90000002477717
 30
0.0
 40
3.0
 41
0.0
 71
     5
 72
     1
  1
VAL-MS 350 VF ST
  7
CONVERTER_12
 73
     1
 44
1.20048019207683
  0
TEXT
  5
3FC
330
71
100
AcDbEntity
  8
1
 62
     2
100
AcDbText
 10
-50.40949599817287
 20
15.90000002477683
 30
0.0
 40
1.8
  1
1
 41
0.9
  7
CONVERTER_11
100
AcDbText
  0
TEXT
  5
3FD
330
71
100
AcDbEntity
  8
1
 62
     2
100
AcDbText
 10
-65.19853983764438
 20
15.85075137097493
 30
0.0
 40
1.8
  1
1
 41
0.9
  7
CONVERTER_11
100
AcDbText
  0
TEXT
  5
3FE
330
71
100
AcDbEntity
  8
1
 62
     2
100
AcDbText
 10
-73.84480480798638
 20
15.89098280978527
 30
0.0
 40
1.8
  1
page
 41
0.9
  7
CONVERTER_11
100
AcDbText
  0
TEXT
  5
3FF
330
71
100
AcDbEntity
  8
1
 62
     2
100
AcDbText
 10
-55.64480480798656
 20
15.89098280978533
 30
0.0
 40
1.8
  1
of
 41
0.9
  7
CONVERTER_11
100
AcDbText
  0
MTEXT
  5
400
330
71
100
AcDbEntity
  8
1
 62
     3
100
AcDbMText
 10
-49.44182265637647
 20
201.4413081800757
 30
0.0
 40
1.8
 41
0.0
 71
     7
 72
     1
  3
Transfer or duplication of this document as well as the utilisation or\Pcommunication of its content are not permitted unless express consent\Pis granted. Violations give rise to claims for damages. All rights reserved\Pin case of patent, utility mo
  1
del or design patent registrations.
  7
CONVERTER_11
 73
     1
 44
0.99639855942377
  0
MTEXT
  5
401
330
71
100
AcDbEntity
  8
1
 62
     3
100
AcDbMText
 10
-232.2949324951646
 20
201.4413081800757
 30
0.0
 40
1.8
 41
0.0
 71
     7
 72
     1
  3
Weitergabe sowie Vervielf\U+00e4ltigung dieses Dokuments, Verwertung und \PMitteilung seines Inhalts sind verboten, soweit nicht ausdr\U+00fccklich gestattet. \PZuwiderhandlungen verpflichten zu Schadenersatz. Alle Rechte f\U+00fcr den Fall\Pder Pat
  1
ent-, Gebrauchsmuster- oder Designeintragung vorbehalten.
  7
CONVERTER_11
 73
     1
 44
0.99639855942377
  0
HATCH
  5
402
330
71
100
AcDbEntity
  8
1
  6
Continuous
 62
     2
100
AcDbHatch
 10
0.0
 20
0.0
 30
0.0
210
0.0
220
0.0
230
1.0
  2
_USER
 70
     0
 71
     1
 91
        1
 92
        1
 93
       14
 72
     2
 10
-62.60357553206367
 20
23.47040478669854
 40
1.20565616839095
 50
164.9381082228767
 51
195.0618917770949
 73
     1
 72
     2
 10
-62.18444768860087
 20
23.58319514873335
 40
1.639695123939394
 50
195.0618917770894
 51
275.1581447696395
 73
     1
 72
     2
 10
-62.47330378333678
 20
26.78308573195494
 40
4.852596863498135
 50
275.158144769625
 51
285.979991258353
 73
     1
 72
     1
 10
-61.13737586621897
 20
22.11800342615413
 11
-61.13737586621897
 21
22.99052043295734
 72
     2
 10
-62.31543090824385
 20
24.88087115210723
 40
2.227384008972734
 50
58.06909105004065
 51
71.55192388186738
 73
     0
 72
     2
 10
-61.89726317458306
 20
23.62732537607005
 40
0.9059297849849285
 50
71.55192388184167
 51
113.3722778881292
 73
     0
 72
     2
 10
-62.05370320728508
 20
23.26533335736005
 40
0.5115800601948034
 50
113.3722778881732
 51
151.4785267423044
 73
     0
 72
     2
 10
-61.67634594920477
 20
23.47040478669854
 40
0.9410597353332545
 50
151.4785267422941
 51
208.5214732577331
 73
     0
 72
     2
 10
-62.05370320728508
 20
23.67547621603754
 40
0.5115800601948807
 50
208.5214732576956
 51
246.6277221118002
 73
     0
 72
     2
 10
-61.89726317458306
 20
23.31348419732694
 40
0.9059297849853228
 50
246.6277221118708
 51
288.4480761181465
 73
     0
 72
     2
 10
-62.31543090824385
 20
22.05993842129035
 40
2.227384008973484
 50
288.4480761181326
 51
301.9309089499592
 73
     0
 72
     1
 10
-61.13737586621897
 20
23.95028914044025
 11
-61.13737586621897
 21
24.82280614724354
 72
     2
 10
-62.47330378333678
 20
20.15772384144265
 40
4.852596863498069
 50
74.0200087416472
 51
84.84185523037496
 73
     1
 72
     2
 10
-62.18444768860087
 20
23.35761442466364
 40
1.639695123940503
 50
84.84185523036234
 51
164.9381082228866
 73
     1
 97
       14
330
3D7
330
2F0
330
3A6
330
3D6
330
3A7
330
3A8
330
3D5
330
3D4
330
3D3
330
2F1
330
3A9
330
3AA
330
3AB
330
3AC
 75
     1
 76
     0
 52
45.0
 41
0.1
 77
     0
 78
     1
 53
45.0
 43
0.0
 44
0.0
 45
-0.0707106781186548
 46
0.0707106781186548
 79
     0
 98
        1
 10
0.0
 20
0.0
  0
HATCH
  5
403
330
71
100
AcDbEntity
  8
1
  6
Continuous
 62
     2
100
AcDbHatch
 10
0.0
 20
0.0
 30
0.0
210
0.0
220
0.0
230
1.0
  2
_USER
 70
     0
 71
     1
 91
        1
 92
        1
 93
       14
 72
     2
 10
-62.60357553206367
 20
23.47040478669854
 40
1.20565616839095
 50
164.9381082228767
 51
195.0618917770949
 73
     1
 72
     2
 10
-62.18444768860087
 20
23.58319514873335
 40
1.639695123939394
 50
195.0618917770894
 51
275.1581447696395
 73
     1
 72
     2
 10
-62.47330378333678
 20
26.78308573195494
 40
4.852596863498135
 50
275.158144769625
 51
285.979991258353
 73
     1
 72
     1
 10
-61.13737586621897
 20
22.11800342615413
 11
-61.13737586621897
 21
22.99052043295734
 72
     2
 10
-62.31543090824385
 20
24.88087115210723
 40
2.227384008972734
 50
58.06909105004065
 51
71.55192388186738
 73
     0
 72
     2
 10
-61.89726317458306
 20
23.62732537607005
 40
0.9059297849849285
 50
71.55192388184167
 51
113.3722778881292
 73
     0
 72
     2
 10
-62.05370320728508
 20
23.26533335736005
 40
0.5115800601948034
 50
113.3722778881732
 51
151.4785267423044
 73
     0
 72
     2
 10
-61.67634594920477
 20
23.47040478669854
 40
0.9410597353332545
 50
151.4785267422941
 51
208.5214732577331
 73
     0
 72
     2
 10
-62.05370320728508
 20
23.67547621603754
 40
0.5115800601948807
 50
208.5214732576956
 51
246.6277221118002
 73
     0
 72
     2
 10
-61.89726317458306
 20
23.31348419732694
 40
0.9059297849853228
 50
246.6277221118708
 51
288.4480761181465
 73
     0
 72
     2
 10
-62.31543090824385
 20
22.05993842129035
 40
2.227384008973484
 50
288.4480761181326
 51
301.9309089499592
 73
     0
 72
     1
 10
-61.13737586621897
 20
23.95028914044025
 11
-61.13737586621897
 21
24.82280614724354
 72
     2
 10
-62.47330378333678
 20
20.15772384144265
 40
4.852596863498069
 50
74.0200087416472
 51
84.84185523037496
 73
     1
 72
     2
 10
-62.18444768860087
 20
23.35761442466364
 40
1.639695123940503
 50
84.84185523036234
 51
164.9381082228866
 73
     1
 97
       14
330
3D7
330
2F0
330
3A6
330
3D6
330
3A7
330
3A8
330
3D5
330
3D4
330
3D3
330
2F1
330
3A9
330
3AA
330
3AB
330
3AC
 75
     1
 76
     0
 52
45.0
 41
0.1
 77
     0
 78
     1
 53
45.0
 43
0.0
 44
0.0
 45
-0.0707106781186548
 46
0.0707106781186548
 79
     0
 98
        1
 10
0.0
 20
0.0
  0
HATCH
  5
404
330
71
100
AcDbEntity
  8
1
  6
Continuous
 62
     2
100
AcDbHatch
 10
0.0
 20
0.0
 30
0.0
210
0.0
220
0.0
230
1.0
  2
_USER
 70
     0
 71
     1
 91
        1
 92
        1
 93
       18
 72
     2
 10
-46.08174620934796
 20
23.35761442466364
 40
1.639695123940211
 50
90.0
 51
164.938108222895
 73
     1
 72
     2
 10
-46.50087405280956
 20
23.47040478669854
 40
1.205656168393008
 50
164.9381082229031
 51
195.0618917770962
 73
     1
 72
     2
 10
-46.08174620934796
 20
23.58319514873335
 40
1.639695123940442
 50
195.0618917771013
 51
275.1581447696765
 73
     1
 72
     2
 10
-46.37060230408378
 20
26.78308573195494
 40
4.852596863498825
 50
275.1581447696364
 51
285.9799912583387
 73
     1
 72
     1
 10
-45.03467438696706
 20
22.11800342615354
 11
-45.03467438696706
 21
22.99052043295686
 72
     2
 10
-46.21272942899097
 20
24.88087115210664
 40
2.227384008972746
 50
58.0690910500604
 51
71.55192388186651
 73
     0
 72
     2
 10
-45.79456169532907
 20
23.62732537607005
 40
0.9059297849852838
 50
71.55192388191786
 51
113.3722778881812
 73
     0
 72
     2
 10
-45.95100172803217
 20
23.26533335736005
 40
0.5115800601960261
 50
113.3722778881549
 51
151.4785267423141
 73
     0
 72
     2
 10
-45.57364446995078
 20
23.47040478669854
 40
0.941059735334897
 50
151.4785267423307
 51
208.5214732576372
 73
     0
 72
     2
 10
-45.95100172803217
 20
23.67547621603754
 40
0.5115800601944053
 50
208.5214732575768
 51
250.6628567805152
 73
     0
 72
     2
 10
-45.80433172992846
 20
23.25752123565465
 40
0.9545230068260899
 50
250.6628567805679
 51
270.0
 73
     0
 72
     1
 10
-45.80433172992846
 20
24.21204424248074
 11
-44.70069243036036
 21
24.21204424248074
 72
     1
 10
-44.70069243036036
 20
24.21204424248074
 11
-44.70069243036036
 21
21.94350002479325
 72
     1
 10
-44.70069243036036
 20
21.94350002479325
 11
-43.50789972819266
 21
21.94350002479325
 72
     1
 10
-43.50789972819266
 20
21.94350002479325
 11
-43.50789972819266
 21
24.21204424248074
 72
     1
 10
-43.50789972819266
 20
24.21204424248074
 11
-42.69680069071927
 21
24.21204424248074
 72
     1
 10
-42.69680069071927
 20
24.21204424248074
 11
-42.69680069071927
 21
24.99730954860434
 72
     1
 10
-42.69680069071927
 20
24.99730954860434
 11
-46.08174620934796
 21
24.99730954860385
 97
       18
330
356
330
355
330
354
330
353
330
358
330
2F2
330
3D0
330
3B1
330
3CF
330
3B2
330
3CE
330
3CD
330
2F3
330
3CC
330
3CB
330
3B3
330
3B4
330
357
 75
     1
 76
     0
 52
45.0
 41
0.1
 77
     0
 78
     1
 53
45.0
 43
0.0
 44
0.0
 45
-0.0707106781186548
 46
0.0707106781186548
 79
     0
 98
        1
 10
0.0
 20
0.0
  0
HATCH
  5
405
330
71
100
AcDbEntity
  8
1
  6
Continuous
 62
     2
100
AcDbHatch
 10
0.0
 20
0.0
 30
0.0
210
0.0
220
0.0
230
1.0
  2
_USER
 70
     0
 71
     1
 91
        1
 92
        1
 93
       18
 72
     2
 10
-46.08174620934796
 20
23.35761442466364
 40
1.639695123940211
 50
90.0
 51
164.938108222895
 73
     1
 72
     2
 10
-46.50087405280956
 20
23.47040478669854
 40
1.205656168393008
 50
164.9381082229031
 51
195.0618917770962
 73
     1
 72
     2
 10
-46.08174620934796
 20
23.58319514873335
 40
1.639695123940442
 50
195.0618917771013
 51
275.1581447696765
 73
     1
 72
     2
 10
-46.37060230408378
 20
26.78308573195494
 40
4.852596863498825
 50
275.1581447696364
 51
285.9799912583387
 73
     1
 72
     1
 10
-45.03467438696706
 20
22.11800342615354
 11
-45.03467438696706
 21
22.99052043295686
 72
     2
 10
-46.21272942899097
 20
24.88087115210664
 40
2.227384008972746
 50
58.0690910500604
 51
71.55192388186651
 73
     0
 72
     2
 10
-45.79456169532907
 20
23.62732537607005
 40
0.9059297849852838
 50
71.55192388191786
 51
113.3722778881812
 73
     0
 72
     2
 10
-45.95100172803217
 20
23.26533335736005
 40
0.5115800601960261
 50
113.3722778881549
 51
151.4785267423141
 73
     0
 72
     2
 10
-45.57364446995078
 20
23.47040478669854
 40
0.941059735334897
 50
151.4785267423307
 51
208.5214732576372
 73
     0
 72
     2
 10
-45.95100172803217
 20
23.67547621603754
 40
0.5115800601944053
 50
208.5214732575768
 51
250.6628567805152
 73
     0
 72
     2
 10
-45.80433172992846
 20
23.25752123565465
 40
0.9545230068260899
 50
250.6628567805679
 51
270.0
 73
     0
 72
     1
 10
-45.80433172992846
 20
24.21204424248074
 11
-44.70069243036036
 21
24.21204424248074
 72
     1
 10
-44.70069243036036
 20
24.21204424248074
 11
-44.70069243036036
 21
21.94350002479325
 72
     1
 10
-44.70069243036036
 20
21.94350002479325
 11
-43.50789972819266
 21
21.94350002479325
 72
     1
 10
-43.50789972819266
 20
21.94350002479325
 11
-43.50789972819266
 21
24.21204424248074
 72
     1
 10
-43.50789972819266
 20
24.21204424248074
 11
-42.69680069071927
 21
24.21204424248074
 72
     1
 10
-42.69680069071927
 20
24.21204424248074
 11
-42.69680069071927
 21
24.99730954860434
 72
     1
 10
-42.69680069071927
 20
24.99730954860434
 11
-46.08174620934796
 21
24.99730954860385
 97
       18
330
356
330
355
330
354
330
353
330
358
330
2F2
330
3D0
330
3B1
330
3CF
330
3B2
330
3CE
330
3CD
330
2F3
330
3CC
330
3CB
330
3B3
330
3B4
330
357
 75
     1
 76
     0
 52
45.0
 41
0.1
 77
     0
 78
     1
 53
45.0
 43
0.0
 44
0.0
 45
-0.0707106781186548
 46
0.0707106781186548
 79
     0
 98
        1
 10
0.0
 20
0.0
  0
HATCH
  5
406
330
71
100
AcDbEntity
  8
1
  6
Continuous
 62
     2
100
AcDbHatch
 10
0.0
 20
0.0
 30
0.0
210
0.0
220
0.0
230
1.0
  2
_USER
 70
     0
 71
     1
 91
        4
 92
        1
 93
        8
 72
     2
 10
-70.18390530604097
 20
27.93225540937675
 40
0.4242446153837989
 50
90.0
 51
180.0
 73
     1
 72
     1
 10
-70.60814992142377
 20
27.93225540937675
 11
-70.60814992142377
 21
22.36774464017654
 72
     2
 10
-70.18390530604097
 20
22.36774464017654
 40
0.4242446153828041
 50
180.0
 51
270.0
 73
     1
 72
     1
 10
-70.18390530604097
 20
21.94350002479325
 11
-64.71059321532417
 21
21.94350002479325
 72
     2
 10
-64.71059321532417
 20
22.36774464017654
 40
0.4242446153832908
 50
270.0
 51
360.0
 73
     1
 72
     1
 10
-64.28634859994028
 20
22.36774464017654
 11
-64.28634859994028
 21
27.93225540937675
 72
     2
 10
-64.71059321532417
 20
27.93225540937675
 40
0.4242446153838841
 50
0.0
 51
90.0
 73
     1
 72
     1
 10
-64.71059321532417
 20
28.35650002476055
 11
-70.18390530604097
 21
28.35650002476055
 97
        8
330
3C4
330
321
330
3C3
330
322
330
3BA
330
31F
330
3C5
330
320
 92
       16
 93
        1
 72
     2
 10
-67.56431965552346
 20
25.61337318102125
 40
0.4709789327785074
 50
0.0
 51
360.0
 73
     1
 97
        1
330
3D8
 92
       16
 93
        8
 72
     2
 10
-67.54050464085066
 20
25.61337318102125
 40
0.9118481501444653
 50
295.3740086781763
 51
424.6259913218074
 73
     1
 72
     2
 10
-67.01446194276278
 20
26.72251478098906
 40
0.315716923076792
 50
115.3740086783518
 51
180.0
 73
     0
 72
     1
 10
-67.33017886583957
 20
26.72251478098906
 11
-67.33017886583957
 21
27.32805006949585
 72
     2
 10
-67.01446194276278
 20
27.32805006949585
 40
0.315716923076064
 50
180.0
 51
269.8110329574541
 73
     0
 72
     2
 10
-67.00884580745276
 20
25.62521512192674
 40
2.018561131933266
 50
269.8110329575858
 51
450.1889670424142
 73
     0
 72
     2
 10
-67.01446194276278
 20
23.92238017435776
 40
0.315716923076792
 50
90.18896704254585
 51
180.0
 73
     0
 72
     1
 10
-67.33017886583957
 20
23.92238017435776
 11
-67.33017886583957
 21
24.50423158105284
 72
     2
 10
-67.01446194276278
 20
24.50423158105284
 40
0.3157169230765264
 50
180.0
 51
244.6259913216475
 73
     0
 97
        8
330
3D2
330
3AE
330
35A
330
3D1
330
3AF
330
3B0
330
359
330
3AD
 92
       16
 93
       12
 72
     1
 10
-69.59001062929448
 20
22.65605558035014
 11
-68.11417736828486
 21
22.65605558035014
 72
     2
 10
-68.11417736828486
 20
22.97177250342685
 40
0.3157169230767067
 50
270.0
 51
360.0
 73
     1
 72
     1
 10
-67.79846044520826
 20
22.97177250342685
 11
-67.79846044520826
 21
24.50254343495845
 72
     2
 10
-68.11417736828486
 20
24.50254343495845
 40
0.315716923076593
 50
0.0
 51
64.80558935146027
 73
     1
 72
     2
 10
-67.59159292070987
 20
25.61337318102125
 40
0.9118975235576114
 50
115.1944106485121
 51
244.8055893514717
 73
     0
 72
     2
 10
-68.11417736828486
 20
26.72420292708344
 40
0.3157169230761203
 50
295.1944106485397
 51
360.0
 73
     1
 72
     1
 10
-67.79846044520826
 20
26.72420292708344
 11
-67.79846044520826
 21
27.32822754614395
 72
     2
 10
-68.11417736828486
 20
27.32822754614395
 40
0.315716923076593
 50
0.0
 51
90.0
 73
     1
 72
     1
 10
-68.11417736828486
 20
27.64394446922015
 11
-69.59001062929448
 21
27.64394446922015
 72
     2
 10
-69.59001062929448
 20
27.32822754614395
 40
0.3157169230761987
 50
90.0
 51
180.0
 73
     1
 72
     1
 10
-69.90572755237017
 20
27.32822754614395
 11
-69.90572755237017
 21
22.97177250342685
 72
     2
 10
-69.59001062929448
 20
22.97177250342685
 40
0.3157169230756836
 50
180.0
 51
270.0
 73
     1
 97
       12
330
326
330
3B7
330
325
330
3C8
330
324
330
3C7
330
3B8
330
3B9
330
323
330
3C6
330
31E
330
3C9
 75
     1
 76
     0
 52
45.0
 41
0.1
 77
     0
 78
     1
 53
45.0
 43
0.0
 44
0.0
 45
-0.0707106781186548
 46
0.0707106781186548
 79
     0
 98
        1
 10
0.0
 20
0.0
  0
HATCH
  5
407
330
71
100
AcDbEntity
  8
1
  6
Continuous
 62
     2
100
AcDbHatch
 10
0.0
 20
0.0
 30
0.0
210
0.0
220
0.0
230
1.0
  2
_USER
 70
     0
 71
     1
 91
        4
 92
        1
 93
        8
 72
     2
 10
-70.18390530604097
 20
27.93225540937675
 40
0.4242446153837989
 50
90.0
 51
180.0
 73
     1
 72
     1
 10
-70.60814992142377
 20
27.93225540937675
 11
-70.60814992142377
 21
22.36774464017654
 72
     2
 10
-70.18390530604097
 20
22.36774464017654
 40
0.4242446153828041
 50
180.0
 51
270.0
 73
     1
 72
     1
 10
-70.18390530604097
 20
21.94350002479325
 11
-64.71059321532417
 21
21.94350002479325
 72
     2
 10
-64.71059321532417
 20
22.36774464017654
 40
0.4242446153832908
 50
270.0
 51
360.0
 73
     1
 72
     1
 10
-64.28634859994028
 20
22.36774464017654
 11
-64.28634859994028
 21
27.93225540937675
 72
     2
 10
-64.71059321532417
 20
27.93225540937675
 40
0.4242446153838841
 50
0.0
 51
90.0
 73
     1
 72
     1
 10
-64.71059321532417
 20
28.35650002476055
 11
-70.18390530604097
 21
28.35650002476055
 97
        8
330
3C4
330
321
330
3C3
330
322
330
3BA
330
31F
330
3C5
330
320
 92
       16
 93
        1
 72
     2
 10
-67.56431965552346
 20
25.61337318102125
 40
0.4709789327785074
 50
0.0
 51
360.0
 73
     1
 97
        1
330
3D8
 92
       16
 93
        8
 72
     2
 10
-67.54050464085066
 20
25.61337318102125
 40
0.9118481501444653
 50
295.3740086781763
 51
424.6259913218074
 73
     1
 72
     2
 10
-67.01446194276278
 20
26.72251478098906
 40
0.315716923076792
 50
115.3740086783518
 51
180.0
 73
     0
 72
     1
 10
-67.33017886583957
 20
26.72251478098906
 11
-67.33017886583957
 21
27.32805006949585
 72
     2
 10
-67.01446194276278
 20
27.32805006949585
 40
0.315716923076064
 50
180.0
 51
269.8110329574541
 73
     0
 72
     2
 10
-67.00884580745276
 20
25.62521512192674
 40
2.018561131933266
 50
269.8110329575858
 51
450.1889670424142
 73
     0
 72
     2
 10
-67.01446194276278
 20
23.92238017435776
 40
0.315716923076792
 50
90.18896704254585
 51
180.0
 73
     0
 72
     1
 10
-67.33017886583957
 20
23.92238017435776
 11
-67.33017886583957
 21
24.50423158105284
 72
     2
 10
-67.01446194276278
 20
24.50423158105284
 40
0.3157169230765264
 50
180.0
 51
244.6259913216475
 73
     0
 97
        8
330
3D2
330
3AE
330
35A
330
3D1
330
3AF
330
3B0
330
359
330
3AD
 92
       16
 93
       12
 72
     1
 10
-69.59001062929448
 20
22.65605558035014
 11
-68.11417736828486
 21
22.65605558035014
 72
     2
 10
-68.11417736828486
 20
22.97177250342685
 40
0.3157169230767067
 50
270.0
 51
360.0
 73
     1
 72
     1
 10
-67.79846044520826
 20
22.97177250342685
 11
-67.79846044520826
 21
24.50254343495845
 72
     2
 10
-68.11417736828486
 20
24.50254343495845
 40
0.315716923076593
 50
0.0
 51
64.80558935146027
 73
     1
 72
     2
 10
-67.59159292070987
 20
25.61337318102125
 40
0.9118975235576114
 50
115.1944106485121
 51
244.8055893514717
 73
     0
 72
     2
 10
-68.11417736828486
 20
26.72420292708344
 40
0.3157169230761203
 50
295.1944106485397
 51
360.0
 73
     1
 72
     1
 10
-67.79846044520826
 20
26.72420292708344
 11
-67.79846044520826
 21
27.32822754614395
 72
     2
 10
-68.11417736828486
 20
27.32822754614395
 40
0.315716923076593
 50
0.0
 51
90.0
 73
     1
 72
     1
 10
-68.11417736828486
 20
27.64394446922015
 11
-69.59001062929448
 21
27.64394446922015
 72
     2
 10
-69.59001062929448
 20
27.32822754614395
 40
0.3157169230761987
 50
90.0
 51
180.0
 73
     1
 72
     1
 10
-69.90572755237017
 20
27.32822754614395
 11
-69.90572755237017
 21
22.97177250342685
 72
     2
 10
-69.59001062929448
 20
22.97177250342685
 40
0.3157169230756836
 50
180.0
 51
270.0
 73
     1
 97
       12
330
326
330
3B7
330
325
330
3C8
330
324
330
3C7
330
3B8
330
3B9
330
323
330
3C6
330
31E
330
3C9
 75
     1
 76
     0
 52
45.0
 41
0.1
 77
     0
 78
     1
 53
45.0
 43
0.0
 44
0.0
 45
-0.0707106781186548
 46
0.0707106781186548
 79
     0
 98
        1
 10
0.0
 20
0.0
  0
HATCH
  5
408
330
71
100
AcDbEntity
  8
1
  6
Continuous
 62
     2
100
AcDbHatch
 10
0.0
 20
0.0
 30
0.0
210
0.0
220
0.0
230
1.0
  2
_USER
 70
     0
 71
     1
 91
        2
 92
        1
 93
       12
 72
     2
 10
-55.50874130205168
 20
26.82959526287286
 40
1.526904761905879
 50
90.0
 51
270.0
 73
     1
 72
     1
 10
-55.50874130205168
 20
25.30269050096754
 11
-52.35842157827068
 21
25.30269050096754
 72
     1
 10
-52.35842157827068
 20
25.30269050096754
 11
-52.35842157827068
 21
26.00070410641004
 72
     1
 10
-52.35842157827068
 20
26.00070410641004
 11
-53.69434940469836
 21
26.00070410641004
 72
     1
 10
-53.69434940469836
 20
26.00070410641004
 11
-53.69434940469836
 21
26.48058846015175
 72
     1
 10
-53.69434940469836
 20
26.48058846015175
 11
-52.35842157827068
 21
26.48058846015175
 72
     1
 10
-52.35842157827068
 20
26.48058846015175
 11
-52.35842157827068
 21
27.17860206559405
 72
     1
 10
-52.35842157827068
 20
27.17860206559405
 11
-53.69434940469836
 21
27.17860206559405
 72
     1
 10
-53.69434940469836
 20
27.17860206559405
 11
-53.69434940469836
 21
27.65848641933576
 72
     1
 10
-53.69434940469836
 20
27.65848641933576
 11
-52.35842157827068
 21
27.65848641933576
 72
     1
 10
-52.35842157827068
 20
27.65848641933576
 11
-52.35842157827068
 21
28.35650002477874
 72
     1
 10
-52.35842157827068
 20
28.35650002477874
 11
-55.50874130205168
 21
28.35650002477874
 97
       12
330
315
330
30F
330
336
330
335
330
334
330
333
330
310
330
311
330
312
330
313
330
3B5
330
314
 92
       16
 93
        4
 72
     2
 10
-55.09272925554018
 20
26.82959526287286
 40
0.7717997786796724
 50
141.8795802028404
 51
218.1204197971566
 73
     1
 72
     2
 10
-55.29246929188648
 20
26.67286408475243
 40
0.5179085730134315
 50
218.1204197971516
 51
321.8795802028571
 73
     1
 72
     2
 10
-55.49220932823266
 20
26.82959526287286
 40
0.7717997786796417
 50
321.8795802028433
 51
398.1204197971596
 73
     1
 72
     2
 10
-55.29246929188648
 20
26.98632644099334
 40
0.5179085730135321
 50
38.12041979714286
 51
141.8795802028484
 73
     1
 97
        4
330
3C2
330
3C1
330
3BC
330
3BB
 75
     1
 76
     0
 52
45.0
 41
0.1
 77
     0
 78
     1
 53
45.0
 43
0.0
 44
0.0
 45
-0.0707106781186548
 46
0.0707106781186548
 79
     0
 98
        1
 10
0.0
 20
0.0
  0
HATCH
  5
409
330
71
100
AcDbEntity
  8
1
  6
Continuous
 62
     2
100
AcDbHatch
 10
0.0
 20
0.0
 30
0.0
210
0.0
220
0.0
230
1.0
  2
_USER
 70
     0
 71
     1
 91
        2
 92
        1
 93
       12
 72
     2
 10
-55.50874130205168
 20
26.82959526287286
 40
1.526904761905879
 50
90.0
 51
270.0
 73
     1
 72
     1
 10
-55.50874130205168
 20
25.30269050096754
 11
-52.35842157827068
 21
25.30269050096754
 72
     1
 10
-52.35842157827068
 20
25.30269050096754
 11
-52.35842157827068
 21
26.00070410641004
 72
     1
 10
-52.35842157827068
 20
26.00070410641004
 11
-53.69434940469836
 21
26.00070410641004
 72
     1
 10
-53.69434940469836
 20
26.00070410641004
 11
-53.69434940469836
 21
26.48058846015175
 72
     1
 10
-53.69434940469836
 20
26.48058846015175
 11
-52.35842157827068
 21
26.48058846015175
 72
     1
 10
-52.35842157827068
 20
26.48058846015175
 11
-52.35842157827068
 21
27.17860206559405
 72
     1
 10
-52.35842157827068
 20
27.17860206559405
 11
-53.69434940469836
 21
27.17860206559405
 72
     1
 10
-53.69434940469836
 20
27.17860206559405
 11
-53.69434940469836
 21
27.65848641933576
 72
     1
 10
-53.69434940469836
 20
27.65848641933576
 11
-52.35842157827068
 21
27.65848641933576
 72
     1
 10
-52.35842157827068
 20
27.65848641933576
 11
-52.35842157827068
 21
28.35650002477874
 72
     1
 10
-52.35842157827068
 20
28.35650002477874
 11
-55.50874130205168
 21
28.35650002477874
 97
       12
330
315
330
30F
330
336
330
335
330
334
330
333
330
310
330
311
330
312
330
313
330
3B5
330
314
 92
       16
 93
        4
 72
     2
 10
-55.09272925554018
 20
26.82959526287286
 40
0.7717997786796724
 50
141.8795802028404
 51
218.1204197971566
 73
     1
 72
     2
 10
-55.29246929188648
 20
26.67286408475243
 40
0.5179085730134315
 50
218.1204197971516
 51
321.8795802028571
 73
     1
 72
     2
 10
-55.49220932823266
 20
26.82959526287286
 40
0.7717997786796417
 50
321.8795802028433
 51
398.1204197971596
 73
     1
 72
     2
 10
-55.29246929188648
 20
26.98632644099334
 40
0.5179085730135321
 50
38.12041979714286
 51
141.8795802028484
 73
     1
 97
        4
330
3C2
330
3C1
330
3BC
330
3BB
 75
     1
 76
     0
 52
45.0
 41
0.1
 77
     0
 78
     1
 53
45.0
 43
0.0
 44
0.0
 45
-0.0707106781186548
 46
0.0707106781186548
 79
     0
 98
        1
 10
0.0
 20
0.0
  0
HATCH
  5
40A
330
71
100
AcDbEntity
  8
1
  6
Continuous
 62
     2
100
AcDbHatch
 10
0.0
 20
0.0
 30
0.0
210
0.0
220
0.0
230
1.0
  2
_USER
 70
     0
 71
     1
 91
        2
 92
        1
 93
        4
 72
     2
 10
-59.53435666451327
 20
23.47040478669854
 40
1.45803408365149
 50
117.5481481756624
 51
242.4518518243376
 73
     1
 72
     2
 10
-59.25341677267997
 20
24.00897979700184
 40
2.065479772208505
 50
242.4518518243401
 51
297.5481481756873
 73
     1
 72
     2
 10
-58.97247688084667
 20
23.47040478669854
 40
1.458034083652009
 50
297.5481481757013
 51
422.4518518242987
 73
     1
 72
     2
 10
-59.25341677267997
 20
22.93182977639575
 40
2.065479772208568
 50
62.45185182430615
 51
117.5481481756664
 73
     1
 97
        4
330
3C0
330
3BD
330
3BF
330
3BE
 92
       16
 93
        4
 72
     2
 10
-59.25341677267997
 20
23.62713596481905
 40
0.5179085730132954
 50
38.12041979714641
 51
141.8795802028594
 73
     1
 72
     2
 10
-59.05367673633387
 20
23.47040478669854
 40
0.7717997786794588
 50
141.8795802028367
 51
218.1204197971687
 73
     1
 72
     2
 10
-59.25341677267997
 20
23.31367360857854
 40
0.5179085730137332
 50
218.1204197971929
 51
321.8795802028013
 73
     1
 72
     2
 10
-59.45315680902638
 20
23.47040478669854
 40
0.7717997786796947
 50
321.8795802028417
 51
398.1204197971529
 73
     1
 97
        4
330
3A3
330
3A4
330
3A5
330
3A2
 75
     1
 76
     0
 52
45.0
 41
0.1
 77
     0
 78
     1
 53
45.0
 43
0.0
 44
0.0
 45
-0.0707106781186548
 46
0.0707106781186548
 79
     0
 98
        1
 10
0.0
 20
0.0
  0
HATCH
  5
40B
330
71
100
AcDbEntity
  8
1
  6
Continuous
 62
     2
100
AcDbHatch
 10
0.0
 20
0.0
 30
0.0
210
0.0
220
0.0
230
1.0
  2
_USER
 70
     0
 71
     1
 91
        2
 92
        1
 93
        4
 72
     2
 10
-59.53435666451327
 20
23.47040478669854
 40
1.45803408365149
 50
117.5481481756624
 51
242.4518518243376
 73
     1
 72
     2
 10
-59.25341677267997
 20
24.00897979700184
 40
2.065479772208505
 50
242.4518518243401
 51
297.5481481756873
 73
     1
 72
     2
 10
-58.97247688084667
 20
23.47040478669854
 40
1.458034083652009
 50
297.5481481757013
 51
422.4518518242987
 73
     1
 72
     2
 10
-59.25341677267997
 20
22.93182977639575
 40
2.065479772208568
 50
62.45185182430615
 51
117.5481481756664
 73
     1
 97
        4
330
3C0
330
3BD
330
3BF
330
3BE
 92
       16
 93
        4
 72
     2
 10
-59.25341677267997
 20
23.62713596481905
 40
0.5179085730132954
 50
38.12041979714641
 51
141.8795802028594
 73
     1
 72
     2
 10
-59.05367673633387
 20
23.47040478669854
 40
0.7717997786794588
 50
141.8795802028367
 51
218.1204197971687
 73
     1
 72
     2
 10
-59.25341677267997
 20
23.31367360857854
 40
0.5179085730137332
 50
218.1204197971929
 51
321.8795802028013
 73
     1
 72
     2
 10
-59.45315680902638
 20
23.47040478669854
 40
0.7717997786796947
 50
321.8795802028417
 51
398.1204197971529
 73
     1
 97
        4
330
3A3
330
3A4
330
3A5
330
3A2
 75
     1
 76
     0
 52
45.0
 41
0.1
 77
     0
 78
     1
 53
45.0
 43
0.0
 44
0.0
 45
-0.0707106781186548
 46
0.0707106781186548
 79
     0
 98
        1
 10
0.0
 20
0.0
  0
HATCH
  5
40C
330
71
100
AcDbEntity
  8
1
  6
Continuous
 62
     2
100
AcDbHatch
 10
0.0
 20
0.0
 30
0.0
210
0.0
220
0.0
230
1.0
  2
_USER
 70
     0
 71
     1
 91
        2
 92
        1
 93
        6
 72
     1
 10
-63.80923151907348
 20
28.35650002477874
 11
-63.80923151907348
 21
25.30269050096754
 72
     1
 10
-63.80923151907348
 20
25.30269050096754
 11
-62.56872710881936
 21
25.30269050096754
 72
     1
 10
-62.56872710881936
 20
25.30269050096754
 11
-62.56872710881936
 21
26.24576874211135
 72
     1
 10
-62.56872710881936
 20
26.24576874211135
 11
-61.80995952103908
 21
26.24576874211135
 72
     2
 10
-61.80995952103908
 20
27.30113438344506
 40
1.055365641333712
 50
270.0
 51
450.0
 73
     1
 72
     1
 10
-61.80995952103908
 20
28.35650002477874
 11
-63.80923151907348
 21
28.35650002477874
 97
        6
330
3CA
330
327
330
31D
330
31C
330
329
330
328
 92
       16
 93
        4
 72
     1
 10
-62.25143204727746
 20
27.69339417933864
 11
-62.56872710881936
 21
27.69339417933864
 72
     1
 10
-62.56872710881936
 20
27.69339417933864
 11
-62.56872710881936
 21
26.98766652999643
 72
     1
 10
-62.56872710881936
 20
26.98766652999643
 11
-62.25143204727746
 21
26.98766652999643
 72
     2
 10
-62.25143204727746
 20
27.34053035466755
 40
0.3528638246711182
 50
270.0
 51
450.0
 73
     1
 97
        4
330
32A
330
31B
330
32B
330
3B6
 75
     1
 76
     0
 52
45.0
 41
0.1
 77
     0
 78
     1
 53
45.0
 43
0.0
 44
0.0
 45
-0.0707106781186548
 46
0.0707106781186548
 79
     0
 98
        1
 10
0.0
 20
0.0
  0
HATCH
  5
40D
330
71
100
AcDbEntity
  8
1
  6
Continuous
 62
     2
100
AcDbHatch
 10
0.0
 20
0.0
 30
0.0
210
0.0
220
0.0
230
1.0
  2
_USER
 70
     0
 71
     1
 91
        2
 92
        1
 93
        6
 72
     1
 10
-63.80923151907348
 20
28.35650002477874
 11
-63.80923151907348
 21
25.30269050096754
 72
     1
 10
-63.80923151907348
 20
25.30269050096754
 11
-62.56872710881936
 21
25.30269050096754
 72
     1
 10
-62.56872710881936
 20
25.30269050096754
 11
-62.56872710881936
 21
26.24576874211135
 72
     1
 10
-62.56872710881936
 20
26.24576874211135
 11
-61.80995952103908
 21
26.24576874211135
 72
     2
 10
-61.80995952103908
 20
27.30113438344506
 40
1.055365641333712
 50
270.0
 51
450.0
 73
     1
 72
     1
 10
-61.80995952103908
 20
28.35650002477874
 11
-63.80923151907348
 21
28.35650002477874
 97
        6
330
3CA
330
327
330
31D
330
31C
330
329
330
328
 92
       16
 93
        4
 72
     1
 10
-62.25143204727746
 20
27.69339417933864
 11
-62.56872710881936
 21
27.69339417933864
 72
     1
 10
-62.56872710881936
 20
27.69339417933864
 11
-62.56872710881936
 21
26.98766652999643
 72
     1
 10
-62.56872710881936
 20
26.98766652999643
 11
-62.25143204727746
 21
26.98766652999643
 72
     2
 10
-62.25143204727746
 20
27.34053035466755
 40
0.3528638246711182
 50
270.0
 51
450.0
 73
     1
 97
        4
330
32A
330
31B
330
32B
330
3B6
 75
     1
 76
     0
 52
45.0
 41
0.1
 77
     0
 78
     1
 53
45.0
 43
0.0
 44
0.0
 45
-0.0707106781186548
 46
0.0707106781186548
 79
     0
 98
        1
 10
0.0
 20
0.0
  0
HATCH
  5
40E
330
71
100
AcDbEntity
  8
1
  6
Continuous
 62
     2
100
AcDbHatch
 10
0.0
 20
0.0
 30
0.0
210
0.0
220
0.0
230
1.0
  2
_USER
 70
     0
 71
     1
 91
        1
 92
        1
 93
       12
 72
     1
 10
-44.19494832464028
 20
28.35650002477874
 11
-42.79222410689306
 21
28.35650002477874
 72
     1
 10
-42.79222410689306
 20
28.35650002477874
 11
-44.09475373765957
 21
26.88354949474254
 72
     1
 10
-44.09475373765957
 20
26.88354949474254
 11
-42.69680069071927
 21
25.30269050096754
 72
     1
 10
-42.69680069071927
 20
25.30269050096754
 11
-44.09952490846757
 21
25.30269050096754
 72
     1
 10
-44.09952490846757
 20
25.30269050096754
 11
-44.79611584653307
 21
26.09042228626126
 72
     1
 10
-44.79611584653307
 20
26.09042228626126
 11
-45.49270678459877
 21
25.30269050096754
 72
     1
 10
-45.49270678459877
 20
25.30269050096754
 11
-46.89543100234698
 21
25.30269050096754
 72
     1
 10
-46.89543100234698
 20
25.30269050096754
 11
-45.49747795540668
 21
26.88354949474254
 72
     1
 10
-45.49747795540668
 20
26.88354949474254
 11
-46.80000758617416
 21
28.35650002477874
 72
     1
 10
-46.80000758617416
 20
28.35650002477874
 11
-45.39728336842487
 21
28.35650002477874
 72
     1
 10
-45.39728336842487
 20
28.35650002477874
 11
-44.79611584653307
 21
27.67667670322325
 72
     1
 10
-44.79611584653307
 20
27.67667670322325
 11
-44.19494832464028
 21
28.35650002477874
 97
       12
330
2F6
330
34F
330
34E
330
34D
330
34C
330
2F7
330
2F8
330
2F4
330
2F5
330
352
330
351
330
350
 75
     1
 76
     0
 52
45.0
 41
0.1
 77
     0
 78
     1
 53
45.0
 43
0.0
 44
0.0
 45
-0.0707106781186548
 46
0.0707106781186548
 79
     0
 98
        1
 10
0.0
 20
0.0
  0
HATCH
  5
40F
330
71
100
AcDbEntity
  8
1
  6
Continuous
 62
     2
100
AcDbHatch
 10
0.0
 20
0.0
 30
0.0
210
0.0
220
0.0
230
1.0
  2
_USER
 70
     0
 71
     1
 91
        1
 92
        1
 93
       12
 72
     1
 10
-44.19494832464028
 20
28.35650002477874
 11
-42.79222410689306
 21
28.35650002477874
 72
     1
 10
-42.79222410689306
 20
28.35650002477874
 11
-44.09475373765957
 21
26.88354949474254
 72
     1
 10
-44.09475373765957
 20
26.88354949474254
 11
-42.69680069071927
 21
25.30269050096754
 72
     1
 10
-42.69680069071927
 20
25.30269050096754
 11
-44.09952490846757
 21
25.30269050096754
 72
     1
 10
-44.09952490846757
 20
25.30269050096754
 11
-44.79611584653307
 21
26.09042228626126
 72
     1
 10
-44.79611584653307
 20
26.09042228626126
 11
-45.49270678459877
 21
25.30269050096754
 72
     1
 10
-45.49270678459877
 20
25.30269050096754
 11
-46.89543100234698
 21
25.30269050096754
 72
     1
 10
-46.89543100234698
 20
25.30269050096754
 11
-45.49747795540668
 21
26.88354949474254
 72
     1
 10
-45.49747795540668
 20
26.88354949474254
 11
-46.80000758617416
 21
28.35650002477874
 72
     1
 10
-46.80000758617416
 20
28.35650002477874
 11
-45.39728336842487
 21
28.35650002477874
 72
     1
 10
-45.39728336842487
 20
28.35650002477874
 11
-44.79611584653307
 21
27.67667670322325
 72
     1
 10
-44.79611584653307
 20
27.67667670322325
 11
-44.19494832464028
 21
28.35650002477874
 97
       12
330
2F6
330
34F
330
34E
330
34D
330
34C
330
2F7
330
2F8
330
2F4
330
2F5
330
352
330
351
330
350
 75
     1
 76
     0
 52
45.0
 41
0.1
 77
     0
 78
     1
 53
45.0
 43
0.0
 44
0.0
 45
-0.0707106781186548
 46
0.0707106781186548
 79
     0
 98
        1
 10
0.0
 20
0.0
  0
HATCH
  5
410
330
71
100
AcDbEntity
  8
1
  6
Continuous
 62
     2
100
AcDbHatch
 10
0.0
 20
0.0
 30
0.0
210
0.0
220
0.0
230
1.0
  2
_USER
 70
     0
 71
     1
 91
        1
 92
        1
 93
        4
 72
     1
 10
-47.01471027256386
 20
28.35650002477874
 11
-47.01471027256386
 21
25.30269050096754
 72
     1
 10
-47.01471027256386
 20
25.30269050096754
 11
-48.25521468281676
 21
25.30269050096754
 72
     1
 10
-48.25521468281676
 20
25.30269050096754
 11
-48.25521468281676
 21
28.35650002477874
 72
     1
 10
-48.25521468281676
 20
28.35650002477874
 11
-47.01471027256386
 21
28.35650002477874
 97
        4
330
34A
330
2F9
330
349
330
34B
 75
     1
 76
     0
 52
45.0
 41
0.1
 77
     0
 78
     1
 53
45.0
 43
0.0
 44
0.0
 45
-0.0707106781186548
 46
0.0707106781186548
 79
     0
 98
        1
 10
0.0
 20
0.0
  0
HATCH
  5
411
330
71
100
AcDbEntity
  8
1
  6
Continuous
 62
     2
100
AcDbHatch
 10
0.0
 20
0.0
 30
0.0
210
0.0
220
0.0
230
1.0
  2
_USER
 70
     0
 71
     1
 91
        1
 92
        1
 93
        4
 72
     1
 10
-47.01471027256386
 20
28.35650002477874
 11
-47.01471027256386
 21
25.30269050096754
 72
     1
 10
-47.01471027256386
 20
25.30269050096754
 11
-48.25521468281676
 21
25.30269050096754
 72
     1
 10
-48.25521468281676
 20
25.30269050096754
 11
-48.25521468281676
 21
28.35650002477874
 72
     1
 10
-48.25521468281676
 20
28.35650002477874
 11
-47.01471027256386
 21
28.35650002477874
 97
        4
330
34A
330
2F9
330
349
330
34B
 75
     1
 76
     0
 52
45.0
 41
0.1
 77
     0
 78
     1
 53
45.0
 43
0.0
 44
0.0
 45
-0.0707106781186548
 46
0.0707106781186548
 79
     0
 98
        1
 10
0.0
 20
0.0
  0
HATCH
  5
412
330
71
100
AcDbEntity
  8
1
  6
Continuous
 62
     2
100
AcDbHatch
 10
0.0
 20
0.0
 30
0.0
210
0.0
220
0.0
230
1.0
  2
_USER
 70
     0
 71
     1
 91
        2
 92
        1
 93
        8
 72
     1
 10
-47.40515427609586
 20
21.94350002479325
 11
-48.64565868634978
 21
21.94350002479325
 72
     1
 10
-48.64565868634978
 20
21.94350002479325
 11
-48.85713873982556
 21
22.48446056901113
 72
     1
 10
-48.85713873982556
 20
22.48446056901113
 11
-49.98958031649937
 21
22.48446056901113
 72
     1
 10
-49.98958031649937
 20
22.48446056901113
 11
-50.20106036997518
 21
21.94350002479325
 72
     1
 10
-50.20106036997518
 20
21.94350002479325
 11
-51.44156478022816
 21
21.94350002479325
 72
     1
 10
-51.44156478022816
 20
21.94350002479325
 11
-50.04361173328886
 21
24.99730954860434
 72
     1
 10
-50.04361173328886
 20
24.99730954860434
 11
-48.80310732303616
 21
24.99730954860434
 72
     1
 10
-48.80310732303616
 20
24.99730954860434
 11
-47.40515427609586
 21
21.94350002479325
 97
        8
330
345
330
2FF
330
344
330
347
330
2FC
330
346
330
2FD
330
2FE
 92
       16
 93
        3
 72
     1
 10
-49.72352476535437
 20
23.16502383431774
 11
-49.12319429097187
 21
23.16502383431774
 72
     1
 10
-49.12319429097187
 20
23.16502383431774
 11
-49.42335952816197
 21
23.93283880030444
 72
     1
 10
-49.42335952816197
 20
23.93283880030444
 11
-49.72352476535437
 21
23.16502383431774
 97
        3
330
2FB
330
2FA
330
348
 75
     1
 76
     0
 52
45.0
 41
0.1
 77
     0
 78
     1
 53
45.0
 43
0.0
 44
0.0
 45
-0.0707106781186548
 46
0.0707106781186548
 79
     0
 98
        1
 10
0.0
 20
0.0
  0
HATCH
  5
413
330
71
100
AcDbEntity
  8
1
  6
Continuous
 62
     2
100
AcDbHatch
 10
0.0
 20
0.0
 30
0.0
210
0.0
220
0.0
230
1.0
  2
_USER
 70
     0
 71
     1
 91
        2
 92
        1
 93
        8
 72
     1
 10
-47.40515427609586
 20
21.94350002479325
 11
-48.64565868634978
 21
21.94350002479325
 72
     1
 10
-48.64565868634978
 20
21.94350002479325
 11
-48.85713873982556
 21
22.48446056901113
 72
     1
 10
-48.85713873982556
 20
22.48446056901113
 11
-49.98958031649937
 21
22.48446056901113
 72
     1
 10
-49.98958031649937
 20
22.48446056901113
 11
-50.20106036997518
 21
21.94350002479325
 72
     1
 10
-50.20106036997518
 20
21.94350002479325
 11
-51.44156478022816
 21
21.94350002479325
 72
     1
 10
-51.44156478022816
 20
21.94350002479325
 11
-50.04361173328886
 21
24.99730954860434
 72
     1
 10
-50.04361173328886
 20
24.99730954860434
 11
-48.80310732303616
 21
24.99730954860434
 72
     1
 10
-48.80310732303616
 20
24.99730954860434
 11
-47.40515427609586
 21
21.94350002479325
 97
        8
330
345
330
2FF
330
344
330
347
330
2FC
330
346
330
2FD
330
2FE
 92
       16
 93
        3
 72
     1
 10
-49.72352476535437
 20
23.16502383431774
 11
-49.12319429097187
 21
23.16502383431774
 72
     1
 10
-49.12319429097187
 20
23.16502383431774
 11
-49.42335952816197
 21
23.93283880030444
 72
     1
 10
-49.42335952816197
 20
23.93283880030444
 11
-49.72352476535437
 21
23.16502383431774
 97
        3
330
2FB
330
2FA
330
348
 75
     1
 76
     0
 52
45.0
 41
0.1
 77
     0
 78
     1
 53
45.0
 43
0.0
 44
0.0
 45
-0.0707106781186548
 46
0.0707106781186548
 79
     0
 98
        1
 10
0.0
 20
0.0
  0
HATCH
  5
414
330
71
100
AcDbEntity
  8
1
  6
Continuous
 62
     2
100
AcDbHatch
 10
0.0
 20
0.0
 30
0.0
210
0.0
220
0.0
230
1.0
  2
_USER
 70
     0
 71
     1
 91
        1
 92
        1
 93
        8
 72
     1
 10
-53.59907691941038
 20
24.99730954860434
 11
-53.59907691941038
 21
24.21204424248074
 72
     1
 10
-53.59907691941038
 20
24.21204424248074
 11
-52.78797788193577
 21
24.21204424248074
 72
     1
 10
-52.78797788193577
 20
24.21204424248074
 11
-52.78797788193577
 21
21.94350002479325
 72
     1
 10
-52.78797788193577
 20
21.94350002479325
 11
-51.59518517976926
 21
21.94350002479325
 72
     1
 10
-51.59518517976926
 20
21.94350002479325
 11
-51.59518517976926
 21
24.21204424248074
 72
     1
 10
-51.59518517976926
 20
24.21204424248074
 11
-50.78408614229676
 21
24.21204424248074
 72
     1
 10
-50.78408614229676
 20
24.21204424248074
 11
-50.78408614229676
 21
24.99730954860434
 72
     1
 10
-50.78408614229676
 20
24.99730954860434
 11
-53.59907691941038
 21
24.99730954860434
 97
        8
330
341
330
340
330
33F
330
300
330
301
330
343
330
302
330
342
 75
     1
 76
     0
 52
45.0
 41
0.1
 77
     0
 78
     1
 53
45.0
 43
0.0
 44
0.0
 45
-0.0707106781186548
 46
0.0707106781186548
 79
     0
 98
        1
 10
0.0
 20
0.0
  0
HATCH
  5
415
330
71
100
AcDbEntity
  8
1
  6
Continuous
 62
     2
100
AcDbHatch
 10
0.0
 20
0.0
 30
0.0
210
0.0
220
0.0
230
1.0
  2
_USER
 70
     0
 71
     1
 91
        1
 92
        1
 93
        8
 72
     1
 10
-53.59907691941038
 20
24.99730954860434
 11
-53.59907691941038
 21
24.21204424248074
 72
     1
 10
-53.59907691941038
 20
24.21204424248074
 11
-52.78797788193577
 21
24.21204424248074
 72
     1
 10
-52.78797788193577
 20
24.21204424248074
 11
-52.78797788193577
 21
21.94350002479325
 72
     1
 10
-52.78797788193577
 20
21.94350002479325
 11
-51.59518517976926
 21
21.94350002479325
 72
     1
 10
-51.59518517976926
 20
21.94350002479325
 11
-51.59518517976926
 21
24.21204424248074
 72
     1
 10
-51.59518517976926
 20
24.21204424248074
 11
-50.78408614229676
 21
24.21204424248074
 72
     1
 10
-50.78408614229676
 20
24.21204424248074
 11
-50.78408614229676
 21
24.99730954860434
 72
     1
 10
-50.78408614229676
 20
24.99730954860434
 11
-53.59907691941038
 21
24.99730954860434
 97
        8
330
341
330
340
330
33F
330
300
330
301
330
343
330
302
330
342
 75
     1
 76
     0
 52
45.0
 41
0.1
 77
     0
 78
     1
 53
45.0
 43
0.0
 44
0.0
 45
-0.0707106781186548
 46
0.0707106781186548
 79
     0
 98
        1
 10
0.0
 20
0.0
  0
HATCH
  5
416
330
71
100
AcDbEntity
  8
1
  6
Continuous
 62
     2
100
AcDbHatch
 10
0.0
 20
0.0
 30
0.0
210
0.0
220
0.0
230
1.0
  2
_USER
 70
     0
 71
     1
 91
        1
 92
        1
 93
       10
 72
     1
 10
-50.92707033567126
 20
28.35650002477874
 11
-52.11986303783777
 21
28.35650002477874
 72
     1
 10
-52.11986303783777
 20
28.35650002477874
 11
-52.11986303783777
 21
25.30269050096754
 72
     1
 10
-52.11986303783777
 20
25.30269050096754
 11
-50.92707033567126
 21
25.30269050096754
 72
     1
 10
-50.92707033567126
 20
25.30269050096754
 11
-50.92707033567126
 21
26.61146601117224
 72
     1
 10
-50.92707033567126
 20
26.61146601117224
 11
-49.68656592541726
 21
25.30269050096754
 72
     1
 10
-49.68656592541726
 20
25.30269050096754
 11
-48.49377322325066
 21
25.30269050096754
 72
     1
 10
-48.49377322325066
 20
25.30269050096754
 11
-48.49377322325066
 21
28.35650002477874
 72
     1
 10
-48.49377322325066
 20
28.35650002477874
 11
-49.68656592541726
 21
28.35650002477874
 72
     1
 10
-49.68656592541726
 20
28.35650002477874
 11
-49.68656592541726
 21
27.04772451457356
 72
     1
 10
-49.68656592541726
 20
27.04772451457356
 11
-50.92707033567126
 21
28.35650002477874
 97
       10
330
33B
330
305
330
306
330
307
330
308
330
33E
330
303
330
33D
330
33C
330
304
 75
     1
 76
     0
 52
45.0
 41
0.1
 77
     0
 78
     1
 53
45.0
 43
0.0
 44
0.0
 45
-0.0707106781186548
 46
0.0707106781186548
 79
     0
 98
        1
 10
0.0
 20
0.0
  0
HATCH
  5
417
330
71
100
AcDbEntity
  8
1
  6
Continuous
 62
     2
100
AcDbHatch
 10
0.0
 20
0.0
 30
0.0
210
0.0
220
0.0
230
1.0
  2
_USER
 70
     0
 71
     1
 91
        1
 92
        1
 93
       10
 72
     1
 10
-50.92707033567126
 20
28.35650002477874
 11
-52.11986303783777
 21
28.35650002477874
 72
     1
 10
-52.11986303783777
 20
28.35650002477874
 11
-52.11986303783777
 21
25.30269050096754
 72
     1
 10
-52.11986303783777
 20
25.30269050096754
 11
-50.92707033567126
 21
25.30269050096754
 72
     1
 10
-50.92707033567126
 20
25.30269050096754
 11
-50.92707033567126
 21
26.61146601117224
 72
     1
 10
-50.92707033567126
 20
26.61146601117224
 11
-49.68656592541726
 21
25.30269050096754
 72
     1
 10
-49.68656592541726
 20
25.30269050096754
 11
-48.49377322325066
 21
25.30269050096754
 72
     1
 10
-48.49377322325066
 20
25.30269050096754
 11
-48.49377322325066
 21
28.35650002477874
 72
     1
 10
-48.49377322325066
 20
28.35650002477874
 11
-49.68656592541726
 21
28.35650002477874
 72
     1
 10
-49.68656592541726
 20
28.35650002477874
 11
-49.68656592541726
 21
27.04772451457356
 72
     1
 10
-49.68656592541726
 20
27.04772451457356
 11
-50.92707033567126
 21
28.35650002477874
 97
       10
330
33B
330
305
330
306
330
307
330
308
330
33E
330
303
330
33D
330
33C
330
304
 75
     1
 76
     0
 52
45.0
 41
0.1
 77
     0
 78
     1
 53
45.0
 43
0.0
 44
0.0
 45
-0.0707106781186548
 46
0.0707106781186548
 79
     0
 98
        1
 10
0.0
 20
0.0
  0
HATCH
  5
418
330
71
100
AcDbEntity
  8
1
  6
Continuous
 62
     2
100
AcDbHatch
 10
0.0
 20
0.0
 30
0.0
210
0.0
220
0.0
230
1.0
  2
_USER
 70
     0
 71
     1
 91
        1
 92
        1
 93
       10
 72
     1
 10
-56.17550915608987
 20
24.99730954860434
 11
-57.36830185825747
 21
24.99730954860434
 72
     1
 10
-57.36830185825747
 20
24.99730954860434
 11
-57.36830185825747
 21
21.94350002479325
 72
     1
 10
-57.36830185825747
 20
21.94350002479325
 11
-56.17550915608987
 21
21.94350002479325
 72
     1
 10
-56.17550915608987
 20
21.94350002479325
 11
-56.17550915608987
 21
23.25227553499784
 72
     1
 10
-56.17550915608987
 20
23.25227553499784
 11
-54.93500474583698
 21
21.94350002479325
 72
     1
 10
-54.93500474583698
 20
21.94350002479325
 11
-53.74221204367058
 21
21.94350002479325
 72
     1
 10
-53.74221204367058
 20
21.94350002479325
 11
-53.74221204367058
 21
24.99730954860434
 72
     1
 10
-53.74221204367058
 20
24.99730954860434
 11
-54.93500474583698
 21
24.99730954860434
 72
     1
 10
-54.93500474583698
 20
24.99730954860434
 11
-54.93500474583698
 21
23.68853403839924
 72
     1
 10
-54.93500474583698
 20
23.68853403839924
 11
-56.17550915608987
 21
24.99730954860434
 97
       10
330
30A
330
30B
330
30C
330
338
330
30D
330
30E
330
337
330
33A
330
339
330
309
 75
     1
 76
     0
 52
45.0
 41
0.1
 77
     0
 78
     1
 53
45.0
 43
0.0
 44
0.0
 45
-0.0707106781186548
 46
0.0707106781186548
 79
     0
 98
        1
 10
0.0
 20
0.0
  0
HATCH
  5
419
330
71
100
AcDbEntity
  8
1
  6
Continuous
 62
     2
100
AcDbHatch
 10
0.0
 20
0.0
 30
0.0
210
0.0
220
0.0
230
1.0
  2
_USER
 70
     0
 71
     1
 91
        1
 92
        1
 93
       10
 72
     1
 10
-56.17550915608987
 20
24.99730954860434
 11
-57.36830185825747
 21
24.99730954860434
 72
     1
 10
-57.36830185825747
 20
24.99730954860434
 11
-57.36830185825747
 21
21.94350002479325
 72
     1
 10
-57.36830185825747
 20
21.94350002479325
 11
-56.17550915608987
 21
21.94350002479325
 72
     1
 10
-56.17550915608987
 20
21.94350002479325
 11
-56.17550915608987
 21
23.25227553499784
 72
     1
 10
-56.17550915608987
 20
23.25227553499784
 11
-54.93500474583698
 21
21.94350002479325
 72
     1
 10
-54.93500474583698
 20
21.94350002479325
 11
-53.74221204367058
 21
21.94350002479325
 72
     1
 10
-53.74221204367058
 20
21.94350002479325
 11
-53.74221204367058
 21
24.99730954860434
 72
     1
 10
-53.74221204367058
 20
24.99730954860434
 11
-54.93500474583698
 21
24.99730954860434
 72
     1
 10
-54.93500474583698
 20
24.99730954860434
 11
-54.93500474583698
 21
23.68853403839924
 72
     1
 10
-54.93500474583698
 20
23.68853403839924
 11
-56.17550915608987
 21
24.99730954860434
 97
       10
330
30A
330
30B
330
30C
330
338
330
30D
330
30E
330
337
330
33A
330
339
330
309
 75
     1
 76
     0
 52
45.0
 41
0.1
 77
     0
 78
     1
 53
45.0
 43
0.0
 44
0.0
 45
-0.0707106781186548
 46
0.0707106781186548
 79
     0
 98
        1
 10
0.0
 20
0.0
  0
HATCH
  5
41A
330
71
100
AcDbEntity
  8
1
  6
Continuous
 62
     2
100
AcDbHatch
 10
0.0
 20
0.0
 30
0.0
210
0.0
220
0.0
230
1.0
  2
_USER
 70
     0
 71
     1
 91
        1
 92
        1
 93
       12
 72
     1
 10
-57.17730409502528
 20
28.35650002477874
 11
-57.17730409502528
 21
25.30269050096754
 72
     1
 10
-57.17730409502528
 20
25.30269050096754
 11
-58.37009679719168
 21
25.30269050096754
 72
     1
 10
-58.37009679719168
 20
25.30269050096754
 11
-58.37009679719168
 21
26.43696260981136
 72
     1
 10
-58.37009679719168
 20
26.43696260981136
 11
-59.41975437509916
 21
26.43696260981136
 72
     1
 10
-59.41975437509916
 20
26.43696260981136
 11
-59.41975437509916
 21
25.30269050096754
 72
     1
 10
-59.41975437509916
 20
25.30269050096754
 11
-60.61254707726576
 21
25.30269050096754
 72
     1
 10
-60.61254707726576
 20
25.30269050096754
 11
-60.61254707726576
 21
28.35650002477874
 72
     1
 10
-60.61254707726576
 20
28.35650002477874
 11
-59.41975437509916
 21
28.35650002477874
 72
     1
 10
-59.41975437509916
 20
28.35650002477874
 11
-59.41975437509916
 21
27.28766669144414
 72
     1
 10
-59.41975437509916
 20
27.28766669144414
 11
-58.37009679719168
 21
27.28766669144414
 72
     1
 10
-58.37009679719168
 20
27.28766669144414
 11
-58.37009679719168
 21
28.35650002477874
 72
     1
 10
-58.37009679719168
 20
28.35650002477874
 11
-57.17730409502528
 21
28.35650002477874
 97
       12
330
332
330
331
330
330
330
318
330
319
330
32F
330
31A
330
32E
330
32D
330
32C
330
316
330
317
 75
     1
 76
     0
 52
45.0
 41
0.1
 77
     0
 78
     1
 53
45.0
 43
0.0
 44
0.0
 45
-0.0707106781186548
 46
0.0707106781186548
 79
     0
 98
        1
 10
0.0
 20
0.0
  0
HATCH
  5
41B
330
71
100
AcDbEntity
  8
1
  6
Continuous
 62
     2
100
AcDbHatch
 10
0.0
 20
0.0
 30
0.0
210
0.0
220
0.0
230
1.0
  2
_USER
 70
     0
 71
     1
 91
        1
 92
        1
 93
       12
 72
     1
 10
-57.17730409502528
 20
28.35650002477874
 11
-57.17730409502528
 21
25.30269050096754
 72
     1
 10
-57.17730409502528
 20
25.30269050096754
 11
-58.37009679719168
 21
25.30269050096754
 72
     1
 10
-58.37009679719168
 20
25.30269050096754
 11
-58.37009679719168
 21
26.43696260981136
 72
     1
 10
-58.37009679719168
 20
26.43696260981136
 11
-59.41975437509916
 21
26.43696260981136
 72
     1
 10
-59.41975437509916
 20
26.43696260981136
 11
-59.41975437509916
 21
25.30269050096754
 72
     1
 10
-59.41975437509916
 20
25.30269050096754
 11
-60.61254707726576
 21
25.30269050096754
 72
     1
 10
-60.61254707726576
 20
25.30269050096754
 11
-60.61254707726576
 21
28.35650002477874
 72
     1
 10
-60.61254707726576
 20
28.35650002477874
 11
-59.41975437509916
 21
28.35650002477874
 72
     1
 10
-59.41975437509916
 20
28.35650002477874
 11
-59.41975437509916
 21
27.28766669144414
 72
     1
 10
-59.41975437509916
 20
27.28766669144414
 11
-58.37009679719168
 21
27.28766669144414
 72
     1
 10
-58.37009679719168
 20
27.28766669144414
 11
-58.37009679719168
 21
28.35650002477874
 72
     1
 10
-58.37009679719168
 20
28.35650002477874
 11
-57.17730409502528
 21
28.35650002477874
 97
       12
330
332
330
331
330
330
330
318
330
319
330
32F
330
31A
330
32E
330
32D
330
32C
330
316
330
317
 75
     1
 76
     0
 52
45.0
 41
0.1
 77
     0
 78
     1
 53
45.0
 43
0.0
 44
0.0
 45
-0.0707106781186548
 46
0.0707106781186548
 79
     0
 98
        1
 10
0.0
 20
0.0
  0
ENDBLK
  5
73
330
71
100
AcDbEntity
  8
0
100
AcDbBlockEnd
  0
BLOCK
  5
75
330
74
100
AcDbEntity
  8
0
100
AcDbBlockBegin
  2
_punkt
 70
     0
 10
54.69999971876364
 20
14.65000002477694
 30
0.0
  3
_punkt
  1

  0
LINE
  5
41C
330
74
100
AcDbEntity
  8
1
  6
Continuous
 62
     2
100
AcDbLine
 10
54.69999971876364
 20
14.65000002477694
 30
0.0
 11
54.69999971876364
 21
9.65000002477683
 31
0.0
  0
LINE
  5
41D
330
74
100
AcDbEntity
  8
1
  6
Continuous
 62
     2
100
AcDbLine
 10
54.69999971876364
 20
14.65000002477694
 30
0.0
 11
59.69999971876263
 21
14.65000002477694
 31
0.0
  0
ENDBLK
  5
76
330
74
100
AcDbEntity
  8
0
100
AcDbBlockEnd
  0
BLOCK
  5
7A
330
77
100
AcDbEntity
  8
0
100
AcDbBlockBegin
  2
A4I_CS
 70
     0
 10
54.69999971876364
 20
9.65000002477683
 30
0.0
  3
A4I_CS
  1

  0
INSERT
  5
78
330
77
100
AcDbEntity
  8
1
100
AcDbBlockReference
  2
_rahmen
 10
54.69999971876364
 20
9.65000002477683
 30
0.0
  0
INSERT
  5
79
330
77
100
AcDbEntity
  8
1
100
AcDbBlockReference
  2
_punkt
 10
54.69999971876364
 20
14.65000002477694
 30
0.0
  0
ENDBLK
  5
7B
330
77
100
AcDbEntity
  8
0
100
AcDbBlockEnd
  0
BLOCK
  5
84
330
7C
100
AcDbEntity
  8
0
100
AcDbBlockBegin
  2
1
 70
     0
 10
0.0
 20
0.0
 30
0.0
  3
1
  1

  0
INSERT
  5
7D
330
7C
100
AcDbEntity
  8
0
100
AcDbBlockReference
  2
Allg2
 10
-9.99999999999949
 20
85.0
 30
0.0
  0
INSERT
  5
7E
330
7C
100
AcDbEntity
  8
0
100
AcDbBlockReference
  2
Drfsicht2
 10
-112.9999999999493
 20
76.99999999997999
 30
0.0
  0
INSERT
  5
7F
330
7C
100
AcDbEntity
  8
0
100
AcDbBlockReference
  2
Rckans2
 10
1.89999900000001
 20
157.4
 30
0.0
  0
INSERT
  5
80
330
7C
100
AcDbEntity
  8
0
100
AcDbBlockReference
  2
SA_Links2
 10
-56.0500009999991
 20
157.3999999999991
 30
0.0
  0
INSERT
  5
81
330
7C
100
AcDbEntity
  8
0
100
AcDbBlockReference
  2
SA_Rechts2
 10
-191.9499989999991
 20
157.4
 30
0.0
  0
INSERT
  5
82
330
7C
100
AcDbEntity
  8
0
100
AcDbBlockReference
  2
Vordans2
 10
-113.0
 20
157.4
 30
0.0
  0
INSERT
  5
83
330
7C
100
AcDbEntity
  8
0
100
AcDbBlockReference
  2
A4I_CS
 10
54.69999971876364
 20
9.65000002477683
 30
0.0
  0
ENDBLK
  5
85
330
7C
100
AcDbEntity
  8
0
100
AcDbBlockEnd
  0
BLOCK
  5
12F
330
128
100
AcDbEntity
  8
0
100
AcDbBlockBegin
  2
*D17
 70
     1
 10
0.0
 20
0.0
 30
0.0
  3
*D17
  1

  0
LINE
  5
129
330
128
100
AcDbEntity
  8
1
  6
Continuous
 62
     2
100
AcDbLine
 10
-145.3999994589531
 20
67.94999999996003
 30
0.0
 11
-145.3999994589531
 21
85.44999999996003
 31
0.0
  0
LINE
  5
12A
330
128
100
AcDbEntity
  8
1
  6
Continuous
 62
     2
100
AcDbLine
 10
-135.3999994589531
 20
67.94999999996003
 30
0.0
 11
-146.8999994589531
 21
67.94999999996003
 31
0.0
  0
LINE
  5
12B
330
128
100
AcDbEntity
  8
1
  6
Continuous
 62
     2
100
AcDbLine
 10
-135.3999994589531
 20
85.44999999996003
 30
0.0
 11
-146.8999994589531
 21
85.44999999996003
 31
0.0
  0
SOLID
  5
12C
330
128
100
AcDbEntity
  8
1
 62
     2
100
AcDbTrace
 10
-145.860783200509
 20
71.44999999996003
 30
0.0
 11
-144.9392157173972
 21
71.44999999996003
 31
0.0
 12
-145.3999994589531
 22
67.94999999996003
 32
0.0
 13
-145.3999994589531
 23
67.94999999996003
 33
0.0
  0
SOLID
  5
12D
330
128
100
AcDbEntity
  8
1
 62
     2
100
AcDbTrace
 10
-144.9392157173972
 20
81.94999999996003
 30
0.0
 11
-145.860783200509
 21
81.94999999996003
 31
0.0
 12
-145.3999994589531
 22
85.44999999996003
 32
0.0
 13
-145.3999994589531
 23
85.44999999996003
 33
0.0
  0
MTEXT
  5
12E
330
128
100
AcDbEntity
  8
1
 62
     3
100
AcDbMText
 10
-147.2499994589531
 20
73.09052945510231
 30
0.0
 40
3.5
 41
0.0
 71
     7
 72
     1
  1
17,5
  7
CONVERTER_11
 11
0.0
 21
1.0
 31
0.0
 73
     1
 44
0.60024009603842
  0
ENDBLK
  5
130
330
128
100
AcDbEntity
  8
0
100
AcDbBlockEnd
  0
BLOCK
  5
2CB
330
2C4
100
AcDbEntity
  8
0
100
AcDbBlockBegin
  2
*D18
 70
     1
 10
0.0
 20
0.0
 30
0.0
  3
*D18
  1

  0
LINE
  5
2C5
330
2C4
100
AcDbEntity
  8
1
  6
Continuous
 62
     2
100
AcDbLine
 10
-135.3999992507417
 20
113.965313626899
 30
0.0
 11
-90.59999943754583
 21
113.965313626899
 31
0.0
  0
LINE
  5
2C6
330
2C4
100
AcDbEntity
  8
1
  6
Continuous
 62
     2
100
AcDbLine
 10
-135.3999992507417
 20
135.7500000495744
 30
0.0
 11
-135.3999992507417
 21
112.465313626899
 31
0.0
  0
LINE
  5
2C7
330
2C4
100
AcDbEntity
  8
1
  6
Continuous
 62
     2
100
AcDbLine
 10
-90.5999994375458
 20
160.3500002271852
 30
0.0
 11
-90.5999994375458
 21
112.465313626899
 31
0.0
  0
SOLID
  5
2C8
330
2C4
100
AcDbEntity
  8
1
 62
     2
100
AcDbTrace
 10
-131.8999992507417
 20
114.4260973684549
 30
0.0
 11
-131.8999992507417
 21
113.5045298853431
 31
0.0
 12
-135.3999992507417
 22
113.965313626899
 32
0.0
 13
-135.3999992507417
 23
113.965313626899
 33
0.0
  0
SOLID
  5
2C9
330
2C4
100
AcDbEntity
  8
1
 62
     2
100
AcDbTrace
 10
-94.09999943754583
 20
113.5045298853431
 30
0.0
 11
-94.09999943754583
 21
114.4260973684549
 31
0.0
 12
-90.59999943754583
 22
113.965313626899
 32
0.0
 13
-90.59999943754583
 23
113.965313626899
 33
0.0
  0
MTEXT
  5
2CA
330
2C4
100
AcDbEntity
  8
1
 62
     3
100
AcDbMText
 10
-117.81249999995
 20
115.815313626899
 30
0.0
 40
3.5
 41
0.0
 71
     7
 72
     1
  1
44,8
  7
CONVERTER_11
 11
0.9999999999970619
 21
2.424068405545306E-6
 31
0.0
 73
     1
 44
0.60024009603842
  0
ENDBLK
  5
2CC
330
2C4
100
AcDbEntity
  8
0
100
AcDbBlockEnd
  0
BLOCK
  5
2D6
330
2CF
100
AcDbEntity
  8
0
100
AcDbBlockBegin
  2
*D19
 70
     1
 10
0.0
 20
0.0
 30
0.0
  3
*D19
  1

  0
LINE
  5
2D0
330
2CF
100
AcDbEntity
  8
1
  6
Continuous
 62
     2
100
AcDbLine
 10
-145.3999992507417
 20
135.7500000495744
 30
0.0
 11
-145.3999992507417
 21
179.050000049574
 31
0.0
  0
LINE
  5
2D1
330
2CF
100
AcDbEntity
  8
1
  6
Continuous
 62
     2
100
AcDbLine
 10
-135.3999992507417
 20
135.7500000495744
 30
0.0
 11
-146.8999992507417
 21
135.7500000495744
 31
0.0
  0
LINE
  5
2D2
330
2CF
100
AcDbEntity
  8
1
  6
Continuous
 62
     2
100
AcDbLine
 10
-112.9999994375505
 20
179.050000049574
 30
0.0
 11
-146.8999992507417
 21
179.050000049574
 31
0.0
  0
SOLID
  5
2D3
330
2CF
100
AcDbEntity
  8
1
 62
     2
100
AcDbTrace
 10
-145.8607829922976
 20
139.2500000495744
 30
0.0
 11
-144.9392155091858
 21
139.2500000495744
 31
0.0
 12
-145.3999992507417
 22
135.7500000495744
 32
0.0
 13
-145.3999992507417
 23
135.7500000495744
 33
0.0
  0
SOLID
  5
2D4
330
2CF
100
AcDbEntity
  8
1
 62
     2
100
AcDbTrace
 10
-144.9392155091858
 20
175.550000049574
 30
0.0
 11
-145.8607829922976
 21
175.550000049574
 31
0.0
 12
-145.3999992507417
 22
179.050000049574
 32
0.0
 13
-145.3999992507417
 23
179.050000049574
 33
0.0
  0
MTEXT
  5
2D5
330
2CF
100
AcDbEntity
  8
1
 62
     3
100
AcDbMText
 10
-147.2499992507417
 20
155.5375000685082
 30
0.0
 40
3.5
 41
0.0
 71
     7
 72
     1
  1
43,3
  7
CONVERTER_11
 11
0.0
 21
1.0
 31
0.0
 73
     1
 44
0.60024009603842
  0
ENDBLK
  5
2D7
330
2CF
100
AcDbEntity
  8
0
100
AcDbBlockEnd
  0
BLOCK
  5
2E1
330
2DA
100
AcDbEntity
  8
0
100
AcDbBlockBegin
  2
*D20
 70
     1
 10
0.0
 20
0.0
 30
0.0
  3
*D20
  1

  0
LINE
  5
2DB
330
2DA
100
AcDbEntity
  8
1
  6
Continuous
 62
     2
100
AcDbLine
 10
-153.875953172362
 20
179.0500000495739
 30
0.0
 11
-153.875953172362
 21
123.7500000495757
 31
0.0
  0
LINE
  5
2DC
330
2DA
100
AcDbEntity
  8
1
  6
Continuous
 62
     2
100
AcDbLine
 10
-112.9999994375504
 20
179.0500000495739
 30
0.0
 11
-155.375953172362
 21
179.0500000495739
 31
0.0
  0
LINE
  5
2DD
330
2DA
100
AcDbEntity
  8
1
  6
Continuous
 62
     2
100
AcDbLine
 10
-112.9179810045876
 20
123.7500000495757
 30
0.0
 11
-155.375953172362
 21
123.7500000495757
 31
0.0
  0
SOLID
  5
2DE
330
2DA
100
AcDbEntity
  8
1
 62
     2
100
AcDbTrace
 10
-153.4151694308061
 20
175.5500000495739
 30
0.0
 11
-154.3367369139179
 21
175.5500000495739
 31
0.0
 12
-153.875953172362
 22
179.0500000495739
 32
0.0
 13
-153.875953172362
 23
179.0500000495739
 33
0.0
  0
SOLID
  5
2DF
330
2DA
100
AcDbEntity
  8
1
 62
     2
100
AcDbTrace
 10
-154.3367369139179
 20
127.2500000495757
 30
0.0
 11
-153.4151694308061
 21
127.2500000495757
 31
0.0
 12
-153.875953172362
 22
123.7500000495757
 32
0.0
 13
-153.875953172362
 23
123.7500000495757
 33
0.0
  0
MTEXT
  5
2E0
330
2DA
100
AcDbEntity
  8
1
 62
     3
100
AcDbMText
 10
-155.725953172362
 20
149.397515366667
 30
0.0
 40
3.5
 41
0.0
 71
     7
 72
     1
  1
55,3
  7
CONVERTER_11
 11
0.0
 21
1.0
 31
0.0
 73
     1
 44
0.60024009603842
  0
ENDBLK
  5
2E2
330
2DA
100
AcDbEntity
  8
0
100
AcDbBlockEnd
  0
ENDSEC
  0
SECTION
  2
ENTITIES
  0
INSERT
  5
86
330
1F
100
AcDbEntity
  8
1
100
AcDbBlockReference
  2
1
 10
0.0
 20
0.0
 30
0.0
  0
ENDSEC
  0
SECTION
  2
OBJECTS
  0
DICTIONARY
  5
C
330
0
100
AcDbDictionary
281
     1
  3
ACAD_GROUP
350
D
  3
ACAD_LAYOUT
350
1A
  3
ACAD_MATERIAL
350
3B
  3
ACAD_MLEADERSTYLE
350
445
  3
ACAD_MLINESTYLE
350
17
  3
ACAD_PLOTSETTINGS
350
19
  3
ACAD_PLOTSTYLENAME
350
E
  3
ACAD_TABLESTYLE
350
444
  3
ACAD_VISUALSTYLE
350
2A
  0
DICTIONARY
  5
D
102
{ACAD_REACTORS
330
C
102
}
330
C
100
AcDbDictionary
281
     1
  0
DICTIONARY
  5
1A
102
{ACAD_REACTORS
330
C
102
}
330
C
100
AcDbDictionary
281
     1
  3
Layout1
350
1E
  3
Layout2
350
26
  3
Model
350
22
  0
DICTIONARY
  5
3B
102
{ACAD_REACTORS
330
C
102
}
330
C
100
AcDbDictionary
281
     1
  3
ByBlock
350
3D
  3
ByLayer
350
3C
  3
Global
350
3E
  0
DICTIONARY
  5
445
102
{ACAD_REACTORS
330
C
102
}
330
C
100
AcDbDictionary
281
     1
  0
DICTIONARY
  5
17
102
{ACAD_REACTORS
330
C
102
}
330
C
100
AcDbDictionary
281
     1
  3
Standard
350
18
  0
DICTIONARY
  5
19
102
{ACAD_REACTORS
330
C
102
}
330
C
100
AcDbDictionary
281
     1
  0
ACDBDICTIONARYWDFLT
  5
E
102
{ACAD_REACTORS
330
C
102
}
330
C
100
AcDbDictionary
281
     1
  3
Normal
350
F
100
AcDbDictionaryWithDefault
340
F
  0
DICTIONARY
  5
444
102
{ACAD_REACTORS
330
C
102
}
330
C
100
AcDbDictionary
281
     1
  0
DICTIONARY
  5
2A
102
{ACAD_REACTORS
330
C
102
}
330
C
100
AcDbDictionary
281
     1
  3
2dWireframe
350
2F
  3
3D Hidden
350
31
  3
3dWireframe
350
30
  3
Basic
350
32
  3
Brighten
350
36
  3
ColorChange
350
3A
  3
Conceptual
350
34
  3
Dim
350
35
  3
Facepattern
350
39
  3
Flat
350
2B
  3
FlatWithEdges
350
2C
  3
Gouraud
350
2D
  3
GouraudWithEdges
350
2E
  3
Linepattern
350
38
  3
Realistic
350
33
  3
Thicken
350
37
  0
LAYOUT
  5
1E
102
{ACAD_REACTORS
330
1A
102
}
330
1A
100
AcDbPlotSettings
  1

  2
none_device
  4

  6

 40
0.0
 41
0.0
 42
0.0
 43
0.0
 44
0.0
 45
0.0
 46
0.0
 47
0.0
 48
0.0
 49
0.0
140
0.0
141
0.0
142
1.0
143
1.0
 70
   688
 72
     0
 73
     0
 74
     5
  7

 75
    16
 76
     0
 77
     2
 78
   300
147
1.0
148
0.0
149
0.0
100
AcDbLayout
  1
Layout1
 70
     1
 71
     1
 10
0.0
 20
0.0
 11
12.0
 21
9.0
 12
0.0
 22
0.0
 32
0.0
 14
1.00000000000000E+20
 24
1.00000000000000E+20
 34
1.00000000000000E+20
 15
-1.00000000000000E+20
 25
-1.00000000000000E+20
 35
-1.00000000000000E+20
146
0.0
 13
0.0
 23
0.0
 33
0.0
 16
1.0
 26
0.0
 36
0.0
 17
0.0
 27
1.0
 37
0.0
 76
     0
330
1B
  0
LAYOUT
  5
26
102
{ACAD_REACTORS
330
1A
102
}
330
1A
100
AcDbPlotSettings
  1

  2
none_device
  4

  6

 40
0.0
 41
0.0
 42
0.0
 43
0.0
 44
0.0
 45
0.0
 46
0.0
 47
0.0
 48
0.0
 49
0.0
140
0.0
141
0.0
142
1.0
143
1.0
 70
   688
 72
     0
 73
     0
 74
     5
  7

 75
    16
 76
     0
 77
     2
 78
   300
147
1.0
148
0.0
149
0.0
100
AcDbLayout
  1
Layout2
 70
     1
 71
     2
 10
0.0
 20
0.0
 11
0.0
 21
0.0
 12
0.0
 22
0.0
 32
0.0
 14
0.0
 24
0.0
 34
0.0
 15
0.0
 25
0.0
 35
0.0
146
0.0
 13
0.0
 23
0.0
 33
0.0
 16
1.0
 26
0.0
 36
0.0
 17
0.0
 27
1.0
 37
0.0
 76
     0
330
23
  0
LAYOUT
  5
22
102
{ACAD_REACTORS
330
1A
102
}
330
1A
100
AcDbPlotSettings
  1

  2
none_device
  4

  6

 40
0.0
 41
0.0
 42
0.0
 43
0.0
 44
0.0
 45
0.0
 46
0.0
 47
0.0
 48
0.0
 49
0.0
140
0.0
141
0.0
142
1.0
143
1.0
 70
  1712
 72
     0
 73
     0
 74
     0
  7

 75
     0
 76
     0
 77
     2
 78
   300
147
1.0
148
0.0
149
0.0
100
AcDbLayout
  1
Model
 70
     1
 71
     0
 10
0.0
 20
0.0
 11
12.0
 21
9.0
 12
0.0
 22
0.0
 32
0.0
 14
-237.3000002812354
 24
9.65000002477683
 34
0.0
 15
59.69999971876263
 25
219.6500000247769
 35
0.0
146
0.0
 13
0.0
 23
0.0
 33
0.0
 16
1.0
 26
0.0
 36
0.0
 17
0.0
 27
1.0
 37
0.0
 76
     0
330
1F
331
29
  0
MATERIAL
  5
3D
102
{ACAD_REACTORS
330
3B
102
}
102
{ACAD_XDICTIONARY
360
440
102
}
330
3B
100
AcDbMaterial
  1
ByBlock
  0
MATERIAL
  5
3C
102
{ACAD_REACTORS
330
3B
102
}
102
{ACAD_XDICTIONARY
360
43E
102
}
330
3B
100
AcDbMaterial
  1
ByLayer
  0
MATERIAL
  5
3E
102
{ACAD_REACTORS
330
3B
102
}
102
{ACAD_XDICTIONARY
360
442
102
}
330
3B
100
AcDbMaterial
  1
Global
  0
MLINESTYLE
  5
18
102
{ACAD_REACTORS
330
17
102
}
330
17
100
AcDbMlineStyle
  2
Standard
 70
     0
  3

 62
   256
 51
90.0
 52
90.0
 71
     2
 49
0.5
 62
   256
  6
BYLAYER
 49
-0.5
 62
   256
  6
BYLAYER
  0
ACDBPLACEHOLDER
  5
F
102
{ACAD_REACTORS
330
E
102
}
330
E
  0
VISUALSTYLE
  5
2F
102
{ACAD_REACTORS
330
2A
102
}
102
{ACAD_XDICTIONARY
360
426
102
}
330
2A
100
AcDbVisualStyle
  2
2dWireframe
 70
     4
 71
     0
 72
     2
 73
     0
 90
        0
 40
-0.6
 41
-30.0
 62
     5
 63
     7
421
 16777215
 74
     1
 91
        4
 64
     7
 65
   257
 75
     1
175
     1
 42
1.0
 92
        0
 66
   257
 43
1.0
 76
     1
 77
     6
 78
     2
 67
     7
 79
     5
170
     0
171
     0
290
     0
174
     0
 93
        1
 44
0.0
173
     0
291
     0
 45
0.0
1001
ACAD
1000
AcDbSavedByObjectVersion
1070
     0
  0
VISUALSTYLE
  5
31
102
{ACAD_REACTORS
330
2A
102
}
102
{ACAD_XDICTIONARY
360
42A
102
}
330
2A
100
AcDbVisualStyle
  2
3D Hidden
 70
     6
 71
     1
 72
     2
 73
     2
 90
        0
 40
-0.6
 41
-30.0
 62
     5
 63
     7
421
 16777215
 74
     2
 91
        2
 64
     7
 65
   257
 75
     2
175
     1
 42
40.0
 92
        0
 66
   257
 43
1.0
 76
     1
 77
     6
 78
     2
 67
     7
 79
     3
170
     0
171
     0
290
     0
174
     0
 93
        1
 44
0.0
173
     0
291
     0
 45
0.0
1001
ACAD
1000
AcDbSavedByObjectVersion
1070
     0
  0
VISUALSTYLE
  5
30
102
{ACAD_REACTORS
330
2A
102
}
102
{ACAD_XDICTIONARY
360
428
102
}
330
2A
100
AcDbVisualStyle
  2
3dWireframe
 70
     5
 71
     0
 72
     2
 73
     0
 90
        0
 40
-0.6
 41
-30.0
 62
     5
 63
     7
421
 16777215
 74
     1
 91
        4
 64
     7
 65
   257
 75
     1
175
     1
 42
1.0
 92
        0
 66
   257
 43
1.0
 76
     1
 77
     6
 78
     2
 67
     7
 79
     5
170
     0
171
     0
290
     0
174
     0
 93
        1
 44
0.0
173
     0
291
     0
 45
0.0
1001
ACAD
1000
AcDbSavedByObjectVersion
1070
     0
  0
VISUALSTYLE
  5
32
102
{ACAD_REACTORS
330
2A
102
}
102
{ACAD_XDICTIONARY
360
42C
102
}
330
2A
100
AcDbVisualStyle
  2
Basic
 70
     7
 71
     1
 72
     0
 73
     1
 90
        0
 40
-0.6
 41
-30.0
 62
     5
 63
     7
421
 16777215
 74
     0
 91
        4
 64
     7
 65
   257
 75
     1
175
     1
 42
1.0
 92
        8
 66
     7
 43
1.0
 76
     1
 77
     6
 78
     2
 67
     7
 79
     5
170
     0
171
     0
290
     0
174
     0
 93
        1
 44
0.0
173
     0
291
     1
 45
0.0
1001
ACAD
1000
AcDbSavedByObjectVersion
1070
     0
  0
VISUALSTYLE
  5
36
102
{ACAD_REACTORS
330
2A
102
}
102
{ACAD_XDICTIONARY
360
434
102
}
330
2A
100
AcDbVisualStyle
  2
Brighten
 70
    12
 71
     2
 72
     2
 73
     0
 90
        0
 40
-0.6
 41
-30.0
 62
     5
 63
     7
421
 16777215
 74
     1
 91
        4
 64
     7
 65
   257
 75
     1
175
     1
 42
1.0
 92
        8
 66
     7
 43
1.0
 76
     1
 77
     6
 78
     2
 67
     7
 79
     5
170
     0
171
     0
290
     0
174
     0
 93
        1
 44
50.0
173
     0
291
     1
 45
0.0
1001
ACAD
1000
AcDbSavedByObjectVersion
1070
     0
  0
VISUALSTYLE
  5
3A
102
{ACAD_REACTORS
330
2A
102
}
102
{ACAD_XDICTIONARY
360
43C
102
}
330
2A
100
AcDbVisualStyle
  2
ColorChange
 70
    16
 71
     2
 72
     2
 73
     3
 90
        0
 40
-0.6
 41
-30.0
 62
     5
 63
     8
421
  8421504
 74
     1
 91
        4
 64
     7
 65
   257
 75
     1
175
     1
 42
1.0
 92
        8
 66
     8
424
  8421504
 43
1.0
 76
     1
 77
     6
 78
     2
 67
     7
 79
     5
170
     0
171
     0
290
     0
174
     0
 93
        1
 44
0.0
173
     0
291
     1
 45
0.0
1001
ACAD
1000
AcDbSavedByObjectVersion
1070
     0
  0
VISUALSTYLE
  5
34
102
{ACAD_REACTORS
330
2A
102
}
102
{ACAD_XDICTIONARY
360
430
102
}
330
2A
100
AcDbVisualStyle
  2
Conceptual
 70
     9
 71
     3
 72
     2
 73
     0
 90
        0
 40
-0.6
 41
-30.0
 62
     5
 63
     7
421
 16777215
 74
     2
 91
        2
 64
     7
 65
   257
 75
     1
175
     1
 42
40.0
 92
        8
 66
     7
 43
1.0
 76
     1
 77
     6
 78
     2
 67
     7
 79
     3
170
     0
171
     0
290
     0
174
     0
 93
        1
 44
0.0
173
     0
291
     0
 45
0.0
1001
ACAD
1000
AcDbSavedByObjectVersion
1070
     0
  0
VISUALSTYLE
  5
35
102
{ACAD_REACTORS
330
2A
102
}
102
{ACAD_XDICTIONARY
360
432
102
}
330
2A
100
AcDbVisualStyle
  2
Dim
 70
    11
 71
     2
 72
     2
 73
     0
 90
        0
 40
-0.6
 41
-30.0
 62
     5
 63
     7
421
 16777215
 74
     1
 91
        4
 64
     7
 65
   257
 75
     1
175
     1
 42
1.0
 92
        8
 66
     7
 43
1.0
 76
     1
 77
     6
 78
     2
 67
     7
 79
     5
170
     0
171
     0
290
     0
174
     0
 93
        1
 44
-50.0
173
     0
291
     1
 45
0.0
1001
ACAD
1000
AcDbSavedByObjectVersion
1070
     0
  0
VISUALSTYLE
  5
39
102
{ACAD_REACTORS
330
2A
102
}
102
{ACAD_XDICTIONARY
360
43A
102
}
330
2A
100
AcDbVisualStyle
  2
Facepattern
 70
    15
 71
     2
 72
     2
 73
     0
 90
        0
 40
-0.6
 41
-30.0
 62
     5
 63
     7
421
 16777215
 74
     1
 91
        4
 64
     7
 65
   257
 75
     1
175
     1
 42
1.0
 92
        8
 66
     7
 43
1.0
 76
     1
 77
     6
 78
     2
 67
     7
 79
     5
170
     0
171
     0
290
     0
174
     0
 93
        1
 44
0.0
173
     0
291
     1
 45
0.0
1001
ACAD
1000
AcDbSavedByObjectVersion
1070
     0
  0
VISUALSTYLE
  5
2B
102
{ACAD_REACTORS
330
2A
102
}
102
{ACAD_XDICTIONARY
360
41E
102
}
330
2A
100
AcDbVisualStyle
  2
Flat
 70
     0
 71
     2
 72
     1
 73
     1
 90
        2
 40
-0.6
 41
30.0
 62
     5
 63
     7
421
 16777215
 74
     0
 91
        4
 64
     7
 65
   257
 75
     1
175
     1
 42
1.0
 92
        8
 66
     7
 43
1.0
 76
     1
 77
     6
 78
     2
 67
     7
 79
     5
170
     0
171
     0
290
     0
174
     0
 93
       13
 44
0.0
173
     0
291
     1
 45
0.0
1001
ACAD
1000
AcDbSavedByObjectVersion
1070
     0
  0
VISUALSTYLE
  5
2C
102
{ACAD_REACTORS
330
2A
102
}
102
{ACAD_XDICTIONARY
360
420
102
}
330
2A
100
AcDbVisualStyle
  2
FlatWithEdges
 70
     1
 71
     2
 72
     1
 73
     1
 90
        2
 40
-0.6
 41
30.0
 62
     5
 63
     7
421
 16777215
 74
     1
 91
        4
 64
     7
 65
   257
 75
     1
175
     1
 42
1.0
 92
        0
 66
   257
 43
1.0
 76
     1
 77
     6
 78
     2
 67
     7
 79
     5
170
     0
171
     0
290
     0
174
     0
 93
       13
 44
0.0
173
     0
291
     1
 45
0.0
1001
ACAD
1000
AcDbSavedByObjectVersion
1070
     0
  0
VISUALSTYLE
  5
2D
102
{ACAD_REACTORS
330
2A
102
}
102
{ACAD_XDICTIONARY
360
422
102
}
330
2A
100
AcDbVisualStyle
  2
Gouraud
 70
     2
 71
     2
 72
     2
 73
     1
 90
        2
 40
-0.6
 41
30.0
 62
     5
 63
     7
421
 16777215
 74
     0
 91
        4
 64
     7
 65
   257
 75
     1
175
     1
 42
1.0
 92
        0
 66
     7
 43
1.0
 76
     1
 77
     6
 78
     2
 67
     7
 79
     5
170
     0
171
     0
290
     0
174
     0
 93
       13
 44
0.0
173
     0
291
     1
 45
0.0
1001
ACAD
1000
AcDbSavedByObjectVersion
1070
     0
  0
VISUALSTYLE
  5
2E
102
{ACAD_REACTORS
330
2A
102
}
102
{ACAD_XDICTIONARY
360
424
102
}
330
2A
100
AcDbVisualStyle
  2
GouraudWithEdges
 70
     3
 71
     2
 72
     2
 73
     1
 90
        2
 40
-0.6
 41
30.0
 62
     5
 63
     7
421
 16777215
 74
     1
 91
        4
 64
     7
 65
   257
 75
     1
175
     1
 42
1.0
 92
        0
 66
   257
 43
1.0
 76
     1
 77
     6
 78
     2
 67
     7
 79
     5
170
     0
171
     0
290
     0
174
     0
 93
       13
 44
0.0
173
     0
291
     1
 45
0.0
1001
ACAD
1000
AcDbSavedByObjectVersion
1070
     0
  0
VISUALSTYLE
  5
38
102
{ACAD_REACTORS
330
2A
102
}
102
{ACAD_XDICTIONARY
360
438
102
}
330
2A
100
AcDbVisualStyle
  2
Linepattern
 70
    14
 71
     2
 72
     2
 73
     0
 90
        0
 40
-0.6
 41
-30.0
 62
     5
 63
     7
421
 16777215
 74
     1
 91
        4
 64
     7
 65
   257
 75
     7
175
     7
 42
1.0
 92
        8
 66
     7
 43
1.0
 76
     1
 77
     6
 78
     2
 67
     7
 79
     5
170
     0
171
     0
290
     0
174
     0
 93
        1
 44
0.0
173
     0
291
     1
 45
0.0
1001
ACAD
1000
AcDbSavedByObjectVersion
1070
     0
  0
VISUALSTYLE
  5
33
102
{ACAD_REACTORS
330
2A
102
}
102
{ACAD_XDICTIONARY
360
42E
102
}
330
2A
100
AcDbVisualStyle
  2
Realistic
 70
     8
 71
     2
 72
     2
 73
     0
 90
        0
 40
-0.6
 41
-30.0
 62
     5
 63
     7
421
 16777215
 74
     1
 91
        0
 64
     7
 65
   257
 75
     1
175
     1
 42
1.0
 92
        8
 66
     8
424
  7895160
 43
1.0
 76
     1
 77
     6
 78
     2
 67
     7
 79
     5
170
     0
171
     0
290
     0
174
     0
 93
       13
 44
0.0
173
     0
291
     0
 45
0.0
1001
ACAD
1000
AcDbSavedByObjectVersion
1070
     0
  0
VISUALSTYLE
  5
37
102
{ACAD_REACTORS
330
2A
102
}
102
{ACAD_XDICTIONARY
360
436
102
}
330
2A
100
AcDbVisualStyle
  2
Thicken
 70
    13
 71
     2
 72
     2
 73
     0
 90
        0
 40
-0.6
 41
-30.0
 62
     5
 63
     7
421
 16777215
 74
     1
 91
        4
 64
     7
 65
   257
 75
     1
175
     1
 42
1.0
 92
       12
 66
     7
 43
1.0
 76
     1
 77
     6
 78
     2
 67
     7
 79
     5
170
     0
171
     0
290
     0
174
     0
 93
        1
 44
0.0
173
     0
291
     1
 45
0.0
1001
ACAD
1000
AcDbSavedByObjectVersion
1070
     0
  0
DICTIONARY
  5
440
330
3D
100
AcDbDictionary
280
     1
281
     1
  3
ACAD_XREC_ROUNDTRIP
360
441
  0
DICTIONARY
  5
43E
330
3C
100
AcDbDictionary
280
     1
281
     1
  3
ACAD_XREC_ROUNDTRIP
360
43F
  0
DICTIONARY
  5
442
330
3E
100
AcDbDictionary
280
     1
281
     1
  3
ACAD_XREC_ROUNDTRIP
360
443
  0
DICTIONARY
  5
426
330
2F
100
AcDbDictionary
280
     1
281
     1
  3
ACAD_XREC_ROUNDTRIP
360
427
  0
DICTIONARY
  5
42A
330
31
100
AcDbDictionary
280
     1
281
     1
  3
ACAD_XREC_ROUNDTRIP
360
42B
  0
DICTIONARY
  5
428
330
30
100
AcDbDictionary
280
     1
281
     1
  3
ACAD_XREC_ROUNDTRIP
360
429
  0
DICTIONARY
  5
42C
330
32
100
AcDbDictionary
280
     1
281
     1
  3
ACAD_XREC_ROUNDTRIP
360
42D
  0
DICTIONARY
  5
434
330
36
100
AcDbDictionary
280
     1
281
     1
  3
ACAD_XREC_ROUNDTRIP
360
435
  0
DICTIONARY
  5
43C
330
3A
100
AcDbDictionary
280
     1
281
     1
  3
ACAD_XREC_ROUNDTRIP
360
43D
  0
DICTIONARY
  5
430
330
34
100
AcDbDictionary
280
     1
281
     1
  3
ACAD_XREC_ROUNDTRIP
360
431
  0
DICTIONARY
  5
432
330
35
100
AcDbDictionary
280
     1
281
     1
  3
ACAD_XREC_ROUNDTRIP
360
433
  0
DICTIONARY
  5
43A
330
39
100
AcDbDictionary
280
     1
281
     1
  3
ACAD_XREC_ROUNDTRIP
360
43B
  0
DICTIONARY
  5
41E
330
2B
100
AcDbDictionary
280
     1
281
     1
  3
ACAD_XREC_ROUNDTRIP
360
41F
  0
DICTIONARY
  5
420
330
2C
100
AcDbDictionary
280
     1
281
     1
  3
ACAD_XREC_ROUNDTRIP
360
421
  0
DICTIONARY
  5
422
330
2D
100
AcDbDictionary
280
     1
281
     1
  3
ACAD_XREC_ROUNDTRIP
360
423
  0
DICTIONARY
  5
424
330
2E
100
AcDbDictionary
280
     1
281
     1
  3
ACAD_XREC_ROUNDTRIP
360
425
  0
DICTIONARY
  5
438
330
38
100
AcDbDictionary
280
     1
281
     1
  3
ACAD_XREC_ROUNDTRIP
360
439
  0
DICTIONARY
  5
42E
330
33
100
AcDbDictionary
280
     1
281
     1
  3
ACAD_XREC_ROUNDTRIP
360
42F
  0
DICTIONARY
  5
436
330
37
100
AcDbDictionary
280
     1
281
     1
  3
ACAD_XREC_ROUNDTRIP
360
437
  0
XRECORD
  5
441
102
{ACAD_REACTORS
330
440
102
}
330
440
100
AcDbXrecord
280
     1
102
MATERIAL
148
0.0
149
0.0
149
0.0
 93
        0
 94
      127
282
     0
 72
     1
 77
     1
171
     1
175
     1
179
     1
273
     0
  0
XRECORD
  5
43F
102
{ACAD_REACTORS
330
43E
102
}
330
43E
100
AcDbXrecord
280
     1
102
MATERIAL
148
0.0
149
0.0
149
0.0
 93
        0
 94
      127
282
     0
 72
     1
 77
     1
171
     1
175
     1
179
     1
273
     0
  0
XRECORD
  5
443
102
{ACAD_REACTORS
330
442
102
}
330
442
100
AcDbXrecord
280
     1
102
MATERIAL
148
0.0
149
0.0
149
0.0
 93
        0
 94
      127
282
     0
 72
     1
 77
     1
171
     1
175
     1
179
     1
273
     0
  0
XRECORD
  5
427
102
{ACAD_REACTORS
330
426
102
}
330
426
100
AcDbXrecord
280
     1
102
RTVSPropertyOp0
 70
     1
102
RTVSPropertyOp1
 70
     1
102
RTVSPropertyOp2
 70
     1
102
RTVSPropertyOp3
 70
     1
102
RTVSPropertyOp4
 70
     1
102
RTVSPropertyOp5
 70
     1
102
RTVSPropertyOp6
 70
     1
102
RTVSPropertyOp7
 70
     1
102
RTVSPropertyOp8
 70
     1
102
RTVSPropertyOp9
 70
     1
102
RTVSPropertyOp10
 70
     1
102
RTVSPropertyOp11
 70
     1
102
RTVSPropertyOp12
 70
     1
102
RTVSPropertyOp13
 70
     1
102
RTVSPropertyOp14
 70
     1
102
RTVSPropertyOp15
 70
     1
102
RTVSPropertyOp16
 70
     1
102
RTVSPropertyOp17
 70
     1
102
RTVSPropertyOp18
 70
     1
102
RTVSPropertyOp19
 70
     1
102
RTVSPropertyOp20
 70
     1
102
RTVSPropertyOp21
 70
     1
102
RTVSPropertyOp22
 70
     1
102
RTVSPropertyOp23
 70
     1
102
RTVSPropertyOp24
 70
     1
102
RTVSPropertyOp25
 70
     1
102
RTVSPropertyOp26
 70
     1
102
RTVSPropertyOp27
 70
     1
102
RTVSPropertyOp28
 70
     1
102
RTVSPropertyOp29
 70
     1
102
RTVSPropertyOp30
 70
     1
102
RTVSPropertyOp31
 70
     1
102
RTVSPropertyOp32
 70
     1
  0
XRECORD
  5
42B
102
{ACAD_REACTORS
330
42A
102
}
330
42A
100
AcDbXrecord
280
     1
102
RTVSPropertyOp0
 70
     1
102
RTVSPropertyOp1
 70
     1
102
RTVSPropertyOp2
 70
     1
102
RTVSPropertyOp3
 70
     1
102
RTVSPropertyOp4
 70
     1
102
RTVSPropertyOp5
 70
     1
102
RTVSPropertyOp6
 70
     1
102
RTVSPropertyOp7
 70
     1
102
RTVSPropertyOp8
 70
     1
102
RTVSPropertyOp9
 70
     1
102
RTVSPropertyOp10
 70
     1
102
RTVSPropertyOp11
 70
     1
102
RTVSPropertyOp12
 70
     1
102
RTVSPropertyOp13
 70
     1
102
RTVSPropertyOp14
 70
     1
102
RTVSPropertyOp15
 70
     1
102
RTVSPropertyOp16
 70
     1
102
RTVSPropertyOp17
 70
     1
102
RTVSPropertyOp18
 70
     1
102
RTVSPropertyOp19
 70
     1
102
RTVSPropertyOp20
 70
     1
102
RTVSPropertyOp21
 70
     1
102
RTVSPropertyOp22
 70
     1
102
RTVSPropertyOp23
 70
     1
102
RTVSPropertyOp24
 70
     1
102
RTVSPropertyOp25
 70
     1
102
RTVSPropertyOp26
 70
     1
102
RTVSPropertyOp27
 70
     1
102
RTVSPropertyOp28
 70
     1
102
RTVSPropertyOp29
 70
     1
102
RTVSPropertyOp30
 70
     1
102
RTVSPropertyOp31
 70
     1
102
RTVSPropertyOp32
 70
     1
  0
XRECORD
  5
429
102
{ACAD_REACTORS
330
428
102
}
330
428
100
AcDbXrecord
280
     1
102
RTVSPropertyOp0
 70
     1
102
RTVSPropertyOp1
 70
     1
102
RTVSPropertyOp2
 70
     1
102
RTVSPropertyOp3
 70
     1
102
RTVSPropertyOp4
 70
     1
102
RTVSPropertyOp5
 70
     1
102
RTVSPropertyOp6
 70
     1
102
RTVSPropertyOp7
 70
     1
102
RTVSPropertyOp8
 70
     1
102
RTVSPropertyOp9
 70
     1
102
RTVSPropertyOp10
 70
     1
102
RTVSPropertyOp11
 70
     1
102
RTVSPropertyOp12
 70
     1
102
RTVSPropertyOp13
 70
     1
102
RTVSPropertyOp14
 70
     1
102
RTVSPropertyOp15
 70
     1
102
RTVSPropertyOp16
 70
     1
102
RTVSPropertyOp17
 70
     1
102
RTVSPropertyOp18
 70
     1
102
RTVSPropertyOp19
 70
     1
102
RTVSPropertyOp20
 70
     1
102
RTVSPropertyOp21
 70
     1
102
RTVSPropertyOp22
 70
     1
102
RTVSPropertyOp23
 70
     1
102
RTVSPropertyOp24
 70
     1
102
RTVSPropertyOp25
 70
     1
102
RTVSPropertyOp26
 70
     1
102
RTVSPropertyOp27
 70
     1
102
RTVSPropertyOp28
 70
     1
102
RTVSPropertyOp29
 70
     1
102
RTVSPropertyOp30
 70
     1
102
RTVSPropertyOp31
 70
     1
102
RTVSPropertyOp32
 70
     1
  0
XRECORD
  5
42D
102
{ACAD_REACTORS
330
42C
102
}
330
42C
100
AcDbXrecord
280
     1
102
RTVSPropertyOp0
 70
     1
102
RTVSPropertyOp1
 70
     1
102
RTVSPropertyOp2
 70
     1
102
RTVSPropertyOp3
 70
     1
102
RTVSPropertyOp4
 70
     1
102
RTVSPropertyOp5
 70
     1
102
RTVSPropertyOp6
 70
     1
102
RTVSPropertyOp7
 70
     1
102
RTVSPropertyOp8
 70
     1
102
RTVSPropertyOp9
 70
     1
102
RTVSPropertyOp10
 70
     1
102
RTVSPropertyOp11
 70
     1
102
RTVSPropertyOp12
 70
     1
102
RTVSPropertyOp13
 70
     1
102
RTVSPropertyOp14
 70
     1
102
RTVSPropertyOp15
 70
     1
102
RTVSPropertyOp16
 70
     1
102
RTVSPropertyOp17
 70
     1
102
RTVSPropertyOp18
 70
     1
102
RTVSPropertyOp19
 70
     1
102
RTVSPropertyOp20
 70
     1
102
RTVSPropertyOp21
 70
     1
102
RTVSPropertyOp22
 70
     1
102
RTVSPropertyOp23
 70
     1
102
RTVSPropertyOp24
 70
     1
102
RTVSPropertyOp25
 70
     1
102
RTVSPropertyOp26
 70
     1
102
RTVSPropertyOp27
 70
     1
102
RTVSPropertyOp28
 70
     1
102
RTVSPropertyOp29
 70
     1
102
RTVSPropertyOp30
 70
     1
102
RTVSPropertyOp31
 70
     1
102
RTVSPropertyOp32
 70
     1
  0
XRECORD
  5
435
102
{ACAD_REACTORS
330
434
102
}
330
434
100
AcDbXrecord
280
     1
102
RTVSPropertyOp0
 70
     1
102
RTVSPropertyOp1
 70
     1
102
RTVSPropertyOp2
 70
     1
102
RTVSPropertyOp3
 70
     1
102
RTVSPropertyOp4
 70
     1
102
RTVSPropertyOp5
 70
     1
102
RTVSPropertyOp6
 70
     1
102
RTVSPropertyOp7
 70
     1
102
RTVSPropertyOp8
 70
     1
102
RTVSPropertyOp9
 70
     1
102
RTVSPropertyOp10
 70
     1
102
RTVSPropertyOp11
 70
     1
102
RTVSPropertyOp12
 70
     1
102
RTVSPropertyOp13
 70
     1
102
RTVSPropertyOp14
 70
     1
102
RTVSPropertyOp15
 70
     1
102
RTVSPropertyOp16
 70
     1
102
RTVSPropertyOp17
 70
     1
102
RTVSPropertyOp18
 70
     1
102
RTVSPropertyOp19
 70
     1
102
RTVSPropertyOp20
 70
     1
102
RTVSPropertyOp21
 70
     1
102
RTVSPropertyOp22
 70
     1
102
RTVSPropertyOp23
 70
     1
102
RTVSPropertyOp24
 70
     1
102
RTVSPropertyOp25
 70
     1
102
RTVSPropertyOp26
 70
     1
102
RTVSPropertyOp27
 70
     1
102
RTVSPropertyOp28
 70
     1
102
RTVSPropertyOp29
 70
     1
102
RTVSPropertyOp30
 70
     1
102
RTVSPropertyOp31
 70
     1
102
RTVSPropertyOp32
 70
     1
  0
XRECORD
  5
43D
102
{ACAD_REACTORS
330
43C
102
}
330
43C
100
AcDbXrecord
280
     1
102
RTVSPropertyOp0
 70
     1
102
RTVSPropertyOp1
 70
     1
102
RTVSPropertyOp2
 70
     1
102
RTVSPropertyOp3
 70
     1
102
RTVSPropertyOp4
 70
     1
102
RTVSPropertyOp5
 70
     1
102
RTVSPropertyOp6
 70
     1
102
RTVSPropertyOp7
 70
     1
102
RTVSPropertyOp8
 70
     1
102
RTVSPropertyOp9
 70
     1
102
RTVSPropertyOp10
 70
     1
102
RTVSPropertyOp11
 70
     1
102
RTVSPropertyOp12
 70
     1
102
RTVSPropertyOp13
 70
     1
102
RTVSPropertyOp14
 70
     1
102
RTVSPropertyOp15
 70
     1
102
RTVSPropertyOp16
 70
     1
102
RTVSPropertyOp17
 70
     1
102
RTVSPropertyOp18
 70
     1
102
RTVSPropertyOp19
 70
     1
102
RTVSPropertyOp20
 70
     1
102
RTVSPropertyOp21
 70
     1
102
RTVSPropertyOp22
 70
     1
102
RTVSPropertyOp23
 70
     1
102
RTVSPropertyOp24
 70
     1
102
RTVSPropertyOp25
 70
     1
102
RTVSPropertyOp26
 70
     1
102
RTVSPropertyOp27
 70
     1
102
RTVSPropertyOp28
 70
     1
102
RTVSPropertyOp29
 70
     1
102
RTVSPropertyOp30
 70
     1
102
RTVSPropertyOp31
 70
     1
102
RTVSPropertyOp32
 70
     1
  0
XRECORD
  5
431
102
{ACAD_REACTORS
330
430
102
}
330
430
100
AcDbXrecord
280
     1
102
RTVSPropertyOp0
 70
     1
102
RTVSPropertyOp1
 70
     1
102
RTVSPropertyOp2
 70
     1
102
RTVSPropertyOp3
 70
     1
102
RTVSPropertyOp4
 70
     1
102
RTVSPropertyOp5
 70
     1
102
RTVSPropertyOp6
 70
     1
102
RTVSPropertyOp7
 70
     1
102
RTVSPropertyOp8
 70
     1
102
RTVSPropertyOp9
 70
     1
102
RTVSPropertyOp10
 70
     1
102
RTVSPropertyOp11
 70
     1
102
RTVSPropertyOp12
 70
     1
102
RTVSPropertyOp13
 70
     1
102
RTVSPropertyOp14
 70
     1
102
RTVSPropertyOp15
 70
     1
102
RTVSPropertyOp16
 70
     1
102
RTVSPropertyOp17
 70
     1
102
RTVSPropertyOp18
 70
     1
102
RTVSPropertyOp19
 70
     1
102
RTVSPropertyOp20
 70
     1
102
RTVSPropertyOp21
 70
     1
102
RTVSPropertyOp22
 70
     1
102
RTVSPropertyOp23
 70
     1
102
RTVSPropertyOp24
 70
     1
102
RTVSPropertyOp25
 70
     1
102
RTVSPropertyOp26
 70
     1
102
RTVSPropertyOp27
 70
     1
102
RTVSPropertyOp28
 70
     1
102
RTVSPropertyOp29
 70
     1
102
RTVSPropertyOp30
 70
     1
102
RTVSPropertyOp31
 70
     1
102
RTVSPropertyOp32
 70
     1
  0
XRECORD
  5
433
102
{ACAD_REACTORS
330
432
102
}
330
432
100
AcDbXrecord
280
     1
102
RTVSPropertyOp0
 70
     1
102
RTVSPropertyOp1
 70
     1
102
RTVSPropertyOp2
 70
     1
102
RTVSPropertyOp3
 70
     1
102
RTVSPropertyOp4
 70
     1
102
RTVSPropertyOp5
 70
     1
102
RTVSPropertyOp6
 70
     1
102
RTVSPropertyOp7
 70
     1
102
RTVSPropertyOp8
 70
     1
102
RTVSPropertyOp9
 70
     1
102
RTVSPropertyOp10
 70
     1
102
RTVSPropertyOp11
 70
     1
102
RTVSPropertyOp12
 70
     1
102
RTVSPropertyOp13
 70
     1
102
RTVSPropertyOp14
 70
     1
102
RTVSPropertyOp15
 70
     1
102
RTVSPropertyOp16
 70
     1
102
RTVSPropertyOp17
 70
     1
102
RTVSPropertyOp18
 70
     1
102
RTVSPropertyOp19
 70
     1
102
RTVSPropertyOp20
 70
     1
102
RTVSPropertyOp21
 70
     1
102
RTVSPropertyOp22
 70
     1
102
RTVSPropertyOp23
 70
     1
102
RTVSPropertyOp24
 70
     1
102
RTVSPropertyOp25
 70
     1
102
RTVSPropertyOp26
 70
     1
102
RTVSPropertyOp27
 70
     1
102
RTVSPropertyOp28
 70
     1
102
RTVSPropertyOp29
 70
     1
102
RTVSPropertyOp30
 70
     1
102
RTVSPropertyOp31
 70
     1
102
RTVSPropertyOp32
 70
     1
  0
XRECORD
  5
43B
102
{ACAD_REACTORS
330
43A
102
}
330
43A
100
AcDbXrecord
280
     1
102
RTVSPropertyOp0
 70
     1
102
RTVSPropertyOp1
 70
     1
102
RTVSPropertyOp2
 70
     1
102
RTVSPropertyOp3
 70
     1
102
RTVSPropertyOp4
 70
     1
102
RTVSPropertyOp5
 70
     1
102
RTVSPropertyOp6
 70
     1
102
RTVSPropertyOp7
 70
     1
102
RTVSPropertyOp8
 70
     1
102
RTVSPropertyOp9
 70
     1
102
RTVSPropertyOp10
 70
     1
102
RTVSPropertyOp11
 70
     1
102
RTVSPropertyOp12
 70
     1
102
RTVSPropertyOp13
 70
     1
102
RTVSPropertyOp14
 70
     1
102
RTVSPropertyOp15
 70
     1
102
RTVSPropertyOp16
 70
     1
102
RTVSPropertyOp17
 70
     1
102
RTVSPropertyOp18
 70
     1
102
RTVSPropertyOp19
 70
     1
102
RTVSPropertyOp20
 70
     1
102
RTVSPropertyOp21
 70
     1
102
RTVSPropertyOp22
 70
     1
102
RTVSPropertyOp23
 70
     1
102
RTVSPropertyOp24
 70
     1
102
RTVSPropertyOp25
 70
     1
102
RTVSPropertyOp26
 70
     1
102
RTVSPropertyOp27
 70
     1
102
RTVSPropertyOp28
 70
     1
102
RTVSPropertyOp29
 70
     1
102
RTVSPropertyOp30
 70
     1
102
RTVSPropertyOp31
 70
     1
102
RTVSPropertyOp32
 70
     1
  0
XRECORD
  5
41F
102
{ACAD_REACTORS
330
41E
102
}
330
41E
100
AcDbXrecord
280
     1
102
RTVSPropertyOp0
 70
     1
102
RTVSPropertyOp1
 70
     1
102
RTVSPropertyOp2
 70
     1
102
RTVSPropertyOp3
 70
     1
102
RTVSPropertyOp4
 70
     1
102
RTVSPropertyOp5
 70
     1
102
RTVSPropertyOp6
 70
     1
102
RTVSPropertyOp7
 70
     1
102
RTVSPropertyOp8
 70
     1
102
RTVSPropertyOp9
 70
     1
102
RTVSPropertyOp10
 70
     1
102
RTVSPropertyOp11
 70
     1
102
RTVSPropertyOp12
 70
     1
102
RTVSPropertyOp13
 70
     1
102
RTVSPropertyOp14
 70
     1
102
RTVSPropertyOp15
 70
     1
102
RTVSPropertyOp16
 70
     1
102
RTVSPropertyOp17
 70
     1
102
RTVSPropertyOp18
 70
     1
102
RTVSPropertyOp19
 70
     1
102
RTVSPropertyOp20
 70
     1
102
RTVSPropertyOp21
 70
     1
102
RTVSPropertyOp22
 70
     1
102
RTVSPropertyOp23
 70
     1
102
RTVSPropertyOp24
 70
     1
102
RTVSPropertyOp25
 70
     1
102
RTVSPropertyOp26
 70
     1
102
RTVSPropertyOp27
 70
     1
102
RTVSPropertyOp28
 70
     1
102
RTVSPropertyOp29
 70
     1
102
RTVSPropertyOp30
 70
     1
102
RTVSPropertyOp31
 70
     1
102
RTVSPropertyOp32
 70
     1
  0
XRECORD
  5
421
102
{ACAD_REACTORS
330
420
102
}
330
420
100
AcDbXrecord
280
     1
102
RTVSPropertyOp0
 70
     1
102
RTVSPropertyOp1
 70
     1
102
RTVSPropertyOp2
 70
     1
102
RTVSPropertyOp3
 70
     1
102
RTVSPropertyOp4
 70
     1
102
RTVSPropertyOp5
 70
     1
102
RTVSPropertyOp6
 70
     1
102
RTVSPropertyOp7
 70
     1
102
RTVSPropertyOp8
 70
     1
102
RTVSPropertyOp9
 70
     1
102
RTVSPropertyOp10
 70
     1
102
RTVSPropertyOp11
 70
     1
102
RTVSPropertyOp12
 70
     1
102
RTVSPropertyOp13
 70
     1
102
RTVSPropertyOp14
 70
     1
102
RTVSPropertyOp15
 70
     1
102
RTVSPropertyOp16
 70
     1
102
RTVSPropertyOp17
 70
     1
102
RTVSPropertyOp18
 70
     1
102
RTVSPropertyOp19
 70
     1
102
RTVSPropertyOp20
 70
     1
102
RTVSPropertyOp21
 70
     1
102
RTVSPropertyOp22
 70
     1
102
RTVSPropertyOp23
 70
     1
102
RTVSPropertyOp24
 70
     1
102
RTVSPropertyOp25
 70
     1
102
RTVSPropertyOp26
 70
     1
102
RTVSPropertyOp27
 70
     1
102
RTVSPropertyOp28
 70
     1
102
RTVSPropertyOp29
 70
     1
102
RTVSPropertyOp30
 70
     1
102
RTVSPropertyOp31
 70
     1
102
RTVSPropertyOp32
 70
     1
  0
XRECORD
  5
423
102
{ACAD_REACTORS
330
422
102
}
330
422
100
AcDbXrecord
280
     1
102
RTVSPropertyOp0
 70
     1
102
RTVSPropertyOp1
 70
     1
102
RTVSPropertyOp2
 70
     1
102
RTVSPropertyOp3
 70
     1
102
RTVSPropertyOp4
 70
     1
102
RTVSPropertyOp5
 70
     1
102
RTVSPropertyOp6
 70
     1
102
RTVSPropertyOp7
 70
     1
102
RTVSPropertyOp8
 70
     1
102
RTVSPropertyOp9
 70
     1
102
RTVSPropertyOp10
 70
     1
102
RTVSPropertyOp11
 70
     1
102
RTVSPropertyOp12
 70
     1
102
RTVSPropertyOp13
 70
     1
102
RTVSPropertyOp14
 70
     1
102
RTVSPropertyOp15
 70
     1
102
RTVSPropertyOp16
 70
     1
102
RTVSPropertyOp17
 70
     1
102
RTVSPropertyOp18
 70
     1
102
RTVSPropertyOp19
 70
     1
102
RTVSPropertyOp20
 70
     1
102
RTVSPropertyOp21
 70
     1
102
RTVSPropertyOp22
 70
     1
102
RTVSPropertyOp23
 70
     1
102
RTVSPropertyOp24
 70
     1
102
RTVSPropertyOp25
 70
     1
102
RTVSPropertyOp26
 70
     1
102
RTVSPropertyOp27
 70
     1
102
RTVSPropertyOp28
 70
     1
102
RTVSPropertyOp29
 70
     1
102
RTVSPropertyOp30
 70
     1
102
RTVSPropertyOp31
 70
     1
102
RTVSPropertyOp32
 70
     1
  0
XRECORD
  5
425
102
{ACAD_REACTORS
330
424
102
}
330
424
100
AcDbXrecord
280
     1
102
RTVSPropertyOp0
 70
     1
102
RTVSPropertyOp1
 70
     1
102
RTVSPropertyOp2
 70
     1
102
RTVSPropertyOp3
 70
     1
102
RTVSPropertyOp4
 70
     1
102
RTVSPropertyOp5
 70
     1
102
RTVSPropertyOp6
 70
     1
102
RTVSPropertyOp7
 70
     1
102
RTVSPropertyOp8
 70
     1
102
RTVSPropertyOp9
 70
     1
102
RTVSPropertyOp10
 70
     1
102
RTVSPropertyOp11
 70
     1
102
RTVSPropertyOp12
 70
     1
102
RTVSPropertyOp13
 70
     1
102
RTVSPropertyOp14
 70
     1
102
RTVSPropertyOp15
 70
     1
102
RTVSPropertyOp16
 70
     1
102
RTVSPropertyOp17
 70
     1
102
RTVSPropertyOp18
 70
     1
102
RTVSPropertyOp19
 70
     1
102
RTVSPropertyOp20
 70
     1
102
RTVSPropertyOp21
 70
     1
102
RTVSPropertyOp22
 70
     1
102
RTVSPropertyOp23
 70
     1
102
RTVSPropertyOp24
 70
     1
102
RTVSPropertyOp25
 70
     1
102
RTVSPropertyOp26
 70
     1
102
RTVSPropertyOp27
 70
     1
102
RTVSPropertyOp28
 70
     1
102
RTVSPropertyOp29
 70
     1
102
RTVSPropertyOp30
 70
     1
102
RTVSPropertyOp31
 70
     1
102
RTVSPropertyOp32
 70
     1
  0
XRECORD
  5
439
102
{ACAD_REACTORS
330
438
102
}
330
438
100
AcDbXrecord
280
     1
102
RTVSPropertyOp0
 70
     1
102
RTVSPropertyOp1
 70
     1
102
RTVSPropertyOp2
 70
     1
102
RTVSPropertyOp3
 70
     1
102
RTVSPropertyOp4
 70
     1
102
RTVSPropertyOp5
 70
     1
102
RTVSPropertyOp6
 70
     1
102
RTVSPropertyOp7
 70
     1
102
RTVSPropertyOp8
 70
     1
102
RTVSPropertyOp9
 70
     1
102
RTVSPropertyOp10
 70
     1
102
RTVSPropertyOp11
 70
     1
102
RTVSPropertyOp12
 70
     1
102
RTVSPropertyOp13
 70
     1
102
RTVSPropertyOp14
 70
     1
102
RTVSPropertyOp15
 70
     1
102
RTVSPropertyOp16
 70
     1
102
RTVSPropertyOp17
 70
     1
102
RTVSPropertyOp18
 70
     1
102
RTVSPropertyOp19
 70
     1
102
RTVSPropertyOp20
 70
     1
102
RTVSPropertyOp21
 70
     1
102
RTVSPropertyOp22
 70
     1
102
RTVSPropertyOp23
 70
     1
102
RTVSPropertyOp24
 70
     1
102
RTVSPropertyOp25
 70
     1
102
RTVSPropertyOp26
 70
     1
102
RTVSPropertyOp27
 70
     1
102
RTVSPropertyOp28
 70
     1
102
RTVSPropertyOp29
 70
     1
102
RTVSPropertyOp30
 70
     1
102
RTVSPropertyOp31
 70
     1
102
RTVSPropertyOp32
 70
     1
  0
XRECORD
  5
42F
102
{ACAD_REACTORS
330
42E
102
}
330
42E
100
AcDbXrecord
280
     1
102
RTVSPropertyOp0
 70
     1
102
RTVSPropertyOp1
 70
     1
102
RTVSPropertyOp2
 70
     1
102
RTVSPropertyOp3
 70
     1
102
RTVSPropertyOp4
 70
     1
102
RTVSPropertyOp5
 70
     1
102
RTVSPropertyOp6
 70
     1
102
RTVSPropertyOp7
 70
     1
102
RTVSPropertyOp8
 70
     1
102
RTVSPropertyOp9
 70
     1
102
RTVSPropertyOp10
 70
     1
102
RTVSPropertyOp11
 70
     1
102
RTVSPropertyOp12
 70
     1
102
RTVSPropertyOp13
 70
     1
102
RTVSPropertyOp14
 70
     1
102
RTVSPropertyOp15
 70
     1
102
RTVSPropertyOp16
 70
     1
102
RTVSPropertyOp17
 70
     1
102
RTVSPropertyOp18
 70
     1
102
RTVSPropertyOp19
 70
     1
102
RTVSPropertyOp20
 70
     1
102
RTVSPropertyOp21
 70
     1
102
RTVSPropertyOp22
 70
     1
102
RTVSPropertyOp23
 70
     1
102
RTVSPropertyOp24
 70
     1
102
RTVSPropertyOp25
 70
     1
102
RTVSPropertyOp26
 70
     1
102
RTVSPropertyOp27
 70
     1
102
RTVSPropertyOp28
 70
     1
102
RTVSPropertyOp29
 70
     1
102
RTVSPropertyOp30
 70
     1
102
RTVSPropertyOp31
 70
     1
102
RTVSPropertyOp32
 70
     1
  0
XRECORD
  5
437
102
{ACAD_REACTORS
330
436
102
}
330
436
100
AcDbXrecord
280
     1
102
RTVSPropertyOp0
 70
     1
102
RTVSPropertyOp1
 70
     1
102
RTVSPropertyOp2
 70
     1
102
RTVSPropertyOp3
 70
     1
102
RTVSPropertyOp4
 70
     1
102
RTVSPropertyOp5
 70
     1
102
RTVSPropertyOp6
 70
     1
102
RTVSPropertyOp7
 70
     1
102
RTVSPropertyOp8
 70
     1
102
RTVSPropertyOp9
 70
     1
102
RTVSPropertyOp10
 70
     1
102
RTVSPropertyOp11
 70
     1
102
RTVSPropertyOp12
 70
     1
102
RTVSPropertyOp13
 70
     1
102
RTVSPropertyOp14
 70
     1
102
RTVSPropertyOp15
 70
     1
102
RTVSPropertyOp16
 70
     1
102
RTVSPropertyOp17
 70
     1
102
RTVSPropertyOp18
 70
     1
102
RTVSPropertyOp19
 70
     1
102
RTVSPropertyOp20
 70
     1
102
RTVSPropertyOp21
 70
     1
102
RTVSPropertyOp22
 70
     1
102
RTVSPropertyOp23
 70
     1
102
RTVSPropertyOp24
 70
     1
102
RTVSPropertyOp25
 70
     1
102
RTVSPropertyOp26
 70
     1
102
RTVSPropertyOp27
 70
     1
102
RTVSPropertyOp28
 70
     1
102
RTVSPropertyOp29
 70
     1
102
RTVSPropertyOp30
 70
     1
102
RTVSPropertyOp31
 70
     1
102
RTVSPropertyOp32
 70
     1
  0
ENDSEC
  0
EOF
