  0
SECTION
  2
HEADER
  9
$ACADVER
  1
AC1018
  9
$ACADMAINTVER
 70
     0
  9
$DWGCODEPAGE
  3
ANSI_1252
  9
$INSBASE
 10
0.0
 20
0.0
 30
0.0
  9
$EXTMIN
 10
-166.5000024525282
 20
301.6500001354356
 30
0.0
  9
$EXTMAX
 10
253.4999975474702
 20
598.6500001354356
 30
0.0
  9
$LIMMIN
 10
0.0
 20
0.0
  9
$LIMMAX
 10
12.0
 20
9.0
  9
$ORTHOMODE
 70
     0
  9
$REGENMODE
 70
     1
  9
$FILLMODE
 70
     1
  9
$QTEXTMODE
 70
     0
  9
$MIRRTEXT
 70
     1
  9
$LTSCALE
 40
1.0
  9
$ATTMODE
 70
     1
  9
$TEXTSIZE
 40
0.2
  9
$TRACEWID
 40
0.05
  9
$TEXTSTYLE
  7
Standard
  9
$CLAYER
  8
0
  9
$CELTYPE
  6
ByLayer
  9
$CECOLOR
 62
   256
  9
$CELTSCALE
 40
1.0
  9
$DISPSILH
 70
     0
  9
$DIMSCALE
 40
1.0
  9
$DIMASZ
 40
0.18
  9
$DIMEXO
 40
0.0625
  9
$DIMDLI
 40
0.38
  9
$DIMRND
 40
0.0
  9
$DIMDLE
 40
0.0
  9
$DIMEXE
 40
0.18
  9
$DIMTP
 40
0.0
  9
$DIMTM
 40
0.0
  9
$DIMTXT
 40
0.18
  9
$DIMCEN
 40
0.09
  9
$DIMTSZ
 40
0.0
  9
$DIMTOL
 70
     0
  9
$DIMLIM
 70
     0
  9
$DIMTIH
 70
     1
  9
$DIMTOH
 70
     1
  9
$DIMSE1
 70
     0
  9
$DIMSE2
 70
     0
  9
$DIMTAD
 70
     0
  9
$DIMZIN
 70
     0
  9
$DIMBLK
  1

  9
$DIMASO
 70
     1
  9
$DIMSHO
 70
     1
  9
$DIMPOST
  1

  9
$DIMAPOST
  1

  9
$DIMALT
 70
     0
  9
$DIMALTD
 70
     2
  9
$DIMALTF
 40
25.4
  9
$DIMLFAC
 40
1.0
  9
$DIMTOFL
 70
     0
  9
$DIMTVP
 40
0.0
  9
$DIMTIX
 70
     0
  9
$DIMSOXD
 70
     0
  9
$DIMSAH
 70
     0
  9
$DIMBLK1
  1

  9
$DIMBLK2
  1

  9
$DIMSTYLE
  2
Standard
  9
$DIMCLRD
 70
     0
  9
$DIMCLRE
 70
     0
  9
$DIMCLRT
 70
     0
  9
$DIMTFAC
 40
1.0
  9
$DIMGAP
 40
0.09
  9
$DIMJUST
 70
     0
  9
$DIMSD1
 70
     0
  9
$DIMSD2
 70
     0
  9
$DIMTOLJ
 70
     1
  9
$DIMTZIN
 70
     0
  9
$DIMALTZ
 70
     0
  9
$DIMALTTZ
 70
     0
  9
$DIMUPT
 70
     0
  9
$DIMDEC
 70
     4
  9
$DIMTDEC
 70
     4
  9
$DIMALTU
 70
     2
  9
$DIMALTTD
 70
     2
  9
$DIMTXSTY
  7
Standard
  9
$DIMAUNIT
 70
     0
  9
$DIMADEC
 70
     0
  9
$DIMALTRND
 40
0.0
  9
$DIMAZIN
 70
     0
  9
$DIMDSEP
 70
    46
  9
$DIMATFIT
 70
     3
  9
$DIMFRAC
 70
     0
  9
$DIMLDRBLK
  1

  9
$DIMLUNIT
 70
     2
  9
$DIMLWD
 70
    -2
  9
$DIMLWE
 70
    -2
  9
$DIMTMOVE
 70
     0
  9
$LUNITS
 70
     2
  9
$LUPREC
 70
     4
  9
$SKETCHINC
 40
0.1
  9
$FILLETRAD
 40
0.5
  9
$AUNITS
 70
     0
  9
$AUPREC
 70
     0
  9
$MENU
  1
.
  9
$ELEVATION
 40
0.0
  9
$PELEVATION
 40
0.0
  9
$THICKNESS
 40
0.0
  9
$LIMCHECK
 70
     0
  9
$CHAMFERA
 40
0.5
  9
$CHAMFERB
 40
0.5
  9
$CHAMFERC
 40
1.0
  9
$CHAMFERD
 40
0.0
  9
$SKPOLY
 70
     0
  9
$TDCREATE
 40
2458148.500524711
  9
$TDUCREATE
 40
2458148.458858044
  9
$TDUPDATE
 40
2458148.500525069
  9
$TDUUPDATE
 40
2458148.458858403
  9
$TDINDWG
 40
0.0000000116
  9
$TDUSRTIMER
 40
0.0000000116
  9
$USRTIMER
 70
     1
  9
$ANGBASE
 50
0.0
  9
$ANGDIR
 70
     0
  9
$PDMODE
 70
     0
  9
$PDSIZE
 40
0.0
  9
$PLINEWID
 40
0.0
  9
$SPLFRAME
 70
     0
  9
$SPLINETYPE
 70
     6
  9
$SPLINESEGS
 70
     8
  9
$HANDSEED
  5
3E0
  9
$SURFTAB1
 70
     6
  9
$SURFTAB2
 70
     6
  9
$SURFTYPE
 70
     6
  9
$SURFU
 70
     6
  9
$SURFV
 70
     6
  9
$UCSBASE
  2

  9
$UCSNAME
  2

  9
$UCSORG
 10
0.0
 20
0.0
 30
0.0
  9
$UCSXDIR
 10
1.0
 20
0.0
 30
0.0
  9
$UCSYDIR
 10
0.0
 20
1.0
 30
0.0
  9
$UCSORTHOREF
  2

  9
$UCSORTHOVIEW
 70
     0
  9
$UCSORGTOP
 10
0.0
 20
0.0
 30
0.0
  9
$UCSORGBOTTOM
 10
0.0
 20
0.0
 30
0.0
  9
$UCSORGLEFT
 10
0.0
 20
0.0
 30
0.0
  9
$UCSORGRIGHT
 10
0.0
 20
0.0
 30
0.0
  9
$UCSORGFRONT
 10
0.0
 20
0.0
 30
0.0
  9
$UCSORGBACK
 10
0.0
 20
0.0
 30
0.0
  9
$PUCSBASE
  2

  9
$PUCSNAME
  2

  9
$PUCSORG
 10
0.0
 20
0.0
 30
0.0
  9
$PUCSXDIR
 10
1.0
 20
0.0
 30
0.0
  9
$PUCSYDIR
 10
0.0
 20
1.0
 30
0.0
  9
$PUCSORTHOREF
  2

  9
$PUCSORTHOVIEW
 70
     0
  9
$PUCSORGTOP
 10
0.0
 20
0.0
 30
0.0
  9
$PUCSORGBOTTOM
 10
0.0
 20
0.0
 30
0.0
  9
$PUCSORGLEFT
 10
0.0
 20
0.0
 30
0.0
  9
$PUCSORGRIGHT
 10
0.0
 20
0.0
 30
0.0
  9
$PUCSORGFRONT
 10
0.0
 20
0.0
 30
0.0
  9
$PUCSORGBACK
 10
0.0
 20
0.0
 30
0.0
  9
$USERI1
 70
     0
  9
$USERI2
 70
     0
  9
$USERI3
 70
     0
  9
$USERI4
 70
     0
  9
$USERI5
 70
     0
  9
$USERR1
 40
18.1
  9
$USERR2
 40
0.0
  9
$USERR3
 40
0.0
  9
$USERR4
 40
0.0
  9
$USERR5
 40
0.0
  9
$WORLDVIEW
 70
     1
  9
$SHADEDGE
 70
     3
  9
$SHADEDIF
 70
    70
  9
$TILEMODE
 70
     1
  9
$MAXACTVP
 70
    64
  9
$PINSBASE
 10
0.0
 20
0.0
 30
0.0
  9
$PLIMCHECK
 70
     0
  9
$PEXTMIN
 10
1.00000000000000E+20
 20
1.00000000000000E+20
 30
1.00000000000000E+20
  9
$PEXTMAX
 10
-1.00000000000000E+20
 20
-1.00000000000000E+20
 30
-1.00000000000000E+20
  9
$PLIMMIN
 10
0.0
 20
0.0
  9
$PLIMMAX
 10
12.0
 20
9.0
  9
$UNITMODE
 70
     0
  9
$VISRETAIN
 70
     1
  9
$PLINEGEN
 70
     0
  9
$PSLTSCALE
 70
     1
  9
$TREEDEPTH
 70
  3020
  9
$CMLSTYLE
  2
Standard
  9
$CMLJUST
 70
     0
  9
$CMLSCALE
 40
1.0
  9
$PROXYGRAPHICS
 70
     1
  9
$MEASUREMENT
 70
     1
  9
$CELWEIGHT
370
    -1
  9
$ENDCAPS
280
     0
  9
$JOINSTYLE
280
     0
  9
$LWDISPLAY
290
     0
  9
$INSUNITS
 70
     4
  9
$HYPERLINKBASE
  1

  9
$STYLESHEET
  1

  9
$XEDIT
290
     1
  9
$CEPSNTYPE
380
     0
  9
$PSTYLEMODE
290
     1
  9
$FINGERPRINTGUID
  2
{8D4E781D-7CF8-4424-9A5E-9E6B260E30A9}
  9
$VERSIONGUID
  2
{FAEB1C32-E019-11D5-929B-00C0DF256EC4}
  9
$EXTNAMES
290
     1
  9
$PSVPSCALE
 40
0.0
  9
$OLESTARTUP
290
     0
  9
$SORTENTS
280
   127
  9
$INDEXCTL
280
     0
  9
$HIDETEXT
280
     1
  9
$XCLIPFRAME
290
     0
  9
$HALOGAP
280
     0
  9
$OBSCOLOR
 70
   257
  9
$OBSLTYPE
280
     0
  9
$INTERSECTIONDISPLAY
280
     0
  9
$INTERSECTIONCOLOR
 70
   257
  9
$DIMASSOC
280
     2
  9
$PROJECTNAME
  1

  0
ENDSEC
  0
SECTION
  2
CLASSES
  0
CLASS
  1
ACDBDICTIONARYWDFLT
  2
AcDbDictionaryWithDefault
  3
ObjectDBX Classes
 90
        0
 91
        4
280
     0
281
     0
  0
CLASS
  1
VISUALSTYLE
  2
AcDbVisualStyle
  3
ObjectDBX Classes
 90
     4095
 91
        4
280
     0
281
     0
  0
CLASS
  1
MATERIAL
  2
AcDbMaterial
  3
ObjectDBX Classes
 90
     1153
 91
        4
280
     0
281
     0
  0
ENDSEC
  0
SECTION
  2
TABLES
  0
TABLE
  2
VPORT
  5
8
330
0
100
AcDbSymbolTable
 70
     1
  0
VPORT
  5
29
330
8
100
AcDbSymbolTableRecord
100
AcDbViewportTableRecord
  2
*Active
 70
     0
 10
0.0
 20
0.0
 11
1.0
 21
1.0
 12
43.499997547471
 22
450.1500001354356
 13
0.0
 23
0.0
 14
0.5
 24
0.5
 15
0.5
 25
0.5
 16
0.0
 26
0.0
 36
1.0
 17
0.0
 27
0.0
 37
0.0
 40
326.7
 41
1.60267857142857
 42
50.0
 43
0.0
 44
0.0
 50
0.0
 51
0.0
 71
     0
 72
   100
 73
     1
 74
     3
 75
     0
 76
     0
 77
     0
 78
     0
281
     0
 65
     1
110
0.0
120
0.0
130
0.0
111
1.0
121
0.0
131
0.0
112
0.0
122
1.0
132
0.0
 79
     0
146
0.0
  0
ENDTAB
  0
TABLE
  2
LTYPE
  5
5
330
0
100
AcDbSymbolTable
 70
     8
  0
LTYPE
  5
14
330
5
100
AcDbSymbolTableRecord
100
AcDbLinetypeTableRecord
  2
ByBlock
 70
     0
  3

 72
    65
 73
     0
 40
0.0
  0
LTYPE
  5
15
330
5
100
AcDbSymbolTableRecord
100
AcDbLinetypeTableRecord
  2
ByLayer
 70
     0
  3

 72
    65
 73
     0
 40
0.0
  0
LTYPE
  5
16
330
5
100
AcDbSymbolTableRecord
100
AcDbLinetypeTableRecord
  2
Continuous
 70
     0
  3
Solid line
 72
    65
 73
     0
 40
0.0
  0
LTYPE
  5
3F
330
5
100
AcDbSymbolTableRecord
100
AcDbLinetypeTableRecord
  2
DASHED
 70
     0
  3
Dashed
 72
    65
 73
     2
 40
15.0
 49
7.0
 74
     0
 49
-8.0
 74
     0
  0
LTYPE
  5
40
330
5
100
AcDbSymbolTableRecord
100
AcDbLinetypeTableRecord
  2
DOTTED
 70
     0
  3
Dotted
 72
    65
 73
     2
 40
1.0
 49
0.0
 74
     0
 49
-1.0
 74
     0
  0
LTYPE
  5
41
330
5
100
AcDbSymbolTableRecord
100
AcDbLinetypeTableRecord
  2
DOT_CENTER
 70
     0
  3
Dot_Center
 72
    65
 73
     4
 40
14.0
 49
12.0
 74
     0
 49
-1.0
 74
     0
 49
0.0
 74
     0
 49
-1.0
 74
     0
  0
LTYPE
  5
42
330
5
100
AcDbSymbolTableRecord
100
AcDbLinetypeTableRecord
  2
LONG_DASHED
 70
     0
  3
Long_Dashed
 72
    65
 73
     2
 40
15.0
 49
10.0
 74
     0
 49
-5.0
 74
     0
  0
LTYPE
  5
43
330
5
100
AcDbSymbolTableRecord
100
AcDbLinetypeTableRecord
  2
DASH_CENTER
 70
     0
  3
Dash_Center
 72
    65
 73
     4
 40
14.0
 49
11.0
 74
     0
 49
-1.0
 74
     0
 49
1.0
 74
     0
 49
-1.0
 74
     0
  0
LTYPE
  5
44
330
5
100
AcDbSymbolTableRecord
100
AcDbLinetypeTableRecord
  2
PHANTOM
 70
     0
  3
Phantom
 72
    65
 73
     6
 40
13.0
 49
10.0
 74
     0
 49
-1.0
 74
     0
 49
0.0
 74
     0
 49
-1.0
 74
     0
 49
0.0
 74
     0
 49
-1.0
 74
     0
  0
LTYPE
  5
45
330
5
100
AcDbSymbolTableRecord
100
AcDbLinetypeTableRecord
  2
CENTER_DASH_DASH
 70
     0
  3
Center_Dash_Dash
 72
    65
 73
     6
 40
14.0
 49
9.0
 74
     0
 49
-1.0
 74
     0
 49
1.0
 74
     0
 49
-1.0
 74
     0
 49
1.0
 74
     0
 49
-1.0
 74
     0
  0
ENDTAB
  0
TABLE
  2
LAYER
  5
2
330
0
100
AcDbSymbolTable
 70
     2
  0
LAYER
  5
10
330
2
100
AcDbSymbolTableRecord
100
AcDbLayerTableRecord
  2
0
 70
     0
 62
     7
  6
Continuous
370
    -3
390
F
  0
LAYER
  5
46
330
2
100
AcDbSymbolTableRecord
100
AcDbLayerTableRecord
  2
1
 70
     0
 62
     7
  6
Continuous
370
    -3
390
F
  0
ENDTAB
  0
TABLE
  2
STYLE
  5
3
330
0
100
AcDbSymbolTable
 70
     5
  0
STYLE
  5
11
330
3
100
AcDbSymbolTableRecord
100
AcDbTextStyleTableRecord
  2
Standard
 70
     0
 40
0.0
 41
1.0
 50
0.0
 71
     0
 42
0.2
  3
txt
  4

  0
STYLE
  5
14E
330
3
100
AcDbSymbolTableRecord
100
AcDbTextStyleTableRecord
  2
CONVERTER_11
 70
     0
 40
0.0
 41
0.9
 50
0.0
 71
     0
 42
0.2
  3
txt.shx
  4

  0
STYLE
  5
384
330
3
100
AcDbSymbolTableRecord
100
AcDbTextStyleTableRecord
  2
CONVERTER_12
 70
     0
 40
0.0
 41
0.81
 50
0.0
 71
     0
 42
0.2
  3
txt.shx
  4

  0
STYLE
  5
38A
330
3
100
AcDbSymbolTableRecord
100
AcDbTextStyleTableRecord
  2
CONVERTER_13
 70
     0
 40
0.0
 41
0.855
 50
0.0
 71
     0
 42
0.2
  3
txt.shx
  4

  0
STYLE
  5
38D
330
3
100
AcDbSymbolTableRecord
100
AcDbTextStyleTableRecord
  2
CONVERTER_14
 70
     0
 40
0.0
 41
0.72
 50
0.0
 71
     0
 42
0.2
  3
txt.shx
  4

  0
ENDTAB
  0
TABLE
  2
VIEW
  5
6
330
0
100
AcDbSymbolTable
 70
     0
  0
ENDTAB
  0
TABLE
  2
UCS
  5
7
330
0
100
AcDbSymbolTable
 70
     0
  0
ENDTAB
  0
TABLE
  2
APPID
  5
9
330
0
100
AcDbSymbolTable
 70
     1
  0
APPID
  5
12
330
9
100
AcDbSymbolTableRecord
100
AcDbRegAppTableRecord
  2
ACAD
 70
     0
  0
ENDTAB
  0
TABLE
  2
DIMSTYLE
  5
A
330
0
100
AcDbSymbolTable
 70
     5
100
AcDbDimStyleTable
  0
DIMSTYLE
105
27
330
A
100
AcDbSymbolTableRecord
100
AcDbDimStyleTableRecord
  2
Standard
 70
     0
178
     0
340
11
  0
DIMSTYLE
105
1BA
102
{ACAD_REACTORS
330
1BB
102
}
330
A
100
AcDbSymbolTableRecord
100
AcDbDimStyleTableRecord
  2
ME10_DIM_10
 70
     0
 41
3.5
 42
0.0
 44
1.5
 73
     0
 74
     0
 77
     1
 78
     8
140
3.5
147
1.5
172
     1
173
     1
174
     1
175
     1
176
     2
177
     2
271
     2
178
     3
271
     2
340
14E
  0
DIMSTYLE
105
253
102
{ACAD_REACTORS
330
254
102
}
330
A
100
AcDbSymbolTableRecord
100
AcDbDimStyleTableRecord
  2
ME10_DIM_11
 70
     0
 41
3.5
 42
0.0
 44
1.5
 73
     0
 74
     0
 77
     1
 78
     8
140
3.5
147
1.5
172
     1
173
     1
174
     1
175
     1
176
     2
177
     2
178
     3
340
14E
  0
DIMSTYLE
105
25E
102
{ACAD_REACTORS
330
25F
102
}
330
A
100
AcDbSymbolTableRecord
100
AcDbDimStyleTableRecord
  2
ME10_DIM_12
 70
     0
 41
3.5
 42
0.0
 44
1.5
 73
     0
 74
     0
 77
     1
 78
     8
140
3.5
147
1.5
172
     1
173
     1
174
     1
175
     1
176
     2
177
     2
178
     3
340
14E
  0
DIMSTYLE
105
269
102
{ACAD_REACTORS
330
26A
102
}
330
A
100
AcDbSymbolTableRecord
100
AcDbDimStyleTableRecord
  2
ME10_DIM_13
 70
     0
 41
3.5
 42
0.0
 44
1.5
 73
     0
 74
     0
 77
     1
 78
     8
140
3.5
147
1.5
172
     1
173
     1
174
     1
175
     1
176
     2
177
     2
271
     2
178
     3
271
     2
340
14E
  0
ENDTAB
  0
TABLE
  2
BLOCK_RECORD
  5
1
330
0
100
AcDbSymbolTable
 70
    21
  0
BLOCK_RECORD
  5
1F
330
1
100
AcDbSymbolTableRecord
100
AcDbBlockTableRecord
  2
*Model_Space
340
22
  0
BLOCK_RECORD
  5
1B
330
1
100
AcDbSymbolTableRecord
100
AcDbBlockTableRecord
  2
*Paper_Space
340
1E
  0
BLOCK_RECORD
  5
23
330
1
100
AcDbSymbolTableRecord
100
AcDbBlockTableRecord
  2
*Paper_Space0
340
26
  0
BLOCK_RECORD
  5
47
330
1
100
AcDbSymbolTableRecord
100
AcDbBlockTableRecord
  2
MPB_18_1_7_BU-select__1
340
0
102
{BLKREFS
331
4B
102
}
  0
BLOCK_RECORD
  5
4A
330
1
100
AcDbSymbolTableRecord
100
AcDbBlockTableRecord
  2
Allg1
340
0
102
{BLKREFS
331
7D
102
}
  0
BLOCK_RECORD
  5
4E
330
1
100
AcDbSymbolTableRecord
100
AcDbBlockTableRecord
  2
MPB_18_1_7_BU-select__2
340
0
102
{BLKREFS
331
52
102
}
  0
BLOCK_RECORD
  5
51
330
1
100
AcDbSymbolTableRecord
100
AcDbBlockTableRecord
  2
Drfsicht1
340
0
102
{BLKREFS
331
7E
102
}
  0
BLOCK_RECORD
  5
55
330
1
100
AcDbSymbolTableRecord
100
AcDbBlockTableRecord
  2
MPB_18_1_7_BU-select__3
340
0
102
{BLKREFS
331
59
102
}
  0
BLOCK_RECORD
  5
58
330
1
100
AcDbSymbolTableRecord
100
AcDbBlockTableRecord
  2
Rckans1
340
0
102
{BLKREFS
331
7F
102
}
  0
BLOCK_RECORD
  5
5C
330
1
100
AcDbSymbolTableRecord
100
AcDbBlockTableRecord
  2
MPB_18_1_7_BU-select__4
340
0
102
{BLKREFS
331
60
102
}
  0
BLOCK_RECORD
  5
5F
330
1
100
AcDbSymbolTableRecord
100
AcDbBlockTableRecord
  2
SA_Links1
340
0
102
{BLKREFS
331
80
102
}
  0
BLOCK_RECORD
  5
63
330
1
100
AcDbSymbolTableRecord
100
AcDbBlockTableRecord
  2
MPB_18_1_7_BU-select__5
340
0
102
{BLKREFS
331
67
102
}
  0
BLOCK_RECORD
  5
66
330
1
100
AcDbSymbolTableRecord
100
AcDbBlockTableRecord
  2
SA_Rechts1
340
0
102
{BLKREFS
331
81
102
}
  0
BLOCK_RECORD
  5
6A
330
1
100
AcDbSymbolTableRecord
100
AcDbBlockTableRecord
  2
MPB_18_1_7_BU-select__6
340
0
102
{BLKREFS
331
6E
102
}
  0
BLOCK_RECORD
  5
6D
330
1
100
AcDbSymbolTableRecord
100
AcDbBlockTableRecord
  2
Vordans1
340
0
102
{BLKREFS
331
82
102
}
  0
BLOCK_RECORD
  5
71
330
1
100
AcDbSymbolTableRecord
100
AcDbBlockTableRecord
  2
_rahmen
340
0
102
{BLKREFS
331
78
102
}
  0
BLOCK_RECORD
  5
74
330
1
100
AcDbSymbolTableRecord
100
AcDbBlockTableRecord
  2
_punkt
340
0
102
{BLKREFS
331
79
102
}
  0
BLOCK_RECORD
  5
77
330
1
100
AcDbSymbolTableRecord
100
AcDbBlockTableRecord
  2
A3I_CS
340
0
102
{BLKREFS
331
83
102
}
  0
BLOCK_RECORD
  5
7C
330
1
100
AcDbSymbolTableRecord
100
AcDbBlockTableRecord
  2
1
340
0
102
{BLKREFS
331
86
102
}
  0
BLOCK_RECORD
  5
1B1
330
1
100
AcDbSymbolTableRecord
100
AcDbBlockTableRecord
  2
*D17
340
0
  0
BLOCK_RECORD
  5
24A
330
1
100
AcDbSymbolTableRecord
100
AcDbBlockTableRecord
  2
*D18
340
0
  0
BLOCK_RECORD
  5
255
330
1
100
AcDbSymbolTableRecord
100
AcDbBlockTableRecord
  2
*D19
340
0
  0
BLOCK_RECORD
  5
260
330
1
100
AcDbSymbolTableRecord
100
AcDbBlockTableRecord
  2
*D20
340
0
  0
ENDTAB
  0
ENDSEC
  0
SECTION
  2
BLOCKS
  0
BLOCK
  5
20
330
1F
100
AcDbEntity
  8
0
100
AcDbBlockBegin
  2
*Model_Space
 70
     0
 10
0.0
 20
0.0
 30
0.0
  3
*Model_Space
  1

  0
ENDBLK
  5
21
330
1F
100
AcDbEntity
  8
0
100
AcDbBlockEnd
  0
BLOCK
  5
1C
330
1B
100
AcDbEntity
 67
     1
  8
0
100
AcDbBlockBegin
  2
*Paper_Space
 70
     0
 10
0.0
 20
0.0
 30
0.0
  3
*Paper_Space
  1

  0
ENDBLK
  5
1D
330
1B
100
AcDbEntity
 67
     1
  8
0
100
AcDbBlockEnd
  0
BLOCK
  5
24
330
23
100
AcDbEntity
  8
0
100
AcDbBlockBegin
  2
*Paper_Space0
 70
     0
 10
0.0
 20
0.0
 30
0.0
  3
*Paper_Space0
  1

  0
ENDBLK
  5
25
330
23
100
AcDbEntity
  8
0
100
AcDbBlockEnd
  0
BLOCK
  5
48
330
47
100
AcDbEntity
  8
0
100
AcDbBlockBegin
  2
MPB_18_1_7_BU-select__1
 70
     0
 10
110.4833922874039
 20
385.7492764497188
 30
0.0
  3
MPB_18_1_7_BU-select__1
  1

  0
LINE
  5
87
330
47
100
AcDbEntity
  8
0
  6
Continuous
 62
     7
100
AcDbLine
 10
112.9948659583789
 20
419.7968812651016
 30
0.0
 11
112.9948659583789
 21
418.4978431594249
 31
0.0
  0
LINE
  5
88
330
47
100
AcDbEntity
  8
0
  6
Continuous
 62
     7
100
AcDbLine
 10
112.9948659583789
 20
418.4978431594249
 30
0.0
 11
115.8448659583788
 21
420.9660155602106
 31
0.0
  0
LINE
  5
89
330
47
100
AcDbEntity
  8
0
  6
Continuous
 62
     2
100
AcDbLine
 10
115.8448659583788
 20
422.2650536658872
 30
0.0
 11
115.8448659583788
 21
420.9660155602106
 31
0.0
  0
LINE
  5
8A
330
47
100
AcDbEntity
  8
0
  6
Continuous
 62
     7
100
AcDbLine
 10
112.9948659583789
 20
419.7968812651016
 30
0.0
 11
115.8448659583788
 21
422.2650536658872
 31
0.0
  0
LINE
  5
8B
330
47
100
AcDbEntity
  8
0
  6
Continuous
 62
     7
100
AcDbLine
 10
110.4833922874039
 20
419.2228431594249
 30
0.0
 11
110.4833922874039
 21
420.5218812651016
 31
0.0
  0
LINE
  5
8C
330
47
100
AcDbEntity
  8
0
  6
Continuous
 62
     7
100
AcDbLine
 10
110.4833922874039
 20
420.5218812651016
 30
0.0
 11
112.9948659583789
 21
419.7968812651016
 31
0.0
  0
LINE
  5
8D
330
47
100
AcDbEntity
  8
0
  6
Continuous
 62
     7
100
AcDbLine
 10
119.4833922874039
 20
428.3161098991616
 30
0.0
 11
110.4833922874039
 21
420.5218812651016
 31
0.0
  0
LINE
  5
8E
330
47
100
AcDbEntity
  8
0
  6
Continuous
 62
     7
100
AcDbLine
 10
110.4833922874039
 20
419.2228431594249
 30
0.0
 11
112.9948659583789
 21
418.4978431594249
 31
0.0
  0
LINE
  5
8F
330
47
100
AcDbEntity
  8
0
  6
Continuous
 62
     7
100
AcDbLine
 10
117.4053420842702
 20
429.7418454402243
 30
0.0
 11
118.1630906073742
 21
430.3980749109135
 31
0.0
  0
LINE
  5
90
330
47
100
AcDbEntity
  8
0
  6
Continuous
 62
     7
100
AcDbLine
 10
223.9264667497562
 20
398.9918454402242
 30
0.0
 11
117.4053420842702
 21
429.7418454402243
 31
0.0
  0
LINE
  5
91
330
47
100
AcDbEntity
  8
0
  6
Continuous
 62
     7
100
AcDbLine
 10
117.4053420842702
 20
429.1151357233093
 30
0.0
 11
117.4053420842702
 21
429.7418454402243
 31
0.0
  0
LINE
  5
92
330
47
100
AcDbEntity
  8
0
  6
Continuous
 62
     7
100
AcDbLine
 10
223.9264667497562
 20
398.3651357233092
 30
0.0
 11
223.9264667497562
 21
398.9918454402242
 31
0.0
  0
LINE
  5
93
330
47
100
AcDbEntity
  8
0
  6
Continuous
 62
     7
100
AcDbLine
 10
224.7896109563608
 20
388.22121237994
 30
0.0
 11
223.4247514045844
 21
387.2164338850168
 31
0.0
  0
LINE
  5
94
330
47
100
AcDbEntity
  8
0
  6
Continuous
 62
     7
100
AcDbLine
 10
223.4352652068952
 20
394.4327921784154
 30
0.0
 11
223.4247514045844
 21
387.2164338850168
 31
0.0
  0
LINE
  5
95
330
47
100
AcDbEntity
  8
0
  6
Continuous
 62
     7
100
AcDbLine
 10
221.6166118589479
 20
394.9577921784153
 30
0.0
 11
223.4352652068952
 21
394.4327921784154
 31
0.0
  0
LINE
  5
96
330
47
100
AcDbEntity
  8
0
  6
Continuous
 62
     7
100
AcDbLine
 10
222.3672102569954
 20
398.6161098991615
 30
0.0
 11
211.974905411582
 21
401.6161098991615
 31
0.0
  0
LINE
  5
97
330
47
100
AcDbEntity
  8
0
  6
Continuous
 62
     7
100
AcDbLine
 10
210.6825315052636
 20
391.5968812651015
 30
0.0
 11
213.3672102569954
 21
390.8218812651015
 31
0.0
  0
LINE
  5
98
330
47
100
AcDbEntity
  8
0
  6
Continuous
 62
     7
100
AcDbLine
 10
210.6825315052636
 20
390.2978431594249
 30
0.0
 11
213.3672102569954
 21
389.5228431594248
 31
0.0
  0
LINE
  5
99
330
47
100
AcDbEntity
  8
0
  6
Continuous
 62
     7
100
AcDbLine
 10
221.6166118589479
 20
394.9577921784153
 30
0.0
 11
220.1363645762027
 21
395.3851027619954
 31
0.0
  0
LINE
  5
9A
330
47
100
AcDbEntity
  8
0
  6
Continuous
 62
     7
100
AcDbLine
 10
221.6191052688255
 20
396.6691938690319
 30
0.0
 11
221.6166118589479
 21
394.9577921784153
 31
0.0
  0
LINE
  5
9B
330
47
100
AcDbEntity
  8
0
  6
Continuous
 62
     7
100
AcDbLine
 10
213.3672102569954
 20
390.8218812651015
 30
0.0
 11
213.3672102569954
 21
389.5228431594248
 31
0.0
  0
LINE
  5
9C
330
47
100
AcDbEntity
  8
0
  6
Continuous
 62
     7
100
AcDbLine
 10
221.6191052688255
 20
396.6691938690319
 30
0.0
 11
213.3672102569954
 21
389.5228431594248
 31
0.0
  0
LINE
  5
9D
330
47
100
AcDbEntity
  8
0
  6
Continuous
 62
     7
100
AcDbLine
 10
222.3672102569955
 20
394.7411130848323
 30
0.0
 11
222.3672102569954
 21
398.6161098991615
 31
0.0
  0
LINE
  5
9E
330
47
100
AcDbEntity
  8
0
  6
Continuous
 62
     7
100
AcDbLine
 10
222.3672102569954
 20
398.6161098991615
 30
0.0
 11
213.3672102569954
 21
390.8218812651015
 31
0.0
  0
LINE
  5
9F
330
47
100
AcDbEntity
  8
0
  6
Continuous
 62
     7
100
AcDbLine
 10
205.4863790825568
 20
393.0968812651016
 30
0.0
 11
208.336379082557
 21
395.5650536658872
 31
0.0
  0
LINE
  5
A0
330
47
100
AcDbEntity
  8
0
  6
Continuous
 62
     7
100
AcDbLine
 10
211.974905411582
 20
401.6161098991615
 30
0.0
 11
202.974905411582
 21
393.8218812651015
 31
0.0
  0
LINE
  5
A1
330
47
100
AcDbEntity
  8
0
  6
Continuous
 62
     7
100
AcDbLine
 10
224.2302961151917
 20
398.6282596721919
 30
0.0
 11
223.9264667497562
 21
398.3651357233092
 31
0.0
  0
LINE
  5
A2
330
47
100
AcDbEntity
  8
0
  6
Continuous
 62
     7
100
AcDbLine
 10
224.7896109563608
 20
388.22121237994
 30
0.0
 11
224.2302961151917
 21
398.6282596721919
 31
0.0
  0
LINE
  5
A3
330
47
100
AcDbEntity
  8
0
  6
Continuous
 62
     7
100
AcDbLine
 10
224.6842152728603
 20
399.6480749109134
 30
0.0
 11
225.3352652068958
 21
387.8277374188019
 31
0.0
  0
LINE
  5
A4
330
47
100
AcDbEntity
  8
0
  6
Continuous
 62
     7
100
AcDbLine
 10
223.9264667497562
 20
398.9918454402242
 30
0.0
 11
224.6842152728603
 21
399.6480749109134
 31
0.0
  0
LINE
  5
A5
330
47
100
AcDbEntity
  8
0
  6
Continuous
 62
     7
100
AcDbLine
 10
132.6486444747666
 20
421.9175527406464
 30
0.0
 11
129.8756971328172
 21
422.718033687808
 31
0.0
  0
LINE
  5
A6
330
47
100
AcDbEntity
  8
0
  6
Continuous
 62
     7
100
AcDbLine
 10
131.542798793974
 20
420.9598622884147
 30
0.0
 11
127.6448514520243
 21
422.0851027619955
 31
0.0
  0
LINE
  5
A7
330
47
100
AcDbEntity
  8
0
  6
Continuous
 62
     7
100
AcDbLine
 10
129.1256971328172
 20
422.0685146349697
 30
0.0
 11
131.8986444747645
 21
421.2680336878062
 31
0.0
  0
LINE
  5
A8
330
47
100
AcDbEntity
  8
0
  6
Continuous
 62
     7
100
AcDbLine
 10
129.8756971328172
 20
425.3161098991615
 30
0.0
 11
119.4833922874039
 21
428.3161098991616
 31
0.0
  0
LINE
  5
A9
330
47
100
AcDbEntity
  8
0
  6
Continuous
 62
     7
100
AcDbLine
 10
116.414140541409
 20
416.4992764497188
 30
0.0
 11
116.414140541409
 21
421.3210001701615
 31
0.0
  0
LINE
  5
AA
330
47
100
AcDbEntity
  8
0
  6
Continuous
 62
     7
100
AcDbLine
 10
129.8756971328172
 20
425.3161098991615
 30
0.0
 11
129.8756971328172
 21
422.718033687808
 31
0.0
  0
LINE
  5
AB
330
47
100
AcDbEntity
  8
0
  6
Continuous
 62
     7
100
AcDbLine
 10
129.8756971328172
 20
422.718033687808
 30
0.0
 11
129.1256971328172
 21
422.0685146349697
 31
0.0
  0
LINE
  5
AC
330
47
100
AcDbEntity
  8
0
  6
Continuous
 62
     7
100
AcDbLine
 10
129.1256971328172
 20
422.0685146349697
 30
0.0
 11
129.1275921446473
 21
423.369193869032
 31
0.0
  0
LINE
  5
AD
330
47
100
AcDbEntity
  8
0
  6
Continuous
 62
     7
100
AcDbLine
 10
117.8426227040671
 20
426.8951617582351
 30
0.0
 11
117.7283236472455
 21
429.0218989771457
 31
0.0
  0
LINE
  5
AE
330
47
100
AcDbEntity
  8
0
  6
Continuous
 62
     7
100
AcDbLine
 10
120.8756971328172
 20
417.5218812651016
 30
0.0
 11
129.8756971328172
 21
425.3161098991615
 31
0.0
  0
LINE
  5
AF
330
47
100
AcDbEntity
  8
0
  6
Continuous
 62
     7
100
AcDbLine
 10
120.8756971328172
 20
416.2228431594249
 30
0.0
 11
129.1275921446473
 21
423.369193869032
 31
0.0
  0
LINE
  5
B0
330
47
100
AcDbEntity
  8
0
  6
Continuous
 62
     7
100
AcDbLine
 10
125.8986444747669
 20
416.0718812651016
 30
0.0
 11
134.8986444747669
 21
423.8661098991615
 31
0.0
  0
LINE
  5
B1
330
47
100
AcDbEntity
  8
0
  6
Continuous
 62
     7
100
AcDbLine
 10
162.3733031687003
 20
412.0598622884147
 30
0.0
 11
158.4753558267503
 21
413.1851027619955
 31
0.0
  0
LINE
  5
B2
330
47
100
AcDbEntity
  8
0
  6
Continuous
 62
     7
100
AcDbLine
 10
159.9562015075433
 20
413.1685146349697
 30
0.0
 11
162.7291488494927
 21
412.368033687808
 31
0.0
  0
LINE
  5
B3
330
47
100
AcDbEntity
  8
0
  6
Continuous
 62
     7
100
AcDbLine
 10
163.4791488494928
 20
413.0175527406464
 30
0.0
 11
160.7062015075434
 21
413.8180336878079
 31
0.0
  0
LINE
  5
B4
330
47
100
AcDbEntity
  8
0
  6
Continuous
 62
     7
100
AcDbLine
 10
156.729148849493
 20
407.1718812651016
 30
0.0
 11
165.729148849493
 21
414.9661098991615
 31
0.0
  0
LINE
  5
B5
330
47
100
AcDbEntity
  8
0
  6
Continuous
 62
     7
100
AcDbLine
 10
176.1214536949063
 20
411.9661098991615
 30
0.0
 11
165.729148849493
 21
414.9661098991615
 31
0.0
  0
LINE
  5
B6
330
47
100
AcDbEntity
  8
0
  6
Continuous
 62
     7
100
AcDbLine
 10
127.1448514520243
 20
421.6520900601033
 30
0.0
 11
131.042798793974
 21
420.5268495865225
 31
0.0
  0
LINE
  5
B7
330
47
100
AcDbEntity
  8
0
  6
Continuous
 62
     7
100
AcDbLine
 10
145.2909493201802
 20
420.8661098991615
 30
0.0
 11
145.2909493201802
 21
418.268033687808
 31
0.0
  0
LINE
  5
B8
330
47
100
AcDbEntity
  8
0
  6
Continuous
 62
     7
100
AcDbLine
 10
136.2909493201802
 20
413.0718812651016
 30
0.0
 11
145.2909493201802
 21
420.8661098991615
 31
0.0
  0
LINE
  5
B9
330
47
100
AcDbEntity
  8
0
  6
Continuous
 62
     7
100
AcDbLine
 10
121.0410183810855
 20
420.7650536658872
 30
0.0
 11
118.1910183810855
 21
418.2968812651016
 31
0.0
  0
LINE
  5
BA
330
47
100
AcDbEntity
  8
0
  6
Continuous
 62
     7
100
AcDbLine
 10
149.0215227558115
 20
408.0978431594249
 30
0.0
 11
151.7062015075433
 21
407.3228431594249
 31
0.0
  0
LINE
  5
BB
330
47
100
AcDbEntity
  8
0
  6
Continuous
 62
     7
100
AcDbLine
 10
160.7062015075434
 20
413.8180336878079
 30
0.0
 11
159.9562015075433
 21
413.1685146349697
 31
0.0
  0
LINE
  5
BC
330
47
100
AcDbEntity
  8
0
  6
Continuous
 62
     7
100
AcDbLine
 10
149.0215227558115
 20
408.0978431594249
 30
0.0
 11
149.0215227558115
 21
409.3968812651016
 31
0.0
  0
LINE
  5
BD
330
47
100
AcDbEntity
  8
0
  6
Continuous
 62
     7
100
AcDbLine
 10
149.0215227558115
 20
409.3968812651016
 30
0.0
 11
151.7062015075433
 21
408.6218812651016
 31
0.0
  0
LINE
  5
BE
330
47
100
AcDbEntity
  8
0
  6
Continuous
 62
     7
100
AcDbLine
 10
151.7062015075433
 20
407.3228431594249
 30
0.0
 11
159.9580965193733
 21
414.469193869032
 31
0.0
  0
LINE
  5
BF
330
47
100
AcDbEntity
  8
0
  6
Continuous
 62
     7
100
AcDbLine
 10
151.7062015075433
 20
407.3228431594249
 30
0.0
 11
151.7062015075433
 21
408.6218812651016
 31
0.0
  0
LINE
  5
C0
330
47
100
AcDbEntity
  8
0
  6
Continuous
 62
     7
100
AcDbLine
 10
125.8986444747669
 20
416.0718812651016
 30
0.0
 11
128.4101181457418
 21
415.3468812651016
 31
0.0
  0
LINE
  5
C1
330
47
100
AcDbEntity
  8
0
  6
Continuous
 62
     7
100
AcDbLine
 10
125.8986444747669
 20
416.0718812651016
 30
0.0
 11
125.8986444747669
 21
414.772843159425
 31
0.0
  0
LINE
  5
C2
330
47
100
AcDbEntity
  8
0
  6
Continuous
 62
     7
100
AcDbLine
 10
128.4101181457418
 20
415.3468812651016
 30
0.0
 11
128.4101181457418
 21
414.0478431594249
 31
0.0
  0
LINE
  5
C3
330
47
100
AcDbEntity
  8
0
  6
Continuous
 62
     7
100
AcDbLine
 10
125.8986444747669
 20
414.772843159425
 30
0.0
 11
128.4101181457418
 21
414.0478431594249
 31
0.0
  0
LINE
  5
C4
330
47
100
AcDbEntity
  8
0
  6
Continuous
 62
     7
100
AcDbLine
 10
133.6062705684483
 20
412.5478431594249
 30
0.0
 11
133.6062705684483
 21
413.8468812651016
 31
0.0
  0
LINE
  5
C5
330
47
100
AcDbEntity
  8
0
  6
Continuous
 62
     7
100
AcDbLine
 10
120.8756971328172
 20
416.2228431594249
 30
0.0
 11
120.8756971328172
 21
417.5218812651016
 31
0.0
  0
LINE
  5
C6
330
47
100
AcDbEntity
  8
0
  6
Continuous
 62
     7
100
AcDbLine
 10
128.4101181457418
 20
414.0478431594249
 30
0.0
 11
131.2601181457417
 21
416.5160155602106
 31
0.0
  0
LINE
  5
C7
330
47
100
AcDbEntity
  8
0
  6
Continuous
 62
     7
100
AcDbLine
 10
141.3138966621299
 20
411.6218812651016
 30
0.0
 11
141.3138966621299
 21
410.3228431594249
 31
0.0
  0
LINE
  5
C8
330
47
100
AcDbEntity
  8
0
  6
Continuous
 62
     7
100
AcDbLine
 10
141.3138966621299
 20
410.3228431594249
 30
0.0
 11
143.8253703331048
 21
409.5978431594249
 31
0.0
  0
LINE
  5
C9
330
47
100
AcDbEntity
  8
0
  6
Continuous
 62
     7
100
AcDbLine
 10
141.3138966621299
 20
411.6218812651016
 30
0.0
 11
143.8253703331048
 21
410.8968812651016
 31
0.0
  0
LINE
  5
CA
330
47
100
AcDbEntity
  8
0
  6
Continuous
 62
     7
100
AcDbLine
 10
142.5601036393874
 20
417.2020900601033
 30
0.0
 11
146.4580509813371
 21
416.0768495865225
 31
0.0
  0
LINE
  5
CB
330
47
100
AcDbEntity
  8
0
  6
Continuous
 62
     7
100
AcDbLine
 10
143.8253703331048
 20
410.8968812651016
 30
0.0
 11
143.8253703331048
 21
409.5978431594249
 31
0.0
  0
LINE
  5
CC
330
47
100
AcDbEntity
  8
0
  6
Continuous
 62
     7
100
AcDbLine
 10
136.2909493201802
 20
411.772843159425
 30
0.0
 11
136.2909493201802
 21
413.0718812651016
 31
0.0
  0
LINE
  5
CD
330
47
100
AcDbEntity
  8
0
  6
Continuous
 62
     2
100
AcDbLine
 10
146.6753703331049
 20
413.3650536658872
 30
0.0
 11
146.6753703331049
 21
412.0660155602105
 31
0.0
  0
LINE
  5
CE
330
47
100
AcDbEntity
  8
0
  6
Continuous
 62
     7
100
AcDbLine
 10
144.5409493201802
 20
417.6185146349696
 30
0.0
 11
144.5428443320104
 21
418.919193869032
 31
0.0
  0
LINE
  5
CF
330
47
100
AcDbEntity
  8
0
  6
Continuous
 62
     7
100
AcDbLine
 10
145.2909493201802
 20
418.268033687808
 30
0.0
 11
144.5409493201802
 21
417.6185146349696
 31
0.0
  0
LINE
  5
D0
330
47
100
AcDbEntity
  8
0
  6
Continuous
 62
     7
100
AcDbLine
 10
143.8253703331048
 20
409.5978431594249
 30
0.0
 11
146.6753703331049
 21
412.0660155602105
 31
0.0
  0
LINE
  5
D1
330
47
100
AcDbEntity
  8
0
  6
Continuous
 62
     7
100
AcDbLine
 10
143.8253703331048
 20
410.8968812651016
 30
0.0
 11
146.6753703331049
 21
413.3650536658872
 31
0.0
  0
LINE
  5
D2
330
47
100
AcDbEntity
  8
0
  6
Continuous
 62
     7
100
AcDbLine
 10
160.7062015075433
 20
416.4161098991615
 30
0.0
 11
160.7062015075434
 21
413.8180336878079
 31
0.0
  0
LINE
  5
D3
330
47
100
AcDbEntity
  8
0
  6
Continuous
 62
     7
100
AcDbLine
 10
136.4562705684485
 20
416.3150536658872
 30
0.0
 11
133.6062705684483
 21
413.8468812651016
 31
0.0
  0
LINE
  5
D4
330
47
100
AcDbEntity
  8
0
  6
Continuous
 62
     7
100
AcDbLine
 10
151.8715227558114
 20
411.8650536658872
 30
0.0
 11
149.0215227558115
 21
409.3968812651016
 31
0.0
  0
LINE
  5
D5
330
47
100
AcDbEntity
  8
0
  6
Continuous
 62
     7
100
AcDbLine
 10
133.6062705684483
 20
412.5478431594249
 30
0.0
 11
136.2909493201802
 21
411.772843159425
 31
0.0
  0
LINE
  5
D6
330
47
100
AcDbEntity
  8
0
  6
Continuous
 62
     7
100
AcDbLine
 10
133.6062705684483
 20
413.8468812651016
 30
0.0
 11
136.2909493201802
 21
413.0718812651016
 31
0.0
  0
LINE
  5
D7
330
47
100
AcDbEntity
  8
0
  6
Continuous
 62
     7
100
AcDbLine
 10
159.9562015075433
 20
413.1685146349697
 30
0.0
 11
159.9580965193733
 21
414.469193869032
 31
0.0
  0
LINE
  5
D8
330
47
100
AcDbEntity
  8
0
  6
Continuous
 62
     7
100
AcDbLine
 10
118.1910183810855
 20
418.2968812651016
 30
0.0
 11
120.8756971328172
 21
417.5218812651016
 31
0.0
  0
LINE
  5
D9
330
47
100
AcDbEntity
  8
0
  6
Continuous
 62
     7
100
AcDbLine
 10
118.1910183810855
 20
416.9978431594249
 30
0.0
 11
120.8756971328172
 21
416.2228431594249
 31
0.0
  0
LINE
  5
DA
330
47
100
AcDbEntity
  8
0
  6
Continuous
 62
     7
100
AcDbLine
 10
118.1910183810855
 20
416.9978431594249
 30
0.0
 11
118.1910183810855
 21
418.2968812651016
 31
0.0
  0
LINE
  5
DB
330
47
100
AcDbEntity
  8
0
  6
Continuous
 62
     7
100
AcDbLine
 10
128.4101181457418
 20
415.3468812651016
 30
0.0
 11
131.2601181457417
 21
417.8150536658872
 31
0.0
  0
LINE
  5
DC
330
47
100
AcDbEntity
  8
0
  6
Continuous
 62
     7
100
AcDbLine
 10
144.5409493201802
 20
417.6185146349696
 30
0.0
 11
147.3138966621298
 21
416.8180336878081
 31
0.0
  0
LINE
  5
DD
330
47
100
AcDbEntity
  8
0
  6
Continuous
 62
     2
100
AcDbLine
 10
131.2601181457417
 20
417.8150536658872
 30
0.0
 11
131.2601181457417
 21
416.5160155602106
 31
0.0
  0
LINE
  5
DE
330
47
100
AcDbEntity
  8
0
  6
Continuous
 62
     7
100
AcDbLine
 10
148.0638966621298
 20
417.4675527406463
 30
0.0
 11
145.2909493201802
 21
418.268033687808
 31
0.0
  0
LINE
  5
DF
330
47
100
AcDbEntity
  8
0
  6
Continuous
 62
     7
100
AcDbLine
 10
151.7062015075433
 20
408.6218812651016
 30
0.0
 11
160.7062015075433
 21
416.4161098991615
 31
0.0
  0
LINE
  5
E0
330
47
100
AcDbEntity
  8
0
  6
Continuous
 62
     7
100
AcDbLine
 10
136.2909493201802
 20
411.772843159425
 30
0.0
 11
144.5428443320104
 21
418.919193869032
 31
0.0
  0
LINE
  5
E1
330
47
100
AcDbEntity
  8
0
  6
Continuous
 62
     7
100
AcDbLine
 10
141.3138966621299
 20
411.6218812651016
 30
0.0
 11
150.3138966621299
 21
419.4161098991615
 31
0.0
  0
LINE
  5
E2
330
47
100
AcDbEntity
  8
0
  6
Continuous
 62
     7
100
AcDbLine
 10
146.9580509813371
 20
416.5098622884147
 30
0.0
 11
143.0601036393874
 21
417.6351027619955
 31
0.0
  0
LINE
  5
E3
330
47
100
AcDbEntity
  8
0
  6
Continuous
 62
     7
100
AcDbLine
 10
160.7062015075433
 20
416.4161098991615
 30
0.0
 11
150.3138966621299
 21
419.4161098991615
 31
0.0
  0
LINE
  5
E4
330
47
100
AcDbEntity
  8
0
  6
Continuous
 62
     7
100
AcDbLine
 10
145.2909493201802
 20
420.8661098991615
 30
0.0
 11
134.8986444747669
 21
423.8661098991615
 31
0.0
  0
LINE
  5
E5
330
47
100
AcDbEntity
  8
0
  6
Continuous
 62
     7
100
AcDbLine
 10
195.2672793179007
 20
394.7478431594249
 30
0.0
 11
197.9519580696322
 21
393.9728431594249
 31
0.0
  0
LINE
  5
E6
330
47
100
AcDbEntity
  8
0
  6
Continuous
 62
     7
100
AcDbLine
 10
205.4863790825568
 20
393.0968812651016
 30
0.0
 11
205.4863790825568
 21
391.7978431594249
 31
0.0
  0
LINE
  5
E7
330
47
100
AcDbEntity
  8
0
  6
Continuous
 62
     7
100
AcDbLine
 10
202.974905411582
 20
392.5228431594248
 30
0.0
 11
205.4863790825568
 21
391.7978431594249
 31
0.0
  0
LINE
  5
E8
330
47
100
AcDbEntity
  8
0
  6
Continuous
 62
     7
100
AcDbLine
 10
213.5325315052635
 20
394.0650536658872
 30
0.0
 11
210.6825315052636
 21
391.5968812651015
 31
0.0
  0
LINE
  5
E9
330
47
100
AcDbEntity
  8
0
  6
Continuous
 62
     7
100
AcDbLine
 10
202.974905411582
 20
393.8218812651015
 30
0.0
 11
205.4863790825568
 21
393.0968812651016
 31
0.0
  0
LINE
  5
EA
330
47
100
AcDbEntity
  8
0
  6
Continuous
 62
     7
100
AcDbLine
 10
202.974905411582
 20
393.8218812651015
 30
0.0
 11
202.974905411582
 21
392.5228431594248
 31
0.0
  0
LINE
  5
EB
330
47
100
AcDbEntity
  8
0
  6
Continuous
 62
     7
100
AcDbLine
 10
210.6825315052636
 20
390.2978431594249
 30
0.0
 11
210.6825315052636
 21
391.5968812651015
 31
0.0
  0
LINE
  5
EC
330
47
100
AcDbEntity
  8
0
  6
Continuous
 62
     7
100
AcDbLine
 10
205.4863790825568
 20
391.7978431594249
 30
0.0
 11
208.3363790825569
 21
394.2660155602105
 31
0.0
  0
LINE
  5
ED
330
47
100
AcDbEntity
  8
0
  6
Continuous
 62
     2
100
AcDbLine
 10
208.336379082557
 20
395.5650536658872
 30
0.0
 11
208.3363790825569
 21
394.2660155602105
 31
0.0
  0
LINE
  5
EE
330
47
100
AcDbEntity
  8
0
  6
Continuous
 62
     7
100
AcDbLine
 10
195.2672793179007
 20
394.7478431594249
 30
0.0
 11
195.2672793179007
 21
396.0468812651015
 31
0.0
  0
LINE
  5
EF
330
47
100
AcDbEntity
  8
0
  6
Continuous
 62
     7
100
AcDbLine
 10
204.2211123888395
 20
399.4020900601033
 30
0.0
 11
208.1190597307893
 21
398.2768495865224
 31
0.0
  0
LINE
  5
F0
330
47
100
AcDbEntity
  8
0
  6
Continuous
 62
     7
100
AcDbLine
 10
195.2672793179007
 20
396.0468812651015
 30
0.0
 11
197.9519580696322
 21
395.2718812651016
 31
0.0
  0
LINE
  5
F1
330
47
100
AcDbEntity
  8
0
  6
Continuous
 62
     7
100
AcDbLine
 10
190.071126895194
 20
397.5468812651015
 30
0.0
 11
192.9211268951939
 21
400.0150536658871
 31
0.0
  0
LINE
  5
F2
330
47
100
AcDbEntity
  8
0
  6
Continuous
 62
     7
100
AcDbLine
 10
196.5596532242188
 20
406.0661098991615
 30
0.0
 11
187.5596532242188
 21
398.2718812651016
 31
0.0
  0
LINE
  5
F3
330
47
100
AcDbEntity
  8
0
  6
Continuous
 62
     7
100
AcDbLine
 10
156.729148849493
 20
407.1718812651016
 30
0.0
 11
156.729148849493
 21
405.8728431594249
 31
0.0
  0
LINE
  5
F4
330
47
100
AcDbEntity
  8
0
  6
Continuous
 62
     7
100
AcDbLine
 10
156.729148849493
 20
405.8728431594249
 30
0.0
 11
159.2406225204679
 21
405.1478431594249
 31
0.0
  0
LINE
  5
F5
330
47
100
AcDbEntity
  8
0
  6
Continuous
 62
     7
100
AcDbLine
 10
156.729148849493
 20
407.1718812651016
 30
0.0
 11
159.2406225204679
 21
406.4468812651015
 31
0.0
  0
LINE
  5
F6
330
47
100
AcDbEntity
  8
0
  6
Continuous
 62
     7
100
AcDbLine
 10
176.1214536949063
 20
411.9661098991615
 30
0.0
 11
176.1214536949062
 21
409.368033687808
 31
0.0
  0
LINE
  5
F7
330
47
100
AcDbEntity
  8
0
  6
Continuous
 62
     7
100
AcDbLine
 10
177.7885553560632
 20
407.6098622884147
 30
0.0
 11
173.8906080141135
 21
408.7351027619955
 31
0.0
  0
LINE
  5
F8
330
47
100
AcDbEntity
  8
0
  6
Continuous
 62
     7
100
AcDbLine
 10
175.3714536949062
 20
408.7185146349672
 30
0.0
 11
175.3733487067365
 21
410.0191938690319
 31
0.0
  0
LINE
  5
F9
330
47
100
AcDbEntity
  8
0
  6
Continuous
 62
     7
100
AcDbLine
 10
176.1214536949062
 20
409.368033687808
 30
0.0
 11
175.3714536949062
 21
408.7185146349672
 31
0.0
  0
LINE
  5
FA
330
47
100
AcDbEntity
  8
0
  6
Continuous
 62
     2
100
AcDbLine
 10
162.090622520468
 20
408.9150536658872
 30
0.0
 11
162.090622520468
 21
407.6160155602105
 31
0.0
  0
LINE
  5
FB
330
47
100
AcDbEntity
  8
0
  6
Continuous
 62
     7
100
AcDbLine
 10
175.3714536949062
 20
408.7185146349672
 30
0.0
 11
178.1444010368537
 21
407.9180336878062
 31
0.0
  0
LINE
  5
FC
330
47
100
AcDbEntity
  8
0
  6
Continuous
 62
     7
100
AcDbLine
 10
178.8944010368559
 20
408.5675527406464
 30
0.0
 11
176.1214536949062
 21
409.368033687808
 31
0.0
  0
LINE
  5
FD
330
47
100
AcDbEntity
  8
0
  6
Continuous
 62
     7
100
AcDbLine
 10
159.2406225204679
 20
406.4468812651015
 30
0.0
 11
162.090622520468
 21
408.9150536658872
 31
0.0
  0
LINE
  5
FE
330
47
100
AcDbEntity
  8
0
  6
Continuous
 62
     7
100
AcDbLine
 10
159.2406225204679
 20
406.4468812651015
 30
0.0
 11
159.2406225204679
 21
405.1478431594249
 31
0.0
  0
LINE
  5
FF
330
47
100
AcDbEntity
  8
0
  6
Continuous
 62
     7
100
AcDbLine
 10
157.9753558267503
 20
412.7520900601033
 30
0.0
 11
161.8733031687003
 21
411.6268495865224
 31
0.0
  0
LINE
  5
100
330
47
100
AcDbEntity
  8
0
  6
Continuous
 62
     7
100
AcDbLine
 10
164.4367749431746
 20
403.6478431594248
 30
0.0
 11
164.4367749431746
 21
404.9468812651015
 31
0.0
  0
LINE
  5
101
330
47
100
AcDbEntity
  8
0
  6
Continuous
 62
     7
100
AcDbLine
 10
164.4367749431746
 20
404.9468812651015
 30
0.0
 11
167.1214536949062
 21
404.1718812651016
 31
0.0
  0
LINE
  5
102
330
47
100
AcDbEntity
  8
0
  6
Continuous
 62
     7
100
AcDbLine
 10
167.2867749431746
 20
407.4150536658872
 30
0.0
 11
164.4367749431746
 21
404.9468812651015
 31
0.0
  0
LINE
  5
103
330
47
100
AcDbEntity
  8
0
  6
Continuous
 62
     7
100
AcDbLine
 10
159.2406225204679
 20
405.1478431594249
 30
0.0
 11
162.090622520468
 21
407.6160155602105
 31
0.0
  0
LINE
  5
104
330
47
100
AcDbEntity
  8
0
  6
Continuous
 62
     7
100
AcDbLine
 10
191.5367058822691
 20
407.5161098991615
 30
0.0
 11
181.1444010368559
 21
410.5161098991615
 31
0.0
  0
LINE
  5
105
330
47
100
AcDbEntity
  8
0
  6
Continuous
 62
     7
100
AcDbLine
 10
172.1444010368559
 20
402.7218812651016
 30
0.0
 11
172.1444010368559
 21
401.4228431594249
 31
0.0
  0
LINE
  5
106
330
47
100
AcDbEntity
  8
0
  6
Continuous
 62
     7
100
AcDbLine
 10
172.1444010368559
 20
401.4228431594249
 30
0.0
 11
174.6558747078308
 21
400.6978431594249
 31
0.0
  0
LINE
  5
107
330
47
100
AcDbEntity
  8
0
  6
Continuous
 62
     7
100
AcDbLine
 10
174.6558747078308
 20
401.9968812651015
 30
0.0
 11
174.6558747078308
 21
400.6978431594249
 31
0.0
  0
LINE
  5
108
330
47
100
AcDbEntity
  8
0
  6
Continuous
 62
     7
100
AcDbLine
 10
174.6558747078308
 20
400.6978431594249
 30
0.0
 11
177.505874707831
 21
403.1660155602105
 31
0.0
  0
LINE
  5
109
330
47
100
AcDbEntity
  8
0
  6
Continuous
 62
     7
100
AcDbLine
 10
208.6190597307893
 20
398.7098622884146
 30
0.0
 11
204.7211123888395
 21
399.8351027619955
 31
0.0
  0
LINE
  5
10A
330
47
100
AcDbEntity
  8
0
  6
Continuous
 62
     7
100
AcDbLine
 10
206.2019580696322
 20
399.8185146349672
 30
0.0
 11
208.9749054115798
 21
399.0180336878061
 31
0.0
  0
LINE
  5
10B
330
47
100
AcDbEntity
  8
0
  6
Continuous
 62
     7
100
AcDbLine
 10
206.9519580696323
 20
400.4680336878079
 30
0.0
 11
206.2019580696322
 21
399.8185146349672
 31
0.0
  0
LINE
  5
10C
330
47
100
AcDbEntity
  8
0
  6
Continuous
 62
     7
100
AcDbLine
 10
209.724905411582
 20
399.6675527406463
 30
0.0
 11
206.9519580696323
 21
400.4680336878079
 31
0.0
  0
LINE
  5
10D
330
47
100
AcDbEntity
  8
0
  6
Continuous
 62
     2
100
AcDbLine
 10
192.9211268951939
 20
400.0150536658871
 30
0.0
 11
192.9211268951939
 21
398.7160155602105
 31
0.0
  0
LINE
  5
10E
330
47
100
AcDbEntity
  8
0
  6
Continuous
 62
     7
100
AcDbLine
 10
174.6558747078308
 20
401.9968812651015
 30
0.0
 11
177.505874707831
 21
404.4650536658872
 31
0.0
  0
LINE
  5
10F
330
47
100
AcDbEntity
  8
0
  6
Continuous
 62
     7
100
AcDbLine
 10
191.5367058822691
 20
404.918033687808
 30
0.0
 11
191.5367058822691
 21
407.5161098991615
 31
0.0
  0
LINE
  5
110
330
47
100
AcDbEntity
  8
0
  6
Continuous
 62
     7
100
AcDbLine
 10
179.8520271305375
 20
399.1978431594249
 30
0.0
 11
179.8520271305375
 21
400.4968812651015
 31
0.0
  0
LINE
  5
111
330
47
100
AcDbEntity
  8
0
  6
Continuous
 62
     7
100
AcDbLine
 10
179.8520271305375
 20
399.1978431594249
 30
0.0
 11
182.5367058822691
 21
398.4228431594249
 31
0.0
  0
LINE
  5
112
330
47
100
AcDbEntity
  8
0
  6
Continuous
 62
     2
100
AcDbLine
 10
177.505874707831
 20
404.4650536658872
 30
0.0
 11
177.505874707831
 21
403.1660155602105
 31
0.0
  0
LINE
  5
113
330
47
100
AcDbEntity
  8
0
  6
Continuous
 62
     7
100
AcDbLine
 10
179.8520271305375
 20
400.4968812651015
 30
0.0
 11
182.5367058822691
 21
399.7218812651016
 31
0.0
  0
LINE
  5
114
330
47
100
AcDbEntity
  8
0
  6
Continuous
 62
     7
100
AcDbLine
 10
182.7020271305375
 20
402.9650536658872
 30
0.0
 11
179.8520271305375
 21
400.4968812651015
 31
0.0
  0
LINE
  5
115
330
47
100
AcDbEntity
  8
0
  6
Continuous
 62
     7
100
AcDbLine
 10
182.5367058822691
 20
398.4228431594249
 30
0.0
 11
182.5367058822691
 21
399.7218812651016
 31
0.0
  0
LINE
  5
116
330
47
100
AcDbEntity
  8
0
  6
Continuous
 62
     7
100
AcDbLine
 10
190.7867058822691
 20
404.2685146349696
 30
0.0
 11
190.7886008940994
 21
405.569193869032
 31
0.0
  0
LINE
  5
117
330
47
100
AcDbEntity
  8
0
  6
Continuous
 62
     7
100
AcDbLine
 10
191.5367058822691
 20
404.918033687808
 30
0.0
 11
190.7867058822691
 21
404.2685146349696
 31
0.0
  0
LINE
  5
118
330
47
100
AcDbEntity
  8
0
  6
Continuous
 62
     7
100
AcDbLine
 10
191.5367058822691
 20
407.5161098991615
 30
0.0
 11
182.5367058822691
 21
399.7218812651016
 31
0.0
  0
LINE
  5
119
330
47
100
AcDbEntity
  8
0
  6
Continuous
 62
     7
100
AcDbLine
 10
182.5367058822691
 20
398.4228431594249
 30
0.0
 11
190.7886008940994
 21
405.569193869032
 31
0.0
  0
LINE
  5
11A
330
47
100
AcDbEntity
  8
0
  6
Continuous
 62
     7
100
AcDbLine
 10
173.3906080141135
 20
408.3020900601032
 30
0.0
 11
177.2885553560632
 21
407.1768495865225
 31
0.0
  0
LINE
  5
11B
330
47
100
AcDbEntity
  8
0
  6
Continuous
 62
     7
100
AcDbLine
 10
172.1444010368559
 20
402.7218812651016
 30
0.0
 11
174.6558747078308
 21
401.9968812651015
 31
0.0
  0
LINE
  5
11C
330
47
100
AcDbEntity
  8
0
  6
Continuous
 62
     7
100
AcDbLine
 10
164.4367749431746
 20
403.6478431594248
 30
0.0
 11
167.1214536949062
 21
402.8728431594249
 31
0.0
  0
LINE
  5
11D
330
47
100
AcDbEntity
  8
0
  6
Continuous
 62
     7
100
AcDbLine
 10
167.1214536949062
 20
402.8728431594249
 30
0.0
 11
167.1214536949062
 21
404.1718812651016
 31
0.0
  0
LINE
  5
11E
330
47
100
AcDbEntity
  8
0
  6
Continuous
 62
     7
100
AcDbLine
 10
196.5596532242188
 20
406.0661098991615
 30
0.0
 11
206.9519580696323
 21
403.0661098991615
 31
0.0
  0
LINE
  5
11F
330
47
100
AcDbEntity
  8
0
  6
Continuous
 62
     7
100
AcDbLine
 10
190.7867058822691
 20
404.2685146349696
 30
0.0
 11
193.5596532242188
 21
403.468033687808
 31
0.0
  0
LINE
  5
120
330
47
100
AcDbEntity
  8
0
  6
Continuous
 62
     7
100
AcDbLine
 10
193.2038075434261
 20
403.1598622884147
 30
0.0
 11
189.3058602014764
 21
404.2851027619955
 31
0.0
  0
LINE
  5
121
330
47
100
AcDbEntity
  8
0
  6
Continuous
 62
     7
100
AcDbLine
 10
194.3096532242188
 20
404.1175527406463
 30
0.0
 11
191.5367058822691
 21
404.918033687808
 31
0.0
  0
LINE
  5
122
330
47
100
AcDbEntity
  8
0
  6
Continuous
 62
     7
100
AcDbLine
 10
188.8058602014764
 20
403.8520900601033
 30
0.0
 11
192.7038075434261
 21
402.7268495865225
 31
0.0
  0
LINE
  5
123
330
47
100
AcDbEntity
  8
0
  6
Continuous
 62
     7
100
AcDbLine
 10
172.1444010368559
 20
402.7218812651016
 30
0.0
 11
181.1444010368559
 21
410.5161098991615
 31
0.0
  0
LINE
  5
124
330
47
100
AcDbEntity
  8
0
  6
Continuous
 62
     7
100
AcDbLine
 10
167.1214536949062
 20
402.8728431594249
 30
0.0
 11
175.3733487067365
 21
410.0191938690319
 31
0.0
  0
LINE
  5
125
330
47
100
AcDbEntity
  8
0
  6
Continuous
 62
     7
100
AcDbLine
 10
187.5596532242188
 20
398.2718812651016
 30
0.0
 11
187.5596532242188
 21
396.9728431594249
 31
0.0
  0
LINE
  5
126
330
47
100
AcDbEntity
  8
0
  6
Continuous
 62
     7
100
AcDbLine
 10
187.5596532242188
 20
396.9728431594249
 30
0.0
 11
190.071126895194
 21
396.2478431594249
 31
0.0
  0
LINE
  5
127
330
47
100
AcDbEntity
  8
0
  6
Continuous
 62
     7
100
AcDbLine
 10
190.071126895194
 20
397.5468812651015
 30
0.0
 11
190.071126895194
 21
396.2478431594249
 31
0.0
  0
LINE
  5
128
330
47
100
AcDbEntity
  8
0
  6
Continuous
 62
     7
100
AcDbLine
 10
187.5596532242188
 20
398.2718812651016
 30
0.0
 11
190.071126895194
 21
397.5468812651015
 31
0.0
  0
LINE
  5
129
330
47
100
AcDbEntity
  8
0
  6
Continuous
 62
     7
100
AcDbLine
 10
198.1172793179006
 20
398.5150536658871
 30
0.0
 11
195.2672793179007
 21
396.0468812651015
 31
0.0
  0
LINE
  5
12A
330
47
100
AcDbEntity
  8
0
  6
Continuous
 62
     7
100
AcDbLine
 10
190.071126895194
 20
396.2478431594249
 30
0.0
 11
192.9211268951939
 21
398.7160155602105
 31
0.0
  0
LINE
  5
12B
330
47
100
AcDbEntity
  8
0
  6
Continuous
 62
     7
100
AcDbLine
 10
197.9519580696322
 20
393.9728431594249
 30
0.0
 11
197.9519580696322
 21
395.2718812651016
 31
0.0
  0
LINE
  5
12C
330
47
100
AcDbEntity
  8
0
  6
Continuous
 62
     7
100
AcDbLine
 10
206.9519580696323
 20
403.0661098991615
 30
0.0
 11
206.9519580696323
 21
400.4680336878079
 31
0.0
  0
LINE
  5
12D
330
47
100
AcDbEntity
  8
0
  6
Continuous
 62
     7
100
AcDbLine
 10
206.2019580696322
 20
399.8185146349672
 30
0.0
 11
206.2038530814625
 21
401.119193869032
 31
0.0
  0
LINE
  5
12E
330
47
100
AcDbEntity
  8
0
  6
Continuous
 62
     7
100
AcDbLine
 10
197.9519580696322
 20
395.2718812651016
 30
0.0
 11
206.9519580696323
 21
403.0661098991615
 31
0.0
  0
LINE
  5
12F
330
47
100
AcDbEntity
  8
0
  6
Continuous
 62
     7
100
AcDbLine
 10
197.9519580696322
 20
393.9728431594249
 30
0.0
 11
206.2038530814625
 21
401.119193869032
 31
0.0
  0
LINE
  5
130
330
47
100
AcDbEntity
  8
0
  6
Continuous
 62
     7
100
AcDbLine
 10
167.1214536949062
 20
404.1718812651016
 30
0.0
 11
176.1214536949063
 21
411.9661098991615
 31
0.0
  0
LINE
  5
131
330
47
100
AcDbEntity
  8
0
  6
Continuous
 62
     7
100
AcDbLine
 10
117.4053420842702
 20
429.1151357233093
 30
0.0
 11
223.9264667497562
 21
398.3651357233092
 31
0.0
  0
LINE
  5
132
330
47
100
AcDbEntity
  8
0
  6
Continuous
 62
     7
100
AcDbLine
 10
224.7896109563608
 20
388.22121237994
 30
0.0
 11
223.4267884858867
 21
388.6146253400329
 31
0.0
  0
LINE
  5
133
330
47
100
AcDbEntity
  8
0
  6
Continuous
 62
     7
100
AcDbLine
 10
225.3352652068958
 20
387.8277374188019
 30
0.0
 11
222.9352652068952
 21
385.7492764497188
 31
0.0
  0
LINE
  5
134
330
47
100
AcDbEntity
  8
0
  6
Continuous
 62
     7
100
AcDbLine
 10
222.9352652068952
 20
393.9997794765231
 30
0.0
 11
223.4352652068952
 21
394.4327921784154
 31
0.0
  0
LINE
  5
135
330
47
100
AcDbEntity
  8
0
  6
Continuous
 62
     7
100
AcDbLine
 10
222.9352652068952
 20
385.7492764497188
 30
0.0
 11
222.9352652068952
 21
393.9997794765231
 31
0.0
  0
LINE
  5
136
330
47
100
AcDbEntity
  8
0
  6
Continuous
 62
     7
100
AcDbLine
 10
219.6363645762027
 20
394.9520900601032
 30
0.0
 11
222.9352652068952
 21
393.9997794765231
 31
0.0
  0
LINE
  5
137
330
47
100
AcDbEntity
  8
0
  6
Continuous
 62
     7
100
AcDbLine
 10
116.414140541409
 20
416.4992764497188
 30
0.0
 11
222.9352652068952
 21
385.7492764497188
 31
0.0
  0
LINE
  5
138
330
47
100
AcDbEntity
  8
0
  6
Continuous
 62
     7
100
AcDbLine
 10
118.1630906073742
 20
430.3980749109135
 30
0.0
 11
224.6842152728603
 21
399.6480749109134
 31
0.0
  0
SPLINE
  5
139
330
47
100
AcDbEntity
  8
0
  6
Continuous
 62
     7
100
AcDbSpline
210
0.0
220
0.0
230
1.0
 70
     8
 71
     3
 72
    17
 73
    13
 74
    11
 42
0.000000001
 43
0.0000000001
 44
0.00000001
 40
0.0
 40
0.0
 40
0.0
 40
0.0
 40
0.4402907597324314
 40
0.9502556701881127
 40
1.522077305629961
 40
2.140295052070223
 40
2.784861194584231
 40
3.433418320360471
 40
4.063274413136539
 40
4.65333918670433
 40
5.186256500830583
 40
5.651115466776486
 40
5.651115466776486
 40
5.651115466776486
 40
5.651115466776486
 10
121.1471056263302
 20
420.8655346130489
 30
0.0
 10
121.0362789470882
 20
420.9626350570266
 30
0.0
 10
120.7970877227066
 20
421.1722016618257
 30
0.0
 10
120.3344802373306
 20
421.3928978218558
 30
0.0
 10
119.7951681585284
 20
421.5685025992236
 30
0.0
 10
119.1920211237974
 20
421.6802516428443
 30
0.0
 10
118.5554539076872
 20
421.7265883748298
 30
0.0
 10
117.9137025232443
 20
421.7040636628294
 30
0.0
 10
117.2955419555522
 20
421.6149892836807
 30
0.0
 10
116.7315886745448
 20
421.4600301277865
 30
0.0
 10
116.2379441444914
 20
421.2570931582869
 30
0.0
 10
115.9697952013691
 20
421.0585266903511
 30
0.0
 10
115.8448659583788
 20
420.9660155602106
 30
0.0
 11
121.1471056263302
 21
420.8655346130489
 31
0.0
 11
120.8039726638816
 21
421.1414253949832
 31
0.0
 11
120.3500807071848
 21
421.3739040046389
 31
0.0
 11
119.8067217708003
 21
421.5520641786364
 31
0.0
 11
119.1993861694107
 21
421.667548583892
 31
0.0
 11
118.5565645460963
 21
421.7149392072878
 31
0.0
 11
117.9084127501469
 21
421.6920133836844
 31
0.0
 11
117.2853366011866
 21
421.5998460945564
 31
0.0
 11
116.7165652266993
 21
421.4427615252094
 31
0.0
 11
116.2287810106496
 21
421.2281283015948
 31
0.0
 11
115.8448659583788
 21
420.9660155602106
 31
0.0
  0
SPLINE
  5
13A
330
47
100
AcDbEntity
  8
0
  6
Continuous
 62
     7
100
AcDbSpline
210
0.0
220
0.0
230
1.0
 70
     8
 71
     3
 72
    17
 73
    13
 74
    11
 42
0.000000001
 43
0.0000000001
 44
0.00000001
 40
0.0
 40
0.0
 40
0.0
 40
0.0
 40
0.4014610005567988
 40
0.8712471548146354
 40
1.440286929418578
 40
2.105766036395448
 40
2.844663643742342
 40
3.622801011199166
 40
4.400938378432969
 40
5.139835984870787
 40
5.805315092454841
 40
6.374354872732447
 40
6.374354872732447
 40
6.374354872732447
 40
6.374354872732447
 10
121.4429421697322
 20
421.5150536658872
 30
0.0
 10
121.4200828327673
 20
421.6494750898898
 30
0.0
 10
121.3704736885122
 20
421.9411952843879
 30
0.0
 10
121.0265075674748
 20
422.3063814527806
 30
0.0
 10
120.5457441551975
 20
422.6088565425045
 30
0.0
 10
119.9237128151899
 20
422.8385088644347
 30
0.0
 10
119.2086939532576
 20
422.9826355935651
 30
0.0
 10
118.4430536730775
 20
423.0315114779423
 30
0.0
 10
117.6767556695058
 20
422.983300383689
 30
0.0
 10
116.9635500465009
 20
422.8361085008192
 30
0.0
 10
116.3358511120445
 20
422.6163926795372
 30
0.0
 10
115.9997764057962
 20
422.3759044437615
 30
0.0
 10
115.8448659583788
 20
422.2650536658872
 30
0.0
 11
121.4429421697322
 21
421.5150536658872
 31
0.0
 11
121.3407188760352
 21
421.903282130037
 31
0.0
 11
121.0410183810855
 21
422.2650536658872
 31
0.0
 11
120.5642619477356
 21
422.575713554889
 31
0.0
 11
119.9429421697321
 21
422.8140917715639
 31
0.0
 11
119.2193990980318
 21
422.9639420190388
 31
0.0
 11
118.4429421697321
 21
423.0150536658872
 31
0.0
 11
117.6664852414325
 21
422.9639420190387
 31
0.0
 11
116.9429421697321
 21
422.8140917715639
 31
0.0
 11
116.3216223917287
 21
422.5757135548889
 31
0.0
 11
115.8448659583788
 21
422.2650536658872
 31
0.0
  0
SPLINE
  5
13B
330
47
100
AcDbEntity
  8
0
  6
Continuous
 62
     7
100
AcDbSpline
210
0.0
220
0.0
230
1.0
 70
     8
 71
     3
 72
    17
 73
    13
 74
    11
 42
0.000000001
 43
0.0000000001
 44
0.00000001
 40
0.0
 40
0.0
 40
0.0
 40
0.0
 40
0.401461000556788
 40
0.8712471548146792
 40
1.440286929418572
 40
2.105766036395389
 40
2.844663643742285
 40
3.622801011199106
 40
4.400938378432899
 40
5.139835984870729
 40
5.805315092454743
 40
6.374354872732263
 40
6.374354872732263
 40
6.374354872732263
 40
6.374354872732263
 10
213.9344552939103
 20
394.8150536658872
 30
0.0
 10
213.9115959569454
 20
394.9494750898899
 30
0.0
 10
213.8619868126904
 20
395.241195284388
 30
0.0
 10
213.5180206916528
 20
395.6063814527805
 30
0.0
 10
213.0372572793756
 20
395.9088565425045
 30
0.0
 10
212.4152259393679
 20
396.1385088644345
 30
0.0
 10
211.7002070774358
 20
396.282635593565
 30
0.0
 10
210.9345667972556
 20
396.3315114779424
 30
0.0
 10
210.1682687936839
 20
396.2833003836889
 30
0.0
 10
209.455063170679
 20
396.1361085008192
 30
0.0
 10
208.8273642362227
 20
395.9163926795369
 30
0.0
 10
208.4912895299744
 20
395.6759044437617
 30
0.0
 10
208.336379082557
 20
395.5650536658872
 30
0.0
 11
213.9344552939103
 21
394.8150536658872
 31
0.0
 11
213.8322320002133
 21
395.2032821300371
 31
0.0
 11
213.5325315052635
 21
395.5650536658872
 31
0.0
 11
213.0557750719136
 21
395.8757135548889
 31
0.0
 11
212.4344552939102
 21
396.1140917715638
 31
0.0
 11
211.7109122222099
 21
396.2639420190386
 31
0.0
 11
210.9344552939102
 21
396.3150536658872
 31
0.0
 11
210.1579983656106
 21
396.2639420190387
 31
0.0
 11
209.4344552939102
 21
396.1140917715638
 31
0.0
 11
208.8131355159069
 21
395.8757135548888
 31
0.0
 11
208.336379082557
 21
395.5650536658872
 31
0.0
  0
SPLINE
  5
13C
330
47
100
AcDbEntity
  8
0
  6
Continuous
 62
     7
100
AcDbSpline
210
0.0
220
0.0
230
1.0
 70
     8
 71
     3
 72
     9
 73
     5
 74
     3
 42
0.000000001
 43
0.0000000001
 44
0.00000001
 40
0.0
 40
0.0
 40
0.0
 40
0.0
 40
0.4697861522010511
 40
0.8712471595482467
 40
0.8712471595482467
 40
0.8712471595482467
 40
0.8712471595482467
 10
121.0410183810855
 20
420.7650536658872
 30
0.0
 10
121.1571020408399
 20
420.8773286423574
 30
0.0
 10
121.372386273308
 20
421.0855494652496
 30
0.0
 10
121.4206861375295
 20
421.3795715528727
 30
0.0
 10
121.4429421697322
 20
421.5150536658872
 30
0.0
 11
121.0410183810855
 21
420.7650536658872
 31
0.0
 11
121.3407188760351
 21
421.1268252017374
 31
0.0
 11
121.4429421697322
 21
421.5150536658872
 31
0.0
  0
SPLINE
  5
13D
330
47
100
AcDbEntity
  8
0
  6
Continuous
 62
     7
100
AcDbSpline
210
0.0
220
0.0
230
1.0
 70
     8
 71
     3
 72
     9
 73
     5
 74
     3
 42
0.000000001
 43
0.0000000001
 44
0.00000001
 40
0.0
 40
0.0
 40
0.0
 40
0.0
 40
0.4697861522010164
 40
0.8712471595482563
 40
0.8712471595482563
 40
0.8712471595482563
 40
0.8712471595482563
 10
151.8715227558114
 20
411.8650536658872
 30
0.0
 10
151.9876064155658
 20
411.9773286423575
 30
0.0
 10
152.2028906480339
 20
412.1855494652497
 30
0.0
 10
152.2511905122554
 20
412.4795715528726
 30
0.0
 10
152.2734465444581
 20
412.6150536658872
 30
0.0
 11
151.8715227558114
 21
411.8650536658872
 31
0.0
 11
152.1712232507611
 21
412.2268252017374
 31
0.0
 11
152.2734465444581
 21
412.6150536658872
 31
0.0
  0
SPLINE
  5
13E
330
47
100
AcDbEntity
  8
0
  6
Continuous
 62
     7
100
AcDbSpline
210
0.0
220
0.0
230
1.0
 70
     8
 71
     3
 72
    17
 73
    13
 74
    11
 42
0.000000001
 43
0.0000000001
 44
0.00000001
 40
0.0
 40
0.0
 40
0.0
 40
0.0
 40
0.4402907597325137
 40
0.9502556701881693
 40
1.522077305629955
 40
2.140295052070206
 40
2.784861194584176
 40
3.433418320360357
 40
4.06327441313653
 40
4.65333918670439
 40
5.186256500830607
 40
5.65111546677652
 40
5.65111546677652
 40
5.65111546677652
 40
5.65111546677652
 10
151.9776100010562
 20
411.9655346130489
 30
0.0
 10
151.8667833218141
 20
412.0626350570267
 30
0.0
 10
151.6275920974327
 20
412.2722016618256
 30
0.0
 10
151.1649846120566
 20
412.4928978218559
 30
0.0
 10
150.6256725332544
 20
412.6685025992234
 30
0.0
 10
150.0225254985235
 20
412.7802516428442
 30
0.0
 10
149.3859582824133
 20
412.8265883748298
 30
0.0
 10
148.7442068979704
 20
412.8040636628294
 30
0.0
 10
148.1260463302782
 20
412.7149892836807
 30
0.0
 10
147.5620930492708
 20
412.5600301277864
 30
0.0
 10
147.0684485192173
 20
412.357093158287
 30
0.0
 10
146.8002995760951
 20
412.158526690351
 30
0.0
 10
146.6753703331049
 20
412.0660155602105
 30
0.0
 11
151.9776100010562
 21
411.9655346130489
 31
0.0
 11
151.6344770386076
 21
412.2414253949833
 31
0.0
 11
151.1805850819107
 21
412.4739040046389
 31
0.0
 11
150.6372261455263
 21
412.6520641786363
 31
0.0
 11
150.0298905441367
 21
412.7675485838918
 31
0.0
 11
149.3870689208223
 21
412.8149392072877
 31
0.0
 11
148.738917124873
 21
412.7920133836843
 31
0.0
 11
148.1158409759126
 21
412.6998460945564
 31
0.0
 11
147.5470696014252
 21
412.5427615252095
 31
0.0
 11
147.0592853853756
 21
412.3281283015949
 31
0.0
 11
146.6753703331049
 21
412.0660155602105
 31
0.0
  0
SPLINE
  5
13F
330
47
100
AcDbEntity
  8
0
  6
Continuous
 62
     7
100
AcDbSpline
210
0.0
220
0.0
230
1.0
 70
     8
 71
     3
 72
    17
 73
    13
 74
    11
 42
0.000000001
 43
0.0000000001
 44
0.00000001
 40
0.0
 40
0.0
 40
0.0
 40
0.0
 40
0.4014610005567807
 40
0.8712471548145994
 40
1.440286929418499
 40
2.105766036395369
 40
2.844663643742265
 40
3.622801011199083
 40
4.400938378432875
 40
5.139835984870693
 40
5.805315092454713
 40
6.374354872732272
 40
6.374354872732272
 40
6.374354872732272
 40
6.374354872732272
 10
152.2734465444581
 20
412.6150536658872
 30
0.0
 10
152.2505872074932
 20
412.7494750898898
 30
0.0
 10
152.2009780632382
 20
413.0411952843881
 30
0.0
 10
151.8570119422008
 20
413.4063814527805
 30
0.0
 10
151.3762485299235
 20
413.7088565425046
 30
0.0
 10
150.7542171899159
 20
413.9385088644346
 30
0.0
 10
150.0391983279835
 20
414.082635593565
 30
0.0
 10
149.2735580478035
 20
414.1315114779426
 30
0.0
 10
148.5072600442318
 20
414.0833003836888
 30
0.0
 10
147.7940544212269
 20
413.9361085008194
 30
0.0
 10
147.1663554867705
 20
413.7163926795369
 30
0.0
 10
146.8302807805222
 20
413.4759044437617
 30
0.0
 10
146.6753703331049
 20
413.3650536658872
 30
0.0
 11
152.2734465444581
 21
412.6150536658872
 31
0.0
 11
152.1712232507611
 21
413.0032821300371
 31
0.0
 11
151.8715227558114
 21
413.3650536658872
 31
0.0
 11
151.3947663224616
 21
413.6757135548889
 31
0.0
 11
150.7734465444582
 21
413.9140917715638
 31
0.0
 11
150.0499034727578
 21
414.0639420190387
 31
0.0
 11
149.2734465444582
 21
414.1150536658872
 31
0.0
 11
148.4969896161585
 21
414.0639420190387
 31
0.0
 11
147.7734465444582
 21
413.9140917715638
 31
0.0
 11
147.1521267664548
 21
413.6757135548889
 31
0.0
 11
146.6753703331049
 21
413.3650536658872
 31
0.0
  0
SPLINE
  5
140
330
47
100
AcDbEntity
  8
0
  6
Continuous
 62
     7
100
AcDbSpline
210
0.0
220
0.0
230
1.0
 70
     8
 71
     3
 72
     9
 73
     5
 74
     3
 42
0.000000001
 43
0.0000000001
 44
0.00000001
 40
0.0
 40
0.0
 40
0.0
 40
0.0
 40
0.4697861522011221
 40
0.8712471595482447
 40
0.8712471595482447
 40
0.8712471595482447
 40
0.8712471595482447
 10
136.4562705684485
 20
416.3150536658872
 30
0.0
 10
136.5723542282029
 20
416.4273286423575
 30
0.0
 10
136.787638460671
 20
416.6355494652497
 30
0.0
 10
136.8359383248925
 20
416.9295715528727
 30
0.0
 10
136.8581943570952
 20
417.0650536658872
 30
0.0
 11
136.4562705684485
 21
416.3150536658872
 31
0.0
 11
136.7559710633982
 21
416.6768252017375
 31
0.0
 11
136.8581943570952
 21
417.0650536658872
 31
0.0
  0
SPLINE
  5
141
330
47
100
AcDbEntity
  8
0
  6
Continuous
 62
     7
100
AcDbSpline
210
0.0
220
0.0
230
1.0
 70
     8
 71
     3
 72
    17
 73
    13
 74
    11
 42
0.000000001
 43
0.0000000001
 44
0.00000001
 40
0.0
 40
0.0
 40
0.0
 40
0.0
 40
0.4402907597323625
 40
0.9502556701881969
 40
1.522077305629956
 40
2.140295052070051
 40
2.784861194584153
 40
3.433418320360446
 40
4.063274413136487
 40
4.653339186704224
 40
5.186256500830496
 40
5.651115466776581
 40
5.651115466776581
 40
5.651115466776581
 40
5.651115466776581
 10
136.5623578136932
 20
416.4155346130489
 30
0.0
 10
136.4515311344512
 20
416.5126350570267
 30
0.0
 10
136.2123399100697
 20
416.7222016618256
 30
0.0
 10
135.7497324246936
 20
416.9428978218558
 30
0.0
 10
135.2104203458915
 20
417.1185025992237
 30
0.0
 10
134.6072733111605
 20
417.2302516428441
 30
0.0
 10
133.9707060950503
 20
417.2765883748298
 30
0.0
 10
133.3289547106073
 20
417.2540636628295
 30
0.0
 10
132.7107941429152
 20
417.1649892836806
 30
0.0
 10
132.1468408619079
 20
417.0100301277863
 30
0.0
 10
131.6531963318544
 20
416.807093158287
 30
0.0
 10
131.385047388732
 20
416.608526690351
 30
0.0
 10
131.2601181457417
 20
416.5160155602106
 30
0.0
 11
136.5623578136932
 21
416.4155346130489
 31
0.0
 11
136.2192248512446
 21
416.6914253949831
 31
0.0
 11
135.7653328945477
 21
416.923904004639
 31
0.0
 11
135.2219739581633
 21
417.1020641786363
 31
0.0
 11
134.6146383567739
 21
417.2175485838919
 31
0.0
 11
133.9718167334593
 21
417.2649392072877
 31
0.0
 11
133.3236649375099
 21
417.2420133836844
 31
0.0
 11
132.7005887885497
 21
417.1498460945564
 31
0.0
 11
132.1318174140624
 21
416.9927615252094
 31
0.0
 11
131.6440331980127
 21
416.7781283015948
 31
0.0
 11
131.2601181457417
 21
416.5160155602106
 31
0.0
  0
SPLINE
  5
142
330
47
100
AcDbEntity
  8
0
  6
Continuous
 62
     7
100
AcDbSpline
210
0.0
220
0.0
230
1.0
 70
     8
 71
     3
 72
    17
 73
    13
 74
    11
 42
0.000000001
 43
0.0000000001
 44
0.00000001
 40
0.0
 40
0.0
 40
0.0
 40
0.0
 40
0.4014610005567807
 40
0.8712471548146975
 40
1.440286929418583
 40
2.10576603639542
 40
2.844663643742327
 40
3.622801011199141
 40
4.40093837843293
 40
5.13983598487076
 40
5.805315092454901
 40
6.374354872732493
 40
6.374354872732493
 40
6.374354872732493
 40
6.374354872732493
 10
136.8581943570952
 20
417.0650536658872
 30
0.0
 10
136.8353350201303
 20
417.1994750898898
 30
0.0
 10
136.7857258758752
 20
417.491195284388
 30
0.0
 10
136.4417597548378
 20
417.8563814527805
 30
0.0
 10
135.9609963425604
 20
418.1588565425044
 30
0.0
 10
135.338965002553
 20
418.3885088644347
 30
0.0
 10
134.6239461406206
 20
418.5326355935651
 30
0.0
 10
133.8583058604405
 20
418.5815114779425
 30
0.0
 10
133.0920078568688
 20
418.5333003836889
 30
0.0
 10
132.3788022338639
 20
418.3861085008193
 30
0.0
 10
131.7511032994075
 20
418.1663926795369
 30
0.0
 10
131.4150285931591
 20
417.9259044437616
 30
0.0
 10
131.2601181457417
 20
417.8150536658872
 30
0.0
 11
136.8581943570952
 21
417.0650536658872
 31
0.0
 11
136.7559710633982
 21
417.4532821300371
 31
0.0
 11
136.4562705684484
 21
417.8150536658873
 31
0.0
 11
135.9795141350985
 21
418.1257135548889
 31
0.0
 11
135.3581943570952
 21
418.3640917715638
 31
0.0
 11
134.6346512853948
 21
418.5139420190387
 31
0.0
 11
133.8581943570952
 21
418.5650536658872
 31
0.0
 11
133.0817374287955
 21
418.5139420190387
 31
0.0
 11
132.3581943570952
 21
418.3640917715638
 31
0.0
 11
131.7368745790917
 21
418.1257135548888
 31
0.0
 11
131.2601181457417
 21
417.8150536658872
 31
0.0
  0
SPLINE
  5
143
330
47
100
AcDbEntity
  8
0
  6
Continuous
 62
     7
100
AcDbSpline
210
0.0
220
0.0
230
1.0
 70
     8
 71
     3
 72
     9
 73
     5
 74
     3
 42
0.000000001
 43
0.0000000001
 44
0.00000001
 40
0.0
 40
0.0
 40
0.0
 40
0.0
 40
0.4697861522010708
 40
0.8712471595483179
 40
0.8712471595483179
 40
0.8712471595483179
 40
0.8712471595483179
 10
213.5325315052635
 20
394.0650536658872
 30
0.0
 10
213.6486151650179
 20
394.1773286423574
 30
0.0
 10
213.8638993974863
 20
394.3855494652499
 30
0.0
 10
213.9121992617076
 20
394.6795715528725
 30
0.0
 10
213.9344552939103
 20
394.8150536658872
 30
0.0
 11
213.5325315052635
 21
394.0650536658872
 31
0.0
 11
213.8322320002133
 21
394.4268252017374
 31
0.0
 11
213.9344552939103
 21
394.8150536658872
 31
0.0
  0
SPLINE
  5
144
330
47
100
AcDbEntity
  8
0
  6
Continuous
 62
     7
100
AcDbSpline
210
0.0
220
0.0
230
1.0
 70
     8
 71
     3
 72
    17
 73
    13
 74
    11
 42
0.000000001
 43
0.0000000001
 44
0.00000001
 40
0.0
 40
0.0
 40
0.0
 40
0.0
 40
0.440290759732456
 40
0.9502556701881626
 40
1.522077305629957
 40
2.140295052070124
 40
2.784861194584118
 40
3.433418320360325
 40
4.063274413136535
 40
4.653339186704382
 40
5.186256500830602
 40
5.651115466776578
 40
5.651115466776578
 40
5.651115466776578
 40
5.651115466776578
 10
213.6386187505083
 20
394.1655346130488
 30
0.0
 10
213.5277920712663
 20
394.2626350570266
 30
0.0
 10
213.2886008468848
 20
394.4722016618256
 30
0.0
 10
212.8259933615087
 20
394.6928978218556
 30
0.0
 10
212.2866812827066
 20
394.8685025992237
 30
0.0
 10
211.6835342479756
 20
394.9802516428441
 30
0.0
 10
211.0469670318654
 20
395.0265883748297
 30
0.0
 10
210.4052156474225
 20
395.0040636628293
 30
0.0
 10
209.7870550797304
 20
394.9149892836809
 30
0.0
 10
209.223101798723
 20
394.7600301277863
 30
0.0
 10
208.7294572686694
 20
394.557093158287
 30
0.0
 10
208.4613083255472
 20
394.358526690351
 30
0.0
 10
208.3363790825569
 20
394.2660155602105
 30
0.0
 11
213.6386187505083
 21
394.1655346130488
 31
0.0
 11
213.2954857880597
 21
394.4414253949831
 31
0.0
 11
212.8415938313628
 21
394.6739040046389
 31
0.0
 11
212.2982348949784
 21
394.8520641786363
 31
0.0
 11
211.690899293589
 21
394.9675485838919
 31
0.0
 11
211.0480776702745
 21
395.0149392072877
 31
0.0
 11
210.3999258743252
 21
394.9920133836844
 31
0.0
 11
209.7768497253648
 21
394.8998460945564
 31
0.0
 11
209.2080783508773
 21
394.7427615252094
 31
0.0
 11
208.7202941348277
 21
394.5281283015948
 31
0.0
 11
208.3363790825569
 21
394.2660155602105
 31
0.0
  0
SPLINE
  5
145
330
47
100
AcDbEntity
  8
0
  6
Continuous
 62
     7
100
AcDbSpline
210
0.0
220
0.0
230
1.0
 70
     8
 71
     3
 72
    17
 73
    13
 74
    11
 42
0.000000001
 43
0.0000000001
 44
0.00000001
 40
0.0
 40
0.0
 40
0.0
 40
0.0
 40
0.4014610005567257
 40
0.8712471548145988
 40
1.440286929418522
 40
2.105766036395307
 40
2.844663643742242
 40
3.622801011199056
 40
4.400938378432817
 40
5.139835984870674
 40
5.805315092454768
 40
6.374354872732295
 40
6.374354872732295
 40
6.374354872732295
 40
6.374354872732295
 10
167.6886987318213
 20
408.1650536658872
 30
0.0
 10
167.6658393948564
 20
408.2994750898898
 30
0.0
 10
167.6162302506014
 20
408.5911952843881
 30
0.0
 10
167.2722641295639
 20
408.9563814527805
 30
0.0
 10
166.7915007172866
 20
409.2588565425044
 30
0.0
 10
166.1694693772791
 20
409.4885088644346
 30
0.0
 10
165.4544505153468
 20
409.6326355935652
 30
0.0
 10
164.6888102351666
 20
409.6815114779424
 30
0.0
 10
163.922512231595
 20
409.633300383689
 30
0.0
 10
163.2093066085901
 20
409.4861085008192
 30
0.0
 10
162.5816076741337
 20
409.2663926795372
 30
0.0
 10
162.2455329678853
 20
409.0259044437615
 30
0.0
 10
162.090622520468
 20
408.9150536658872
 30
0.0
 11
167.6886987318213
 21
408.1650536658872
 31
0.0
 11
167.5864754381243
 21
408.553282130037
 31
0.0
 11
167.2867749431745
 21
408.9150536658872
 31
0.0
 11
166.8100185098247
 21
409.2257135548889
 31
0.0
 11
166.1886987318213
 21
409.4640917715639
 31
0.0
 11
165.4651556601209
 21
409.6139420190387
 31
0.0
 11
164.6886987318213
 21
409.6650536658872
 31
0.0
 11
163.9122418035217
 21
409.6139420190387
 31
0.0
 11
163.1886987318213
 21
409.4640917715639
 31
0.0
 11
162.5673789538179
 21
409.2257135548889
 31
0.0
 11
162.090622520468
 21
408.9150536658872
 31
0.0
  0
SPLINE
  5
146
330
47
100
AcDbEntity
  8
0
  6
Continuous
 62
     7
100
AcDbSpline
210
0.0
220
0.0
230
1.0
 70
     8
 71
     3
 72
     9
 73
     5
 74
     3
 42
0.000000001
 43
0.0000000001
 44
0.00000001
 40
0.0
 40
0.0
 40
0.0
 40
0.0
 40
0.4697861522009908
 40
0.8712471595482785
 40
0.8712471595482785
 40
0.8712471595482785
 40
0.8712471595482785
 10
167.2867749431746
 20
407.4150536658872
 30
0.0
 10
167.4028586029291
 20
407.5273286423576
 30
0.0
 10
167.6181428353972
 20
407.7355494652496
 30
0.0
 10
167.6664426996186
 20
408.0295715528726
 30
0.0
 10
167.6886987318213
 20
408.1650536658872
 30
0.0
 11
167.2867749431746
 21
407.4150536658872
 31
0.0
 11
167.5864754381243
 21
407.7768252017373
 31
0.0
 11
167.6886987318213
 21
408.1650536658872
 31
0.0
  0
SPLINE
  5
147
330
47
100
AcDbEntity
  8
0
  6
Continuous
 62
     7
100
AcDbSpline
210
0.0
220
0.0
230
1.0
 70
     8
 71
     3
 72
    17
 73
    13
 74
    11
 42
0.000000001
 43
0.0000000001
 44
0.00000001
 40
0.0
 40
0.0
 40
0.0
 40
0.0
 40
0.4402907597323673
 40
0.950255670188074
 40
1.52207730562986
 40
2.140295052070066
 40
2.784861194584149
 40
3.43341832036047
 40
4.063274413136538
 40
4.653339186704276
 40
5.186256500830545
 40
5.651115466776498
 40
5.651115466776498
 40
5.651115466776498
 40
5.651115466776498
 10
167.3928621884193
 20
407.5155346130488
 30
0.0
 10
167.2820355091773
 20
407.6126350570265
 30
0.0
 10
167.0428442847959
 20
407.8222016618258
 30
0.0
 10
166.5802367994197
 20
408.0428978218557
 30
0.0
 10
166.0409247206176
 20
408.2185025992235
 30
0.0
 10
165.4377776858867
 20
408.3302516428441
 30
0.0
 10
164.8012104697764
 20
408.3765883748297
 30
0.0
 10
164.1594590853334
 20
408.3540636628295
 30
0.0
 10
163.5412985176413
 20
408.2649892836806
 30
0.0
 10
162.9773452366341
 20
408.1100301277864
 30
0.0
 10
162.4837007065805
 20
407.9070931582871
 30
0.0
 10
162.2155517634583
 20
407.7085266903509
 30
0.0
 10
162.090622520468
 20
407.6160155602105
 30
0.0
 11
167.3928621884193
 21
407.5155346130488
 31
0.0
 11
167.0497292259708
 21
407.7914253949832
 31
0.0
 11
166.5958372692739
 21
408.0239040046389
 31
0.0
 11
166.0524783328895
 21
408.2020641786362
 31
0.0
 11
165.4451427315
 21
408.3175485838918
 31
0.0
 11
164.8023211081855
 21
408.3649392072877
 31
0.0
 11
164.154169312236
 21
408.3420133836844
 31
0.0
 11
163.5310931632758
 21
408.2498460945564
 31
0.0
 11
162.9623217887884
 21
408.0927615252094
 31
0.0
 11
162.4745375727388
 21
407.8781283015948
 31
0.0
 11
162.090622520468
 21
407.6160155602105
 31
0.0
  0
SPLINE
  5
148
330
47
100
AcDbEntity
  8
0
  6
Continuous
 62
     7
100
AcDbSpline
210
0.0
220
0.0
230
1.0
 70
     8
 71
     3
 72
    17
 73
    13
 74
    11
 42
0.000000001
 43
0.0000000001
 44
0.00000001
 40
0.0
 40
0.0
 40
0.0
 40
0.0
 40
0.4014610005567807
 40
0.8712471548146975
 40
1.440286929418645
 40
2.105766036395509
 40
2.844663643742376
 40
3.622801011199187
 40
4.400938378433032
 40
5.139835984870811
 40
5.805315092454879
 40
6.374354872732587
 40
6.374354872732587
 40
6.374354872732587
 40
6.374354872732587
 10
198.5192031065474
 20
399.2650536658871
 30
0.0
 10
198.4963437695825
 20
399.3994750898897
 30
0.0
 10
198.4467346253275
 20
399.691195284388
 30
0.0
 10
198.10276850429
 20
400.0563814527804
 30
0.0
 10
197.6220050920127
 20
400.3588565425046
 30
0.0
 10
196.9999737520051
 20
400.5885088644347
 30
0.0
 10
196.2849548900728
 20
400.7326355935649
 30
0.0
 10
195.5193146098927
 20
400.7815114779424
 30
0.0
 10
194.753016606321
 20
400.7333003836887
 30
0.0
 10
194.0398109833161
 20
400.5861085008194
 30
0.0
 10
193.4121120488596
 20
400.366392679537
 30
0.0
 10
193.0760373426114
 20
400.1259044437615
 30
0.0
 10
192.9211268951939
 20
400.0150536658871
 30
0.0
 11
198.5192031065474
 21
399.2650536658871
 31
0.0
 11
198.4169798128504
 21
399.6532821300369
 31
0.0
 11
198.1172793179007
 21
400.0150536658871
 31
0.0
 11
197.6405228845507
 21
400.3257135548889
 31
0.0
 11
197.0192031065473
 21
400.5640917715638
 31
0.0
 11
196.295660034847
 21
400.7139420190387
 31
0.0
 11
195.5192031065474
 21
400.7650536658871
 31
0.0
 11
194.7427461782477
 21
400.7139420190386
 31
0.0
 11
194.0192031065473
 21
400.5640917715638
 31
0.0
 11
193.3978833285439
 21
400.3257135548889
 31
0.0
 11
192.9211268951939
 21
400.0150536658871
 31
0.0
  0
SPLINE
  5
149
330
47
100
AcDbEntity
  8
0
  6
Continuous
 62
     7
100
AcDbSpline
210
0.0
220
0.0
230
1.0
 70
     8
 71
     3
 72
    17
 73
    13
 74
    11
 42
0.000000001
 43
0.0000000001
 44
0.00000001
 40
0.0
 40
0.0
 40
0.0
 40
0.0
 40
0.4402907597324029
 40
0.9502556701881096
 40
1.522077305629923
 40
2.140295052070129
 40
2.784861194584066
 40
3.433418320360273
 40
4.063274413136446
 40
4.653339186704278
 40
5.186256500830518
 40
5.651115466776447
 40
5.651115466776447
 40
5.651115466776447
 40
5.651115466776447
 10
182.8081143757822
 20
403.0655346130488
 30
0.0
 10
182.6972876965402
 20
403.1626350570266
 30
0.0
 10
182.4580964721588
 20
403.3722016618256
 30
0.0
 10
181.9954889867827
 20
403.5928978218558
 30
0.0
 10
181.4561769079804
 20
403.7685025992233
 30
0.0
 10
180.8530298732497
 20
403.8802516428443
 30
0.0
 10
180.2164626571393
 20
403.9265883748296
 30
0.0
 10
179.5747112726965
 20
403.9040636628294
 30
0.0
 10
178.9565507050044
 20
403.8149892836808
 30
0.0
 10
178.3925974239969
 20
403.6600301277863
 30
0.0
 10
177.8989528939435
 20
403.4570931582871
 30
0.0
 10
177.6308039508213
 20
403.2585266903511
 30
0.0
 10
177.505874707831
 20
403.1660155602105
 30
0.0
 11
182.8081143757822
 21
403.0655346130488
 31
0.0
 11
182.4649814133337
 21
403.3414253949832
 31
0.0
 11
182.0110894566369
 21
403.5739040046389
 31
0.0
 11
181.4677305202524
 21
403.7520641786363
 31
0.0
 11
180.8603949188629
 21
403.8675485838918
 31
0.0
 11
180.2175732955485
 21
403.9149392072877
 31
0.0
 11
179.5694214995991
 21
403.8920133836843
 31
0.0
 11
178.9463453506388
 21
403.7998460945564
 31
0.0
 11
178.3775739761514
 21
403.6427615252095
 31
0.0
 11
177.8897897601017
 21
403.4281283015948
 31
0.0
 11
177.505874707831
 21
403.1660155602105
 31
0.0
  0
SPLINE
  5
14A
330
47
100
AcDbEntity
  8
0
  6
Continuous
 62
     7
100
AcDbSpline
210
0.0
220
0.0
230
1.0
 70
     8
 71
     3
 72
    17
 73
    13
 74
    11
 42
0.000000001
 43
0.0000000001
 44
0.00000001
 40
0.0
 40
0.0
 40
0.0
 40
0.0
 40
0.4014610005566491
 40
0.8712471548144933
 40
1.440286929418488
 40
2.105766036395432
 40
2.844663643742328
 40
3.622801011199089
 40
4.400938378432881
 40
5.139835984870755
 40
5.805315092454769
 40
6.374354872732273
 40
6.374354872732273
 40
6.374354872732273
 40
6.374354872732273
 10
183.1039509191842
 20
403.7150536658872
 30
0.0
 10
183.0810915822193
 20
403.8494750898898
 30
0.0
 10
183.0314824379643
 20
404.1411952843878
 30
0.0
 10
182.687516316927
 20
404.5063814527806
 30
0.0
 10
182.2067529046495
 20
404.8088565425043
 30
0.0
 10
181.5847215646421
 20
405.0385088644348
 30
0.0
 10
180.8697027027097
 20
405.182635593565
 30
0.0
 10
180.1040624225296
 20
405.2315114779426
 30
0.0
 10
179.337764418958
 20
405.1833003836888
 30
0.0
 10
178.624558795953
 20
405.0361085008192
 30
0.0
 10
177.9968598614966
 20
404.8163926795369
 30
0.0
 10
177.6607851552483
 20
404.5759044437615
 30
0.0
 10
177.505874707831
 20
404.4650536658872
 30
0.0
 11
183.1039509191842
 21
403.7150536658872
 31
0.0
 11
183.0017276254873
 21
404.1032821300369
 31
0.0
 11
182.7020271305377
 21
404.4650536658871
 31
0.0
 11
182.2252706971877
 21
404.7757135548889
 31
0.0
 11
181.6039509191842
 21
405.0140917715638
 31
0.0
 11
180.8804078474838
 21
405.1639420190386
 31
0.0
 11
180.1039509191843
 21
405.2150536658872
 31
0.0
 11
179.3274939908846
 21
405.1639420190386
 31
0.0
 11
178.6039509191842
 21
405.0140917715638
 31
0.0
 11
177.9826311411808
 21
404.7757135548889
 31
0.0
 11
177.505874707831
 21
404.4650536658872
 31
0.0
  0
SPLINE
  5
14B
330
47
100
AcDbEntity
  8
0
  6
Continuous
 62
     7
100
AcDbSpline
210
0.0
220
0.0
230
1.0
 70
     8
 71
     3
 72
     9
 73
     5
 74
     3
 42
0.000000001
 43
0.0000000001
 44
0.00000001
 40
0.0
 40
0.0
 40
0.0
 40
0.0
 40
0.4697861522010889
 40
0.8712471595483071
 40
0.8712471595483071
 40
0.8712471595483071
 40
0.8712471595483071
 10
182.7020271305375
 20
402.9650536658872
 30
0.0
 10
182.8181107902919
 20
403.0773286423574
 30
0.0
 10
183.0333950227602
 20
403.2855494652497
 30
0.0
 10
183.0816948869816
 20
403.5795715528726
 30
0.0
 10
183.1039509191842
 20
403.7150536658872
 30
0.0
 11
182.7020271305375
 21
402.9650536658872
 31
0.0
 11
183.0017276254873
 21
403.3268252017373
 31
0.0
 11
183.1039509191842
 21
403.7150536658872
 31
0.0
  0
SPLINE
  5
14C
330
47
100
AcDbEntity
  8
0
  6
Continuous
 62
     7
100
AcDbSpline
210
0.0
220
0.0
230
1.0
 70
     8
 71
     3
 72
    17
 73
    13
 74
    11
 42
0.000000001
 43
0.0000000001
 44
0.00000001
 40
0.0
 40
0.0
 40
0.0
 40
0.0
 40
0.4402907597324472
 40
0.9502556701882046
 40
1.522077305629999
 40
2.140295052070156
 40
2.784861194584239
 40
3.433418320360505
 40
4.063274413136602
 40
4.653339186704379
 40
5.18625650083067
 40
5.651115466776685
 40
5.651115466776685
 40
5.651115466776685
 40
5.651115466776685
 10
198.2233665631454
 20
398.6155346130488
 30
0.0
 10
198.1125398839033
 20
398.7126350570265
 30
0.0
 10
197.873348659522
 20
398.9222016618257
 30
0.0
 10
197.4107411741458
 20
399.1428978218556
 30
0.0
 10
196.8714290953437
 20
399.3185025992237
 30
0.0
 10
196.2682820606127
 20
399.4302516428441
 30
0.0
 10
195.6317148445025
 20
399.4765883748299
 30
0.0
 10
194.9899634600595
 20
399.4540636628293
 30
0.0
 10
194.3718028923674
 20
399.3649892836806
 30
0.0
 10
193.80784961136
 20
399.2100301277864
 30
0.0
 10
193.3142050813066
 20
399.0070931582869
 30
0.0
 10
193.0460561381842
 20
398.808526690351
 30
0.0
 10
192.9211268951939
 20
398.7160155602105
 30
0.0
 11
198.2233665631454
 21
398.6155346130488
 31
0.0
 11
197.8802336006968
 21
398.8914253949832
 31
0.0
 11
197.4263416439999
 21
399.1239040046389
 31
0.0
 11
196.8829827076155
 21
399.3020641786364
 31
0.0
 11
196.275647106226
 21
399.4175485838919
 31
0.0
 11
195.6328254829115
 21
399.4649392072877
 31
0.0
 11
194.9846736869621
 21
399.4420133836844
 31
0.0
 11
194.3615975380018
 21
399.3498460945564
 31
0.0
 11
193.7928261635145
 21
399.1927615252094
 31
0.0
 11
193.3050419474648
 21
398.9781283015948
 31
0.0
 11
192.9211268951939
 21
398.7160155602105
 31
0.0
  0
SPLINE
  5
14D
330
47
100
AcDbEntity
  8
0
  6
Continuous
 62
     7
100
AcDbSpline
210
0.0
220
0.0
230
1.0
 70
     8
 71
     3
 72
     9
 73
     5
 74
     3
 42
0.000000001
 43
0.0000000001
 44
0.00000001
 40
0.0
 40
0.0
 40
0.0
 40
0.0
 40
0.4697861522011327
 40
0.8712471595483176
 40
0.8712471595483176
 40
0.8712471595483176
 40
0.8712471595483176
 10
198.1172793179006
 20
398.5150536658871
 30
0.0
 10
198.233362977655
 20
398.6273286423573
 30
0.0
 10
198.4486472101232
 20
398.8355494652496
 30
0.0
 10
198.4969470743447
 20
399.1295715528725
 30
0.0
 10
198.5192031065474
 20
399.2650536658871
 30
0.0
 11
198.1172793179006
 21
398.5150536658871
 31
0.0
 11
198.4169798128504
 21
398.8768252017373
 31
0.0
 11
198.5192031065474
 21
399.2650536658871
 31
0.0
  0
ENDBLK
  5
49
330
47
100
AcDbEntity
  8
0
100
AcDbBlockEnd
  0
BLOCK
  5
4C
330
4A
100
AcDbEntity
  8
0
100
AcDbBlockBegin
  2
Allg1
 70
     0
 10
167.0000000000197
 20
405.00000000002
 30
0.0
  3
Allg1
  1

  0
INSERT
  5
4B
330
4A
100
AcDbEntity
  8
0
100
AcDbBlockReference
  2
MPB_18_1_7_BU-select__1
 10
110.4833922874039
 20
385.7492764497188
 30
0.0
  0
MTEXT
  5
14F
330
4A
100
AcDbEntity
  8
1
 62
     6
100
AcDbMText
 10
167.00000000002
 20
374.0380985707029
 30
0.0
 40
5.0
 41
0.0
 71
     2
 72
     1
  1
 
  7
CONVERTER_11
 73
     1
 44
1.32052821128451
  0
ENDBLK
  5
4D
330
4A
100
AcDbEntity
  8
0
100
AcDbBlockEnd
  0
BLOCK
  5
4F
330
4E
100
AcDbEntity
  8
0
100
AcDbBlockBegin
  2
MPB_18_1_7_BU-select__2
 70
     0
 10
-60.49999771118166
 20
422.8505985800503
 30
0.0
  3
MPB_18_1_7_BU-select__2
  1

  0
LINE
  5
150
330
4E
100
AcDbEntity
  8
0
  6
Continuous
 62
     7
100
AcDbLine
 10
42.60000228881833
 20
439.3505985800503
 30
0.0
 11
42.60000228881836
 21
440.3318048696773
 31
0.0
  0
LINE
  5
151
330
4E
100
AcDbEntity
  8
0
  6
Continuous
 62
     7
100
AcDbLine
 10
62.50000228881854
 20
443.1494017839563
 30
0.0
 11
62.50000228881854
 21
441.8473019158856
 31
0.0
  0
LINE
  5
152
330
4E
100
AcDbEntity
  8
0
  6
Continuous
 62
     7
100
AcDbLine
 10
62.50000228881854
 20
441.8473019158856
 30
0.0
 11
62.50000228881854
 21
440.3318048696773
 31
0.0
  0
LINE
  5
153
330
4E
100
AcDbEntity
  8
0
  6
Continuous
 62
     7
100
AcDbLine
 10
62.50000228881854
 20
440.3318048696773
 30
0.0
 11
-60.49999771118166
 21
440.3318048696773
 31
0.0
  0
LINE
  5
154
330
4E
100
AcDbEntity
  8
0
  6
Continuous
 62
     7
100
AcDbLine
 10
60.40000228881851
 20
439.3494017839552
 30
0.0
 11
60.40000228881854
 21
422.8505985800503
 31
0.0
  0
LINE
  5
155
330
4E
100
AcDbEntity
  8
0
  6
Continuous
 62
     7
100
AcDbLine
 10
57.30000228881846
 20
428.5505985800502
 30
0.0
 11
57.30000228881846
 21
422.8505985800503
 31
0.0
  0
LINE
  5
156
330
4E
100
AcDbEntity
  8
0
  6
Continuous
 62
     7
100
AcDbLine
 10
51.3000022888184
 20
422.8505985800503
 30
0.0
 11
51.30000228881846
 21
428.5505985800502
 31
0.0
  0
LINE
  5
157
330
4E
100
AcDbEntity
  8
0
  6
Continuous
 62
     7
100
AcDbLine
 10
48.40000228881854
 20
440.3318048696773
 30
0.0
 11
48.40000228881851
 21
439.3505985800503
 31
0.0
  0
LINE
  5
158
330
4E
100
AcDbEntity
  8
0
  6
Continuous
 62
     7
100
AcDbLine
 10
60.40000228881851
 20
439.3494017839552
 30
0.0
 11
62.50000228881854
 21
439.3494017839552
 31
0.0
  0
LINE
  5
159
330
4E
100
AcDbEntity
  8
0
  6
Continuous
 62
     7
100
AcDbLine
 10
60.40000228881854
 20
440.3318048696773
 30
0.0
 11
60.40000228881851
 21
439.3494017839552
 31
0.0
  0
LINE
  5
15A
330
4E
100
AcDbEntity
  8
0
  6
Continuous
 62
     7
100
AcDbLine
 10
62.50000228881854
 20
439.3494017839552
 30
0.0
 11
62.50000228881854
 21
438.3494017839552
 31
0.0
  0
LINE
  5
15B
330
4E
100
AcDbEntity
  8
0
  6
Continuous
 62
     7
100
AcDbLine
 10
62.50000228881854
 20
440.3318048696773
 30
0.0
 11
62.50000228881854
 21
439.3494017839552
 31
0.0
  0
LINE
  5
15C
330
4E
100
AcDbEntity
  8
0
  6
Continuous
 62
     7
100
AcDbLine
 10
57.30000228881846
 20
422.8505985800503
 30
0.0
 11
60.40000228881854
 21
422.8505985800503
 31
0.0
  0
LINE
  5
15D
330
4E
100
AcDbEntity
  8
0
  6
Continuous
 62
     7
100
AcDbLine
 10
60.40000228881854
 20
438.3494017839552
 30
0.0
 11
62.50000228881854
 21
438.3494017839552
 31
0.0
  0
LINE
  5
15E
330
4E
100
AcDbEntity
  8
0
  6
Continuous
 62
     7
100
AcDbLine
 10
48.40000228881854
 20
422.8505985800503
 30
0.0
 11
51.3000022888184
 21
422.8505985800503
 31
0.0
  0
LINE
  5
15F
330
4E
100
AcDbEntity
  8
0
  6
Continuous
 62
     7
100
AcDbLine
 10
-60.49999771118166
 20
443.1494017839563
 30
0.0
 11
62.50000228881854
 21
443.1494017839563
 31
0.0
  0
LINE
  5
160
330
4E
100
AcDbEntity
  8
0
  6
Continuous
 62
     7
100
AcDbLine
 10
48.40000228881854
 20
439.3494017839552
 30
0.0
 11
42.60000228881836
 21
439.3494017839552
 31
0.0
  0
LINE
  5
161
330
4E
100
AcDbEntity
  8
0
  6
Continuous
 62
     7
100
AcDbLine
 10
42.60000228881836
 20
438.3494017839552
 30
0.0
 11
48.40000228881854
 21
438.3494017839552
 31
0.0
  0
LINE
  5
162
330
4E
100
AcDbEntity
  8
0
  6
Continuous
 62
     7
100
AcDbLine
 10
39.50000228881856
 20
422.8505985800503
 30
0.0
 11
42.60000228881836
 21
422.8505985800503
 31
0.0
  0
LINE
  5
163
330
4E
100
AcDbEntity
  8
0
  6
Continuous
 62
     7
100
AcDbLine
 10
39.50000228881856
 20
428.5505985800502
 30
0.0
 11
39.50000228881856
 21
422.8505985800503
 31
0.0
  0
LINE
  5
164
330
4E
100
AcDbEntity
  8
0
  6
Continuous
 62
     7
100
AcDbLine
 10
42.60000228881833
 20
439.3505985800503
 30
0.0
 11
48.40000228881851
 21
439.3505985800503
 31
0.0
  0
LINE
  5
165
330
4E
100
AcDbEntity
  8
0
  6
Continuous
 62
     7
100
AcDbLine
 10
42.60000228881836
 20
422.8505985800503
 30
0.0
 11
42.60000228881833
 21
439.3505985800503
 31
0.0
  0
LINE
  5
166
330
4E
100
AcDbEntity
  8
0
  6
Continuous
 62
     7
100
AcDbLine
 10
48.40000228881851
 20
439.3505985800503
 30
0.0
 11
48.40000228881854
 21
422.8505985800503
 31
0.0
  0
LINE
  5
167
330
4E
100
AcDbEntity
  8
0
  6
Continuous
 62
     7
100
AcDbLine
 10
-60.49999771118166
 20
441.8473019158856
 30
0.0
 11
62.50000228881854
 21
441.8473019158856
 31
0.0
  0
LINE
  5
168
330
4E
100
AcDbEntity
  8
0
  6
Continuous
 62
     7
100
AcDbLine
 10
-60.49999771118166
 20
439.3494017839552
 30
0.0
 11
-58.39999771118167
 21
439.3494017839552
 31
0.0
  0
LINE
  5
169
330
4E
100
AcDbEntity
  8
0
  6
Continuous
 62
     7
100
AcDbLine
 10
-60.49999771118166
 20
441.8473019158856
 30
0.0
 11
-60.49999771118166
 21
443.1494017839563
 31
0.0
  0
LINE
  5
16A
330
4E
100
AcDbEntity
  8
0
  6
Continuous
 62
     7
100
AcDbLine
 10
-19.89999771118158
 20
422.8505985800503
 30
0.0
 11
-19.89999771118158
 21
428.5505985800502
 31
0.0
  0
LINE
  5
16B
330
4E
100
AcDbEntity
  8
0
  6
Continuous
 62
     7
100
AcDbLine
 10
-28.5999977111817
 20
439.3505985800503
 30
0.0
 11
-22.79999771118163
 21
439.3505985800503
 31
0.0
  0
LINE
  5
16C
330
4E
100
AcDbEntity
  8
0
  6
Continuous
 62
     7
100
AcDbLine
 10
-22.79999771118162
 20
422.8505985800503
 30
0.0
 11
-19.89999771118158
 21
422.8505985800503
 31
0.0
  0
LINE
  5
16D
330
4E
100
AcDbEntity
  8
0
  6
Continuous
 62
     7
100
AcDbLine
 10
-46.39999771118167
 20
439.3505985800503
 30
0.0
 11
-40.59999771118169
 21
439.3505985800503
 31
0.0
  0
LINE
  5
16E
330
4E
100
AcDbEntity
  8
0
  6
Continuous
 62
     7
100
AcDbLine
 10
-28.59999771118169
 20
422.8505985800503
 30
0.0
 11
-28.5999977111817
 21
439.3505985800503
 31
0.0
  0
LINE
  5
16F
330
4E
100
AcDbEntity
  8
0
  6
Continuous
 62
     7
100
AcDbLine
 10
-46.39999771118167
 20
439.3505985800503
 30
0.0
 11
-46.39999771118167
 21
440.3318048696773
 31
0.0
  0
LINE
  5
170
330
4E
100
AcDbEntity
  8
0
  6
Continuous
 62
     7
100
AcDbLine
 10
-40.59999771118169
 20
439.3494017839552
 30
0.0
 11
-46.39999771118167
 21
439.3494017839552
 31
0.0
  0
LINE
  5
171
330
4E
100
AcDbEntity
  8
0
  6
Continuous
 62
     7
100
AcDbLine
 10
-46.39999771118167
 20
438.3494017839552
 30
0.0
 11
-40.59999771118169
 21
438.3494017839552
 31
0.0
  0
LINE
  5
172
330
4E
100
AcDbEntity
  8
0
  6
Continuous
 62
     7
100
AcDbLine
 10
-31.6999977111816
 20
422.8505985800503
 30
0.0
 11
-28.59999771118169
 21
422.8505985800503
 31
0.0
  0
LINE
  5
173
330
4E
100
AcDbEntity
  8
0
  6
Continuous
 62
     7
100
AcDbLine
 10
-40.59999771118169
 20
439.3505985800503
 30
0.0
 11
-40.59999771118169
 21
440.3318048696773
 31
0.0
  0
LINE
  5
174
330
4E
100
AcDbEntity
  8
0
  6
Continuous
 62
     7
100
AcDbLine
 10
-37.6999977111816
 20
422.8505985800503
 30
0.0
 11
-37.6999977111816
 21
428.5505985800502
 31
0.0
  0
LINE
  5
175
330
4E
100
AcDbEntity
  8
0
  6
Continuous
 62
     7
100
AcDbLine
 10
-40.59999771118169
 20
422.8505985800503
 30
0.0
 11
-40.59999771118169
 21
439.3505985800503
 31
0.0
  0
LINE
  5
176
330
4E
100
AcDbEntity
  8
0
  6
Continuous
 62
     7
100
AcDbLine
 10
-58.39999771118166
 20
440.3318048696773
 30
0.0
 11
-58.39999771118167
 21
439.3494017839552
 31
0.0
  0
LINE
  5
177
330
4E
100
AcDbEntity
  8
0
  6
Continuous
 62
     7
100
AcDbLine
 10
-60.49999771118166
 20
438.3494017839552
 30
0.0
 11
-58.39999771118167
 21
438.3494017839552
 31
0.0
  0
LINE
  5
178
330
4E
100
AcDbEntity
  8
0
  6
Continuous
 62
     7
100
AcDbLine
 10
-60.49999771118166
 20
438.3494017839552
 30
0.0
 11
-60.49999771118166
 21
439.3494017839552
 31
0.0
  0
LINE
  5
179
330
4E
100
AcDbEntity
  8
0
  6
Continuous
 62
     7
100
AcDbLine
 10
-60.49999771118166
 20
440.3318048696773
 30
0.0
 11
-60.49999771118166
 21
439.3494017839552
 31
0.0
  0
LINE
  5
17A
330
4E
100
AcDbEntity
  8
0
  6
Continuous
 62
     7
100
AcDbLine
 10
-60.49999771118166
 20
441.8473019158856
 30
0.0
 11
-60.49999771118166
 21
440.3318048696773
 31
0.0
  0
LINE
  5
17B
330
4E
100
AcDbEntity
  8
0
  6
Continuous
 62
     7
100
AcDbLine
 10
-58.39999771118167
 20
439.3494017839552
 30
0.0
 11
-58.39999771118167
 21
422.8505985800503
 31
0.0
  0
LINE
  5
17C
330
4E
100
AcDbEntity
  8
0
  6
Continuous
 62
     7
100
AcDbLine
 10
-55.49999771118158
 20
422.8505985800503
 30
0.0
 11
-55.49999771118158
 21
428.5505985800502
 31
0.0
  0
LINE
  5
17D
330
4E
100
AcDbEntity
  8
0
  6
Continuous
 62
     7
100
AcDbLine
 10
-58.39999771118167
 20
422.8505985800503
 30
0.0
 11
-55.49999771118158
 21
422.8505985800503
 31
0.0
  0
LINE
  5
17E
330
4E
100
AcDbEntity
  8
0
  6
Continuous
 62
     7
100
AcDbLine
 10
-40.59999771118169
 20
422.8505985800503
 30
0.0
 11
-37.6999977111816
 21
422.8505985800503
 31
0.0
  0
LINE
  5
17F
330
4E
100
AcDbEntity
  8
0
  6
Continuous
 62
     7
100
AcDbLine
 10
-49.49999771118158
 20
422.8505985800503
 30
0.0
 11
-46.39999771118167
 21
422.8505985800503
 31
0.0
  0
LINE
  5
180
330
4E
100
AcDbEntity
  8
0
  6
Continuous
 62
     7
100
AcDbLine
 10
-22.79999771118163
 20
439.3505985800503
 30
0.0
 11
-22.79999771118162
 21
440.3318048696773
 31
0.0
  0
LINE
  5
181
330
4E
100
AcDbEntity
  8
0
  6
Continuous
 62
     7
100
AcDbLine
 10
-22.79999771118162
 20
422.8505985800503
 30
0.0
 11
-22.79999771118163
 21
439.3505985800503
 31
0.0
  0
LINE
  5
182
330
4E
100
AcDbEntity
  8
0
  6
Continuous
 62
     7
100
AcDbLine
 10
-22.79999771118162
 20
439.3494017839552
 30
0.0
 11
-28.59999771118169
 21
439.3494017839552
 31
0.0
  0
LINE
  5
183
330
4E
100
AcDbEntity
  8
0
  6
Continuous
 62
     7
100
AcDbLine
 10
-28.5999977111817
 20
439.3505985800503
 30
0.0
 11
-28.59999771118169
 21
440.3318048696773
 31
0.0
  0
LINE
  5
184
330
4E
100
AcDbEntity
  8
0
  6
Continuous
 62
     7
100
AcDbLine
 10
-28.59999771118169
 20
438.3494017839552
 30
0.0
 11
-22.79999771118162
 21
438.3494017839552
 31
0.0
  0
LINE
  5
185
330
4E
100
AcDbEntity
  8
0
  6
Continuous
 62
     7
100
AcDbLine
 10
-31.6999977111816
 20
428.5505985800502
 30
0.0
 11
-31.6999977111816
 21
422.8505985800503
 31
0.0
  0
LINE
  5
186
330
4E
100
AcDbEntity
  8
0
  6
Continuous
 62
     7
100
AcDbLine
 10
-49.49999771118158
 20
428.5505985800502
 30
0.0
 11
-49.49999771118158
 21
422.8505985800503
 31
0.0
  0
LINE
  5
187
330
4E
100
AcDbEntity
  8
0
  6
Continuous
 62
     7
100
AcDbLine
 10
-46.39999771118167
 20
422.8505985800503
 30
0.0
 11
-46.39999771118167
 21
439.3505985800503
 31
0.0
  0
LINE
  5
188
330
4E
100
AcDbEntity
  8
0
  6
Continuous
 62
     7
100
AcDbLine
 10
30.60000228881836
 20
422.8505985800503
 30
0.0
 11
33.50000228881856
 21
422.8505985800503
 31
0.0
  0
LINE
  5
189
330
4E
100
AcDbEntity
  8
0
  6
Continuous
 62
     7
100
AcDbLine
 10
-4.99999771118155
 20
422.8505985800503
 30
0.0
 11
-2.09999771118146
 21
422.8505985800503
 31
0.0
  0
LINE
  5
18A
330
4E
100
AcDbEntity
  8
0
  6
Continuous
 62
     7
100
AcDbLine
 10
12.8000022888184
 20
422.8505985800503
 30
0.0
 11
15.7000022888185
 21
422.8505985800503
 31
0.0
  0
LINE
  5
18B
330
4E
100
AcDbEntity
  8
0
  6
Continuous
 62
     7
100
AcDbLine
 10
-13.89999771118158
 20
428.5505985800502
 30
0.0
 11
-13.89999771118158
 21
422.8505985800503
 31
0.0
  0
LINE
  5
18C
330
4E
100
AcDbEntity
  8
0
  6
Continuous
 62
     7
100
AcDbLine
 10
-13.89999771118158
 20
422.8505985800503
 30
0.0
 11
-10.79999771118162
 21
422.8505985800503
 31
0.0
  0
LINE
  5
18D
330
4E
100
AcDbEntity
  8
0
  6
Continuous
 62
     7
100
AcDbLine
 10
3.90000228881854
 20
422.8505985800503
 30
0.0
 11
7.00000228881845
 21
422.8505985800503
 31
0.0
  0
LINE
  5
18E
330
4E
100
AcDbEntity
  8
0
  6
Continuous
 62
     7
100
AcDbLine
 10
21.7000022888185
 20
422.8505985800503
 30
0.0
 11
24.8000022888184
 21
422.8505985800503
 31
0.0
  0
LINE
  5
18F
330
4E
100
AcDbEntity
  8
0
  6
Continuous
 62
     7
100
AcDbLine
 10
33.50000228881856
 20
422.8505985800503
 30
0.0
 11
33.50000228881856
 21
428.5505985800502
 31
0.0
  0
LINE
  5
190
330
4E
100
AcDbEntity
  8
0
  6
Continuous
 62
     7
100
AcDbLine
 10
30.60000228881836
 20
439.3494017839552
 30
0.0
 11
24.8000022888184
 21
439.3494017839552
 31
0.0
  0
LINE
  5
191
330
4E
100
AcDbEntity
  8
0
  6
Continuous
 62
     7
100
AcDbLine
 10
24.8000022888184
 20
438.3494017839552
 30
0.0
 11
30.60000228881836
 21
438.3494017839552
 31
0.0
  0
LINE
  5
192
330
4E
100
AcDbEntity
  8
0
  6
Continuous
 62
     7
100
AcDbLine
 10
24.8000022888184
 20
439.3505985800503
 30
0.0
 11
30.60000228881836
 21
439.3505985800503
 31
0.0
  0
LINE
  5
193
330
4E
100
AcDbEntity
  8
0
  6
Continuous
 62
     7
100
AcDbLine
 10
30.60000228881836
 20
440.3318048696773
 30
0.0
 11
30.60000228881836
 21
439.3505985800503
 31
0.0
  0
LINE
  5
194
330
4E
100
AcDbEntity
  8
0
  6
Continuous
 62
     7
100
AcDbLine
 10
30.60000228881836
 20
439.3505985800503
 30
0.0
 11
30.60000228881836
 21
422.8505985800503
 31
0.0
  0
LINE
  5
195
330
4E
100
AcDbEntity
  8
0
  6
Continuous
 62
     7
100
AcDbLine
 10
21.7000022888185
 20
428.5505985800502
 30
0.0
 11
21.7000022888185
 21
422.8505985800503
 31
0.0
  0
LINE
  5
196
330
4E
100
AcDbEntity
  8
0
  6
Continuous
 62
     7
100
AcDbLine
 10
3.90000228881854
 20
428.5505985800502
 30
0.0
 11
3.90000228881854
 21
422.8505985800503
 31
0.0
  0
LINE
  5
197
330
4E
100
AcDbEntity
  8
0
  6
Continuous
 62
     7
100
AcDbLine
 10
15.7000022888185
 20
422.8505985800503
 30
0.0
 11
15.7000022888185
 21
428.5505985800502
 31
0.0
  0
LINE
  5
198
330
4E
100
AcDbEntity
  8
0
  6
Continuous
 62
     7
100
AcDbLine
 10
-2.09999771118146
 20
422.8505985800503
 30
0.0
 11
-2.09999771118146
 21
428.5505985800502
 31
0.0
  0
LINE
  5
199
330
4E
100
AcDbEntity
  8
0
  6
Continuous
 62
     7
100
AcDbLine
 10
-10.79999771118162
 20
439.3505985800503
 30
0.0
 11
-4.99999771118155
 21
439.3505985800503
 31
0.0
  0
LINE
  5
19A
330
4E
100
AcDbEntity
  8
0
  6
Continuous
 62
     7
100
AcDbLine
 10
-4.99999771118155
 20
439.3505985800503
 30
0.0
 11
-4.99999771118155
 21
440.3318048696773
 31
0.0
  0
LINE
  5
19B
330
4E
100
AcDbEntity
  8
0
  6
Continuous
 62
     7
100
AcDbLine
 10
-4.99999771118155
 20
439.3494017839552
 30
0.0
 11
-10.79999771118162
 21
439.3494017839552
 31
0.0
  0
LINE
  5
19C
330
4E
100
AcDbEntity
  8
0
  6
Continuous
 62
     7
100
AcDbLine
 10
-10.79999771118162
 20
438.3494017839552
 30
0.0
 11
-4.99999771118155
 21
438.3494017839552
 31
0.0
  0
LINE
  5
19D
330
4E
100
AcDbEntity
  8
0
  6
Continuous
 62
     7
100
AcDbLine
 10
-10.79999771118162
 20
439.3505985800503
 30
0.0
 11
-10.79999771118162
 21
440.3318048696773
 31
0.0
  0
LINE
  5
19E
330
4E
100
AcDbEntity
  8
0
  6
Continuous
 62
     7
100
AcDbLine
 10
-10.79999771118162
 20
422.8505985800503
 30
0.0
 11
-10.79999771118162
 21
439.3505985800503
 31
0.0
  0
LINE
  5
19F
330
4E
100
AcDbEntity
  8
0
  6
Continuous
 62
     7
100
AcDbLine
 10
-4.99999771118155
 20
422.8505985800503
 30
0.0
 11
-4.99999771118155
 21
439.3505985800503
 31
0.0
  0
LINE
  5
1A0
330
4E
100
AcDbEntity
  8
0
  6
Continuous
 62
     7
100
AcDbLine
 10
12.80000228881838
 20
439.3505985800503
 30
0.0
 11
12.8000022888184
 21
440.3318048696773
 31
0.0
  0
LINE
  5
1A1
330
4E
100
AcDbEntity
  8
0
  6
Continuous
 62
     7
100
AcDbLine
 10
12.8000022888184
 20
422.8505985800503
 30
0.0
 11
12.80000228881838
 21
439.3505985800503
 31
0.0
  0
LINE
  5
1A2
330
4E
100
AcDbEntity
  8
0
  6
Continuous
 62
     7
100
AcDbLine
 10
12.8000022888184
 20
439.3494017839552
 30
0.0
 11
7.00000228881845
 21
439.3494017839552
 31
0.0
  0
LINE
  5
1A3
330
4E
100
AcDbEntity
  8
0
  6
Continuous
 62
     7
100
AcDbLine
 10
7.00000228881845
 20
438.3494017839552
 30
0.0
 11
12.8000022888184
 21
438.3494017839552
 31
0.0
  0
LINE
  5
1A4
330
4E
100
AcDbEntity
  8
0
  6
Continuous
 62
     7
100
AcDbLine
 10
7.00000228881842
 20
439.3505985800503
 30
0.0
 11
12.80000228881838
 21
439.3505985800503
 31
0.0
  0
LINE
  5
1A5
330
4E
100
AcDbEntity
  8
0
  6
Continuous
 62
     7
100
AcDbLine
 10
7.00000228881845
 20
422.8505985800503
 30
0.0
 11
7.00000228881842
 21
439.3505985800503
 31
0.0
  0
LINE
  5
1A6
330
4E
100
AcDbEntity
  8
0
  6
Continuous
 62
     7
100
AcDbLine
 10
24.8000022888184
 20
439.3505985800503
 30
0.0
 11
24.8000022888184
 21
422.8505985800503
 31
0.0
  0
LINE
  5
1A7
330
4E
100
AcDbEntity
  8
0
  6
Continuous
 62
     7
100
AcDbLine
 10
7.00000228881842
 20
439.3505985800503
 30
0.0
 11
7.00000228881845
 21
440.3318048696773
 31
0.0
  0
LINE
  5
1A8
330
4E
100
AcDbEntity
  8
0
  6
Continuous
 62
     7
100
AcDbLine
 10
24.8000022888184
 20
440.3318048696773
 30
0.0
 11
24.8000022888184
 21
439.3505985800503
 31
0.0
  0
ARC
  5
1A9
330
4E
100
AcDbEntity
  8
0
  6
Continuous
 62
     7
100
AcDbCircle
 10
54.30000228881846
 20
428.5505985800502
 30
0.0
 40
3.0
100
AcDbArc
 50
0.0
 51
180.0
  0
ARC
  5
1AA
330
4E
100
AcDbEntity
  8
0
  6
Continuous
 62
     7
100
AcDbCircle
 10
36.50000228881856
 20
428.5505985800502
 30
0.0
 40
3.0
100
AcDbArc
 50
0.0
 51
180.0
  0
ARC
  5
1AB
330
4E
100
AcDbEntity
  8
0
  6
Continuous
 62
     7
100
AcDbCircle
 10
-52.49999771118158
 20
428.5505985800502
 30
0.0
 40
3.0
100
AcDbArc
 50
0.0
 51
180.0
  0
ARC
  5
1AC
330
4E
100
AcDbEntity
  8
0
  6
Continuous
 62
     7
100
AcDbCircle
 10
-34.6999977111816
 20
428.5505985800502
 30
0.0
 40
3.000000000000004
100
AcDbArc
 50
0.0
 51
180.0
  0
ARC
  5
1AD
330
4E
100
AcDbEntity
  8
0
  6
Continuous
 62
     7
100
AcDbCircle
 10
0.90000228881854
 20
428.5505985800502
 30
0.0
 40
3.000000000000001
100
AcDbArc
 50
0.0
 51
180.0
  0
ARC
  5
1AE
330
4E
100
AcDbEntity
  8
0
  6
Continuous
 62
     7
100
AcDbCircle
 10
18.7000022888185
 20
428.5505985800502
 30
0.0
 40
3.0
100
AcDbArc
 50
0.0
 51
180.0
  0
ARC
  5
1AF
330
4E
100
AcDbEntity
  8
0
  6
Continuous
 62
     7
100
AcDbCircle
 10
-16.89999771118158
 20
428.5505985800502
 30
0.0
 40
3.0
100
AcDbArc
 50
0.0
 51
180.0
  0
ENDBLK
  5
50
330
4E
100
AcDbEntity
  8
0
100
AcDbBlockEnd
  0
BLOCK
  5
53
330
51
100
AcDbEntity
  8
0
100
AcDbBlockBegin
  2
Drfsicht1
 70
     0
 10
1.0
 20
433.0000000000401
 30
0.0
  3
Drfsicht1
  1

  0
INSERT
  5
52
330
51
100
AcDbEntity
  8
0
100
AcDbBlockReference
  2
MPB_18_1_7_BU-select__2
 10
-60.49999771118166
 20
422.8505985800503
 30
0.0
  0
MTEXT
  5
1B0
330
51
100
AcDbEntity
  8
1
 62
     6
100
AcDbMText
 10
1.0
 20
417.8505973816318
 30
0.0
 40
5.0
 41
0.0
 71
     2
 72
     1
  1
 
  7
CONVERTER_11
 73
     1
 44
1.32052821128451
  0
DIMENSION
  5
1BB
330
51
100
AcDbEntity
  8
1
100
AcDbDimension
  2
*D17
 10
-72.3267265466081
 20
422.8505985800502
 30
0.0
 11
-75.7517265466081
 21
433.280466927987
 31
0.0
 70
    32
  1
<>
 71
     5
 42
-1.0
 53
90.0
  3
ME10_DIM_10
100
AcDbAlignedDimension
 13
-60.49999771118166
 23
443.1494017839563
 33
0.0
 14
-55.49999771118158
 24
422.8505985800503
 34
0.0
 50
90.0
100
AcDbRotatedDimension
  0
ENDBLK
  5
54
330
51
100
AcDbEntity
  8
0
100
AcDbBlockEnd
  0
BLOCK
  5
56
330
55
100
AcDbEntity
  8
0
100
AcDbBlockBegin
  2
MPB_18_1_7_BU-select__3
 70
     0
 10
115.7987953186027
 20
528.1494028892382
 30
0.0
  3
MPB_18_1_7_BU-select__3
  1

  0
LINE
  5
1BC
330
55
100
AcDbEntity
  8
0
  6
Continuous
 62
     7
100
AcDbLine
 10
238.7987953186029
 20
542.4494028892391
 30
0.0
 11
115.7987953186027
 21
542.4494028892391
 31
0.0
  0
LINE
  5
1BD
330
55
100
AcDbEntity
  8
0
  6
Continuous
 62
     7
100
AcDbLine
 10
115.7987953186027
 20
542.4494028892391
 30
0.0
 11
115.7987953186027
 21
528.1494028892382
 31
0.0
  0
LINE
  5
1BE
330
55
100
AcDbEntity
  8
0
  6
Continuous
 62
     7
100
AcDbLine
 10
238.7987953186029
 20
542.4494028892391
 30
0.0
 11
238.7987953186029
 21
528.1494028892382
 31
0.0
  0
LINE
  5
1BF
330
55
100
AcDbEntity
  8
0
  6
Continuous
 62
     7
100
AcDbLine
 10
238.7987953186029
 20
528.1494028892382
 30
0.0
 11
115.7987953186027
 21
528.1494028892382
 31
0.0
  0
ENDBLK
  5
57
330
55
100
AcDbEntity
  8
0
100
AcDbBlockEnd
  0
BLOCK
  5
5A
330
58
100
AcDbEntity
  8
0
100
AcDbBlockBegin
  2
Rckans1
 70
     0
 10
177.2987976074212
 20
535.2994031906128
 30
0.0
  3
Rckans1
  1

  0
INSERT
  5
59
330
58
100
AcDbEntity
  8
0
100
AcDbBlockReference
  2
MPB_18_1_7_BU-select__3
 10
115.7987953186027
 20
528.1494028892382
 30
0.0
  0
MTEXT
  5
1C0
330
58
100
AcDbEntity
  8
1
 62
     6
100
AcDbMText
 10
177.2987976074218
 20
523.1494026184082
 30
0.0
 40
5.0
 41
0.0
 71
     2
 72
     1
  1
 
  7
CONVERTER_11
 73
     1
 44
1.32052821128451
  0
ENDBLK
  5
5B
330
58
100
AcDbEntity
  8
0
100
AcDbBlockEnd
  0
BLOCK
  5
5D
330
5C
100
AcDbEntity
  8
0
100
AcDbBlockBegin
  2
MPB_18_1_7_BU-select__4
 70
     0
 10
80.49999701975466
 20
528.1494028892382
 30
0.0
  3
MPB_18_1_7_BU-select__4
  1

  0
LINE
  5
1C1
330
5C
100
AcDbEntity
  8
0
  6
Continuous
 62
     7
100
AcDbLine
 10
84.29999701975578
 20
537.6762631761889
 30
0.0
 11
84.29501020000032
 21
539.6499262198492
 31
0.0
  0
LINE
  5
1C2
330
5C
100
AcDbEntity
  8
0
  6
Continuous
 62
     7
100
AcDbLine
 10
83.31759393403367
 20
541.7257408417089
 30
0.0
 11
83.31759393403367
 21
542.4494028892382
 31
0.0
  0
LINE
  5
1C3
330
5C
100
AcDbEntity
  8
0
  6
Continuous
 62
     7
100
AcDbLine
 10
82.7099352031628
 20
541.7257408417089
 30
0.0
 11
83.31759393403367
 21
541.7257408417089
 31
0.0
  0
LINE
  5
1C4
330
5C
100
AcDbEntity
  8
0
  6
Continuous
 62
     7
100
AcDbLine
 10
82.79880022366076
 20
541.1499262198492
 30
0.0
 11
82.79880022366076
 21
529.2399262198492
 31
0.0
  0
LINE
  5
1C5
330
5C
100
AcDbEntity
  8
0
  6
Continuous
 62
     7
100
AcDbLine
 10
81.59130552082466
 20
529.1494028892382
 30
0.0
 11
82.7099352031628
 21
541.7257408417089
 31
0.0
  0
LINE
  5
1C6
330
5C
100
AcDbEntity
  8
0
  6
Continuous
 62
     7
100
AcDbLine
 10
80.49999701975466
 20
528.1494028892382
 30
0.0
 11
85.29999701975576
 21
528.1494028892382
 31
0.0
  0
LINE
  5
1C7
330
5C
100
AcDbEntity
  8
0
  6
Continuous
 62
     7
100
AcDbLine
 10
82.79880022366076
 20
529.2399262198492
 30
0.0
 11
84.32102462437759
 21
529.3540441719748
 31
0.0
  0
LINE
  5
1C8
330
5C
100
AcDbEntity
  8
0
  6
Continuous
 62
     7
100
AcDbLine
 10
81.59130552082466
 20
529.1494028892382
 30
0.0
 11
82.79880022366076
 21
529.2399262198492
 31
0.0
  0
LINE
  5
1C9
330
5C
100
AcDbEntity
  8
0
  6
Continuous
 62
     7
100
AcDbLine
 10
100.7988002236608
 20
541.1499262198492
 30
0.0
 11
100.7988002236608
 21
539.6499262198492
 31
0.0
  0
LINE
  5
1CA
330
5C
100
AcDbEntity
  8
0
  6
Continuous
 62
     7
100
AcDbLine
 10
85.29999701975576
 20
537.6762631761889
 30
0.0
 11
84.29999701975578
 21
537.6762631761889
 31
0.0
  0
LINE
  5
1CB
330
5C
100
AcDbEntity
  8
0
  6
Continuous
 62
     7
100
AcDbLine
 10
84.32102462437759
 20
529.3540441719748
 30
0.0
 11
84.29999701975578
 21
537.6762631761889
 31
0.0
  0
LINE
  5
1CC
330
5C
100
AcDbEntity
  8
0
  6
Continuous
 62
     7
100
AcDbLine
 10
85.29999701975576
 20
528.1494028892382
 30
0.0
 11
85.29999701975576
 21
537.6762631761889
 31
0.0
  0
LINE
  5
1CD
330
5C
100
AcDbEntity
  8
0
  6
Continuous
 62
     7
100
AcDbLine
 10
84.29501020000032
 20
539.6499262198492
 30
0.0
 11
100.7988002236608
 21
539.6499262198492
 31
0.0
  0
LINE
  5
1CE
330
5C
100
AcDbEntity
  8
0
  6
Continuous
 62
     7
100
AcDbLine
 10
82.79880022366076
 20
541.1499262198492
 30
0.0
 11
100.7988002236608
 21
541.1499262198492
 31
0.0
  0
LINE
  5
1CF
330
5C
100
AcDbEntity
  8
0
  6
Continuous
 62
     7
100
AcDbLine
 10
83.31759393403367
 20
542.4494028892382
 30
0.0
 11
81.80209688782534
 21
542.4494028892391
 31
0.0
  0
LINE
  5
1D0
330
5C
100
AcDbEntity
  8
0
  6
Continuous
 62
     7
100
AcDbLine
 10
81.80209688782534
 20
542.4494028892391
 30
0.0
 11
80.49999701975466
 21
528.1494028892382
 31
0.0
  0
ENDBLK
  5
5E
330
5C
100
AcDbEntity
  8
0
100
AcDbBlockEnd
  0
BLOCK
  5
61
330
5F
100
AcDbEntity
  8
0
100
AcDbBlockBegin
  2
SA_Links1
 70
     0
 10
90.64939880367092
 20
535.2994031906128
 30
0.0
  3
SA_Links1
  1

  0
INSERT
  5
60
330
5F
100
AcDbEntity
  8
0
100
AcDbBlockReference
  2
MPB_18_1_7_BU-select__4
 10
80.49999701975466
 20
528.1494028892382
 30
0.0
  0
MTEXT
  5
1D1
330
5F
100
AcDbEntity
  8
1
 62
     6
100
AcDbMText
 10
90.64939880367092
 20
523.1494026184082
 30
0.0
 40
5.0
 41
0.0
 71
     2
 72
     1
  1
 
  7
CONVERTER_11
 73
     1
 44
1.32052821128451
  0
ENDBLK
  5
62
330
5F
100
AcDbEntity
  8
0
100
AcDbBlockEnd
  0
BLOCK
  5
64
330
63
100
AcDbEntity
  8
0
100
AcDbBlockBegin
  2
MPB_18_1_7_BU-select__5
 70
     0
 10
-138.7988002236614
 20
528.1494028892382
 30
0.0
  3
MPB_18_1_7_BU-select__5
  1

  0
LINE
  5
1D2
330
63
100
AcDbEntity
  8
0
  6
Continuous
 62
     7
100
AcDbLine
 10
-120.7988002236614
 20
529.2399262198492
 30
0.0
 11
-122.3210246243781
 21
529.3540441719748
 31
0.0
  0
LINE
  5
1D3
330
63
100
AcDbEntity
  8
0
  6
Continuous
 62
     7
100
AcDbLine
 10
-122.2950102000011
 20
539.6499262198492
 30
0.0
 11
-122.2999970197565
 21
537.6762631761889
 31
0.0
  0
LINE
  5
1D4
330
63
100
AcDbEntity
  8
0
  6
Continuous
 62
     7
100
AcDbLine
 10
-122.2999970197565
 20
537.6762631761889
 30
0.0
 11
-122.3210246243781
 21
529.3540441719748
 31
0.0
  0
LINE
  5
1D5
330
63
100
AcDbEntity
  8
0
  6
Continuous
 62
     7
100
AcDbLine
 10
-118.4999970197554
 20
528.1494028892382
 30
0.0
 11
-123.2999970197565
 21
528.1494028892382
 31
0.0
  0
LINE
  5
1D6
330
63
100
AcDbEntity
  8
0
  6
Continuous
 62
     7
100
AcDbLine
 10
-121.3175939340343
 20
541.7257408417089
 30
0.0
 11
-121.3175939340343
 21
542.4494028892382
 31
0.0
  0
LINE
  5
1D7
330
63
100
AcDbEntity
  8
0
  6
Continuous
 62
     7
100
AcDbLine
 10
-121.3175939340343
 20
542.4494028892382
 30
0.0
 11
-119.8020968878259
 21
542.4494028892392
 31
0.0
  0
LINE
  5
1D8
330
63
100
AcDbEntity
  8
0
  6
Continuous
 62
     7
100
AcDbLine
 10
-120.7988002236614
 20
529.2399262198492
 30
0.0
 11
-120.7988002236614
 21
541.1499262198492
 31
0.0
  0
LINE
  5
1D9
330
63
100
AcDbEntity
  8
0
  6
Continuous
 62
     7
100
AcDbLine
 10
-119.5913055208254
 20
529.1494028892382
 30
0.0
 11
-120.7099352031635
 21
541.7257408417089
 31
0.0
  0
LINE
  5
1DA
330
63
100
AcDbEntity
  8
0
  6
Continuous
 62
     7
100
AcDbLine
 10
-119.5913055208254
 20
529.1494028892382
 30
0.0
 11
-120.7988002236614
 21
529.2399262198492
 31
0.0
  0
LINE
  5
1DB
330
63
100
AcDbEntity
  8
0
  6
Continuous
 62
     7
100
AcDbLine
 10
-123.2999970197565
 20
528.1494028892382
 30
0.0
 11
-123.2999970197565
 21
537.6762631761889
 31
0.0
  0
LINE
  5
1DC
330
63
100
AcDbEntity
  8
0
  6
Continuous
 62
     7
100
AcDbLine
 10
-123.2999970197565
 20
537.6762631761889
 30
0.0
 11
-122.2999970197565
 21
537.6762631761889
 31
0.0
  0
LINE
  5
1DD
330
63
100
AcDbEntity
  8
0
  6
Continuous
 62
     7
100
AcDbLine
 10
-120.7988002236614
 20
541.1499262198492
 30
0.0
 11
-138.7988002236614
 21
541.1499262198492
 31
0.0
  0
LINE
  5
1DE
330
63
100
AcDbEntity
  8
0
  6
Continuous
 62
     7
100
AcDbLine
 10
-122.2950102000011
 20
539.6499262198492
 30
0.0
 11
-138.7988002236614
 21
539.6499262198492
 31
0.0
  0
LINE
  5
1DF
330
63
100
AcDbEntity
  8
0
  6
Continuous
 62
     7
100
AcDbLine
 10
-138.7988002236614
 20
541.1499262198492
 30
0.0
 11
-138.7988002236614
 21
539.6499262198492
 31
0.0
  0
LINE
  5
1E0
330
63
100
AcDbEntity
  8
0
  6
Continuous
 62
     7
100
AcDbLine
 10
-120.7099352031635
 20
541.7257408417089
 30
0.0
 11
-121.3175939340343
 21
541.7257408417089
 31
0.0
  0
LINE
  5
1E1
330
63
100
AcDbEntity
  8
0
  6
Continuous
 62
     7
100
AcDbLine
 10
-119.8020968878259
 20
542.4494028892392
 30
0.0
 11
-118.4999970197554
 21
528.1494028892382
 31
0.0
  0
ENDBLK
  5
65
330
63
100
AcDbEntity
  8
0
100
AcDbBlockEnd
  0
BLOCK
  5
68
330
66
100
AcDbEntity
  8
0
100
AcDbBlockBegin
  2
SA_Rechts1
 70
     0
 10
-128.6493988036717
 20
535.2994031906128
 30
0.0
  3
SA_Rechts1
  1

  0
INSERT
  5
67
330
66
100
AcDbEntity
  8
0
100
AcDbBlockReference
  2
MPB_18_1_7_BU-select__5
 10
-138.7988002236614
 20
528.1494028892382
 30
0.0
  0
MTEXT
  5
1E2
330
66
100
AcDbEntity
  8
1
 62
     6
100
AcDbMText
 10
-128.6493988036709
 20
523.1494026184082
 30
0.0
 40
5.0
 41
0.0
 71
     2
 72
     1
  1
 
  7
CONVERTER_11
 73
     1
 44
1.32052821128451
  0
ENDBLK
  5
69
330
66
100
AcDbEntity
  8
0
100
AcDbBlockEnd
  0
BLOCK
  5
6B
330
6A
100
AcDbEntity
  8
0
100
AcDbBlockBegin
  2
MPB_18_1_7_BU-select__6
 70
     0
 10
-60.49999771118087
 20
528.1494028892381
 30
0.0
  3
MPB_18_1_7_BU-select__6
  1

  0
LINE
  5
1E3
330
6A
100
AcDbEntity
  8
0
  6
Continuous
 62
     7
100
AcDbLine
 10
12.8000022888192
 20
541.1499262198491
 30
0.0
 11
12.8000022888192
 21
539.6499262198491
 31
0.0
  0
LINE
  5
1E4
330
6A
100
AcDbEntity
  8
0
  6
Continuous
 62
     7
100
AcDbLine
 10
15.70000228881929
 20
541.1499262198491
 30
0.0
 11
15.70000228881929
 21
539.6499262198491
 31
0.0
  0
LINE
  5
1E5
330
6A
100
AcDbEntity
  8
0
  6
Continuous
 62
     7
100
AcDbLine
 10
39.50000228881942
 20
539.6499262198491
 30
0.0
 11
39.50000228881942
 21
541.1499262198491
 31
0.0
  0
LINE
  5
1E6
330
6A
100
AcDbEntity
  8
0
  6
Continuous
 62
     7
100
AcDbLine
 10
48.40000228881931
 20
541.1499262198491
 30
0.0
 11
48.40000228881931
 21
539.6499262198491
 31
0.0
  0
LINE
  5
1E7
330
6A
100
AcDbEntity
  8
0
  6
Continuous
 62
     7
100
AcDbLine
 10
42.60000228881921
 20
539.6499262198491
 30
0.0
 11
42.60000228881921
 21
541.1499262198491
 31
0.0
  0
LINE
  5
1E8
330
6A
100
AcDbEntity
  8
0
  6
Continuous
 62
     7
100
AcDbLine
 10
51.30000228881931
 20
541.1499262198491
 30
0.0
 11
51.30000228881931
 21
539.6499262198491
 31
0.0
  0
LINE
  5
1E9
330
6A
100
AcDbEntity
  8
0
  6
Continuous
 62
     7
100
AcDbLine
 10
57.30000228881931
 20
539.6499262198491
 30
0.0
 11
57.30000228881931
 21
541.1499262198491
 31
0.0
  0
LINE
  5
1EA
330
6A
100
AcDbEntity
  8
0
  6
Continuous
 62
     7
100
AcDbLine
 10
48.40000228881931
 20
541.1499262198491
 30
0.0
 11
51.30000228881931
 21
541.1499262198491
 31
0.0
  0
LINE
  5
1EB
330
6A
100
AcDbEntity
  8
0
  6
Continuous
 62
     7
100
AcDbLine
 10
57.30000228881931
 20
541.1499262198491
 30
0.0
 11
51.30000228881931
 21
541.1499262198491
 31
0.0
  0
LINE
  5
1EC
330
6A
100
AcDbEntity
  8
0
  6
Continuous
 62
     7
100
AcDbLine
 10
33.50000228881942
 20
541.1499262198491
 30
0.0
 11
33.50000228881942
 21
539.6499262198491
 31
0.0
  0
LINE
  5
1ED
330
6A
100
AcDbEntity
  8
0
  6
Continuous
 62
     7
100
AcDbLine
 10
30.60000228881921
 20
541.1499262198491
 30
0.0
 11
30.60000228881921
 21
539.6499262198491
 31
0.0
  0
LINE
  5
1EE
330
6A
100
AcDbEntity
  8
0
  6
Continuous
 62
     7
100
AcDbLine
 10
21.70000228881929
 20
539.6499262198491
 30
0.0
 11
21.70000228881929
 21
541.1499262198491
 31
0.0
  0
LINE
  5
1EF
330
6A
100
AcDbEntity
  8
0
  6
Continuous
 62
     7
100
AcDbLine
 10
24.8000022888192
 20
539.6499262198491
 30
0.0
 11
24.8000022888192
 21
541.1499262198491
 31
0.0
  0
LINE
  5
1F0
330
6A
100
AcDbEntity
  8
0
  6
Continuous
 62
     7
100
AcDbLine
 10
21.70000228881929
 20
541.1499262198491
 30
0.0
 11
24.8000022888192
 21
541.1499262198491
 31
0.0
  0
LINE
  5
1F1
330
6A
100
AcDbEntity
  8
0
  6
Continuous
 62
     7
100
AcDbLine
 10
30.60000228881921
 20
541.1499262198491
 30
0.0
 11
33.50000228881942
 21
541.1499262198491
 31
0.0
  0
LINE
  5
1F2
330
6A
100
AcDbEntity
  8
0
  6
Continuous
 62
     7
100
AcDbLine
 10
12.8000022888192
 20
541.1499262198491
 30
0.0
 11
15.70000228881929
 21
541.1499262198491
 31
0.0
  0
LINE
  5
1F3
330
6A
100
AcDbEntity
  8
0
  6
Continuous
 62
     7
100
AcDbLine
 10
3.90000228881931
 20
541.1499262198491
 30
0.0
 11
7.00000228881922
 21
541.1499262198491
 31
0.0
  0
LINE
  5
1F4
330
6A
100
AcDbEntity
  8
0
  6
Continuous
 62
     7
100
AcDbLine
 10
21.70000228881929
 20
541.1499262198491
 30
0.0
 11
15.70000228881929
 21
541.1499262198491
 31
0.0
  0
LINE
  5
1F5
330
6A
100
AcDbEntity
  8
0
  6
Continuous
 62
     7
100
AcDbLine
 10
-58.39999771118087
 20
541.1499262198491
 30
0.0
 11
-55.49999771118078
 21
541.1499262198491
 31
0.0
  0
LINE
  5
1F6
330
6A
100
AcDbEntity
  8
0
  6
Continuous
 62
     7
100
AcDbLine
 10
57.30000228881931
 20
541.1499262198491
 30
0.0
 11
60.40000228881931
 21
541.1499262198491
 31
0.0
  0
LINE
  5
1F7
330
6A
100
AcDbEntity
  8
0
  6
Continuous
 62
     7
100
AcDbLine
 10
39.50000228881942
 20
541.1499262198491
 30
0.0
 11
42.60000228881921
 21
541.1499262198491
 31
0.0
  0
LINE
  5
1F8
330
6A
100
AcDbEntity
  8
0
  6
Continuous
 62
     7
100
AcDbLine
 10
39.50000228881942
 20
541.1499262198491
 30
0.0
 11
33.50000228881942
 21
541.1499262198491
 31
0.0
  0
LINE
  5
1F9
330
6A
100
AcDbEntity
  8
0
  6
Continuous
 62
     7
100
AcDbLine
 10
3.90000228881931
 20
541.1499262198491
 30
0.0
 11
-2.09999771118069
 21
541.1499262198491
 31
0.0
  0
LINE
  5
1FA
330
6A
100
AcDbEntity
  8
0
  6
Continuous
 62
     7
100
AcDbLine
 10
-13.89999771118079
 20
541.1499262198491
 30
0.0
 11
-19.8999977111808
 21
541.1499262198491
 31
0.0
  0
LINE
  5
1FB
330
6A
100
AcDbEntity
  8
0
  6
Continuous
 62
     7
100
AcDbLine
 10
-22.79999771118079
 20
541.1499262198491
 30
0.0
 11
-19.8999977111808
 21
541.1499262198491
 31
0.0
  0
LINE
  5
1FC
330
6A
100
AcDbEntity
  8
0
  6
Continuous
 62
     7
100
AcDbLine
 10
-49.49999771118078
 20
541.1499262198491
 30
0.0
 11
-46.3999977111809
 21
541.1499262198491
 31
0.0
  0
LINE
  5
1FD
330
6A
100
AcDbEntity
  8
0
  6
Continuous
 62
     7
100
AcDbLine
 10
62.5000022888193
 20
541.7257408417088
 30
0.0
 11
62.5000022888193
 21
542.4494028892381
 31
0.0
  0
LINE
  5
1FE
330
6A
100
AcDbEntity
  8
0
  6
Continuous
 62
     7
100
AcDbLine
 10
-60.49999771118087
 20
541.7257408417088
 30
0.0
 11
-60.49999771118087
 21
542.4494028892381
 31
0.0
  0
LINE
  5
1FF
330
6A
100
AcDbEntity
  8
0
  6
Continuous
 62
     7
100
AcDbLine
 10
-31.6999977111808
 20
541.1499262198491
 30
0.0
 11
-37.6999977111808
 21
541.1499262198491
 31
0.0
  0
LINE
  5
200
330
6A
100
AcDbEntity
  8
0
  6
Continuous
 62
     7
100
AcDbLine
 10
-31.6999977111808
 20
541.1499262198491
 30
0.0
 11
-28.59999771118089
 21
541.1499262198491
 31
0.0
  0
LINE
  5
201
330
6A
100
AcDbEntity
  8
0
  6
Continuous
 62
     7
100
AcDbLine
 10
62.5000022888193
 20
542.4494028892381
 30
0.0
 11
-60.49999771118087
 21
542.4494028892381
 31
0.0
  0
LINE
  5
202
330
6A
100
AcDbEntity
  8
0
  6
Continuous
 62
     7
100
AcDbLine
 10
-40.59999771118089
 20
539.6499262198491
 30
0.0
 11
-40.59999771118089
 21
538.1499262198489
 31
0.0
  0
LINE
  5
203
330
6A
100
AcDbEntity
  8
0
  6
Continuous
 62
     7
100
AcDbLine
 10
-40.59999771118089
 20
541.1499262198491
 30
0.0
 11
-40.59999771118089
 21
539.6499262198491
 31
0.0
  0
LINE
  5
204
330
6A
100
AcDbEntity
  8
0
  6
Continuous
 62
     7
100
AcDbLine
 10
-40.59999771118089
 20
541.1499262198491
 30
0.0
 11
-37.6999977111808
 21
541.1499262198491
 31
0.0
  0
LINE
  5
205
330
6A
100
AcDbEntity
  8
0
  6
Continuous
 62
     7
100
AcDbLine
 10
-37.6999977111808
 20
541.1499262198491
 30
0.0
 11
-37.6999977111808
 21
539.6499262198491
 31
0.0
  0
LINE
  5
206
330
6A
100
AcDbEntity
  8
0
  6
Continuous
 62
     7
100
AcDbLine
 10
-28.59999771118089
 20
539.6499262198491
 30
0.0
 11
-28.59999771118089
 21
541.1499262198491
 31
0.0
  0
LINE
  5
207
330
6A
100
AcDbEntity
  8
0
  6
Continuous
 62
     7
100
AcDbLine
 10
-31.6999977111808
 20
539.6499262198491
 30
0.0
 11
-31.6999977111808
 21
541.1499262198491
 31
0.0
  0
LINE
  5
208
330
6A
100
AcDbEntity
  8
0
  6
Continuous
 62
     7
100
AcDbLine
 10
-49.49999771118078
 20
539.6499262198491
 30
0.0
 11
-49.49999771118078
 21
541.1499262198491
 31
0.0
  0
LINE
  5
209
330
6A
100
AcDbEntity
  8
0
  6
Continuous
 62
     7
100
AcDbLine
 10
-49.49999771118078
 20
539.6499262198491
 30
0.0
 11
-46.3999977111809
 21
539.6499262198491
 31
0.0
  0
LINE
  5
20A
330
6A
100
AcDbEntity
  8
0
  6
Continuous
 62
     7
100
AcDbLine
 10
-46.3999977111809
 20
539.6499262198491
 30
0.0
 11
-46.3999977111809
 21
541.1499262198491
 31
0.0
  0
LINE
  5
20B
330
6A
100
AcDbEntity
  8
0
  6
Continuous
 62
     7
100
AcDbLine
 10
-55.49999771118078
 20
541.1499262198491
 30
0.0
 11
-55.49999771118078
 21
539.6499262198491
 31
0.0
  0
LINE
  5
20C
330
6A
100
AcDbEntity
  8
0
  6
Continuous
 62
     7
100
AcDbLine
 10
-40.59999771118089
 20
539.6499262198491
 30
0.0
 11
-37.6999977111808
 21
539.6499262198491
 31
0.0
  0
LINE
  5
20D
330
6A
100
AcDbEntity
  8
0
  6
Continuous
 62
     7
100
AcDbLine
 10
-28.59999771118089
 20
538.1499262198489
 30
0.0
 11
-28.59999771118089
 21
539.6499262198491
 31
0.0
  0
LINE
  5
20E
330
6A
100
AcDbEntity
  8
0
  6
Continuous
 62
     7
100
AcDbLine
 10
-28.59999771118089
 20
538.1499262198489
 30
0.0
 11
-22.79999771118079
 21
538.1499262198489
 31
0.0
  0
LINE
  5
20F
330
6A
100
AcDbEntity
  8
0
  6
Continuous
 62
     7
100
AcDbLine
 10
-22.79999771118079
 20
539.6499262198491
 30
0.0
 11
-22.79999771118079
 21
538.1499262198489
 31
0.0
  0
LINE
  5
210
330
6A
100
AcDbEntity
  8
0
  6
Continuous
 62
     7
100
AcDbLine
 10
-10.79999771118079
 20
538.1499262198489
 30
0.0
 11
-10.79999771118079
 21
539.6499262198491
 31
0.0
  0
LINE
  5
211
330
6A
100
AcDbEntity
  8
0
  6
Continuous
 62
     7
100
AcDbLine
 10
-4.99999771118078
 20
541.1499262198491
 30
0.0
 11
-4.99999771118078
 21
539.6499262198491
 31
0.0
  0
LINE
  5
212
330
6A
100
AcDbEntity
  8
0
  6
Continuous
 62
     7
100
AcDbLine
 10
-2.09999771118069
 20
541.1499262198491
 30
0.0
 11
-2.09999771118069
 21
539.6499262198491
 31
0.0
  0
LINE
  5
213
330
6A
100
AcDbEntity
  8
0
  6
Continuous
 62
     7
100
AcDbLine
 10
3.90000228881931
 20
539.6499262198491
 30
0.0
 11
3.90000228881931
 21
541.1499262198491
 31
0.0
  0
LINE
  5
214
330
6A
100
AcDbEntity
  8
0
  6
Continuous
 62
     7
100
AcDbLine
 10
-10.79999771118079
 20
539.6499262198491
 30
0.0
 11
-10.79999771118079
 21
541.1499262198491
 31
0.0
  0
LINE
  5
215
330
6A
100
AcDbEntity
  8
0
  6
Continuous
 62
     7
100
AcDbLine
 10
-13.89999771118079
 20
541.1499262198491
 30
0.0
 11
-10.79999771118079
 21
541.1499262198491
 31
0.0
  0
LINE
  5
216
330
6A
100
AcDbEntity
  8
0
  6
Continuous
 62
     7
100
AcDbLine
 10
-13.89999771118079
 20
539.6499262198491
 30
0.0
 11
-10.79999771118079
 21
539.6499262198491
 31
0.0
  0
LINE
  5
217
330
6A
100
AcDbEntity
  8
0
  6
Continuous
 62
     7
100
AcDbLine
 10
-13.89999771118079
 20
539.6499262198491
 30
0.0
 11
-13.89999771118079
 21
541.1499262198491
 31
0.0
  0
LINE
  5
218
330
6A
100
AcDbEntity
  8
0
  6
Continuous
 62
     7
100
AcDbLine
 10
7.00000228881922
 20
539.6499262198491
 30
0.0
 11
7.00000228881922
 21
541.1499262198491
 31
0.0
  0
LINE
  5
219
330
6A
100
AcDbEntity
  8
0
  6
Continuous
 62
     7
100
AcDbLine
 10
-19.8999977111808
 20
541.1499262198491
 30
0.0
 11
-19.8999977111808
 21
539.6499262198491
 31
0.0
  0
LINE
  5
21A
330
6A
100
AcDbEntity
  8
0
  6
Continuous
 62
     7
100
AcDbLine
 10
-22.79999771118079
 20
541.1499262198491
 30
0.0
 11
-22.79999771118079
 21
539.6499262198491
 31
0.0
  0
LINE
  5
21B
330
6A
100
AcDbEntity
  8
0
  6
Continuous
 62
     7
100
AcDbLine
 10
-4.99999771118078
 20
539.6499262198491
 30
0.0
 11
-4.99999771118078
 21
538.1499262198489
 31
0.0
  0
LINE
  5
21C
330
6A
100
AcDbEntity
  8
0
  6
Continuous
 62
     7
100
AcDbLine
 10
-10.79999771118079
 20
538.1499262198489
 30
0.0
 11
-4.99999771118078
 21
538.1499262198489
 31
0.0
  0
LINE
  5
21D
330
6A
100
AcDbEntity
  8
0
  6
Continuous
 62
     7
100
AcDbLine
 10
-4.99999771118078
 20
541.1499262198491
 30
0.0
 11
-2.09999771118069
 21
541.1499262198491
 31
0.0
  0
LINE
  5
21E
330
6A
100
AcDbEntity
  8
0
  6
Continuous
 62
     7
100
AcDbLine
 10
-58.39999771118087
 20
539.6499262198491
 30
0.0
 11
-55.49999771118078
 21
539.6499262198491
 31
0.0
  0
LINE
  5
21F
330
6A
100
AcDbEntity
  8
0
  6
Continuous
 62
     7
100
AcDbLine
 10
-4.99999771118078
 20
539.6499262198491
 30
0.0
 11
-2.09999771118069
 21
539.6499262198491
 31
0.0
  0
LINE
  5
220
330
6A
100
AcDbEntity
  8
0
  6
Continuous
 62
     7
100
AcDbLine
 10
-22.79999771118079
 20
539.6499262198491
 30
0.0
 11
-19.8999977111808
 21
539.6499262198491
 31
0.0
  0
LINE
  5
221
330
6A
100
AcDbEntity
  8
0
  6
Continuous
 62
     7
100
AcDbLine
 10
-31.6999977111808
 20
539.6499262198491
 30
0.0
 11
-37.6999977111808
 21
539.6499262198491
 31
0.0
  0
LINE
  5
222
330
6A
100
AcDbEntity
  8
0
  6
Continuous
 62
     7
100
AcDbLine
 10
-13.89999771118079
 20
539.6499262198491
 30
0.0
 11
-19.8999977111808
 21
539.6499262198491
 31
0.0
  0
LINE
  5
223
330
6A
100
AcDbEntity
  8
0
  6
Continuous
 62
     7
100
AcDbLine
 10
3.90000228881931
 20
539.6499262198491
 30
0.0
 11
-2.09999771118069
 21
539.6499262198491
 31
0.0
  0
LINE
  5
224
330
6A
100
AcDbEntity
  8
0
  6
Continuous
 62
     7
100
AcDbLine
 10
3.90000228881931
 20
539.6499262198491
 30
0.0
 11
7.00000228881922
 21
539.6499262198491
 31
0.0
  0
LINE
  5
225
330
6A
100
AcDbEntity
  8
0
  6
Continuous
 62
     7
100
AcDbLine
 10
-31.6999977111808
 20
539.6499262198491
 30
0.0
 11
-28.59999771118089
 21
539.6499262198491
 31
0.0
  0
LINE
  5
226
330
6A
100
AcDbEntity
  8
0
  6
Continuous
 62
     7
100
AcDbLine
 10
62.5000022888193
 20
537.6762631761887
 30
0.0
 11
62.5000022888193
 21
541.7257408417088
 31
0.0
  0
LINE
  5
227
330
6A
100
AcDbEntity
  8
0
  6
Continuous
 62
     7
100
AcDbLine
 10
62.5000022888193
 20
528.1494028892381
 30
0.0
 11
62.5000022888193
 21
537.6762631761887
 31
0.0
  0
LINE
  5
228
330
6A
100
AcDbEntity
  8
0
  6
Continuous
 62
     7
100
AcDbLine
 10
7.00000228881922
 20
538.1499262198461
 30
0.0
 11
7.00000228881922
 21
539.6499262198491
 31
0.0
  0
LINE
  5
229
330
6A
100
AcDbEntity
  8
0
  6
Continuous
 62
     7
100
AcDbLine
 10
7.00000228881922
 20
538.1499262198461
 30
0.0
 11
12.8000022888192
 21
538.1499262198461
 31
0.0
  0
LINE
  5
22A
330
6A
100
AcDbEntity
  8
0
  6
Continuous
 62
     7
100
AcDbLine
 10
12.8000022888192
 20
539.6499262198491
 30
0.0
 11
15.70000228881929
 21
539.6499262198491
 31
0.0
  0
LINE
  5
22B
330
6A
100
AcDbEntity
  8
0
  6
Continuous
 62
     7
100
AcDbLine
 10
12.8000022888192
 20
539.6499262198491
 30
0.0
 11
12.8000022888192
 21
538.1499262198461
 31
0.0
  0
LINE
  5
22C
330
6A
100
AcDbEntity
  8
0
  6
Continuous
 62
     7
100
AcDbLine
 10
24.8000022888192
 20
538.1499262198489
 30
0.0
 11
24.8000022888192
 21
539.6499262198491
 31
0.0
  0
LINE
  5
22D
330
6A
100
AcDbEntity
  8
0
  6
Continuous
 62
     7
100
AcDbLine
 10
42.6000022888191
 20
538.1499262198461
 30
0.0
 11
42.60000228881921
 21
539.6499262198491
 31
0.0
  0
LINE
  5
22E
330
6A
100
AcDbEntity
  8
0
  6
Continuous
 62
     7
100
AcDbLine
 10
48.40000228881931
 20
539.6499262198491
 30
0.0
 11
51.30000228881931
 21
539.6499262198491
 31
0.0
  0
LINE
  5
22F
330
6A
100
AcDbEntity
  8
0
  6
Continuous
 62
     7
100
AcDbLine
 10
39.50000228881942
 20
539.6499262198491
 30
0.0
 11
42.60000228881921
 21
539.6499262198491
 31
0.0
  0
LINE
  5
230
330
6A
100
AcDbEntity
  8
0
  6
Continuous
 62
     7
100
AcDbLine
 10
57.30000228881931
 20
539.6499262198491
 30
0.0
 11
60.40000228881931
 21
539.6499262198491
 31
0.0
  0
LINE
  5
231
330
6A
100
AcDbEntity
  8
0
  6
Continuous
 62
     7
100
AcDbLine
 10
57.30000228881931
 20
539.6499262198491
 30
0.0
 11
51.30000228881931
 21
539.6499262198491
 31
0.0
  0
LINE
  5
232
330
6A
100
AcDbEntity
  8
0
  6
Continuous
 62
     7
100
AcDbLine
 10
48.40000228881931
 20
539.6499262198491
 30
0.0
 11
48.40000228881931
 21
538.1499262198461
 31
0.0
  0
LINE
  5
233
330
6A
100
AcDbEntity
  8
0
  6
Continuous
 62
     7
100
AcDbLine
 10
42.6000022888191
 20
538.1499262198461
 30
0.0
 11
48.40000228881931
 21
538.1499262198461
 31
0.0
  0
LINE
  5
234
330
6A
100
AcDbEntity
  8
0
  6
Continuous
 62
     7
100
AcDbLine
 10
30.60000228881921
 20
539.6499262198491
 30
0.0
 11
30.60000228881921
 21
538.1499262198489
 31
0.0
  0
LINE
  5
235
330
6A
100
AcDbEntity
  8
0
  6
Continuous
 62
     7
100
AcDbLine
 10
24.8000022888192
 20
538.1499262198489
 30
0.0
 11
30.60000228881921
 21
538.1499262198489
 31
0.0
  0
LINE
  5
236
330
6A
100
AcDbEntity
  8
0
  6
Continuous
 62
     7
100
AcDbLine
 10
30.60000228881921
 20
539.6499262198491
 30
0.0
 11
33.50000228881942
 21
539.6499262198491
 31
0.0
  0
LINE
  5
237
330
6A
100
AcDbEntity
  8
0
  6
Continuous
 62
     7
100
AcDbLine
 10
21.70000228881929
 20
539.6499262198491
 30
0.0
 11
24.8000022888192
 21
539.6499262198491
 31
0.0
  0
LINE
  5
238
330
6A
100
AcDbEntity
  8
0
  6
Continuous
 62
     7
100
AcDbLine
 10
39.50000228881942
 20
539.6499262198491
 30
0.0
 11
33.50000228881942
 21
539.6499262198491
 31
0.0
  0
LINE
  5
239
330
6A
100
AcDbEntity
  8
0
  6
Continuous
 62
     7
100
AcDbLine
 10
21.70000228881929
 20
539.6499262198491
 30
0.0
 11
15.70000228881929
 21
539.6499262198491
 31
0.0
  0
LINE
  5
23A
330
6A
100
AcDbEntity
  8
0
  6
Continuous
 62
     7
100
AcDbLine
 10
60.40000228881931
 20
541.1499262198491
 30
0.0
 11
60.40000228881931
 21
539.6499262198491
 31
0.0
  0
LINE
  5
23B
330
6A
100
AcDbEntity
  8
0
  6
Continuous
 62
     7
100
AcDbLine
 10
60.40000228881931
 20
539.6499262198491
 30
0.0
 11
60.40000228881931
 21
537.6762631761887
 31
0.0
  0
LINE
  5
23C
330
6A
100
AcDbEntity
  8
0
  6
Continuous
 62
     7
100
AcDbLine
 10
60.40000228881931
 20
537.6762631761887
 30
0.0
 11
62.5000022888193
 21
537.6762631761887
 31
0.0
  0
LINE
  5
23D
330
6A
100
AcDbEntity
  8
0
  6
Continuous
 62
     7
100
AcDbLine
 10
-60.49999771118087
 20
537.6762631761887
 30
0.0
 11
-58.39999771118087
 21
537.6762631761887
 31
0.0
  0
LINE
  5
23E
330
6A
100
AcDbEntity
  8
0
  6
Continuous
 62
     7
100
AcDbLine
 10
-58.39999771118087
 20
537.6762631761887
 30
0.0
 11
60.40000228881931
 21
537.6762631761887
 31
0.0
  0
LINE
  5
23F
330
6A
100
AcDbEntity
  8
0
  6
Continuous
 62
     7
100
AcDbLine
 10
-60.49999771118087
 20
528.1494028892381
 30
0.0
 11
-60.49999771118087
 21
537.6762631761887
 31
0.0
  0
LINE
  5
240
330
6A
100
AcDbEntity
  8
0
  6
Continuous
 62
     7
100
AcDbLine
 10
-60.49999771118087
 20
528.1494028892381
 30
0.0
 11
62.5000022888193
 21
528.1494028892381
 31
0.0
  0
LINE
  5
241
330
6A
100
AcDbEntity
  8
0
  6
Continuous
 62
     7
100
AcDbLine
 10
-49.49999771118078
 20
541.1499262198491
 30
0.0
 11
-55.49999771118078
 21
541.1499262198491
 31
0.0
  0
LINE
  5
242
330
6A
100
AcDbEntity
  8
0
  6
Continuous
 62
     7
100
AcDbLine
 10
-46.3999977111809
 20
538.1499262198489
 30
0.0
 11
-40.59999771118089
 21
538.1499262198489
 31
0.0
  0
LINE
  5
243
330
6A
100
AcDbEntity
  8
0
  6
Continuous
 62
     7
100
AcDbLine
 10
-46.3999977111809
 20
538.1499262198489
 30
0.0
 11
-46.3999977111809
 21
539.6499262198491
 31
0.0
  0
LINE
  5
244
330
6A
100
AcDbEntity
  8
0
  6
Continuous
 62
     7
100
AcDbLine
 10
-58.39999771118087
 20
539.6499262198491
 30
0.0
 11
-58.39999771118087
 21
541.1499262198491
 31
0.0
  0
LINE
  5
245
330
6A
100
AcDbEntity
  8
0
  6
Continuous
 62
     7
100
AcDbLine
 10
-60.49999771118087
 20
537.6762631761887
 30
0.0
 11
-60.49999771118087
 21
541.7257408417088
 31
0.0
  0
LINE
  5
246
330
6A
100
AcDbEntity
  8
0
  6
Continuous
 62
     7
100
AcDbLine
 10
-58.39999771118087
 20
537.6762631761887
 30
0.0
 11
-58.39999771118087
 21
539.6499262198491
 31
0.0
  0
LINE
  5
247
330
6A
100
AcDbEntity
  8
0
  6
Continuous
 62
     7
100
AcDbLine
 10
-49.49999771118078
 20
539.6499262198491
 30
0.0
 11
-55.49999771118078
 21
539.6499262198491
 31
0.0
  0
LINE
  5
248
330
6A
100
AcDbEntity
  8
0
  6
Continuous
 62
     7
100
AcDbLine
 10
-60.49999771118087
 20
541.7257408417088
 30
0.0
 11
62.5000022888193
 21
541.7257408417088
 31
0.0
  0
ENDBLK
  5
6C
330
6A
100
AcDbEntity
  8
0
100
AcDbBlockEnd
  0
BLOCK
  5
6F
330
6D
100
AcDbEntity
  8
0
100
AcDbBlockBegin
  2
Vordans1
 70
     0
 10
1.0000000000008
 20
535.2994031906127
 30
0.0
  3
Vordans1
  1

  0
INSERT
  5
6E
330
6D
100
AcDbEntity
  8
0
100
AcDbBlockReference
  2
MPB_18_1_7_BU-select__6
 10
-60.49999771118087
 20
528.1494028892381
 30
0.0
  0
MTEXT
  5
249
330
6D
100
AcDbEntity
  8
1
 62
     6
100
AcDbMText
 10
1.0
 20
523.1494026184082
 30
0.0
 40
5.0
 41
0.0
 71
     2
 72
     1
  1
 
  7
CONVERTER_11
 73
     1
 44
1.32052821128451
  0
DIMENSION
  5
254
330
6D
100
AcDbEntity
  8
1
100
AcDbDimension
  2
*D18
 10
-60.49999771118087
 20
518.1494028892381
 30
0.0
 11
1.0
 21
521.3994028892381
 31
0.0
 70
    32
  1
<>
 71
     5
 42
-1.0
 53
0.00013888888889
  3
ME10_DIM_11
100
AcDbAlignedDimension
 13
62.5000022888193
 23
528.1494028892381
 33
0.0
 14
-60.49999771118087
 24
528.1494028892381
 34
0.0
100
AcDbRotatedDimension
  0
DIMENSION
  5
25F
330
6D
100
AcDbEntity
  8
1
100
AcDbDimension
  2
*D19
 10
-78.5942513267493
 20
528.1494028892381
 30
0.0
 11
-82.0192513267493
 21
535.840121939987
 31
0.0
 70
    32
  1
<>
 71
     5
 42
-1.0
 53
90.0
  3
ME10_DIM_12
100
AcDbAlignedDimension
 13
-60.49999771118087
 23
542.4494028892381
 33
0.0
 14
-60.49999771118087
 24
528.1494028892381
 34
0.0
 50
90.0
100
AcDbRotatedDimension
  0
DIMENSION
  5
26A
330
6D
100
AcDbEntity
  8
1
100
AcDbDimension
  2
*D20
 10
-70.49999771118087
 20
528.1494028892381
 30
0.0
 11
-73.74999771118087
 21
534.54288861017
 31
0.0
 70
    32
  1
<>
 71
     5
 42
-1.0
 53
90.0
  3
ME10_DIM_13
100
AcDbAlignedDimension
 13
-58.39999771118087
 23
541.1499262198491
 33
0.0
 14
-60.49999771118087
 24
528.1494028892381
 34
0.0
 50
90.0
100
AcDbRotatedDimension
  0
ENDBLK
  5
70
330
6D
100
AcDbEntity
  8
0
100
AcDbBlockEnd
  0
BLOCK
  5
72
330
71
100
AcDbEntity
  8
0
100
AcDbBlockBegin
  2
_rahmen
 70
     0
 10
248.4999975474726
 20
301.6500001354356
 30
0.0
  3
_rahmen
  1

  0
LINE
  5
26B
330
71
100
AcDbEntity
  8
1
  6
Continuous
 62
     6
100
AcDbLine
 10
180.1666642141392
 20
306.6500001354356
 30
0.0
 11
248.4999975474726
 21
306.6500001354351
 31
0.0
  0
LINE
  5
26C
330
71
100
AcDbEntity
  8
1
  6
Continuous
 62
     6
100
AcDbLine
 10
248.4999975474722
 20
315.150000135435
 30
0.0
 11
248.4999975474726
 21
323.650000135435
 31
0.0
  0
LINE
  5
26D
330
71
100
AcDbEntity
  8
1
  6
Continuous
 62
     6
100
AcDbLine
 10
248.4999975474726
 20
323.650000135435
 30
0.0
 11
248.4999975474717
 21
327.900000135435
 31
0.0
  0
LINE
  5
26E
330
71
100
AcDbEntity
  8
1
  6
Continuous
 62
     6
100
AcDbLine
 10
248.4999975474717
 20
327.900000135435
 30
0.0
 11
248.4999975474726
 21
364.0500001354357
 31
0.0
  0
LINE
  5
26F
330
71
100
AcDbEntity
  8
1
  6
Continuous
 62
     2
100
AcDbLine
 10
43.49999754747262
 20
301.6500001354356
 30
0.0
 11
-24.83333578586047
 21
301.6500001354356
 31
0.0
  0
LINE
  5
270
330
71
100
AcDbEntity
  8
1
  6
Continuous
 62
     2
100
AcDbLine
 10
180.1666642141392
 20
301.6500001354356
 30
0.0
 11
248.4999975474726
 21
301.6500001354356
 31
0.0
  0
LINE
  5
271
330
71
100
AcDbEntity
  8
1
  6
Continuous
 62
     2
100
AcDbLine
 10
180.1666642141392
 20
301.6500001354356
 30
0.0
 11
180.1666642141392
 21
306.6500001354356
 31
0.0
  0
LINE
  5
272
330
71
100
AcDbEntity
  8
1
  6
Continuous
 62
     2
100
AcDbLine
 10
111.833330880806
 20
301.6500001354356
 30
0.0
 11
111.833330880806
 21
306.6500001354327
 31
0.0
  0
LINE
  5
273
330
71
100
AcDbEntity
  8
1
  6
Continuous
 62
     2
100
AcDbLine
 10
43.49999754747262
 20
301.6500001354356
 30
0.0
 11
43.49999754747262
 21
306.6500001354356
 31
0.0
  0
LINE
  5
274
330
71
100
AcDbEntity
  8
1
  6
Continuous
 62
     2
100
AcDbLine
 10
253.4999975474701
 20
364.0500001354357
 30
0.0
 11
253.4999975474701
 21
421.4500001354357
 31
0.0
  0
LINE
  5
275
330
71
100
AcDbEntity
  8
1
  6
Continuous
 62
     2
100
AcDbLine
 10
253.4999975474701
 20
364.0500001354357
 30
0.0
 11
248.4999975474726
 21
364.0500001354357
 31
0.0
  0
LINE
  5
276
330
71
100
AcDbEntity
  8
1
  6
Continuous
 62
     2
100
AcDbLine
 10
-146.5000024525281
 20
301.6500001354356
 30
0.0
 11
-166.5000024525282
 21
301.6500001354356
 31
0.0
  0
LINE
  5
277
330
71
100
AcDbEntity
  8
1
  6
Continuous
 62
     2
100
AcDbLine
 10
-93.16666911919401
 20
301.6500001354356
 30
0.0
 11
-93.16666911919401
 21
306.6500001354356
 31
0.0
  0
LINE
  5
278
330
71
100
AcDbEntity
  8
1
  6
Continuous
 62
     2
100
AcDbLine
 10
-93.16666911919401
 20
301.6500001354356
 30
0.0
 11
-24.83333578586047
 21
301.6500001354356
 31
0.0
  0
LINE
  5
279
330
71
100
AcDbEntity
  8
1
  6
Continuous
 62
     6
100
AcDbLine
 10
-93.16666911919401
 20
306.6500001354356
 30
0.0
 11
-24.83333578586047
 21
306.6500001354356
 31
0.0
  0
LINE
  5
27A
330
71
100
AcDbEntity
  8
1
  6
Continuous
 62
     6
100
AcDbLine
 10
-93.16666911919401
 20
306.6500001354356
 30
0.0
 11
-146.5000024525271
 21
306.6500001354356
 31
0.0
  0
LINE
  5
27B
330
71
100
AcDbEntity
  8
1
  6
Continuous
 62
     2
100
AcDbLine
 10
-24.83333578586047
 20
301.6500001354356
 30
0.0
 11
-24.83333578586047
 21
306.6500001354356
 31
0.0
  0
LINE
  5
27C
330
71
100
AcDbEntity
  8
1
  6
Continuous
 62
     2
100
AcDbLine
 10
-146.5000024525281
 20
301.6500001354356
 30
0.0
 11
-146.5000024525281
 21
305.6500001354356
 31
0.0
  0
LINE
  5
27D
330
71
100
AcDbEntity
  8
1
  6
Continuous
 62
     2
100
AcDbLine
 10
-146.5000024525281
 20
301.6500001354356
 30
0.0
 11
-93.16666911919401
 21
301.6500001354356
 31
0.0
  0
LINE
  5
27E
330
71
100
AcDbEntity
  8
1
  6
Continuous
 62
     2
100
AcDbLine
 10
63.4999975474698
 20
301.6500001354356
 30
0.0
 11
43.49999754747262
 21
301.6500001354356
 31
0.0
  0
LINE
  5
27F
330
71
100
AcDbEntity
  8
1
  6
Continuous
 62
     2
100
AcDbLine
 10
63.4999975474698
 20
301.6500001354356
 30
0.0
 11
63.4999975474698
 21
305.6500001354356
 31
0.0
  0
LINE
  5
280
330
71
100
AcDbEntity
  8
1
  6
Continuous
 62
     2
100
AcDbLine
 10
63.4999975474698
 20
301.6500001354356
 30
0.0
 11
111.833330880806
 21
301.6500001354356
 31
0.0
  0
LINE
  5
281
330
71
100
AcDbEntity
  8
1
  6
Continuous
 62
     2
100
AcDbLine
 10
111.833330880806
 20
301.6500001354356
 30
0.0
 11
180.1666642141392
 21
301.6500001354356
 31
0.0
  0
LINE
  5
282
330
71
100
AcDbEntity
  8
1
  6
Continuous
 62
     2
100
AcDbLine
 10
253.4999975474701
 20
301.6500001354356
 30
0.0
 11
248.4999975474726
 21
301.6500001354356
 31
0.0
  0
LINE
  5
283
330
71
100
AcDbEntity
  8
1
  6
Continuous
 62
     2
100
AcDbLine
 10
253.4999975474701
 20
306.6500001354356
 30
0.0
 11
253.4999975474701
 21
301.6500001354356
 31
0.0
  0
LINE
  5
284
330
71
100
AcDbEntity
  8
1
  6
Continuous
 62
     2
100
AcDbLine
 10
253.4999975474701
 20
306.6500001354356
 30
0.0
 11
253.4999975474701
 21
364.0500001354357
 31
0.0
  0
LINE
  5
285
330
71
100
AcDbEntity
  8
1
  6
Continuous
 62
     2
100
AcDbLine
 10
253.4999975474701
 20
598.6500001354356
 30
0.0
 11
248.4999975474701
 21
598.6500001354356
 31
0.0
  0
LINE
  5
286
330
71
100
AcDbEntity
  8
1
  6
Continuous
 62
     6
100
AcDbLine
 10
248.4999975474701
 20
593.6500001354356
 30
0.0
 11
248.4999975474706
 21
536.2500001354355
 31
0.0
  0
LINE
  5
287
330
71
100
AcDbEntity
  8
1
  6
Continuous
 62
     2
100
AcDbLine
 10
253.4999975474701
 20
598.6500001354356
 30
0.0
 11
253.4999975474701
 21
593.6500001354356
 31
0.0
  0
LINE
  5
288
330
71
100
AcDbEntity
  8
1
  6
Continuous
 62
     2
100
AcDbLine
 10
248.4999975474701
 20
593.6500001354356
 30
0.0
 11
248.4999975474701
 21
598.6500001354356
 31
0.0
  0
LINE
  5
289
330
71
100
AcDbEntity
  8
1
  6
Continuous
 62
     2
100
AcDbLine
 10
248.4999975474701
 20
593.6500001354356
 30
0.0
 11
253.4999975474701
 21
593.6500001354356
 31
0.0
  0
LINE
  5
28A
330
71
100
AcDbEntity
  8
1
  6
Continuous
 62
     2
100
AcDbLine
 10
253.4999975474701
 20
593.6500001354356
 30
0.0
 11
253.4999975474701
 21
536.2500001354355
 31
0.0
  0
LINE
  5
28B
330
71
100
AcDbEntity
  8
1
  6
Continuous
 62
     2
100
AcDbLine
 10
248.4999975474706
 20
536.2500001354355
 30
0.0
 11
253.4999975474701
 21
536.2500001354355
 31
0.0
  0
LINE
  5
28C
330
71
100
AcDbEntity
  8
1
  6
Continuous
 62
     6
100
AcDbLine
 10
248.4999975474706
 20
536.2500001354355
 30
0.0
 11
248.4999975474726
 21
478.8500001354356
 31
0.0
  0
LINE
  5
28D
330
71
100
AcDbEntity
  8
1
  6
Continuous
 62
     2
100
AcDbLine
 10
253.4999975474701
 20
536.2500001354355
 30
0.0
 11
253.4999975474701
 21
478.8500001354356
 31
0.0
  0
LINE
  5
28E
330
71
100
AcDbEntity
  8
1
  6
Continuous
 62
     2
100
AcDbLine
 10
248.4999975474726
 20
478.8500001354356
 30
0.0
 11
253.4999975474701
 21
478.8500001354356
 31
0.0
  0
LINE
  5
28F
330
71
100
AcDbEntity
  8
1
  6
Continuous
 62
     6
100
AcDbLine
 10
248.4999975474726
 20
478.8500001354356
 30
0.0
 11
248.4999975474726
 21
421.4500001354357
 31
0.0
  0
LINE
  5
290
330
71
100
AcDbEntity
  8
1
  6
Continuous
 62
     2
100
AcDbLine
 10
253.4999975474701
 20
478.8500001354356
 30
0.0
 11
253.4999975474701
 21
421.4500001354357
 31
0.0
  0
LINE
  5
291
330
71
100
AcDbEntity
  8
1
  6
Continuous
 62
     2
100
AcDbLine
 10
248.4999975474726
 20
421.4500001354357
 30
0.0
 11
253.4999975474701
 21
421.4500001354357
 31
0.0
  0
LINE
  5
292
330
71
100
AcDbEntity
  8
1
  6
Continuous
 62
     6
100
AcDbLine
 10
248.4999975474726
 20
421.4500001354357
 30
0.0
 11
248.4999975474726
 21
364.0500001354357
 31
0.0
  0
LINE
  5
293
330
71
100
AcDbEntity
  8
1
  6
Continuous
 62
     6
100
AcDbLine
 10
-146.5000024525281
 20
593.6500001354358
 30
0.0
 11
-93.16666911919401
 21
593.6500001354358
 31
0.0
  0
LINE
  5
294
330
71
100
AcDbEntity
  8
1
  6
Continuous
 62
     2
100
AcDbLine
 10
248.4999975474701
 20
598.6500001354356
 30
0.0
 11
180.1666642141392
 21
598.6500001354356
 31
0.0
  0
LINE
  5
295
330
71
100
AcDbEntity
  8
1
  6
Continuous
 62
     2
100
AcDbLine
 10
180.1666642141392
 20
593.6500001354356
 30
0.0
 11
180.1666642141392
 21
598.6500001354356
 31
0.0
  0
LINE
  5
296
330
71
100
AcDbEntity
  8
1
  6
Continuous
 62
     6
100
AcDbLine
 10
180.1666642141392
 20
593.6500001354356
 30
0.0
 11
248.4999975474701
 21
593.6500001354356
 31
0.0
  0
LINE
  5
297
330
71
100
AcDbEntity
  8
1
  6
Continuous
 62
     2
100
AcDbLine
 10
180.1666642141392
 20
598.6500001354356
 30
0.0
 11
111.833330880806
 21
598.6500001354356
 31
0.0
  0
LINE
  5
298
330
71
100
AcDbEntity
  8
1
  6
Continuous
 62
     2
100
AcDbLine
 10
111.833330880806
 20
593.6500001354356
 30
0.0
 11
111.833330880806
 21
598.6500001354356
 31
0.0
  0
LINE
  5
299
330
71
100
AcDbEntity
  8
1
  6
Continuous
 62
     6
100
AcDbLine
 10
111.833330880806
 20
593.6500001354356
 30
0.0
 11
180.1666642141392
 21
593.6500001354356
 31
0.0
  0
LINE
  5
29A
330
71
100
AcDbEntity
  8
1
  6
Continuous
 62
     2
100
AcDbLine
 10
111.833330880806
 20
598.6500001354356
 30
0.0
 11
63.4999975474698
 21
598.6500001354356
 31
0.0
  0
LINE
  5
29B
330
71
100
AcDbEntity
  8
1
  6
Continuous
 62
     2
100
AcDbLine
 10
43.49999754747262
 20
593.6500001354356
 30
0.0
 11
43.49999754747262
 21
598.6500001354356
 31
0.0
  0
LINE
  5
29C
330
71
100
AcDbEntity
  8
1
  6
Continuous
 62
     6
100
AcDbLine
 10
43.49999754747262
 20
593.6500001354356
 30
0.0
 11
111.833330880806
 21
593.6500001354356
 31
0.0
  0
LINE
  5
29D
330
71
100
AcDbEntity
  8
1
  6
Continuous
 62
     2
100
AcDbLine
 10
43.49999754747262
 20
598.6500001354356
 30
0.0
 11
-24.83333578586047
 21
598.6500001354356
 31
0.0
  0
LINE
  5
29E
330
71
100
AcDbEntity
  8
1
  6
Continuous
 62
     2
100
AcDbLine
 10
-24.83333578586047
 20
593.6500001354356
 30
0.0
 11
-24.83333578586047
 21
598.6500001354356
 31
0.0
  0
LINE
  5
29F
330
71
100
AcDbEntity
  8
1
  6
Continuous
 62
     6
100
AcDbLine
 10
-24.83333578586047
 20
593.6500001354356
 30
0.0
 11
43.49999754747262
 21
593.6500001354356
 31
0.0
  0
LINE
  5
2A0
330
71
100
AcDbEntity
  8
1
  6
Continuous
 62
     2
100
AcDbLine
 10
-24.83333578586047
 20
598.6500001354356
 30
0.0
 11
-93.16666911919401
 21
598.6500001354356
 31
0.0
  0
LINE
  5
2A1
330
71
100
AcDbEntity
  8
1
  6
Continuous
 62
     2
100
AcDbLine
 10
-93.16666911919401
 20
593.6500001354358
 30
0.0
 11
-93.16666911919401
 21
598.6500001354356
 31
0.0
  0
LINE
  5
2A2
330
71
100
AcDbEntity
  8
1
  6
Continuous
 62
     6
100
AcDbLine
 10
-93.16666911919401
 20
593.6500001354358
 30
0.0
 11
-24.83333578586047
 21
593.6500001354356
 31
0.0
  0
LINE
  5
2A3
330
71
100
AcDbEntity
  8
1
  6
Continuous
 62
     2
100
AcDbLine
 10
-93.16666911919401
 20
598.6500001354356
 30
0.0
 11
-146.5000024525281
 21
598.6500001354356
 31
0.0
  0
LINE
  5
2A4
330
71
100
AcDbEntity
  8
1
  6
Continuous
 62
     2
100
AcDbLine
 10
-146.5000024525281
 20
598.6500001354356
 30
0.0
 11
-146.5000024525281
 21
594.6500001354358
 31
0.0
  0
LINE
  5
2A5
330
71
100
AcDbEntity
  8
1
  6
Continuous
 62
     2
100
AcDbLine
 10
-146.5000024525281
 20
598.6500001354356
 30
0.0
 11
-166.5000024525282
 21
598.6500001354356
 31
0.0
  0
LINE
  5
2A6
330
71
100
AcDbEntity
  8
1
  6
Continuous
 62
     2
100
AcDbLine
 10
63.4999975474698
 20
598.6500001354356
 30
0.0
 11
63.4999975474698
 21
594.6500001354358
 31
0.0
  0
LINE
  5
2A7
330
71
100
AcDbEntity
  8
1
  6
Continuous
 62
     2
100
AcDbLine
 10
63.4999975474698
 20
598.6500001354356
 30
0.0
 11
43.49999754747262
 21
598.6500001354356
 31
0.0
  0
LINE
  5
2A8
330
71
100
AcDbEntity
  8
1
  6
Continuous
 62
     2
100
AcDbLine
 10
-166.5000024525282
 20
598.6500001354356
 30
0.0
 11
-166.5000024525282
 21
450.1500001354356
 31
0.0
  0
LINE
  5
2A9
330
71
100
AcDbEntity
  8
1
  6
Continuous
 62
     2
100
AcDbLine
 10
-166.5000024525282
 20
450.1500001354356
 30
0.0
 11
-156.5000024525281
 21
450.1500001354356
 31
0.0
  0
LINE
  5
2AA
330
71
100
AcDbEntity
  8
1
  6
Continuous
 62
     2
100
AcDbLine
 10
-166.5000024525282
 20
450.1500001354356
 30
0.0
 11
-166.5000024525282
 21
301.6500001354356
 31
0.0
  0
LINE
  5
2AB
330
71
100
AcDbEntity
  8
1
  6
Continuous
 62
     6
100
AcDbLine
 10
-146.5000024525271
 20
306.6500001354356
 30
0.0
 11
-146.5000024525281
 21
593.6500001354358
 31
0.0
  0
LINE
  5
2AC
330
71
100
AcDbEntity
  8
1
  6
Continuous
 62
     6
100
AcDbLine
 10
248.4999975474726
 20
306.6500001354351
 30
0.0
 11
248.4999975474722
 21
315.150000135435
 31
0.0
  0
LINE
  5
2AD
330
71
100
AcDbEntity
  8
1
  6
Continuous
 62
     6
100
AcDbLine
 10
-24.83333578586047
 20
306.6500001354356
 30
0.0
 11
118.9551930207227
 21
306.6500001354325
 31
0.0
  0
LINE
  5
2AE
330
71
100
AcDbEntity
  8
1
  6
Continuous
 62
     2
100
AcDbLine
 10
111.833330880806
 20
306.6500001354327
 30
0.0
 11
111.833330880806
 21
306.6500001354356
 31
0.0
  0
LINE
  5
2AF
330
71
100
AcDbEntity
  8
1
  6
Continuous
 62
     6
100
AcDbLine
 10
248.4999975474744
 20
323.650000135435
 30
0.0
 11
248.4999975474744
 21
332.150000135435
 31
0.0
  0
LINE
  5
2B0
330
71
100
AcDbEntity
  8
1
  6
Continuous
 62
     7
100
AcDbLine
 10
183.2551930207226
 20
315.150000135435
 30
0.0
 11
183.2551930207226
 21
323.650000135435
 31
0.0
  0
LINE
  5
2B1
330
71
100
AcDbEntity
  8
1
  6
Continuous
 62
     6
100
AcDbLine
 10
155.3551930207226
 20
323.650000135435
 30
0.0
 11
248.4999975474744
 21
323.650000135435
 31
0.0
  0
LINE
  5
2B2
330
71
100
AcDbEntity
  8
1
  6
Continuous
 62
     7
100
AcDbLine
 10
118.9551930207227
 20
323.650000135435
 30
0.0
 11
118.9551930207227
 21
332.150000135435
 31
0.0
  0
LINE
  5
2B3
330
71
100
AcDbEntity
  8
1
  6
Continuous
 62
     7
100
AcDbLine
 10
155.3551930207226
 20
323.650000135435
 30
0.0
 11
155.3551930207226
 21
332.150000135435
 31
0.0
  0
LINE
  5
2B4
330
71
100
AcDbEntity
  8
1
  6
Continuous
 62
     7
100
AcDbLine
 10
213.0815892657956
 20
332.150000135435
 30
0.0
 11
213.0815892657956
 21
323.650000135435
 31
0.0
  0
LINE
  5
2B5
330
71
100
AcDbEntity
  8
1
  6
Continuous
 62
     7
100
AcDbLine
 10
239.5815892657952
 20
332.150000135435
 30
0.0
 11
239.5815892657952
 21
323.650000135435
 31
0.0
  0
LINE
  5
2B6
330
71
100
AcDbEntity
  8
1
  6
Continuous
 62
     7
100
AcDbLine
 10
248.4999975474739
 20
315.150000135435
 30
0.0
 11
155.3551930207226
 21
315.150000135435
 31
0.0
  0
LINE
  5
2B7
102
{ACAD_REACTORS
330
39C
330
39D
102
}
330
71
100
AcDbEntity
  8
0
  6
Continuous
 62
     2
100
AcDbLine
 10
132.6626219624901
 20
315.9502892510983
 30
0.0
 11
132.6626219624901
 21
316.8228062579016
 31
0.0
  0
LINE
  5
2B8
102
{ACAD_REACTORS
330
39C
330
39D
102
}
330
71
100
AcDbEntity
  8
0
  6
Continuous
 62
     2
100
AcDbLine
 10
132.6626219624901
 20
314.9905205436155
 30
0.0
 11
132.6626219624901
 21
314.1180035368122
 31
0.0
  0
LINE
  5
2B9
102
{ACAD_REACTORS
330
39E
330
39F
102
}
330
71
100
AcDbEntity
  8
0
  6
Continuous
 62
     2
100
AcDbLine
 10
147.9956660987805
 20
316.2120443531388
 30
0.0
 11
149.0993053983486
 21
316.2120443531388
 31
0.0
  0
LINE
  5
2BA
102
{ACAD_REACTORS
330
39E
330
39F
102
}
330
71
100
AcDbEntity
  8
0
  6
Continuous
 62
     2
100
AcDbLine
 10
148.7653234417419
 20
314.990520543615
 30
0.0
 11
148.7653234417419
 21
314.1180035368117
 31
0.0
  0
LINE
  5
2BB
102
{ACAD_REACTORS
330
3A8
330
3A9
102
}
330
71
100
AcDbEntity
  8
0
  6
Continuous
 62
     2
100
AcDbLine
 10
146.9045668263621
 20
317.3026906116257
 30
0.0
 11
148.3025198733024
 21
318.8835496054006
 31
0.0
  0
LINE
  5
2BC
102
{ACAD_REACTORS
330
3A8
330
3A9
102
}
330
71
100
AcDbEntity
  8
0
  6
Continuous
 62
     2
100
AcDbLine
 10
146.9999902425349
 20
320.3565001354368
 30
0.0
 11
148.3025198733024
 21
318.8835496054006
 31
0.0
  0
LINE
  5
2BD
102
{ACAD_REACTORS
330
3A8
330
3A9
102
}
330
71
100
AcDbEntity
  8
0
  6
Continuous
 62
     2
100
AcDbLine
 10
149.6050495040688
 20
320.3565001354368
 30
0.0
 11
151.007773721816
 21
320.3565001354368
 31
0.0
  0
LINE
  5
2BE
102
{ACAD_REACTORS
330
3A8
330
3A9
102
}
330
71
100
AcDbEntity
  8
0
  6
Continuous
 62
     2
100
AcDbLine
 10
148.3072910441102
 20
317.3026906116257
 30
0.0
 11
149.003881982176
 21
318.0904223969194
 31
0.0
  0
LINE
  5
2BF
102
{ACAD_REACTORS
330
3A8
330
3A9
102
}
330
71
100
AcDbEntity
  8
0
  6
Continuous
 62
     2
100
AcDbLine
 10
148.3072910441102
 20
317.3026906116257
 30
0.0
 11
146.9045668263621
 21
317.3026906116257
 31
0.0
  0
LINE
  5
2C0
102
{ACAD_REACTORS
330
3AA
330
3AB
102
}
330
71
100
AcDbEntity
  8
0
  6
Continuous
 62
     2
100
AcDbLine
 10
146.7852875561452
 20
317.3026906116257
 30
0.0
 11
145.5447831458923
 21
317.3026906116257
 31
0.0
  0
LINE
  5
2C1
102
{ACAD_REACTORS
330
3AC
330
3AD
102
}
330
71
100
AcDbEntity
  8
0
  6
Continuous
 62
     2
100
AcDbLine
 10
144.6768035377372
 20
315.1650239449758
 30
0.0
 11
144.376638300547
 21
315.9328389109625
 31
0.0
  0
LINE
  5
2C2
102
{ACAD_REACTORS
330
3AC
330
3AD
102
}
330
71
100
AcDbEntity
  8
0
  6
Continuous
 62
     2
100
AcDbLine
 10
144.0764730633547
 20
315.1650239449758
 30
0.0
 11
144.6768035377372
 21
315.1650239449758
 31
0.0
  0
LINE
  5
2C3
102
{ACAD_REACTORS
330
3AC
330
3AD
102
}
330
71
100
AcDbEntity
  8
0
  6
Continuous
 62
     2
100
AcDbLine
 10
142.3584330484809
 20
313.9435001354514
 30
0.0
 11
143.5989374587338
 21
313.9435001354514
 31
0.0
  0
LINE
  5
2C4
102
{ACAD_REACTORS
330
3AC
330
3AD
102
}
330
71
100
AcDbEntity
  8
0
  6
Continuous
 62
     2
100
AcDbLine
 10
143.7563860954201
 20
316.9973096592625
 30
0.0
 11
144.9968905056729
 21
316.9973096592625
 31
0.0
  0
LINE
  5
2C5
102
{ACAD_REACTORS
330
3AC
330
3AD
102
}
330
71
100
AcDbEntity
  8
0
  6
Continuous
 62
     2
100
AcDbLine
 10
144.9968905056729
 20
316.9973096592625
 30
0.0
 11
146.3948435526132
 21
313.9435001354514
 31
0.0
  0
LINE
  5
2C6
102
{ACAD_REACTORS
330
3AC
330
3AD
102
}
330
71
100
AcDbEntity
  8
0
  6
Continuous
 62
     2
100
AcDbLine
 10
145.1543391423593
 20
313.9435001354514
 30
0.0
 11
144.9428590888835
 21
314.4844606796692
 31
0.0
  0
LINE
  5
2C7
102
{ACAD_REACTORS
330
3AE
330
3AF
102
}
330
71
100
AcDbEntity
  8
0
  6
Continuous
 62
     2
100
AcDbLine
 10
141.0120199467733
 20
313.9435001354514
 30
0.0
 11
142.2048126489397
 21
313.9435001354514
 31
0.0
  0
LINE
  5
2C8
102
{ACAD_REACTORS
330
3AE
330
3AF
102
}
330
71
100
AcDbEntity
  8
0
  6
Continuous
 62
     2
100
AcDbLine
 10
141.0120199467733
 20
316.2120443531388
 30
0.0
 11
141.0120199467733
 21
313.9435001354514
 31
0.0
  0
LINE
  5
2C9
102
{ACAD_REACTORS
330
3AE
330
3AF
102
}
330
71
100
AcDbEntity
  8
0
  6
Continuous
 62
     2
100
AcDbLine
 10
140.2009209092986
 20
316.9973096592625
 30
0.0
 11
140.2009209092986
 21
316.2120443531388
 31
0.0
  0
LINE
  5
2CA
102
{ACAD_REACTORS
330
3B0
330
3B1
102
}
330
71
100
AcDbEntity
  8
0
  6
Continuous
 62
     2
100
AcDbLine
 10
141.6801347908713
 20
317.3026906116257
 30
0.0
 11
142.8729274930377
 21
317.3026906116257
 31
0.0
  0
LINE
  5
2CB
102
{ACAD_REACTORS
330
3B0
330
3B1
102
}
330
71
100
AcDbEntity
  8
0
  6
Continuous
 62
     2
100
AcDbLine
 10
144.1134319032918
 20
319.0477246252317
 30
0.0
 11
142.8729274930377
 21
320.3565001354368
 31
0.0
  0
LINE
  5
2CC
102
{ACAD_REACTORS
330
3B0
330
3B1
102
}
330
71
100
AcDbEntity
  8
0
  6
Continuous
 62
     2
100
AcDbLine
 10
145.3062246054584
 20
320.3565001354368
 30
0.0
 11
144.1134319032918
 21
320.3565001354368
 31
0.0
  0
LINE
  5
2CD
102
{ACAD_REACTORS
330
3B0
330
3B1
102
}
330
71
100
AcDbEntity
  8
0
  6
Continuous
 62
     2
100
AcDbLine
 10
145.3062246054584
 20
317.3026906116257
 30
0.0
 11
145.3062246054584
 21
320.3565001354368
 31
0.0
  0
LINE
  5
2CE
102
{ACAD_REACTORS
330
3B0
330
3B1
102
}
330
71
100
AcDbEntity
  8
0
  6
Continuous
 62
     2
100
AcDbLine
 10
144.1134319032918
 20
317.3026906116257
 30
0.0
 11
145.3062246054584
 21
317.3026906116257
 31
0.0
  0
LINE
  5
2CF
102
{ACAD_REACTORS
330
3B0
330
3B1
102
}
330
71
100
AcDbEntity
  8
0
  6
Continuous
 62
     2
100
AcDbLine
 10
142.8729274930377
 20
318.6114661218304
 30
0.0
 11
144.1134319032918
 21
317.3026906116257
 31
0.0
  0
LINE
  5
2D0
102
{ACAD_REACTORS
330
3B2
330
3B3
102
}
330
71
100
AcDbEntity
  8
0
  6
Continuous
 62
     2
100
AcDbLine
 10
138.8649930828721
 20
315.6885341490573
 30
0.0
 11
137.6244886726191
 21
316.9973096592625
 31
0.0
  0
LINE
  5
2D1
102
{ACAD_REACTORS
330
3B2
330
3B3
102
}
330
71
100
AcDbEntity
  8
0
  6
Continuous
 62
     2
100
AcDbLine
 10
138.8649930828721
 20
316.9973096592625
 30
0.0
 11
138.8649930828721
 21
315.6885341490573
 31
0.0
  0
LINE
  5
2D2
102
{ACAD_REACTORS
330
3B2
330
3B3
102
}
330
71
100
AcDbEntity
  8
0
  6
Continuous
 62
     2
100
AcDbLine
 10
140.0577857850385
 20
316.9973096592625
 30
0.0
 11
138.8649930828721
 21
316.9973096592625
 31
0.0
  0
LINE
  5
2D3
102
{ACAD_REACTORS
330
3B2
330
3B3
102
}
330
71
100
AcDbEntity
  8
0
  6
Continuous
 62
     2
100
AcDbLine
 10
140.0577857850385
 20
313.9435001354514
 30
0.0
 11
140.0577857850385
 21
316.9973096592625
 31
0.0
  0
LINE
  5
2D4
102
{ACAD_REACTORS
330
3B2
330
3B3
102
}
330
71
100
AcDbEntity
  8
0
  6
Continuous
 62
     2
100
AcDbLine
 10
137.6244886726191
 20
315.2522756456559
 30
0.0
 11
138.8649930828721
 21
313.9435001354514
 31
0.0
  0
LINE
  5
2D5
102
{ACAD_REACTORS
330
3B2
330
3B3
102
}
330
71
100
AcDbEntity
  8
0
  6
Continuous
 62
     2
100
AcDbLine
 10
137.6244886726191
 20
313.9435001354514
 30
0.0
 11
137.6244886726191
 21
315.2522756456559
 31
0.0
  0
LINE
  5
2D6
102
{ACAD_REACTORS
330
3A2
330
3A3
102
}
330
71
100
AcDbEntity
  8
0
  6
Continuous
 62
     2
100
AcDbLine
 10
140.1056484240107
 20
319.6584865299939
 30
0.0
 11
141.4415762504383
 21
319.6584865299939
 31
0.0
  0
LINE
  5
2D7
102
{ACAD_REACTORS
330
3A2
330
3A3
102
}
330
71
100
AcDbEntity
  8
0
  6
Continuous
 62
     2
100
AcDbLine
 10
140.1056484240107
 20
318.0007042170681
 30
0.0
 11
140.1056484240107
 21
318.4805885708098
 31
0.0
  0
LINE
  5
2D8
102
{ACAD_REACTORS
330
3A2
330
3A3
102
}
330
71
100
AcDbEntity
  8
0
  6
Continuous
 62
     2
100
AcDbLine
 10
141.4415762504383
 20
318.0007042170681
 30
0.0
 11
140.1056484240107
 21
318.0007042170681
 31
0.0
  0
LINE
  5
2D9
102
{ACAD_REACTORS
330
3A2
330
3A3
102
}
330
71
100
AcDbEntity
  8
0
  6
Continuous
 62
     2
100
AcDbLine
 10
141.4415762504383
 20
317.3026906116257
 30
0.0
 11
141.4415762504383
 21
318.0007042170681
 31
0.0
  0
LINE
  5
2DA
102
{ACAD_REACTORS
330
3A2
330
3A3
102
}
330
71
100
AcDbEntity
  8
0
  6
Continuous
 62
     2
100
AcDbLine
 10
138.2912565266574
 20
317.3026906116257
 30
0.0
 11
141.4415762504383
 21
317.3026906116257
 31
0.0
  0
LINE
  5
2DB
102
{ACAD_REACTORS
330
3A2
330
3A3
102
}
330
71
100
AcDbEntity
  8
0
  6
Continuous
 62
     2
100
AcDbLine
 10
138.2912565266574
 20
320.3565001354368
 30
0.0
 11
141.4415762504383
 21
320.3565001354368
 31
0.0
  0
LINE
  5
2DC
102
{ACAD_REACTORS
330
3A2
330
3A3
102
}
330
71
100
AcDbEntity
  8
0
  6
Continuous
 62
     2
100
AcDbLine
 10
141.4415762504383
 20
319.6584865299939
 30
0.0
 11
141.4415762504383
 21
320.3565001354368
 31
0.0
  0
LINE
  5
2DD
102
{ACAD_REACTORS
330
3B4
330
3B5
102
}
330
71
100
AcDbEntity
  8
0
  6
Continuous
 62
     2
100
AcDbLine
 10
135.4299010315173
 20
319.2876668021022
 30
0.0
 11
135.4299010315173
 21
320.3565001354368
 31
0.0
  0
LINE
  5
2DE
102
{ACAD_REACTORS
330
3B4
330
3B5
102
}
330
71
100
AcDbEntity
  8
0
  6
Continuous
 62
     2
100
AcDbLine
 10
135.4299010315173
 20
320.3565001354368
 30
0.0
 11
136.6226937336838
 21
320.3565001354368
 31
0.0
  0
LINE
  5
2DF
102
{ACAD_REACTORS
330
3B4
330
3B5
102
}
330
71
100
AcDbEntity
  8
0
  6
Continuous
 62
     2
100
AcDbLine
 10
135.4299010315173
 20
318.4369627204694
 30
0.0
 11
134.3802434536099
 21
318.4369627204694
 31
0.0
  0
LINE
  5
2E0
102
{ACAD_REACTORS
330
3B4
330
3B5
102
}
330
71
100
AcDbEntity
  8
0
  6
Continuous
 62
     2
100
AcDbLine
 10
134.3802434536099
 20
318.4369627204694
 30
0.0
 11
134.3802434536099
 21
317.3026906116257
 31
0.0
  0
LINE
  5
2E1
102
{ACAD_REACTORS
330
3B4
330
3B5
102
}
330
71
100
AcDbEntity
  8
0
  6
Continuous
 62
     2
100
AcDbLine
 10
133.1874507514433
 20
320.3565001354368
 30
0.0
 11
133.1874507514433
 21
317.3026906116257
 31
0.0
  0
LINE
  5
2E2
102
{ACAD_REACTORS
330
3A6
330
3A7
102
}
330
71
100
AcDbEntity
  8
0
  6
Continuous
 62
     2
100
AcDbLine
 10
131.2312707198896
 20
318.9876666406545
 30
0.0
 11
131.2312707198896
 21
319.6933942899968
 31
0.0
  0
LINE
  5
2E3
102
{ACAD_REACTORS
330
3A6
330
3A7
102
}
330
71
100
AcDbEntity
  8
0
  6
Continuous
 62
     2
100
AcDbLine
 10
129.9907663096356
 20
317.3026906116257
 30
0.0
 11
131.2312707198896
 21
317.3026906116257
 31
0.0
  0
LINE
  5
2E4
102
{ACAD_REACTORS
330
3A6
330
3A7
102
}
330
71
100
AcDbEntity
  8
0
  6
Continuous
 62
     2
100
AcDbLine
 10
131.2312707198896
 20
317.3026906116257
 30
0.0
 11
131.2312707198896
 21
318.2457688527694
 31
0.0
  0
LINE
  5
2E5
102
{ACAD_REACTORS
330
3A0
330
3A1
102
}
330
71
100
AcDbEntity
  8
0
  6
Continuous
 62
     2
100
AcDbLine
 10
125.6858204604241
 20
314.6560556910083
 30
0.0
 11
124.2099871994145
 21
314.6560556910083
 31
0.0
  0
LINE
  5
2E6
102
{ACAD_REACTORS
330
3A0
330
3A1
102
}
330
71
100
AcDbEntity
  8
0
  6
Continuous
 62
     2
100
AcDbLine
 10
123.1918479072852
 20
319.9322555200348
 30
0.0
 11
123.1918479072852
 21
314.3677447508346
 31
0.0
  0
LINE
  5
2E7
102
{ACAD_REACTORS
330
3A0
330
3A1
102
}
330
71
100
AcDbEntity
  8
0
  6
Continuous
 62
     2
100
AcDbLine
 10
123.616092522668
 20
320.3565001354187
 30
0.0
 11
129.0894046133849
 21
320.3565001354187
 31
0.0
  0
LINE
  5
2E8
102
{ACAD_REACTORS
330
3A0
330
3A1
102
}
330
71
100
AcDbEntity
  8
0
  6
Continuous
 62
     2
100
AcDbLine
 10
129.5136492287688
 20
319.9322555200348
 30
0.0
 11
129.5136492287688
 21
314.3677447508346
 31
0.0
  0
LINE
  5
2E9
102
{ACAD_REACTORS
330
3A0
330
3A1
102
}
330
71
100
AcDbEntity
  8
0
  6
Continuous
 62
     2
100
AcDbLine
 10
129.0894046133849
 20
313.9435001354514
 30
0.0
 11
123.616092522668
 21
313.9435001354514
 31
0.0
  0
LINE
  5
2EA
102
{ACAD_REACTORS
330
3A0
330
3A1
102
}
330
71
100
AcDbEntity
  8
0
  6
Continuous
 62
     2
100
AcDbLine
 10
126.0015373835007
 20
314.971772614085
 30
0.0
 11
126.0015373835007
 21
316.5025435456166
 31
0.0
  0
LINE
  5
2EB
102
{ACAD_REACTORS
330
3A0
330
3A1
102
}
330
71
100
AcDbEntity
  8
0
  6
Continuous
 62
     2
100
AcDbLine
 10
126.0015373835007
 20
318.7242030377415
 30
0.0
 11
126.0015373835007
 21
319.3282276568021
 31
0.0
  0
LINE
  5
2EC
102
{ACAD_REACTORS
330
3A0
330
3A1
102
}
330
71
100
AcDbEntity
  8
0
  6
Continuous
 62
     2
100
AcDbLine
 10
124.2099871994145
 20
319.6439445798782
 30
0.0
 11
125.6858204604241
 21
319.6439445798782
 31
0.0
  0
LINE
  5
2ED
102
{ACAD_REACTORS
330
3A0
330
3A1
102
}
330
71
100
AcDbEntity
  8
0
  6
Continuous
 62
     2
100
AcDbLine
 10
123.8942702763389
 20
319.3282276568021
 30
0.0
 11
123.8942702763389
 21
314.971772614085
 31
0.0
  0
LINE
  5
2EE
102
{ACAD_REACTORS
330
3A6
330
3A7
102
}
330
71
100
AcDbEntity
  8
0
  6
Continuous
 62
     2
100
AcDbLine
 10
131.2312707198896
 20
318.2457688527694
 30
0.0
 11
131.99003830767
 21
318.2457688527694
 31
0.0
  0
LINE
  5
2EF
102
{ACAD_REACTORS
330
3A6
330
3A7
102
}
330
71
100
AcDbEntity
  8
0
  6
Continuous
 62
     2
100
AcDbLine
 10
129.9907663096356
 20
320.3565001354368
 30
0.0
 11
131.99003830767
 21
320.3565001354368
 31
0.0
  0
LINE
  5
2F0
102
{ACAD_REACTORS
330
3A6
330
3A7
102
}
330
71
100
AcDbEntity
  8
0
  6
Continuous
 62
     2
100
AcDbLine
 10
129.9907663096356
 20
320.3565001354368
 30
0.0
 11
129.9907663096356
 21
317.3026906116257
 31
0.0
  0
LINE
  5
2F1
102
{ACAD_REACTORS
330
3A6
330
3A7
102
}
330
71
100
AcDbEntity
  8
0
  6
Continuous
 62
     2
100
AcDbLine
 10
131.2312707198896
 20
318.9876666406545
 30
0.0
 11
131.5485657814316
 21
318.9876666406545
 31
0.0
  0
LINE
  5
2F2
102
{ACAD_REACTORS
330
3A6
330
3A7
102
}
330
71
100
AcDbEntity
  8
0
  6
Continuous
 62
     2
100
AcDbLine
 10
131.2312707198896
 20
319.6933942899968
 30
0.0
 11
131.5485657814316
 21
319.6933942899968
 31
0.0
  0
LINE
  5
2F3
102
{ACAD_REACTORS
330
3B4
330
3B5
102
}
330
71
100
AcDbEntity
  8
0
  6
Continuous
 62
     2
100
AcDbLine
 10
134.3802434536099
 20
319.2876668021022
 30
0.0
 11
135.4299010315173
 21
319.2876668021022
 31
0.0
  0
LINE
  5
2F4
102
{ACAD_REACTORS
330
3B4
330
3B5
102
}
330
71
100
AcDbEntity
  8
0
  6
Continuous
 62
     2
100
AcDbLine
 10
134.3802434536099
 20
320.3565001354368
 30
0.0
 11
134.3802434536099
 21
319.2876668021022
 31
0.0
  0
LINE
  5
2F5
102
{ACAD_REACTORS
330
3B4
330
3B5
102
}
330
71
100
AcDbEntity
  8
0
  6
Continuous
 62
     2
100
AcDbLine
 10
133.1874507514433
 20
320.3565001354368
 30
0.0
 11
134.3802434536099
 21
320.3565001354368
 31
0.0
  0
LINE
  5
2F6
102
{ACAD_REACTORS
330
3B4
330
3B5
102
}
330
71
100
AcDbEntity
  8
0
  6
Continuous
 62
     2
100
AcDbLine
 10
134.3802434536099
 20
317.3026906116257
 30
0.0
 11
133.1874507514433
 21
317.3026906116257
 31
0.0
  0
LINE
  5
2F7
102
{ACAD_REACTORS
330
3B4
330
3B5
102
}
330
71
100
AcDbEntity
  8
0
  6
Continuous
 62
     2
100
AcDbLine
 10
135.4299010315173
 20
317.3026906116257
 30
0.0
 11
135.4299010315173
 21
318.4369627204694
 31
0.0
  0
LINE
  5
2F8
102
{ACAD_REACTORS
330
3B4
330
3B5
102
}
330
71
100
AcDbEntity
  8
0
  6
Continuous
 62
     2
100
AcDbLine
 10
136.6226937336838
 20
317.3026906116257
 30
0.0
 11
135.4299010315173
 21
317.3026906116257
 31
0.0
  0
LINE
  5
2F9
102
{ACAD_REACTORS
330
3B4
330
3B5
102
}
330
71
100
AcDbEntity
  8
0
  6
Continuous
 62
     2
100
AcDbLine
 10
136.6226937336838
 20
320.3565001354368
 30
0.0
 11
136.6226937336838
 21
317.3026906116257
 31
0.0
  0
LINE
  5
2FA
102
{ACAD_REACTORS
330
3A2
330
3A3
102
}
330
71
100
AcDbEntity
  8
0
  6
Continuous
 62
     2
100
AcDbLine
 10
140.1056484240107
 20
318.4805885708098
 30
0.0
 11
141.4415762504383
 21
318.4805885708098
 31
0.0
  0
LINE
  5
2FB
102
{ACAD_REACTORS
330
3A2
330
3A3
102
}
330
71
100
AcDbEntity
  8
0
  6
Continuous
 62
     2
100
AcDbLine
 10
141.4415762504383
 20
318.4805885708098
 30
0.0
 11
141.4415762504383
 21
319.1786021762522
 31
0.0
  0
LINE
  5
2FC
102
{ACAD_REACTORS
330
3A2
330
3A3
102
}
330
71
100
AcDbEntity
  8
0
  6
Continuous
 62
     2
100
AcDbLine
 10
141.4415762504383
 20
319.1786021762522
 30
0.0
 11
140.1056484240107
 21
319.1786021762522
 31
0.0
  0
LINE
  5
2FD
102
{ACAD_REACTORS
330
3A2
330
3A3
102
}
330
71
100
AcDbEntity
  8
0
  6
Continuous
 62
     2
100
AcDbLine
 10
140.1056484240107
 20
319.1786021762522
 30
0.0
 11
140.1056484240107
 21
319.6584865299939
 31
0.0
  0
LINE
  5
2FE
102
{ACAD_REACTORS
330
3B2
330
3B3
102
}
330
71
100
AcDbEntity
  8
0
  6
Continuous
 62
     2
100
AcDbLine
 10
136.4316959704516
 20
313.9435001354514
 30
0.0
 11
137.6244886726191
 21
313.9435001354514
 31
0.0
  0
LINE
  5
2FF
102
{ACAD_REACTORS
330
3B2
330
3B3
102
}
330
71
100
AcDbEntity
  8
0
  6
Continuous
 62
     2
100
AcDbLine
 10
138.8649930828721
 20
313.9435001354514
 30
0.0
 11
140.0577857850385
 21
313.9435001354514
 31
0.0
  0
LINE
  5
300
102
{ACAD_REACTORS
330
3B2
330
3B3
102
}
330
71
100
AcDbEntity
  8
0
  6
Continuous
 62
     2
100
AcDbLine
 10
137.6244886726191
 20
316.9973096592625
 30
0.0
 11
136.4316959704516
 21
316.9973096592625
 31
0.0
  0
LINE
  5
301
102
{ACAD_REACTORS
330
3B2
330
3B3
102
}
330
71
100
AcDbEntity
  8
0
  6
Continuous
 62
     2
100
AcDbLine
 10
136.4316959704516
 20
316.9973096592625
 30
0.0
 11
136.4316959704516
 21
313.9435001354514
 31
0.0
  0
LINE
  5
302
102
{ACAD_REACTORS
330
3B0
330
3B1
102
}
330
71
100
AcDbEntity
  8
0
  6
Continuous
 62
     2
100
AcDbLine
 10
144.1134319032918
 20
320.3565001354368
 30
0.0
 11
144.1134319032918
 21
319.0477246252317
 31
0.0
  0
LINE
  5
303
102
{ACAD_REACTORS
330
3B0
330
3B1
102
}
330
71
100
AcDbEntity
  8
0
  6
Continuous
 62
     2
100
AcDbLine
 10
142.8729274930377
 20
320.3565001354368
 30
0.0
 11
141.6801347908713
 21
320.3565001354368
 31
0.0
  0
LINE
  5
304
102
{ACAD_REACTORS
330
3B0
330
3B1
102
}
330
71
100
AcDbEntity
  8
0
  6
Continuous
 62
     2
100
AcDbLine
 10
141.6801347908713
 20
320.3565001354368
 30
0.0
 11
141.6801347908713
 21
317.3026906116257
 31
0.0
  0
LINE
  5
305
102
{ACAD_REACTORS
330
3B0
330
3B1
102
}
330
71
100
AcDbEntity
  8
0
  6
Continuous
 62
     2
100
AcDbLine
 10
142.8729274930377
 20
317.3026906116257
 30
0.0
 11
142.8729274930377
 21
318.6114661218304
 31
0.0
  0
LINE
  5
306
102
{ACAD_REACTORS
330
3AE
330
3AF
102
}
330
71
100
AcDbEntity
  8
0
  6
Continuous
 62
     2
100
AcDbLine
 10
142.2048126489397
 20
313.9435001354514
 30
0.0
 11
142.2048126489397
 21
316.2120443531388
 31
0.0
  0
LINE
  5
307
102
{ACAD_REACTORS
330
3AE
330
3AF
102
}
330
71
100
AcDbEntity
  8
0
  6
Continuous
 62
     2
100
AcDbLine
 10
142.2048126489397
 20
316.2120443531388
 30
0.0
 11
143.0159116864123
 21
316.2120443531388
 31
0.0
  0
LINE
  5
308
102
{ACAD_REACTORS
330
3AE
330
3AF
102
}
330
71
100
AcDbEntity
  8
0
  6
Continuous
 62
     2
100
AcDbLine
 10
143.0159116864123
 20
316.2120443531388
 30
0.0
 11
143.0159116864123
 21
316.9973096592625
 31
0.0
  0
LINE
  5
309
102
{ACAD_REACTORS
330
3AE
330
3AF
102
}
330
71
100
AcDbEntity
  8
0
  6
Continuous
 62
     2
100
AcDbLine
 10
143.0159116864123
 20
316.9973096592625
 30
0.0
 11
140.2009209092986
 21
316.9973096592625
 31
0.0
  0
LINE
  5
30A
102
{ACAD_REACTORS
330
3AE
330
3AF
102
}
330
71
100
AcDbEntity
  8
0
  6
Continuous
 62
     2
100
AcDbLine
 10
140.2009209092986
 20
316.2120443531388
 30
0.0
 11
141.0120199467733
 21
316.2120443531388
 31
0.0
  0
LINE
  5
30B
102
{ACAD_REACTORS
330
3AC
330
3AD
102
}
330
71
100
AcDbEntity
  8
0
  6
Continuous
 62
     2
100
AcDbLine
 10
143.8104175122096
 20
314.4844606796692
 30
0.0
 11
144.9428590888835
 21
314.4844606796692
 31
0.0
  0
LINE
  5
30C
102
{ACAD_REACTORS
330
3AC
330
3AD
102
}
330
71
100
AcDbEntity
  8
0
  6
Continuous
 62
     2
100
AcDbLine
 10
146.3948435526132
 20
313.9435001354514
 30
0.0
 11
145.1543391423593
 21
313.9435001354514
 31
0.0
  0
LINE
  5
30D
102
{ACAD_REACTORS
330
3AC
330
3AD
102
}
330
71
100
AcDbEntity
  8
0
  6
Continuous
 62
     2
100
AcDbLine
 10
143.7563860954201
 20
316.9973096592625
 30
0.0
 11
142.3584330484809
 21
313.9435001354514
 31
0.0
  0
LINE
  5
30E
102
{ACAD_REACTORS
330
3AC
330
3AD
102
}
330
71
100
AcDbEntity
  8
0
  6
Continuous
 62
     2
100
AcDbLine
 10
143.5989374587338
 20
313.9435001354514
 30
0.0
 11
143.8104175122096
 21
314.4844606796692
 31
0.0
  0
LINE
  5
30F
102
{ACAD_REACTORS
330
3AC
330
3AD
102
}
330
71
100
AcDbEntity
  8
0
  6
Continuous
 62
     2
100
AcDbLine
 10
144.0764730633547
 20
315.1650239449758
 30
0.0
 11
144.376638300547
 21
315.9328389109625
 31
0.0
  0
LINE
  5
310
102
{ACAD_REACTORS
330
3AA
330
3AB
102
}
330
71
100
AcDbEntity
  8
0
  6
Continuous
 62
     2
100
AcDbLine
 10
145.5447831458923
 20
317.3026906116257
 30
0.0
 11
145.5447831458923
 21
320.3565001354368
 31
0.0
  0
LINE
  5
311
102
{ACAD_REACTORS
330
3AA
330
3AB
102
}
330
71
100
AcDbEntity
  8
0
  6
Continuous
 62
     2
100
AcDbLine
 10
146.7852875561452
 20
320.3565001354368
 30
0.0
 11
146.7852875561452
 21
317.3026906116257
 31
0.0
  0
LINE
  5
312
102
{ACAD_REACTORS
330
3AA
330
3AB
102
}
330
71
100
AcDbEntity
  8
0
  6
Continuous
 62
     2
100
AcDbLine
 10
145.5447831458923
 20
320.3565001354368
 30
0.0
 11
146.7852875561452
 21
320.3565001354368
 31
0.0
  0
LINE
  5
313
102
{ACAD_REACTORS
330
3A8
330
3A9
102
}
330
71
100
AcDbEntity
  8
0
  6
Continuous
 62
     2
100
AcDbLine
 10
149.003881982176
 20
318.0904223969194
 30
0.0
 11
149.7004729202414
 21
317.3026906116257
 31
0.0
  0
LINE
  5
314
102
{ACAD_REACTORS
330
3A8
330
3A9
102
}
330
71
100
AcDbEntity
  8
0
  6
Continuous
 62
     2
100
AcDbLine
 10
149.7004729202414
 20
317.3026906116257
 30
0.0
 11
151.1031971379897
 21
317.3026906116257
 31
0.0
  0
LINE
  5
315
102
{ACAD_REACTORS
330
3A8
330
3A9
102
}
330
71
100
AcDbEntity
  8
0
  6
Continuous
 62
     2
100
AcDbLine
 10
149.7052440910494
 20
318.8835496054006
 30
0.0
 11
151.1031971379897
 21
317.3026906116257
 31
0.0
  0
LINE
  5
316
102
{ACAD_REACTORS
330
3A8
330
3A9
102
}
330
71
100
AcDbEntity
  8
0
  6
Continuous
 62
     2
100
AcDbLine
 10
149.7052440910494
 20
318.8835496054006
 30
0.0
 11
151.007773721816
 21
320.3565001354368
 31
0.0
  0
LINE
  5
317
102
{ACAD_REACTORS
330
3A8
330
3A9
102
}
330
71
100
AcDbEntity
  8
0
  6
Continuous
 62
     2
100
AcDbLine
 10
149.003881982176
 20
319.6766768138813
 30
0.0
 11
149.6050495040688
 21
320.3565001354368
 31
0.0
  0
LINE
  5
318
102
{ACAD_REACTORS
330
3A8
330
3A9
102
}
330
71
100
AcDbEntity
  8
0
  6
Continuous
 62
     2
100
AcDbLine
 10
148.4027144602841
 20
320.3565001354368
 30
0.0
 11
149.003881982176
 21
319.6766768138813
 31
0.0
  0
LINE
  5
319
102
{ACAD_REACTORS
330
3A8
330
3A9
102
}
330
71
100
AcDbEntity
  8
0
  6
Continuous
 62
     2
100
AcDbLine
 10
148.4027144602841
 20
320.3565001354368
 30
0.0
 11
146.9999902425349
 21
320.3565001354368
 31
0.0
  0
LINE
  5
31A
102
{ACAD_REACTORS
330
39E
330
39F
102
}
330
71
100
AcDbEntity
  8
0
  6
Continuous
 62
     2
100
AcDbLine
 10
149.0993053983486
 20
313.9435001354514
 30
0.0
 11
150.2920981005163
 21
313.9435001354514
 31
0.0
  0
LINE
  5
31B
102
{ACAD_REACTORS
330
39E
330
39F
102
}
330
71
100
AcDbEntity
  8
0
  6
Continuous
 62
     2
100
AcDbLine
 10
150.2920981005163
 20
313.9435001354514
 30
0.0
 11
150.2920981005163
 21
316.2120443531388
 31
0.0
  0
LINE
  5
31C
102
{ACAD_REACTORS
330
39E
330
39F
102
}
330
71
100
AcDbEntity
  8
0
  6
Continuous
 62
     2
100
AcDbLine
 10
150.2920981005163
 20
316.2120443531388
 30
0.0
 11
151.1031971379897
 21
316.2120443531388
 31
0.0
  0
LINE
  5
31D
102
{ACAD_REACTORS
330
39E
330
39F
102
}
330
71
100
AcDbEntity
  8
0
  6
Continuous
 62
     2
100
AcDbLine
 10
151.1031971379897
 20
316.2120443531388
 30
0.0
 11
151.1031971379897
 21
316.9973096592625
 31
0.0
  0
LINE
  5
31E
102
{ACAD_REACTORS
330
39E
330
39F
102
}
330
71
100
AcDbEntity
  8
0
  6
Continuous
 62
     2
100
AcDbLine
 10
147.7182516193611
 20
316.9973096592619
 30
0.0
 11
151.1031971379897
 21
316.9973096592625
 31
0.0
  0
LINE
  5
31F
102
{ACAD_REACTORS
330
39E
330
39F
102
}
330
71
100
AcDbEntity
  8
0
  6
Continuous
 62
     2
100
AcDbLine
 10
149.0993053983486
 20
316.2120443531388
 30
0.0
 11
149.0993053983486
 21
313.9435001354514
 31
0.0
  0
LINE
  5
320
102
{ACAD_REACTORS
330
3A0
330
3A1
102
}
330
71
100
AcDbEntity
  8
0
  6
Continuous
 62
     2
100
AcDbLine
 10
126.4698189628695
 20
315.9223802850159
 30
0.0
 11
126.4698189628695
 21
316.504231691711
 31
0.0
  0
LINE
  5
321
102
{ACAD_REACTORS
330
3A0
330
3A1
102
}
330
71
100
AcDbEntity
  8
0
  6
Continuous
 62
     2
100
AcDbLine
 10
126.4698189628695
 20
318.7225148916471
 30
0.0
 11
126.4698189628695
 21
319.3280501801539
 31
0.0
  0
LINE
  5
322
330
71
100
AcDbEntity
  8
1
  6
Continuous
 62
     6
100
AcDbLine
 10
204.9999975474726
 20
306.6500001354351
 30
0.0
 11
248.4999975474726
 21
306.6500001354351
 31
0.0
  0
LINE
  5
323
330
71
100
AcDbEntity
  8
1
  6
Continuous
 62
     6
100
AcDbLine
 10
154.9999975474726
 20
306.6500001354351
 30
0.0
 11
137.1551930207226
 21
306.6500001354351
 31
0.0
  0
LINE
  5
324
330
71
100
AcDbEntity
  8
1
  6
Continuous
 62
     6
100
AcDbLine
 10
118.9551930207227
 20
323.650000135435
 30
0.0
 11
155.3551930207226
 21
323.650000135435
 31
0.0
  0
LINE
  5
325
330
71
100
AcDbEntity
  8
1
  6
Continuous
 62
     6
100
AcDbLine
 10
248.4999975474726
 20
306.6500001354351
 30
0.0
 11
248.4999975474739
 21
315.150000135435
 31
0.0
  0
LINE
  5
326
330
71
100
AcDbEntity
  8
1
  6
Continuous
 62
     6
100
AcDbLine
 10
155.3551930207226
 20
306.650000135435
 30
0.0
 11
204.9999975474726
 21
306.6500001354351
 31
0.0
  0
LINE
  5
327
330
71
100
AcDbEntity
  8
1
  6
Continuous
 62
     7
100
AcDbLine
 10
118.9551930207227
 20
323.650000135435
 30
0.0
 11
118.9551930207227
 21
310.900000135435
 31
0.0
  0
LINE
  5
328
330
71
100
AcDbEntity
  8
1
  6
Continuous
 62
     7
100
AcDbLine
 10
155.3551930207226
 20
323.650000135435
 30
0.0
 11
155.3551930207226
 21
310.9000001354351
 31
0.0
  0
LINE
  5
329
330
71
100
AcDbEntity
  8
1
  6
Continuous
 62
     6
100
AcDbLine
 10
155.3551930207226
 20
306.650000135435
 30
0.0
 11
154.9999975474726
 21
306.6500001354351
 31
0.0
  0
LINE
  5
32A
330
71
100
AcDbEntity
  8
1
  6
Continuous
 62
     6
100
AcDbLine
 10
248.4999975474744
 20
323.650000135435
 30
0.0
 11
248.4999975474739
 21
315.150000135435
 31
0.0
  0
LINE
  5
32B
330
71
100
AcDbEntity
  8
1
  6
Continuous
 62
     2
100
AcDbLine
 10
123.1918479072852
 20
329.0250001354349
 30
0.0
 11
128.1918479072852
 21
330.2750001354349
 31
0.0
  0
LINE
  5
32C
330
71
100
AcDbEntity
  8
1
  6
Continuous
 62
     2
100
AcDbLine
 10
123.1918479072852
 20
326.5250001354349
 30
0.0
 11
123.1918479072852
 21
329.0250001354349
 31
0.0
  0
LINE
  5
32D
330
71
100
AcDbEntity
  8
1
  6
Continuous
 62
     2
100
AcDbLine
 10
128.1918479072852
 20
325.2750001354349
 30
0.0
 11
123.1918479072852
 21
326.5250001354349
 31
0.0
  0
LINE
  5
32E
330
71
100
AcDbEntity
  8
1
  6
Continuous
 62
     2
100
AcDbLine
 10
128.1918479072852
 20
330.2750001354349
 30
0.0
 11
128.1918479072852
 21
325.2750001354349
 31
0.0
  0
LINE
  5
32F
330
71
100
AcDbEntity
  8
1
  6
Continuous
 62
     7
100
AcDbLine
 10
118.9551930207227
 20
310.900000135435
 30
0.0
 11
137.1551930207226
 21
310.9000001354351
 31
0.0
  0
LINE
  5
330
330
71
100
AcDbEntity
  8
1
  6
Continuous
 62
     7
100
AcDbLine
 10
118.9551930207227
 20
310.900000135435
 30
0.0
 11
118.9551930207227
 21
306.650000135435
 31
0.0
  0
LINE
  5
331
330
71
100
AcDbEntity
  8
1
  6
Continuous
 62
     7
100
AcDbLine
 10
155.3551930207226
 20
310.9000001354351
 30
0.0
 11
155.3551930207226
 21
306.650000135435
 31
0.0
  0
LINE
  5
332
330
71
100
AcDbEntity
  8
1
  6
Continuous
 62
     7
100
AcDbLine
 10
137.1551930207226
 20
310.9000001354351
 30
0.0
 11
137.1551930207226
 21
306.6500001354351
 31
0.0
  0
LINE
  5
333
330
71
100
AcDbEntity
  8
1
  6
Continuous
 62
     6
100
AcDbLine
 10
137.1551930207226
 20
306.6500001354351
 30
0.0
 11
118.9551930207227
 21
306.650000135435
 31
0.0
  0
LINE
  5
334
330
71
100
AcDbEntity
  8
1
  6
Continuous
 62
     7
100
AcDbLine
 10
137.1551930207226
 20
310.9000001354351
 30
0.0
 11
155.3551930207226
 21
310.9000001354351
 31
0.0
  0
LINE
  5
335
330
71
100
AcDbEntity
  8
1
  6
Continuous
 62
     6
100
AcDbLine
 10
118.9551930207227
 20
332.150000135435
 30
0.0
 11
248.4999975474744
 21
332.150000135435
 31
0.0
  0
LINE
  5
336
330
71
100
AcDbEntity
  8
1
  6
PHANTOM
 62
     2
100
AcDbLine
 10
134.4418479072852
 20
327.7750001354349
 30
0.0
 11
128.9418479072852
 21
327.7750001354349
 31
0.0
  0
LINE
  5
337
330
71
100
AcDbEntity
  8
1
  6
PHANTOM
 62
     2
100
AcDbLine
 10
131.6918479072852
 20
330.525000135435
 30
0.0
 11
131.6918479072852
 21
325.025000135435
 31
0.0
  0
LINE
  5
338
330
71
100
AcDbEntity
  8
1
  6
DOT_CENTER
 62
     2
100
AcDbLine
 10
122.9418479072852
 20
327.7750001354349
 30
0.0
 11
128.4418479072852
 21
327.7750001354349
 31
0.0
  0
ARC
  5
339
102
{ACAD_REACTORS
330
3A4
330
3A5
102
}
330
71
100
AcDbEntity
  8
0
  6
Continuous
 62
     2
100
AcDbCircle
 10
134.3468410196827
 20
315.4704048973566
 30
0.0
 40
0.7717997786795702
100
AcDbArc
 50
321.8795802028399
 51
38.12041979716347
  0
ARC
  5
33A
102
{ACAD_REACTORS
330
3A4
330
3A5
102
}
330
71
100
AcDbEntity
  8
0
  6
Continuous
 62
     2
100
AcDbCircle
 10
134.5465810560291
 20
315.3136737192367
 30
0.0
 40
0.5179085730138424
100
AcDbArc
 50
218.1204197971879
 51
321.8795802027908
  0
ARC
  5
33B
102
{ACAD_REACTORS
330
3A4
330
3A5
102
}
330
71
100
AcDbEntity
  8
0
  6
Continuous
 62
     2
100
AcDbCircle
 10
134.7463210923751
 20
315.4704048973566
 30
0.0
 40
0.7717997786795159
100
AcDbArc
 50
141.8795802028313
 51
218.1204197971654
  0
ARC
  5
33C
102
{ACAD_REACTORS
330
3A4
330
3A5
102
}
330
71
100
AcDbEntity
  8
0
  6
Continuous
 62
     2
100
AcDbCircle
 10
134.5465810560291
 20
315.6271360754771
 30
0.0
 40
0.5179085730132806
100
AcDbArc
 50
38.12041979716469
 51
141.8795802028567
  0
ARC
  5
33D
102
{ACAD_REACTORS
330
39C
330
39D
102
}
330
71
100
AcDbEntity
  8
0
  6
Continuous
 62
     2
100
AcDbCircle
 10
131.4845669204651
 20
314.0599385319485
 30
0.0
 40
2.227384008973465
100
AcDbArc
 50
58.06909105003707
 51
71.55192388186745
  0
ARC
  5
33E
102
{ACAD_REACTORS
330
39C
330
39D
102
}
330
71
100
AcDbEntity
  8
0
  6
Continuous
 62
     2
100
AcDbCircle
 10
131.7462946214239
 20
315.6754763266957
 30
0.0
 40
0.5115800601948814
100
AcDbArc
 50
113.372277888192
 51
151.4785267423116
  0
ARC
  5
33F
102
{ACAD_REACTORS
330
39C
330
39D
102
}
330
71
100
AcDbEntity
  8
0
  6
Continuous
 62
     2
100
AcDbCircle
 10
132.1236518795043
 20
315.4704048973566
 30
0.0
 40
0.9410597353333544
100
AcDbArc
 50
151.4785267422702
 51
208.5214732576994
  0
ARC
  5
340
102
{ACAD_REACTORS
330
39C
330
39D
102
}
330
71
100
AcDbEntity
  8
0
  6
Continuous
 62
     2
100
AcDbCircle
 10
131.3266940453723
 20
318.7830858426131
 30
0.0
 40
4.852596863498215
100
AcDbArc
 50
275.1581447696238
 51
285.9799912583526
  0
ARC
  5
341
102
{ACAD_REACTORS
330
39C
330
39D
102
}
330
71
100
AcDbEntity
  8
0
  6
Continuous
 62
     2
100
AcDbCircle
 10
131.6155501401082
 20
315.5831952593915
 30
0.0
 40
1.639695123939437
100
AcDbArc
 50
195.0618917770922
 51
275.1581447696363
  0
ARC
  5
342
102
{ACAD_REACTORS
330
39C
330
39D
102
}
330
71
100
AcDbEntity
  8
0
  6
Continuous
 62
     2
100
AcDbCircle
 10
131.1964222966454
 20
315.4704048973566
 30
0.0
 40
1.205656168390957
100
AcDbArc
 50
164.9381082228794
 51
195.0618917770945
  0
ARC
  5
343
102
{ACAD_REACTORS
330
39C
330
39D
102
}
330
71
100
AcDbEntity
  8
0
  6
Continuous
 62
     2
100
AcDbCircle
 10
131.6155501401082
 20
315.3576145353218
 30
0.0
 40
1.639695123940499
100
AcDbArc
 50
84.84185523036533
 51
164.9381082228905
  0
ARC
  5
344
102
{ACAD_REACTORS
330
3A0
330
3A1
102
}
330
71
100
AcDbEntity
  8
0
  6
Continuous
 62
     2
100
AcDbCircle
 10
126.7855358859463
 20
316.504231691711
 30
0.0
 40
0.3157169230764875
100
AcDbArc
 50
115.3740086783586
 51
180.0
  0
ARC
  5
345
102
{ACAD_REACTORS
330
3A0
330
3A1
102
}
330
71
100
AcDbEntity
  8
0
  6
Continuous
 62
     2
100
AcDbCircle
 10
126.7855358859463
 20
318.7225148916471
 30
0.0
 40
0.3157169230768062
100
AcDbArc
 50
180.0
 51
244.625991321637
  0
ARC
  5
346
102
{ACAD_REACTORS
330
3A0
330
3A1
102
}
330
71
100
AcDbEntity
  8
0
  6
Continuous
 62
     2
100
AcDbCircle
 10
126.7911520212563
 20
317.6252152325849
 30
0.0
 40
2.018561131933209
100
AcDbArc
 50
269.8110329575834
 51
90.18896704241658
  0
ARC
  5
347
102
{ACAD_REACTORS
330
3A0
330
3A1
102
}
330
71
100
AcDbEntity
  8
0
  6
Continuous
 62
     2
100
AcDbCircle
 10
126.7855358859463
 20
315.9223802850159
 30
0.0
 40
0.3157169230768062
100
AcDbArc
 50
180.0
 51
269.8110329574335
  0
ARC
  5
348
102
{ACAD_REACTORS
330
39E
330
39F
102
}
330
71
100
AcDbEntity
  8
0
  6
Continuous
 62
     2
100
AcDbCircle
 10
147.8489961006768
 20
315.6754763266957
 30
0.0
 40
0.511580060194468
100
AcDbArc
 50
109.3371432194832
 51
151.4785267424197
  0
ARC
  5
349
102
{ACAD_REACTORS
330
39E
330
39F
102
}
330
71
100
AcDbEntity
  8
0
  6
Continuous
 62
     2
100
AcDbCircle
 10
147.8489961006768
 20
315.2653334680181
 30
0.0
 40
0.5115800601960215
100
AcDbArc
 50
208.5214732576866
 51
246.6277221118424
  0
ARC
  5
34A
102
{ACAD_REACTORS
330
39E
330
39F
102
}
330
71
100
AcDbEntity
  8
0
  6
Continuous
 62
     2
100
AcDbCircle
 10
147.2991237758994
 20
315.4704048973566
 30
0.0
 40
1.205656168392988
100
AcDbArc
 50
164.9381082229054
 51
195.061891777092
  0
ARC
  5
34B
102
{ACAD_REACTORS
330
39E
330
39F
102
}
330
71
100
AcDbEntity
  8
0
  6
Continuous
 62
     2
100
AcDbCircle
 10
147.7182516193611
 20
315.3576145353218
 30
0.0
 40
1.639695123940101
100
AcDbArc
 50
90.0
 51
164.9381082228996
  0
ARC
  5
34C
102
{ACAD_REACTORS
330
3A2
330
3A3
102
}
330
71
100
AcDbEntity
  8
0
  6
Continuous
 62
     2
100
AcDbCircle
 10
138.2912565266574
 20
318.829595373531
 30
0.0
 40
1.526904761905826
100
AcDbArc
 50
90.0
 51
270.0
  0
ARC
  5
34D
102
{ACAD_REACTORS
330
3A6
330
3A7
102
}
330
71
100
AcDbEntity
  8
0
  6
Continuous
 62
     2
100
AcDbCircle
 10
131.5485657814316
 20
319.3405304653256
 30
0.0
 40
0.3528638246711466
100
AcDbArc
 50
270.0
 51
90.0
  0
ARC
  5
34E
102
{ACAD_REACTORS
330
3A0
330
3A1
102
}
330
71
100
AcDbEntity
  8
0
  6
Continuous
 62
     2
100
AcDbCircle
 10
124.2099871994145
 20
319.3282276568021
 30
0.0
 40
0.3157169230761383
100
AcDbArc
 50
90.0
 51
180.0
  0
ARC
  5
34F
102
{ACAD_REACTORS
330
3A0
330
3A1
102
}
330
71
100
AcDbEntity
  8
0
  6
Continuous
 62
     2
100
AcDbCircle
 10
126.2084049079991
 20
317.6133732916793
 30
0.0
 40
0.9118975235576555
100
AcDbArc
 50
115.1944106485211
 51
244.8055893514895
  0
ARC
  5
350
102
{ACAD_REACTORS
330
3A0
330
3A1
102
}
330
71
100
AcDbEntity
  8
0
  6
Continuous
 62
     2
100
AcDbCircle
 10
125.6858204604241
 20
316.5025435456166
 30
0.0
 40
0.3157169230766073
100
AcDbArc
 50
0.0
 51
64.80558935144394
  0
ARC
  5
351
102
{ACAD_REACTORS
330
3A0
330
3A1
102
}
330
71
100
AcDbEntity
  8
0
  6
Continuous
 62
     2
100
AcDbCircle
 10
123.616092522668
 20
314.3677447508346
 30
0.0
 40
0.4242446153828041
100
AcDbArc
 50
180.0
 51
270.0
  0
ARC
  5
352
102
{ACAD_REACTORS
330
3A2
330
3A3
102
}
330
71
100
AcDbEntity
  8
0
  6
Continuous
 62
     2
100
AcDbCircle
 10
138.5075285368226
 20
318.9863265516515
 30
0.0
 40
0.517908573013402
100
AcDbArc
 50
38.12041979714616
 51
141.8795802028616
  0
ARC
  5
353
102
{ACAD_REACTORS
330
3A2
330
3A3
102
}
330
71
100
AcDbEntity
  8
0
  6
Continuous
 62
     2
100
AcDbCircle
 10
138.7072685731688
 20
318.829595373531
 30
0.0
 40
0.7717997786796373
100
AcDbArc
 50
141.8795802028438
 51
218.1204197971529
  0
ARC
  5
354
102
{ACAD_REACTORS
330
3A4
330
3A5
102
}
330
71
100
AcDbEntity
  8
0
  6
Continuous
 62
     2
100
AcDbCircle
 10
134.5465810560291
 20
316.00897990766
 30
0.0
 40
2.065479772208637
100
AcDbArc
 50
242.4518518243384
 51
297.548148175686
  0
ARC
  5
355
102
{ACAD_REACTORS
330
3A4
330
3A5
102
}
330
71
100
AcDbEntity
  8
0
  6
Continuous
 62
     2
100
AcDbCircle
 10
134.5465810560291
 20
314.9318298870538
 30
0.0
 40
2.065479772208644
100
AcDbArc
 50
62.45185182430745
 51
117.5481481756681
  0
ARC
  5
356
102
{ACAD_REACTORS
330
3A4
330
3A5
102
}
330
71
100
AcDbEntity
  8
0
  6
Continuous
 62
     2
100
AcDbCircle
 10
134.2656411641957
 20
315.4704048973566
 30
0.0
 40
1.458034083651566
100
AcDbArc
 50
117.5481481756609
 51
242.451851824338
  0
ARC
  5
357
102
{ACAD_REACTORS
330
3A4
330
3A5
102
}
330
71
100
AcDbEntity
  8
0
  6
Continuous
 62
     2
100
AcDbCircle
 10
134.8275209478623
 20
315.4704048973566
 30
0.0
 40
1.458034083652081
100
AcDbArc
 50
297.5481481757045
 51
62.45185182429653
  0
ARC
  5
358
102
{ACAD_REACTORS
330
3A2
330
3A3
102
}
330
71
100
AcDbEntity
  8
0
  6
Continuous
 62
     2
100
AcDbCircle
 10
138.5075285368226
 20
318.6728641954105
 30
0.0
 40
0.5179085730134564
100
AcDbArc
 50
218.1204197971334
 51
321.8795802028588
  0
ARC
  5
359
102
{ACAD_REACTORS
330
3A2
330
3A3
102
}
330
71
100
AcDbEntity
  8
0
  6
Continuous
 62
     2
100
AcDbCircle
 10
138.3077885004764
 20
318.829595373531
 30
0.0
 40
0.7717997786795351
100
AcDbArc
 50
321.8795802028432
 51
38.12041979716016
  0
ARC
  5
35A
102
{ACAD_REACTORS
330
3A0
330
3A1
102
}
330
71
100
AcDbEntity
  8
0
  6
Continuous
 62
     2
100
AcDbCircle
 10
129.0894046133849
 20
314.3677447508346
 30
0.0
 40
0.424244615383202
100
AcDbArc
 50
270.0
 51
0.0
  0
ARC
  5
35B
102
{ACAD_REACTORS
330
3A0
330
3A1
102
}
330
71
100
AcDbEntity
  8
0
  6
Continuous
 62
     2
100
AcDbCircle
 10
129.0894046133849
 20
319.9322555200348
 30
0.0
 40
0.4242446153839126
100
AcDbArc
 50
0.0
 51
90.0
  0
ARC
  5
35C
102
{ACAD_REACTORS
330
3A0
330
3A1
102
}
330
71
100
AcDbEntity
  8
0
  6
Continuous
 62
     2
100
AcDbCircle
 10
123.616092522668
 20
319.9322555200348
 30
0.0
 40
0.4242446153838841
100
AcDbArc
 50
90.0
 51
180.0
  0
ARC
  5
35D
102
{ACAD_REACTORS
330
3A0
330
3A1
102
}
330
71
100
AcDbEntity
  8
0
  6
Continuous
 62
     2
100
AcDbCircle
 10
125.6858204604241
 20
314.971772614085
 30
0.0
 40
0.3157169230767067
100
AcDbArc
 50
270.0
 51
0.0
  0
ARC
  5
35E
102
{ACAD_REACTORS
330
3A0
330
3A1
102
}
330
71
100
AcDbEntity
  8
0
  6
Continuous
 62
     2
100
AcDbCircle
 10
125.6858204604241
 20
318.7242030377415
 30
0.0
 40
0.3157169230761112
100
AcDbArc
 50
295.1944106485604
 51
0.0
  0
ARC
  5
35F
102
{ACAD_REACTORS
330
3A0
330
3A1
102
}
330
71
100
AcDbEntity
  8
0
  6
Continuous
 62
     2
100
AcDbCircle
 10
125.6858204604241
 20
319.3282276568021
 30
0.0
 40
0.3157169230766073
100
AcDbArc
 50
0.0
 51
90.0
  0
ARC
  5
360
102
{ACAD_REACTORS
330
3A0
330
3A1
102
}
330
71
100
AcDbEntity
  8
0
  6
Continuous
 62
     2
100
AcDbCircle
 10
124.2099871994145
 20
314.971772614085
 30
0.0
 40
0.3157169230755983
100
AcDbArc
 50
180.0
 51
270.0
  0
ARC
  5
361
102
{ACAD_REACTORS
330
3A6
330
3A7
102
}
330
71
100
AcDbEntity
  8
0
  6
Continuous
 62
     2
100
AcDbCircle
 10
131.99003830767
 20
319.3011344941031
 30
0.0
 40
1.055365641333708
100
AcDbArc
 50
270.0
 51
90.0
  0
ARC
  5
362
102
{ACAD_REACTORS
330
39E
330
39F
102
}
330
71
100
AcDbEntity
  8
0
  6
Continuous
 62
     2
100
AcDbCircle
 10
147.7182516193611
 20
315.5831952593915
 30
0.0
 40
1.639695123940531
100
AcDbArc
 50
195.0618917771004
 51
275.1581447696762
  0
ARC
  5
363
102
{ACAD_REACTORS
330
39E
330
39F
102
}
330
71
100
AcDbEntity
  8
0
  6
Continuous
 62
     2
100
AcDbCircle
 10
147.4293955246252
 20
318.7830858426131
 30
0.0
 40
4.852596863498833
100
AcDbArc
 50
275.1581447696374
 51
285.9799912583388
  0
ARC
  5
364
102
{ACAD_REACTORS
330
39E
330
39F
102
}
330
71
100
AcDbEntity
  8
0
  6
Continuous
 62
     2
100
AcDbCircle
 10
147.587268399718
 20
316.8808712627648
 30
0.0
 40
2.227384008972773
100
AcDbArc
 50
288.4480761181333
 51
301.9309089499394
  0
ARC
  5
365
102
{ACAD_REACTORS
330
39E
330
39F
102
}
330
71
100
AcDbEntity
  8
0
  6
Continuous
 62
     2
100
AcDbCircle
 10
148.00543613338
 20
315.6273254867281
 30
0.0
 40
0.9059297849852617
100
AcDbArc
 50
246.6277221118119
 51
288.4480761180778
  0
ARC
  5
366
102
{ACAD_REACTORS
330
39E
330
39F
102
}
330
71
100
AcDbEntity
  8
0
  6
Continuous
 62
     2
100
AcDbCircle
 10
148.2263533587583
 20
315.4704048973566
 30
0.0
 40
0.941059735335033
100
AcDbArc
 50
151.4785267423612
 51
208.5214732576662
  0
ARC
  5
367
102
{ACAD_REACTORS
330
39E
330
39F
102
}
330
71
100
AcDbEntity
  8
0
  6
Continuous
 62
     2
100
AcDbCircle
 10
147.9956660987805
 20
315.2575213463127
 30
0.0
 40
0.9545230068260935
100
AcDbArc
 50
90.0
 51
109.3371432194297
  0
ARC
  5
368
102
{ACAD_REACTORS
330
3A0
330
3A1
102
}
330
71
100
AcDbEntity
  8
0
  6
Continuous
 62
     2
100
AcDbCircle
 10
126.7855358859463
 20
319.3280501801539
 30
0.0
 40
0.3157169230761283
100
AcDbArc
 50
90.18896704256652
 51
180.0
  0
ARC
  5
369
102
{ACAD_REACTORS
330
3A0
330
3A1
102
}
330
71
100
AcDbEntity
  8
0
  6
Continuous
 62
     2
100
AcDbCircle
 10
126.2594931878584
 20
317.6133732916793
 30
0.0
 40
0.911848150144388
100
AcDbArc
 50
295.3740086781796
 51
64.62599132180972
  0
ARC
  5
36A
102
{ACAD_REACTORS
330
39C
330
39D
102
}
330
71
100
AcDbEntity
  8
0
  6
Continuous
 62
     2
100
AcDbCircle
 10
131.4845669204651
 20
316.8808712627653
 30
0.0
 40
2.227384008972764
100
AcDbArc
 50
288.4480761181326
 51
301.9309089499629
  0
ARC
  5
36B
102
{ACAD_REACTORS
330
39C
330
39D
102
}
330
71
100
AcDbEntity
  8
0
  6
Continuous
 62
     2
100
AcDbCircle
 10
131.902734654126
 20
315.6273254867281
 30
0.0
 40
0.905929784984867
100
AcDbArc
 50
246.6277221118696
 51
288.4480761181528
  0
ARC
  5
36C
102
{ACAD_REACTORS
330
39C
330
39D
102
}
330
71
100
AcDbEntity
  8
0
  6
Continuous
 62
     2
100
AcDbCircle
 10
131.7462946214239
 20
315.2653334680181
 30
0.0
 40
0.5115800601948012
100
AcDbArc
 50
208.5214732576884
 51
246.6277221118307
  0
ARC
  5
36D
102
{ACAD_REACTORS
330
39C
330
39D
102
}
330
71
100
AcDbEntity
  8
0
  6
Continuous
 62
     2
100
AcDbCircle
 10
131.902734654126
 20
315.3134843079851
 30
0.0
 40
0.9059297849852959
100
AcDbArc
 50
71.55192388185858
 51
113.372277888129
  0
ARC
  5
36E
102
{ACAD_REACTORS
330
39C
330
39D
102
}
330
71
100
AcDbEntity
  8
0
  6
Continuous
 62
     2
100
AcDbCircle
 10
131.3266940453723
 20
312.1577239521008
 30
0.0
 40
4.852596863497986
100
AcDbArc
 50
74.0200087416471
 51
84.84185523037603
  0
CIRCLE
  5
36F
102
{ACAD_REACTORS
330
3A0
330
3A1
102
}
330
71
100
AcDbEntity
  8
0
  6
Continuous
 62
     2
100
AcDbCircle
 10
126.2356781731856
 20
317.6133732916793
 30
0.0
 40
0.4709789327784932
  0
CIRCLE
  5
370
330
71
100
AcDbEntity
  8
1
  6
Continuous
 62
     2
100
AcDbCircle
 10
131.6918479072852
 20
327.7750001354349
 30
0.0
 40
1.25
  0
CIRCLE
  5
371
330
71
100
AcDbEntity
  8
1
  6
Continuous
 62
     2
100
AcDbCircle
 10
131.6918479072852
 20
327.7750001354349
 30
0.0
 40
2.5
  0
TEXT
  5
372
330
71
100
AcDbEntity
  8
1
 62
     7
100
AcDbText
 10
213.1666642141393
 20
302.6500001354356
 30
0.0
 40
2.5
  1
6
 41
0.9
  7
CONVERTER_11
100
AcDbText
  0
TEXT
  5
373
330
71
100
AcDbEntity
  8
1
 62
     7
100
AcDbText
 10
144.8333308808058
 20
302.6500001354356
 30
0.0
 40
2.5
  1
5
 41
0.9
  7
CONVERTER_11
100
AcDbText
  0
TEXT
  5
374
330
71
100
AcDbEntity
  8
1
 62
     7
100
AcDbText
 10
76.49999754747262
 20
302.6500001354356
 30
0.0
 40
2.5
  1
4
 41
0.9
  7
CONVERTER_11
100
AcDbText
  0
TEXT
  5
375
330
71
100
AcDbEntity
  8
1
 62
     7
100
AcDbText
 10
8.16666421413953
 20
302.6500001354356
 30
0.0
 40
2.5
  1
3
 41
0.9
  7
CONVERTER_11
100
AcDbText
  0
TEXT
  5
376
330
71
100
AcDbEntity
  8
1
 62
     7
100
AcDbText
 10
249.4999975474726
 20
334.1500001354356
 30
0.0
 40
2.5
  1
E
 41
0.9
  7
CONVERTER_11
100
AcDbText
  0
TEXT
  5
377
330
71
100
AcDbEntity
  8
1
 62
     7
100
AcDbText
 10
-128.5000024525271
 20
302.6500001354356
 30
0.0
 40
2.5
  1
1
 41
0.9
  7
CONVERTER_11
100
AcDbText
  0
TEXT
  5
378
330
71
100
AcDbEntity
  8
1
 62
     7
100
AcDbText
 10
-60.16666911919401
 20
302.6500001354356
 30
0.0
 40
2.5
  1
2
 41
0.9
  7
CONVERTER_11
100
AcDbText
  0
TEXT
  5
379
330
71
100
AcDbEntity
  8
1
 62
     7
100
AcDbText
 10
249.4999975474726
 20
391.5500001354357
 30
0.0
 40
2.5
  1
D
 41
0.9
  7
CONVERTER_11
100
AcDbText
  0
TEXT
  5
37A
330
71
100
AcDbEntity
  8
1
 62
     7
100
AcDbText
 10
249.4999975474726
 20
448.9500001354357
 30
0.0
 40
2.5
  1
C
 41
0.9
  7
CONVERTER_11
100
AcDbText
  0
TEXT
  5
37B
330
71
100
AcDbEntity
  8
1
 62
     7
100
AcDbText
 10
249.4999975474726
 20
506.3500001354356
 30
0.0
 40
2.5
  1
B
 41
0.9
  7
CONVERTER_11
100
AcDbText
  0
TEXT
  5
37C
330
71
100
AcDbEntity
  8
1
 62
     7
100
AcDbText
 10
249.4999975474726
 20
563.7500001354355
 30
0.0
 40
2.5
  1
A
 41
0.9
  7
CONVERTER_11
100
AcDbText
  0
TEXT
  5
37D
330
71
100
AcDbEntity
  8
1
 62
     7
100
AcDbText
 10
213.1666642141393
 20
594.6500001354358
 30
0.0
 40
2.5
  1
6
 41
0.9
  7
CONVERTER_11
100
AcDbText
  0
TEXT
  5
37E
330
71
100
AcDbEntity
  8
1
 62
     7
100
AcDbText
 10
144.833330880806
 20
594.6500001354358
 30
0.0
 40
2.5
  1
5
 41
0.9
  7
CONVERTER_11
100
AcDbText
  0
TEXT
  5
37F
330
71
100
AcDbEntity
  8
1
 62
     7
100
AcDbText
 10
76.49999754747262
 20
594.6500001354358
 30
0.0
 40
2.5
  1
4
 41
0.9
  7
CONVERTER_11
100
AcDbText
  0
TEXT
  5
380
330
71
100
AcDbEntity
  8
1
 62
     7
100
AcDbText
 10
8.16666421413953
 20
594.6500001354358
 30
0.0
 40
2.5
  1
3
 41
0.9
  7
CONVERTER_11
100
AcDbText
  0
TEXT
  5
381
330
71
100
AcDbEntity
  8
1
 62
     7
100
AcDbText
 10
-60.16666911919401
 20
594.6500001354358
 30
0.0
 40
2.5
  1
2
 41
0.9
  7
CONVERTER_11
100
AcDbText
  0
TEXT
  5
382
330
71
100
AcDbEntity
  8
1
 62
     7
100
AcDbText
 10
-128.5000024525271
 20
594.6500001354358
 30
0.0
 40
2.5
  1
1
 41
0.9
  7
CONVERTER_11
100
AcDbText
  0
TEXT
  5
383
330
71
100
AcDbEntity
  8
1
 62
     7
100
AcDbText
 10
174.3287407427364
 20
324.950000135435
 30
0.0
 40
2.5
  1
/
 41
0.9
  7
CONVERTER_11
100
AcDbText
  0
TEXT
  5
385
330
71
100
AcDbEntity
  8
1
 62
     7
100
AcDbText
 10
176.4851052397784
 20
324.950000135435
 30
0.0
 40
2.5
  1
01
 41
0.81
  7
CONVERTER_12
100
AcDbText
  0
TEXT
  5
386
330
71
100
AcDbEntity
  8
1
 62
     3
100
AcDbText
 10
214.0815892657956
 20
324.950000135435
 30
0.0
 40
2.5
  1
29.01.2018
 41
0.81
  7
CONVERTER_12
100
AcDbText
  0
MTEXT
  5
387
330
71
100
AcDbEntity
  8
1
 62
     2
100
AcDbMText
 10
214.0815892657956
 20
331.150000135435
 30
0.0
 40
1.8
 41
0.0
 71
     1
 72
     1
  1
date
  7
CONVERTER_11
 73
     1
 44
1.32052821128451
  0
MTEXT
  5
388
330
71
100
AcDbEntity
  8
1
 62
     2
100
AcDbMText
 10
184.2551930207226
 20
322.650000135435
 30
0.0
 40
1.8
 41
0.0
 71
     1
 72
     1
  1
document-type
  7
CONVERTER_11
 73
     1
 44
1.20048019207683
  0
TEXT
  5
389
330
71
100
AcDbEntity
  8
1
 62
     3
100
AcDbText
 10
184.2551930207226
 20
316.450000135435
 30
0.0
 40
2.5
  1
TECDOC 2D_Productdrawing
 41
0.81
  7
CONVERTER_12
100
AcDbText
  0
MTEXT
  5
38B
330
71
100
AcDbEntity
  8
1
 62
     2
100
AcDbMText
 10
156.4551930207226
 20
331.150000135435
 30
0.0
 40
1.8
 41
0.0
 71
     1
 72
     1
  1
document-No. / RI
  7
CONVERTER_13
 73
     1
 44
1.32052821128451
  0
TEXT
  5
38C
330
71
100
AcDbEntity
  8
1
 62
     7
100
AcDbText
 10
156.4551930207226
 20
324.950000135435
 30
0.0
 40
2.5
  1
00320985
 41
0.81
  7
CONVERTER_12
100
AcDbText
  0
MTEXT
  5
38E
330
71
100
AcDbEntity
  8
1
 62
     3
100
AcDbMText
 10
244.0407934066349
 20
324.9500001354351
 30
0.0
 40
2.5
 41
0.0
 71
     8
 72
     1
  1
1:1
  7
CONVERTER_14
 73
     1
 44
1.32052821128451
  0
MTEXT
  5
38F
330
71
100
AcDbEntity
  8
1
 62
     2
100
AcDbMText
 10
240.6815892657954
 20
331.150000135435
 30
0.0
 40
1.8
 41
0.0
 71
     1
 72
     1
  1
scale
  7
CONVERTER_11
 73
     1
 44
1.20048019207683
  0
MTEXT
  5
390
330
71
100
AcDbEntity
  8
1
 62
     2
100
AcDbMText
 10
156.4551930207226
 20
322.650000135435
 30
0.0
 40
1.8
 41
0.0
 71
     1
 72
     1
  1
ident.-No.
  7
CONVERTER_11
 73
     1
 44
1.20048019207683
  0
TEXT
  5
391
330
71
100
AcDbEntity
  8
1
 62
     7
100
AcDbText
 10
156.8551930207224
 20
316.450000135435
 30
0.0
 40
2.5
  1
2856278
 41
0.81
  7
CONVERTER_12
100
AcDbText
  0
MTEXT
  5
392
330
71
100
AcDbEntity
  8
1
 62
     2
100
AcDbMText
 10
84.5441697515131
 20
319.4000001354338
 30
0.0
 40
2.0
 41
0.0
 71
     5
 72
     1
  1
General Information\P- Simplified representation\P- Document excluded from change process\P- Linear dimensions [mm]
  7
CONVERTER_11
 73
     1
 44
1.20048019207683
  0
MTEXT
  5
393
330
71
100
AcDbEntity
  8
1
 62
     3
100
AcDbMText
 10
145.1551930207226
 20
327.775000135435
 30
0.0
 40
2.5
 41
0.0
 71
     5
 72
     1
  1
DIN A3
  7
CONVERTER_11
 73
     1
 44
1.20048019207683
  0
MTEXT
  5
394
330
71
100
AcDbEntity
  8
1
 62
     2
100
AcDbMText
 10
156.3551930207226
 20
314.150000135435
 30
0.0
 40
1.8
 41
0.0
 71
     1
 72
     1
  1
description
  7
CONVERTER_11
 73
     1
 44
1.20048019207683
  0
MTEXT
  5
395
330
71
100
AcDbEntity
  8
1
 62
     7
100
AcDbMText
 10
201.9275952840981
 20
309.9000001354352
 30
0.0
 40
3.0
 41
0.0
 71
     5
 72
     1
  1
MPB 18/1- 7 BU
  7
CONVERTER_12
 73
     1
 44
1.20048019207683
  0
TEXT
  5
396
330
71
100
AcDbEntity
  8
1
 62
     2
100
AcDbText
 10
143.3905018305362
 20
307.900000135435
 30
0.0
 40
1.8
  1
1
 41
0.9
  7
CONVERTER_11
100
AcDbText
  0
TEXT
  5
397
330
71
100
AcDbEntity
  8
1
 62
     2
100
AcDbText
 10
128.6014579910647
 20
307.8507514816331
 30
0.0
 40
1.8
  1
1
 41
0.9
  7
CONVERTER_11
100
AcDbText
  0
TEXT
  5
398
330
71
100
AcDbEntity
  8
1
 62
     2
100
AcDbText
 10
119.9551930207227
 20
307.8909829204433
 30
0.0
 40
1.8
  1
page
 41
0.9
  7
CONVERTER_11
100
AcDbText
  0
TEXT
  5
399
330
71
100
AcDbEntity
  8
1
 62
     2
100
AcDbText
 10
138.1551930207225
 20
307.8909829204435
 30
0.0
 40
1.8
  1
of
 41
0.9
  7
CONVERTER_11
100
AcDbText
  0
MTEXT
  5
39A
330
71
100
AcDbEntity
  8
1
 62
     3
100
AcDbMText
 10
-148.2315354522681
 20
479.6362842490893
 30
0.0
 40
1.8
 41
0.0
 71
     7
 72
     1
  3
Transfer or duplication of this document as well as the utilisation or\Pcommunication of its content are not permitted unless express consent\Pis granted. Violations give rise to claims for damages. All rights reserved\Pin case of patent, utility mo
  1
del or design patent registrations.
  7
CONVERTER_11
 11
0.0
 21
1.0
 31
0.0
 73
     1
 44
0.99639855942377
  0
MTEXT
  5
39B
330
71
100
AcDbEntity
  8
1
 62
     3
100
AcDbMText
 10
-148.0773291411742
 20
306.6769142349362
 30
0.0
 40
1.8
 41
0.0
 71
     7
 72
     1
  3
Weitergabe sowie Vervielf\U+00e4ltigung dieses Dokuments, Verwertung und \PMitteilung seines Inhalts sind verboten, soweit nicht ausdr\U+00fccklich gestattet. \PZuwiderhandlungen verpflichten zu Schadenersatz. Alle Rechte f\U+00fcr den Fall\Pder Pat
  1
ent-, Gebrauchsmuster- oder Designeintragung vorbehalten.
  7
CONVERTER_11
 11
0.0
 21
1.0
 31
0.0
 73
     1
 44
0.99639855942377
  0
HATCH
  5
39C
330
71
100
AcDbEntity
  8
1
  6
Continuous
 62
     2
100
AcDbHatch
 10
0.0
 20
0.0
 30
0.0
210
0.0
220
0.0
230
1.0
  2
CUSTOM0
 70
     0
 71
     1
 91
        1
 92
        1
 93
       14
 72
     2
 10
131.1964222966454
 20
315.4704048973566
 40
1.205656168390957
 50
164.9381082228794
 51
195.0618917770945
 73
     1
 72
     2
 10
131.6155501401082
 20
315.5831952593915
 40
1.639695123939437
 50
195.0618917770922
 51
275.1581447696363
 73
     1
 72
     2
 10
131.3266940453723
 20
318.7830858426131
 40
4.852596863498215
 50
275.1581447696238
 51
285.9799912583526
 73
     1
 72
     1
 10
132.6626219624901
 20
314.1180035368122
 11
132.6626219624901
 21
314.9905205436155
 72
     2
 10
131.4845669204651
 20
316.8808712627653
 40
2.227384008972764
 50
58.06909105003709
 51
71.55192388186742
 73
     0
 72
     2
 10
131.902734654126
 20
315.6273254867281
 40
0.905929784984867
 50
71.55192388184723
 51
113.3722778881304
 73
     0
 72
     2
 10
131.7462946214239
 20
315.2653334680181
 40
0.5115800601948012
 50
113.3722778881693
 51
151.4785267423116
 73
     0
 72
     2
 10
132.1236518795043
 20
315.4704048973566
 40
0.9410597353333544
 50
151.4785267423006
 51
208.5214732577298
 73
     0
 72
     2
 10
131.7462946214239
 20
315.6754763266957
 40
0.5115800601948814
 50
208.5214732576884
 51
246.627722111808
 73
     0
 72
     2
 10
131.902734654126
 20
315.3134843079851
 40
0.9059297849852959
 50
246.627722111871
 51
288.4480761181414
 73
     0
 72
     2
 10
131.4845669204651
 20
314.0599385319485
 40
2.227384008973465
 50
288.4480761181326
 51
301.9309089499629
 73
     0
 72
     1
 10
132.6626219624901
 20
315.9502892510983
 11
132.6626219624901
 21
316.8228062579016
 72
     2
 10
131.3266940453723
 20
312.1577239521008
 40
4.852596863497986
 50
74.0200087416471
 51
84.84185523037603
 73
     1
 72
     2
 10
131.6155501401082
 20
315.3576145353218
 40
1.639695123940499
 50
84.84185523036533
 51
164.9381082228905
 73
     1
 97
       14
330
36E
330
2B7
330
33D
330
36D
330
33E
330
33F
330
36C
330
36B
330
36A
330
2B8
330
340
330
341
330
342
330
343
 75
     1
 76
     2
 52
45.0
 41
0.1
 77
     0
 78
     1
 53
45.0
 43
62.7811309658083
 44
-72.3161373035813
 45
-0.1414213562373095
 46
0.0
 79
     0
 98
        1
 10
0.0
 20
0.0
  0
HATCH
  5
39D
330
71
100
AcDbEntity
  8
1
  6
Continuous
 62
     2
100
AcDbHatch
 10
0.0
 20
0.0
 30
0.0
210
0.0
220
0.0
230
1.0
  2
CUSTOM1
 70
     0
 71
     1
 91
        1
 92
        1
 93
       14
 72
     2
 10
131.1964222966454
 20
315.4704048973566
 40
1.205656168390957
 50
164.9381082228794
 51
195.0618917770945
 73
     1
 72
     2
 10
131.6155501401082
 20
315.5831952593915
 40
1.639695123939437
 50
195.0618917770922
 51
275.1581447696363
 73
     1
 72
     2
 10
131.3266940453723
 20
318.7830858426131
 40
4.852596863498215
 50
275.1581447696238
 51
285.9799912583526
 73
     1
 72
     1
 10
132.6626219624901
 20
314.1180035368122
 11
132.6626219624901
 21
314.9905205436155
 72
     2
 10
131.4845669204651
 20
316.8808712627653
 40
2.227384008972764
 50
58.06909105003709
 51
71.55192388186742
 73
     0
 72
     2
 10
131.902734654126
 20
315.6273254867281
 40
0.905929784984867
 50
71.55192388184723
 51
113.3722778881304
 73
     0
 72
     2
 10
131.7462946214239
 20
315.2653334680181
 40
0.5115800601948012
 50
113.3722778881693
 51
151.4785267423116
 73
     0
 72
     2
 10
132.1236518795043
 20
315.4704048973566
 40
0.9410597353333544
 50
151.4785267423006
 51
208.5214732577298
 73
     0
 72
     2
 10
131.7462946214239
 20
315.6754763266957
 40
0.5115800601948814
 50
208.5214732576884
 51
246.627722111808
 73
     0
 72
     2
 10
131.902734654126
 20
315.3134843079851
 40
0.9059297849852959
 50
246.627722111871
 51
288.4480761181414
 73
     0
 72
     2
 10
131.4845669204651
 20
314.0599385319485
 40
2.227384008973465
 50
288.4480761181326
 51
301.9309089499629
 73
     0
 72
     1
 10
132.6626219624901
 20
315.9502892510983
 11
132.6626219624901
 21
316.8228062579016
 72
     2
 10
131.3266940453723
 20
312.1577239521008
 40
4.852596863497986
 50
74.0200087416471
 51
84.84185523037603
 73
     1
 72
     2
 10
131.6155501401082
 20
315.3576145353218
 40
1.639695123940499
 50
84.84185523036533
 51
164.9381082228905
 73
     1
 97
       14
330
36E
330
2B7
330
33D
330
36D
330
33E
330
33F
330
36C
330
36B
330
36A
330
2B8
330
340
330
341
330
342
330
343
 75
     1
 76
     2
 52
45.0
 41
0.1
 77
     0
 78
     1
 53
45.0
 43
62.7811309658083
 44
-72.3161373035813
 45
-0.1414213562373095
 46
0.0
 79
     0
 98
        1
 10
0.0
 20
0.0
  0
HATCH
  5
39E
330
71
100
AcDbEntity
  8
1
  6
Continuous
 62
     2
100
AcDbHatch
 10
0.0
 20
0.0
 30
0.0
210
0.0
220
0.0
230
1.0
  2
CUSTOM2
 70
     0
 71
     1
 91
        1
 92
        1
 93
       18
 72
     2
 10
147.7182516193611
 20
315.3576145353218
 40
1.639695123940101
 50
90.0
 51
164.9381082228996
 73
     1
 72
     2
 10
147.2991237758994
 20
315.4704048973566
 40
1.205656168392988
 50
164.9381082229054
 51
195.061891777092
 73
     1
 72
     2
 10
147.7182516193611
 20
315.5831952593915
 40
1.639695123940531
 50
195.0618917771004
 51
275.1581447696762
 73
     1
 72
     2
 10
147.4293955246252
 20
318.7830858426131
 40
4.852596863498833
 50
275.1581447696374
 51
285.9799912583388
 73
     1
 72
     1
 10
148.7653234417419
 20
314.1180035368117
 11
148.7653234417419
 21
314.990520543615
 72
     2
 10
147.587268399718
 20
316.8808712627648
 40
2.227384008972773
 50
58.06909105006066
 51
71.55192388186677
 73
     0
 72
     2
 10
148.00543613338
 20
315.6273254867281
 40
0.9059297849852617
 50
71.55192388192224
 51
113.3722778881881
 73
     0
 72
     2
 10
147.8489961006768
 20
315.2653334680181
 40
0.5115800601960215
 50
113.3722778881576
 51
151.4785267423134
 73
     0
 72
     2
 10
148.2263533587583
 20
315.4704048973566
 40
0.941059735335033
 50
151.4785267423338
 51
208.5214732576388
 73
     0
 72
     2
 10
147.8489961006768
 20
315.6754763266957
 40
0.511580060194468
 50
208.5214732575803
 51
250.6628567805169
 73
     0
 72
     2
 10
147.9956660987805
 20
315.2575213463127
 40
0.9545230068260935
 50
250.6628567805703
 51
270.0
 73
     0
 72
     1
 10
147.9956660987805
 20
316.2120443531388
 11
149.0993053983486
 21
316.2120443531388
 72
     1
 10
149.0993053983486
 20
316.2120443531388
 11
149.0993053983486
 21
313.9435001354514
 72
     1
 10
149.0993053983486
 20
313.9435001354514
 11
150.2920981005163
 21
313.9435001354514
 72
     1
 10
150.2920981005163
 20
313.9435001354514
 11
150.2920981005163
 21
316.2120443531388
 72
     1
 10
150.2920981005163
 20
316.2120443531388
 11
151.1031971379897
 21
316.2120443531388
 72
     1
 10
151.1031971379897
 20
316.2120443531388
 11
151.1031971379897
 21
316.9973096592625
 72
     1
 10
151.1031971379897
 20
316.9973096592625
 11
147.7182516193611
 21
316.9973096592619
 97
       18
330
31D
330
31C
330
31B
330
31A
330
31F
330
2B9
330
367
330
348
330
366
330
349
330
365
330
364
330
2BA
330
363
330
362
330
34A
330
34B
330
31E
 75
     1
 76
     2
 52
45.0
 41
0.1
 77
     0
 78
     1
 53
45.0
 43
62.7811309658083
 44
-72.3161373035813
 45
-0.1414213562373095
 46
0.0
 79
     0
 98
        1
 10
0.0
 20
0.0
  0
HATCH
  5
39F
330
71
100
AcDbEntity
  8
1
  6
Continuous
 62
     2
100
AcDbHatch
 10
0.0
 20
0.0
 30
0.0
210
0.0
220
0.0
230
1.0
  2
CUSTOM3
 70
     0
 71
     1
 91
        1
 92
        1
 93
       18
 72
     2
 10
147.7182516193611
 20
315.3576145353218
 40
1.639695123940101
 50
90.0
 51
164.9381082228996
 73
     1
 72
     2
 10
147.2991237758994
 20
315.4704048973566
 40
1.205656168392988
 50
164.9381082229054
 51
195.061891777092
 73
     1
 72
     2
 10
147.7182516193611
 20
315.5831952593915
 40
1.639695123940531
 50
195.0618917771004
 51
275.1581447696762
 73
     1
 72
     2
 10
147.4293955246252
 20
318.7830858426131
 40
4.852596863498833
 50
275.1581447696374
 51
285.9799912583388
 73
     1
 72
     1
 10
148.7653234417419
 20
314.1180035368117
 11
148.7653234417419
 21
314.990520543615
 72
     2
 10
147.587268399718
 20
316.8808712627648
 40
2.227384008972773
 50
58.06909105006066
 51
71.55192388186677
 73
     0
 72
     2
 10
148.00543613338
 20
315.6273254867281
 40
0.9059297849852617
 50
71.55192388192224
 51
113.3722778881881
 73
     0
 72
     2
 10
147.8489961006768
 20
315.2653334680181
 40
0.5115800601960215
 50
113.3722778881576
 51
151.4785267423134
 73
     0
 72
     2
 10
148.2263533587583
 20
315.4704048973566
 40
0.941059735335033
 50
151.4785267423338
 51
208.5214732576388
 73
     0
 72
     2
 10
147.8489961006768
 20
315.6754763266957
 40
0.511580060194468
 50
208.5214732575803
 51
250.6628567805169
 73
     0
 72
     2
 10
147.9956660987805
 20
315.2575213463127
 40
0.9545230068260935
 50
250.6628567805703
 51
270.0
 73
     0
 72
     1
 10
147.9956660987805
 20
316.2120443531388
 11
149.0993053983486
 21
316.2120443531388
 72
     1
 10
149.0993053983486
 20
316.2120443531388
 11
149.0993053983486
 21
313.9435001354514
 72
     1
 10
149.0993053983486
 20
313.9435001354514
 11
150.2920981005163
 21
313.9435001354514
 72
     1
 10
150.2920981005163
 20
313.9435001354514
 11
150.2920981005163
 21
316.2120443531388
 72
     1
 10
150.2920981005163
 20
316.2120443531388
 11
151.1031971379897
 21
316.2120443531388
 72
     1
 10
151.1031971379897
 20
316.2120443531388
 11
151.1031971379897
 21
316.9973096592625
 72
     1
 10
151.1031971379897
 20
316.9973096592625
 11
147.7182516193611
 21
316.9973096592619
 97
       18
330
31D
330
31C
330
31B
330
31A
330
31F
330
2B9
330
367
330
348
330
366
330
349
330
365
330
364
330
2BA
330
363
330
362
330
34A
330
34B
330
31E
 75
     1
 76
     2
 52
45.0
 41
0.1
 77
     0
 78
     1
 53
45.0
 43
62.7811309658083
 44
-72.3161373035813
 45
-0.1414213562373095
 46
0.0
 79
     0
 98
        1
 10
0.0
 20
0.0
  0
HATCH
  5
3A0
330
71
100
AcDbEntity
  8
1
  6
Continuous
 62
     2
100
AcDbHatch
 10
0.0
 20
0.0
 30
0.0
210
0.0
220
0.0
230
1.0
  2
CUSTOM4
 70
     0
 71
     1
 91
        4
 92
        1
 93
        8
 72
     2
 10
123.616092522668
 20
319.9322555200348
 40
0.4242446153838841
 50
90.0
 51
180.0
 73
     1
 72
     1
 10
123.1918479072852
 20
319.9322555200348
 11
123.1918479072852
 21
314.3677447508346
 72
     2
 10
123.616092522668
 20
314.3677447508346
 40
0.4242446153828041
 50
180.0
 51
270.0
 73
     1
 72
     1
 10
123.616092522668
 20
313.9435001354514
 11
129.0894046133849
 21
313.9435001354514
 72
     2
 10
129.0894046133849
 20
314.3677447508346
 40
0.424244615383202
 50
270.0
 51
360.0
 73
     1
 72
     1
 10
129.5136492287688
 20
314.3677447508346
 11
129.5136492287688
 21
319.9322555200348
 72
     2
 10
129.0894046133849
 20
319.9322555200348
 40
0.4242446153839126
 50
0.0
 51
90.0
 73
     1
 72
     1
 10
129.0894046133849
 20
320.3565001354187
 11
123.616092522668
 21
320.3565001354187
 97
        8
330
35B
330
2E8
330
35A
330
2E9
330
351
330
2E6
330
35C
330
2E7
 92
       16
 93
       12
 72
     1
 10
124.2099871994145
 20
314.6560556910083
 11
125.6858204604241
 21
314.6560556910083
 72
     2
 10
125.6858204604241
 20
314.971772614085
 40
0.3157169230767067
 50
270.0
 51
360.0
 73
     1
 72
     1
 10
126.0015373835007
 20
314.971772614085
 11
126.0015373835007
 21
316.5025435456166
 72
     2
 10
125.6858204604241
 20
316.5025435456166
 40
0.3157169230766073
 50
0.0
 51
64.80558935144394
 73
     1
 72
     2
 10
126.2084049079991
 20
317.6133732916793
 40
0.9118975235576555
 50
115.1944106485105
 51
244.8055893514789
 73
     0
 72
     2
 10
125.6858204604241
 20
318.7242030377415
 40
0.3157169230761112
 50
295.1944106485604
 51
360.0
 73
     1
 72
     1
 10
126.0015373835007
 20
318.7242030377415
 11
126.0015373835007
 21
319.3282276568021
 72
     2
 10
125.6858204604241
 20
319.3282276568021
 40
0.3157169230766073
 50
0.0
 51
90.0
 73
     1
 72
     1
 10
125.6858204604241
 20
319.6439445798782
 11
124.2099871994145
 21
319.6439445798782
 72
     2
 10
124.2099871994145
 20
319.3282276568021
 40
0.3157169230761383
 50
90.0
 51
180.0
 73
     1
 72
     1
 10
123.8942702763389
 20
319.3282276568021
 11
123.8942702763389
 21
314.971772614085
 72
     2
 10
124.2099871994145
 20
314.971772614085
 40
0.3157169230755983
 50
180.0
 51
270.0
 73
     1
 97
       12
330
2ED
330
34E
330
2EC
330
35F
330
2EB
330
35E
330
34F
330
350
330
2EA
330
35D
330
2E5
330
360
 92
       16
 93
        8
 72
     2
 10
126.2594931878584
 20
317.6133732916793
 40
0.911848150144388
 50
295.3740086781796
 51
424.6259913218097
 73
     1
 72
     2
 10
126.7855358859463
 20
318.7225148916471
 40
0.3157169230768062
 50
115.374008678363
 51
180.0
 73
     0
 72
     1
 10
126.4698189628695
 20
318.7225148916471
 11
126.4698189628695
 21
319.3280501801539
 72
     2
 10
126.7855358859463
 20
319.3280501801539
 40
0.3157169230761283
 50
180.0
 51
269.8110329574335
 73
     0
 72
     2
 10
126.7911520212563
 20
317.6252152325849
 40
2.018561131933209
 50
269.8110329575834
 51
450.1889670424166
 73
     0
 72
     2
 10
126.7855358859463
 20
315.9223802850159
 40
0.3157169230768062
 50
90.18896704256652
 51
180.0
 73
     0
 72
     1
 10
126.4698189628695
 20
315.9223802850159
 11
126.4698189628695
 21
316.504231691711
 72
     2
 10
126.7855358859463
 20
316.504231691711
 40
0.3157169230764875
 50
180.0
 51
244.6259913216414
 73
     0
 97
        8
330
369
330
345
330
321
330
368
330
346
330
347
330
320
330
344
 92
       16
 93
        1
 72
     2
 10
126.2356781731856
 20
317.6133732916793
 40
0.4709789327784932
 50
0.0
 51
360.0
 73
     1
 97
        1
330
36F
 75
     1
 76
     2
 52
45.0
 41
0.1
 77
     0
 78
     1
 53
45.0
 43
62.7811309658083
 44
-72.3161373035813
 45
-0.1414213562373095
 46
0.0
 79
     0
 98
        1
 10
0.0
 20
0.0
  0
HATCH
  5
3A1
330
71
100
AcDbEntity
  8
1
  6
Continuous
 62
     2
100
AcDbHatch
 10
0.0
 20
0.0
 30
0.0
210
0.0
220
0.0
230
1.0
  2
CUSTOM5
 70
     0
 71
     1
 91
        4
 92
        1
 93
        8
 72
     2
 10
123.616092522668
 20
319.9322555200348
 40
0.4242446153838841
 50
90.0
 51
180.0
 73
     1
 72
     1
 10
123.1918479072852
 20
319.9322555200348
 11
123.1918479072852
 21
314.3677447508346
 72
     2
 10
123.616092522668
 20
314.3677447508346
 40
0.4242446153828041
 50
180.0
 51
270.0
 73
     1
 72
     1
 10
123.616092522668
 20
313.9435001354514
 11
129.0894046133849
 21
313.9435001354514
 72
     2
 10
129.0894046133849
 20
314.3677447508346
 40
0.424244615383202
 50
270.0
 51
360.0
 73
     1
 72
     1
 10
129.5136492287688
 20
314.3677447508346
 11
129.5136492287688
 21
319.9322555200348
 72
     2
 10
129.0894046133849
 20
319.9322555200348
 40
0.4242446153839126
 50
0.0
 51
90.0
 73
     1
 72
     1
 10
129.0894046133849
 20
320.3565001354187
 11
123.616092522668
 21
320.3565001354187
 97
        8
330
35B
330
2E8
330
35A
330
2E9
330
351
330
2E6
330
35C
330
2E7
 92
       16
 93
       12
 72
     1
 10
124.2099871994145
 20
314.6560556910083
 11
125.6858204604241
 21
314.6560556910083
 72
     2
 10
125.6858204604241
 20
314.971772614085
 40
0.3157169230767067
 50
270.0
 51
360.0
 73
     1
 72
     1
 10
126.0015373835007
 20
314.971772614085
 11
126.0015373835007
 21
316.5025435456166
 72
     2
 10
125.6858204604241
 20
316.5025435456166
 40
0.3157169230766073
 50
0.0
 51
64.80558935144394
 73
     1
 72
     2
 10
126.2084049079991
 20
317.6133732916793
 40
0.9118975235576555
 50
115.1944106485105
 51
244.8055893514789
 73
     0
 72
     2
 10
125.6858204604241
 20
318.7242030377415
 40
0.3157169230761112
 50
295.1944106485604
 51
360.0
 73
     1
 72
     1
 10
126.0015373835007
 20
318.7242030377415
 11
126.0015373835007
 21
319.3282276568021
 72
     2
 10
125.6858204604241
 20
319.3282276568021
 40
0.3157169230766073
 50
0.0
 51
90.0
 73
     1
 72
     1
 10
125.6858204604241
 20
319.6439445798782
 11
124.2099871994145
 21
319.6439445798782
 72
     2
 10
124.2099871994145
 20
319.3282276568021
 40
0.3157169230761383
 50
90.0
 51
180.0
 73
     1
 72
     1
 10
123.8942702763389
 20
319.3282276568021
 11
123.8942702763389
 21
314.971772614085
 72
     2
 10
124.2099871994145
 20
314.971772614085
 40
0.3157169230755983
 50
180.0
 51
270.0
 73
     1
 97
       12
330
2ED
330
34E
330
2EC
330
35F
330
2EB
330
35E
330
34F
330
350
330
2EA
330
35D
330
2E5
330
360
 92
       16
 93
        8
 72
     2
 10
126.2594931878584
 20
317.6133732916793
 40
0.911848150144388
 50
295.3740086781796
 51
424.6259913218097
 73
     1
 72
     2
 10
126.7855358859463
 20
318.7225148916471
 40
0.3157169230768062
 50
115.374008678363
 51
180.0
 73
     0
 72
     1
 10
126.4698189628695
 20
318.7225148916471
 11
126.4698189628695
 21
319.3280501801539
 72
     2
 10
126.7855358859463
 20
319.3280501801539
 40
0.3157169230761283
 50
180.0
 51
269.8110329574335
 73
     0
 72
     2
 10
126.7911520212563
 20
317.6252152325849
 40
2.018561131933209
 50
269.8110329575834
 51
450.1889670424166
 73
     0
 72
     2
 10
126.7855358859463
 20
315.9223802850159
 40
0.3157169230768062
 50
90.18896704256652
 51
180.0
 73
     0
 72
     1
 10
126.4698189628695
 20
315.9223802850159
 11
126.4698189628695
 21
316.504231691711
 72
     2
 10
126.7855358859463
 20
316.504231691711
 40
0.3157169230764875
 50
180.0
 51
244.6259913216414
 73
     0
 97
        8
330
369
330
345
330
321
330
368
330
346
330
347
330
320
330
344
 92
       16
 93
        1
 72
     2
 10
126.2356781731856
 20
317.6133732916793
 40
0.4709789327784932
 50
0.0
 51
360.0
 73
     1
 97
        1
330
36F
 75
     1
 76
     2
 52
45.0
 41
0.1
 77
     0
 78
     1
 53
45.0
 43
62.7811309658083
 44
-72.3161373035813
 45
-0.1414213562373095
 46
0.0
 79
     0
 98
        1
 10
0.0
 20
0.0
  0
HATCH
  5
3A2
330
71
100
AcDbEntity
  8
1
  6
Continuous
 62
     2
100
AcDbHatch
 10
0.0
 20
0.0
 30
0.0
210
0.0
220
0.0
230
1.0
  2
CUSTOM6
 70
     0
 71
     1
 91
        2
 92
        1
 93
       12
 72
     2
 10
138.2912565266574
 20
318.829595373531
 40
1.526904761905826
 50
90.0
 51
270.0
 73
     1
 72
     1
 10
138.2912565266574
 20
317.3026906116257
 11
141.4415762504383
 21
317.3026906116257
 72
     1
 10
141.4415762504383
 20
317.3026906116257
 11
141.4415762504383
 21
318.0007042170681
 72
     1
 10
141.4415762504383
 20
318.0007042170681
 11
140.1056484240107
 21
318.0007042170681
 72
     1
 10
140.1056484240107
 20
318.0007042170681
 11
140.1056484240107
 21
318.4805885708098
 72
     1
 10
140.1056484240107
 20
318.4805885708098
 11
141.4415762504383
 21
318.4805885708098
 72
     1
 10
141.4415762504383
 20
318.4805885708098
 11
141.4415762504383
 21
319.1786021762522
 72
     1
 10
141.4415762504383
 20
319.1786021762522
 11
140.1056484240107
 21
319.1786021762522
 72
     1
 10
140.1056484240107
 20
319.1786021762522
 11
140.1056484240107
 21
319.6584865299939
 72
     1
 10
140.1056484240107
 20
319.6584865299939
 11
141.4415762504383
 21
319.6584865299939
 72
     1
 10
141.4415762504383
 20
319.6584865299939
 11
141.4415762504383
 21
320.3565001354368
 72
     1
 10
141.4415762504383
 20
320.3565001354368
 11
138.2912565266574
 21
320.3565001354368
 97
       12
330
2DC
330
2D6
330
2FD
330
2FC
330
2FB
330
2FA
330
2D7
330
2D8
330
2D9
330
2DA
330
34C
330
2DB
 92
       16
 93
        4
 72
     2
 10
138.7072685731688
 20
318.829595373531
 40
0.7717997786796373
 50
141.8795802028438
 51
218.1204197971529
 73
     1
 72
     2
 10
138.5075285368226
 20
318.6728641954105
 40
0.5179085730134564
 50
218.1204197971334
 51
321.8795802028588
 73
     1
 72
     2
 10
138.3077885004764
 20
318.829595373531
 40
0.7717997786795351
 50
321.8795802028432
 51
398.1204197971601
 73
     1
 72
     2
 10
138.5075285368226
 20
318.9863265516515
 40
0.517908573013402
 50
38.12041979714616
 51
141.8795802028616
 73
     1
 97
        4
330
359
330
358
330
353
330
352
 75
     1
 76
     2
 52
45.0
 41
0.1
 77
     0
 78
     1
 53
45.0
 43
62.7811309658083
 44
-72.3161373035813
 45
-0.1414213562373095
 46
0.0
 79
     0
 98
        1
 10
0.0
 20
0.0
  0
HATCH
  5
3A3
330
71
100
AcDbEntity
  8
1
  6
Continuous
 62
     2
100
AcDbHatch
 10
0.0
 20
0.0
 30
0.0
210
0.0
220
0.0
230
1.0
  2
CUSTOM7
 70
     0
 71
     1
 91
        2
 92
        1
 93
       12
 72
     2
 10
138.2912565266574
 20
318.829595373531
 40
1.526904761905826
 50
90.0
 51
270.0
 73
     1
 72
     1
 10
138.2912565266574
 20
317.3026906116257
 11
141.4415762504383
 21
317.3026906116257
 72
     1
 10
141.4415762504383
 20
317.3026906116257
 11
141.4415762504383
 21
318.0007042170681
 72
     1
 10
141.4415762504383
 20
318.0007042170681
 11
140.1056484240107
 21
318.0007042170681
 72
     1
 10
140.1056484240107
 20
318.0007042170681
 11
140.1056484240107
 21
318.4805885708098
 72
     1
 10
140.1056484240107
 20
318.4805885708098
 11
141.4415762504383
 21
318.4805885708098
 72
     1
 10
141.4415762504383
 20
318.4805885708098
 11
141.4415762504383
 21
319.1786021762522
 72
     1
 10
141.4415762504383
 20
319.1786021762522
 11
140.1056484240107
 21
319.1786021762522
 72
     1
 10
140.1056484240107
 20
319.1786021762522
 11
140.1056484240107
 21
319.6584865299939
 72
     1
 10
140.1056484240107
 20
319.6584865299939
 11
141.4415762504383
 21
319.6584865299939
 72
     1
 10
141.4415762504383
 20
319.6584865299939
 11
141.4415762504383
 21
320.3565001354368
 72
     1
 10
141.4415762504383
 20
320.3565001354368
 11
138.2912565266574
 21
320.3565001354368
 97
       12
330
2DC
330
2D6
330
2FD
330
2FC
330
2FB
330
2FA
330
2D7
330
2D8
330
2D9
330
2DA
330
34C
330
2DB
 92
       16
 93
        4
 72
     2
 10
138.7072685731688
 20
318.829595373531
 40
0.7717997786796373
 50
141.8795802028438
 51
218.1204197971529
 73
     1
 72
     2
 10
138.5075285368226
 20
318.6728641954105
 40
0.5179085730134564
 50
218.1204197971334
 51
321.8795802028588
 73
     1
 72
     2
 10
138.3077885004764
 20
318.829595373531
 40
0.7717997786795351
 50
321.8795802028432
 51
398.1204197971601
 73
     1
 72
     2
 10
138.5075285368226
 20
318.9863265516515
 40
0.517908573013402
 50
38.12041979714616
 51
141.8795802028616
 73
     1
 97
        4
330
359
330
358
330
353
330
352
 75
     1
 76
     2
 52
45.0
 41
0.1
 77
     0
 78
     1
 53
45.0
 43
62.7811309658083
 44
-72.3161373035813
 45
-0.1414213562373095
 46
0.0
 79
     0
 98
        1
 10
0.0
 20
0.0
  0
HATCH
  5
3A4
330
71
100
AcDbEntity
  8
1
  6
Continuous
 62
     2
100
AcDbHatch
 10
0.0
 20
0.0
 30
0.0
210
0.0
220
0.0
230
1.0
  2
CUSTOM8
 70
     0
 71
     1
 91
        2
 92
        1
 93
        4
 72
     2
 10
134.2656411641957
 20
315.4704048973566
 40
1.458034083651566
 50
117.5481481756609
 51
242.451851824338
 73
     1
 72
     2
 10
134.5465810560291
 20
316.00897990766
 40
2.065479772208637
 50
242.4518518243384
 51
297.548148175686
 73
     1
 72
     2
 10
134.8275209478623
 20
315.4704048973566
 40
1.458034083652081
 50
297.5481481757045
 51
422.4518518242966
 73
     1
 72
     2
 10
134.5465810560291
 20
314.9318298870538
 40
2.065479772208644
 50
62.45185182430745
 51
117.5481481756681
 73
     1
 97
        4
330
357
330
354
330
356
330
355
 92
       16
 93
        4
 72
     2
 10
134.5465810560291
 20
315.6271360754771
 40
0.5179085730132806
 50
38.12041979716469
 51
141.8795802028567
 73
     1
 72
     2
 10
134.7463210923751
 20
315.4704048973566
 40
0.7717997786795159
 50
141.8795802028313
 51
218.1204197971654
 73
     1
 72
     2
 10
134.5465810560291
 20
315.3136737192367
 40
0.5179085730138424
 50
218.1204197971879
 51
321.8795802027908
 73
     1
 72
     2
 10
134.3468410196827
 20
315.4704048973566
 40
0.7717997786795702
 50
321.8795802028399
 51
398.1204197971634
 73
     1
 97
        4
330
33A
330
33B
330
33C
330
339
 75
     1
 76
     2
 52
45.0
 41
0.1
 77
     0
 78
     1
 53
45.0
 43
62.7811309658083
 44
-72.3161373035813
 45
-0.1414213562373095
 46
0.0
 79
     0
 98
        1
 10
0.0
 20
0.0
  0
HATCH
  5
3A5
330
71
100
AcDbEntity
  8
1
  6
Continuous
 62
     2
100
AcDbHatch
 10
0.0
 20
0.0
 30
0.0
210
0.0
220
0.0
230
1.0
  2
CUSTOM9
 70
     0
 71
     1
 91
        2
 92
        1
 93
        4
 72
     2
 10
134.2656411641957
 20
315.4704048973566
 40
1.458034083651566
 50
117.5481481756609
 51
242.451851824338
 73
     1
 72
     2
 10
134.5465810560291
 20
316.00897990766
 40
2.065479772208637
 50
242.4518518243384
 51
297.548148175686
 73
     1
 72
     2
 10
134.8275209478623
 20
315.4704048973566
 40
1.458034083652081
 50
297.5481481757045
 51
422.4518518242966
 73
     1
 72
     2
 10
134.5465810560291
 20
314.9318298870538
 40
2.065479772208644
 50
62.45185182430745
 51
117.5481481756681
 73
     1
 97
        4
330
357
330
354
330
356
330
355
 92
       16
 93
        4
 72
     2
 10
134.5465810560291
 20
315.6271360754771
 40
0.5179085730132806
 50
38.12041979716469
 51
141.8795802028567
 73
     1
 72
     2
 10
134.7463210923751
 20
315.4704048973566
 40
0.7717997786795159
 50
141.8795802028313
 51
218.1204197971654
 73
     1
 72
     2
 10
134.5465810560291
 20
315.3136737192367
 40
0.5179085730138424
 50
218.1204197971879
 51
321.8795802027908
 73
     1
 72
     2
 10
134.3468410196827
 20
315.4704048973566
 40
0.7717997786795702
 50
321.8795802028399
 51
398.1204197971634
 73
     1
 97
        4
330
33A
330
33B
330
33C
330
339
 75
     1
 76
     2
 52
45.0
 41
0.1
 77
     0
 78
     1
 53
45.0
 43
62.7811309658083
 44
-72.3161373035813
 45
-0.1414213562373095
 46
0.0
 79
     0
 98
        1
 10
0.0
 20
0.0
  0
HATCH
  5
3A6
330
71
100
AcDbEntity
  8
1
  6
Continuous
 62
     2
100
AcDbHatch
 10
0.0
 20
0.0
 30
0.0
210
0.0
220
0.0
230
1.0
  2
CUSTOM10
 70
     0
 71
     1
 91
        2
 92
        1
 93
        6
 72
     1
 10
129.9907663096356
 20
320.3565001354368
 11
129.9907663096356
 21
317.3026906116257
 72
     1
 10
129.9907663096356
 20
317.3026906116257
 11
131.2312707198896
 21
317.3026906116257
 72
     1
 10
131.2312707198896
 20
317.3026906116257
 11
131.2312707198896
 21
318.2457688527694
 72
     1
 10
131.2312707198896
 20
318.2457688527694
 11
131.99003830767
 21
318.2457688527694
 72
     2
 10
131.99003830767
 20
319.3011344941031
 40
1.055365641333708
 50
270.0
 51
450.0
 73
     1
 72
     1
 10
131.99003830767
 20
320.3565001354368
 11
129.9907663096356
 21
320.3565001354368
 97
        6
330
361
330
2EE
330
2E4
330
2E3
330
2F0
330
2EF
 92
       16
 93
        4
 72
     1
 10
131.5485657814316
 20
319.6933942899968
 11
131.2312707198896
 21
319.6933942899968
 72
     1
 10
131.2312707198896
 20
319.6933942899968
 11
131.2312707198896
 21
318.9876666406545
 72
     1
 10
131.2312707198896
 20
318.9876666406545
 11
131.5485657814316
 21
318.9876666406545
 72
     2
 10
131.5485657814316
 20
319.3405304653256
 40
0.3528638246711466
 50
270.0
 51
450.0
 73
     1
 97
        4
330
2F1
330
2E2
330
2F2
330
34D
 75
     1
 76
     2
 52
45.0
 41
0.1
 77
     0
 78
     1
 53
45.0
 43
62.7811309658083
 44
-72.3161373035813
 45
-0.1414213562373095
 46
0.0
 79
     0
 98
        1
 10
0.0
 20
0.0
  0
HATCH
  5
3A7
330
71
100
AcDbEntity
  8
1
  6
Continuous
 62
     2
100
AcDbHatch
 10
0.0
 20
0.0
 30
0.0
210
0.0
220
0.0
230
1.0
  2
CUSTOM11
 70
     0
 71
     1
 91
        2
 92
        1
 93
        6
 72
     1
 10
129.9907663096356
 20
320.3565001354368
 11
129.9907663096356
 21
317.3026906116257
 72
     1
 10
129.9907663096356
 20
317.3026906116257
 11
131.2312707198896
 21
317.3026906116257
 72
     1
 10
131.2312707198896
 20
317.3026906116257
 11
131.2312707198896
 21
318.2457688527694
 72
     1
 10
131.2312707198896
 20
318.2457688527694
 11
131.99003830767
 21
318.2457688527694
 72
     2
 10
131.99003830767
 20
319.3011344941031
 40
1.055365641333708
 50
270.0
 51
450.0
 73
     1
 72
     1
 10
131.99003830767
 20
320.3565001354368
 11
129.9907663096356
 21
320.3565001354368
 97
        6
330
361
330
2EE
330
2E4
330
2E3
330
2F0
330
2EF
 92
       16
 93
        4
 72
     1
 10
131.5485657814316
 20
319.6933942899968
 11
131.2312707198896
 21
319.6933942899968
 72
     1
 10
131.2312707198896
 20
319.6933942899968
 11
131.2312707198896
 21
318.9876666406545
 72
     1
 10
131.2312707198896
 20
318.9876666406545
 11
131.5485657814316
 21
318.9876666406545
 72
     2
 10
131.5485657814316
 20
319.3405304653256
 40
0.3528638246711466
 50
270.0
 51
450.0
 73
     1
 97
        4
330
2F1
330
2E2
330
2F2
330
34D
 75
     1
 76
     2
 52
45.0
 41
0.1
 77
     0
 78
     1
 53
45.0
 43
62.7811309658083
 44
-72.3161373035813
 45
-0.1414213562373095
 46
0.0
 79
     0
 98
        1
 10
0.0
 20
0.0
  0
HATCH
  5
3A8
330
71
100
AcDbEntity
  8
1
  6
Continuous
 62
     2
100
AcDbHatch
 10
0.0
 20
0.0
 30
0.0
210
0.0
220
0.0
230
1.0
  2
CUSTOM12
 70
     0
 71
     1
 91
        1
 92
        1
 93
       12
 72
     1
 10
149.6050495040688
 20
320.3565001354368
 11
151.007773721816
 21
320.3565001354368
 72
     1
 10
151.007773721816
 20
320.3565001354368
 11
149.7052440910494
 21
318.8835496054006
 72
     1
 10
149.7052440910494
 20
318.8835496054006
 11
151.1031971379897
 21
317.3026906116257
 72
     1
 10
151.1031971379897
 20
317.3026906116257
 11
149.7004729202414
 21
317.3026906116257
 72
     1
 10
149.7004729202414
 20
317.3026906116257
 11
149.003881982176
 21
318.0904223969194
 72
     1
 10
149.003881982176
 20
318.0904223969194
 11
148.3072910441102
 21
317.3026906116257
 72
     1
 10
148.3072910441102
 20
317.3026906116257
 11
146.9045668263621
 21
317.3026906116257
 72
     1
 10
146.9045668263621
 20
317.3026906116257
 11
148.3025198733024
 21
318.8835496054006
 72
     1
 10
148.3025198733024
 20
318.8835496054006
 11
146.9999902425349
 21
320.3565001354368
 72
     1
 10
146.9999902425349
 20
320.3565001354368
 11
148.4027144602841
 21
320.3565001354368
 72
     1
 10
148.4027144602841
 20
320.3565001354368
 11
149.003881982176
 21
319.6766768138813
 72
     1
 10
149.003881982176
 20
319.6766768138813
 11
149.6050495040688
 21
320.3565001354368
 97
       12
330
2BD
330
316
330
315
330
314
330
313
330
2BE
330
2BF
330
2BB
330
2BC
330
319
330
318
330
317
 75
     1
 76
     2
 52
45.0
 41
0.1
 77
     0
 78
     1
 53
45.0
 43
62.7811309658083
 44
-72.3161373035813
 45
-0.1414213562373095
 46
0.0
 79
     0
 98
        1
 10
0.0
 20
0.0
  0
HATCH
  5
3A9
330
71
100
AcDbEntity
  8
1
  6
Continuous
 62
     2
100
AcDbHatch
 10
0.0
 20
0.0
 30
0.0
210
0.0
220
0.0
230
1.0
  2
CUSTOM13
 70
     0
 71
     1
 91
        1
 92
        1
 93
       12
 72
     1
 10
149.6050495040688
 20
320.3565001354368
 11
151.007773721816
 21
320.3565001354368
 72
     1
 10
151.007773721816
 20
320.3565001354368
 11
149.7052440910494
 21
318.8835496054006
 72
     1
 10
149.7052440910494
 20
318.8835496054006
 11
151.1031971379897
 21
317.3026906116257
 72
     1
 10
151.1031971379897
 20
317.3026906116257
 11
149.7004729202414
 21
317.3026906116257
 72
     1
 10
149.7004729202414
 20
317.3026906116257
 11
149.003881982176
 21
318.0904223969194
 72
     1
 10
149.003881982176
 20
318.0904223969194
 11
148.3072910441102
 21
317.3026906116257
 72
     1
 10
148.3072910441102
 20
317.3026906116257
 11
146.9045668263621
 21
317.3026906116257
 72
     1
 10
146.9045668263621
 20
317.3026906116257
 11
148.3025198733024
 21
318.8835496054006
 72
     1
 10
148.3025198733024
 20
318.8835496054006
 11
146.9999902425349
 21
320.3565001354368
 72
     1
 10
146.9999902425349
 20
320.3565001354368
 11
148.4027144602841
 21
320.3565001354368
 72
     1
 10
148.4027144602841
 20
320.3565001354368
 11
149.003881982176
 21
319.6766768138813
 72
     1
 10
149.003881982176
 20
319.6766768138813
 11
149.6050495040688
 21
320.3565001354368
 97
       12
330
2BD
330
316
330
315
330
314
330
313
330
2BE
330
2BF
330
2BB
330
2BC
330
319
330
318
330
317
 75
     1
 76
     2
 52
45.0
 41
0.1
 77
     0
 78
     1
 53
45.0
 43
62.7811309658083
 44
-72.3161373035813
 45
-0.1414213562373095
 46
0.0
 79
     0
 98
        1
 10
0.0
 20
0.0
  0
HATCH
  5
3AA
330
71
100
AcDbEntity
  8
1
  6
Continuous
 62
     2
100
AcDbHatch
 10
0.0
 20
0.0
 30
0.0
210
0.0
220
0.0
230
1.0
  2
CUSTOM14
 70
     0
 71
     1
 91
        1
 92
        1
 93
        4
 72
     1
 10
146.7852875561452
 20
320.3565001354368
 11
146.7852875561452
 21
317.3026906116257
 72
     1
 10
146.7852875561452
 20
317.3026906116257
 11
145.5447831458923
 21
317.3026906116257
 72
     1
 10
145.5447831458923
 20
317.3026906116257
 11
145.5447831458923
 21
320.3565001354368
 72
     1
 10
145.5447831458923
 20
320.3565001354368
 11
146.7852875561452
 21
320.3565001354368
 97
        4
330
311
330
2C0
330
310
330
312
 75
     1
 76
     2
 52
45.0
 41
0.1
 77
     0
 78
     1
 53
45.0
 43
62.7811309658083
 44
-72.3161373035813
 45
-0.1414213562373095
 46
0.0
 79
     0
 98
        1
 10
0.0
 20
0.0
  0
HATCH
  5
3AB
330
71
100
AcDbEntity
  8
1
  6
Continuous
 62
     2
100
AcDbHatch
 10
0.0
 20
0.0
 30
0.0
210
0.0
220
0.0
230
1.0
  2
CUSTOM15
 70
     0
 71
     1
 91
        1
 92
        1
 93
        4
 72
     1
 10
146.7852875561452
 20
320.3565001354368
 11
146.7852875561452
 21
317.3026906116257
 72
     1
 10
146.7852875561452
 20
317.3026906116257
 11
145.5447831458923
 21
317.3026906116257
 72
     1
 10
145.5447831458923
 20
317.3026906116257
 11
145.5447831458923
 21
320.3565001354368
 72
     1
 10
145.5447831458923
 20
320.3565001354368
 11
146.7852875561452
 21
320.3565001354368
 97
        4
330
311
330
2C0
330
310
330
312
 75
     1
 76
     2
 52
45.0
 41
0.1
 77
     0
 78
     1
 53
45.0
 43
62.7811309658083
 44
-72.3161373035813
 45
-0.1414213562373095
 46
0.0
 79
     0
 98
        1
 10
0.0
 20
0.0
  0
HATCH
  5
3AC
330
71
100
AcDbEntity
  8
1
  6
Continuous
 62
     2
100
AcDbHatch
 10
0.0
 20
0.0
 30
0.0
210
0.0
220
0.0
230
1.0
  2
CUSTOM16
 70
     0
 71
     1
 91
        2
 92
        1
 93
        8
 72
     1
 10
146.3948435526132
 20
313.9435001354514
 11
145.1543391423593
 21
313.9435001354514
 72
     1
 10
145.1543391423593
 20
313.9435001354514
 11
144.9428590888835
 21
314.4844606796692
 72
     1
 10
144.9428590888835
 20
314.4844606796692
 11
143.8104175122096
 21
314.4844606796692
 72
     1
 10
143.8104175122096
 20
314.4844606796692
 11
143.5989374587338
 21
313.9435001354514
 72
     1
 10
143.5989374587338
 20
313.9435001354514
 11
142.3584330484809
 21
313.9435001354514
 72
     1
 10
142.3584330484809
 20
313.9435001354514
 11
143.7563860954201
 21
316.9973096592625
 72
     1
 10
143.7563860954201
 20
316.9973096592625
 11
144.9968905056729
 21
316.9973096592625
 72
     1
 10
144.9968905056729
 20
316.9973096592625
 11
146.3948435526132
 21
313.9435001354514
 97
        8
330
30C
330
2C6
330
30B
330
30E
330
2C3
330
30D
330
2C4
330
2C5
 92
       16
 93
        3
 72
     1
 10
144.0764730633547
 20
315.1650239449758
 11
144.6768035377372
 21
315.1650239449758
 72
     1
 10
144.6768035377372
 20
315.1650239449758
 11
144.376638300547
 21
315.9328389109625
 72
     1
 10
144.376638300547
 20
315.9328389109625
 11
144.0764730633547
 21
315.1650239449758
 97
        3
330
2C2
330
2C1
330
30F
 75
     1
 76
     2
 52
45.0
 41
0.1
 77
     0
 78
     1
 53
45.0
 43
62.7811309658083
 44
-72.3161373035813
 45
-0.1414213562373095
 46
0.0
 79
     0
 98
        1
 10
0.0
 20
0.0
  0
HATCH
  5
3AD
330
71
100
AcDbEntity
  8
1
  6
Continuous
 62
     2
100
AcDbHatch
 10
0.0
 20
0.0
 30
0.0
210
0.0
220
0.0
230
1.0
  2
CUSTOM17
 70
     0
 71
     1
 91
        2
 92
        1
 93
        8
 72
     1
 10
146.3948435526132
 20
313.9435001354514
 11
145.1543391423593
 21
313.9435001354514
 72
     1
 10
145.1543391423593
 20
313.9435001354514
 11
144.9428590888835
 21
314.4844606796692
 72
     1
 10
144.9428590888835
 20
314.4844606796692
 11
143.8104175122096
 21
314.4844606796692
 72
     1
 10
143.8104175122096
 20
314.4844606796692
 11
143.5989374587338
 21
313.9435001354514
 72
     1
 10
143.5989374587338
 20
313.9435001354514
 11
142.3584330484809
 21
313.9435001354514
 72
     1
 10
142.3584330484809
 20
313.9435001354514
 11
143.7563860954201
 21
316.9973096592625
 72
     1
 10
143.7563860954201
 20
316.9973096592625
 11
144.9968905056729
 21
316.9973096592625
 72
     1
 10
144.9968905056729
 20
316.9973096592625
 11
146.3948435526132
 21
313.9435001354514
 97
        8
330
30C
330
2C6
330
30B
330
30E
330
2C3
330
30D
330
2C4
330
2C5
 92
       16
 93
        3
 72
     1
 10
144.0764730633547
 20
315.1650239449758
 11
144.6768035377372
 21
315.1650239449758
 72
     1
 10
144.6768035377372
 20
315.1650239449758
 11
144.376638300547
 21
315.9328389109625
 72
     1
 10
144.376638300547
 20
315.9328389109625
 11
144.0764730633547
 21
315.1650239449758
 97
        3
330
2C2
330
2C1
330
30F
 75
     1
 76
     2
 52
45.0
 41
0.1
 77
     0
 78
     1
 53
45.0
 43
62.7811309658083
 44
-72.3161373035813
 45
-0.1414213562373095
 46
0.0
 79
     0
 98
        1
 10
0.0
 20
0.0
  0
HATCH
  5
3AE
330
71
100
AcDbEntity
  8
1
  6
Continuous
 62
     2
100
AcDbHatch
 10
0.0
 20
0.0
 30
0.0
210
0.0
220
0.0
230
1.0
  2
CUSTOM18
 70
     0
 71
     1
 91
        1
 92
        1
 93
        8
 72
     1
 10
140.2009209092986
 20
316.9973096592625
 11
140.2009209092986
 21
316.2120443531388
 72
     1
 10
140.2009209092986
 20
316.2120443531388
 11
141.0120199467733
 21
316.2120443531388
 72
     1
 10
141.0120199467733
 20
316.2120443531388
 11
141.0120199467733
 21
313.9435001354514
 72
     1
 10
141.0120199467733
 20
313.9435001354514
 11
142.2048126489397
 21
313.9435001354514
 72
     1
 10
142.2048126489397
 20
313.9435001354514
 11
142.2048126489397
 21
316.2120443531388
 72
     1
 10
142.2048126489397
 20
316.2120443531388
 11
143.0159116864123
 21
316.2120443531388
 72
     1
 10
143.0159116864123
 20
316.2120443531388
 11
143.0159116864123
 21
316.9973096592625
 72
     1
 10
143.0159116864123
 20
316.9973096592625
 11
140.2009209092986
 21
316.9973096592625
 97
        8
330
308
330
307
330
306
330
2C7
330
2C8
330
30A
330
2C9
330
309
 75
     1
 76
     2
 52
45.0
 41
0.1
 77
     0
 78
     1
 53
45.0
 43
62.7811309658083
 44
-72.3161373035813
 45
-0.1414213562373095
 46
0.0
 79
     0
 98
        1
 10
0.0
 20
0.0
  0
HATCH
  5
3AF
330
71
100
AcDbEntity
  8
1
  6
Continuous
 62
     2
100
AcDbHatch
 10
0.0
 20
0.0
 30
0.0
210
0.0
220
0.0
230
1.0
  2
CUSTOM19
 70
     0
 71
     1
 91
        1
 92
        1
 93
        8
 72
     1
 10
140.2009209092986
 20
316.9973096592625
 11
140.2009209092986
 21
316.2120443531388
 72
     1
 10
140.2009209092986
 20
316.2120443531388
 11
141.0120199467733
 21
316.2120443531388
 72
     1
 10
141.0120199467733
 20
316.2120443531388
 11
141.0120199467733
 21
313.9435001354514
 72
     1
 10
141.0120199467733
 20
313.9435001354514
 11
142.2048126489397
 21
313.9435001354514
 72
     1
 10
142.2048126489397
 20
313.9435001354514
 11
142.2048126489397
 21
316.2120443531388
 72
     1
 10
142.2048126489397
 20
316.2120443531388
 11
143.0159116864123
 21
316.2120443531388
 72
     1
 10
143.0159116864123
 20
316.2120443531388
 11
143.0159116864123
 21
316.9973096592625
 72
     1
 10
143.0159116864123
 20
316.9973096592625
 11
140.2009209092986
 21
316.9973096592625
 97
        8
330
308
330
307
330
306
330
2C7
330
2C8
330
30A
330
2C9
330
309
 75
     1
 76
     2
 52
45.0
 41
0.1
 77
     0
 78
     1
 53
45.0
 43
62.7811309658083
 44
-72.3161373035813
 45
-0.1414213562373095
 46
0.0
 79
     0
 98
        1
 10
0.0
 20
0.0
  0
HATCH
  5
3B0
330
71
100
AcDbEntity
  8
1
  6
Continuous
 62
     2
100
AcDbHatch
 10
0.0
 20
0.0
 30
0.0
210
0.0
220
0.0
230
1.0
  2
CUSTOM20
 70
     0
 71
     1
 91
        1
 92
        1
 93
       10
 72
     1
 10
142.8729274930377
 20
320.3565001354368
 11
141.6801347908713
 21
320.3565001354368
 72
     1
 10
141.6801347908713
 20
320.3565001354368
 11
141.6801347908713
 21
317.3026906116257
 72
     1
 10
141.6801347908713
 20
317.3026906116257
 11
142.8729274930377
 21
317.3026906116257
 72
     1
 10
142.8729274930377
 20
317.3026906116257
 11
142.8729274930377
 21
318.6114661218304
 72
     1
 10
142.8729274930377
 20
318.6114661218304
 11
144.1134319032918
 21
317.3026906116257
 72
     1
 10
144.1134319032918
 20
317.3026906116257
 11
145.3062246054584
 21
317.3026906116257
 72
     1
 10
145.3062246054584
 20
317.3026906116257
 11
145.3062246054584
 21
320.3565001354368
 72
     1
 10
145.3062246054584
 20
320.3565001354368
 11
144.1134319032918
 21
320.3565001354368
 72
     1
 10
144.1134319032918
 20
320.3565001354368
 11
144.1134319032918
 21
319.0477246252317
 72
     1
 10
144.1134319032918
 20
319.0477246252317
 11
142.8729274930377
 21
320.3565001354368
 97
       10
330
302
330
2CC
330
2CD
330
2CE
330
2CF
330
305
330
2CA
330
304
330
303
330
2CB
 75
     1
 76
     2
 52
45.0
 41
0.1
 77
     0
 78
     1
 53
45.0
 43
62.7811309658083
 44
-72.3161373035813
 45
-0.1414213562373095
 46
0.0
 79
     0
 98
        1
 10
0.0
 20
0.0
  0
HATCH
  5
3B1
330
71
100
AcDbEntity
  8
1
  6
Continuous
 62
     2
100
AcDbHatch
 10
0.0
 20
0.0
 30
0.0
210
0.0
220
0.0
230
1.0
  2
CUSTOM21
 70
     0
 71
     1
 91
        1
 92
        1
 93
       10
 72
     1
 10
142.8729274930377
 20
320.3565001354368
 11
141.6801347908713
 21
320.3565001354368
 72
     1
 10
141.6801347908713
 20
320.3565001354368
 11
141.6801347908713
 21
317.3026906116257
 72
     1
 10
141.6801347908713
 20
317.3026906116257
 11
142.8729274930377
 21
317.3026906116257
 72
     1
 10
142.8729274930377
 20
317.3026906116257
 11
142.8729274930377
 21
318.6114661218304
 72
     1
 10
142.8729274930377
 20
318.6114661218304
 11
144.1134319032918
 21
317.3026906116257
 72
     1
 10
144.1134319032918
 20
317.3026906116257
 11
145.3062246054584
 21
317.3026906116257
 72
     1
 10
145.3062246054584
 20
317.3026906116257
 11
145.3062246054584
 21
320.3565001354368
 72
     1
 10
145.3062246054584
 20
320.3565001354368
 11
144.1134319032918
 21
320.3565001354368
 72
     1
 10
144.1134319032918
 20
320.3565001354368
 11
144.1134319032918
 21
319.0477246252317
 72
     1
 10
144.1134319032918
 20
319.0477246252317
 11
142.8729274930377
 21
320.3565001354368
 97
       10
330
302
330
2CC
330
2CD
330
2CE
330
2CF
330
305
330
2CA
330
304
330
303
330
2CB
 75
     1
 76
     2
 52
45.0
 41
0.1
 77
     0
 78
     1
 53
45.0
 43
62.7811309658083
 44
-72.3161373035813
 45
-0.1414213562373095
 46
0.0
 79
     0
 98
        1
 10
0.0
 20
0.0
  0
HATCH
  5
3B2
330
71
100
AcDbEntity
  8
1
  6
Continuous
 62
     2
100
AcDbHatch
 10
0.0
 20
0.0
 30
0.0
210
0.0
220
0.0
230
1.0
  2
CUSTOM22
 70
     0
 71
     1
 91
        1
 92
        1
 93
       10
 72
     1
 10
137.6244886726191
 20
316.9973096592625
 11
136.4316959704516
 21
316.9973096592625
 72
     1
 10
136.4316959704516
 20
316.9973096592625
 11
136.4316959704516
 21
313.9435001354514
 72
     1
 10
136.4316959704516
 20
313.9435001354514
 11
137.6244886726191
 21
313.9435001354514
 72
     1
 10
137.6244886726191
 20
313.9435001354514
 11
137.6244886726191
 21
315.2522756456559
 72
     1
 10
137.6244886726191
 20
315.2522756456559
 11
138.8649930828721
 21
313.9435001354514
 72
     1
 10
138.8649930828721
 20
313.9435001354514
 11
140.0577857850385
 21
313.9435001354514
 72
     1
 10
140.0577857850385
 20
313.9435001354514
 11
140.0577857850385
 21
316.9973096592625
 72
     1
 10
140.0577857850385
 20
316.9973096592625
 11
138.8649930828721
 21
316.9973096592625
 72
     1
 10
138.8649930828721
 20
316.9973096592625
 11
138.8649930828721
 21
315.6885341490573
 72
     1
 10
138.8649930828721
 20
315.6885341490573
 11
137.6244886726191
 21
316.9973096592625
 97
       10
330
2D1
330
2D2
330
2D3
330
2FF
330
2D4
330
2D5
330
2FE
330
301
330
300
330
2D0
 75
     1
 76
     2
 52
45.0
 41
0.1
 77
     0
 78
     1
 53
45.0
 43
62.7811309658083
 44
-72.3161373035813
 45
-0.1414213562373095
 46
0.0
 79
     0
 98
        1
 10
0.0
 20
0.0
  0
HATCH
  5
3B3
330
71
100
AcDbEntity
  8
1
  6
Continuous
 62
     2
100
AcDbHatch
 10
0.0
 20
0.0
 30
0.0
210
0.0
220
0.0
230
1.0
  2
CUSTOM23
 70
     0
 71
     1
 91
        1
 92
        1
 93
       10
 72
     1
 10
137.6244886726191
 20
316.9973096592625
 11
136.4316959704516
 21
316.9973096592625
 72
     1
 10
136.4316959704516
 20
316.9973096592625
 11
136.4316959704516
 21
313.9435001354514
 72
     1
 10
136.4316959704516
 20
313.9435001354514
 11
137.6244886726191
 21
313.9435001354514
 72
     1
 10
137.6244886726191
 20
313.9435001354514
 11
137.6244886726191
 21
315.2522756456559
 72
     1
 10
137.6244886726191
 20
315.2522756456559
 11
138.8649930828721
 21
313.9435001354514
 72
     1
 10
138.8649930828721
 20
313.9435001354514
 11
140.0577857850385
 21
313.9435001354514
 72
     1
 10
140.0577857850385
 20
313.9435001354514
 11
140.0577857850385
 21
316.9973096592625
 72
     1
 10
140.0577857850385
 20
316.9973096592625
 11
138.8649930828721
 21
316.9973096592625
 72
     1
 10
138.8649930828721
 20
316.9973096592625
 11
138.8649930828721
 21
315.6885341490573
 72
     1
 10
138.8649930828721
 20
315.6885341490573
 11
137.6244886726191
 21
316.9973096592625
 97
       10
330
2D1
330
2D2
330
2D3
330
2FF
330
2D4
330
2D5
330
2FE
330
301
330
300
330
2D0
 75
     1
 76
     2
 52
45.0
 41
0.1
 77
     0
 78
     1
 53
45.0
 43
62.7811309658083
 44
-72.3161373035813
 45
-0.1414213562373095
 46
0.0
 79
     0
 98
        1
 10
0.0
 20
0.0
  0
HATCH
  5
3B4
330
71
100
AcDbEntity
  8
1
  6
Continuous
 62
     2
100
AcDbHatch
 10
0.0
 20
0.0
 30
0.0
210
0.0
220
0.0
230
1.0
  2
CUSTOM24
 70
     0
 71
     1
 91
        1
 92
        1
 93
       12
 72
     1
 10
136.6226937336838
 20
320.3565001354368
 11
136.6226937336838
 21
317.3026906116257
 72
     1
 10
136.6226937336838
 20
317.3026906116257
 11
135.4299010315173
 21
317.3026906116257
 72
     1
 10
135.4299010315173
 20
317.3026906116257
 11
135.4299010315173
 21
318.4369627204694
 72
     1
 10
135.4299010315173
 20
318.4369627204694
 11
134.3802434536099
 21
318.4369627204694
 72
     1
 10
134.3802434536099
 20
318.4369627204694
 11
134.3802434536099
 21
317.3026906116257
 72
     1
 10
134.3802434536099
 20
317.3026906116257
 11
133.1874507514433
 21
317.3026906116257
 72
     1
 10
133.1874507514433
 20
317.3026906116257
 11
133.1874507514433
 21
320.3565001354368
 72
     1
 10
133.1874507514433
 20
320.3565001354368
 11
134.3802434536099
 21
320.3565001354368
 72
     1
 10
134.3802434536099
 20
320.3565001354368
 11
134.3802434536099
 21
319.2876668021022
 72
     1
 10
134.3802434536099
 20
319.2876668021022
 11
135.4299010315173
 21
319.2876668021022
 72
     1
 10
135.4299010315173
 20
319.2876668021022
 11
135.4299010315173
 21
320.3565001354368
 72
     1
 10
135.4299010315173
 20
320.3565001354368
 11
136.6226937336838
 21
320.3565001354368
 97
       12
330
2F9
330
2F8
330
2F7
330
2DF
330
2E0
330
2F6
330
2E1
330
2F5
330
2F4
330
2F3
330
2DD
330
2DE
 75
     1
 76
     2
 52
45.0
 41
0.1
 77
     0
 78
     1
 53
45.0
 43
62.7811309658083
 44
-72.3161373035813
 45
-0.1414213562373095
 46
0.0
 79
     0
 98
        1
 10
0.0
 20
0.0
  0
HATCH
  5
3B5
330
71
100
AcDbEntity
  8
1
  6
Continuous
 62
     2
100
AcDbHatch
 10
0.0
 20
0.0
 30
0.0
210
0.0
220
0.0
230
1.0
  2
CUSTOM25
 70
     0
 71
     1
 91
        1
 92
        1
 93
       12
 72
     1
 10
136.6226937336838
 20
320.3565001354368
 11
136.6226937336838
 21
317.3026906116257
 72
     1
 10
136.6226937336838
 20
317.3026906116257
 11
135.4299010315173
 21
317.3026906116257
 72
     1
 10
135.4299010315173
 20
317.3026906116257
 11
135.4299010315173
 21
318.4369627204694
 72
     1
 10
135.4299010315173
 20
318.4369627204694
 11
134.3802434536099
 21
318.4369627204694
 72
     1
 10
134.3802434536099
 20
318.4369627204694
 11
134.3802434536099
 21
317.3026906116257
 72
     1
 10
134.3802434536099
 20
317.3026906116257
 11
133.1874507514433
 21
317.3026906116257
 72
     1
 10
133.1874507514433
 20
317.3026906116257
 11
133.1874507514433
 21
320.3565001354368
 72
     1
 10
133.1874507514433
 20
320.3565001354368
 11
134.3802434536099
 21
320.3565001354368
 72
     1
 10
134.3802434536099
 20
320.3565001354368
 11
134.3802434536099
 21
319.2876668021022
 72
     1
 10
134.3802434536099
 20
319.2876668021022
 11
135.4299010315173
 21
319.2876668021022
 72
     1
 10
135.4299010315173
 20
319.2876668021022
 11
135.4299010315173
 21
320.3565001354368
 72
     1
 10
135.4299010315173
 20
320.3565001354368
 11
136.6226937336838
 21
320.3565001354368
 97
       12
330
2F9
330
2F8
330
2F7
330
2DF
330
2E0
330
2F6
330
2E1
330
2F5
330
2F4
330
2F3
330
2DD
330
2DE
 75
     1
 76
     2
 52
45.0
 41
0.1
 77
     0
 78
     1
 53
45.0
 43
62.7811309658083
 44
-72.3161373035813
 45
-0.1414213562373095
 46
0.0
 79
     0
 98
        1
 10
0.0
 20
0.0
  0
ENDBLK
  5
73
330
71
100
AcDbEntity
  8
0
100
AcDbBlockEnd
  0
BLOCK
  5
75
330
74
100
AcDbEntity
  8
0
100
AcDbBlockBegin
  2
_punkt
 70
     0
 10
248.4999975474726
 20
306.6500001354351
 30
0.0
  3
_punkt
  1

  0
LINE
  5
3B6
330
74
100
AcDbEntity
  8
1
  6
Continuous
 62
     2
100
AcDbLine
 10
248.4999975474726
 20
306.6500001354351
 30
0.0
 11
248.4999975474726
 21
301.6500001354356
 31
0.0
  0
LINE
  5
3B7
330
74
100
AcDbEntity
  8
1
  6
Continuous
 62
     2
100
AcDbLine
 10
248.4999975474726
 20
306.6500001354351
 30
0.0
 11
253.4999975474702
 21
306.6500001354351
 31
0.0
  0
ENDBLK
  5
76
330
74
100
AcDbEntity
  8
0
100
AcDbBlockEnd
  0
BLOCK
  5
7A
330
77
100
AcDbEntity
  8
0
100
AcDbBlockBegin
  2
A3I_CS
 70
     0
 10
248.4999975474726
 20
301.6500001354356
 30
0.0
  3
A3I_CS
  1

  0
INSERT
  5
78
330
77
100
AcDbEntity
  8
1
100
AcDbBlockReference
  2
_rahmen
 10
248.4999975474726
 20
301.6500001354356
 30
0.0
  0
INSERT
  5
79
330
77
100
AcDbEntity
  8
1
100
AcDbBlockReference
  2
_punkt
 10
248.4999975474726
 20
306.6500001354351
 30
0.0
  0
ENDBLK
  5
7B
330
77
100
AcDbEntity
  8
0
100
AcDbBlockEnd
  0
BLOCK
  5
84
330
7C
100
AcDbEntity
  8
0
100
AcDbBlockBegin
  2
1
 70
     0
 10
0.0
 20
0.0
 30
0.0
  3
1
  1

  0
INSERT
  5
7D
330
7C
100
AcDbEntity
  8
0
100
AcDbBlockReference
  2
Allg1
 10
167.0000000000197
 20
405.00000000002
 30
0.0
  0
INSERT
  5
7E
330
7C
100
AcDbEntity
  8
0
100
AcDbBlockReference
  2
Drfsicht1
 10
1.0
 20
433.0000000000401
 30
0.0
  0
INSERT
  5
7F
330
7C
100
AcDbEntity
  8
0
100
AcDbBlockReference
  2
Rckans1
 10
177.2987976074212
 20
535.2994031906128
 30
0.0
  0
INSERT
  5
80
330
7C
100
AcDbEntity
  8
0
100
AcDbBlockReference
  2
SA_Links1
 10
90.64939880367092
 20
535.2994031906128
 30
0.0
  0
INSERT
  5
81
330
7C
100
AcDbEntity
  8
0
100
AcDbBlockReference
  2
SA_Rechts1
 10
-128.6493988036717
 20
535.2994031906128
 30
0.0
  0
INSERT
  5
82
330
7C
100
AcDbEntity
  8
0
100
AcDbBlockReference
  2
Vordans1
 10
1.0000000000008
 20
535.2994031906127
 30
0.0
  0
INSERT
  5
83
330
7C
100
AcDbEntity
  8
0
100
AcDbBlockReference
  2
A3I_CS
 10
248.4999975474726
 20
301.6500001354356
 30
0.0
  0
ENDBLK
  5
85
330
7C
100
AcDbEntity
  8
0
100
AcDbBlockEnd
  0
BLOCK
  5
1B8
330
1B1
100
AcDbEntity
  8
0
100
AcDbBlockBegin
  2
*D17
 70
     1
 10
0.0
 20
0.0
 30
0.0
  3
*D17
  1

  0
LINE
  5
1B2
330
1B1
100
AcDbEntity
  8
1
  6
Continuous
 62
     2
100
AcDbLine
 10
-72.3267265466081
 20
422.8505985800502
 30
0.0
 11
-72.3267265466081
 21
443.1494017839563
 31
0.0
  0
LINE
  5
1B3
330
1B1
100
AcDbEntity
  8
1
  6
Continuous
 62
     2
100
AcDbLine
 10
-55.49999771118158
 20
422.8505985800502
 30
0.0
 11
-73.8267265466081
 21
422.8505985800502
 31
0.0
  0
LINE
  5
1B4
330
1B1
100
AcDbEntity
  8
1
  6
Continuous
 62
     2
100
AcDbLine
 10
-60.49999771118166
 20
443.1494017839563
 30
0.0
 11
-73.8267265466081
 21
443.1494017839563
 31
0.0
  0
SOLID
  5
1B5
330
1B1
100
AcDbEntity
  8
1
 62
     2
100
AcDbTrace
 10
-72.78751028816399
 20
426.3505985800502
 30
0.0
 11
-71.86594280505221
 21
426.3505985800502
 31
0.0
 12
-72.3267265466081
 22
422.8505985800502
 32
0.0
 13
-72.3267265466081
 23
422.8505985800502
 33
0.0
  0
SOLID
  5
1B6
330
1B1
100
AcDbEntity
  8
1
 62
     2
100
AcDbTrace
 10
-71.86594280505221
 20
439.6494017839563
 30
0.0
 11
-72.78751028816399
 21
439.6494017839563
 31
0.0
 12
-72.3267265466081
 22
443.1494017839563
 32
0.0
 13
-72.3267265466081
 23
443.1494017839563
 33
0.0
  0
MTEXT
  5
1B7
330
1B1
100
AcDbEntity
  8
1
 62
     3
100
AcDbMText
 10
-74.1767265466081
 20
428.467966927987
 30
0.0
 40
3.5
 41
0.0
 71
     7
 72
     1
  1
20,3
  7
CONVERTER_11
 11
0.0
 21
1.0
 31
0.0
 73
     1
 44
0.60024009603842
  0
ENDBLK
  5
1B9
330
1B1
100
AcDbEntity
  8
0
100
AcDbBlockEnd
  0
BLOCK
  5
251
330
24A
100
AcDbEntity
  8
0
100
AcDbBlockBegin
  2
*D18
 70
     1
 10
0.0
 20
0.0
 30
0.0
  3
*D18
  1

  0
LINE
  5
24B
330
24A
100
AcDbEntity
  8
1
  6
Continuous
 62
     2
100
AcDbLine
 10
-60.49999771118087
 20
518.1494028892381
 30
0.0
 11
62.5000022888193
 21
518.1494028892381
 31
0.0
  0
LINE
  5
24C
330
24A
100
AcDbEntity
  8
1
  6
Continuous
 62
     2
100
AcDbLine
 10
-60.49999771118087
 20
528.1494028892381
 30
0.0
 11
-60.49999771118087
 21
516.6494028892381
 31
0.0
  0
LINE
  5
24D
330
24A
100
AcDbEntity
  8
1
  6
Continuous
 62
     2
100
AcDbLine
 10
62.5000022888193
 20
528.1494028892381
 30
0.0
 11
62.5000022888193
 21
516.6494028892381
 31
0.0
  0
SOLID
  5
24E
330
24A
100
AcDbEntity
  8
1
 62
     2
100
AcDbTrace
 10
-56.99999771118087
 20
518.610186630794
 30
0.0
 11
-56.99999771118087
 21
517.6886191476822
 31
0.0
 12
-60.49999771118087
 22
518.1494028892381
 32
0.0
 13
-60.49999771118087
 23
518.1494028892381
 33
0.0
  0
SOLID
  5
24F
330
24A
100
AcDbEntity
  8
1
 62
     2
100
AcDbTrace
 10
59.0000022888193
 20
517.6886191476822
 30
0.0
 11
59.0000022888193
 21
518.610186630794
 31
0.0
 12
62.5000022888193
 22
518.1494028892381
 32
0.0
 13
62.5000022888193
 23
518.1494028892381
 33
0.0
  0
MTEXT
  5
250
330
24A
100
AcDbEntity
  8
1
 62
     3
100
AcDbMText
 10
-2.675
 20
519.6494028892381
 30
0.0
 40
3.5
 41
0.0
 71
     7
 72
     1
  1
123
  7
CONVERTER_11
 11
0.9999999999970619
 21
2.424068405545306E-6
 31
0.0
 73
     1
 44
0.60024009603842
  0
ENDBLK
  5
252
330
24A
100
AcDbEntity
  8
0
100
AcDbBlockEnd
  0
BLOCK
  5
25C
330
255
100
AcDbEntity
  8
0
100
AcDbBlockBegin
  2
*D19
 70
     1
 10
0.0
 20
0.0
 30
0.0
  3
*D19
  1

  0
LINE
  5
256
330
255
100
AcDbEntity
  8
1
  6
Continuous
 62
     2
100
AcDbLine
 10
-78.5942513267493
 20
528.1494028892381
 30
0.0
 11
-78.5942513267493
 21
542.4494028892381
 31
0.0
  0
LINE
  5
257
330
255
100
AcDbEntity
  8
1
  6
Continuous
 62
     2
100
AcDbLine
 10
-60.49999771118087
 20
528.1494028892381
 30
0.0
 11
-80.0942513267493
 21
528.1494028892381
 31
0.0
  0
LINE
  5
258
330
255
100
AcDbEntity
  8
1
  6
Continuous
 62
     2
100
AcDbLine
 10
-60.49999771118087
 20
542.4494028892381
 30
0.0
 11
-80.0942513267493
 21
542.4494028892381
 31
0.0
  0
SOLID
  5
259
330
255
100
AcDbEntity
  8
1
 62
     2
100
AcDbTrace
 10
-79.05503506830519
 20
531.6494028892381
 30
0.0
 11
-78.13346758519342
 21
531.6494028892381
 31
0.0
 12
-78.5942513267493
 22
528.1494028892381
 32
0.0
 13
-78.5942513267493
 23
528.1494028892381
 33
0.0
  0
SOLID
  5
25A
330
255
100
AcDbEntity
  8
1
 62
     2
100
AcDbTrace
 10
-78.13346758519342
 20
538.9494028892381
 30
0.0
 11
-79.05503506830519
 21
538.9494028892381
 31
0.0
 12
-78.5942513267493
 22
542.4494028892381
 32
0.0
 13
-78.5942513267493
 23
542.4494028892381
 33
0.0
  0
MTEXT
  5
25B
330
255
100
AcDbEntity
  8
1
 62
     3
100
AcDbMText
 10
-80.4442513267493
 20
531.5526219399869
 30
0.0
 40
3.5
 41
0.0
 71
     7
 72
     1
  1
14,3
  7
CONVERTER_11
 11
0.0
 21
1.0
 31
0.0
 73
     1
 44
0.60024009603842
  0
ENDBLK
  5
25D
330
255
100
AcDbEntity
  8
0
100
AcDbBlockEnd
  0
BLOCK
  5
267
330
260
100
AcDbEntity
  8
0
100
AcDbBlockBegin
  2
*D20
 70
     1
 10
0.0
 20
0.0
 30
0.0
  3
*D20
  1

  0
LINE
  5
261
330
260
100
AcDbEntity
  8
1
  6
Continuous
 62
     2
100
AcDbLine
 10
-70.49999771118087
 20
528.1494028892381
 30
0.0
 11
-70.49999771118087
 21
541.1499262198491
 31
0.0
  0
LINE
  5
262
330
260
100
AcDbEntity
  8
1
  6
Continuous
 62
     2
100
AcDbLine
 10
-60.49999771118087
 20
528.1494028892381
 30
0.0
 11
-71.99999771118087
 21
528.1494028892381
 31
0.0
  0
LINE
  5
263
330
260
100
AcDbEntity
  8
1
  6
Continuous
 62
     2
100
AcDbLine
 10
-58.39999771118087
 20
541.1499262198491
 30
0.0
 11
-71.99999771118087
 21
541.1499262198491
 31
0.0
  0
SOLID
  5
264
330
260
100
AcDbEntity
  8
1
 62
     2
100
AcDbTrace
 10
-70.96078145273675
 20
531.6494028892381
 30
0.0
 11
-70.03921396962498
 21
531.6494028892381
 31
0.0
 12
-70.49999771118087
 22
528.1494028892381
 32
0.0
 13
-70.49999771118087
 23
528.1494028892381
 33
0.0
  0
SOLID
  5
265
330
260
100
AcDbEntity
  8
1
 62
     2
100
AcDbTrace
 10
-70.03921396962498
 20
537.6499262198491
 30
0.0
 11
-70.96078145273675
 21
537.6499262198491
 31
0.0
 12
-70.49999771118087
 22
541.1499262198491
 32
0.0
 13
-70.49999771118087
 23
541.1499262198491
 33
0.0
  0
MTEXT
  5
266
330
260
100
AcDbEntity
  8
1
 62
     3
100
AcDbMText
 10
-71.99999771118087
 20
532.44288861017
 30
0.0
 40
3.5
 41
0.0
 71
     7
 72
     1
  1
13
  7
CONVERTER_11
 11
0.0
 21
1.0
 31
0.0
 73
     1
 44
0.60024009603842
  0
ENDBLK
  5
268
330
260
100
AcDbEntity
  8
0
100
AcDbBlockEnd
  0
ENDSEC
  0
SECTION
  2
ENTITIES
  0
INSERT
  5
86
330
1F
100
AcDbEntity
  8
1
100
AcDbBlockReference
  2
1
 10
0.0
 20
0.0
 30
0.0
  0
ENDSEC
  0
SECTION
  2
OBJECTS
  0
DICTIONARY
  5
C
330
0
100
AcDbDictionary
281
     1
  3
ACAD_GROUP
350
D
  3
ACAD_LAYOUT
350
1A
  3
ACAD_MATERIAL
350
3B
  3
ACAD_MLEADERSTYLE
350
3DF
  3
ACAD_MLINESTYLE
350
17
  3
ACAD_PLOTSETTINGS
350
19
  3
ACAD_PLOTSTYLENAME
350
E
  3
ACAD_TABLESTYLE
350
3DE
  3
ACAD_VISUALSTYLE
350
2A
  0
DICTIONARY
  5
D
102
{ACAD_REACTORS
330
C
102
}
330
C
100
AcDbDictionary
281
     1
  0
DICTIONARY
  5
1A
102
{ACAD_REACTORS
330
C
102
}
330
C
100
AcDbDictionary
281
     1
  3
Layout1
350
1E
  3
Layout2
350
26
  3
Model
350
22
  0
DICTIONARY
  5
3B
102
{ACAD_REACTORS
330
C
102
}
330
C
100
AcDbDictionary
281
     1
  3
ByBlock
350
3D
  3
ByLayer
350
3C
  3
Global
350
3E
  0
DICTIONARY
  5
3DF
102
{ACAD_REACTORS
330
C
102
}
330
C
100
AcDbDictionary
281
     1
  0
DICTIONARY
  5
17
102
{ACAD_REACTORS
330
C
102
}
330
C
100
AcDbDictionary
281
     1
  3
Standard
350
18
  0
DICTIONARY
  5
19
102
{ACAD_REACTORS
330
C
102
}
330
C
100
AcDbDictionary
281
     1
  0
ACDBDICTIONARYWDFLT
  5
E
102
{ACAD_REACTORS
330
C
102
}
330
C
100
AcDbDictionary
281
     1
  3
Normal
350
F
100
AcDbDictionaryWithDefault
340
F
  0
DICTIONARY
  5
3DE
102
{ACAD_REACTORS
330
C
102
}
330
C
100
AcDbDictionary
281
     1
  0
DICTIONARY
  5
2A
102
{ACAD_REACTORS
330
C
102
}
330
C
100
AcDbDictionary
281
     1
  3
2dWireframe
350
2F
  3
3D Hidden
350
31
  3
3dWireframe
350
30
  3
Basic
350
32
  3
Brighten
350
36
  3
ColorChange
350
3A
  3
Conceptual
350
34
  3
Dim
350
35
  3
Facepattern
350
39
  3
Flat
350
2B
  3
FlatWithEdges
350
2C
  3
Gouraud
350
2D
  3
GouraudWithEdges
350
2E
  3
Linepattern
350
38
  3
Realistic
350
33
  3
Thicken
350
37
  0
LAYOUT
  5
1E
102
{ACAD_REACTORS
330
1A
102
}
330
1A
100
AcDbPlotSettings
  1

  2
none_device
  4

  6

 40
0.0
 41
0.0
 42
0.0
 43
0.0
 44
0.0
 45
0.0
 46
0.0
 47
0.0
 48
0.0
 49
0.0
140
0.0
141
0.0
142
1.0
143
1.0
 70
   688
 72
     0
 73
     0
 74
     5
  7

 75
    16
 76
     0
 77
     2
 78
   300
147
1.0
148
0.0
149
0.0
100
AcDbLayout
  1
Layout1
 70
     1
 71
     1
 10
0.0
 20
0.0
 11
12.0
 21
9.0
 12
0.0
 22
0.0
 32
0.0
 14
1.00000000000000E+20
 24
1.00000000000000E+20
 34
1.00000000000000E+20
 15
-1.00000000000000E+20
 25
-1.00000000000000E+20
 35
-1.00000000000000E+20
146
0.0
 13
0.0
 23
0.0
 33
0.0
 16
1.0
 26
0.0
 36
0.0
 17
0.0
 27
1.0
 37
0.0
 76
     0
330
1B
  0
LAYOUT
  5
26
102
{ACAD_REACTORS
330
1A
102
}
330
1A
100
AcDbPlotSettings
  1

  2
none_device
  4

  6

 40
0.0
 41
0.0
 42
0.0
 43
0.0
 44
0.0
 45
0.0
 46
0.0
 47
0.0
 48
0.0
 49
0.0
140
0.0
141
0.0
142
1.0
143
1.0
 70
   688
 72
     0
 73
     0
 74
     5
  7

 75
    16
 76
     0
 77
     2
 78
   300
147
1.0
148
0.0
149
0.0
100
AcDbLayout
  1
Layout2
 70
     1
 71
     2
 10
0.0
 20
0.0
 11
0.0
 21
0.0
 12
0.0
 22
0.0
 32
0.0
 14
0.0
 24
0.0
 34
0.0
 15
0.0
 25
0.0
 35
0.0
146
0.0
 13
0.0
 23
0.0
 33
0.0
 16
1.0
 26
0.0
 36
0.0
 17
0.0
 27
1.0
 37
0.0
 76
     0
330
23
  0
LAYOUT
  5
22
102
{ACAD_REACTORS
330
1A
102
}
330
1A
100
AcDbPlotSettings
  1

  2
none_device
  4

  6

 40
0.0
 41
0.0
 42
0.0
 43
0.0
 44
0.0
 45
0.0
 46
0.0
 47
0.0
 48
0.0
 49
0.0
140
0.0
141
0.0
142
1.0
143
1.0
 70
  1712
 72
     0
 73
     0
 74
     0
  7

 75
     0
 76
     0
 77
     2
 78
   300
147
1.0
148
0.0
149
0.0
100
AcDbLayout
  1
Model
 70
     1
 71
     0
 10
0.0
 20
0.0
 11
12.0
 21
9.0
 12
0.0
 22
0.0
 32
0.0
 14
-166.5000024525282
 24
301.6500001354356
 34
0.0
 15
253.4999975474702
 25
598.6500001354356
 35
0.0
146
0.0
 13
0.0
 23
0.0
 33
0.0
 16
1.0
 26
0.0
 36
0.0
 17
0.0
 27
1.0
 37
0.0
 76
     0
330
1F
331
29
  0
MATERIAL
  5
3D
102
{ACAD_REACTORS
330
3B
102
}
102
{ACAD_XDICTIONARY
360
3DA
102
}
330
3B
100
AcDbMaterial
  1
ByBlock
  0
MATERIAL
  5
3C
102
{ACAD_REACTORS
330
3B
102
}
102
{ACAD_XDICTIONARY
360
3D8
102
}
330
3B
100
AcDbMaterial
  1
ByLayer
  0
MATERIAL
  5
3E
102
{ACAD_REACTORS
330
3B
102
}
102
{ACAD_XDICTIONARY
360
3DC
102
}
330
3B
100
AcDbMaterial
  1
Global
  0
MLINESTYLE
  5
18
102
{ACAD_REACTORS
330
17
102
}
330
17
100
AcDbMlineStyle
  2
Standard
 70
     0
  3

 62
   256
 51
90.0
 52
90.0
 71
     2
 49
0.5
 62
   256
  6
BYLAYER
 49
-0.5
 62
   256
  6
BYLAYER
  0
ACDBPLACEHOLDER
  5
F
102
{ACAD_REACTORS
330
E
102
}
330
E
  0
VISUALSTYLE
  5
2F
102
{ACAD_REACTORS
330
2A
102
}
102
{ACAD_XDICTIONARY
360
3C0
102
}
330
2A
100
AcDbVisualStyle
  2
2dWireframe
 70
     4
 71
     0
 72
     2
 73
     0
 90
        0
 40
-0.6
 41
-30.0
 62
     5
 63
     7
421
 16777215
 74
     1
 91
        4
 64
     7
 65
   257
 75
     1
175
     1
 42
1.0
 92
        0
 66
   257
 43
1.0
 76
     1
 77
     6
 78
     2
 67
     7
 79
     5
170
     0
171
     0
290
     0
174
     0
 93
        1
 44
0.0
173
     0
291
     0
 45
0.0
1001
ACAD
1000
AcDbSavedByObjectVersion
1070
     0
  0
VISUALSTYLE
  5
31
102
{ACAD_REACTORS
330
2A
102
}
102
{ACAD_XDICTIONARY
360
3C4
102
}
330
2A
100
AcDbVisualStyle
  2
3D Hidden
 70
     6
 71
     1
 72
     2
 73
     2
 90
        0
 40
-0.6
 41
-30.0
 62
     5
 63
     7
421
 16777215
 74
     2
 91
        2
 64
     7
 65
   257
 75
     2
175
     1
 42
40.0
 92
        0
 66
   257
 43
1.0
 76
     1
 77
     6
 78
     2
 67
     7
 79
     3
170
     0
171
     0
290
     0
174
     0
 93
        1
 44
0.0
173
     0
291
     0
 45
0.0
1001
ACAD
1000
AcDbSavedByObjectVersion
1070
     0
  0
VISUALSTYLE
  5
30
102
{ACAD_REACTORS
330
2A
102
}
102
{ACAD_XDICTIONARY
360
3C2
102
}
330
2A
100
AcDbVisualStyle
  2
3dWireframe
 70
     5
 71
     0
 72
     2
 73
     0
 90
        0
 40
-0.6
 41
-30.0
 62
     5
 63
     7
421
 16777215
 74
     1
 91
        4
 64
     7
 65
   257
 75
     1
175
     1
 42
1.0
 92
        0
 66
   257
 43
1.0
 76
     1
 77
     6
 78
     2
 67
     7
 79
     5
170
     0
171
     0
290
     0
174
     0
 93
        1
 44
0.0
173
     0
291
     0
 45
0.0
1001
ACAD
1000
AcDbSavedByObjectVersion
1070
     0
  0
VISUALSTYLE
  5
32
102
{ACAD_REACTORS
330
2A
102
}
102
{ACAD_XDICTIONARY
360
3C6
102
}
330
2A
100
AcDbVisualStyle
  2
Basic
 70
     7
 71
     1
 72
     0
 73
     1
 90
        0
 40
-0.6
 41
-30.0
 62
     5
 63
     7
421
 16777215
 74
     0
 91
        4
 64
     7
 65
   257
 75
     1
175
     1
 42
1.0
 92
        8
 66
     7
 43
1.0
 76
     1
 77
     6
 78
     2
 67
     7
 79
     5
170
     0
171
     0
290
     0
174
     0
 93
        1
 44
0.0
173
     0
291
     1
 45
0.0
1001
ACAD
1000
AcDbSavedByObjectVersion
1070
     0
  0
VISUALSTYLE
  5
36
102
{ACAD_REACTORS
330
2A
102
}
102
{ACAD_XDICTIONARY
360
3CE
102
}
330
2A
100
AcDbVisualStyle
  2
Brighten
 70
    12
 71
     2
 72
     2
 73
     0
 90
        0
 40
-0.6
 41
-30.0
 62
     5
 63
     7
421
 16777215
 74
     1
 91
        4
 64
     7
 65
   257
 75
     1
175
     1
 42
1.0
 92
        8
 66
     7
 43
1.0
 76
     1
 77
     6
 78
     2
 67
     7
 79
     5
170
     0
171
     0
290
     0
174
     0
 93
        1
 44
50.0
173
     0
291
     1
 45
0.0
1001
ACAD
1000
AcDbSavedByObjectVersion
1070
     0
  0
VISUALSTYLE
  5
3A
102
{ACAD_REACTORS
330
2A
102
}
102
{ACAD_XDICTIONARY
360
3D6
102
}
330
2A
100
AcDbVisualStyle
  2
ColorChange
 70
    16
 71
     2
 72
     2
 73
     3
 90
        0
 40
-0.6
 41
-30.0
 62
     5
 63
     8
421
  8421504
 74
     1
 91
        4
 64
     7
 65
   257
 75
     1
175
     1
 42
1.0
 92
        8
 66
     8
424
  8421504
 43
1.0
 76
     1
 77
     6
 78
     2
 67
     7
 79
     5
170
     0
171
     0
290
     0
174
     0
 93
        1
 44
0.0
173
     0
291
     1
 45
0.0
1001
ACAD
1000
AcDbSavedByObjectVersion
1070
     0
  0
VISUALSTYLE
  5
34
102
{ACAD_REACTORS
330
2A
102
}
102
{ACAD_XDICTIONARY
360
3CA
102
}
330
2A
100
AcDbVisualStyle
  2
Conceptual
 70
     9
 71
     3
 72
     2
 73
     0
 90
        0
 40
-0.6
 41
-30.0
 62
     5
 63
     7
421
 16777215
 74
     2
 91
        2
 64
     7
 65
   257
 75
     1
175
     1
 42
40.0
 92
        8
 66
     7
 43
1.0
 76
     1
 77
     6
 78
     2
 67
     7
 79
     3
170
     0
171
     0
290
     0
174
     0
 93
        1
 44
0.0
173
     0
291
     0
 45
0.0
1001
ACAD
1000
AcDbSavedByObjectVersion
1070
     0
  0
VISUALSTYLE
  5
35
102
{ACAD_REACTORS
330
2A
102
}
102
{ACAD_XDICTIONARY
360
3CC
102
}
330
2A
100
AcDbVisualStyle
  2
Dim
 70
    11
 71
     2
 72
     2
 73
     0
 90
        0
 40
-0.6
 41
-30.0
 62
     5
 63
     7
421
 16777215
 74
     1
 91
        4
 64
     7
 65
   257
 75
     1
175
     1
 42
1.0
 92
        8
 66
     7
 43
1.0
 76
     1
 77
     6
 78
     2
 67
     7
 79
     5
170
     0
171
     0
290
     0
174
     0
 93
        1
 44
-50.0
173
     0
291
     1
 45
0.0
1001
ACAD
1000
AcDbSavedByObjectVersion
1070
     0
  0
VISUALSTYLE
  5
39
102
{ACAD_REACTORS
330
2A
102
}
102
{ACAD_XDICTIONARY
360
3D4
102
}
330
2A
100
AcDbVisualStyle
  2
Facepattern
 70
    15
 71
     2
 72
     2
 73
     0
 90
        0
 40
-0.6
 41
-30.0
 62
     5
 63
     7
421
 16777215
 74
     1
 91
        4
 64
     7
 65
   257
 75
     1
175
     1
 42
1.0
 92
        8
 66
     7
 43
1.0
 76
     1
 77
     6
 78
     2
 67
     7
 79
     5
170
     0
171
     0
290
     0
174
     0
 93
        1
 44
0.0
173
     0
291
     1
 45
0.0
1001
ACAD
1000
AcDbSavedByObjectVersion
1070
     0
  0
VISUALSTYLE
  5
2B
102
{ACAD_REACTORS
330
2A
102
}
102
{ACAD_XDICTIONARY
360
3B8
102
}
330
2A
100
AcDbVisualStyle
  2
Flat
 70
     0
 71
     2
 72
     1
 73
     1
 90
        2
 40
-0.6
 41
30.0
 62
     5
 63
     7
421
 16777215
 74
     0
 91
        4
 64
     7
 65
   257
 75
     1
175
     1
 42
1.0
 92
        8
 66
     7
 43
1.0
 76
     1
 77
     6
 78
     2
 67
     7
 79
     5
170
     0
171
     0
290
     0
174
     0
 93
       13
 44
0.0
173
     0
291
     1
 45
0.0
1001
ACAD
1000
AcDbSavedByObjectVersion
1070
     0
  0
VISUALSTYLE
  5
2C
102
{ACAD_REACTORS
330
2A
102
}
102
{ACAD_XDICTIONARY
360
3BA
102
}
330
2A
100
AcDbVisualStyle
  2
FlatWithEdges
 70
     1
 71
     2
 72
     1
 73
     1
 90
        2
 40
-0.6
 41
30.0
 62
     5
 63
     7
421
 16777215
 74
     1
 91
        4
 64
     7
 65
   257
 75
     1
175
     1
 42
1.0
 92
        0
 66
   257
 43
1.0
 76
     1
 77
     6
 78
     2
 67
     7
 79
     5
170
     0
171
     0
290
     0
174
     0
 93
       13
 44
0.0
173
     0
291
     1
 45
0.0
1001
ACAD
1000
AcDbSavedByObjectVersion
1070
     0
  0
VISUALSTYLE
  5
2D
102
{ACAD_REACTORS
330
2A
102
}
102
{ACAD_XDICTIONARY
360
3BC
102
}
330
2A
100
AcDbVisualStyle
  2
Gouraud
 70
     2
 71
     2
 72
     2
 73
     1
 90
        2
 40
-0.6
 41
30.0
 62
     5
 63
     7
421
 16777215
 74
     0
 91
        4
 64
     7
 65
   257
 75
     1
175
     1
 42
1.0
 92
        0
 66
     7
 43
1.0
 76
     1
 77
     6
 78
     2
 67
     7
 79
     5
170
     0
171
     0
290
     0
174
     0
 93
       13
 44
0.0
173
     0
291
     1
 45
0.0
1001
ACAD
1000
AcDbSavedByObjectVersion
1070
     0
  0
VISUALSTYLE
  5
2E
102
{ACAD_REACTORS
330
2A
102
}
102
{ACAD_XDICTIONARY
360
3BE
102
}
330
2A
100
AcDbVisualStyle
  2
GouraudWithEdges
 70
     3
 71
     2
 72
     2
 73
     1
 90
        2
 40
-0.6
 41
30.0
 62
     5
 63
     7
421
 16777215
 74
     1
 91
        4
 64
     7
 65
   257
 75
     1
175
     1
 42
1.0
 92
        0
 66
   257
 43
1.0
 76
     1
 77
     6
 78
     2
 67
     7
 79
     5
170
     0
171
     0
290
     0
174
     0
 93
       13
 44
0.0
173
     0
291
     1
 45
0.0
1001
ACAD
1000
AcDbSavedByObjectVersion
1070
     0
  0
VISUALSTYLE
  5
38
102
{ACAD_REACTORS
330
2A
102
}
102
{ACAD_XDICTIONARY
360
3D2
102
}
330
2A
100
AcDbVisualStyle
  2
Linepattern
 70
    14
 71
     2
 72
     2
 73
     0
 90
        0
 40
-0.6
 41
-30.0
 62
     5
 63
     7
421
 16777215
 74
     1
 91
        4
 64
     7
 65
   257
 75
     7
175
     7
 42
1.0
 92
        8
 66
     7
 43
1.0
 76
     1
 77
     6
 78
     2
 67
     7
 79
     5
170
     0
171
     0
290
     0
174
     0
 93
        1
 44
0.0
173
     0
291
     1
 45
0.0
1001
ACAD
1000
AcDbSavedByObjectVersion
1070
     0
  0
VISUALSTYLE
  5
33
102
{ACAD_REACTORS
330
2A
102
}
102
{ACAD_XDICTIONARY
360
3C8
102
}
330
2A
100
AcDbVisualStyle
  2
Realistic
 70
     8
 71
     2
 72
     2
 73
     0
 90
        0
 40
-0.6
 41
-30.0
 62
     5
 63
     7
421
 16777215
 74
     1
 91
        0
 64
     7
 65
   257
 75
     1
175
     1
 42
1.0
 92
        8
 66
     8
424
  7895160
 43
1.0
 76
     1
 77
     6
 78
     2
 67
     7
 79
     5
170
     0
171
     0
290
     0
174
     0
 93
       13
 44
0.0
173
     0
291
     0
 45
0.0
1001
ACAD
1000
AcDbSavedByObjectVersion
1070
     0
  0
VISUALSTYLE
  5
37
102
{ACAD_REACTORS
330
2A
102
}
102
{ACAD_XDICTIONARY
360
3D0
102
}
330
2A
100
AcDbVisualStyle
  2
Thicken
 70
    13
 71
     2
 72
     2
 73
     0
 90
        0
 40
-0.6
 41
-30.0
 62
     5
 63
     7
421
 16777215
 74
     1
 91
        4
 64
     7
 65
   257
 75
     1
175
     1
 42
1.0
 92
       12
 66
     7
 43
1.0
 76
     1
 77
     6
 78
     2
 67
     7
 79
     5
170
     0
171
     0
290
     0
174
     0
 93
        1
 44
0.0
173
     0
291
     1
 45
0.0
1001
ACAD
1000
AcDbSavedByObjectVersion
1070
     0
  0
DICTIONARY
  5
3DA
330
3D
100
AcDbDictionary
280
     1
281
     1
  3
ACAD_XREC_ROUNDTRIP
360
3DB
  0
DICTIONARY
  5
3D8
330
3C
100
AcDbDictionary
280
     1
281
     1
  3
ACAD_XREC_ROUNDTRIP
360
3D9
  0
DICTIONARY
  5
3DC
330
3E
100
AcDbDictionary
280
     1
281
     1
  3
ACAD_XREC_ROUNDTRIP
360
3DD
  0
DICTIONARY
  5
3C0
330
2F
100
AcDbDictionary
280
     1
281
     1
  3
ACAD_XREC_ROUNDTRIP
360
3C1
  0
DICTIONARY
  5
3C4
330
31
100
AcDbDictionary
280
     1
281
     1
  3
ACAD_XREC_ROUNDTRIP
360
3C5
  0
DICTIONARY
  5
3C2
330
30
100
AcDbDictionary
280
     1
281
     1
  3
ACAD_XREC_ROUNDTRIP
360
3C3
  0
DICTIONARY
  5
3C6
330
32
100
AcDbDictionary
280
     1
281
     1
  3
ACAD_XREC_ROUNDTRIP
360
3C7
  0
DICTIONARY
  5
3CE
330
36
100
AcDbDictionary
280
     1
281
     1
  3
ACAD_XREC_ROUNDTRIP
360
3CF
  0
DICTIONARY
  5
3D6
330
3A
100
AcDbDictionary
280
     1
281
     1
  3
ACAD_XREC_ROUNDTRIP
360
3D7
  0
DICTIONARY
  5
3CA
330
34
100
AcDbDictionary
280
     1
281
     1
  3
ACAD_XREC_ROUNDTRIP
360
3CB
  0
DICTIONARY
  5
3CC
330
35
100
AcDbDictionary
280
     1
281
     1
  3
ACAD_XREC_ROUNDTRIP
360
3CD
  0
DICTIONARY
  5
3D4
330
39
100
AcDbDictionary
280
     1
281
     1
  3
ACAD_XREC_ROUNDTRIP
360
3D5
  0
DICTIONARY
  5
3B8
330
2B
100
AcDbDictionary
280
     1
281
     1
  3
ACAD_XREC_ROUNDTRIP
360
3B9
  0
DICTIONARY
  5
3BA
330
2C
100
AcDbDictionary
280
     1
281
     1
  3
ACAD_XREC_ROUNDTRIP
360
3BB
  0
DICTIONARY
  5
3BC
330
2D
100
AcDbDictionary
280
     1
281
     1
  3
ACAD_XREC_ROUNDTRIP
360
3BD
  0
DICTIONARY
  5
3BE
330
2E
100
AcDbDictionary
280
     1
281
     1
  3
ACAD_XREC_ROUNDTRIP
360
3BF
  0
DICTIONARY
  5
3D2
330
38
100
AcDbDictionary
280
     1
281
     1
  3
ACAD_XREC_ROUNDTRIP
360
3D3
  0
DICTIONARY
  5
3C8
330
33
100
AcDbDictionary
280
     1
281
     1
  3
ACAD_XREC_ROUNDTRIP
360
3C9
  0
DICTIONARY
  5
3D0
330
37
100
AcDbDictionary
280
     1
281
     1
  3
ACAD_XREC_ROUNDTRIP
360
3D1
  0
XRECORD
  5
3DB
102
{ACAD_REACTORS
330
3DA
102
}
330
3DA
100
AcDbXrecord
280
     1
102
MATERIAL
148
0.0
149
0.0
149
0.0
 93
        0
 94
      127
282
     0
 72
     1
 77
     1
171
     1
175
     1
179
     1
273
     0
  0
XRECORD
  5
3D9
102
{ACAD_REACTORS
330
3D8
102
}
330
3D8
100
AcDbXrecord
280
     1
102
MATERIAL
148
0.0
149
0.0
149
0.0
 93
        0
 94
      127
282
     0
 72
     1
 77
     1
171
     1
175
     1
179
     1
273
     0
  0
XRECORD
  5
3DD
102
{ACAD_REACTORS
330
3DC
102
}
330
3DC
100
AcDbXrecord
280
     1
102
MATERIAL
148
0.0
149
0.0
149
0.0
 93
        0
 94
      127
282
     0
 72
     1
 77
     1
171
     1
175
     1
179
     1
273
     0
  0
XRECORD
  5
3C1
102
{ACAD_REACTORS
330
3C0
102
}
330
3C0
100
AcDbXrecord
280
     1
102
RTVSPropertyOp0
 70
     1
102
RTVSPropertyOp1
 70
     1
102
RTVSPropertyOp2
 70
     1
102
RTVSPropertyOp3
 70
     1
102
RTVSPropertyOp4
 70
     1
102
RTVSPropertyOp5
 70
     1
102
RTVSPropertyOp6
 70
     1
102
RTVSPropertyOp7
 70
     1
102
RTVSPropertyOp8
 70
     1
102
RTVSPropertyOp9
 70
     1
102
RTVSPropertyOp10
 70
     1
102
RTVSPropertyOp11
 70
     1
102
RTVSPropertyOp12
 70
     1
102
RTVSPropertyOp13
 70
     1
102
RTVSPropertyOp14
 70
     1
102
RTVSPropertyOp15
 70
     1
102
RTVSPropertyOp16
 70
     1
102
RTVSPropertyOp17
 70
     1
102
RTVSPropertyOp18
 70
     1
102
RTVSPropertyOp19
 70
     1
102
RTVSPropertyOp20
 70
     1
102
RTVSPropertyOp21
 70
     1
102
RTVSPropertyOp22
 70
     1
102
RTVSPropertyOp23
 70
     1
102
RTVSPropertyOp24
 70
     1
102
RTVSPropertyOp25
 70
     1
102
RTVSPropertyOp26
 70
     1
102
RTVSPropertyOp27
 70
     1
102
RTVSPropertyOp28
 70
     1
102
RTVSPropertyOp29
 70
     1
102
RTVSPropertyOp30
 70
     1
102
RTVSPropertyOp31
 70
     1
102
RTVSPropertyOp32
 70
     1
  0
XRECORD
  5
3C5
102
{ACAD_REACTORS
330
3C4
102
}
330
3C4
100
AcDbXrecord
280
     1
102
RTVSPropertyOp0
 70
     1
102
RTVSPropertyOp1
 70
     1
102
RTVSPropertyOp2
 70
     1
102
RTVSPropertyOp3
 70
     1
102
RTVSPropertyOp4
 70
     1
102
RTVSPropertyOp5
 70
     1
102
RTVSPropertyOp6
 70
     1
102
RTVSPropertyOp7
 70
     1
102
RTVSPropertyOp8
 70
     1
102
RTVSPropertyOp9
 70
     1
102
RTVSPropertyOp10
 70
     1
102
RTVSPropertyOp11
 70
     1
102
RTVSPropertyOp12
 70
     1
102
RTVSPropertyOp13
 70
     1
102
RTVSPropertyOp14
 70
     1
102
RTVSPropertyOp15
 70
     1
102
RTVSPropertyOp16
 70
     1
102
RTVSPropertyOp17
 70
     1
102
RTVSPropertyOp18
 70
     1
102
RTVSPropertyOp19
 70
     1
102
RTVSPropertyOp20
 70
     1
102
RTVSPropertyOp21
 70
     1
102
RTVSPropertyOp22
 70
     1
102
RTVSPropertyOp23
 70
     1
102
RTVSPropertyOp24
 70
     1
102
RTVSPropertyOp25
 70
     1
102
RTVSPropertyOp26
 70
     1
102
RTVSPropertyOp27
 70
     1
102
RTVSPropertyOp28
 70
     1
102
RTVSPropertyOp29
 70
     1
102
RTVSPropertyOp30
 70
     1
102
RTVSPropertyOp31
 70
     1
102
RTVSPropertyOp32
 70
     1
  0
XRECORD
  5
3C3
102
{ACAD_REACTORS
330
3C2
102
}
330
3C2
100
AcDbXrecord
280
     1
102
RTVSPropertyOp0
 70
     1
102
RTVSPropertyOp1
 70
     1
102
RTVSPropertyOp2
 70
     1
102
RTVSPropertyOp3
 70
     1
102
RTVSPropertyOp4
 70
     1
102
RTVSPropertyOp5
 70
     1
102
RTVSPropertyOp6
 70
     1
102
RTVSPropertyOp7
 70
     1
102
RTVSPropertyOp8
 70
     1
102
RTVSPropertyOp9
 70
     1
102
RTVSPropertyOp10
 70
     1
102
RTVSPropertyOp11
 70
     1
102
RTVSPropertyOp12
 70
     1
102
RTVSPropertyOp13
 70
     1
102
RTVSPropertyOp14
 70
     1
102
RTVSPropertyOp15
 70
     1
102
RTVSPropertyOp16
 70
     1
102
RTVSPropertyOp17
 70
     1
102
RTVSPropertyOp18
 70
     1
102
RTVSPropertyOp19
 70
     1
102
RTVSPropertyOp20
 70
     1
102
RTVSPropertyOp21
 70
     1
102
RTVSPropertyOp22
 70
     1
102
RTVSPropertyOp23
 70
     1
102
RTVSPropertyOp24
 70
     1
102
RTVSPropertyOp25
 70
     1
102
RTVSPropertyOp26
 70
     1
102
RTVSPropertyOp27
 70
     1
102
RTVSPropertyOp28
 70
     1
102
RTVSPropertyOp29
 70
     1
102
RTVSPropertyOp30
 70
     1
102
RTVSPropertyOp31
 70
     1
102
RTVSPropertyOp32
 70
     1
  0
XRECORD
  5
3C7
102
{ACAD_REACTORS
330
3C6
102
}
330
3C6
100
AcDbXrecord
280
     1
102
RTVSPropertyOp0
 70
     1
102
RTVSPropertyOp1
 70
     1
102
RTVSPropertyOp2
 70
     1
102
RTVSPropertyOp3
 70
     1
102
RTVSPropertyOp4
 70
     1
102
RTVSPropertyOp5
 70
     1
102
RTVSPropertyOp6
 70
     1
102
RTVSPropertyOp7
 70
     1
102
RTVSPropertyOp8
 70
     1
102
RTVSPropertyOp9
 70
     1
102
RTVSPropertyOp10
 70
     1
102
RTVSPropertyOp11
 70
     1
102
RTVSPropertyOp12
 70
     1
102
RTVSPropertyOp13
 70
     1
102
RTVSPropertyOp14
 70
     1
102
RTVSPropertyOp15
 70
     1
102
RTVSPropertyOp16
 70
     1
102
RTVSPropertyOp17
 70
     1
102
RTVSPropertyOp18
 70
     1
102
RTVSPropertyOp19
 70
     1
102
RTVSPropertyOp20
 70
     1
102
RTVSPropertyOp21
 70
     1
102
RTVSPropertyOp22
 70
     1
102
RTVSPropertyOp23
 70
     1
102
RTVSPropertyOp24
 70
     1
102
RTVSPropertyOp25
 70
     1
102
RTVSPropertyOp26
 70
     1
102
RTVSPropertyOp27
 70
     1
102
RTVSPropertyOp28
 70
     1
102
RTVSPropertyOp29
 70
     1
102
RTVSPropertyOp30
 70
     1
102
RTVSPropertyOp31
 70
     1
102
RTVSPropertyOp32
 70
     1
  0
XRECORD
  5
3CF
102
{ACAD_REACTORS
330
3CE
102
}
330
3CE
100
AcDbXrecord
280
     1
102
RTVSPropertyOp0
 70
     1
102
RTVSPropertyOp1
 70
     1
102
RTVSPropertyOp2
 70
     1
102
RTVSPropertyOp3
 70
     1
102
RTVSPropertyOp4
 70
     1
102
RTVSPropertyOp5
 70
     1
102
RTVSPropertyOp6
 70
     1
102
RTVSPropertyOp7
 70
     1
102
RTVSPropertyOp8
 70
     1
102
RTVSPropertyOp9
 70
     1
102
RTVSPropertyOp10
 70
     1
102
RTVSPropertyOp11
 70
     1
102
RTVSPropertyOp12
 70
     1
102
RTVSPropertyOp13
 70
     1
102
RTVSPropertyOp14
 70
     1
102
RTVSPropertyOp15
 70
     1
102
RTVSPropertyOp16
 70
     1
102
RTVSPropertyOp17
 70
     1
102
RTVSPropertyOp18
 70
     1
102
RTVSPropertyOp19
 70
     1
102
RTVSPropertyOp20
 70
     1
102
RTVSPropertyOp21
 70
     1
102
RTVSPropertyOp22
 70
     1
102
RTVSPropertyOp23
 70
     1
102
RTVSPropertyOp24
 70
     1
102
RTVSPropertyOp25
 70
     1
102
RTVSPropertyOp26
 70
     1
102
RTVSPropertyOp27
 70
     1
102
RTVSPropertyOp28
 70
     1
102
RTVSPropertyOp29
 70
     1
102
RTVSPropertyOp30
 70
     1
102
RTVSPropertyOp31
 70
     1
102
RTVSPropertyOp32
 70
     1
  0
XRECORD
  5
3D7
102
{ACAD_REACTORS
330
3D6
102
}
330
3D6
100
AcDbXrecord
280
     1
102
RTVSPropertyOp0
 70
     1
102
RTVSPropertyOp1
 70
     1
102
RTVSPropertyOp2
 70
     1
102
RTVSPropertyOp3
 70
     1
102
RTVSPropertyOp4
 70
     1
102
RTVSPropertyOp5
 70
     1
102
RTVSPropertyOp6
 70
     1
102
RTVSPropertyOp7
 70
     1
102
RTVSPropertyOp8
 70
     1
102
RTVSPropertyOp9
 70
     1
102
RTVSPropertyOp10
 70
     1
102
RTVSPropertyOp11
 70
     1
102
RTVSPropertyOp12
 70
     1
102
RTVSPropertyOp13
 70
     1
102
RTVSPropertyOp14
 70
     1
102
RTVSPropertyOp15
 70
     1
102
RTVSPropertyOp16
 70
     1
102
RTVSPropertyOp17
 70
     1
102
RTVSPropertyOp18
 70
     1
102
RTVSPropertyOp19
 70
     1
102
RTVSPropertyOp20
 70
     1
102
RTVSPropertyOp21
 70
     1
102
RTVSPropertyOp22
 70
     1
102
RTVSPropertyOp23
 70
     1
102
RTVSPropertyOp24
 70
     1
102
RTVSPropertyOp25
 70
     1
102
RTVSPropertyOp26
 70
     1
102
RTVSPropertyOp27
 70
     1
102
RTVSPropertyOp28
 70
     1
102
RTVSPropertyOp29
 70
     1
102
RTVSPropertyOp30
 70
     1
102
RTVSPropertyOp31
 70
     1
102
RTVSPropertyOp32
 70
     1
  0
XRECORD
  5
3CB
102
{ACAD_REACTORS
330
3CA
102
}
330
3CA
100
AcDbXrecord
280
     1
102
RTVSPropertyOp0
 70
     1
102
RTVSPropertyOp1
 70
     1
102
RTVSPropertyOp2
 70
     1
102
RTVSPropertyOp3
 70
     1
102
RTVSPropertyOp4
 70
     1
102
RTVSPropertyOp5
 70
     1
102
RTVSPropertyOp6
 70
     1
102
RTVSPropertyOp7
 70
     1
102
RTVSPropertyOp8
 70
     1
102
RTVSPropertyOp9
 70
     1
102
RTVSPropertyOp10
 70
     1
102
RTVSPropertyOp11
 70
     1
102
RTVSPropertyOp12
 70
     1
102
RTVSPropertyOp13
 70
     1
102
RTVSPropertyOp14
 70
     1
102
RTVSPropertyOp15
 70
     1
102
RTVSPropertyOp16
 70
     1
102
RTVSPropertyOp17
 70
     1
102
RTVSPropertyOp18
 70
     1
102
RTVSPropertyOp19
 70
     1
102
RTVSPropertyOp20
 70
     1
102
RTVSPropertyOp21
 70
     1
102
RTVSPropertyOp22
 70
     1
102
RTVSPropertyOp23
 70
     1
102
RTVSPropertyOp24
 70
     1
102
RTVSPropertyOp25
 70
     1
102
RTVSPropertyOp26
 70
     1
102
RTVSPropertyOp27
 70
     1
102
RTVSPropertyOp28
 70
     1
102
RTVSPropertyOp29
 70
     1
102
RTVSPropertyOp30
 70
     1
102
RTVSPropertyOp31
 70
     1
102
RTVSPropertyOp32
 70
     1
  0
XRECORD
  5
3CD
102
{ACAD_REACTORS
330
3CC
102
}
330
3CC
100
AcDbXrecord
280
     1
102
RTVSPropertyOp0
 70
     1
102
RTVSPropertyOp1
 70
     1
102
RTVSPropertyOp2
 70
     1
102
RTVSPropertyOp3
 70
     1
102
RTVSPropertyOp4
 70
     1
102
RTVSPropertyOp5
 70
     1
102
RTVSPropertyOp6
 70
     1
102
RTVSPropertyOp7
 70
     1
102
RTVSPropertyOp8
 70
     1
102
RTVSPropertyOp9
 70
     1
102
RTVSPropertyOp10
 70
     1
102
RTVSPropertyOp11
 70
     1
102
RTVSPropertyOp12
 70
     1
102
RTVSPropertyOp13
 70
     1
102
RTVSPropertyOp14
 70
     1
102
RTVSPropertyOp15
 70
     1
102
RTVSPropertyOp16
 70
     1
102
RTVSPropertyOp17
 70
     1
102
RTVSPropertyOp18
 70
     1
102
RTVSPropertyOp19
 70
     1
102
RTVSPropertyOp20
 70
     1
102
RTVSPropertyOp21
 70
     1
102
RTVSPropertyOp22
 70
     1
102
RTVSPropertyOp23
 70
     1
102
RTVSPropertyOp24
 70
     1
102
RTVSPropertyOp25
 70
     1
102
RTVSPropertyOp26
 70
     1
102
RTVSPropertyOp27
 70
     1
102
RTVSPropertyOp28
 70
     1
102
RTVSPropertyOp29
 70
     1
102
RTVSPropertyOp30
 70
     1
102
RTVSPropertyOp31
 70
     1
102
RTVSPropertyOp32
 70
     1
  0
XRECORD
  5
3D5
102
{ACAD_REACTORS
330
3D4
102
}
330
3D4
100
AcDbXrecord
280
     1
102
RTVSPropertyOp0
 70
     1
102
RTVSPropertyOp1
 70
     1
102
RTVSPropertyOp2
 70
     1
102
RTVSPropertyOp3
 70
     1
102
RTVSPropertyOp4
 70
     1
102
RTVSPropertyOp5
 70
     1
102
RTVSPropertyOp6
 70
     1
102
RTVSPropertyOp7
 70
     1
102
RTVSPropertyOp8
 70
     1
102
RTVSPropertyOp9
 70
     1
102
RTVSPropertyOp10
 70
     1
102
RTVSPropertyOp11
 70
     1
102
RTVSPropertyOp12
 70
     1
102
RTVSPropertyOp13
 70
     1
102
RTVSPropertyOp14
 70
     1
102
RTVSPropertyOp15
 70
     1
102
RTVSPropertyOp16
 70
     1
102
RTVSPropertyOp17
 70
     1
102
RTVSPropertyOp18
 70
     1
102
RTVSPropertyOp19
 70
     1
102
RTVSPropertyOp20
 70
     1
102
RTVSPropertyOp21
 70
     1
102
RTVSPropertyOp22
 70
     1
102
RTVSPropertyOp23
 70
     1
102
RTVSPropertyOp24
 70
     1
102
RTVSPropertyOp25
 70
     1
102
RTVSPropertyOp26
 70
     1
102
RTVSPropertyOp27
 70
     1
102
RTVSPropertyOp28
 70
     1
102
RTVSPropertyOp29
 70
     1
102
RTVSPropertyOp30
 70
     1
102
RTVSPropertyOp31
 70
     1
102
RTVSPropertyOp32
 70
     1
  0
XRECORD
  5
3B9
102
{ACAD_REACTORS
330
3B8
102
}
330
3B8
100
AcDbXrecord
280
     1
102
RTVSPropertyOp0
 70
     1
102
RTVSPropertyOp1
 70
     1
102
RTVSPropertyOp2
 70
     1
102
RTVSPropertyOp3
 70
     1
102
RTVSPropertyOp4
 70
     1
102
RTVSPropertyOp5
 70
     1
102
RTVSPropertyOp6
 70
     1
102
RTVSPropertyOp7
 70
     1
102
RTVSPropertyOp8
 70
     1
102
RTVSPropertyOp9
 70
     1
102
RTVSPropertyOp10
 70
     1
102
RTVSPropertyOp11
 70
     1
102
RTVSPropertyOp12
 70
     1
102
RTVSPropertyOp13
 70
     1
102
RTVSPropertyOp14
 70
     1
102
RTVSPropertyOp15
 70
     1
102
RTVSPropertyOp16
 70
     1
102
RTVSPropertyOp17
 70
     1
102
RTVSPropertyOp18
 70
     1
102
RTVSPropertyOp19
 70
     1
102
RTVSPropertyOp20
 70
     1
102
RTVSPropertyOp21
 70
     1
102
RTVSPropertyOp22
 70
     1
102
RTVSPropertyOp23
 70
     1
102
RTVSPropertyOp24
 70
     1
102
RTVSPropertyOp25
 70
     1
102
RTVSPropertyOp26
 70
     1
102
RTVSPropertyOp27
 70
     1
102
RTVSPropertyOp28
 70
     1
102
RTVSPropertyOp29
 70
     1
102
RTVSPropertyOp30
 70
     1
102
RTVSPropertyOp31
 70
     1
102
RTVSPropertyOp32
 70
     1
  0
XRECORD
  5
3BB
102
{ACAD_REACTORS
330
3BA
102
}
330
3BA
100
AcDbXrecord
280
     1
102
RTVSPropertyOp0
 70
     1
102
RTVSPropertyOp1
 70
     1
102
RTVSPropertyOp2
 70
     1
102
RTVSPropertyOp3
 70
     1
102
RTVSPropertyOp4
 70
     1
102
RTVSPropertyOp5
 70
     1
102
RTVSPropertyOp6
 70
     1
102
RTVSPropertyOp7
 70
     1
102
RTVSPropertyOp8
 70
     1
102
RTVSPropertyOp9
 70
     1
102
RTVSPropertyOp10
 70
     1
102
RTVSPropertyOp11
 70
     1
102
RTVSPropertyOp12
 70
     1
102
RTVSPropertyOp13
 70
     1
102
RTVSPropertyOp14
 70
     1
102
RTVSPropertyOp15
 70
     1
102
RTVSPropertyOp16
 70
     1
102
RTVSPropertyOp17
 70
     1
102
RTVSPropertyOp18
 70
     1
102
RTVSPropertyOp19
 70
     1
102
RTVSPropertyOp20
 70
     1
102
RTVSPropertyOp21
 70
     1
102
RTVSPropertyOp22
 70
     1
102
RTVSPropertyOp23
 70
     1
102
RTVSPropertyOp24
 70
     1
102
RTVSPropertyOp25
 70
     1
102
RTVSPropertyOp26
 70
     1
102
RTVSPropertyOp27
 70
     1
102
RTVSPropertyOp28
 70
     1
102
RTVSPropertyOp29
 70
     1
102
RTVSPropertyOp30
 70
     1
102
RTVSPropertyOp31
 70
     1
102
RTVSPropertyOp32
 70
     1
  0
XRECORD
  5
3BD
102
{ACAD_REACTORS
330
3BC
102
}
330
3BC
100
AcDbXrecord
280
     1
102
RTVSPropertyOp0
 70
     1
102
RTVSPropertyOp1
 70
     1
102
RTVSPropertyOp2
 70
     1
102
RTVSPropertyOp3
 70
     1
102
RTVSPropertyOp4
 70
     1
102
RTVSPropertyOp5
 70
     1
102
RTVSPropertyOp6
 70
     1
102
RTVSPropertyOp7
 70
     1
102
RTVSPropertyOp8
 70
     1
102
RTVSPropertyOp9
 70
     1
102
RTVSPropertyOp10
 70
     1
102
RTVSPropertyOp11
 70
     1
102
RTVSPropertyOp12
 70
     1
102
RTVSPropertyOp13
 70
     1
102
RTVSPropertyOp14
 70
     1
102
RTVSPropertyOp15
 70
     1
102
RTVSPropertyOp16
 70
     1
102
RTVSPropertyOp17
 70
     1
102
RTVSPropertyOp18
 70
     1
102
RTVSPropertyOp19
 70
     1
102
RTVSPropertyOp20
 70
     1
102
RTVSPropertyOp21
 70
     1
102
RTVSPropertyOp22
 70
     1
102
RTVSPropertyOp23
 70
     1
102
RTVSPropertyOp24
 70
     1
102
RTVSPropertyOp25
 70
     1
102
RTVSPropertyOp26
 70
     1
102
RTVSPropertyOp27
 70
     1
102
RTVSPropertyOp28
 70
     1
102
RTVSPropertyOp29
 70
     1
102
RTVSPropertyOp30
 70
     1
102
RTVSPropertyOp31
 70
     1
102
RTVSPropertyOp32
 70
     1
  0
XRECORD
  5
3BF
102
{ACAD_REACTORS
330
3BE
102
}
330
3BE
100
AcDbXrecord
280
     1
102
RTVSPropertyOp0
 70
     1
102
RTVSPropertyOp1
 70
     1
102
RTVSPropertyOp2
 70
     1
102
RTVSPropertyOp3
 70
     1
102
RTVSPropertyOp4
 70
     1
102
RTVSPropertyOp5
 70
     1
102
RTVSPropertyOp6
 70
     1
102
RTVSPropertyOp7
 70
     1
102
RTVSPropertyOp8
 70
     1
102
RTVSPropertyOp9
 70
     1
102
RTVSPropertyOp10
 70
     1
102
RTVSPropertyOp11
 70
     1
102
RTVSPropertyOp12
 70
     1
102
RTVSPropertyOp13
 70
     1
102
RTVSPropertyOp14
 70
     1
102
RTVSPropertyOp15
 70
     1
102
RTVSPropertyOp16
 70
     1
102
RTVSPropertyOp17
 70
     1
102
RTVSPropertyOp18
 70
     1
102
RTVSPropertyOp19
 70
     1
102
RTVSPropertyOp20
 70
     1
102
RTVSPropertyOp21
 70
     1
102
RTVSPropertyOp22
 70
     1
102
RTVSPropertyOp23
 70
     1
102
RTVSPropertyOp24
 70
     1
102
RTVSPropertyOp25
 70
     1
102
RTVSPropertyOp26
 70
     1
102
RTVSPropertyOp27
 70
     1
102
RTVSPropertyOp28
 70
     1
102
RTVSPropertyOp29
 70
     1
102
RTVSPropertyOp30
 70
     1
102
RTVSPropertyOp31
 70
     1
102
RTVSPropertyOp32
 70
     1
  0
XRECORD
  5
3D3
102
{ACAD_REACTORS
330
3D2
102
}
330
3D2
100
AcDbXrecord
280
     1
102
RTVSPropertyOp0
 70
     1
102
RTVSPropertyOp1
 70
     1
102
RTVSPropertyOp2
 70
     1
102
RTVSPropertyOp3
 70
     1
102
RTVSPropertyOp4
 70
     1
102
RTVSPropertyOp5
 70
     1
102
RTVSPropertyOp6
 70
     1
102
RTVSPropertyOp7
 70
     1
102
RTVSPropertyOp8
 70
     1
102
RTVSPropertyOp9
 70
     1
102
RTVSPropertyOp10
 70
     1
102
RTVSPropertyOp11
 70
     1
102
RTVSPropertyOp12
 70
     1
102
RTVSPropertyOp13
 70
     1
102
RTVSPropertyOp14
 70
     1
102
RTVSPropertyOp15
 70
     1
102
RTVSPropertyOp16
 70
     1
102
RTVSPropertyOp17
 70
     1
102
RTVSPropertyOp18
 70
     1
102
RTVSPropertyOp19
 70
     1
102
RTVSPropertyOp20
 70
     1
102
RTVSPropertyOp21
 70
     1
102
RTVSPropertyOp22
 70
     1
102
RTVSPropertyOp23
 70
     1
102
RTVSPropertyOp24
 70
     1
102
RTVSPropertyOp25
 70
     1
102
RTVSPropertyOp26
 70
     1
102
RTVSPropertyOp27
 70
     1
102
RTVSPropertyOp28
 70
     1
102
RTVSPropertyOp29
 70
     1
102
RTVSPropertyOp30
 70
     1
102
RTVSPropertyOp31
 70
     1
102
RTVSPropertyOp32
 70
     1
  0
XRECORD
  5
3C9
102
{ACAD_REACTORS
330
3C8
102
}
330
3C8
100
AcDbXrecord
280
     1
102
RTVSPropertyOp0
 70
     1
102
RTVSPropertyOp1
 70
     1
102
RTVSPropertyOp2
 70
     1
102
RTVSPropertyOp3
 70
     1
102
RTVSPropertyOp4
 70
     1
102
RTVSPropertyOp5
 70
     1
102
RTVSPropertyOp6
 70
     1
102
RTVSPropertyOp7
 70
     1
102
RTVSPropertyOp8
 70
     1
102
RTVSPropertyOp9
 70
     1
102
RTVSPropertyOp10
 70
     1
102
RTVSPropertyOp11
 70
     1
102
RTVSPropertyOp12
 70
     1
102
RTVSPropertyOp13
 70
     1
102
RTVSPropertyOp14
 70
     1
102
RTVSPropertyOp15
 70
     1
102
RTVSPropertyOp16
 70
     1
102
RTVSPropertyOp17
 70
     1
102
RTVSPropertyOp18
 70
     1
102
RTVSPropertyOp19
 70
     1
102
RTVSPropertyOp20
 70
     1
102
RTVSPropertyOp21
 70
     1
102
RTVSPropertyOp22
 70
     1
102
RTVSPropertyOp23
 70
     1
102
RTVSPropertyOp24
 70
     1
102
RTVSPropertyOp25
 70
     1
102
RTVSPropertyOp26
 70
     1
102
RTVSPropertyOp27
 70
     1
102
RTVSPropertyOp28
 70
     1
102
RTVSPropertyOp29
 70
     1
102
RTVSPropertyOp30
 70
     1
102
RTVSPropertyOp31
 70
     1
102
RTVSPropertyOp32
 70
     1
  0
XRECORD
  5
3D1
102
{ACAD_REACTORS
330
3D0
102
}
330
3D0
100
AcDbXrecord
280
     1
102
RTVSPropertyOp0
 70
     1
102
RTVSPropertyOp1
 70
     1
102
RTVSPropertyOp2
 70
     1
102
RTVSPropertyOp3
 70
     1
102
RTVSPropertyOp4
 70
     1
102
RTVSPropertyOp5
 70
     1
102
RTVSPropertyOp6
 70
     1
102
RTVSPropertyOp7
 70
     1
102
RTVSPropertyOp8
 70
     1
102
RTVSPropertyOp9
 70
     1
102
RTVSPropertyOp10
 70
     1
102
RTVSPropertyOp11
 70
     1
102
RTVSPropertyOp12
 70
     1
102
RTVSPropertyOp13
 70
     1
102
RTVSPropertyOp14
 70
     1
102
RTVSPropertyOp15
 70
     1
102
RTVSPropertyOp16
 70
     1
102
RTVSPropertyOp17
 70
     1
102
RTVSPropertyOp18
 70
     1
102
RTVSPropertyOp19
 70
     1
102
RTVSPropertyOp20
 70
     1
102
RTVSPropertyOp21
 70
     1
102
RTVSPropertyOp22
 70
     1
102
RTVSPropertyOp23
 70
     1
102
RTVSPropertyOp24
 70
     1
102
RTVSPropertyOp25
 70
     1
102
RTVSPropertyOp26
 70
     1
102
RTVSPropertyOp27
 70
     1
102
RTVSPropertyOp28
 70
     1
102
RTVSPropertyOp29
 70
     1
102
RTVSPropertyOp30
 70
     1
102
RTVSPropertyOp31
 70
     1
102
RTVSPropertyOp32
 70
     1
  0
ENDSEC
  0
EOF
