  0
SECTION
  2
HEADER
  9
$ACADVER
  1
AC1018
  9
$ACADMAINTVER
 70
     0
  9
$DWGCODEPAGE
  3
ANSI_1252
  9
$INSBASE
 10
0.0
 20
0.0
 30
0.0
  9
$EXTMIN
 10
-386.6109844318795
 20
-272.688563924429
 30
0.0
  9
$EXTMAX
 10
-89.61098443188143
 20
-62.68856392442891
 30
0.0
  9
$LIMMIN
 10
0.0
 20
0.0
  9
$LIMMAX
 10
12.0
 20
9.0
  9
$ORTHOMODE
 70
     0
  9
$REGENMODE
 70
     1
  9
$FILLMODE
 70
     1
  9
$QTEXTMODE
 70
     0
  9
$MIRRTEXT
 70
     1
  9
$LTSCALE
 40
1.0
  9
$ATTMODE
 70
     1
  9
$TEXTSIZE
 40
0.2
  9
$TRACEWID
 40
0.05
  9
$TEXTSTYLE
  7
Standard
  9
$CLAYER
  8
0
  9
$CELTYPE
  6
ByLayer
  9
$CECOLOR
 62
   256
  9
$CELTSCALE
 40
1.0
  9
$DISPSILH
 70
     0
  9
$DIMSCALE
 40
1.0
  9
$DIMASZ
 40
0.18
  9
$DIMEXO
 40
0.0625
  9
$DIMDLI
 40
0.38
  9
$DIMRND
 40
0.0
  9
$DIMDLE
 40
0.0
  9
$DIMEXE
 40
0.18
  9
$DIMTP
 40
0.0
  9
$DIMTM
 40
0.0
  9
$DIMTXT
 40
0.18
  9
$DIMCEN
 40
0.09
  9
$DIMTSZ
 40
0.0
  9
$DIMTOL
 70
     0
  9
$DIMLIM
 70
     0
  9
$DIMTIH
 70
     1
  9
$DIMTOH
 70
     1
  9
$DIMSE1
 70
     0
  9
$DIMSE2
 70
     0
  9
$DIMTAD
 70
     0
  9
$DIMZIN
 70
     0
  9
$DIMBLK
  1

  9
$DIMASO
 70
     1
  9
$DIMSHO
 70
     1
  9
$DIMPOST
  1

  9
$DIMAPOST
  1

  9
$DIMALT
 70
     0
  9
$DIMALTD
 70
     2
  9
$DIMALTF
 40
25.4
  9
$DIMLFAC
 40
1.0
  9
$DIMTOFL
 70
     0
  9
$DIMTVP
 40
0.0
  9
$DIMTIX
 70
     0
  9
$DIMSOXD
 70
     0
  9
$DIMSAH
 70
     0
  9
$DIMBLK1
  1

  9
$DIMBLK2
  1

  9
$DIMSTYLE
  2
Standard
  9
$DIMCLRD
 70
     0
  9
$DIMCLRE
 70
     0
  9
$DIMCLRT
 70
     0
  9
$DIMTFAC
 40
1.0
  9
$DIMGAP
 40
0.09
  9
$DIMJUST
 70
     0
  9
$DIMSD1
 70
     0
  9
$DIMSD2
 70
     0
  9
$DIMTOLJ
 70
     1
  9
$DIMTZIN
 70
     0
  9
$DIMALTZ
 70
     0
  9
$DIMALTTZ
 70
     0
  9
$DIMUPT
 70
     0
  9
$DIMDEC
 70
     4
  9
$DIMTDEC
 70
     4
  9
$DIMALTU
 70
     2
  9
$DIMALTTD
 70
     2
  9
$DIMTXSTY
  7
Standard
  9
$DIMAUNIT
 70
     0
  9
$DIMADEC
 70
     0
  9
$DIMALTRND
 40
0.0
  9
$DIMAZIN
 70
     0
  9
$DIMDSEP
 70
    46
  9
$DIMATFIT
 70
     3
  9
$DIMFRAC
 70
     0
  9
$DIMLDRBLK
  1

  9
$DIMLUNIT
 70
     2
  9
$DIMLWD
 70
    -2
  9
$DIMLWE
 70
    -2
  9
$DIMTMOVE
 70
     0
  9
$LUNITS
 70
     2
  9
$LUPREC
 70
     4
  9
$SKETCHINC
 40
0.1
  9
$FILLETRAD
 40
0.5
  9
$AUNITS
 70
     0
  9
$AUPREC
 70
     0
  9
$MENU
  1
.
  9
$ELEVATION
 40
0.0
  9
$PELEVATION
 40
0.0
  9
$THICKNESS
 40
0.0
  9
$LIMCHECK
 70
     0
  9
$CHAMFERA
 40
0.5
  9
$CHAMFERB
 40
0.5
  9
$CHAMFERC
 40
1.0
  9
$CHAMFERD
 40
0.0
  9
$SKPOLY
 70
     0
  9
$TDCREATE
 40
2458465.624144803
  9
$TDUCREATE
 40
2458465.582478137
  9
$TDUPDATE
 40
2458465.624145521
  9
$TDUUPDATE
 40
2458465.582478854
  9
$TDINDWG
 40
0.0000000116
  9
$TDUSRTIMER
 40
0.0000000116
  9
$USRTIMER
 70
     1
  9
$ANGBASE
 50
0.0
  9
$ANGDIR
 70
     0
  9
$PDMODE
 70
     0
  9
$PDSIZE
 40
0.0
  9
$PLINEWID
 40
0.0
  9
$SPLFRAME
 70
     0
  9
$SPLINETYPE
 70
     6
  9
$SPLINESEGS
 70
     8
  9
$HANDSEED
  5
51B
  9
$SURFTAB1
 70
     6
  9
$SURFTAB2
 70
     6
  9
$SURFTYPE
 70
     6
  9
$SURFU
 70
     6
  9
$SURFV
 70
     6
  9
$UCSBASE
  2

  9
$UCSNAME
  2

  9
$UCSORG
 10
0.0
 20
0.0
 30
0.0
  9
$UCSXDIR
 10
1.0
 20
0.0
 30
0.0
  9
$UCSYDIR
 10
0.0
 20
1.0
 30
0.0
  9
$UCSORTHOREF
  2

  9
$UCSORTHOVIEW
 70
     0
  9
$UCSORGTOP
 10
0.0
 20
0.0
 30
0.0
  9
$UCSORGBOTTOM
 10
0.0
 20
0.0
 30
0.0
  9
$UCSORGLEFT
 10
0.0
 20
0.0
 30
0.0
  9
$UCSORGRIGHT
 10
0.0
 20
0.0
 30
0.0
  9
$UCSORGFRONT
 10
0.0
 20
0.0
 30
0.0
  9
$UCSORGBACK
 10
0.0
 20
0.0
 30
0.0
  9
$PUCSBASE
  2

  9
$PUCSNAME
  2

  9
$PUCSORG
 10
0.0
 20
0.0
 30
0.0
  9
$PUCSXDIR
 10
1.0
 20
0.0
 30
0.0
  9
$PUCSYDIR
 10
0.0
 20
1.0
 30
0.0
  9
$PUCSORTHOREF
  2

  9
$PUCSORTHOVIEW
 70
     0
  9
$PUCSORGTOP
 10
0.0
 20
0.0
 30
0.0
  9
$PUCSORGBOTTOM
 10
0.0
 20
0.0
 30
0.0
  9
$PUCSORGLEFT
 10
0.0
 20
0.0
 30
0.0
  9
$PUCSORGRIGHT
 10
0.0
 20
0.0
 30
0.0
  9
$PUCSORGFRONT
 10
0.0
 20
0.0
 30
0.0
  9
$PUCSORGBACK
 10
0.0
 20
0.0
 30
0.0
  9
$USERI1
 70
     0
  9
$USERI2
 70
     0
  9
$USERI3
 70
     0
  9
$USERI4
 70
     0
  9
$USERI5
 70
     0
  9
$USERR1
 40
18.1
  9
$USERR2
 40
0.0
  9
$USERR3
 40
0.0
  9
$USERR4
 40
0.0
  9
$USERR5
 40
0.0
  9
$WORLDVIEW
 70
     1
  9
$SHADEDGE
 70
     3
  9
$SHADEDIF
 70
    70
  9
$TILEMODE
 70
     1
  9
$MAXACTVP
 70
    64
  9
$PINSBASE
 10
0.0
 20
0.0
 30
0.0
  9
$PLIMCHECK
 70
     0
  9
$PEXTMIN
 10
1.00000000000000E+20
 20
1.00000000000000E+20
 30
1.00000000000000E+20
  9
$PEXTMAX
 10
-1.00000000000000E+20
 20
-1.00000000000000E+20
 30
-1.00000000000000E+20
  9
$PLIMMIN
 10
0.0
 20
0.0
  9
$PLIMMAX
 10
12.0
 20
9.0
  9
$UNITMODE
 70
     0
  9
$VISRETAIN
 70
     1
  9
$PLINEGEN
 70
     0
  9
$PSLTSCALE
 70
     1
  9
$TREEDEPTH
 70
  3020
  9
$CMLSTYLE
  2
Standard
  9
$CMLJUST
 70
     0
  9
$CMLSCALE
 40
1.0
  9
$PROXYGRAPHICS
 70
     1
  9
$MEASUREMENT
 70
     1
  9
$CELWEIGHT
370
    -1
  9
$ENDCAPS
280
     0
  9
$JOINSTYLE
280
     0
  9
$LWDISPLAY
290
     0
  9
$INSUNITS
 70
     4
  9
$HYPERLINKBASE
  1

  9
$STYLESHEET
  1

  9
$XEDIT
290
     1
  9
$CEPSNTYPE
380
     0
  9
$PSTYLEMODE
290
     1
  9
$FINGERPRINTGUID
  2
{3949FC7F-FA86-46CF-969D-188EC670AF97}
  9
$VERSIONGUID
  2
{FAEB1C32-E019-11D5-929B-00C0DF256EC4}
  9
$EXTNAMES
290
     1
  9
$PSVPSCALE
 40
0.0
  9
$OLESTARTUP
290
     0
  9
$SORTENTS
280
   127
  9
$INDEXCTL
280
     0
  9
$HIDETEXT
280
     1
  9
$XCLIPFRAME
290
     0
  9
$HALOGAP
280
     0
  9
$OBSCOLOR
 70
   257
  9
$OBSLTYPE
280
     0
  9
$INTERSECTIONDISPLAY
280
     0
  9
$INTERSECTIONCOLOR
 70
   257
  9
$DIMASSOC
280
     2
  9
$PROJECTNAME
  1

  0
ENDSEC
  0
SECTION
  2
CLASSES
  0
CLASS
  1
ACDBDICTIONARYWDFLT
  2
AcDbDictionaryWithDefault
  3
ObjectDBX Classes
 90
        0
 91
        4
280
     0
281
     0
  0
CLASS
  1
VISUALSTYLE
  2
AcDbVisualStyle
  3
ObjectDBX Classes
 90
     4095
 91
        4
280
     0
281
     0
  0
CLASS
  1
MATERIAL
  2
AcDbMaterial
  3
ObjectDBX Classes
 90
     1153
 91
        4
280
     0
281
     0
  0
ENDSEC
  0
SECTION
  2
TABLES
  0
TABLE
  2
VPORT
  5
8
330
0
100
AcDbSymbolTable
 70
     1
  0
VPORT
  5
29
330
8
100
AcDbSymbolTableRecord
100
AcDbViewportTableRecord
  2
*Active
 70
     0
 10
0.0
 20
0.0
 11
1.0
 21
1.0
 12
-238.1109844318805
 22
-167.688563924429
 13
0.0
 23
0.0
 14
0.5
 24
0.5
 15
0.5
 25
0.5
 16
0.0
 26
0.0
 36
1.0
 17
0.0
 27
0.0
 37
0.0
 40
231.0000000000001
 41
1.60267857142857
 42
50.0
 43
0.0
 44
0.0
 50
0.0
 51
0.0
 71
     0
 72
   100
 73
     1
 74
     3
 75
     0
 76
     0
 77
     0
 78
     0
281
     0
 65
     1
110
0.0
120
0.0
130
0.0
111
1.0
121
0.0
131
0.0
112
0.0
122
1.0
132
0.0
 79
     0
146
0.0
  0
ENDTAB
  0
TABLE
  2
LTYPE
  5
5
330
0
100
AcDbSymbolTable
 70
     8
  0
LTYPE
  5
14
330
5
100
AcDbSymbolTableRecord
100
AcDbLinetypeTableRecord
  2
ByBlock
 70
     0
  3

 72
    65
 73
     0
 40
0.0
  0
LTYPE
  5
15
330
5
100
AcDbSymbolTableRecord
100
AcDbLinetypeTableRecord
  2
ByLayer
 70
     0
  3

 72
    65
 73
     0
 40
0.0
  0
LTYPE
  5
16
330
5
100
AcDbSymbolTableRecord
100
AcDbLinetypeTableRecord
  2
Continuous
 70
     0
  3
Solid line
 72
    65
 73
     0
 40
0.0
  0
LTYPE
  5
3F
330
5
100
AcDbSymbolTableRecord
100
AcDbLinetypeTableRecord
  2
DASHED
 70
     0
  3
Dashed
 72
    65
 73
     2
 40
15.0
 49
7.0
 74
     0
 49
-8.0
 74
     0
  0
LTYPE
  5
40
330
5
100
AcDbSymbolTableRecord
100
AcDbLinetypeTableRecord
  2
DOTTED
 70
     0
  3
Dotted
 72
    65
 73
     2
 40
1.0
 49
0.0
 74
     0
 49
-1.0
 74
     0
  0
LTYPE
  5
41
330
5
100
AcDbSymbolTableRecord
100
AcDbLinetypeTableRecord
  2
DOT_CENTER
 70
     0
  3
Dot_Center
 72
    65
 73
     4
 40
14.0
 49
12.0
 74
     0
 49
-1.0
 74
     0
 49
0.0
 74
     0
 49
-1.0
 74
     0
  0
LTYPE
  5
42
330
5
100
AcDbSymbolTableRecord
100
AcDbLinetypeTableRecord
  2
LONG_DASHED
 70
     0
  3
Long_Dashed
 72
    65
 73
     2
 40
15.0
 49
10.0
 74
     0
 49
-5.0
 74
     0
  0
LTYPE
  5
43
330
5
100
AcDbSymbolTableRecord
100
AcDbLinetypeTableRecord
  2
DASH_CENTER
 70
     0
  3
Dash_Center
 72
    65
 73
     4
 40
14.0
 49
11.0
 74
     0
 49
-1.0
 74
     0
 49
1.0
 74
     0
 49
-1.0
 74
     0
  0
LTYPE
  5
44
330
5
100
AcDbSymbolTableRecord
100
AcDbLinetypeTableRecord
  2
PHANTOM
 70
     0
  3
Phantom
 72
    65
 73
     6
 40
13.0
 49
10.0
 74
     0
 49
-1.0
 74
     0
 49
0.0
 74
     0
 49
-1.0
 74
     0
 49
0.0
 74
     0
 49
-1.0
 74
     0
  0
LTYPE
  5
45
330
5
100
AcDbSymbolTableRecord
100
AcDbLinetypeTableRecord
  2
CENTER_DASH_DASH
 70
     0
  3
Center_Dash_Dash
 72
    65
 73
     6
 40
14.0
 49
9.0
 74
     0
 49
-1.0
 74
     0
 49
1.0
 74
     0
 49
-1.0
 74
     0
 49
1.0
 74
     0
 49
-1.0
 74
     0
  0
ENDTAB
  0
TABLE
  2
LAYER
  5
2
330
0
100
AcDbSymbolTable
 70
     2
  0
LAYER
  5
10
330
2
100
AcDbSymbolTableRecord
100
AcDbLayerTableRecord
  2
0
 70
     0
 62
     7
  6
Continuous
370
    -3
390
F
  0
LAYER
  5
46
330
2
100
AcDbSymbolTableRecord
100
AcDbLayerTableRecord
  2
1
 70
     0
 62
     7
  6
Continuous
370
    -3
390
F
  0
ENDTAB
  0
TABLE
  2
STYLE
  5
3
330
0
100
AcDbSymbolTable
 70
     5
  0
STYLE
  5
11
330
3
100
AcDbSymbolTableRecord
100
AcDbTextStyleTableRecord
  2
Standard
 70
     0
 40
0.0
 41
1.0
 50
0.0
 71
     0
 42
0.2
  3
txt
  4

  0
STYLE
  5
150
330
3
100
AcDbSymbolTableRecord
100
AcDbTextStyleTableRecord
  2
CONVERTER_11
 70
     0
 40
0.0
 41
0.9
 50
0.0
 71
     0
 42
0.2
  3
txt.shx
  4

  0
STYLE
  5
4B6
330
3
100
AcDbSymbolTableRecord
100
AcDbTextStyleTableRecord
  2
CONVERTER_12
 70
     0
 40
0.0
 41
0.81
 50
0.0
 71
     0
 42
0.2
  3
txt.shx
  4

  0
STYLE
  5
4CC
330
3
100
AcDbSymbolTableRecord
100
AcDbTextStyleTableRecord
  2
CONVERTER_13
 70
     0
 40
0.0
 41
0.72
 50
0.0
 71
     0
 42
0.2
  3
txt.shx
  4

  0
STYLE
  5
4CF
330
3
100
AcDbSymbolTableRecord
100
AcDbTextStyleTableRecord
  2
CONVERTER_14
 70
     0
 40
0.0
 41
0.855
 50
0.0
 71
     0
 42
0.2
  3
txt.shx
  4

  0
ENDTAB
  0
TABLE
  2
VIEW
  5
6
330
0
100
AcDbSymbolTable
 70
     0
  0
ENDTAB
  0
TABLE
  2
UCS
  5
7
330
0
100
AcDbSymbolTable
 70
     0
  0
ENDTAB
  0
TABLE
  2
APPID
  5
9
330
0
100
AcDbSymbolTable
 70
     1
  0
APPID
  5
12
330
9
100
AcDbSymbolTableRecord
100
AcDbRegAppTableRecord
  2
ACAD
 70
     0
  0
ENDTAB
  0
TABLE
  2
DIMSTYLE
  5
A
330
0
100
AcDbSymbolTable
 70
     7
100
AcDbDimStyleTable
  0
DIMSTYLE
105
27
330
A
100
AcDbSymbolTableRecord
100
AcDbDimStyleTableRecord
  2
Standard
 70
     0
178
     0
340
11
  0
DIMSTYLE
105
1F0
102
{ACAD_REACTORS
330
1F1
102
}
330
A
100
AcDbSymbolTableRecord
100
AcDbDimStyleTableRecord
  2
ME10_DIM_10
 70
     0
 41
3.5
 42
0.5
 44
1.5
 73
     0
 74
     0
 77
     1
 78
     8
140
3.5
147
2.0
172
     1
173
     1
174
     1
175
     1
176
     2
177
     2
271
     2
178
     3
271
     2
340
150
  0
DIMSTYLE
105
38C
102
{ACAD_REACTORS
330
38D
102
}
330
A
100
AcDbSymbolTableRecord
100
AcDbDimStyleTableRecord
  2
ME10_DIM_11
 70
     0
 41
3.5
 42
0.5
 44
1.5
 73
     0
 74
     0
 77
     1
 78
     8
140
3.5
147
2.0
172
     1
173
     1
174
     1
175
     1
176
     2
177
     2
271
     2
178
     3
271
     2
340
150
  0
DIMSTYLE
105
397
102
{ACAD_REACTORS
330
398
102
}
330
A
100
AcDbSymbolTableRecord
100
AcDbDimStyleTableRecord
  2
ME10_DIM_12
 70
     0
 41
3.5
 42
0.0
 44
1.5
 73
     0
 74
     0
 77
     1
 78
     8
140
3.5
147
1.5
172
     1
173
     1
174
     1
175
     1
176
     2
177
     2
271
     2
178
     3
271
     2
340
150
  0
DIMSTYLE
105
3A2
102
{ACAD_REACTORS
330
3A3
102
}
330
A
100
AcDbSymbolTableRecord
100
AcDbDimStyleTableRecord
  2
ME10_DIM_13
 70
     0
 41
3.5
 42
0.0
 44
1.5
 73
     0
 74
     0
 77
     1
 78
     8
140
3.5
147
1.5
172
     1
173
     1
174
     1
175
     1
176
     2
177
     2
271
     2
178
     3
271
     2
340
150
  0
DIMSTYLE
105
3AD
102
{ACAD_REACTORS
330
3AE
102
}
330
A
100
AcDbSymbolTableRecord
100
AcDbDimStyleTableRecord
  2
ME10_DIM_14
 70
     0
 41
3.5
 42
0.0
 44
1.5
 73
     0
 74
     0
 77
     1
 78
     8
140
3.5
147
1.5
172
     1
173
     1
174
     1
175
     1
176
     2
177
     2
271
     2
178
     3
271
     2
340
150
  0
DIMSTYLE
105
3B8
102
{ACAD_REACTORS
330
3B9
102
}
330
A
100
AcDbSymbolTableRecord
100
AcDbDimStyleTableRecord
  2
ME10_DIM_15
 70
     0
 41
3.5
 42
0.0
 44
1.5
 73
     0
 74
     0
 77
     1
 78
     8
140
3.5
147
1.5
172
     1
173
     1
174
     1
175
     1
176
     2
177
     2
271
     2
178
     3
271
     2
340
150
  0
ENDTAB
  0
TABLE
  2
BLOCK_RECORD
  5
1
330
0
100
AcDbSymbolTable
 70
    23
  0
BLOCK_RECORD
  5
1F
330
1
100
AcDbSymbolTableRecord
100
AcDbBlockTableRecord
  2
*Model_Space
340
22
  0
BLOCK_RECORD
  5
1B
330
1
100
AcDbSymbolTableRecord
100
AcDbBlockTableRecord
  2
*Paper_Space
340
1E
  0
BLOCK_RECORD
  5
23
330
1
100
AcDbSymbolTableRecord
100
AcDbBlockTableRecord
  2
*Paper_Space0
340
26
  0
BLOCK_RECORD
  5
47
330
1
100
AcDbSymbolTableRecord
100
AcDbBlockTableRecord
  2
URELG_2-select__1
340
0
102
{BLKREFS
331
4B
102
}
  0
BLOCK_RECORD
  5
4A
330
1
100
AcDbSymbolTableRecord
100
AcDbBlockTableRecord
  2
Allg1
340
0
102
{BLKREFS
331
7D
102
}
  0
BLOCK_RECORD
  5
4E
330
1
100
AcDbSymbolTableRecord
100
AcDbBlockTableRecord
  2
URELG_2-select__2
340
0
102
{BLKREFS
331
52
102
}
  0
BLOCK_RECORD
  5
51
330
1
100
AcDbSymbolTableRecord
100
AcDbBlockTableRecord
  2
Drfsicht1
340
0
102
{BLKREFS
331
7E
102
}
  0
BLOCK_RECORD
  5
55
330
1
100
AcDbSymbolTableRecord
100
AcDbBlockTableRecord
  2
URELG_2-select__3
340
0
102
{BLKREFS
331
59
102
}
  0
BLOCK_RECORD
  5
58
330
1
100
AcDbSymbolTableRecord
100
AcDbBlockTableRecord
  2
Rckans1
340
0
102
{BLKREFS
331
7F
102
}
  0
BLOCK_RECORD
  5
5C
330
1
100
AcDbSymbolTableRecord
100
AcDbBlockTableRecord
  2
URELG_2-select__4
340
0
102
{BLKREFS
331
60
102
}
  0
BLOCK_RECORD
  5
5F
330
1
100
AcDbSymbolTableRecord
100
AcDbBlockTableRecord
  2
SA_Links1
340
0
102
{BLKREFS
331
80
102
}
  0
BLOCK_RECORD
  5
63
330
1
100
AcDbSymbolTableRecord
100
AcDbBlockTableRecord
  2
URELG_2-select__5
340
0
102
{BLKREFS
331
67
102
}
  0
BLOCK_RECORD
  5
66
330
1
100
AcDbSymbolTableRecord
100
AcDbBlockTableRecord
  2
SA_Rechts1
340
0
102
{BLKREFS
331
81
102
}
  0
BLOCK_RECORD
  5
6A
330
1
100
AcDbSymbolTableRecord
100
AcDbBlockTableRecord
  2
URELG_2-select__6
340
0
102
{BLKREFS
331
6E
102
}
  0
BLOCK_RECORD
  5
6D
330
1
100
AcDbSymbolTableRecord
100
AcDbBlockTableRecord
  2
Vordans1
340
0
102
{BLKREFS
331
82
102
}
  0
BLOCK_RECORD
  5
71
330
1
100
AcDbSymbolTableRecord
100
AcDbBlockTableRecord
  2
_rahmen
340
0
102
{BLKREFS
331
78
102
}
  0
BLOCK_RECORD
  5
74
330
1
100
AcDbSymbolTableRecord
100
AcDbBlockTableRecord
  2
_punkt
340
0
102
{BLKREFS
331
79
102
}
  0
BLOCK_RECORD
  5
77
330
1
100
AcDbSymbolTableRecord
100
AcDbBlockTableRecord
  2
A4I_CS
340
0
102
{BLKREFS
331
83
102
}
  0
BLOCK_RECORD
  5
7C
330
1
100
AcDbSymbolTableRecord
100
AcDbBlockTableRecord
  2
1
340
0
102
{BLKREFS
331
86
102
}
  0
BLOCK_RECORD
  5
1E7
330
1
100
AcDbSymbolTableRecord
100
AcDbBlockTableRecord
  2
*D17
340
0
  0
BLOCK_RECORD
  5
383
330
1
100
AcDbSymbolTableRecord
100
AcDbBlockTableRecord
  2
*D18
340
0
  0
BLOCK_RECORD
  5
38E
330
1
100
AcDbSymbolTableRecord
100
AcDbBlockTableRecord
  2
*D19
340
0
  0
BLOCK_RECORD
  5
399
330
1
100
AcDbSymbolTableRecord
100
AcDbBlockTableRecord
  2
*D20
340
0
  0
BLOCK_RECORD
  5
3A4
330
1
100
AcDbSymbolTableRecord
100
AcDbBlockTableRecord
  2
*D21
340
0
  0
BLOCK_RECORD
  5
3AF
330
1
100
AcDbSymbolTableRecord
100
AcDbBlockTableRecord
  2
*D22
340
0
  0
ENDTAB
  0
ENDSEC
  0
SECTION
  2
BLOCKS
  0
BLOCK
  5
20
330
1F
100
AcDbEntity
  8
0
100
AcDbBlockBegin
  2
*Model_Space
 70
     0
 10
0.0
 20
0.0
 30
0.0
  3
*Model_Space
  1

  0
ENDBLK
  5
21
330
1F
100
AcDbEntity
  8
0
100
AcDbBlockEnd
  0
BLOCK
  5
1C
330
1B
100
AcDbEntity
 67
     1
  8
0
100
AcDbBlockBegin
  2
*Paper_Space
 70
     0
 10
0.0
 20
0.0
 30
0.0
  3
*Paper_Space
  1

  0
ENDBLK
  5
1D
330
1B
100
AcDbEntity
 67
     1
  8
0
100
AcDbBlockEnd
  0
BLOCK
  5
24
330
23
100
AcDbEntity
  8
0
100
AcDbBlockBegin
  2
*Paper_Space0
 70
     0
 10
0.0
 20
0.0
 30
0.0
  3
*Paper_Space0
  1

  0
ENDBLK
  5
25
330
23
100
AcDbEntity
  8
0
100
AcDbBlockEnd
  0
BLOCK
  5
48
330
47
100
AcDbEntity
  8
0
100
AcDbBlockBegin
  2
URELG_2-select__1
 70
     0
 10
-194.0280409274359
 20
-220.2932478550551
 30
0.0
  3
URELG_2-select__1
  1

  0
LINE
  5
87
330
47
100
AcDbEntity
  8
0
  6
Continuous
 62
     7
100
AcDbLine
 10
-152.7865438288966
 20
-202.3999834284202
 30
0.0
 11
-152.7865438288966
 21
-188.4688347066764
 31
0.0
  0
LINE
  5
88
330
47
100
AcDbEntity
  8
0
  6
Continuous
 62
     7
100
AcDbLine
 10
-156.2115438288966
 20
-191.434971714638
 30
0.0
 11
-155.5115438288966
 21
-190.8287539319889
 31
0.0
  0
LINE
  5
89
330
47
100
AcDbEntity
  8
0
  6
Continuous
 62
     7
100
AcDbLine
 10
-155.5115438288966
 20
-204.7599026537328
 30
0.0
 11
-155.5115438288966
 21
-190.8287539319889
 31
0.0
  0
LINE
  5
8A
330
47
100
AcDbEntity
  8
0
  6
Continuous
 62
     7
100
AcDbLine
 10
-158.5865438288966
 20
-193.4917820486261
 30
0.0
 11
-156.2115438288966
 21
-191.434971714638
 31
0.0
  0
LINE
  5
8B
330
47
100
AcDbEntity
  8
0
  6
Continuous
 62
     7
100
AcDbLine
 10
-156.2115438288966
 20
-191.434971714638
 30
0.0
 11
-156.2115438288966
 21
-205.366120436382
 31
0.0
  0
LINE
  5
8C
330
47
100
AcDbEntity
  8
0
  6
Continuous
 62
     7
100
AcDbLine
 10
-157.2219612665972
 20
-192.1431604554093
 30
0.0
 11
-158.2178904809493
 21
-192.1225188841135
 31
0.0
  0
LINE
  5
8D
330
47
100
AcDbEntity
  8
0
  6
Continuous
 62
     7
100
AcDbLine
 10
-157.2219612665972
 20
-190.6346668063554
 30
0.0
 11
-157.2219612665972
 21
-192.1431604554093
 31
0.0
  0
LINE
  5
8E
330
47
100
AcDbEntity
  8
0
  6
Continuous
 62
     7
100
AcDbLine
 10
-158.2178904809493
 20
-192.1225188841135
 30
0.0
 11
-160.0365438288966
 21
-194.7475188841135
 31
0.0
  0
LINE
  5
8F
330
47
100
AcDbEntity
  8
0
  6
Continuous
 62
     7
100
AcDbLine
 10
-156.2773028720524
 20
-191.4919207165395
 30
0.0
 11
-158.5865438288966
 21
-194.6263517589975
 31
0.0
  0
LINE
  5
90
330
47
100
AcDbEntity
  8
0
  6
Continuous
 62
     7
100
AcDbLine
 10
-153.1365438288966
 20
-188.7719435980009
 30
0.0
 11
-153.1365438288966
 21
-202.7030923197448
 31
0.0
  0
LINE
  5
91
330
47
100
AcDbEntity
  8
0
  6
Continuous
 62
     7
100
AcDbLine
 10
-155.5115438288966
 20
-204.7599026537328
 30
0.0
 11
-156.2115438288966
 21
-205.366120436382
 31
0.0
  0
LINE
  5
92
330
47
100
AcDbEntity
  8
0
  6
Continuous
 62
     7
100
AcDbLine
 10
-191.906278688164
 20
-200.1180269598023
 30
0.0
 11
-191.2134583651364
 21
-199.9180269598023
 31
0.0
  0
LINE
  5
93
330
47
100
AcDbEntity
  8
0
  6
Continuous
 62
     7
100
AcDbLine
 10
-191.2134583651364
 20
-199.5180269598023
 30
0.0
 11
-191.906278688164
 21
-200.1180269598023
 31
0.0
  0
LINE
  5
94
330
47
100
AcDbEntity
  8
0
  6
Continuous
 62
     7
100
AcDbLine
 10
-149.9719612665972
 20
-185.8644762779721
 30
0.0
 11
-149.9719612665972
 21
-184.3559826289182
 31
0.0
  0
LINE
  5
95
330
47
100
AcDbEntity
  8
0
  6
Continuous
 62
     7
100
AcDbLine
 10
-193.0321117130837
 20
-182.0725188841135
 30
0.0
 11
-194.0280409274359
 21
-181.5181604554093
 31
0.0
  0
LINE
  5
96
330
47
100
AcDbEntity
  8
0
  6
Continuous
 62
     7
100
AcDbLine
 10
-149.9719612665972
 20
-184.3559826289182
 30
0.0
 11
-151.2979900087851
 21
-182.6471623611027
 31
0.0
  0
LINE
  5
97
330
47
100
AcDbEntity
  8
0
  6
Continuous
 62
     7
100
AcDbLine
 10
-157.2219612665972
 20
-190.6346668063554
 30
0.0
 11
-149.9719612665972
 21
-184.3559826289182
 31
0.0
  0
LINE
  5
98
330
47
100
AcDbEntity
  8
0
  6
Continuous
 62
     7
100
AcDbLine
 10
-185.4520621390281
 20
-172.7877809457239
 30
0.0
 11
-186.7780409274359
 21
-173.7309826289182
 31
0.0
  0
LINE
  5
99
330
47
100
AcDbEntity
  8
0
  6
Continuous
 62
     7
100
AcDbLine
 10
-153.7661445048232
 20
-183.3612017247452
 30
0.0
 11
-156.9930580536657
 21
-179.2027584728648
 31
0.0
  0
LINE
  5
9A
330
47
100
AcDbEntity
  8
0
  6
Continuous
 62
     7
100
AcDbLine
 10
-161.3355267417021
 20
-182.9634466718428
 30
0.0
 11
-156.3848635556151
 21
-178.676046587111
 31
0.0
  0
LINE
  5
9B
330
47
100
AcDbEntity
  8
0
  6
Continuous
 62
     7
100
AcDbLine
 10
-156.3848635556151
 20
-178.676046587111
 30
0.0
 11
-155.6607882488433
 21
-177.0249327518856
 31
0.0
  0
LINE
  5
9C
330
47
100
AcDbEntity
  8
0
  6
Continuous
 62
     7
100
AcDbLine
 10
-155.6607882488433
 20
-177.0249327518856
 30
0.0
 11
-157.0300683074404
 21
-175.2603755880751
 31
0.0
  0
LINE
  5
9D
330
47
100
AcDbEntity
  8
0
  6
Continuous
 62
     7
100
AcDbLine
 10
-181.6937487839148
 20
-177.2338510466619
 30
0.0
 11
-180.4187487839148
 21
-176.1296686568368
 31
0.0
  0
LINE
  5
9E
330
47
100
AcDbEntity
  8
0
  6
Continuous
 62
     7
100
AcDbLine
 10
-172.0609938208297
 20
-175.4246532420918
 30
0.0
 11
-172.9609938208297
 21
-176.2040761054979
 31
0.0
  0
LINE
  5
9F
330
47
100
AcDbEntity
  8
0
  6
Continuous
 62
     7
100
AcDbLine
 10
-172.0609938208297
 20
-175.4246532420918
 30
0.0
 11
-172.0609938208297
 21
-176.4638837266332
 31
0.0
  0
LINE
  5
A0
330
47
100
AcDbEntity
  8
0
  6
Continuous
 62
     7
100
AcDbLine
 10
-177.852513071832
 20
-177.1880197444786
 30
0.0
 11
-177.852513071832
 21
-178.3427202828579
 31
0.0
  0
LINE
  5
A1
330
47
100
AcDbEntity
  8
0
  6
Continuous
 62
     7
100
AcDbLine
 10
-174.777513071832
 20
-174.5249916278414
 30
0.0
 11
-174.777513071832
 21
-175.6796921662207
 31
0.0
  0
LINE
  5
A2
330
47
100
AcDbEntity
  8
0
  6
Continuous
 62
     7
100
AcDbLine
 10
-176.5628701789677
 20
-174.0096034246392
 30
0.0
 11
-176.5628701789677
 21
-175.1643039630185
 31
0.0
  0
LINE
  5
A3
330
47
100
AcDbEntity
  8
0
  6
Continuous
 62
     7
100
AcDbLine
 10
-174.777513071832
 20
-174.5249916278414
 30
0.0
 11
-176.5628701789677
 21
-174.0096034246392
 31
0.0
  0
LINE
  5
A4
330
47
100
AcDbEntity
  8
0
  6
Continuous
 62
     7
100
AcDbLine
 10
-172.3109938208297
 20
-174.9194717565509
 30
0.0
 11
-172.0609938208297
 21
-175.4246532420918
 31
0.0
  0
LINE
  5
A5
330
47
100
AcDbEntity
  8
0
  6
Continuous
 62
     7
100
AcDbLine
 10
-179.6378701789677
 20
-176.6726315412764
 30
0.0
 11
-179.6378701789677
 21
-177.8273320796557
 31
0.0
  0
LINE
  5
A6
330
47
100
AcDbEntity
  8
0
  6
Continuous
 62
     7
100
AcDbLine
 10
-177.852513071832
 20
-177.1880197444786
 30
0.0
 11
-179.6378701789677
 21
-176.6726315412764
 31
0.0
  0
LINE
  5
A7
330
47
100
AcDbEntity
  8
0
  6
Continuous
 62
     7
100
AcDbLine
 10
-175.3859938208297
 20
-177.5824998731881
 30
0.0
 11
-180.4187487839148
 21
-176.1296686568368
 31
0.0
  0
LINE
  5
A8
330
47
100
AcDbEntity
  8
0
  6
Continuous
 62
     7
100
AcDbLine
 10
-178.6187487839148
 20
-174.5708229300248
 30
0.0
 11
-179.8937487839148
 21
-174.2027621334164
 31
0.0
  0
LINE
  5
A9
330
47
100
AcDbEntity
  8
0
  6
Continuous
 62
     7
100
AcDbLine
 10
-180.4187487839148
 20
-174.6574254704032
 30
0.0
 11
-180.4187487839148
 21
-176.1296686568368
 31
0.0
  0
LINE
  5
AA
330
47
100
AcDbEntity
  8
0
  6
Continuous
 62
     7
100
AcDbLine
 10
-173.5859938208297
 20
-176.0236541463761
 30
0.0
 11
-172.3109938208297
 21
-174.9194717565509
 31
0.0
  0
LINE
  5
AB
330
47
100
AcDbEntity
  8
0
  6
Continuous
 62
     7
100
AcDbLine
 10
-172.3109938208297
 20
-174.9194717565509
 30
0.0
 11
-177.3437487839148
 21
-173.4666405401996
 31
0.0
  0
LINE
  5
AC
330
47
100
AcDbEntity
  8
0
  6
Continuous
 62
     7
100
AcDbLine
 10
-165.4890083732033
 20
-176.8888093238483
 30
0.0
 11
-166.7640083732034
 21
-177.9929917136735
 31
0.0
  0
LINE
  5
AD
330
47
100
AcDbEntity
  8
0
  6
Continuous
 62
     7
100
AcDbLine
 10
-182.9687487839148
 20
-176.8657902500536
 30
0.0
 11
-181.6937487839148
 21
-177.2338510466619
 31
0.0
  0
LINE
  5
AE
330
47
100
AcDbEntity
  8
0
  6
Continuous
 62
     7
100
AcDbLine
 10
-165.4890083732033
 20
-176.8888093238483
 30
0.0
 11
-161.7312534101182
 21
-177.9735797435912
 31
0.0
  0
LINE
  5
AF
330
47
100
AcDbEntity
  8
0
  6
Continuous
 62
     7
100
AcDbLine
 10
-187.2392638989698
 20
-175.0104703080988
 30
0.0
 11
-191.6020621390281
 21
-178.1138371789982
 31
0.0
  0
LINE
  5
B0
330
47
100
AcDbEntity
  8
0
  6
Continuous
 62
     7
100
AcDbLine
 10
-194.0280409274359
 20
-181.5181604554093
 30
0.0
 11
-194.0280409274359
 21
-180.0096668063554
 31
0.0
  0
LINE
  5
B1
330
47
100
AcDbEntity
  8
0
  6
Continuous
 62
     7
100
AcDbLine
 10
-186.9699338865927
 20
-174.9890597655122
 30
0.0
 11
-194.0280409274359
 21
-180.0096668063554
 31
0.0
  0
LINE
  5
B2
330
47
100
AcDbEntity
  8
0
  6
Continuous
 62
     7
100
AcDbLine
 10
-185.4520621390281
 20
-172.7877809457239
 30
0.0
 11
-191.6020621390281
 21
-178.1138371789982
 31
0.0
  0
LINE
  5
B3
330
47
100
AcDbEntity
  8
0
  6
Continuous
 62
     7
100
AcDbLine
 10
-180.4187487839148
 20
-174.6574254704032
 30
0.0
 11
-182.9687487839148
 21
-176.8657902500536
 31
0.0
  0
LINE
  5
B4
330
47
100
AcDbEntity
  8
0
  6
Continuous
 62
     7
100
AcDbLine
 10
-163.0062534101182
 20
-179.0777621334164
 30
0.0
 11
-160.4562534101182
 21
-176.8693973537661
 31
0.0
  0
LINE
  5
B5
330
47
100
AcDbEntity
  8
0
  6
Continuous
 62
     7
100
AcDbLine
 10
-157.0300683074404
 20
-175.2603755880751
 30
0.0
 11
-157.6314778688711
 21
-175.0867636019824
 31
0.0
  0
LINE
  5
B6
330
47
100
AcDbEntity
  8
0
  6
Continuous
 62
     7
100
AcDbLine
 10
-164.8814778688711
 20
-181.3654477794196
 30
0.0
 11
-157.6314778688711
 21
-175.0867636019824
 31
0.0
  0
LINE
  5
B7
330
47
100
AcDbEntity
  8
0
  6
Continuous
 62
     7
100
AcDbLine
 10
-155.6607882488433
 20
-177.0249327518856
 30
0.0
 11
-161.8107882488433
 21
-182.3509889851599
 31
0.0
  0
LINE
  5
B8
330
47
100
AcDbEntity
  8
0
  6
Continuous
 62
     7
100
AcDbLine
 10
-164.2800683074404
 20
-181.5390597655122
 30
0.0
 11
-157.0300683074404
 21
-175.2603755880751
 31
0.0
  0
LINE
  5
B9
330
47
100
AcDbEntity
  8
0
  6
Continuous
 62
     7
100
AcDbLine
 10
-194.0280409274359
 20
-180.0096668063554
 30
0.0
 11
-186.7780409274359
 21
-173.7309826289182
 31
0.0
  0
LINE
  5
BA
330
47
100
AcDbEntity
  8
0
  6
Continuous
 62
     7
100
AcDbLine
 10
-163.0062534101182
 20
-179.0777621334164
 30
0.0
 11
-178.6187487839148
 21
-174.5708229300248
 31
0.0
  0
LINE
  5
BB
330
47
100
AcDbEntity
  8
0
  6
Continuous
 62
     7
100
AcDbLine
 10
-163.5312534101182
 20
-179.5324254704032
 30
0.0
 11
-180.4187487839148
 21
-174.6574254704032
 31
0.0
  0
LINE
  5
BC
330
47
100
AcDbEntity
  8
0
  6
Continuous
 62
     7
100
AcDbLine
 10
-181.6937487839148
 20
-177.2338510466619
 30
0.0
 11
-166.0812534101182
 21
-181.7407902500536
 31
0.0
  0
LINE
  5
BD
330
47
100
AcDbEntity
  8
0
  6
Continuous
 62
     7
100
AcDbLine
 10
-160.4562534101182
 20
-176.8693973537661
 30
0.0
 11
-177.3437487839148
 21
-171.9943973537661
 31
0.0
  0
LINE
  5
BE
330
47
100
AcDbEntity
  8
0
  6
Continuous
 62
     7
100
AcDbLine
 10
-159.3564778688711
 20
-176.5806574235106
 30
0.0
 11
-178.7673059424298
 21
-170.9772340167792
 31
0.0
  0
LINE
  5
BF
330
47
100
AcDbEntity
  8
0
  6
Continuous
 62
     7
100
AcDbLine
 10
-179.7199338865927
 20
-168.710375588075
 30
0.0
 11
-181.0892638989698
 21
-169.6844140748245
 31
0.0
  0
LINE
  5
C0
330
47
100
AcDbEntity
  8
0
  6
Continuous
 62
     7
100
AcDbLine
 10
-179.1185243251619
 20
-168.8839875741677
 30
0.0
 11
-179.7199338865927
 21
-168.710375588075
 31
0.0
  0
LINE
  5
C1
330
47
100
AcDbEntity
  8
0
  6
Continuous
 62
     7
100
AcDbLine
 10
-178.7673059424298
 20
-170.9772340167792
 30
0.0
 11
-179.1185243251619
 21
-168.8839875741677
 31
0.0
  0
LINE
  5
C2
330
47
100
AcDbEntity
  8
0
  6
Continuous
 62
     7
100
AcDbLine
 10
-177.3437487839148
 20
-171.9943973537661
 30
0.0
 11
-177.3437487839148
 21
-173.4666405401996
 31
0.0
  0
LINE
  5
C3
330
47
100
AcDbEntity
  8
0
  6
Continuous
 62
     7
100
AcDbLine
 10
-178.6187487839148
 20
-174.5708229300248
 30
0.0
 11
-177.3437487839148
 21
-173.4666405401996
 31
0.0
  0
LINE
  5
C4
330
47
100
AcDbEntity
  8
0
  6
Continuous
 62
     7
100
AcDbLine
 10
-186.0173059424298
 20
-177.2559181942164
 30
0.0
 11
-186.3685243251619
 21
-175.1626717516049
 31
0.0
  0
LINE
  5
C5
330
47
100
AcDbEntity
  8
0
  6
Continuous
 62
     7
100
AcDbLine
 10
-186.9699338865927
 20
-174.9890597655122
 30
0.0
 11
-186.3685243251619
 21
-175.1626717516049
 31
0.0
  0
LINE
  5
C6
330
47
100
AcDbEntity
  8
0
  6
Continuous
 62
     7
100
AcDbLine
 10
-185.0149217177018
 20
-173.0841334724114
 30
0.0
 11
-185.4520621390281
 21
-172.7877809457239
 31
0.0
  0
LINE
  5
C7
330
47
100
AcDbEntity
  8
0
  6
Continuous
 62
     7
100
AcDbLine
 10
-177.3437487839148
 20
-171.9943973537661
 30
0.0
 11
-179.8937487839148
 21
-174.2027621334164
 31
0.0
  0
LINE
  5
C8
330
47
100
AcDbEntity
  8
0
  6
Continuous
 62
     7
100
AcDbLine
 10
-186.0173059424298
 20
-177.2559181942164
 30
0.0
 11
-178.7673059424298
 21
-170.9772340167792
 31
0.0
  0
LINE
  5
C9
330
47
100
AcDbEntity
  8
0
  6
Continuous
 62
     7
100
AcDbLine
 10
-186.3685243251619
 20
-175.1626717516049
 30
0.0
 11
-179.1185243251619
 21
-168.8839875741677
 31
0.0
  0
LINE
  5
CA
330
47
100
AcDbEntity
  8
0
  6
Continuous
 62
     7
100
AcDbLine
 10
-187.2392638989698
 20
-175.0104703080988
 30
0.0
 11
-181.0892638989698
 21
-169.6844140748245
 31
0.0
  0
LINE
  5
CB
330
47
100
AcDbEntity
  8
0
  6
Continuous
 62
     7
100
AcDbLine
 10
-186.9699338865927
 20
-174.9890597655122
 30
0.0
 11
-179.7199338865927
 21
-168.710375588075
 31
0.0
  0
LINE
  5
CC
330
47
100
AcDbEntity
  8
0
  6
Continuous
 62
     7
100
AcDbLine
 10
-153.1365438288966
 20
-188.7719435980009
 30
0.0
 11
-152.7865438288966
 21
-188.4688347066764
 31
0.0
  0
LINE
  5
CD
330
47
100
AcDbEntity
  8
0
  6
Continuous
 62
     7
100
AcDbLine
 10
-155.5115438288966
 20
-190.8287539319889
 30
0.0
 11
-153.1365438288966
 21
-188.7719435980009
 31
0.0
  0
LINE
  5
CE
330
47
100
AcDbEntity
  8
0
  6
Continuous
 62
     7
100
AcDbLine
 10
-153.2023028720524
 20
-188.8288925999024
 30
0.0
 11
-155.5115438288966
 21
-191.9633236423604
 31
0.0
  0
LINE
  5
CF
330
47
100
AcDbEntity
  8
0
  6
Continuous
 62
     7
100
AcDbLine
 10
-151.2979900087851
 20
-182.6471623611027
 30
0.0
 11
-153.1579500067726
 21
-182.8344898389915
 31
0.0
  0
LINE
  5
D0
330
47
100
AcDbEntity
  8
0
  6
Continuous
 62
     7
100
AcDbLine
 10
-157.4479900087851
 20
-187.973218594377
 30
0.0
 11
-151.2979900087851
 21
-182.6471623611027
 31
0.0
  0
LINE
  5
D1
330
47
100
AcDbEntity
  8
0
  6
Continuous
 62
     7
100
AcDbLine
 10
-158.1086131928596
 20
-187.1218899237232
 30
0.0
 11
-153.1579500067726
 21
-182.8344898389915
 31
0.0
  0
LINE
  5
D2
330
47
100
AcDbEntity
  8
0
  6
Continuous
 62
     7
100
AcDbLine
 10
-152.7865438288966
 20
-188.4688347066764
 30
0.0
 11
-152.4975365527098
 21
-188.0516886349158
 31
0.0
  0
LINE
  5
D3
330
47
100
AcDbEntity
  8
0
  6
Continuous
 62
     7
100
AcDbLine
 10
-191.2134583651364
 20
-185.7475188841135
 30
0.0
 11
-193.0321117130837
 21
-182.0725188841135
 31
0.0
  0
LINE
  5
D4
330
47
100
AcDbEntity
  8
0
  6
Continuous
 62
     7
100
AcDbLine
 10
-157.2219612665972
 20
-192.1431604554093
 30
0.0
 11
-149.9719612665972
 21
-185.8644762779721
 31
0.0
  0
LINE
  5
D5
330
47
100
AcDbEntity
  8
0
  6
Continuous
 62
     2
100
AcDbLine
 10
-190.7846280530694
 20
-207.9701716437018
 30
0.0
 11
-192.3434737798814
 21
-209.3201716437018
 31
0.0
  0
LINE
  5
D6
330
47
100
AcDbEntity
  8
0
  6
Continuous
 62
     2
100
AcDbLine
 10
-192.4950282255437
 20
-209.2764216437018
 30
0.0
 11
-190.7846280530694
 21
-207.7951716437017
 31
0.0
  0
LINE
  5
D7
330
47
100
AcDbEntity
  8
0
  6
Continuous
 62
     7
100
AcDbLine
 10
-192.0187142534622
 20
-211.1026711810814
 30
0.0
 11
-190.7846280530694
 21
-210.0339211810814
 31
0.0
  0
LINE
  5
D8
330
47
100
AcDbEntity
  8
0
  6
Continuous
 62
     2
100
AcDbLine
 10
-192.0187142534622
 20
-210.5696717741961
 30
0.0
 11
-190.7846280530694
 21
-209.500921774196
 31
0.0
  0
LINE
  5
D9
330
47
100
AcDbEntity
  8
0
  6
Continuous
 62
     7
100
AcDbLine
 10
-189.9995571158489
 20
-212.5948783135237
 30
0.0
 11
-192.9280409274359
 21
-211.7494978550551
 31
0.0
  0
LINE
  5
DA
330
47
100
AcDbEntity
  8
0
  6
Continuous
 62
     7
100
AcDbLine
 10
-192.9280409274359
 20
-211.7494978550551
 30
0.0
 11
-192.9280409274359
 21
-209.584434345594
 31
0.0
  0
LINE
  5
DB
330
47
100
AcDbEntity
  8
0
  6
Continuous
 62
     7
100
AcDbLine
 10
-192.9280409274359
 20
-201.3571930096418
 30
0.0
 11
-191.906278688164
 21
-201.6521503615875
 31
0.0
  0
LINE
  5
DC
330
47
100
AcDbEntity
  8
0
  6
Continuous
 62
     7
100
AcDbLine
 10
-192.9280409274359
 20
-201.3571930096418
 30
0.0
 11
-192.9280409274359
 21
-199.4852075620154
 31
0.0
  0
LINE
  5
DD
330
47
100
AcDbEntity
  8
0
  6
Continuous
 62
     7
100
AcDbLine
 10
-192.0187142534622
 20
-211.1026711810814
 30
0.0
 11
-192.0187142534622
 21
-210.5696717741961
 31
0.0
  0
LINE
  5
DE
330
47
100
AcDbEntity
  8
0
  6
Continuous
 62
     7
100
AcDbLine
 10
-191.2134583651364
 20
-199.9180269598023
 30
0.0
 11
-191.2134583651364
 21
-185.7475188841135
 31
0.0
  0
LINE
  5
DF
330
47
100
AcDbEntity
  8
0
  6
Continuous
 62
     7
100
AcDbLine
 10
-190.7846280530694
 20
-211.4589211810814
 30
0.0
 11
-192.0187142534622
 21
-211.1026711810814
 31
0.0
  0
LINE
  5
E0
330
47
100
AcDbEntity
  8
0
  6
Continuous
 62
     7
100
AcDbLine
 10
-192.3434737798814
 20
-209.3201716437018
 30
0.0
 11
-192.4950282255437
 21
-209.2764216437018
 31
0.0
  0
LINE
  5
E1
330
47
100
AcDbEntity
  8
0
  6
Continuous
 62
     7
100
AcDbLine
 10
-192.9280409274359
 20
-199.4852075620154
 30
0.0
 11
-191.2134583651364
 21
-198.9902502100697
 31
0.0
  0
LINE
  5
E2
330
47
100
AcDbEntity
  8
0
  6
Continuous
 62
     7
100
AcDbLine
 10
-192.9280409274359
 20
-199.4852075620154
 30
0.0
 11
-191.2134583651364
 21
-198.0003355061783
 31
0.0
  0
LINE
  5
E3
330
47
100
AcDbEntity
  8
0
  6
Continuous
 62
     7
100
AcDbLine
 10
-190.7846280530694
 20
-207.5667465178278
 30
0.0
 11
-192.8223550608977
 21
-209.3314698725848
 31
0.0
  0
LINE
  5
E4
330
47
100
AcDbEntity
  8
0
  6
Continuous
 62
     7
100
AcDbLine
 10
-163.3316227531027
 20
-220.2932478550551
 30
0.0
 11
-160.0257995914837
 21
-217.4303210166741
 31
0.0
  0
LINE
  5
E5
330
47
100
AcDbEntity
  8
0
  6
Continuous
 62
     7
100
AcDbLine
 10
-163.3316227531027
 20
-220.2932478550551
 30
0.0
 11
-165.8863976942668
 21
-219.5557478550551
 31
0.0
  0
LINE
  5
E6
330
47
100
AcDbEntity
  8
0
  6
Continuous
 62
     7
100
AcDbLine
 10
-163.3316227531026
 20
-219.1890654652299
 30
0.0
 11
-163.3316227531027
 21
-220.2932478550551
 31
0.0
  0
LINE
  5
E7
330
47
100
AcDbEntity
  8
0
  6
Continuous
 62
     7
100
AcDbLine
 10
-165.8863976942668
 20
-219.5557478550551
 30
0.0
 11
-165.8863976942668
 21
-218.1268059388108
 31
0.0
  0
LINE
  5
E8
330
47
100
AcDbEntity
  8
0
  6
Continuous
 62
     7
100
AcDbLine
 10
-158.5865438288966
 20
-207.42293077037
 30
0.0
 11
-158.5865438288966
 21
-193.4917820486261
 31
0.0
  0
LINE
  5
E9
330
47
100
AcDbEntity
  8
0
  6
Continuous
 62
     7
100
AcDbLine
 10
-159.2396527202212
 20
-218.4434089418095
 30
0.0
 11
-156.1219612665972
 21
-219.3434089418096
 31
0.0
  0
LINE
  5
EA
330
47
100
AcDbEntity
  8
0
  6
Continuous
 62
     7
100
AcDbLine
 10
-160.0365438288966
 20
-194.7475188841135
 30
0.0
 11
-158.5865438288966
 21
-193.4917820486261
 31
0.0
  0
LINE
  5
EB
330
47
100
AcDbEntity
  8
0
  6
Continuous
 62
     7
100
AcDbLine
 10
-159.3695565307889
 20
-217.0202682957545
 30
0.0
 11
-159.3695565307889
 21
-215.9810378112131
 31
0.0
  0
LINE
  5
EC
330
47
100
AcDbEntity
  8
0
  6
Continuous
 62
     7
100
AcDbLine
 10
-159.3695565307889
 20
-215.9810378112131
 30
0.0
 11
-162.8986100512104
 21
-214.9622878112131
 31
0.0
  0
LINE
  5
ED
330
47
100
AcDbEntity
  8
0
  6
Continuous
 62
     7
100
AcDbLine
 10
-163.327394886279
 20
-212.9043848894523
 30
0.0
 11
-162.8986100512104
 21
-214.9622878112131
 31
0.0
  0
LINE
  5
EE
330
47
100
AcDbEntity
  8
0
  6
Continuous
 62
     7
100
AcDbLine
 10
-159.3695565307889
 20
-217.0202682957545
 30
0.0
 11
-160.0623768538164
 21
-216.9934733765113
 31
0.0
  0
LINE
  5
EF
330
47
100
AcDbEntity
  8
0
  6
Continuous
 62
     7
100
AcDbLine
 10
-160.0365438288966
 20
-208.9180269598023
 30
0.0
 11
-160.0365438288966
 21
-194.7475188841135
 31
0.0
  0
LINE
  5
F0
330
47
100
AcDbEntity
  8
0
  6
Continuous
 62
     7
100
AcDbLine
 10
-149.9719612665972
 20
-214.0173527085353
 30
0.0
 11
-149.9719612665972
 21
-204.8374834284203
 31
0.0
  0
LINE
  5
F1
330
47
100
AcDbEntity
  8
0
  6
Continuous
 62
     7
100
AcDbLine
 10
-152.7865438288966
 20
-202.3999834284202
 30
0.0
 11
-153.1365438288966
 21
-202.7030923197448
 31
0.0
  0
LINE
  5
F2
330
47
100
AcDbEntity
  8
0
  6
Continuous
 62
     7
100
AcDbLine
 10
-155.5115438288966
 20
-200.6462819857568
 30
0.0
 11
-153.1365438288966
 21
-202.7030923197448
 31
0.0
  0
LINE
  5
F3
330
47
100
AcDbEntity
  8
0
  6
Continuous
 62
     7
100
AcDbLine
 10
-149.9719612665972
 20
-204.8374834284203
 30
0.0
 11
-152.7865438288966
 21
-202.3999834284202
 31
0.0
  0
LINE
  5
F4
330
47
100
AcDbEntity
  8
0
  6
Continuous
 62
     7
100
AcDbLine
 10
-156.1219612665972
 20
-219.3434089418096
 30
0.0
 11
-149.9719612665972
 21
-214.0173527085353
 31
0.0
  0
LINE
  5
F5
330
47
100
AcDbEntity
  8
0
  6
Continuous
 62
     7
100
AcDbLine
 10
-164.3275519674548
 20
-217.4942741840802
 30
0.0
 11
-164.3275519674548
 21
-218.7933122897569
 31
0.0
  0
LINE
  5
F6
330
47
100
AcDbEntity
  8
0
  6
Continuous
 62
     7
100
AcDbLine
 10
-161.416430374238
 20
-215.3901562289568
 30
0.0
 11
-163.591430374238
 21
-217.273761482188
 31
0.0
  0
LINE
  5
F7
330
47
100
AcDbEntity
  8
0
  6
Continuous
 62
     7
100
AcDbLine
 10
-161.041430374238
 20
-215.4984094044299
 30
0.0
 11
-163.591430374238
 21
-217.7067741840802
 31
0.0
  0
LINE
  5
F8
330
47
100
AcDbEntity
  8
0
  6
Continuous
 62
     7
100
AcDbLine
 10
-164.3275519674548
 20
-218.7933122897569
 30
0.0
 11
-163.3316227531026
 21
-219.1890654652299
 31
0.0
  0
LINE
  5
F9
330
47
100
AcDbEntity
  8
0
  6
Continuous
 62
     7
100
AcDbLine
 10
-160.6525519674548
 20
-215.6106689308491
 30
0.0
 11
-164.3275519674548
 21
-218.7933122897569
 31
0.0
  0
LINE
  5
FA
330
47
100
AcDbEntity
  8
0
  6
Continuous
 62
     7
100
AcDbLine
 10
-160.0623768538164
 20
-216.9934733765113
 30
0.0
 11
-160.0623768538164
 21
-217.3831848082143
 31
0.0
  0
LINE
  5
FB
330
47
100
AcDbEntity
  8
0
  6
Continuous
 62
     7
100
AcDbLine
 10
-159.2396527202212
 20
-218.4434089418095
 30
0.0
 11
-160.0623768538164
 21
-217.3831848082143
 31
0.0
  0
LINE
  5
FC
330
47
100
AcDbEntity
  8
0
  6
Continuous
 62
     7
100
AcDbLine
 10
-159.5628727531027
 20
-215.9252322247173
 30
0.0
 11
-163.3316227531026
 21
-219.1890654652299
 31
0.0
  0
LINE
  5
FD
330
47
100
AcDbEntity
  8
0
  6
Continuous
 62
     7
100
AcDbLine
 10
-156.1219612665972
 20
-210.1635396616945
 30
0.0
 11
-149.9719612665972
 21
-204.8374834284203
 31
0.0
  0
LINE
  5
FE
330
47
100
AcDbEntity
  8
0
  6
Continuous
 62
     7
100
AcDbLine
 10
-166.4406539526888
 20
-217.9668059388108
 30
0.0
 11
-165.8863976942668
 21
-218.1268059388108
 31
0.0
  0
LINE
  5
FF
330
47
100
AcDbEntity
  8
0
  6
Continuous
 62
     7
100
AcDbLine
 10
-163.591430374238
 20
-217.273761482188
 30
0.0
 11
-163.591430374238
 21
-217.7067741840802
 31
0.0
  0
LINE
  5
100
330
47
100
AcDbEntity
  8
0
  6
Continuous
 62
     7
100
AcDbLine
 10
-163.591430374238
 20
-217.7067741840802
 30
0.0
 11
-164.3275519674548
 21
-217.4942741840802
 31
0.0
  0
LINE
  5
101
330
47
100
AcDbEntity
  8
0
  6
Continuous
 62
     7
100
AcDbLine
 10
-164.57699551753
 20
-212.5436562590361
 30
0.0
 11
-163.591430374238
 21
-217.273761482188
 31
0.0
  0
LINE
  5
102
330
47
100
AcDbEntity
  8
0
  6
Continuous
 62
     7
100
AcDbLine
 10
-156.1219612665972
 20
-219.3434089418096
 30
0.0
 11
-156.1219612665972
 21
-210.1635396616945
 31
0.0
  0
LINE
  5
103
330
47
100
AcDbEntity
  8
0
  6
Continuous
 62
     7
100
AcDbLine
 10
-158.9365438288966
 20
-207.7260396616945
 30
0.0
 11
-158.5865438288966
 21
-207.42293077037
 31
0.0
  0
LINE
  5
104
330
47
100
AcDbEntity
  8
0
  6
Continuous
 62
     7
100
AcDbLine
 10
-158.9365438288966
 20
-207.9653990156394
 30
0.0
 11
-160.0365438288966
 21
-208.9180269598023
 31
0.0
  0
LINE
  5
105
330
47
100
AcDbEntity
  8
0
  6
Continuous
 62
     7
100
AcDbLine
 10
-158.2437235058691
 20
-208.5653990156394
 30
0.0
 11
-159.3437235058691
 21
-209.5180269598023
 31
0.0
  0
LINE
  5
106
330
47
100
AcDbEntity
  8
0
  6
Continuous
 62
     7
100
AcDbLine
 10
-158.9365438288966
 20
-207.7260396616945
 30
0.0
 11
-158.9365438288966
 21
-207.9653990156394
 31
0.0
  0
LINE
  5
107
330
47
100
AcDbEntity
  8
0
  6
Continuous
 62
     7
100
AcDbLine
 10
-158.9365438288966
 20
-207.9653990156394
 30
0.0
 11
-158.2437235058691
 21
-208.5653990156394
 31
0.0
  0
LINE
  5
108
330
47
100
AcDbEntity
  8
0
  6
Continuous
 62
     7
100
AcDbLine
 10
-158.9365438288966
 20
-207.7260396616945
 30
0.0
 11
-156.1219612665972
 21
-210.1635396616945
 31
0.0
  0
LINE
  5
109
330
47
100
AcDbEntity
  8
0
  6
Continuous
 62
     7
100
AcDbLine
 10
-158.5865438288966
 20
-203.3093101023939
 30
0.0
 11
-156.2115438288966
 21
-205.366120436382
 31
0.0
  0
LINE
  5
10A
330
47
100
AcDbEntity
  8
0
  6
Continuous
 62
     7
100
AcDbLine
 10
-158.2437235058691
 20
-208.5653990156394
 30
0.0
 11
-158.2437235058691
 21
-213.1017438172107
 31
0.0
  0
LINE
  5
10B
330
47
100
AcDbEntity
  8
0
  6
Continuous
 62
     7
100
AcDbLine
 10
-159.3695565307889
 20
-216.3934733765113
 30
0.0
 11
-160.0623768538164
 21
-216.9934733765113
 31
0.0
  0
LINE
  5
10C
330
47
100
AcDbEntity
  8
0
  6
Continuous
 62
     7
100
AcDbLine
 10
-158.2437235058691
 20
-213.1017438172107
 30
0.0
 11
-159.3437235058691
 21
-214.0543717613736
 31
0.0
  0
LINE
  5
10D
330
47
100
AcDbEntity
  8
0
  6
Continuous
 62
     7
100
AcDbLine
 10
-190.7846280530694
 20
-209.4476798587405
 30
0.0
 11
-191.9015825521535
 21
-210.4149908298187
 31
0.0
  0
LINE
  5
10E
330
47
100
AcDbEntity
  8
0
  6
Continuous
 62
     7
100
AcDbLine
 10
-188.8793721647436
 20
-206.6828649478071
 30
0.0
 11
-189.5460388314103
 21
-205.335714319698
 31
0.0
  0
LINE
  5
10F
330
47
100
AcDbEntity
  8
0
  6
Continuous
 62
     7
100
AcDbLine
 10
-189.8636900368436
 20
-207.1781397170006
 30
0.0
 11
-188.8793721647436
 21
-207.2887260127683
 31
0.0
  0
LINE
  5
110
330
47
100
AcDbEntity
  8
0
  6
Continuous
 62
     7
100
AcDbLine
 10
-190.7846280530694
 20
-211.4589211810814
 30
0.0
 11
-190.7846280530694
 21
-204.9781644094279
 31
0.0
  0
LINE
  5
111
330
47
100
AcDbEntity
  8
0
  6
Continuous
 62
     7
100
AcDbLine
 10
-191.906278688164
 20
-200.1180269598023
 30
0.0
 11
-191.906278688164
 21
-204.6543717613736
 31
0.0
  0
LINE
  5
112
330
47
100
AcDbEntity
  8
0
  6
Continuous
 62
     2
100
AcDbLine
 10
-179.2448395476417
 20
-209.0342111372395
 30
0.0
 11
-179.5046471687771
 21
-209.2592111372395
 31
0.0
  0
LINE
  5
113
330
47
100
AcDbEntity
  8
0
  6
Continuous
 62
     7
100
AcDbLine
 10
-179.2448395476417
 20
-208.714415961016
 30
0.0
 11
-179.9629047382726
 21
-209.3362786576757
 31
0.0
  0
LINE
  5
114
330
47
100
AcDbEntity
  8
0
  6
Continuous
 62
     7
100
AcDbLine
 10
-186.0675277156634
 20
-206.3398739842258
 30
0.0
 11
-188.7925277156634
 21
-208.6997932095384
 31
0.0
  0
LINE
  5
115
330
47
100
AcDbEntity
  8
0
  6
Continuous
 62
     7
100
AcDbLine
 10
-185.9175277156634
 20
-206.383175254415
 30
0.0
 11
-188.7925277156634
 21
-208.8729982902952
 31
0.0
  0
LINE
  5
116
330
47
100
AcDbEntity
  8
0
  6
Continuous
 62
     7
100
AcDbLine
 10
-187.8793721647436
 20
-205.8168395440227
 30
0.0
 11
-188.8793721647436
 21
-206.6828649478071
 31
0.0
  0
LINE
  5
117
330
47
100
AcDbEntity
  8
0
  6
Continuous
 62
     7
100
AcDbLine
 10
-187.3546810913233
 20
-205.968304810263
 30
0.0
 11
-188.8793721647436
 21
-207.2887260127683
 31
0.0
  0
LINE
  5
118
330
47
100
AcDbEntity
  8
0
  6
Continuous
 62
     7
100
AcDbLine
 10
-188.8793721647436
 20
-207.2887260127683
 30
0.0
 11
-188.8793721647436
 21
-206.6828649478071
 31
0.0
  0
LINE
  5
119
330
47
100
AcDbEntity
  8
0
  6
Continuous
 62
     7
100
AcDbLine
 10
-189.6804456632442
 20
-208.2702682957544
 30
0.0
 11
-189.8636900368436
 21
-207.1781397170006
 31
0.0
  0
LINE
  5
11A
330
47
100
AcDbEntity
  8
0
  6
Continuous
 62
     7
100
AcDbLine
 10
-187.1054456632442
 20
-206.0402528810095
 30
0.0
 11
-189.6804456632442
 21
-208.2702682957544
 31
0.0
  0
LINE
  5
11B
330
47
100
AcDbEntity
  8
0
  6
Continuous
 62
     7
100
AcDbLine
 10
-160.0365438288966
 20
-208.9180269598023
 30
0.0
 11
-159.3437235058691
 21
-209.5180269598023
 31
0.0
  0
LINE
  5
11C
330
47
100
AcDbEntity
  8
0
  6
Continuous
 62
     7
100
AcDbLine
 10
-188.7925277156634
 20
-208.8729982902952
 30
0.0
 11
-188.7925277156634
 21
-208.6997932095384
 31
0.0
  0
LINE
  5
11D
330
47
100
AcDbEntity
  8
0
  6
Continuous
 62
     7
100
AcDbLine
 10
-179.2448395476417
 20
-208.3094144094279
 30
0.0
 11
-179.2448395476417
 21
-209.0744035161041
 31
0.0
  0
LINE
  5
11E
330
47
100
AcDbEntity
  8
0
  6
Continuous
 62
     7
100
AcDbLine
 10
-188.7925277156634
 20
-208.6997932095384
 30
0.0
 11
-189.6804456632442
 21
-208.2702682957544
 31
0.0
  0
LINE
  5
11F
330
47
100
AcDbEntity
  8
0
  6
Continuous
 62
     7
100
AcDbLine
 10
-159.3437235058691
 20
-214.0543717613736
 30
0.0
 11
-159.3437235058691
 21
-209.5180269598023
 31
0.0
  0
LINE
  5
120
330
47
100
AcDbEntity
  8
0
  6
Continuous
 62
     7
100
AcDbLine
 10
-177.3565095537014
 20
-211.0563548861834
 30
0.0
 11
-178.6365679178448
 21
-212.1649179478584
 31
0.0
  0
LINE
  5
121
330
47
100
AcDbEntity
  8
0
  6
Continuous
 62
     2
100
AcDbLine
 10
-177.5328214577147
 20
-211.0352192239548
 30
0.0
 11
-178.554545414004
 21
-211.9200581257565
 31
0.0
  0
LINE
  5
122
330
47
100
AcDbEntity
  8
0
  6
Continuous
 62
     7
100
AcDbLine
 10
-189.9995571158489
 20
-212.5948783135237
 30
0.0
 11
-183.8495571158489
 21
-207.2688220802494
 31
0.0
  0
LINE
  5
123
330
47
100
AcDbEntity
  8
0
  6
Continuous
 62
     7
100
AcDbLine
 10
-162.0062534101182
 20
-178.211736729632
 30
0.0
 11
-163.5724891222011
 21
-177.7596034246393
 31
0.0
  0
LINE
  5
124
330
47
100
AcDbEntity
  8
0
  6
Continuous
 62
     7
100
AcDbLine
 10
-176.6609938208297
 20
-178.6866822630132
 30
0.0
 11
-175.3859938208297
 21
-177.5824998731881
 31
0.0
  0
LINE
  5
125
330
47
100
AcDbEntity
  8
0
  6
Continuous
 62
     7
100
AcDbLine
 10
-175.1359938208298
 20
-178.087681358729
 30
0.0
 11
-176.0359938208297
 21
-178.867104222135
 31
0.0
  0
LINE
  5
126
330
47
100
AcDbEntity
  8
0
  6
Continuous
 62
     7
100
AcDbLine
 10
-175.1359938208298
 20
-178.087681358729
 30
0.0
 11
-175.1359938208298
 21
-179.1269118432703
 31
0.0
  0
LINE
  5
127
330
47
100
AcDbEntity
  8
0
  6
Continuous
 62
     7
100
AcDbLine
 10
-163.5724891222011
 20
-177.7596034246393
 30
0.0
 11
-163.5724891222011
 21
-178.9143039630185
 31
0.0
  0
LINE
  5
128
330
47
100
AcDbEntity
  8
0
  6
Continuous
 62
     7
100
AcDbLine
 10
-166.0812534101182
 20
-181.7407902500536
 30
0.0
 11
-163.5312534101182
 21
-179.5324254704032
 31
0.0
  0
LINE
  5
129
330
47
100
AcDbEntity
  8
0
  6
Continuous
 62
     7
100
AcDbLine
 10
-168.5640083732033
 20
-179.5518374404855
 30
0.0
 11
-164.8062534101182
 21
-180.6366078602284
 31
0.0
  0
LINE
  5
12A
330
47
100
AcDbEntity
  8
0
  6
Continuous
 62
     7
100
AcDbLine
 10
-168.5640083732033
 20
-179.5518374404855
 30
0.0
 11
-169.8390083732033
 21
-180.6560198303106
 31
0.0
  0
LINE
  5
12B
330
47
100
AcDbEntity
  8
0
  6
Continuous
 62
     7
100
AcDbLine
 10
-175.3859938208297
 20
-177.5824998731881
 30
0.0
 11
-175.1359938208298
 21
-178.087681358729
 31
0.0
  0
LINE
  5
12C
330
47
100
AcDbEntity
  8
0
  6
Continuous
 62
     7
100
AcDbLine
 10
-165.0812534101182
 20
-180.8747648462691
 30
0.0
 11
-166.6474891222011
 21
-180.4226315412764
 31
0.0
  0
LINE
  5
12D
330
47
100
AcDbEntity
  8
0
  6
Continuous
 62
     7
100
AcDbLine
 10
-161.8107882488433
 20
-182.3509889851599
 30
0.0
 11
-157.4479900087851
 21
-187.973218594377
 31
0.0
  0
LINE
  5
12E
330
47
100
AcDbEntity
  8
0
  6
Continuous
 62
     7
100
AcDbLine
 10
-165.2326962516033
 20
-183.2559181942164
 30
0.0
 11
-164.8814778688711
 21
-181.3654477794196
 31
0.0
  0
LINE
  5
12F
330
47
100
AcDbEntity
  8
0
  6
Continuous
 62
     7
100
AcDbLine
 10
-166.6474891222011
 20
-180.4226315412764
 30
0.0
 11
-166.6474891222011
 21
-181.5773320796557
 31
0.0
  0
LINE
  5
130
330
47
100
AcDbEntity
  8
0
  6
Continuous
 62
     7
100
AcDbLine
 10
-164.8814778688711
 20
-181.3654477794196
 30
0.0
 11
-164.2800683074404
 21
-181.5390597655122
 31
0.0
  0
LINE
  5
131
330
47
100
AcDbEntity
  8
0
  6
Continuous
 62
     7
100
AcDbLine
 10
-164.2800683074404
 20
-181.5390597655122
 30
0.0
 11
-157.2219612665972
 21
-190.6346668063554
 31
0.0
  0
LINE
  5
132
330
47
100
AcDbEntity
  8
0
  6
Continuous
 62
     7
100
AcDbLine
 10
-186.0173059424298
 20
-177.2559181942164
 30
0.0
 11
-165.2326962516033
 21
-183.2559181942164
 31
0.0
  0
LINE
  5
133
330
47
100
AcDbEntity
  8
0
  6
Continuous
 62
     7
100
AcDbLine
 10
-191.906278688164
 20
-204.6543717613736
 30
0.0
 11
-159.3437235058691
 21
-214.0543717613736
 31
0.0
  0
SPLINE
  5
134
330
47
100
AcDbEntity
  8
0
  6
Continuous
 62
     7
100
AcDbSpline
210
0.0
220
0.0
230
1.0
 70
     8
 71
     3
 72
    11
 73
     7
 74
     5
 42
0.000000001
 43
0.0000000001
 44
0.00000001
 40
0.0
 40
0.0
 40
0.0
 40
0.0
 40
0.6121403700639511
 40
1.196378883977989
 40
1.722730494730625
 40
2.170662840224386
 40
2.170662840224386
 40
2.170662840224386
 40
2.170662840224386
 10
-179.6378701789677
 20
-176.6726315412764
 30
0.0
 10
-179.8423535493657
 20
-176.6754864736272
 30
0.0
 10
-180.2419997708365
 20
-176.6810662227768
 30
0.0
 10
-180.8069103631336
 20
-176.7923204251051
 30
0.0
 10
-181.3052682566068
 20
-176.958242801161
 30
0.0
 10
-181.5713953909394
 20
-177.1470471944119
 30
0.0
 10
-181.6937487839148
 20
-177.2338510466619
 30
0.0
 11
-179.6378701789677
 21
-176.6726315412764
 31
0.0
 11
-180.2494000987119
 21
-176.6999626245696
 31
0.0
 11
-180.8233866773675
 21
-176.808930742294
 31
0.0
 11
-181.3170894527175
 21
-176.9914234577718
 31
0.0
 11
-181.6937487839148
 21
-177.2338510466619
 31
0.0
  0
SPLINE
  5
135
330
47
100
AcDbEntity
  8
0
  6
Continuous
 62
     7
100
AcDbSpline
210
0.0
220
0.0
230
1.0
 70
     8
 71
     3
 72
    11
 73
     7
 74
     5
 42
0.000000001
 43
0.0000000001
 44
0.00000001
 40
0.0
 40
0.0
 40
0.0
 40
0.0
 40
0.1617673292428419
 40
0.3328527849043205
 40
0.5205280323851966
 40
0.7291942189838074
 40
0.7291942189838074
 40
0.7291942189838074
 40
0.7291942189838074
 10
-177.4951916253998
 20
-177.7963510466619
 30
0.0
 10
-177.4998116108769
 20
-177.7422539799541
 30
0.0
 10
-177.5093177169992
 20
-177.6309437479926
 30
0.0
 10
-177.5841101561728
 20
-177.4711374229936
 30
0.0
 10
-177.697932541869
 20
-177.3185509353669
 30
0.0
 10
-177.799198484244
 20
-177.2330397454351
 30
0.0
 10
-177.852513071832
 20
-177.1880197444786
 30
0.0
 11
-177.4951916253998
 21
-177.7963510466619
 31
0.0
 11
-177.5181027348168
 21
-177.6362143844715
 31
0.0
 11
-177.586369406512
 21
-177.4793389699061
 31
0.0
 11
-177.6986014222683
 21
-177.328919642787
 31
0.0
 11
-177.852513071832
 21
-177.1880197444786
 31
0.0
  0
SPLINE
  5
136
330
47
100
AcDbEntity
  8
0
  6
Continuous
 62
     7
100
AcDbSpline
210
0.0
220
0.0
230
1.0
 70
     8
 71
     3
 72
    11
 73
     7
 74
     5
 42
0.000000001
 43
0.0000000001
 44
0.00000001
 40
0.0
 40
0.0
 40
0.0
 40
0.0
 40
0.6121403700639523
 40
1.196378883977957
 40
1.722730494730612
 40
2.170662840224413
 40
2.170662840224413
 40
2.170662840224413
 40
2.170662840224413
 10
-176.5628701789677
 20
-174.0096034246392
 30
0.0
 10
-176.7673535493657
 20
-174.01245835699
 30
0.0
 10
-177.1669997708365
 20
-174.0180381061397
 30
0.0
 10
-177.7319103631336
 20
-174.1292923084679
 30
0.0
 10
-178.2302682566067
 20
-174.2952146845239
 30
0.0
 10
-178.4963953909394
 20
-174.4840190777749
 30
0.0
 10
-178.6187487839148
 20
-174.5708229300248
 30
0.0
 11
-176.5628701789677
 21
-174.0096034246392
 31
0.0
 11
-177.1744000987119
 21
-174.0369345079325
 31
0.0
 11
-177.7483866773674
 21
-174.1459026256568
 31
0.0
 11
-178.2420894527175
 21
-174.3283953411347
 31
0.0
 11
-178.6187487839148
 21
-174.5708229300248
 31
0.0
  0
SPLINE
  5
137
330
47
100
AcDbEntity
  8
0
  6
Continuous
 62
     7
100
AcDbSpline
210
0.0
220
0.0
230
1.0
 70
     8
 71
     3
 72
     9
 73
     5
 74
     3
 42
0.000000001
 43
0.0000000001
 44
0.00000001
 40
0.0
 40
0.0
 40
0.0
 40
0.0
 40
0.3523396136120961
 40
0.6534353685837815
 40
0.6534353685837815
 40
0.6534353685837815
 40
0.6534353685837815
 10
-174.7216344668848
 20
-175.6958229300248
 30
0.0
 10
-174.6345717222021
 20
-175.6116166978008
 30
0.0
 10
-174.4731085521777
 20
-175.4554510783047
 30
0.0
 10
-174.4368836495219
 20
-175.234934514604
 30
0.0
 10
-174.4201916253998
 20
-175.1333229300248
 30
0.0
 11
-174.7216344668848
 21
-175.6958229300248
 31
0.0
 11
-174.4968590956725
 21
-175.4244942781372
 31
0.0
 11
-174.4201916253998
 21
-175.1333229300248
 31
0.0
  0
SPLINE
  5
138
330
47
100
AcDbEntity
  8
0
  6
Continuous
 62
     7
100
AcDbSpline
210
0.0
220
0.0
230
1.0
 70
     8
 71
     3
 72
    11
 73
     7
 74
     5
 42
0.000000001
 43
0.0000000001
 44
0.00000001
 40
0.0
 40
0.0
 40
0.0
 40
0.0
 40
0.1617673292428419
 40
0.3328527849043466
 40
0.5205280323852455
 40
0.7291942189838946
 40
0.7291942189838946
 40
0.7291942189838946
 40
0.7291942189838946
 10
-174.4201916253998
 20
-175.1333229300248
 30
0.0
 10
-174.424811610877
 20
-175.079225863317
 30
0.0
 10
-174.4343177169992
 20
-174.9679156313555
 30
0.0
 10
-174.5091101561727
 20
-174.8081093063564
 30
0.0
 10
-174.622932541869
 20
-174.6555228187297
 30
0.0
 10
-174.7241984842441
 20
-174.5700116287979
 30
0.0
 10
-174.777513071832
 20
-174.5249916278414
 30
0.0
 11
-174.4201916253998
 21
-175.1333229300248
 31
0.0
 11
-174.4431027348168
 21
-174.9731862678344
 31
0.0
 11
-174.511369406512
 21
-174.816310853269
 31
0.0
 11
-174.6236014222683
 21
-174.6658915261498
 31
0.0
 11
-174.777513071832
 21
-174.5249916278414
 31
0.0
  0
SPLINE
  5
139
330
47
100
AcDbEntity
  8
0
  6
Continuous
 62
     7
100
AcDbSpline
210
0.0
220
0.0
230
1.0
 70
     8
 71
     3
 72
     9
 73
     5
 74
     3
 42
0.000000001
 43
0.0000000001
 44
0.00000001
 40
0.0
 40
0.0
 40
0.0
 40
0.0
 40
0.1347351597550604
 40
0.2806984683897582
 40
0.2806984683897582
 40
0.2806984683897582
 40
0.2806984683897582
 10
-192.8223550608977
 20
-209.3314698725848
 30
0.0
 10
-192.8527475445989
 20
-209.3661713388749
 30
0.0
 10
-192.9160652516724
 20
-209.4384661262987
 30
0.0
 10
-192.9239439900532
 20
-209.5344978239054
 30
0.0
 10
-192.9280409274359
 20
-209.584434345594
 30
0.0
 11
-192.8223550608977
 21
-209.3314698725848
 31
0.0
 11
-192.9007593867149
 21
-209.4410432523188
 31
0.0
 11
-192.9280409274359
 21
-209.584434345594
 31
0.0
  0
SPLINE
  5
13A
330
47
100
AcDbEntity
  8
0
  6
Continuous
 62
     7
100
AcDbSpline
210
0.0
220
0.0
230
1.0
 70
     8
 71
     3
 72
     9
 73
     5
 74
     3
 42
0.000000001
 43
0.0000000001
 44
0.00000001
 40
0.0
 40
0.0
 40
0.0
 40
0.0
 40
0.0355940948215634
 40
0.0710538863242635
 40
0.0710538863242635
 40
0.0710538863242635
 40
0.0710538863242635
 10
-191.9593296543456
 20
-210.4562585209527
 30
0.0
 10
-191.9492062829331
 20
-210.450040052494
 30
0.0
 10
-191.9289977487507
 20
-210.4376265625411
 30
0.0
 10
-191.9107094244035
 20
-210.4225265655602
 30
0.0
 10
-191.9015825521535
 20
-210.4149908298187
 30
0.0
 11
-191.9593296543456
 21
-210.4562585209527
 31
0.0
 11
-191.9294414144701
 21
-210.4369289390535
 31
0.0
 11
-191.9015825521535
 21
-210.4149908298187
 31
0.0
  0
SPLINE
  5
13B
330
47
100
AcDbEntity
  8
0
  6
Continuous
 62
     7
100
AcDbSpline
210
0.0
220
0.0
230
1.0
 70
     8
 71
     3
 72
     9
 73
     5
 74
     3
 42
0.000000001
 43
0.0000000001
 44
0.00000001
 40
0.0
 40
0.0
 40
0.0
 40
0.0
 40
0.0105463981386408
 40
0.0210530027012885
 40
0.0210530027012885
 40
0.0210530027012885
 40
0.0210530027012885
 10
-191.9593296543456
 20
-210.4562585209527
 30
0.0
 10
-191.9623291717082
 20
-210.4581010300685
 30
0.0
 10
-191.9683168774524
 20
-210.4617791126659
 30
0.0
 10
-191.9737356484868
 20
-210.4662531744718
 30
0.0
 10
-191.976439906847
 20
-210.4684859849924
 30
0.0
 11
-191.9593296543456
 21
-210.4562585209527
 31
0.0
 11
-191.9681854291236
 21
-210.4619858044784
 31
0.0
 11
-191.976439906847
 21
-210.4684859849924
 31
0.0
  0
SPLINE
  5
13C
330
47
100
AcDbEntity
  8
0
  6
Continuous
 62
     7
100
AcDbSpline
210
0.0
220
0.0
230
1.0
 70
     8
 71
     3
 72
     9
 73
     5
 74
     3
 42
0.000000001
 43
0.0000000001
 44
0.00000001
 40
0.0
 40
0.0
 40
0.0
 40
0.0
 40
0.0538940626129038
 40
0.1122793847777419
 40
0.1122793847777419
 40
0.1122793847777419
 40
0.1122793847777419
 10
-191.976439906847
 20
-210.4684859849924
 30
0.0
 10
-191.9885969000366
 20
-210.4823665711764
 30
0.0
 10
-192.0139239722756
 20
-210.5112844912467
 30
0.0
 10
-192.0170754785453
 20
-210.5496971659617
 30
0.0
 10
-192.0187142534622
 20
-210.5696717741961
 30
0.0
 11
-191.976439906847
 21
-210.4684859849924
 31
0.0
 11
-192.0078016371738
 21
-210.512315336886
 31
0.0
 11
-192.0187142534622
 21
-210.5696717741961
 31
0.0
  0
SPLINE
  5
13D
330
47
100
AcDbEntity
  8
0
  6
Continuous
 62
     7
100
AcDbSpline
210
0.0
220
0.0
230
1.0
 70
     8
 71
     3
 72
    15
 73
    11
 74
     9
 42
0.000000001
 43
0.0000000001
 44
0.00000001
 40
0.0
 40
0.0
 40
0.0
 40
0.0
 40
0.1452066986038809
 40
0.2986458654913213
 40
0.4650202893391754
 40
0.6444146254959053
 40
0.8331482866801562
 40
1.025250394337275
 40
1.213992694098434
 40
1.393402578293004
 40
1.393402578293004
 40
1.393402578293004
 40
1.393402578293004
 10
-191.9015825521535
 20
-210.4149908298187
 30
0.0
 10
-191.868467660658
 20
-210.3789166534704
 30
0.0
 10
-191.8003604456934
 20
-210.3047230734331
 30
0.0
 10
-191.7564675985231
 20
-210.1509817543713
 30
0.0
 10
-191.7578405392892
 20
-209.9831673542911
 30
0.0
 10
-191.8064912879964
 20
-209.8097058106686
 30
0.0
 10
-191.8967341318481
 20
-209.6444419583588
 30
0.0
 10
-192.0221914005451
 20
-209.5005916961416
 30
0.0
 10
-192.1718166879713
 20
-209.3846997119019
 30
0.0
 10
-192.2872299642029
 20
-209.341314399002
 30
0.0
 10
-192.3434737798814
 20
-209.3201716437018
 30
0.0
 11
-191.9015825521535
 21
-210.4149908298187
 31
0.0
 11
-191.8116748430741
 21
-210.30096631184
 31
0.0
 11
-191.7648396021825
 21
-210.1548497829636
 31
0.0
 11
-191.7648711955619
 21
-209.9884753591174
 31
0.0
 11
-191.8117660669238
 21
-209.8153187843384
 31
0.0
 11
-191.9017269344267
 21
-209.6494048385057
 31
0.0
 11
-192.0274666003268
 21
-209.5041713844828
 31
0.0
 11
-192.1788014638205
 21
-209.3913821361277
 31
0.0
 11
-192.3434737798814
 21
-209.3201716437018
 31
0.0
  0
SPLINE
  5
13E
330
47
100
AcDbEntity
  8
0
  6
Continuous
 62
     7
100
AcDbSpline
210
0.0
220
0.0
230
1.0
 70
     8
 71
     3
 72
    11
 73
     7
 74
     5
 42
0.000000001
 43
0.0000000001
 44
0.00000001
 40
0.0
 40
0.0
 40
0.0
 40
0.0
 40
0.0935705952108261
 40
0.1815181363975096
 40
0.2647690944695672
 40
0.3453217744506443
 40
0.3453217744506443
 40
0.3453217744506443
 40
0.3453217744506443
 10
-192.4950282255437
 20
-209.2764216437018
 30
0.0
 10
-192.5255585328001
 20
-209.2693812433853
 30
0.0
 10
-192.5847844539475
 20
-209.2557235446652
 30
0.0
 10
-192.6738167295541
 20
-209.2601970337397
 30
0.0
 10
-192.7560539650707
 20
-209.283161648203
 30
0.0
 10
-192.8004987390748
 20
-209.3155449397719
 30
0.0
 10
-192.8223550608977
 20
-209.3314698725848
 30
0.0
 11
-192.4950282255437
 21
-209.2764216437018
 31
0.0
 11
-192.5871006666857
 21
-209.2597446554211
 31
0.0
 11
-192.6749621533369
 21
-209.2636343296163
 31
0.0
 11
-192.7545942636518
 21
-209.2879129107133
 31
0.0
 11
-192.8223550608977
 21
-209.3314698725848
 31
0.0
  0
SPLINE
  5
13F
330
47
100
AcDbEntity
  8
0
  6
Continuous
 62
     7
100
AcDbSpline
210
0.0
220
0.0
230
1.0
 70
     8
 71
     3
 72
    11
 73
     7
 74
     5
 42
0.000000001
 43
0.0000000001
 44
0.00000001
 40
0.0
 40
0.0
 40
0.0
 40
0.0
 40
0.4826695327547846
 40
0.9661074661588421
 40
1.438159115350862
 40
1.888547215089464
 40
1.888547215089464
 40
1.888547215089464
 40
1.888547215089464
 10
-167.8710204084973
 20
-216.798599655644
 30
0.0
 10
-167.7836170958421
 20
-216.9342934516867
 30
0.0
 10
-167.6086713140331
 20
-217.205897056965
 30
0.0
 10
-167.2604187863933
 20
-217.5400528091594
 30
0.0
 10
-166.8726210821575
 20
-217.8104799793507
 30
0.0
 10
-166.5823708164798
 20
-217.9155195771203
 30
0.0
 10
-166.4406539526888
 20
-217.9668059388108
 30
0.0
 11
-167.8710204084973
 21
-216.798599655644
 31
0.0
 11
-167.594084248304
 21
-217.1939175550113
 31
0.0
 11
-167.2494213507279
 21
-217.5329156734358
 31
0.0
 11
-166.8572689832736
 21
-217.7956879745051
 31
0.0
 11
-166.4406539526888
 21
-217.9668059388108
 31
0.0
  0
SPLINE
  5
140
330
47
100
AcDbEntity
  8
0
  6
Continuous
 62
     7
100
AcDbSpline
210
0.0
220
0.0
230
1.0
 70
     8
 71
     3
 72
    11
 73
     7
 74
     5
 42
0.000000001
 43
0.0000000001
 44
0.00000001
 40
0.0
 40
0.0
 40
0.0
 40
0.0
 40
1.501716589123599
 40
3.01198292802591
 40
4.507380582629357
 40
5.965940896288405
 40
5.965940896288405
 40
5.965940896288405
 40
5.965940896288405
 10
-167.8710204084973
 20
-216.798599655644
 30
0.0
 10
-168.1375787037406
 20
-216.3737584154604
 30
0.0
 10
-168.6722129076571
 20
-215.5216571873657
 30
0.0
 10
-169.6932287529218
 20
-214.4107044342811
 30
0.0
 10
-170.8299276082403
 20
-213.4394002555349
 30
0.0
 10
-171.6884822154655
 20
-212.9530976634572
 30
0.0
 10
-172.1124062192044
 20
-212.7129785926211
 30
0.0
 11
-167.8710204084973
 21
-216.798599655644
 31
0.0
 11
-168.7073967578332
 21
-215.5513517580516
 31
0.0
 11
-169.717923422404
 21
-214.4289702369039
 31
0.0
 11
-170.8665763488904
 21
-213.4714679630424
 31
0.0
 11
-172.1124062192044
 21
-212.7129785926211
 31
0.0
  0
SPLINE
  5
141
330
47
100
AcDbEntity
  8
0
  6
Continuous
 62
     7
100
AcDbSpline
210
0.0
220
0.0
230
1.0
 70
     8
 71
     3
 72
    11
 73
     7
 74
     5
 42
0.000000001
 43
0.0000000001
 44
0.00000001
 40
0.0
 40
0.0
 40
0.0
 40
0.0
 40
0.1309988334402486
 40
0.2541253920138001
 40
0.3706767344518789
 40
0.4834504872166877
 40
0.4834504872166877
 40
0.4834504872166877
 40
0.4834504872166877
 10
-179.5046471687771
 20
-209.2592111372395
 30
0.0
 10
-179.5473895989832
 20
-209.2493545767854
 30
0.0
 10
-179.6303058880077
 20
-209.2302337927417
 30
0.0
 10
-179.7549510745896
 20
-209.2364966801752
 30
0.0
 10
-179.870083206496
 20
-209.2686471379978
 30
0.0
 10
-179.9323058875058
 20
-209.3139837515812
 30
0.0
 10
-179.9629047382726
 20
-209.3362786576757
 30
0.0
 11
-179.5046471687771
 21
-209.2592111372395
 31
0.0
 11
-179.6335485863759
 21
-209.2358633536466
 31
0.0
 11
-179.7565546676877
 21
-209.2413088975198
 31
0.0
 11
-179.8680396221285
 21
-209.2752989110555
 31
0.0
 11
-179.9629047382726
 21
-209.3362786576757
 31
0.0
  0
SPLINE
  5
142
330
47
100
AcDbEntity
  8
0
  6
Continuous
 62
     7
100
AcDbSpline
210
0.0
220
0.0
230
1.0
 70
     8
 71
     3
 72
     9
 73
     5
 74
     3
 42
0.000000001
 43
0.0000000001
 44
0.00000001
 40
0.0
 40
0.0
 40
0.0
 40
0.0
 40
0.1464826597643641
 40
0.2933733151763801
 40
0.2933733151763801
 40
0.2933733151763801
 40
0.2933733151763801
 10
-183.8495571158489
 20
-207.2688220802494
 30
0.0
 10
-183.8206841798674
 20
-207.2294393177666
 30
0.0
 10
-183.7628579048909
 20
-207.1505640890562
 30
0.0
 10
-183.7081995969776
 20
-207.0694613387309
 30
0.0
 10
-183.6808324444663
 20
-207.0288535628754
 30
0.0
 11
-183.8495571158489
 21
-207.2688220802494
 31
0.0
 11
-183.7637281064271
 21
-207.1501184543908
 31
0.0
 11
-183.6808324444663
 21
-207.0288535628754
 31
0.0
  0
SPLINE
  5
143
330
47
100
AcDbEntity
  8
0
  6
Continuous
 62
     7
100
AcDbSpline
210
0.0
220
0.0
230
1.0
 70
     8
 71
     3
 72
    11
 73
     7
 74
     5
 42
0.000000001
 43
0.0000000001
 44
0.00000001
 40
0.0
 40
0.0
 40
0.0
 40
0.0
 40
0.0561423569815438
 40
0.1089108807813332
 40
0.1588614544873448
 40
0.2071930616845692
 40
0.2071930616845692
 40
0.2071930616845692
 40
0.2071930616845692
 10
-179.5046471687771
 20
-209.2592111372395
 30
0.0
 10
-179.4863289844706
 20
-209.2634353774185
 30
0.0
 10
-179.4507934311999
 20
-209.2716299908149
 30
0.0
 10
-179.3973740665688
 20
-209.2689459000994
 30
0.0
 10
-179.3480317274418
 20
-209.2551671289955
 30
0.0
 10
-179.3213648604438
 20
-209.235737159441
 30
0.0
 10
-179.3082510675647
 20
-209.2261821999097
 30
0.0
 11
-179.5046471687771
 21
-209.2592111372395
 31
0.0
 11
-179.4494037040918
 21
-209.2692173302079
 31
0.0
 11
-179.3966868121011
 21
-209.2668835256907
 31
0.0
 11
-179.3489075459122
 21
-209.2523163770326
 31
0.0
 11
-179.3082510675647
 21
-209.2261821999097
 31
0.0
  0
SPLINE
  5
144
330
47
100
AcDbEntity
  8
0
  6
Continuous
 62
     7
100
AcDbSpline
210
0.0
220
0.0
230
1.0
 70
     8
 71
     3
 72
    11
 73
     7
 74
     5
 42
0.000000001
 43
0.0000000001
 44
0.00000001
 40
0.0
 40
0.0
 40
0.0
 40
0.0
 40
0.9475859412047885
 40
1.920473026474563
 40
2.926545669604414
 40
3.970811136095648
 40
3.970811136095648
 40
3.970811136095648
 40
3.970811136095648
 10
-189.9995571158489
 20
-212.5948783135237
 30
0.0
 10
-189.8234889792361
 20
-212.3316865729256
 30
0.0
 10
-189.4666515881776
 20
-211.7982756979974
 30
0.0
 10
-189.104488961446
 20
-210.8861458211059
 30
0.0
 10
-188.859142190633
 20
-209.9043507254061
 30
0.0
 10
-188.8150065820859
 20
-209.2210253338017
 30
0.0
 10
-188.7925277156634
 20
-208.8729982902952
 30
0.0
 11
-189.9995571158489
 21
-212.5948783135237
 31
0.0
 11
-189.5003671221376
 21
-211.7894414953077
 31
0.0
 11
-189.1289692086772
 21
-210.8902346927061
 31
0.0
 11
-188.8916779803786
 21
-209.912546071948
 31
0.0
 11
-188.7925277156634
 21
-208.8729982902952
 31
0.0
  0
SPLINE
  5
145
330
47
100
AcDbEntity
  8
0
  6
Continuous
 62
     7
100
AcDbSpline
210
0.0
220
0.0
230
1.0
 70
     8
 71
     3
 72
    11
 73
     7
 74
     5
 42
0.000000001
 43
0.0000000001
 44
0.00000001
 40
0.0
 40
0.0
 40
0.0
 40
0.0
 40
0.0994033217202881
 40
0.2014330550266732
 40
0.3081733529234664
 40
0.4208342685142678
 40
0.4208342685142678
 40
0.4208342685142678
 40
0.4208342685142678
 10
-179.9629047382726
 20
-209.3362786576757
 30
0.0
 10
-179.9864183094582
 20
-209.3598874202582
 30
0.0
 10
-180.0340667108288
 20
-209.4077287404294
 30
0.0
 10
-180.0808966359517
 20
-209.5007411102947
 30
0.0
 10
-180.1092915680421
 20
-209.6050188174238
 30
0.0
 10
-180.1099753832899
 20
-209.6784320009679
 30
0.0
 10
-180.1103265099111
 20
-209.7161291333555
 30
0.0
 11
-179.9629047382726
 21
-209.3362786576757
 31
0.0
 11
-180.0292961312612
 21
-209.4102597609568
 31
0.0
 11
-180.0770084675028
 21
-209.5004462342226
 31
0.0
 11
-180.1043429617847
 21
-209.6036272259911
 31
0.0
 11
-180.1103265099111
 21
-209.7161291333555
 31
0.0
  0
SPLINE
  5
146
330
47
100
AcDbEntity
  8
0
  6
Continuous
 62
     7
100
AcDbSpline
210
0.0
220
0.0
230
1.0
 70
     8
 71
     3
 72
    11
 73
     7
 74
     5
 42
0.000000001
 43
0.0000000001
 44
0.00000001
 40
0.0
 40
0.0
 40
0.0
 40
0.0
 40
0.6085423711959408
 40
1.247260111612482
 40
1.908517438562438
 40
2.58195184125243
 40
2.58195184125243
 40
2.58195184125243
 40
2.58195184125243
 10
-180.1103265099111
 20
-209.7161291333555
 30
0.0
 10
-180.0900486842665
 20
-209.9185751687123
 30
0.0
 10
-180.0484875155791
 20
-210.3335057886003
 30
0.0
 10
-179.8399500300194
 20
-210.9392666987538
 30
0.0
 10
-179.5413050864699
 20
-211.5288962500952
 30
0.0
 10
-179.2660295148463
 20
-211.8797011013705
 30
0.0
 10
-179.1271359829611
 20
-212.05670380875
 30
0.0
 11
-180.1103265099111
 21
-209.7161291333555
 31
0.0
 11
-180.0269442776172
 21
-210.3189319387767
 31
0.0
 11
-179.8292110912612
 21
-210.9262719929101
 31
0.0
 11
-179.5251580502633
 21
-211.5134797949788
 31
0.0
 11
-179.1271359829611
 21
-212.05670380875
 31
0.0
  0
SPLINE
  5
147
330
47
100
AcDbEntity
  8
0
  6
Continuous
 62
     7
100
AcDbSpline
210
0.0
220
0.0
230
1.0
 70
     8
 71
     3
 72
     9
 73
     5
 74
     3
 42
0.000000001
 43
0.0000000001
 44
0.00000001
 40
0.0
 40
0.0
 40
0.0
 40
0.0
 40
0.0808410949936766
 40
0.1684190793151823
 40
0.1684190793151823
 40
0.1684190793151823
 40
0.1684190793151823
 10
-179.3082510675647
 20
-209.2261821999097
 30
0.0
 10
-179.2900155775379
 20
-209.205361320357
 30
0.0
 10
-179.252024960354
 20
-209.1619844445022
 30
0.0
 10
-179.2472977100472
 20
-209.1043654288232
 30
0.0
 10
-179.2448395476417
 20
-209.0744035161041
 30
0.0
 11
-179.3082510675647
 21
-209.2261821999097
 31
0.0
 11
-179.2612084720744
 21
-209.1604381720693
 31
0.0
 11
-179.2448395476417
 21
-209.0744035161041
 31
0.0
  0
SPLINE
  5
148
330
47
100
AcDbEntity
  8
0
  6
Continuous
 62
     7
100
AcDbSpline
210
0.0
220
0.0
230
1.0
 70
     8
 71
     3
 72
    13
 73
     9
 74
     7
 42
0.000000001
 43
0.0000000001
 44
0.00000001
 40
0.0
 40
0.0
 40
0.0
 40
0.0
 40
0.1045567286508352
 40
0.2061418007536646
 40
0.3022745471529186
 40
0.3916590361758315
 40
0.4747389888150269
 40
0.5539452715656041
 40
0.5539452715656041
 40
0.5539452715656041
 40
0.5539452715656041
 10
-179.1271359829611
 20
-212.05670380875
 30
0.0
 10
-179.1029331968534
 20
-212.0819438963941
 30
0.0
 10
-179.0552154938402
 20
-212.1317067009467
 30
0.0
 10
-178.9686789681881
 20
-212.1852733341135
 30
0.0
 10
-178.8779647200571
 20
-212.2183664375305
 30
0.0
 10
-178.7880602195625
 20
-212.2267066326254
 30
0.0
 10
-178.7032579165495
 20
-212.2114268221971
 30
0.0
 10
-178.6584413339409
 20
-212.1801722341586
 30
0.0
 10
-178.6365679178448
 20
-212.1649179478584
 30
0.0
 11
-179.1271359829611
 21
-212.05670380875
 31
0.0
 11
-179.0516212299366
 21
-212.1290199970934
 31
0.0
 11
-178.9655689466991
 21
-212.1830063982077
 31
0.0
 11
-178.8748982972092
 21
-212.2149491372917
 31
0.0
 11
-178.7858462688824
 21
-212.2226513246536
 31
0.0
 11
-178.7045385579875
 21
-212.2055827724048
 31
0.0
 11
-178.6365679178448
 21
-212.1649179478584
 31
0.0
  0
SPLINE
  5
149
330
47
100
AcDbEntity
  8
0
  6
Continuous
 62
     7
100
AcDbSpline
210
0.0
220
0.0
230
1.0
 70
     8
 71
     3
 72
    11
 73
     7
 74
     5
 42
0.000000001
 43
0.0000000001
 44
0.00000001
 40
0.0
 40
0.0
 40
0.0
 40
0.0
 40
0.0627418998187184
 40
0.1274830534601907
 40
0.1957283673663586
 40
0.2682168887433303
 40
0.2682168887433303
 40
0.2682168887433303
 40
0.2682168887433303
 10
-178.6365679178448
 20
-212.1649179478584
 30
0.0
 10
-178.6218296345864
 20
-212.1498801767599
 30
0.0
 10
-178.5918834478671
 20
-212.1193254504592
 30
0.0
 10
-178.5644204761133
 20
-212.058951380047
 30
0.0
 10
-178.5500418698954
 20
-211.9913017676062
 30
0.0
 10
-178.5530143535838
 20
-211.944278598407
 30
0.0
 10
-178.554545414004
 20
-211.9200581257565
 30
0.0
 11
-178.6365679178448
 21
-212.1649179478584
 31
0.0
 11
-178.5952739626301
 21
-212.1176807221152
 31
0.0
 11
-178.567128909275
 21
-212.0593774348597
 31
0.0
 11
-178.5533535948585
 21
-211.9925368492224
 31
0.0
 11
-178.554545414004
 21
-211.9200581257565
 31
0.0
  0
SPLINE
  5
14A
330
47
100
AcDbEntity
  8
0
  6
Continuous
 62
     7
100
AcDbSpline
210
0.0
220
0.0
230
1.0
 70
     8
 71
     3
 72
    11
 73
     7
 74
     5
 42
0.000000001
 43
0.0000000001
 44
0.00000001
 40
0.0
 40
0.0
 40
0.0
 40
0.0
 40
0.1882257032866208
 40
0.3824491697457609
 40
0.5871851159401068
 40
0.8046506808534564
 40
0.8046506808534564
 40
0.8046506808534564
 40
0.8046506808534564
 10
-178.3084779024816
 20
-211.1854786594506
 30
0.0
 10
-178.3526927531565
 20
-211.2305919736642
 30
0.0
 10
-178.4425313380015
 20
-211.3222561356952
 30
0.0
 10
-178.5249202428765
 20
-211.503378359393
 30
0.0
 10
-178.5680560756368
 20
-211.7063271981129
 30
0.0
 10
-178.5591385952809
 20
-211.8473967075436
 30
0.0
 10
-178.554545414004
 20
-211.9200581257565
 30
0.0
 11
-178.3084779024816
 21
-211.1854786594506
 31
0.0
 11
-178.4323597681257
 21
-211.3271903366803
 31
0.0
 11
-178.5167949281909
 21
-211.5021001984468
 31
0.0
 11
-178.5581208714404
 21
-211.7026219553586
 31
0.0
 11
-178.554545414004
 21
-211.9200581257565
 31
0.0
  0
SPLINE
  5
14B
330
47
100
AcDbEntity
  8
0
  6
Continuous
 62
     7
100
AcDbSpline
210
0.0
220
0.0
230
1.0
 70
     8
 71
     3
 72
    11
 73
     7
 74
     5
 42
0.000000001
 43
0.0000000001
 44
0.00000001
 40
0.0
 40
0.0
 40
0.0
 40
0.0
 40
0.167601495698646
 40
0.3276192723756394
 40
0.4818199683816324
 40
0.6328501322470406
 40
0.6328501322470406
 40
0.6328501322470406
 40
0.6328501322470406
 10
-177.7159595178769
 20
-211.0157207148147
 30
0.0
 10
-177.7719354887055
 20
-211.0128308105476
 30
0.0
 10
-177.8813546006655
 20
-211.0071817805874
 30
0.0
 10
-178.0403803840546
 20
-211.0370188866173
 30
0.0
 10
-178.1867416731067
 20
-211.093188154575
 30
0.0
 10
-178.2681811414892
 20
-211.1549289275826
 30
0.0
 10
-178.3084779024816
 20
-211.1854786594506
 30
0.0
 11
-177.7159595178769
 21
-211.0157207148147
 31
0.0
 11
-177.8835504500214
 21
-211.0138389594806
 31
0.0
 11
-178.0410400798702
 21
-211.0421710252876
 31
0.0
 11
-178.1840173906805
 21
-211.0999234618398
 31
0.0
 11
-178.3084779024816
 21
-211.1854786594506
 31
0.0
  0
SPLINE
  5
14C
330
47
100
AcDbEntity
  8
0
  6
Continuous
 62
     7
100
AcDbSpline
210
0.0
220
0.0
230
1.0
 70
     8
 71
     3
 72
     9
 73
     5
 74
     3
 42
0.000000001
 43
0.0000000001
 44
0.00000001
 40
0.0
 40
0.0
 40
0.0
 40
0.0
 40
3.017382863900961
 40
5.879923767077611
 40
5.879923767077611
 40
5.879923767077611
 40
5.879923767077611
 10
-172.1124062192044
 20
-212.7129785926211
 30
0.0
 10
-173.0313245977678
 20
-212.2907513706522
 30
0.0
 10
-174.8220055545956
 20
-211.4679642292945
 30
0.0
 10
-176.7683935947709
 20
-211.1637985798127
 30
0.0
 10
-177.7159595178769
 20
-211.0157207148147
 30
0.0
 11
-172.1124062192044
 21
-212.7129785926211
 31
0.0
 11
-174.9101653203076
 21
-211.5828709140723
 31
0.0
 11
-177.7159595178769
 21
-211.0157207148147
 31
0.0
  0
SPLINE
  5
14D
330
47
100
AcDbEntity
  8
0
  6
Continuous
 62
     7
100
AcDbSpline
210
0.0
220
0.0
230
1.0
 70
     8
 71
     3
 72
     9
 73
     5
 74
     3
 42
0.000000001
 43
0.0000000001
 44
0.00000001
 40
0.0
 40
0.0
 40
0.0
 40
0.0
 40
0.3523396136121287
 40
0.6534353685838488
 40
0.6534353685838488
 40
0.6534353685838488
 40
0.6534353685838488
 10
-177.7966344668849
 20
-178.3588510466619
 30
0.0
 10
-177.7095717222021
 20
-178.2746448144379
 30
0.0
 10
-177.5481085521777
 20
-178.1184791949417
 30
0.0
 10
-177.5118836495219
 20
-177.8979626312411
 30
0.0
 10
-177.4951916253998
 20
-177.7963510466619
 30
0.0
 11
-177.7966344668849
 21
-178.3588510466619
 31
0.0
 11
-177.5718590956726
 21
-178.0875223947743
 31
0.0
 11
-177.4951916253998
 21
-177.7963510466619
 31
0.0
  0
SPLINE
  5
14E
330
47
100
AcDbEntity
  8
0
  6
Continuous
 62
     7
100
AcDbSpline
210
0.0
220
0.0
230
1.0
 70
     8
 71
     3
 72
    11
 73
     7
 74
     5
 42
0.000000001
 43
0.0000000001
 44
0.00000001
 40
0.0
 40
0.0
 40
0.0
 40
0.0
 40
0.6121403700639781
 40
1.19637888397795
 40
1.722730494730579
 40
2.170662840224403
 40
2.170662840224403
 40
2.170662840224403
 40
2.170662840224403
 10
-163.5724891222011
 20
-177.7596034246393
 30
0.0
 10
-163.7769724925991
 20
-177.7624583569901
 30
0.0
 10
-164.1766187140699
 20
-177.7680381061397
 30
0.0
 10
-164.7415293063671
 20
-177.8792923084679
 30
0.0
 10
-165.2398871998402
 20
-178.0452146845239
 30
0.0
 10
-165.5060143341727
 20
-178.2340190777749
 30
0.0
 10
-165.6283677271482
 20
-178.3208229300248
 30
0.0
 11
-163.5724891222011
 21
-177.7596034246393
 31
0.0
 11
-164.1840190419453
 21
-177.7869345079325
 31
0.0
 11
-164.7580056206008
 21
-177.8959026256568
 31
0.0
 11
-165.2517083959509
 21
-178.0783953411347
 31
0.0
 11
-165.6283677271482
 21
-178.3208229300248
 31
0.0
  0
SPLINE
  5
14F
330
47
100
AcDbEntity
  8
0
  6
Continuous
 62
     7
100
AcDbSpline
210
0.0
220
0.0
230
1.0
 70
     8
 71
     3
 72
    11
 73
     7
 74
     5
 42
0.000000001
 43
0.0000000001
 44
0.00000001
 40
0.0
 40
0.0
 40
0.0
 40
0.0
 40
0.6121403700639226
 40
1.196378883977988
 40
1.722730494730677
 40
2.170662840224463
 40
2.170662840224463
 40
2.170662840224463
 40
2.170662840224463
 10
-166.6474891222011
 20
-180.4226315412764
 30
0.0
 10
-166.8519724925991
 20
-180.4254864736272
 30
0.0
 10
-167.2516187140699
 20
-180.4310662227769
 30
0.0
 10
-167.8165293063671
 20
-180.5423204251051
 30
0.0
 10
-168.3148871998402
 20
-180.708242801161
 30
0.0
 10
-168.5810143341728
 20
-180.8970471944119
 30
0.0
 10
-168.7033677271483
 20
-180.9838510466619
 30
0.0
 11
-166.6474891222011
 21
-180.4226315412764
 31
0.0
 11
-167.2590190419453
 21
-180.4499626245696
 31
0.0
 11
-167.8330056206009
 21
-180.558930742294
 31
0.0
 11
-168.326708395951
 21
-180.7414234577718
 31
0.0
 11
-168.7033677271483
 21
-180.9838510466619
 31
0.0
  0
ENDBLK
  5
49
330
47
100
AcDbEntity
  8
0
100
AcDbBlockEnd
  0
BLOCK
  5
4C
330
4A
100
AcDbEntity
  8
0
100
AcDbBlockBegin
  2
Allg1
 70
     0
 10
-172.000000363219
 20
-195.000000022734
 30
0.0
  3
Allg1
  1

  0
INSERT
  5
4B
330
4A
100
AcDbEntity
  8
0
100
AcDbBlockReference
  2
URELG_2-select__1
 10
-194.0280409274359
 20
-220.2932478550551
 30
0.0
  0
MTEXT
  5
151
330
4A
100
AcDbEntity
  8
1
 62
     6
100
AcDbMText
 10
-172.0000003632189
 20
-228.3271270264468
 30
0.0
 40
5.0
 41
0.0
 71
     2
 72
     1
  1
 
  7
CONVERTER_11
 73
     1
 44
1.32052821128451
  0
ENDBLK
  5
4D
330
4A
100
AcDbEntity
  8
0
100
AcDbBlockEnd
  0
BLOCK
  5
4F
330
4E
100
AcDbEntity
  8
0
100
AcDbBlockBegin
  2
URELG_2-select__2
 70
     0
 10
-291.7500045090476
 20
-209.4500032043257
 30
0.0
  3
URELG_2-select__2
  1

  0
LINE
  5
152
330
4E
100
AcDbEntity
  8
0
  6
Continuous
 62
     7
100
AcDbLine
 10
-252.9288674225984
 20
-207.2500032043257
 30
0.0
 11
-250.7811706115584
 21
-207.2500032043257
 31
0.0
  0
LINE
  5
153
330
4E
100
AcDbEntity
  8
0
  6
Continuous
 62
     7
100
AcDbLine
 10
-266.5613293744528
 20
-207.2500032043257
 30
0.0
 11
-260.7500045090476
 21
-207.2500032043257
 31
0.0
  0
LINE
  5
154
330
4E
100
AcDbEntity
  8
0
  6
Continuous
 62
     7
100
AcDbLine
 10
-282.5000045090476
 20
-209.4500032043257
 30
0.0
 11
-258.5000045090476
 21
-209.4500032043257
 31
0.0
  0
LINE
  5
155
330
4E
100
AcDbEntity
  8
0
  6
Continuous
 62
     7
100
AcDbLine
 10
-291.7500045090476
 20
-209.4500032043257
 30
0.0
 11
-291.7500045090476
 21
-194.9500032043257
 31
0.0
  0
LINE
  5
156
330
4E
100
AcDbEntity
  8
0
  6
Continuous
 62
     7
100
AcDbLine
 10
-283.6000045090477
 20
-209.4500032043257
 30
0.0
 11
-291.7500045090476
 21
-209.4500032043257
 31
0.0
  0
LINE
  5
157
330
4E
100
AcDbEntity
  8
0
  6
Continuous
 62
     7
100
AcDbLine
 10
-290.2188960881937
 20
-207.2500032043257
 30
0.0
 11
-288.0709956181428
 21
-207.2500032043257
 31
0.0
  0
LINE
  5
158
330
4E
100
AcDbEntity
  8
0
  6
Continuous
 62
     7
100
AcDbLine
 10
-290.2188960881937
 20
-194.9500032043257
 30
0.0
 11
-290.2188960881937
 21
-207.2500032043257
 31
0.0
  0
LINE
  5
159
330
4E
100
AcDbEntity
  8
0
  6
Continuous
 62
     7
100
AcDbLine
 10
-283.6000045090477
 20
-209.4500032043257
 30
0.0
 11
-282.9055565646771
 21
-209.4500032043257
 31
0.0
  0
LINE
  5
15A
330
4E
100
AcDbEntity
  8
0
  6
Continuous
 62
     7
100
AcDbLine
 10
-282.5000045090476
 20
-209.4500032043257
 30
0.0
 11
-282.9055565646771
 21
-209.4500032043257
 31
0.0
  0
LINE
  5
15B
330
4E
100
AcDbEntity
  8
0
  6
Continuous
 62
     7
100
AcDbLine
 10
-283.6000045090477
 20
-209.4500032043257
 30
0.0
 11
-283.6000045090477
 21
-194.9500032043257
 31
0.0
  0
LINE
  5
15C
330
4E
100
AcDbEntity
  8
0
  6
Continuous
 62
     7
100
AcDbLine
 10
-282.9055565646771
 20
-209.4500032043257
 30
0.0
 11
-282.9055565646771
 21
-194.9500032043257
 31
0.0
  0
LINE
  5
15D
330
4E
100
AcDbEntity
  8
0
  6
Continuous
 62
     7
100
AcDbLine
 10
-288.0709956181428
 20
-194.9500032043257
 30
0.0
 11
-290.2188960881937
 21
-194.9500032043257
 31
0.0
  0
LINE
  5
15E
330
4E
100
AcDbEntity
  8
0
  6
Continuous
 62
     7
100
AcDbLine
 10
-282.5000045090476
 20
-209.4500032043257
 30
0.0
 11
-282.5000045090476
 21
-194.9500032043257
 31
0.0
  0
LINE
  5
15F
330
4E
100
AcDbEntity
  8
0
  6
Continuous
 62
     7
100
AcDbLine
 10
-249.2500045090477
 20
-209.4500032043257
 30
0.0
 11
-249.2500045090476
 21
-194.9500032043257
 31
0.0
  0
LINE
  5
160
330
4E
100
AcDbEntity
  8
0
  6
Continuous
 62
     7
100
AcDbLine
 10
-257.4000045090476
 20
-209.4500032043257
 30
0.0
 11
-249.2500045090477
 21
-209.4500032043257
 31
0.0
  0
LINE
  5
161
330
4E
100
AcDbEntity
  8
0
  6
Continuous
 62
     7
100
AcDbLine
 10
-250.7811706115584
 20
-207.2500032043257
 30
0.0
 11
-250.7811706115584
 21
-194.9500032043257
 31
0.0
  0
LINE
  5
162
330
4E
100
AcDbEntity
  8
0
  6
Continuous
 62
     7
100
AcDbLine
 10
-274.4386796436424
 20
-207.2500032043257
 30
0.0
 11
-280.2500045090476
 21
-207.2500032043257
 31
0.0
  0
LINE
  5
163
330
4E
100
AcDbEntity
  8
0
  6
Continuous
 62
     7
100
AcDbLine
 10
-280.2500045090476
 20
-198.5500032043257
 30
0.0
 11
-280.2500045090476
 21
-201.1000032043257
 31
0.0
  0
LINE
  5
164
330
4E
100
AcDbEntity
  8
0
  6
Continuous
 62
     7
100
AcDbLine
 10
-280.2500045090476
 20
-204.7000032043257
 30
0.0
 11
-280.2500045090476
 21
-207.2500032043257
 31
0.0
  0
LINE
  5
165
330
4E
100
AcDbEntity
  8
0
  6
Continuous
 62
     7
100
AcDbLine
 10
-285.1811706115583
 20
-207.2500032043257
 30
0.0
 11
-287.6893979073298
 21
-207.2500032043257
 31
0.0
  0
LINE
  5
166
330
4E
100
AcDbEntity
  8
0
  6
Continuous
 62
     7
100
AcDbLine
 10
-287.6893979073298
 20
-207.2500032043257
 30
0.0
 11
-288.0709956181428
 21
-207.2500032043257
 31
0.0
  0
LINE
  5
167
330
4E
100
AcDbEntity
  8
0
  6
Continuous
 62
     7
100
AcDbLine
 10
-288.0709956181428
 20
-207.2500032043257
 30
0.0
 11
-288.0709956181428
 21
-194.9500032043257
 31
0.0
  0
LINE
  5
168
330
4E
100
AcDbEntity
  8
0
  6
Continuous
 62
     7
100
AcDbLine
 10
-285.1811706115583
 20
-207.2500032043257
 30
0.0
 11
-285.1811706115584
 21
-194.9500032043257
 31
0.0
  0
LINE
  5
169
330
4E
100
AcDbEntity
  8
0
  6
Continuous
 62
     7
100
AcDbLine
 10
-287.6893979073298
 20
-207.2500032043257
 30
0.0
 11
-287.6893979073298
 21
-194.9500032043257
 31
0.0
  0
LINE
  5
16A
330
4E
100
AcDbEntity
  8
0
  6
Continuous
 62
     7
100
AcDbLine
 10
-250.7811706115584
 20
-194.9500032043257
 30
0.0
 11
-252.9288674225984
 21
-194.9500032043257
 31
0.0
  0
LINE
  5
16B
330
4E
100
AcDbEntity
  8
0
  6
Continuous
 62
     7
100
AcDbLine
 10
-249.2500045090476
 20
-194.9500032043257
 30
0.0
 11
-250.7811706115584
 21
-194.9500032043257
 31
0.0
  0
LINE
  5
16C
330
4E
100
AcDbEntity
  8
0
  6
Continuous
 62
     7
100
AcDbLine
 10
-252.9288674225984
 20
-194.9500032043257
 30
0.0
 11
-253.3106111107655
 21
-194.9500032043257
 31
0.0
  0
LINE
  5
16D
330
4E
100
AcDbEntity
  8
0
  6
Continuous
 62
     7
100
AcDbLine
 10
-291.7500045090476
 20
-194.9500032043257
 30
0.0
 11
-290.2188960881937
 21
-194.9500032043257
 31
0.0
  0
LINE
  5
16E
330
4E
100
AcDbEntity
  8
0
  6
Continuous
 62
     7
100
AcDbLine
 10
-282.5000045090476
 20
-194.9500032043257
 30
0.0
 11
-258.5000045090476
 21
-194.9500032043257
 31
0.0
  0
LINE
  5
16F
330
4E
100
AcDbEntity
  8
0
  6
Continuous
 62
     7
100
AcDbLine
 10
-258.5000045090476
 20
-194.9500032043257
 30
0.0
 11
-258.0944524534182
 21
-194.9500032043257
 31
0.0
  0
LINE
  5
170
330
4E
100
AcDbEntity
  8
0
  6
Continuous
 62
     7
100
AcDbLine
 10
-253.3106111107655
 20
-194.9500032043257
 30
0.0
 11
-255.8188960881937
 21
-194.9500032043257
 31
0.0
  0
LINE
  5
171
330
4E
100
AcDbEntity
  8
0
  6
Continuous
 62
     7
100
AcDbLine
 10
-266.8500045090477
 20
-207.2500032043257
 30
0.0
 11
-266.8500045090477
 21
-202.1500032043257
 31
0.0
  0
LINE
  5
172
330
4E
100
AcDbEntity
  8
0
  6
Continuous
 62
     7
100
AcDbLine
 10
-266.8500045090477
 20
-207.2500032043257
 30
0.0
 11
-266.5613293744528
 21
-207.2500032043257
 31
0.0
  0
LINE
  5
173
330
4E
100
AcDbEntity
  8
0
  6
Continuous
 62
     7
100
AcDbLine
 10
-267.2500045090476
 20
-207.2500032043257
 30
0.0
 11
-266.8500045090477
 21
-207.2500032043257
 31
0.0
  0
LINE
  5
174
330
4E
100
AcDbEntity
  8
0
  6
Continuous
 62
     7
100
AcDbLine
 10
-268.5000045090476
 20
-207.2500032043257
 30
0.0
 11
-267.2500045090476
 21
-207.2500032043257
 31
0.0
  0
LINE
  5
175
330
4E
100
AcDbEntity
  8
0
  6
Continuous
 62
     7
100
AcDbLine
 10
-273.7500045090476
 20
-207.2500032043257
 30
0.0
 11
-272.5000045090476
 21
-207.2500032043257
 31
0.0
  0
LINE
  5
176
330
4E
100
AcDbEntity
  8
0
  6
Continuous
 62
     7
100
AcDbLine
 10
-272.5000045090476
 20
-207.2500032043257
 30
0.0
 11
-268.5000045090476
 21
-207.2500032043257
 31
0.0
  0
LINE
  5
177
330
4E
100
AcDbEntity
  8
0
  6
Continuous
 62
     7
100
AcDbLine
 10
-268.5000045090476
 20
-207.2500032043257
 30
0.0
 11
-268.5000045090476
 21
-202.1500032043257
 31
0.0
  0
LINE
  5
178
330
4E
100
AcDbEntity
  8
0
  6
Continuous
 62
     7
100
AcDbLine
 10
-273.7500045090476
 20
-207.2500032043257
 30
0.0
 11
-273.7500045090476
 21
-202.1500032043257
 31
0.0
  0
LINE
  5
179
330
4E
100
AcDbEntity
  8
0
  6
Continuous
 62
     7
100
AcDbLine
 10
-272.5000045090476
 20
-207.2500032043257
 30
0.0
 11
-272.5000045090476
 21
-202.1500032043257
 31
0.0
  0
LINE
  5
17A
330
4E
100
AcDbEntity
  8
0
  6
Continuous
 62
     7
100
AcDbLine
 10
-267.2500045090476
 20
-202.1500032043257
 30
0.0
 11
-267.2500045090476
 21
-207.2500032043257
 31
0.0
  0
LINE
  5
17B
330
4E
100
AcDbEntity
  8
0
  6
Continuous
 62
     7
100
AcDbLine
 10
-266.5613293744528
 20
-202.1500032043257
 30
0.0
 11
-266.5613293744528
 21
-207.2500032043257
 31
0.0
  0
LINE
  5
17C
330
4E
100
AcDbEntity
  8
0
  6
Continuous
 62
     7
100
AcDbLine
 10
-274.1500045090477
 20
-202.1500032043257
 30
0.0
 11
-274.1500045090477
 21
-207.2500032043257
 31
0.0
  0
LINE
  5
17D
330
4E
100
AcDbEntity
  8
0
  6
Continuous
 62
     7
100
AcDbLine
 10
-280.2500045090476
 20
-202.1500032043257
 30
0.0
 11
-280.2500045090476
 21
-204.7000032043257
 31
0.0
  0
LINE
  5
17E
330
4E
100
AcDbEntity
  8
0
  6
Continuous
 62
     7
100
AcDbLine
 10
-276.9692281026432
 20
-202.7000032043257
 30
0.0
 11
-279.0307809154521
 21
-202.7000032043257
 31
0.0
  0
LINE
  5
17F
330
4E
100
AcDbEntity
  8
0
  6
Continuous
 62
     7
100
AcDbLine
 10
-279.8484940527074
 20
-205.9828073230362
 30
0.0
 11
-276.7172003903372
 21
-202.851513660666
 31
0.0
  0
LINE
  5
180
330
4E
100
AcDbEntity
  8
0
  6
Continuous
 62
     7
100
AcDbLine
 10
-274.4386796436424
 20
-207.2500032043257
 30
0.0
 11
-274.1500045090477
 21
-207.2500032043257
 31
0.0
  0
LINE
  5
181
330
4E
100
AcDbEntity
  8
0
  6
Continuous
 62
     7
100
AcDbLine
 10
-274.1500045090477
 20
-207.2500032043257
 30
0.0
 11
-273.7500045090476
 21
-207.2500032043257
 31
0.0
  0
LINE
  5
182
330
4E
100
AcDbEntity
  8
0
  6
Continuous
 62
     7
100
AcDbLine
 10
-266.5613293744528
 20
-202.1500032043257
 30
0.0
 11
-266.8500045090477
 21
-202.1500032043257
 31
0.0
  0
LINE
  5
183
330
4E
100
AcDbEntity
  8
0
  6
Continuous
 62
     7
100
AcDbLine
 10
-266.8500045090477
 20
-202.1500032043257
 30
0.0
 11
-267.2500045090476
 21
-202.1500032043257
 31
0.0
  0
LINE
  5
184
330
4E
100
AcDbEntity
  8
0
  6
Continuous
 62
     7
100
AcDbLine
 10
-267.2500045090476
 20
-202.1500032043257
 30
0.0
 11
-268.5000045090476
 21
-202.1500032043257
 31
0.0
  0
LINE
  5
185
330
4E
100
AcDbEntity
  8
0
  6
Continuous
 62
     7
100
AcDbLine
 10
-272.5000045090476
 20
-202.1500032043257
 30
0.0
 11
-273.7500045090476
 21
-202.1500032043257
 31
0.0
  0
LINE
  5
186
330
4E
100
AcDbEntity
  8
0
  6
Continuous
 62
     7
100
AcDbLine
 10
-273.7500045090476
 20
-202.1500032043257
 30
0.0
 11
-274.1500045090477
 21
-202.1500032043257
 31
0.0
  0
LINE
  5
187
330
4E
100
AcDbEntity
  8
0
  6
Continuous
 62
     7
100
AcDbLine
 10
-268.5000045090476
 20
-202.1500032043257
 30
0.0
 11
-272.5000045090476
 21
-202.1500032043257
 31
0.0
  0
LINE
  5
188
330
4E
100
AcDbEntity
  8
0
  6
Continuous
 62
     7
100
AcDbLine
 10
-274.1500045090477
 20
-202.1500032043257
 30
0.0
 11
-274.4386796436424
 21
-202.1500032043257
 31
0.0
  0
LINE
  5
189
330
4E
100
AcDbEntity
  8
0
  6
Continuous
 62
     7
100
AcDbLine
 10
-274.4386796436424
 20
-202.1500032043257
 30
0.0
 11
-280.2500045090476
 21
-202.1500032043257
 31
0.0
  0
LINE
  5
18A
330
4E
100
AcDbEntity
  8
0
  6
Continuous
 62
     7
100
AcDbLine
 10
-260.7500045090476
 20
-202.1500032043257
 30
0.0
 11
-266.5613293744528
 21
-202.1500032043257
 31
0.0
  0
LINE
  5
18B
330
4E
100
AcDbEntity
  8
0
  6
Continuous
 62
     7
100
AcDbLine
 10
-279.0307809154521
 20
-206.7000032043257
 30
0.0
 11
-276.9692281026432
 21
-206.7000032043257
 31
0.0
  0
LINE
  5
18C
330
4E
100
AcDbEntity
  8
0
  6
Continuous
 62
     7
100
AcDbLine
 10
-274.4386796436424
 20
-207.2500032043257
 30
0.0
 11
-274.4386796436424
 21
-202.1500032043257
 31
0.0
  0
LINE
  5
18D
330
4E
100
AcDbEntity
  8
0
  6
Continuous
 62
     7
100
AcDbLine
 10
-261.9692281026432
 20
-202.7000032043257
 30
0.0
 11
-264.0307809154521
 21
-202.7000032043257
 31
0.0
  0
LINE
  5
18E
330
4E
100
AcDbEntity
  8
0
  6
Continuous
 62
     7
100
AcDbLine
 10
-260.7500045090476
 20
-204.7000032043257
 30
0.0
 11
-260.7500045090476
 21
-202.1500032043257
 31
0.0
  0
LINE
  5
18F
330
4E
100
AcDbEntity
  8
0
  6
Continuous
 62
     7
100
AcDbLine
 10
-264.0307809154521
 20
-206.7000032043257
 30
0.0
 11
-261.9692281026432
 21
-206.7000032043257
 31
0.0
  0
LINE
  5
190
330
4E
100
AcDbEntity
  8
0
  6
Continuous
 62
     7
100
AcDbLine
 10
-260.7500045090476
 20
-207.2500032043257
 30
0.0
 11
-260.7500045090476
 21
-204.7000032043257
 31
0.0
  0
LINE
  5
191
330
4E
100
AcDbEntity
  8
0
  6
Continuous
 62
     7
100
AcDbLine
 10
-258.5000045090476
 20
-209.4500032043257
 30
0.0
 11
-258.0944524534182
 21
-209.4500032043257
 31
0.0
  0
LINE
  5
192
330
4E
100
AcDbEntity
  8
0
  6
Continuous
 62
     7
100
AcDbLine
 10
-253.3106111107655
 20
-207.2500032043257
 30
0.0
 11
-252.9288674225984
 21
-207.2500032043257
 31
0.0
  0
LINE
  5
193
330
4E
100
AcDbEntity
  8
0
  6
Continuous
 62
     7
100
AcDbLine
 10
-253.3106111107655
 20
-207.2500032043257
 30
0.0
 11
-255.8188960881937
 21
-207.2500032043257
 31
0.0
  0
LINE
  5
194
330
4E
100
AcDbEntity
  8
0
  6
Continuous
 62
     7
100
AcDbLine
 10
-264.8484940527074
 20
-205.9828073230362
 30
0.0
 11
-261.7172003903372
 21
-202.851513660666
 31
0.0
  0
LINE
  5
195
330
4E
100
AcDbEntity
  8
0
  6
Continuous
 62
     7
100
AcDbLine
 10
-276.151514965388
 20
-203.4171990856152
 30
0.0
 11
-279.2828086277581
 21
-206.5484927479855
 31
0.0
  0
LINE
  5
196
330
4E
100
AcDbEntity
  8
0
  6
Continuous
 62
     7
100
AcDbLine
 10
-258.0944524534182
 20
-209.4500032043257
 30
0.0
 11
-257.4000045090476
 21
-209.4500032043257
 31
0.0
  0
LINE
  5
197
330
4E
100
AcDbEntity
  8
0
  6
Continuous
 62
     7
100
AcDbLine
 10
-258.0944524534182
 20
-209.4500032043257
 30
0.0
 11
-258.0944524534182
 21
-194.9500032043257
 31
0.0
  0
LINE
  5
198
330
4E
100
AcDbEntity
  8
0
  6
Continuous
 62
     7
100
AcDbLine
 10
-258.0944524534182
 20
-194.9500032043257
 30
0.0
 11
-257.4000045090477
 21
-194.9500032043257
 31
0.0
  0
LINE
  5
199
330
4E
100
AcDbEntity
  8
0
  6
Continuous
 62
     7
100
AcDbLine
 10
-255.8188960881937
 20
-194.9500032043257
 30
0.0
 11
-257.4000045090477
 21
-194.9500032043257
 31
0.0
  0
LINE
  5
19A
330
4E
100
AcDbEntity
  8
0
  6
Continuous
 62
     7
100
AcDbLine
 10
-255.8188960881937
 20
-194.9500032043257
 30
0.0
 11
-255.8188960881937
 21
-207.2500032043257
 31
0.0
  0
LINE
  5
19B
330
4E
100
AcDbEntity
  8
0
  6
Continuous
 62
     7
100
AcDbLine
 10
-257.4000045090476
 20
-209.4500032043257
 30
0.0
 11
-257.4000045090477
 21
-194.9500032043257
 31
0.0
  0
LINE
  5
19C
330
4E
100
AcDbEntity
  8
0
  6
Continuous
 62
     7
100
AcDbLine
 10
-258.5000045090476
 20
-209.4500032043257
 30
0.0
 11
-258.5000045090476
 21
-194.9500032043257
 31
0.0
  0
LINE
  5
19D
330
4E
100
AcDbEntity
  8
0
  6
Continuous
 62
     7
100
AcDbLine
 10
-252.9288674225984
 20
-207.2500032043257
 30
0.0
 11
-252.9288674225984
 21
-194.9500032043257
 31
0.0
  0
LINE
  5
19E
330
4E
100
AcDbEntity
  8
0
  6
Continuous
 62
     7
100
AcDbLine
 10
-253.3106111107655
 20
-207.2500032043257
 30
0.0
 11
-253.3106111107655
 21
-194.9500032043257
 31
0.0
  0
LINE
  5
19F
330
4E
100
AcDbEntity
  8
0
  6
Continuous
 62
     7
100
AcDbLine
 10
-264.0307809154521
 20
-200.5500032043257
 30
0.0
 11
-261.9692281026432
 21
-200.5500032043257
 31
0.0
  0
LINE
  5
1A0
330
4E
100
AcDbEntity
  8
0
  6
Continuous
 62
     7
100
AcDbLine
 10
-273.7500045090476
 20
-201.1000032043257
 30
0.0
 11
-274.1500045090477
 21
-201.1000032043257
 31
0.0
  0
LINE
  5
1A1
330
4E
100
AcDbEntity
  8
0
  6
Continuous
 62
     7
100
AcDbLine
 10
-274.1500045090477
 20
-201.1000032043257
 30
0.0
 11
-274.4386796436424
 21
-201.1000032043257
 31
0.0
  0
LINE
  5
1A2
330
4E
100
AcDbEntity
  8
0
  6
Continuous
 62
     7
100
AcDbLine
 10
-272.5000045090476
 20
-201.1000032043257
 30
0.0
 11
-273.7500045090476
 21
-201.1000032043257
 31
0.0
  0
LINE
  5
1A3
330
4E
100
AcDbEntity
  8
0
  6
Continuous
 62
     7
100
AcDbLine
 10
-266.8500045090477
 20
-201.1000032043257
 30
0.0
 11
-267.2500045090476
 21
-201.1000032043257
 31
0.0
  0
LINE
  5
1A4
330
4E
100
AcDbEntity
  8
0
  6
Continuous
 62
     7
100
AcDbLine
 10
-267.2500045090476
 20
-201.1000032043257
 30
0.0
 11
-268.5000045090476
 21
-201.1000032043257
 31
0.0
  0
LINE
  5
1A5
330
4E
100
AcDbEntity
  8
0
  6
Continuous
 62
     7
100
AcDbLine
 10
-268.5000045090476
 20
-201.1000032043257
 30
0.0
 11
-272.5000045090476
 21
-201.1000032043257
 31
0.0
  0
LINE
  5
1A6
330
4E
100
AcDbEntity
  8
0
  6
Continuous
 62
     7
100
AcDbLine
 10
-266.5613293744528
 20
-201.1000032043257
 30
0.0
 11
-266.8500045090477
 21
-201.1000032043257
 31
0.0
  0
LINE
  5
1A7
330
4E
100
AcDbEntity
  8
0
  6
Continuous
 62
     7
100
AcDbLine
 10
-260.7500045090476
 20
-201.1000032043257
 30
0.0
 11
-266.5613293744528
 21
-201.1000032043257
 31
0.0
  0
LINE
  5
1A8
330
4E
100
AcDbEntity
  8
0
  6
Continuous
 62
     7
100
AcDbLine
 10
-274.4386796436424
 20
-201.1000032043257
 30
0.0
 11
-280.2500045090476
 21
-201.1000032043257
 31
0.0
  0
LINE
  5
1A9
330
4E
100
AcDbEntity
  8
0
  6
Continuous
 62
     7
100
AcDbLine
 10
-279.0307809154521
 20
-200.5500032043257
 30
0.0
 11
-276.9692281026432
 21
-200.5500032043257
 31
0.0
  0
LINE
  5
1AA
330
4E
100
AcDbEntity
  8
0
  6
Continuous
 62
     7
100
AcDbLine
 10
-285.1811706115584
 20
-194.9500032043257
 30
0.0
 11
-287.6893979073298
 21
-194.9500032043257
 31
0.0
  0
LINE
  5
1AB
330
4E
100
AcDbEntity
  8
0
  6
Continuous
 62
     7
100
AcDbLine
 10
-287.6893979073298
 20
-194.9500032043257
 30
0.0
 11
-288.0709956181428
 21
-194.9500032043257
 31
0.0
  0
LINE
  5
1AC
330
4E
100
AcDbEntity
  8
0
  6
Continuous
 62
     7
100
AcDbLine
 10
-283.6000045090477
 20
-194.9500032043257
 30
0.0
 11
-285.1811706115584
 21
-194.9500032043257
 31
0.0
  0
LINE
  5
1AD
330
4E
100
AcDbEntity
  8
0
  6
Continuous
 62
     7
100
AcDbLine
 10
-282.9055565646771
 20
-194.9500032043257
 30
0.0
 11
-283.6000045090477
 21
-194.9500032043257
 31
0.0
  0
LINE
  5
1AE
330
4E
100
AcDbEntity
  8
0
  6
Continuous
 62
     7
100
AcDbLine
 10
-260.7500045090476
 20
-196.0000032043257
 30
0.0
 11
-266.5613293744528
 21
-196.0000032043257
 31
0.0
  0
LINE
  5
1AF
330
4E
100
AcDbEntity
  8
0
  6
Continuous
 62
     7
100
AcDbLine
 10
-261.9692281026432
 20
-196.5500032043257
 30
0.0
 11
-264.0307809154521
 21
-196.5500032043257
 31
0.0
  0
LINE
  5
1B0
330
4E
100
AcDbEntity
  8
0
  6
Continuous
 62
     7
100
AcDbLine
 10
-260.7500045090476
 20
-201.1000032043257
 30
0.0
 11
-260.7500045090476
 21
-198.5500032043257
 31
0.0
  0
LINE
  5
1B1
330
4E
100
AcDbEntity
  8
0
  6
Continuous
 62
     7
100
AcDbLine
 10
-260.7500045090476
 20
-198.5500032043257
 30
0.0
 11
-260.7500045090476
 21
-196.0000032043257
 31
0.0
  0
LINE
  5
1B2
330
4E
100
AcDbEntity
  8
0
  6
Continuous
 62
     7
100
AcDbLine
 10
-261.151514965388
 20
-197.2671990856152
 30
0.0
 11
-264.2828086277582
 21
-200.3984927479855
 31
0.0
  0
LINE
  5
1B3
330
4E
100
AcDbEntity
  8
0
  6
Continuous
 62
     7
100
AcDbLine
 10
-274.1500045090477
 20
-196.0000032043257
 30
0.0
 11
-274.4386796436424
 21
-196.0000032043257
 31
0.0
  0
LINE
  5
1B4
330
4E
100
AcDbEntity
  8
0
  6
Continuous
 62
     7
100
AcDbLine
 10
-268.5000045090476
 20
-196.0000032043257
 30
0.0
 11
-272.5000045090476
 21
-196.0000032043257
 31
0.0
  0
LINE
  5
1B5
330
4E
100
AcDbEntity
  8
0
  6
Continuous
 62
     7
100
AcDbLine
 10
-267.2500045090476
 20
-196.0000032043257
 30
0.0
 11
-268.5000045090476
 21
-196.0000032043257
 31
0.0
  0
LINE
  5
1B6
330
4E
100
AcDbEntity
  8
0
  6
Continuous
 62
     7
100
AcDbLine
 10
-266.5613293744528
 20
-196.0000032043257
 30
0.0
 11
-266.8500045090477
 21
-196.0000032043257
 31
0.0
  0
LINE
  5
1B7
330
4E
100
AcDbEntity
  8
0
  6
Continuous
 62
     7
100
AcDbLine
 10
-274.4386796436424
 20
-196.0000032043257
 30
0.0
 11
-280.2500045090476
 21
-196.0000032043257
 31
0.0
  0
LINE
  5
1B8
330
4E
100
AcDbEntity
  8
0
  6
Continuous
 62
     7
100
AcDbLine
 10
-276.9692281026432
 20
-196.5500032043257
 30
0.0
 11
-279.0307809154521
 21
-196.5500032043257
 31
0.0
  0
LINE
  5
1B9
330
4E
100
AcDbEntity
  8
0
  6
Continuous
 62
     7
100
AcDbLine
 10
-266.8500045090477
 20
-196.0000032043257
 30
0.0
 11
-267.2500045090476
 21
-196.0000032043257
 31
0.0
  0
LINE
  5
1BA
330
4E
100
AcDbEntity
  8
0
  6
Continuous
 62
     7
100
AcDbLine
 10
-268.5000045090476
 20
-201.1000032043257
 30
0.0
 11
-268.5000045090476
 21
-196.0000032043257
 31
0.0
  0
LINE
  5
1BB
330
4E
100
AcDbEntity
  8
0
  6
Continuous
 62
     7
100
AcDbLine
 10
-266.8500045090477
 20
-201.1000032043257
 30
0.0
 11
-266.8500045090477
 21
-196.0000032043257
 31
0.0
  0
LINE
  5
1BC
330
4E
100
AcDbEntity
  8
0
  6
Continuous
 62
     7
100
AcDbLine
 10
-267.2500045090476
 20
-196.0000032043257
 30
0.0
 11
-267.2500045090476
 21
-201.1000032043257
 31
0.0
  0
LINE
  5
1BD
330
4E
100
AcDbEntity
  8
0
  6
Continuous
 62
     7
100
AcDbLine
 10
-280.2500045090476
 20
-196.0000032043257
 30
0.0
 11
-280.2500045090476
 21
-198.5500032043257
 31
0.0
  0
LINE
  5
1BE
330
4E
100
AcDbEntity
  8
0
  6
Continuous
 62
     7
100
AcDbLine
 10
-282.5000045090476
 20
-194.9500032043257
 30
0.0
 11
-282.9055565646771
 21
-194.9500032043257
 31
0.0
  0
LINE
  5
1BF
330
4E
100
AcDbEntity
  8
0
  6
Continuous
 62
     7
100
AcDbLine
 10
-279.8484940527074
 20
-199.8328073230362
 30
0.0
 11
-276.7172003903372
 21
-196.701513660666
 31
0.0
  0
LINE
  5
1C0
330
4E
100
AcDbEntity
  8
0
  6
Continuous
 62
     7
100
AcDbLine
 10
-276.151514965388
 20
-197.2671990856152
 30
0.0
 11
-279.2828086277581
 21
-200.3984927479855
 31
0.0
  0
LINE
  5
1C1
330
4E
100
AcDbEntity
  8
0
  6
Continuous
 62
     7
100
AcDbLine
 10
-273.7500045090476
 20
-201.1000032043257
 30
0.0
 11
-273.7500045090476
 21
-196.0000032043257
 31
0.0
  0
LINE
  5
1C2
330
4E
100
AcDbEntity
  8
0
  6
Continuous
 62
     7
100
AcDbLine
 10
-273.7500045090476
 20
-196.0000032043257
 30
0.0
 11
-274.1500045090477
 21
-196.0000032043257
 31
0.0
  0
LINE
  5
1C3
330
4E
100
AcDbEntity
  8
0
  6
Continuous
 62
     7
100
AcDbLine
 10
-272.5000045090476
 20
-196.0000032043257
 30
0.0
 11
-273.7500045090476
 21
-196.0000032043257
 31
0.0
  0
LINE
  5
1C4
330
4E
100
AcDbEntity
  8
0
  6
Continuous
 62
     7
100
AcDbLine
 10
-274.1500045090477
 20
-196.0000032043257
 30
0.0
 11
-274.1500045090477
 21
-201.1000032043257
 31
0.0
  0
LINE
  5
1C5
330
4E
100
AcDbEntity
  8
0
  6
Continuous
 62
     7
100
AcDbLine
 10
-272.5000045090476
 20
-201.1000032043257
 30
0.0
 11
-272.5000045090476
 21
-196.0000032043257
 31
0.0
  0
LINE
  5
1C6
330
4E
100
AcDbEntity
  8
0
  6
Continuous
 62
     7
100
AcDbLine
 10
-274.4386796436424
 20
-201.1000032043257
 30
0.0
 11
-274.4386796436424
 21
-196.0000032043257
 31
0.0
  0
LINE
  5
1C7
330
4E
100
AcDbEntity
  8
0
  6
Continuous
 62
     7
100
AcDbLine
 10
-266.5613293744528
 20
-196.0000032043257
 30
0.0
 11
-266.5613293744528
 21
-201.1000032043257
 31
0.0
  0
LINE
  5
1C8
330
4E
100
AcDbEntity
  8
0
  6
Continuous
 62
     7
100
AcDbLine
 10
-264.8484940527074
 20
-199.8328073230362
 30
0.0
 11
-261.7172003903372
 21
-196.701513660666
 31
0.0
  0
LINE
  5
1C9
330
4E
100
AcDbEntity
  8
0
  6
Continuous
 62
     7
100
AcDbLine
 10
-261.151514965388
 20
-203.4171990856152
 30
0.0
 11
-264.2828086277582
 21
-206.5484927479855
 31
0.0
  0
ARC
  5
1CA
330
4E
100
AcDbEntity
  8
0
  6
Continuous
 62
     7
100
AcDbCircle
 10
-278.0000045090476
 20
-204.7000032043257
 30
0.0
 40
2.25000000000007
100
AcDbArc
 50
214.759651678813
 51
235.2403483211875
  0
ARC
  5
1CB
330
4E
100
AcDbEntity
  8
0
  6
Continuous
 62
     7
100
AcDbCircle
 10
-278.0000045090476
 20
-204.7000032043257
 30
0.0
 40
2.250000000000053
100
AcDbArc
 50
235.2403483211875
 51
242.7339555492646
  0
ARC
  5
1CC
330
4E
100
AcDbEntity
  8
0
  6
Continuous
 62
     7
100
AcDbCircle
 10
-278.0000045090476
 20
-204.7000032043257
 30
0.0
 40
2.25
100
AcDbArc
 50
180.0
 51
214.759651678813
  0
ARC
  5
1CD
330
4E
100
AcDbEntity
  8
0
  6
Continuous
 62
     7
100
AcDbCircle
 10
-278.0000045090476
 20
-204.7000032043257
 30
0.0
 40
2.250000000000052
100
AcDbArc
 50
117.2660444507354
 51
180.0
  0
ARC
  5
1CE
330
4E
100
AcDbEntity
  8
0
  6
Continuous
 62
     7
100
AcDbCircle
 10
-263.0000045090476
 20
-204.7000032043257
 30
0.0
 40
2.250000000000052
100
AcDbArc
 50
117.2660444507354
 51
214.759651678813
  0
ARC
  5
1CF
330
4E
100
AcDbEntity
  8
0
  6
Continuous
 62
     7
100
AcDbCircle
 10
-278.0000045090476
 20
-204.7000032043257
 30
0.0
 40
2.249999999999895
100
AcDbArc
 50
55.24034832118825
 51
62.73395554926851
  0
ARC
  5
1D0
330
4E
100
AcDbEntity
  8
0
  6
Continuous
 62
     7
100
AcDbCircle
 10
-278.0000045090476
 20
-204.7000032043257
 30
0.0
 40
2.249999999999867
100
AcDbArc
 50
34.75965167881578
 51
55.24034832118825
  0
ARC
  5
1D1
330
4E
100
AcDbEntity
  8
0
  6
Continuous
 62
     7
100
AcDbCircle
 10
-278.0000045090476
 20
-204.7000032043257
 30
0.0
 40
2.249999999999973
100
AcDbArc
 50
297.2660444507314
 51
34.75965167881578
  0
ARC
  5
1D2
330
4E
100
AcDbEntity
  8
0
  6
Continuous
 62
     7
100
AcDbCircle
 10
-263.0000045090476
 20
-204.7000032043257
 30
0.0
 40
2.249999999999867
100
AcDbArc
 50
34.75965167881578
 51
55.24034832118825
  0
ARC
  5
1D3
330
4E
100
AcDbEntity
  8
0
  6
Continuous
 62
     7
100
AcDbCircle
 10
-263.0000045090476
 20
-204.7000032043257
 30
0.0
 40
2.249999999999895
100
AcDbArc
 50
55.24034832118825
 51
62.73395554926851
  0
ARC
  5
1D4
330
4E
100
AcDbEntity
  8
0
  6
Continuous
 62
     7
100
AcDbCircle
 10
-263.0000045090476
 20
-204.7000032043257
 30
0.0
 40
2.25000000000007
100
AcDbArc
 50
214.759651678813
 51
235.2403483211851
  0
ARC
  5
1D5
330
4E
100
AcDbEntity
  8
0
  6
Continuous
 62
     7
100
AcDbCircle
 10
-263.0000045090476
 20
-204.7000032043257
 30
0.0
 40
2.250000000000118
100
AcDbArc
 50
235.2403483211851
 51
242.7339555492646
  0
ARC
  5
1D6
330
4E
100
AcDbEntity
  8
0
  6
Continuous
 62
     7
100
AcDbCircle
 10
-263.0000045090476
 20
-204.7000032043257
 30
0.0
 40
2.25
100
AcDbArc
 50
0.0
 51
34.75965167881578
  0
ARC
  5
1D7
330
4E
100
AcDbEntity
  8
0
  6
Continuous
 62
     7
100
AcDbCircle
 10
-263.0000045090476
 20
-204.7000032043257
 30
0.0
 40
2.249999999999973
100
AcDbArc
 50
297.2660444507314
 51
0.0
  0
ARC
  5
1D8
330
4E
100
AcDbEntity
  8
0
  6
Continuous
 62
     7
100
AcDbCircle
 10
-263.0000045090476
 20
-198.5500032043257
 30
0.0
 40
2.25
100
AcDbArc
 50
0.0
 51
34.75965167881578
  0
ARC
  5
1D9
330
4E
100
AcDbEntity
  8
0
  6
Continuous
 62
     7
100
AcDbCircle
 10
-263.0000045090476
 20
-198.5500032043257
 30
0.0
 40
2.249999999999867
100
AcDbArc
 50
34.75965167881578
 51
55.24034832118825
  0
ARC
  5
1DA
330
4E
100
AcDbEntity
  8
0
  6
Continuous
 62
     7
100
AcDbCircle
 10
-263.0000045090476
 20
-198.5500032043257
 30
0.0
 40
2.249999999999895
100
AcDbArc
 50
55.24034832118825
 51
62.73395554926851
  0
ARC
  5
1DB
330
4E
100
AcDbEntity
  8
0
  6
Continuous
 62
     7
100
AcDbCircle
 10
-263.0000045090476
 20
-198.5500032043257
 30
0.0
 40
2.249999999999973
100
AcDbArc
 50
297.2660444507314
 51
0.0
  0
ARC
  5
1DC
330
4E
100
AcDbEntity
  8
0
  6
Continuous
 62
     7
100
AcDbCircle
 10
-278.0000045090476
 20
-198.5500032043257
 30
0.0
 40
2.250000000000053
100
AcDbArc
 50
235.2403483211875
 51
242.7339555492646
  0
ARC
  5
1DD
330
4E
100
AcDbEntity
  8
0
  6
Continuous
 62
     7
100
AcDbCircle
 10
-278.0000045090476
 20
-198.5500032043257
 30
0.0
 40
2.250000000000052
100
AcDbArc
 50
117.2660444507354
 51
180.0
  0
ARC
  5
1DE
330
4E
100
AcDbEntity
  8
0
  6
Continuous
 62
     7
100
AcDbCircle
 10
-278.0000045090476
 20
-198.5500032043257
 30
0.0
 40
2.25000000000007
100
AcDbArc
 50
214.759651678813
 51
235.2403483211875
  0
ARC
  5
1DF
330
4E
100
AcDbEntity
  8
0
  6
Continuous
 62
     7
100
AcDbCircle
 10
-278.0000045090476
 20
-198.5500032043257
 30
0.0
 40
2.25
100
AcDbArc
 50
180.0
 51
214.759651678813
  0
ARC
  5
1E0
330
4E
100
AcDbEntity
  8
0
  6
Continuous
 62
     7
100
AcDbCircle
 10
-278.0000045090476
 20
-198.5500032043257
 30
0.0
 40
2.249999999999895
100
AcDbArc
 50
55.24034832118825
 51
62.73395554926851
  0
ARC
  5
1E1
330
4E
100
AcDbEntity
  8
0
  6
Continuous
 62
     7
100
AcDbCircle
 10
-278.0000045090476
 20
-198.5500032043257
 30
0.0
 40
2.249999999999867
100
AcDbArc
 50
34.75965167881578
 51
55.24034832118825
  0
ARC
  5
1E2
330
4E
100
AcDbEntity
  8
0
  6
Continuous
 62
     7
100
AcDbCircle
 10
-278.0000045090476
 20
-198.5500032043257
 30
0.0
 40
2.249999999999973
100
AcDbArc
 50
297.2660444507314
 51
34.75965167881578
  0
ARC
  5
1E3
330
4E
100
AcDbEntity
  8
0
  6
Continuous
 62
     7
100
AcDbCircle
 10
-263.0000045090476
 20
-198.5500032043257
 30
0.0
 40
2.25000000000007
100
AcDbArc
 50
214.759651678813
 51
235.2403483211851
  0
ARC
  5
1E4
330
4E
100
AcDbEntity
  8
0
  6
Continuous
 62
     7
100
AcDbCircle
 10
-263.0000045090476
 20
-198.5500032043257
 30
0.0
 40
2.250000000000118
100
AcDbArc
 50
235.2403483211851
 51
242.7339555492646
  0
ARC
  5
1E5
330
4E
100
AcDbEntity
  8
0
  6
Continuous
 62
     7
100
AcDbCircle
 10
-263.0000045090476
 20
-198.5500032043257
 30
0.0
 40
2.250000000000052
100
AcDbArc
 50
117.2660444507354
 51
214.759651678813
  0
ENDBLK
  5
50
330
4E
100
AcDbEntity
  8
0
100
AcDbBlockEnd
  0
BLOCK
  5
53
330
51
100
AcDbEntity
  8
0
100
AcDbBlockBegin
  2
Drfsicht1
 70
     0
 10
-270.5000038324128
 20
-202.2000029086966
 30
0.0
  3
Drfsicht1
  1

  0
INSERT
  5
52
330
51
100
AcDbEntity
  8
0
100
AcDbBlockReference
  2
URELG_2-select__2
 10
-291.7500045090476
 20
-209.4500032043257
 30
0.0
  0
MTEXT
  5
1E6
330
51
100
AcDbEntity
  8
1
 62
     6
100
AcDbMText
 10
-270.5000038324129
 20
-214.4500048337609
 30
0.0
 40
5.0
 41
0.0
 71
     2
 72
     1
  1
 
  7
CONVERTER_11
 73
     1
 44
1.32052821128451
  0
DIMENSION
  5
1F1
330
51
100
AcDbEntity
  8
1
100
AcDbDimension
  2
*D17
 10
-300.206030557777
 20
-209.4500032043258
 30
0.0
 11
-304.131030557777
 21
-202.228795851339
 31
0.0
 70
    32
  1
<>
 71
     5
 42
-1.0
 53
90.0
  3
ME10_DIM_10
100
AcDbAlignedDimension
 13
-291.7500045090476
 23
-194.9500032043257
 33
0.0
 14
-291.7500045090476
 24
-209.4500032043257
 34
0.0
 50
90.0
100
AcDbRotatedDimension
  0
ENDBLK
  5
54
330
51
100
AcDbEntity
  8
0
100
AcDbBlockEnd
  0
BLOCK
  5
56
330
55
100
AcDbEntity
  8
0
100
AcDbBlockBegin
  2
URELG_2-select__3
 70
     0
 10
-194.7499954909544
 20
-147.9500008224112
 30
0.0
  3
URELG_2-select__3
  1

  0
LINE
  5
1F2
330
55
100
AcDbEntity
  8
0
  6
Continuous
 62
     7
100
AcDbLine
 10
-194.7499954909544
 20
-110.2000008224112
 30
0.0
 11
-193.2188293884436
 21
-108.6688347199005
 31
0.0
  0
LINE
  5
1F3
330
55
100
AcDbEntity
  8
0
  6
Continuous
 62
     7
100
AcDbLine
 10
-193.5999954909543
 20
-112.2500008224112
 30
0.0
 11
-194.7499954909544
 21
-111.9418592511154
 31
0.0
  0
LINE
  5
1F4
330
55
100
AcDbEntity
  8
0
  6
Continuous
 62
     7
100
AcDbLine
 10
-194.7499954909544
 20
-111.9418592511154
 30
0.0
 11
-194.7499954909544
 21
-110.2000008224112
 31
0.0
  0
LINE
  5
1F5
330
55
100
AcDbEntity
  8
0
  6
Continuous
 62
     7
100
AcDbLine
 10
-191.4459931451061
 20
-109.8799890931703
 30
0.0
 11
-190.6893888892365
 21
-110.6365933490399
 31
0.0
  0
LINE
  5
1F6
330
55
100
AcDbEntity
  8
0
  6
Continuous
 62
     7
100
AcDbLine
 10
-191.0711325774036
 20
-109.5051285254677
 30
0.0
 11
-191.4459931451061
 21
-109.8799890931703
 31
0.0
  0
LINE
  5
1F7
330
55
100
AcDbEntity
  8
0
  6
Continuous
 62
     7
100
AcDbLine
 10
-191.4999954909544
 20
-131.9736124475449
 30
0.0
 11
-191.4999954909544
 21
-115.8873075183058
 31
0.0
  0
LINE
  5
1F8
330
55
100
AcDbEntity
  8
0
  6
Continuous
 62
     7
100
AcDbLine
 10
-188.1811039118083
 20
-103.6311092432651
 30
0.0
 11
-193.2188293884436
 21
-108.6688347199005
 31
0.0
  0
LINE
  5
1F9
330
55
100
AcDbEntity
  8
0
  6
Continuous
 62
     7
100
AcDbLine
 10
-193.2188293884436
 20
-108.6688347199005
 30
0.0
 11
-191.0711325774036
 21
-109.5051285254677
 31
0.0
  0
LINE
  5
1FA
330
55
100
AcDbEntity
  8
0
  6
Continuous
 62
     7
100
AcDbLine
 10
-190.6893888892365
 20
-110.6365933490399
 30
0.0
 11
-186.2134029643257
 21
-106.160607424129
 31
0.0
  0
LINE
  5
1FB
330
55
100
AcDbEntity
  8
0
  6
Continuous
 62
     7
100
AcDbLine
 10
-191.4999954909544
 20
-115.8873075183058
 30
0.0
 11
-193.5999954909543
 21
-112.2500008224112
 31
0.0
  0
LINE
  5
1FC
330
55
100
AcDbEntity
  8
0
  6
Continuous
 62
     7
100
AcDbLine
 10
-152.2499954909543
 20
-135.9500008224112
 30
0.0
 11
-154.6999954909543
 21
-135.9500008224112
 31
0.0
  0
LINE
  5
1FD
330
55
100
AcDbEntity
  8
0
  6
Continuous
 62
     7
100
AcDbLine
 10
-155.6315173248288
 20
-147.9500008224112
 30
0.0
 11
-152.2499954909543
 21
-147.9500008224112
 31
0.0
  0
LINE
  5
1FE
330
55
100
AcDbEntity
  8
0
  6
Continuous
 62
     7
100
AcDbLine
 10
-152.2499954909543
 20
-147.9500008224112
 30
0.0
 11
-152.2499954909543
 21
-145.4500008224112
 31
0.0
  0
LINE
  5
1FF
330
55
100
AcDbEntity
  8
0
  6
Continuous
 62
     7
100
AcDbLine
 10
-154.6999954909543
 20
-135.9500008224112
 30
0.0
 11
-155.4999954909543
 21
-135.9500008224112
 31
0.0
  0
LINE
  5
200
330
55
100
AcDbEntity
  8
0
  6
Continuous
 62
     7
100
AcDbLine
 10
-154.7249954909543
 20
-137.9500008224112
 30
0.0
 11
-154.7249954909543
 21
-136.4500008224112
 31
0.0
  0
LINE
  5
201
330
55
100
AcDbEntity
  8
0
  6
Continuous
 62
     7
100
AcDbLine
 10
-154.6999954909543
 20
-135.9500008224112
 30
0.0
 11
-154.6999954909543
 21
-137.9500008224112
 31
0.0
  0
LINE
  5
202
330
55
100
AcDbEntity
  8
0
  6
Continuous
 62
     7
100
AcDbLine
 10
-159.2999954909543
 20
-136.4500008224112
 30
0.0
 11
-154.7249954909543
 21
-136.4500008224112
 31
0.0
  0
LINE
  5
203
330
55
100
AcDbEntity
  8
0
  6
Continuous
 62
     7
100
AcDbLine
 10
-152.2499954909544
 20
-133.7884182181988
 30
0.0
 11
-152.2499954909543
 21
-135.9500008224112
 31
0.0
  0
LINE
  5
204
330
55
100
AcDbEntity
  8
0
  6
Continuous
 62
     7
100
AcDbLine
 10
-152.2499954909544
 20
-133.7884182181988
 30
0.0
 11
-155.4999954909543
 21
-131.9120298433325
 31
0.0
  0
LINE
  5
205
330
55
100
AcDbEntity
  8
0
  6
Continuous
 62
     7
100
AcDbLine
 10
-182.8349954909543
 20
-146.3000008224112
 30
0.0
 11
-183.4749954909543
 21
-146.3000008224112
 31
0.0
  0
LINE
  5
206
330
55
100
AcDbEntity
  8
0
  6
Continuous
 62
     7
100
AcDbLine
 10
-153.7811039118083
 20
-108.6688924015572
 30
0.0
 11
-152.2499954909543
 21
-110.2000008224111
 31
0.0
  0
LINE
  5
207
330
55
100
AcDbEntity
  8
0
  6
Continuous
 62
     7
100
AcDbLine
 10
-156.3106020926722
 20
-110.6365933490398
 30
0.0
 11
-155.5539978368026
 21
-109.8799890931703
 31
0.0
  0
LINE
  5
208
330
55
100
AcDbEntity
  8
0
  6
Continuous
 62
     7
100
AcDbLine
 10
-155.5539978368026
 20
-109.8799890931703
 30
0.0
 11
-155.9290043818592
 21
-109.5049825481137
 31
0.0
  0
LINE
  5
209
330
55
100
AcDbEntity
  8
0
  6
Continuous
 62
     7
100
AcDbLine
 10
-155.9290043818592
 20
-109.5049825481137
 30
0.0
 11
-153.7811039118083
 21
-108.6688924015572
 31
0.0
  0
LINE
  5
20A
330
55
100
AcDbEntity
  8
0
  6
Continuous
 62
     7
100
AcDbLine
 10
-152.2499954909543
 20
-111.9418592511154
 30
0.0
 11
-153.3999954909543
 21
-112.2500008224111
 31
0.0
  0
LINE
  5
20B
330
55
100
AcDbEntity
  8
0
  6
Continuous
 62
     7
100
AcDbLine
 10
-152.2499954909543
 20
-110.2000008224111
 30
0.0
 11
-152.2499954909543
 21
-111.9418592511154
 31
0.0
  0
LINE
  5
20C
330
55
100
AcDbEntity
  8
0
  6
Continuous
 62
     7
100
AcDbLine
 10
-160.786588017583
 20
-106.1606074241291
 30
0.0
 11
-156.3106020926722
 21
-110.6365933490398
 31
0.0
  0
LINE
  5
20D
330
55
100
AcDbEntity
  8
0
  6
Continuous
 62
     7
100
AcDbLine
 10
-157.0252748230626
 20
-143.2500008224112
 30
0.0
 11
-157.0252748230626
 21
-143.0500008224112
 31
0.0
  0
LINE
  5
20E
330
55
100
AcDbEntity
  8
0
  6
Continuous
 62
     7
100
AcDbLine
 10
-157.0252748230626
 20
-143.0500008224112
 30
0.0
 11
-155.9999954909543
 21
-142.8500008224111
 31
0.0
  0
LINE
  5
20F
330
55
100
AcDbEntity
  8
0
  6
Continuous
 62
     7
100
AcDbLine
 10
-155.9999954909543
 20
-142.8500008224111
 30
0.0
 11
-155.7884031141041
 21
-141.6500008224112
 31
0.0
  0
LINE
  5
210
330
55
100
AcDbEntity
  8
0
  6
Continuous
 62
     7
100
AcDbLine
 10
-166.6249954909544
 20
-139.0500008224111
 30
0.0
 11
-166.9197396026285
 21
-137.9500008224112
 31
0.0
  0
LINE
  5
211
330
55
100
AcDbEntity
  8
0
  6
Continuous
 62
     7
100
AcDbLine
 10
-168.0499954909543
 20
-137.9500008224112
 30
0.0
 11
-168.0499954909543
 21
-140.3000008224112
 31
0.0
  0
LINE
  5
212
330
55
100
AcDbEntity
  8
0
  6
Continuous
 62
     7
100
AcDbLine
 10
-160.8249954909544
 20
-139.0500008224112
 30
0.0
 11
-166.6249954909544
 21
-139.0500008224111
 31
0.0
  0
LINE
  5
213
330
55
100
AcDbEntity
  8
0
  6
Continuous
 62
     7
100
AcDbLine
 10
-160.8249954909544
 20
-139.0500008224112
 30
0.0
 11
-160.5363203563595
 21
-138.5500008224111
 31
0.0
  0
LINE
  5
214
330
55
100
AcDbEntity
  8
0
  6
Continuous
 62
     7
100
AcDbLine
 10
-156.1249954909543
 20
-138.1527205232767
 30
0.0
 11
-160.5363203563595
 21
-138.5500008224111
 31
0.0
  0
LINE
  5
215
330
55
100
AcDbEntity
  8
0
  6
Continuous
 62
     7
100
AcDbLine
 10
-156.1249954909543
 20
-139.3643601763561
 30
0.0
 11
-156.1249954909543
 21
-138.1527205232767
 31
0.0
  0
LINE
  5
216
330
55
100
AcDbEntity
  8
0
  6
Continuous
 62
     7
100
AcDbLine
 10
-156.9249954909543
 20
-140.7500008224112
 30
0.0
 11
-156.1249954909543
 21
-139.3643601763561
 31
0.0
  0
LINE
  5
217
330
55
100
AcDbEntity
  8
0
  6
Continuous
 62
     7
100
AcDbLine
 10
-156.9249954909543
 20
-141.4495889203049
 30
0.0
 11
-156.9249954909543
 21
-140.7500008224112
 31
0.0
  0
LINE
  5
218
330
55
100
AcDbEntity
  8
0
  6
Continuous
 62
     7
100
AcDbLine
 10
-155.7884031141041
 20
-141.6500008224112
 30
0.0
 11
-156.9249954909543
 21
-141.4495889203049
 31
0.0
  0
LINE
  5
219
330
55
100
AcDbEntity
  8
0
  6
Continuous
 62
     7
100
AcDbLine
 10
-154.7249954909543
 20
-143.1550335023824
 30
0.0
 11
-154.7249954909543
 21
-137.9500008224112
 31
0.0
  0
LINE
  5
21A
330
55
100
AcDbEntity
  8
0
  6
Continuous
 62
     7
100
AcDbLine
 10
-154.6999954909543
 20
-137.9500008224112
 30
0.0
 11
-154.7249954909543
 21
-137.9500008224112
 31
0.0
  0
LINE
  5
21B
330
55
100
AcDbEntity
  8
0
  6
Continuous
 62
     7
100
AcDbLine
 10
-152.4999954909543
 20
-145.0169881205189
 30
0.0
 11
-154.2249954909543
 21
-144.0210589061668
 31
0.0
  0
LINE
  5
21C
330
55
100
AcDbEntity
  8
0
  6
Continuous
 62
     7
100
AcDbLine
 10
-183.4749954909543
 20
-147.9500008224112
 30
0.0
 11
-183.4749954909543
 21
-146.3000008224112
 31
0.0
  0
LINE
  5
21D
330
55
100
AcDbEntity
  8
0
  6
Continuous
 62
     7
100
AcDbLine
 10
-186.1249954909543
 20
-144.5500008224112
 30
0.0
 11
-186.1249954909543
 21
-145.0500008224112
 31
0.0
  0
LINE
  5
21E
330
55
100
AcDbEntity
  8
0
  6
Continuous
 62
     7
100
AcDbLine
 10
-191.1499954909544
 20
-144.4500008224111
 30
0.0
 11
-194.7499954909543
 21
-144.4500008224112
 31
0.0
  0
LINE
  5
21F
330
55
100
AcDbEntity
  8
0
  6
Continuous
 62
     7
100
AcDbLine
 10
-184.8999954909543
 20
-139.0243829054252
 30
0.0
 11
-184.8999954909543
 21
-137.9500008224112
 31
0.0
  0
LINE
  5
220
330
55
100
AcDbEntity
  8
0
  6
Continuous
 62
     7
100
AcDbLine
 10
-186.3999954909543
 20
-137.9500008224112
 30
0.0
 11
-186.3999954909543
 21
-139.2818788579886
 31
0.0
  0
LINE
  5
221
330
55
100
AcDbEntity
  8
0
  6
Continuous
 62
     7
100
AcDbLine
 10
-190.9999954909543
 20
-142.8500008224112
 30
0.0
 11
-190.1999954909543
 21
-143.0500008224111
 31
0.0
  0
LINE
  5
222
330
55
100
AcDbEntity
  8
0
  6
Continuous
 62
     7
100
AcDbLine
 10
-190.9999954909543
 20
-141.6500008224112
 30
0.0
 11
-186.9249954909544
 21
-141.6500008224112
 31
0.0
  0
LINE
  5
223
330
55
100
AcDbEntity
  8
0
  6
Continuous
 62
     7
100
AcDbLine
 10
-190.9999954909543
 20
-142.8500008224112
 30
0.0
 11
-190.9999954909543
 21
-141.6500008224112
 31
0.0
  0
LINE
  5
224
330
55
100
AcDbEntity
  8
0
  6
Continuous
 62
     7
100
AcDbLine
 10
-194.7499954909543
 20
-144.4500008224112
 30
0.0
 11
-194.7499954909544
 21
-133.8500008224112
 31
0.0
  0
LINE
  5
225
330
55
100
AcDbEntity
  8
0
  6
Continuous
 62
     7
100
AcDbLine
 10
-190.1999954909543
 20
-143.0500008224111
 30
0.0
 11
-190.1999954909543
 21
-143.5000008224111
 31
0.0
  0
LINE
  5
226
330
55
100
AcDbEntity
  8
0
  6
Continuous
 62
     7
100
AcDbLine
 10
-185.3999954909543
 20
-137.4500008224112
 30
0.0
 11
-185.8999954909543
 21
-137.4500008224112
 31
0.0
  0
LINE
  5
227
330
55
100
AcDbEntity
  8
0
  6
Continuous
 62
     7
100
AcDbLine
 10
-184.8999954909543
 20
-137.9500008224112
 30
0.0
 11
-186.3999954909543
 21
-137.9500008224112
 31
0.0
  0
LINE
  5
228
330
55
100
AcDbEntity
  8
0
  6
Continuous
 62
     7
100
AcDbLine
 10
-194.7499954909544
 20
-133.8500008224112
 30
0.0
 11
-191.4999954909544
 21
-131.9736124475449
 31
0.0
  0
LINE
  5
229
330
55
100
AcDbEntity
  8
0
  6
Continuous
 62
     7
100
AcDbLine
 10
-191.1499954909544
 20
-144.4500008224111
 30
0.0
 11
-190.1999954909543
 21
-143.5000008224111
 31
0.0
  0
LINE
  5
22A
330
55
100
AcDbEntity
  8
0
  6
Continuous
 62
     7
100
AcDbLine
 10
-186.3999954909543
 20
-139.2818788579886
 30
0.0
 11
-186.9249954909544
 21
-141.6500008224112
 31
0.0
  0
LINE
  5
22B
330
55
100
AcDbEntity
  8
0
  6
Continuous
 62
     7
100
AcDbLine
 10
-184.8999954909543
 20
-139.0243829054252
 30
0.0
 11
-186.1249954909543
 21
-144.5500008224112
 31
0.0
  0
LINE
  5
22C
330
55
100
AcDbEntity
  8
0
  6
Continuous
 62
     7
100
AcDbLine
 10
-186.1249954909543
 20
-145.0500008224112
 30
0.0
 11
-185.2749954909543
 21
-145.0500008224112
 31
0.0
  0
LINE
  5
22D
330
55
100
AcDbEntity
  8
0
  6
Continuous
 62
     7
100
AcDbLine
 10
-185.2749954909543
 20
-145.0500008224112
 30
0.0
 11
-185.2749954909543
 21
-146.5500008224112
 31
0.0
  0
LINE
  5
22E
330
55
100
AcDbEntity
  8
0
  6
Continuous
 62
     7
100
AcDbLine
 10
-185.2749954909543
 20
-146.5500008224112
 30
0.0
 11
-186.4249954909544
 21
-146.6750008224112
 31
0.0
  0
LINE
  5
22F
330
55
100
AcDbEntity
  8
0
  6
Continuous
 62
     7
100
AcDbLine
 10
-186.4249954909544
 20
-146.6750008224112
 30
0.0
 11
-186.4249954909543
 21
-147.9500008224112
 31
0.0
  0
LINE
  5
230
330
55
100
AcDbEntity
  8
0
  6
Continuous
 62
     7
100
AcDbLine
 10
-186.4249954909543
 20
-147.9500008224112
 30
0.0
 11
-183.4749954909543
 21
-147.9500008224112
 31
0.0
  0
LINE
  5
231
330
55
100
AcDbEntity
  8
0
  6
Continuous
 62
     7
100
AcDbLine
 10
-166.9197396026285
 20
-137.9500008224112
 30
0.0
 11
-166.9544147796891
 21
-137.8205912998598
 31
0.0
  0
LINE
  5
232
330
55
100
AcDbEntity
  8
0
  6
Continuous
 62
     7
100
AcDbLine
 10
-167.4373776928336
 20
-137.4500008224112
 30
0.0
 11
-167.5499954909543
 21
-137.4500008224112
 31
0.0
  0
LINE
  5
233
330
55
100
AcDbEntity
  8
0
  6
Continuous
 62
     7
100
AcDbLine
 10
-166.9197396026285
 20
-137.9500008224112
 30
0.0
 11
-168.0499954909543
 21
-137.9500008224112
 31
0.0
  0
LINE
  5
234
330
55
100
AcDbEntity
  8
0
  6
Continuous
 62
     7
100
AcDbLine
 10
-156.2071022721409
 20
-135.4500008224112
 30
0.0
 11
-159.2999954909543
 21
-135.4500008224112
 31
0.0
  0
LINE
  5
235
330
55
100
AcDbEntity
  8
0
  6
Continuous
 62
     7
100
AcDbLine
 10
-155.4999954909543
 20
-131.9120298433325
 30
0.0
 11
-155.4999954909543
 21
-115.8873075183058
 31
0.0
  0
LINE
  5
236
330
55
100
AcDbEntity
  8
0
  6
Continuous
 62
     7
100
AcDbLine
 10
-153.3999954909543
 20
-112.2500008224111
 30
0.0
 11
-155.4999954909543
 21
-115.8873075183058
 31
0.0
  0
LINE
  5
237
330
55
100
AcDbEntity
  8
0
  6
Continuous
 62
     7
100
AcDbLine
 10
-186.9700072201953
 20
-105.4040031682595
 30
0.0
 11
-187.3450137652519
 21
-105.779009713316
 31
0.0
  0
LINE
  5
238
330
55
100
AcDbEntity
  8
0
  6
Continuous
 62
     7
100
AcDbLine
 10
-186.5999954909543
 20
-102.0500008224112
 30
0.0
 11
-185.9055475465838
 21
-102.0500008224112
 31
0.0
  0
LINE
  5
239
330
55
100
AcDbEntity
  8
0
  6
Continuous
 62
     7
100
AcDbLine
 10
-161.0944434353249
 20
-102.0500008224112
 30
0.0
 11
-160.3999954909543
 21
-102.0500008224112
 31
0.0
  0
LINE
  5
23A
330
55
100
AcDbEntity
  8
0
  6
Continuous
 62
     7
100
AcDbLine
 10
-160.0299837617134
 20
-105.4040031682594
 30
0.0
 11
-160.786588017583
 21
-106.1606074241291
 31
0.0
  0
LINE
  5
23B
330
55
100
AcDbEntity
  8
0
  6
Continuous
 62
     7
100
AcDbLine
 10
-159.6551231940109
 20
-105.7788637359619
 30
0.0
 11
-160.0299837617134
 21
-105.4040031682594
 31
0.0
  0
LINE
  5
23C
330
55
100
AcDbEntity
  8
0
  6
Continuous
 62
     7
100
AcDbLine
 10
-158.8188293884437
 20
-103.6311669249219
 30
0.0
 11
-159.6551231940109
 21
-105.7788637359619
 31
0.0
  0
LINE
  5
23D
330
55
100
AcDbEntity
  8
0
  6
Continuous
 62
     7
100
AcDbLine
 10
-160.3999954909543
 20
-102.0500008224112
 30
0.0
 11
-158.8188293884437
 21
-103.6311669249219
 31
0.0
  0
LINE
  5
23E
330
55
100
AcDbEntity
  8
0
  6
Continuous
 62
     7
100
AcDbLine
 10
-161.4999954909543
 20
-104.3500008224111
 30
0.0
 11
-161.0944434353249
 21
-102.0500008224112
 31
0.0
  0
LINE
  5
23F
330
55
100
AcDbEntity
  8
0
  6
Continuous
 62
     7
100
AcDbLine
 10
-185.4999954909544
 20
-104.3500008224112
 30
0.0
 11
-161.4999954909543
 21
-104.3500008224111
 31
0.0
  0
LINE
  5
240
330
55
100
AcDbEntity
  8
0
  6
Continuous
 62
     7
100
AcDbLine
 10
-185.9055475465838
 20
-102.0500008224112
 30
0.0
 11
-185.4999954909544
 21
-104.3500008224112
 31
0.0
  0
LINE
  5
241
330
55
100
AcDbEntity
  8
0
  6
Continuous
 62
     7
100
AcDbLine
 10
-188.1811039118083
 20
-103.6311092432651
 30
0.0
 11
-186.5999954909543
 21
-102.0500008224112
 31
0.0
  0
LINE
  5
242
330
55
100
AcDbEntity
  8
0
  6
Continuous
 62
     7
100
AcDbLine
 10
-187.3450137652519
 20
-105.779009713316
 30
0.0
 11
-188.1811039118083
 21
-103.6311092432651
 31
0.0
  0
LINE
  5
243
330
55
100
AcDbEntity
  8
0
  6
Continuous
 62
     7
100
AcDbLine
 10
-186.2134029643257
 20
-106.160607424129
 30
0.0
 11
-186.9700072201953
 21
-105.4040031682595
 31
0.0
  0
LINE
  5
244
330
55
100
AcDbEntity
  8
0
  6
Continuous
 62
     7
100
AcDbLine
 10
-158.8188293884437
 20
-103.6311669249219
 30
0.0
 11
-153.7811039118083
 21
-108.6688924015572
 31
0.0
  0
ARC
  5
245
330
55
100
AcDbEntity
  8
0
  6
Continuous
 62
     7
100
AcDbCircle
 10
-147.5288187020397
 20
-142.9905376429681
 30
0.0
 40
9.500000000000004
100
AcDbArc
 50
181.565051994955
 51
211.4697785839646
  0
ARC
  5
246
330
55
100
AcDbEntity
  8
0
  6
Continuous
 62
     7
100
AcDbCircle
 10
-152.7499954909543
 20
-145.4500008224112
 30
0.0
 40
0.5
100
AcDbArc
 50
0.0
 51
60.00000000000434
  0
ARC
  5
247
330
55
100
AcDbEntity
  8
0
  6
Continuous
 62
     7
100
AcDbCircle
 10
-155.4999954909543
 20
-135.2000008224112
 30
0.0
 40
0.750000000000059
100
AcDbArc
 50
199.4712206344891
 51
270.0
  0
ARC
  5
248
330
55
100
AcDbEntity
  8
0
  6
Continuous
 62
     7
100
AcDbCircle
 10
-182.8349954909543
 20
-144.3000008224112
 30
0.0
 40
2.0
100
AcDbArc
 50
270.0
 51
325.6719647666237
  0
ARC
  5
249
330
55
100
AcDbEntity
  8
0
  6
Continuous
 62
     7
100
AcDbCircle
 10
-170.0383275219606
 20
-143.2111242834553
 30
0.0
 40
1.200000000000019
100
AcDbArc
 50
353.0762791559373
 51
79.29351303112017
  0
ARC
  5
24A
330
55
100
AcDbEntity
  8
0
  6
Continuous
 62
     7
100
AcDbCircle
 10
-167.7499954909543
 20
-140.3000008224112
 30
0.0
 40
0.3000000000000114
100
AcDbArc
 50
180.0
 51
270.0
  0
ARC
  5
24B
330
55
100
AcDbEntity
  8
0
  6
Continuous
 62
     7
100
AcDbCircle
 10
-170.397641765848
 20
-141.1883352366576
 30
0.0
 40
3.350000000000001
100
AcDbArc
 50
311.3165829300431
 51
357.5849578586691
  0
ARC
  5
24C
330
55
100
AcDbEntity
  8
0
  6
Continuous
 62
     7
100
AcDbCircle
 10
-168.4499954909543
 20
-143.4040008224112
 30
0.0
 40
0.4000000000000496
100
AcDbArc
 50
173.0762791559312
 51
311.3165829300368
  0
ARC
  5
24D
330
55
100
AcDbEntity
  8
0
  6
Continuous
 62
     7
100
AcDbCircle
 10
-167.7499954909543
 20
-141.3000008224112
 30
0.0
 40
0.6999999999999239
100
AcDbArc
 50
357.5849578586746
 51
90.0
  0
ARC
  5
24E
330
55
100
AcDbEntity
  8
0
  6
Continuous
 62
     7
100
AcDbCircle
 10
-172.8249954909543
 20
-157.9500008224112
 30
0.0
 40
16.20000000000003
100
AcDbArc
 50
79.29351303112088
 51
102.3352321792815
  0
ARC
  5
24F
330
55
100
AcDbEntity
  8
0
  6
Continuous
 62
     7
100
AcDbCircle
 10
-153.7249954909543
 20
-143.1550335023824
 30
0.0
 40
1.0
100
AcDbArc
 50
180.0
 51
239.9999999999986
  0
ARC
  5
250
330
55
100
AcDbEntity
  8
0
  6
Continuous
 62
     7
100
AcDbCircle
 10
-174.5767709079461
 20
-149.9393027948718
 30
0.0
 40
7.999999999999967
100
AcDbArc
 50
102.3352321792814
 51
145.6719647666237
  0
ARC
  5
251
330
55
100
AcDbEntity
  8
0
  6
Continuous
 62
     7
100
AcDbCircle
 10
-185.3999954909543
 20
-137.9500008224112
 30
0.0
 40
0.5
100
AcDbArc
 50
0.0
 51
90.0
  0
ARC
  5
252
330
55
100
AcDbEntity
  8
0
  6
Continuous
 62
     7
100
AcDbCircle
 10
-185.8999954909543
 20
-137.9500008224112
 30
0.0
 40
0.5
100
AcDbArc
 50
90.0
 51
180.0
  0
ARC
  5
253
330
55
100
AcDbEntity
  8
0
  6
Continuous
 62
     7
100
AcDbCircle
 10
-167.4373776928336
 20
-137.9500008224112
 30
0.0
 40
0.4999999999999897
100
AcDbArc
 50
15.00000000001501
 51
90.0
  0
ARC
  5
254
330
55
100
AcDbEntity
  8
0
  6
Continuous
 62
     7
100
AcDbCircle
 10
-167.5499954909543
 20
-137.9500008224112
 30
0.0
 40
0.5
100
AcDbArc
 50
90.0
 51
180.0
  0
ARC
  5
255
330
55
100
AcDbEntity
  8
0
  6
Continuous
 62
     7
100
AcDbCircle
 10
-159.2999954909543
 20
-135.9500008224112
 30
0.0
 40
0.5
100
AcDbArc
 50
90.0
 51
270.0
  0
ENDBLK
  5
57
330
55
100
AcDbEntity
  8
0
100
AcDbBlockEnd
  0
BLOCK
  5
5A
330
58
100
AcDbEntity
  8
0
100
AcDbBlockBegin
  2
Rckans1
 70
     0
 10
-173.4999961675892
 20
-125.000000000195
 30
0.0
  3
Rckans1
  1

  0
INSERT
  5
59
330
58
100
AcDbEntity
  8
0
100
AcDbBlockReference
  2
URELG_2-select__3
 10
-194.7499954909544
 20
-147.9500008224112
 30
0.0
  0
MTEXT
  5
256
330
58
100
AcDbEntity
  8
1
 62
     6
100
AcDbMText
 10
-173.4999961675892
 20
-152.9500007631345
 30
0.0
 40
5.0
 41
0.0
 71
     2
 72
     1
  1
 
  7
CONVERTER_11
 73
     1
 44
1.32052821128451
  0
ENDBLK
  5
5B
330
58
100
AcDbEntity
  8
0
100
AcDbBlockEnd
  0
BLOCK
  5
5D
330
5C
100
AcDbEntity
  8
0
100
AcDbBlockBegin
  2
URELG_2-select__4
 70
     0
 10
-229.2499994836808
 20
-147.9500008224112
 30
0.0
  3
URELG_2-select__4
  1

  0
LINE
  5
257
330
5C
100
AcDbEntity
  8
0
  6
Continuous
 62
     7
100
AcDbLine
 10
-216.9499994836808
 20
-106.160607424129
 30
0.0
 11
-229.2499994836808
 21
-106.1606074241291
 31
0.0
  0
LINE
  5
258
330
5C
100
AcDbEntity
  8
0
  6
Continuous
 62
     7
100
AcDbLine
 10
-216.9499994836808
 20
-106.160607424129
 30
0.0
 11
-216.9499994836808
 21
-108.6688924015572
 31
0.0
  0
LINE
  5
259
330
5C
100
AcDbEntity
  8
0
  6
Continuous
 62
     7
100
AcDbLine
 10
-228.5499994836808
 20
-129.7113256878164
 30
0.0
 11
-228.5499994836808
 21
-122.1241781871851
 31
0.0
  0
LINE
  5
25A
330
5C
100
AcDbEntity
  8
0
  6
Continuous
 62
     7
100
AcDbLine
 10
-223.7999994836808
 20
-128.6613256878164
 30
0.0
 11
-223.7999994836808
 21
-125.1177137864613
 31
0.0
  0
LINE
  5
25B
330
5C
100
AcDbEntity
  8
0
  6
Continuous
 62
     7
100
AcDbLine
 10
-222.3999994836808
 20
-129.7113256878164
 30
0.0
 11
-222.3999994836808
 21
-122.1241781871851
 31
0.0
  0
LINE
  5
25C
330
5C
100
AcDbEntity
  8
0
  6
Continuous
 62
     7
100
AcDbLine
 10
-221.0499994836808
 20
-128.6500008224112
 30
0.0
 11
-217.9499994836808
 21
-128.6500008224112
 31
0.0
  0
LINE
  5
25D
330
5C
100
AcDbEntity
  8
0
  6
Continuous
 62
     7
100
AcDbLine
 10
-227.4886746182756
 20
-128.6500008224112
 30
0.0
 11
-228.5499994836808
 21
-129.7113256878164
 31
0.0
  0
LINE
  5
25E
330
5C
100
AcDbEntity
  8
0
  6
Continuous
 62
     7
100
AcDbLine
 10
-223.7999994836808
 20
-128.6613256878164
 30
0.0
 11
-223.811324349086
 21
-128.6500008224112
 31
0.0
  0
LINE
  5
25F
330
5C
100
AcDbEntity
  8
0
  6
Continuous
 62
     7
100
AcDbLine
 10
-217.6499994836808
 20
-128.6613256878164
 30
0.0
 11
-217.661324349086
 21
-128.6500008224112
 31
0.0
  0
LINE
  5
260
330
5C
100
AcDbEntity
  8
0
  6
Continuous
 62
     7
100
AcDbLine
 10
-221.3386746182756
 20
-128.6500008224112
 30
0.0
 11
-222.3999994836808
 21
-129.7113256878164
 31
0.0
  0
LINE
  5
261
330
5C
100
AcDbEntity
  8
0
  6
Continuous
 62
     7
100
AcDbLine
 10
-223.7999994836808
 20
-125.1177137864613
 30
0.0
 11
-223.7999994836808
 21
-115.8873075183059
 31
0.0
  0
LINE
  5
262
330
5C
100
AcDbEntity
  8
0
  6
Continuous
 62
     7
100
AcDbLine
 10
-229.2499994836808
 20
-108.6688924015572
 30
0.0
 11
-216.9499994836808
 21
-108.6688924015572
 31
0.0
  0
LINE
  5
263
330
5C
100
AcDbEntity
  8
0
  6
Continuous
 62
     7
100
AcDbLine
 10
-216.9499994836808
 20
-105.778863735962
 30
0.0
 11
-229.2499994836808
 21
-105.778863735962
 31
0.0
  0
LINE
  5
264
330
5C
100
AcDbEntity
  8
0
  6
Continuous
 62
     2
100
AcDbLine
 10
-229.2499994836808
 20
-143.1550335023824
 30
0.0
 11
-228.2499994836808
 21
-143.1550335023824
 31
0.0
  0
LINE
  5
265
330
5C
100
AcDbEntity
  8
0
  6
Continuous
 62
     2
100
AcDbLine
 10
-223.0999994836808
 20
-143.1550335023824
 30
0.0
 11
-222.0999994836808
 21
-143.1550335023824
 31
0.0
  0
LINE
  5
266
330
5C
100
AcDbEntity
  8
0
  6
Continuous
 62
     7
100
AcDbLine
 10
-216.9499994836808
 20
-132.7118810377629
 30
0.0
 11
-214.7499994836808
 21
-132.7118810377629
 31
0.0
  0
LINE
  5
267
330
5C
100
AcDbEntity
  8
0
  6
Continuous
 62
     7
100
AcDbLine
 10
-216.9499994836808
 20
-133.7884182181988
 30
0.0
 11
-229.2499994836808
 21
-133.7884182181988
 31
0.0
  0
LINE
  5
268
330
5C
100
AcDbEntity
  8
0
  6
Continuous
 62
     7
100
AcDbLine
 10
-229.2499994836808
 20
-133.7884182181988
 30
0.0
 11
-229.2499994836808
 21
-135.9500008224112
 31
0.0
  0
LINE
  5
269
330
5C
100
AcDbEntity
  8
0
  6
Continuous
 62
     7
100
AcDbLine
 10
-229.2499994836808
 20
-136.4500008224112
 30
0.0
 11
-229.2499994836808
 21
-143.1550335023824
 31
0.0
  0
LINE
  5
26A
330
5C
100
AcDbEntity
  8
0
  6
Continuous
 62
     7
100
AcDbLine
 10
-229.2499994836808
 20
-133.7884182181988
 30
0.0
 11
-229.2499994836808
 21
-131.9120298433326
 31
0.0
  0
LINE
  5
26B
330
5C
100
AcDbEntity
  8
0
  6
Continuous
 62
     7
100
AcDbLine
 10
-229.2499994836808
 20
-115.8873075183058
 30
0.0
 11
-229.2499994836808
 21
-131.9120298433326
 31
0.0
  0
LINE
  5
26C
330
5C
100
AcDbEntity
  8
0
  6
Continuous
 62
     7
100
AcDbLine
 10
-216.9499994836808
 20
-103.6311669249219
 30
0.0
 11
-229.2499994836808
 21
-103.6311669249219
 31
0.0
  0
LINE
  5
26D
330
5C
100
AcDbEntity
  8
0
  6
Continuous
 62
     7
100
AcDbLine
 10
-214.7499994836808
 20
-102.0500008224112
 30
0.0
 11
-229.2499994836808
 21
-102.0500008224112
 31
0.0
  0
LINE
  5
26E
330
5C
100
AcDbEntity
  8
0
  6
Continuous
 62
     7
100
AcDbLine
 10
-229.2499994836808
 20
-106.1606074241291
 30
0.0
 11
-229.2499994836808
 21
-108.6688924015572
 31
0.0
  0
LINE
  5
26F
330
5C
100
AcDbEntity
  8
0
  6
Continuous
 62
     7
100
AcDbLine
 10
-229.2499994836808
 20
-108.6688924015572
 30
0.0
 11
-229.2499994836808
 21
-110.2000008224112
 31
0.0
  0
LINE
  5
270
330
5C
100
AcDbEntity
  8
0
  6
Continuous
 62
     7
100
AcDbLine
 10
-229.2499994836808
 20
-105.778863735962
 30
0.0
 11
-229.2499994836808
 21
-106.1606074241291
 31
0.0
  0
LINE
  5
271
330
5C
100
AcDbEntity
  8
0
  6
Continuous
 62
     7
100
AcDbLine
 10
-229.2499994836808
 20
-103.6311669249219
 30
0.0
 11
-229.2499994836808
 21
-105.778863735962
 31
0.0
  0
LINE
  5
272
330
5C
100
AcDbEntity
  8
0
  6
Continuous
 62
     7
100
AcDbLine
 10
-214.7499994836808
 20
-110.2000008224112
 30
0.0
 11
-214.7499994836808
 21
-102.0500008224112
 31
0.0
  0
LINE
  5
273
330
5C
100
AcDbEntity
  8
0
  6
Continuous
 62
     7
100
AcDbLine
 10
-216.9499994836808
 20
-105.778863735962
 30
0.0
 11
-216.9499994836808
 21
-106.160607424129
 31
0.0
  0
LINE
  5
274
330
5C
100
AcDbEntity
  8
0
  6
Continuous
 62
     7
100
AcDbLine
 10
-216.9499994836808
 20
-103.6311669249219
 30
0.0
 11
-216.9499994836808
 21
-105.778863735962
 31
0.0
  0
LINE
  5
275
330
5C
100
AcDbEntity
  8
0
  6
Continuous
 62
     7
100
AcDbLine
 10
-229.2499994836808
 20
-102.0500008224112
 30
0.0
 11
-229.2499994836808
 21
-103.6311669249219
 31
0.0
  0
LINE
  5
276
330
5C
100
AcDbEntity
  8
0
  6
Continuous
 62
     7
100
AcDbLine
 10
-214.7499994836808
 20
-110.2000008224112
 30
0.0
 11
-229.2499994836808
 21
-110.2000008224112
 31
0.0
  0
LINE
  5
277
330
5C
100
AcDbEntity
  8
0
  6
Continuous
 62
     7
100
AcDbLine
 10
-214.7499994836808
 20
-111.9418592511154
 30
0.0
 11
-214.7499994836808
 21
-110.2000008224112
 31
0.0
  0
LINE
  5
278
330
5C
100
AcDbEntity
  8
0
  6
Continuous
 62
     7
100
AcDbLine
 10
-229.2499994836808
 20
-110.2000008224112
 30
0.0
 11
-229.2499994836808
 21
-111.9418592511154
 31
0.0
  0
LINE
  5
279
330
5C
100
AcDbEntity
  8
0
  6
Continuous
 62
     7
100
AcDbLine
 10
-229.2499994836808
 20
-111.9418592511154
 30
0.0
 11
-229.2499994836808
 21
-112.2500008224112
 31
0.0
  0
LINE
  5
27A
330
5C
100
AcDbEntity
  8
0
  6
Continuous
 62
     7
100
AcDbLine
 10
-229.2499994836808
 20
-112.2500008224112
 30
0.0
 11
-229.2499994836808
 21
-115.8873075183058
 31
0.0
  0
LINE
  5
27B
330
5C
100
AcDbEntity
  8
0
  6
Continuous
 62
     7
100
AcDbLine
 10
-228.5499994836808
 20
-122.1241781871851
 30
0.0
 11
-228.5499994836808
 21
-115.8873075183059
 31
0.0
  0
LINE
  5
27C
330
5C
100
AcDbEntity
  8
0
  6
Continuous
 62
     7
100
AcDbLine
 10
-217.6499994836808
 20
-115.8873075183059
 30
0.0
 11
-214.7499994836808
 21
-115.8873075183059
 31
0.0
  0
LINE
  5
27D
330
5C
100
AcDbEntity
  8
0
  6
Continuous
 62
     7
100
AcDbLine
 10
-221.0499994836808
 20
-125.1500008224112
 30
0.0
 11
-221.0499994836808
 21
-128.6500008224112
 31
0.0
  0
LINE
  5
27E
330
5C
100
AcDbEntity
  8
0
  6
Continuous
 62
     7
100
AcDbLine
 10
-217.9499994836808
 20
-128.6500008224112
 30
0.0
 11
-217.9499994836808
 21
-125.1500008224112
 31
0.0
  0
LINE
  5
27F
330
5C
100
AcDbEntity
  8
0
  6
Continuous
 62
     7
100
AcDbLine
 10
-229.2499994836808
 20
-115.8873075183058
 30
0.0
 11
-228.5499994836808
 21
-115.8873075183059
 31
0.0
  0
LINE
  5
280
330
5C
100
AcDbEntity
  8
0
  6
Continuous
 62
     7
100
AcDbLine
 10
-228.5499994836808
 20
-115.8873075183059
 30
0.0
 11
-223.7999994836808
 21
-115.8873075183059
 31
0.0
  0
LINE
  5
281
330
5C
100
AcDbEntity
  8
0
  6
Continuous
 62
     7
100
AcDbLine
 10
-214.7499994836808
 20
-112.2500008224112
 30
0.0
 11
-229.2499994836808
 21
-112.2500008224112
 31
0.0
  0
LINE
  5
282
330
5C
100
AcDbEntity
  8
0
  6
Continuous
 62
     7
100
AcDbLine
 10
-214.7499994836808
 20
-111.9418592511154
 30
0.0
 11
-229.2499994836808
 21
-111.9418592511154
 31
0.0
  0
LINE
  5
283
330
5C
100
AcDbEntity
  8
0
  6
Continuous
 62
     7
100
AcDbLine
 10
-221.3386746182756
 20
-128.6500008224112
 30
0.0
 11
-221.0499994836808
 21
-128.6500008224112
 31
0.0
  0
LINE
  5
284
330
5C
100
AcDbEntity
  8
0
  6
Continuous
 62
     7
100
AcDbLine
 10
-217.9499994836808
 20
-128.6500008224112
 30
0.0
 11
-217.661324349086
 21
-128.6500008224112
 31
0.0
  0
LINE
  5
285
330
5C
100
AcDbEntity
  8
0
  6
Continuous
 62
     7
100
AcDbLine
 10
-223.7999994836808
 20
-115.8873075183059
 30
0.0
 11
-222.3999994836808
 21
-115.8873075183059
 31
0.0
  0
LINE
  5
286
330
5C
100
AcDbEntity
  8
0
  6
Continuous
 62
     7
100
AcDbLine
 10
-222.3999994836808
 20
-115.8873075183059
 30
0.0
 11
-217.6499994836808
 21
-115.8873075183059
 31
0.0
  0
LINE
  5
287
330
5C
100
AcDbEntity
  8
0
  6
Continuous
 62
     7
100
AcDbLine
 10
-222.3999994836808
 20
-122.1241781871851
 30
0.0
 11
-222.3999994836808
 21
-115.8873075183059
 31
0.0
  0
LINE
  5
288
330
5C
100
AcDbEntity
  8
0
  6
Continuous
 62
     7
100
AcDbLine
 10
-217.661324349086
 20
-125.1500008224112
 30
0.0
 11
-217.9499994836808
 21
-125.1500008224112
 31
0.0
  0
LINE
  5
289
330
5C
100
AcDbEntity
  8
0
  6
Continuous
 62
     7
100
AcDbLine
 10
-221.0499994836808
 20
-125.1500008224112
 30
0.0
 11
-221.3386746182756
 21
-125.1500008224112
 31
0.0
  0
LINE
  5
28A
330
5C
100
AcDbEntity
  8
0
  6
Continuous
 62
     7
100
AcDbLine
 10
-217.9499994836808
 20
-125.1500008224112
 30
0.0
 11
-221.0499994836808
 21
-125.1500008224112
 31
0.0
  0
LINE
  5
28B
330
5C
100
AcDbEntity
  8
0
  6
Continuous
 62
     7
100
AcDbLine
 10
-214.7499994836808
 20
-112.2500008224112
 30
0.0
 11
-214.7499994836808
 21
-111.9418592511154
 31
0.0
  0
LINE
  5
28C
330
5C
100
AcDbEntity
  8
0
  6
Continuous
 62
     7
100
AcDbLine
 10
-214.7499994836808
 20
-115.8873075183059
 30
0.0
 11
-214.7499994836808
 21
-112.2500008224112
 31
0.0
  0
LINE
  5
28D
330
5C
100
AcDbEntity
  8
0
  6
Continuous
 62
     7
100
AcDbLine
 10
-223.811324349086
 20
-125.1500008224112
 30
0.0
 11
-224.0999994836808
 21
-125.1500008224112
 31
0.0
  0
LINE
  5
28E
330
5C
100
AcDbEntity
  8
0
  6
Continuous
 62
     7
100
AcDbLine
 10
-227.1999994836808
 20
-125.1500008224112
 30
0.0
 11
-227.4886746182756
 21
-125.1500008224112
 31
0.0
  0
LINE
  5
28F
330
5C
100
AcDbEntity
  8
0
  6
Continuous
 62
     7
100
AcDbLine
 10
-224.0999994836808
 20
-125.1500008224112
 30
0.0
 11
-227.1999994836808
 21
-125.1500008224112
 31
0.0
  0
LINE
  5
290
330
5C
100
AcDbEntity
  8
0
  6
Continuous
 62
     7
100
AcDbLine
 10
-224.0999994836808
 20
-128.6500008224112
 30
0.0
 11
-224.0999994836808
 21
-125.1500008224112
 31
0.0
  0
LINE
  5
291
330
5C
100
AcDbEntity
  8
0
  6
Continuous
 62
     7
100
AcDbLine
 10
-227.4886746182756
 20
-128.6500008224112
 30
0.0
 11
-227.1999994836808
 21
-128.6500008224112
 31
0.0
  0
LINE
  5
292
330
5C
100
AcDbEntity
  8
0
  6
Continuous
 62
     7
100
AcDbLine
 10
-224.0999994836808
 20
-128.6500008224112
 30
0.0
 11
-223.811324349086
 21
-128.6500008224112
 31
0.0
  0
LINE
  5
293
330
5C
100
AcDbEntity
  8
0
  6
Continuous
 62
     7
100
AcDbLine
 10
-227.1999994836808
 20
-128.6500008224112
 30
0.0
 11
-224.0999994836808
 21
-128.6500008224112
 31
0.0
  0
LINE
  5
294
330
5C
100
AcDbEntity
  8
0
  6
Continuous
 62
     7
100
AcDbLine
 10
-227.1999994836808
 20
-125.1500008224112
 30
0.0
 11
-227.1999994836808
 21
-128.6500008224112
 31
0.0
  0
LINE
  5
295
330
5C
100
AcDbEntity
  8
0
  6
Continuous
 62
     7
100
AcDbLine
 10
-217.661324349086
 20
-125.1500008224112
 30
0.0
 11
-217.6499994836808
 21
-125.1177137864613
 31
0.0
  0
LINE
  5
296
330
5C
100
AcDbEntity
  8
0
  6
Continuous
 62
     7
100
AcDbLine
 10
-221.3386746182756
 20
-125.1500008224112
 30
0.0
 11
-222.3999994836808
 21
-122.1241781871851
 31
0.0
  0
LINE
  5
297
330
5C
100
AcDbEntity
  8
0
  6
Continuous
 62
     7
100
AcDbLine
 10
-223.811324349086
 20
-125.1500008224112
 30
0.0
 11
-223.7999994836808
 21
-125.1177137864613
 31
0.0
  0
LINE
  5
298
330
5C
100
AcDbEntity
  8
0
  6
Continuous
 62
     7
100
AcDbLine
 10
-217.6499994836808
 20
-128.6613256878164
 30
0.0
 11
-217.6499994836808
 21
-125.1177137864613
 31
0.0
  0
LINE
  5
299
330
5C
100
AcDbEntity
  8
0
  6
Continuous
 62
     7
100
AcDbLine
 10
-217.6499994836808
 20
-131.9120298433326
 30
0.0
 11
-217.6499994836808
 21
-128.6613256878164
 31
0.0
  0
LINE
  5
29A
330
5C
100
AcDbEntity
  8
0
  6
Continuous
 62
     7
100
AcDbLine
 10
-216.9499994836808
 20
-133.7884182181988
 30
0.0
 11
-216.9499994836808
 21
-132.7118810377629
 31
0.0
  0
LINE
  5
29B
330
5C
100
AcDbEntity
  8
0
  6
Continuous
 62
     7
100
AcDbLine
 10
-216.9499994836808
 20
-132.7118810377629
 30
0.0
 11
-216.9499994836808
 21
-132.2500008224112
 31
0.0
  0
LINE
  5
29C
330
5C
100
AcDbEntity
  8
0
  6
Continuous
 62
     7
100
AcDbLine
 10
-216.9499994836808
 20
-137.9500008224112
 30
0.0
 11
-216.9499994836808
 21
-144.9500008224112
 31
0.0
  0
LINE
  5
29D
330
5C
100
AcDbEntity
  8
0
  6
Continuous
 62
     7
100
AcDbLine
 10
-216.9499994836808
 20
-135.9500008224112
 30
0.0
 11
-216.9499994836808
 21
-133.7884182181988
 31
0.0
  0
LINE
  5
29E
330
5C
100
AcDbEntity
  8
0
  6
Continuous
 62
     7
100
AcDbLine
 10
-217.6499994836808
 20
-125.1177137864613
 30
0.0
 11
-217.6499994836808
 21
-115.8873075183059
 31
0.0
  0
LINE
  5
29F
330
5C
100
AcDbEntity
  8
0
  6
Continuous
 62
     7
100
AcDbLine
 10
-216.9499994836808
 20
-147.9500008224112
 30
0.0
 11
-216.9499994836808
 21
-145.4500008224112
 31
0.0
  0
LINE
  5
2A0
330
5C
100
AcDbEntity
  8
0
  6
Continuous
 62
     7
100
AcDbLine
 10
-229.2499994836808
 20
-147.9500008224112
 30
0.0
 11
-229.2499994836808
 21
-145.4500008224112
 31
0.0
  0
LINE
  5
2A1
330
5C
100
AcDbEntity
  8
0
  6
Continuous
 62
     7
100
AcDbLine
 10
-216.9499994836808
 20
-145.4500008224112
 30
0.0
 11
-216.9499994836808
 21
-144.9500008224112
 31
0.0
  0
LINE
  5
2A2
330
5C
100
AcDbEntity
  8
0
  6
Continuous
 62
     7
100
AcDbLine
 10
-229.2499994836808
 20
-145.016988120519
 30
0.0
 11
-229.2499994836808
 21
-145.4500008224112
 31
0.0
  0
LINE
  5
2A3
330
5C
100
AcDbEntity
  8
0
  6
Continuous
 62
     7
100
AcDbLine
 10
-228.2499994836808
 20
-144.9500008224112
 30
0.0
 11
-228.2499994836808
 21
-145.016988120519
 31
0.0
  0
LINE
  5
2A4
330
5C
100
AcDbEntity
  8
0
  6
Continuous
 62
     7
100
AcDbLine
 10
-228.2499994836808
 20
-144.0210589061669
 30
0.0
 11
-228.2499994836808
 21
-144.9500008224112
 31
0.0
  0
LINE
  5
2A5
330
5C
100
AcDbEntity
  8
0
  6
Continuous
 62
     7
100
AcDbLine
 10
-229.2499994836808
 20
-145.016988120519
 30
0.0
 11
-229.2499994836808
 21
-144.0210589061669
 31
0.0
  0
LINE
  5
2A6
330
5C
100
AcDbEntity
  8
0
  6
Continuous
 62
     2
100
AcDbLine
 10
-229.2499994836808
 20
-145.016988120519
 30
0.0
 11
-228.2499994836808
 21
-145.016988120519
 31
0.0
  0
LINE
  5
2A7
330
5C
100
AcDbEntity
  8
0
  6
Continuous
 62
     7
100
AcDbLine
 10
-228.2499994836808
 20
-144.9500008224112
 30
0.0
 11
-223.0999994836808
 21
-144.9500008224112
 31
0.0
  0
LINE
  5
2A8
330
5C
100
AcDbEntity
  8
0
  6
Continuous
 62
     7
100
AcDbLine
 10
-222.0999994836808
 20
-144.9500008224112
 30
0.0
 11
-216.9499994836808
 21
-144.9500008224112
 31
0.0
  0
LINE
  5
2A9
330
5C
100
AcDbEntity
  8
0
  6
Continuous
 62
     7
100
AcDbLine
 10
-222.0999994836808
 20
-144.9500008224112
 30
0.0
 11
-222.0999994836808
 21
-145.016988120519
 31
0.0
  0
LINE
  5
2AA
330
5C
100
AcDbEntity
  8
0
  6
Continuous
 62
     7
100
AcDbLine
 10
-222.0999994836808
 20
-144.0210589061669
 30
0.0
 11
-222.0999994836808
 21
-144.9500008224112
 31
0.0
  0
LINE
  5
2AB
330
5C
100
AcDbEntity
  8
0
  6
Continuous
 62
     2
100
AcDbLine
 10
-223.0999994836808
 20
-145.016988120519
 30
0.0
 11
-222.0999994836808
 21
-145.016988120519
 31
0.0
  0
LINE
  5
2AC
330
5C
100
AcDbEntity
  8
0
  6
Continuous
 62
     7
100
AcDbLine
 10
-223.0999994836808
 20
-145.016988120519
 30
0.0
 11
-223.0999994836808
 21
-144.9500008224112
 31
0.0
  0
LINE
  5
2AD
330
5C
100
AcDbEntity
  8
0
  6
Continuous
 62
     7
100
AcDbLine
 10
-223.0999994836808
 20
-144.9500008224112
 30
0.0
 11
-223.0999994836808
 21
-144.0210589061669
 31
0.0
  0
LINE
  5
2AE
330
5C
100
AcDbEntity
  8
0
  6
Continuous
 62
     2
100
AcDbLine
 10
-229.2499994836808
 20
-144.0210589061669
 30
0.0
 11
-228.2499994836808
 21
-144.0210589061669
 31
0.0
  0
LINE
  5
2AF
330
5C
100
AcDbEntity
  8
0
  6
Continuous
 62
     7
100
AcDbLine
 10
-228.2499994836808
 20
-144.0210589061669
 30
0.0
 11
-228.2499994836808
 21
-143.1550335023824
 31
0.0
  0
LINE
  5
2B0
330
5C
100
AcDbEntity
  8
0
  6
Continuous
 62
     2
100
AcDbLine
 10
-223.0999994836808
 20
-144.0210589061669
 30
0.0
 11
-222.0999994836808
 21
-144.0210589061669
 31
0.0
  0
LINE
  5
2B1
330
5C
100
AcDbEntity
  8
0
  6
Continuous
 62
     7
100
AcDbLine
 10
-229.2499994836808
 20
-144.0210589061669
 30
0.0
 11
-229.2499994836808
 21
-143.1550335023824
 31
0.0
  0
LINE
  5
2B2
330
5C
100
AcDbEntity
  8
0
  6
Continuous
 62
     7
100
AcDbLine
 10
-222.0999994836808
 20
-144.0210589061669
 30
0.0
 11
-222.0999994836808
 21
-143.1550335023824
 31
0.0
  0
LINE
  5
2B3
330
5C
100
AcDbEntity
  8
0
  6
Continuous
 62
     7
100
AcDbLine
 10
-223.0999994836808
 20
-144.0210589061669
 30
0.0
 11
-223.0999994836808
 21
-143.1550335023824
 31
0.0
  0
LINE
  5
2B4
330
5C
100
AcDbEntity
  8
0
  6
Continuous
 62
     2
100
AcDbLine
 10
-229.2499994836808
 20
-145.4500008224112
 30
0.0
 11
-216.9499994836808
 21
-145.4500008224112
 31
0.0
  0
LINE
  5
2B5
330
5C
100
AcDbEntity
  8
0
  6
Continuous
 62
     7
100
AcDbLine
 10
-216.9499994836808
 20
-147.9500008224112
 30
0.0
 11
-229.2499994836808
 21
-147.9500008224112
 31
0.0
  0
LINE
  5
2B6
330
5C
100
AcDbEntity
  8
0
  6
Continuous
 62
     7
100
AcDbLine
 10
-228.5499994836808
 20
-131.9120298433326
 30
0.0
 11
-228.5499994836808
 21
-129.7113256878164
 31
0.0
  0
LINE
  5
2B7
330
5C
100
AcDbEntity
  8
0
  6
Continuous
 62
     7
100
AcDbLine
 10
-222.3999994836808
 20
-131.9120298433326
 30
0.0
 11
-222.3999994836808
 21
-129.7113256878164
 31
0.0
  0
LINE
  5
2B8
330
5C
100
AcDbEntity
  8
0
  6
Continuous
 62
     7
100
AcDbLine
 10
-217.6499994836808
 20
-131.9120298433326
 30
0.0
 11
-216.9499994836808
 21
-131.9120298433326
 31
0.0
  0
LINE
  5
2B9
330
5C
100
AcDbEntity
  8
0
  6
Continuous
 62
     7
100
AcDbLine
 10
-216.9499994836808
 20
-132.2500008224112
 30
0.0
 11
-216.9499994836808
 21
-131.9120298433326
 31
0.0
  0
LINE
  5
2BA
330
5C
100
AcDbEntity
  8
0
  6
Continuous
 62
     7
100
AcDbLine
 10
-216.9499994836808
 20
-132.2500008224112
 30
0.0
 11
-214.7499994836808
 21
-132.2500008224112
 31
0.0
  0
LINE
  5
2BB
330
5C
100
AcDbEntity
  8
0
  6
Continuous
 62
     7
100
AcDbLine
 10
-223.7999994836808
 20
-131.9120298433326
 30
0.0
 11
-222.3999994836808
 21
-131.9120298433326
 31
0.0
  0
LINE
  5
2BC
330
5C
100
AcDbEntity
  8
0
  6
Continuous
 62
     7
100
AcDbLine
 10
-229.2499994836808
 20
-131.9120298433326
 30
0.0
 11
-228.5499994836808
 21
-131.9120298433326
 31
0.0
  0
LINE
  5
2BD
330
5C
100
AcDbEntity
  8
0
  6
Continuous
 62
     7
100
AcDbLine
 10
-223.7999994836808
 20
-131.9120298433326
 30
0.0
 11
-223.7999994836808
 21
-128.6613256878164
 31
0.0
  0
LINE
  5
2BE
330
5C
100
AcDbEntity
  8
0
  6
Continuous
 62
     7
100
AcDbLine
 10
-229.2499994836808
 20
-136.4500008224112
 30
0.0
 11
-229.2499994836808
 21
-135.9500008224112
 31
0.0
  0
LINE
  5
2BF
330
5C
100
AcDbEntity
  8
0
  6
Continuous
 62
     7
100
AcDbLine
 10
-216.9499994836808
 20
-135.9500008224112
 30
0.0
 11
-229.2499994836808
 21
-135.9500008224112
 31
0.0
  0
LINE
  5
2C0
330
5C
100
AcDbEntity
  8
0
  6
Continuous
 62
     7
100
AcDbLine
 10
-216.9499994836808
 20
-136.4500008224112
 30
0.0
 11
-229.2499994836808
 21
-136.4500008224112
 31
0.0
  0
LINE
  5
2C1
330
5C
100
AcDbEntity
  8
0
  6
Continuous
 62
     7
100
AcDbLine
 10
-216.9499994836808
 20
-135.9500008224112
 30
0.0
 11
-216.9499994836808
 21
-136.4500008224112
 31
0.0
  0
LINE
  5
2C2
330
5C
100
AcDbEntity
  8
0
  6
Continuous
 62
     7
100
AcDbLine
 10
-216.9499994836808
 20
-136.4500008224112
 30
0.0
 11
-216.9499994836808
 21
-137.9500008224112
 31
0.0
  0
LINE
  5
2C3
330
5C
100
AcDbEntity
  8
0
  6
Continuous
 62
     7
100
AcDbLine
 10
-216.9499994836808
 20
-137.9500008224112
 30
0.0
 11
-214.7499994836808
 21
-137.9500008224112
 31
0.0
  0
LINE
  5
2C4
330
5C
100
AcDbEntity
  8
0
  6
Continuous
 62
     7
100
AcDbLine
 10
-214.7499994836808
 20
-132.7118810377629
 30
0.0
 11
-214.7499994836808
 21
-132.2500008224112
 31
0.0
  0
LINE
  5
2C5
330
5C
100
AcDbEntity
  8
0
  6
Continuous
 62
     7
100
AcDbLine
 10
-214.7499994836808
 20
-132.7118810377629
 30
0.0
 11
-214.7499994836808
 21
-137.9500008224112
 31
0.0
  0
LINE
  5
2C6
330
5C
100
AcDbEntity
  8
0
  6
Continuous
 62
     7
100
AcDbLine
 10
-214.7499994836808
 20
-132.2500008224112
 30
0.0
 11
-214.7499994836808
 21
-115.8873075183059
 31
0.0
  0
LINE
  5
2C7
330
5C
100
AcDbEntity
  8
0
  6
Continuous
 62
     7
100
AcDbLine
 10
-227.4886746182756
 20
-125.1500008224112
 30
0.0
 11
-228.5499994836808
 21
-122.1241781871851
 31
0.0
  0
ENDBLK
  5
5E
330
5C
100
AcDbEntity
  8
0
100
AcDbBlockEnd
  0
BLOCK
  5
61
330
5F
100
AcDbEntity
  8
0
100
AcDbBlockBegin
  2
SA_Links1
 70
     0
 10
-221.99999977931
 20
-125.000000000195
 30
0.0
  3
SA_Links1
  1

  0
INSERT
  5
60
330
5F
100
AcDbEntity
  8
0
100
AcDbBlockReference
  2
URELG_2-select__4
 10
-229.2499994836808
 20
-147.9500008224112
 30
0.0
  0
MTEXT
  5
2C8
330
5F
100
AcDbEntity
  8
1
 62
     6
100
AcDbMText
 10
-221.99999977931
 20
-152.9500007631344
 30
0.0
 40
5.0
 41
0.0
 71
     2
 72
     1
  1
 
  7
CONVERTER_11
 73
     1
 44
1.32052821128451
  0
ENDBLK
  5
62
330
5F
100
AcDbEntity
  8
0
100
AcDbBlockEnd
  0
BLOCK
  5
64
330
63
100
AcDbEntity
  8
0
100
AcDbBlockBegin
  2
URELG_2-select__5
 70
     0
 10
-355.2500075971637
 20
-147.9500008224112
 30
0.0
  3
URELG_2-select__5
  1

  0
LINE
  5
2C9
330
63
100
AcDbEntity
  8
0
  6
Continuous
 62
     7
100
AcDbLine
 10
-352.3500075971638
 20
-125.1177137864611
 30
0.0
 11
-352.3500075971638
 21
-115.8873075183058
 31
0.0
  0
LINE
  5
2CA
330
63
100
AcDbEntity
  8
0
  6
Continuous
 62
     7
100
AcDbLine
 10
-347.6000075971638
 20
-115.8873075183058
 30
0.0
 11
-347.6000075971638
 21
-122.124178187185
 31
0.0
  0
LINE
  5
2CB
330
63
100
AcDbEntity
  8
0
  6
Continuous
 62
     7
100
AcDbLine
 10
-352.3386827317586
 20
-125.1500008224112
 30
0.0
 11
-352.3500075971638
 21
-125.1177137864611
 31
0.0
  0
LINE
  5
2CC
330
63
100
AcDbEntity
  8
0
  6
Continuous
 62
     7
100
AcDbLine
 10
-355.2500075971637
 20
-112.2500008224112
 30
0.0
 11
-355.2500075971637
 21
-115.8873075183058
 31
0.0
  0
LINE
  5
2CD
330
63
100
AcDbEntity
  8
0
  6
Continuous
 62
     7
100
AcDbLine
 10
-340.7500075971637
 20
-115.8873075183059
 30
0.0
 11
-340.7500075971637
 21
-112.2500008224112
 31
0.0
  0
LINE
  5
2CE
330
63
100
AcDbEntity
  8
0
  6
Continuous
 62
     7
100
AcDbLine
 10
-341.4500075971638
 20
-115.8873075183058
 30
0.0
 11
-340.7500075971637
 21
-115.8873075183059
 31
0.0
  0
LINE
  5
2CF
330
63
100
AcDbEntity
  8
0
  6
Continuous
 62
     7
100
AcDbLine
 10
-347.6000075971638
 20
-115.8873075183058
 30
0.0
 11
-346.2000075971638
 21
-115.8873075183058
 31
0.0
  0
LINE
  5
2D0
330
63
100
AcDbEntity
  8
0
  6
Continuous
 62
     7
100
AcDbLine
 10
-355.2500075971637
 20
-115.8873075183058
 30
0.0
 11
-352.3500075971638
 21
-115.8873075183058
 31
0.0
  0
LINE
  5
2D1
330
63
100
AcDbEntity
  8
0
  6
Continuous
 62
     7
100
AcDbLine
 10
-346.2000075971638
 20
-115.8873075183058
 30
0.0
 11
-341.4500075971638
 21
-115.8873075183058
 31
0.0
  0
LINE
  5
2D2
330
63
100
AcDbEntity
  8
0
  6
Continuous
 62
     7
100
AcDbLine
 10
-347.6000075971638
 20
-115.8873075183058
 30
0.0
 11
-352.3500075971638
 21
-115.8873075183058
 31
0.0
  0
LINE
  5
2D3
330
63
100
AcDbEntity
  8
0
  6
Continuous
 62
     7
100
AcDbLine
 10
-355.2500075971637
 20
-112.2500008224112
 30
0.0
 11
-340.7500075971637
 21
-112.2500008224112
 31
0.0
  0
LINE
  5
2D4
330
63
100
AcDbEntity
  8
0
  6
Continuous
 62
     7
100
AcDbLine
 10
-341.4500075971638
 20
-115.8873075183058
 30
0.0
 11
-341.4500075971638
 21
-122.124178187185
 31
0.0
  0
LINE
  5
2D5
330
63
100
AcDbEntity
  8
0
  6
Continuous
 62
     7
100
AcDbLine
 10
-346.2000075971638
 20
-128.7229082920288
 30
0.0
 11
-346.2000075971638
 21
-125.1177137864611
 31
0.0
  0
LINE
  5
2D6
330
63
100
AcDbEntity
  8
0
  6
Continuous
 62
     7
100
AcDbLine
 10
-346.2000075971638
 20
-131.9736124475449
 30
0.0
 11
-346.2000075971638
 21
-128.7229082920288
 31
0.0
  0
LINE
  5
2D7
330
63
100
AcDbEntity
  8
0
  6
Continuous
 62
     7
100
AcDbLine
 10
-346.2000075971638
 20
-125.1177137864611
 30
0.0
 11
-346.2000075971638
 21
-115.8873075183058
 31
0.0
  0
LINE
  5
2D8
330
63
100
AcDbEntity
  8
0
  6
Continuous
 62
     7
100
AcDbLine
 10
-346.1886827317586
 20
-125.1500008224112
 30
0.0
 11
-346.2000075971638
 21
-125.1177137864611
 31
0.0
  0
LINE
  5
2D9
330
63
100
AcDbEntity
  8
0
  6
Continuous
 62
     7
100
AcDbLine
 10
-341.4500075971638
 20
-122.124178187185
 30
0.0
 11
-341.4500075971638
 21
-129.7729082920287
 31
0.0
  0
LINE
  5
2DA
330
63
100
AcDbEntity
  8
0
  6
Continuous
 62
     7
100
AcDbLine
 10
-340.7500075971637
 20
-131.9736124475449
 30
0.0
 11
-340.7500075971637
 21
-115.8873075183059
 31
0.0
  0
LINE
  5
2DB
330
63
100
AcDbEntity
  8
0
  6
Continuous
 62
     7
100
AcDbLine
 10
-340.7500075971637
 20
-146.5500008224112
 30
0.0
 11
-353.0500075971638
 21
-146.5500008224112
 31
0.0
  0
LINE
  5
2DC
330
63
100
AcDbEntity
  8
0
  6
Continuous
 62
     7
100
AcDbLine
 10
-340.7500075971637
 20
-146.6750008224112
 30
0.0
 11
-353.0500075971638
 21
-146.6750008224112
 31
0.0
  0
LINE
  5
2DD
330
63
100
AcDbEntity
  8
0
  6
Continuous
 62
     7
100
AcDbLine
 10
-340.7500075971637
 20
-145.0500008224112
 30
0.0
 11
-353.0500075971638
 21
-145.0500008224112
 31
0.0
  0
LINE
  5
2DE
330
63
100
AcDbEntity
  8
0
  6
Continuous
 62
     7
100
AcDbLine
 10
-340.7500075971637
 20
-144.5500008224112
 30
0.0
 11
-353.0500075971638
 21
-144.5500008224112
 31
0.0
  0
LINE
  5
2DF
330
63
100
AcDbEntity
  8
0
  6
Continuous
 62
     7
100
AcDbLine
 10
-353.0500075971638
 20
-144.5500008224112
 30
0.0
 11
-353.0500075971638
 21
-144.4500008224112
 31
0.0
  0
LINE
  5
2E0
330
63
100
AcDbEntity
  8
0
  6
Continuous
 62
     7
100
AcDbLine
 10
-353.0500075971638
 20
-145.0500008224112
 30
0.0
 11
-353.0500075971638
 21
-144.5500008224112
 31
0.0
  0
LINE
  5
2E1
330
63
100
AcDbEntity
  8
0
  6
Continuous
 62
     7
100
AcDbLine
 10
-353.0500075971638
 20
-146.5500008224112
 30
0.0
 11
-353.0500075971638
 21
-145.0500008224112
 31
0.0
  0
LINE
  5
2E2
330
63
100
AcDbEntity
  8
0
  6
Continuous
 62
     7
100
AcDbLine
 10
-353.0500075971638
 20
-146.6750008224112
 30
0.0
 11
-353.0500075971638
 21
-146.5500008224112
 31
0.0
  0
LINE
  5
2E3
330
63
100
AcDbEntity
  8
0
  6
Continuous
 62
     7
100
AcDbLine
 10
-353.0500075971638
 20
-147.9500008224112
 30
0.0
 11
-353.0500075971638
 21
-146.6750008224112
 31
0.0
  0
LINE
  5
2E4
330
63
100
AcDbEntity
  8
0
  6
Continuous
 62
     7
100
AcDbLine
 10
-353.0500075971638
 20
-137.9500008224112
 30
0.0
 11
-353.0500075971638
 21
-133.8500008224112
 31
0.0
  0
LINE
  5
2E5
330
63
100
AcDbEntity
  8
0
  6
Continuous
 62
     7
100
AcDbLine
 10
-353.0500075971638
 20
-144.4500008224112
 30
0.0
 11
-353.0500075971638
 21
-137.9500008224112
 31
0.0
  0
LINE
  5
2E6
330
63
100
AcDbEntity
  8
0
  6
Continuous
 62
     7
100
AcDbLine
 10
-353.0500075971638
 20
-133.8500008224112
 30
0.0
 11
-340.7500075971637
 21
-133.8500008224112
 31
0.0
  0
LINE
  5
2E7
330
63
100
AcDbEntity
  8
0
  6
Continuous
 62
     7
100
AcDbLine
 10
-340.7500075971637
 20
-144.4500008224112
 30
0.0
 11
-340.7500075971637
 21
-133.8500008224112
 31
0.0
  0
LINE
  5
2E8
330
63
100
AcDbEntity
  8
0
  6
Continuous
 62
     7
100
AcDbLine
 10
-346.2000075971638
 20
-131.9736124475449
 30
0.0
 11
-347.6000075971638
 21
-131.9736124475449
 31
0.0
  0
LINE
  5
2E9
330
63
100
AcDbEntity
  8
0
  6
Continuous
 62
     7
100
AcDbLine
 10
-353.0500075971638
 20
-144.4500008224112
 30
0.0
 11
-340.7500075971637
 21
-144.4500008224112
 31
0.0
  0
LINE
  5
2EA
330
63
100
AcDbEntity
  8
0
  6
Continuous
 62
     7
100
AcDbLine
 10
-353.0500075971638
 20
-147.9500008224112
 30
0.0
 11
-340.7500075971637
 21
-147.9500008224112
 31
0.0
  0
LINE
  5
2EB
330
63
100
AcDbEntity
  8
0
  6
Continuous
 62
     7
100
AcDbLine
 10
-340.7500075971637
 20
-146.6750008224112
 30
0.0
 11
-340.7500075971637
 21
-146.5500008224112
 31
0.0
  0
LINE
  5
2EC
330
63
100
AcDbEntity
  8
0
  6
Continuous
 62
     7
100
AcDbLine
 10
-340.7500075971637
 20
-147.9500008224112
 30
0.0
 11
-340.7500075971637
 21
-146.6750008224112
 31
0.0
  0
LINE
  5
2ED
330
63
100
AcDbEntity
  8
0
  6
Continuous
 62
     7
100
AcDbLine
 10
-340.7500075971637
 20
-145.0500008224112
 30
0.0
 11
-340.7500075971637
 21
-144.5500008224112
 31
0.0
  0
LINE
  5
2EE
330
63
100
AcDbEntity
  8
0
  6
Continuous
 62
     7
100
AcDbLine
 10
-340.7500075971637
 20
-144.5500008224112
 30
0.0
 11
-340.7500075971637
 21
-144.4500008224112
 31
0.0
  0
LINE
  5
2EF
330
63
100
AcDbEntity
  8
0
  6
Continuous
 62
     7
100
AcDbLine
 10
-340.7500075971637
 20
-146.5500008224112
 30
0.0
 11
-340.7500075971637
 21
-145.0500008224112
 31
0.0
  0
LINE
  5
2F0
330
63
100
AcDbEntity
  8
0
  6
Continuous
 62
     7
100
AcDbLine
 10
-348.7229150667814
 20
-128.6500008224112
 30
0.0
 11
-347.6000075971638
 21
-129.7729082920287
 31
0.0
  0
LINE
  5
2F1
330
63
100
AcDbEntity
  8
0
  6
Continuous
 62
     7
100
AcDbLine
 10
-355.2500075971637
 20
-102.0500008224112
 30
0.0
 11
-355.2500075971637
 21
-110.2000008224112
 31
0.0
  0
LINE
  5
2F2
330
63
100
AcDbEntity
  8
0
  6
Continuous
 62
     7
100
AcDbLine
 10
-340.7500075971637
 20
-105.779009713316
 30
0.0
 11
-340.7500075971637
 21
-103.6311092432651
 31
0.0
  0
LINE
  5
2F3
330
63
100
AcDbEntity
  8
0
  6
Continuous
 62
     7
100
AcDbLine
 10
-353.0500075971638
 20
-103.6311092432651
 30
0.0
 11
-353.0500075971638
 21
-105.779009713316
 31
0.0
  0
LINE
  5
2F4
330
63
100
AcDbEntity
  8
0
  6
Continuous
 62
     7
100
AcDbLine
 10
-353.0500075971638
 20
-106.1606074241291
 30
0.0
 11
-353.0500075971638
 21
-108.6688347199005
 31
0.0
  0
LINE
  5
2F5
330
63
100
AcDbEntity
  8
0
  6
Continuous
 62
     7
100
AcDbLine
 10
-340.7500075971637
 20
-103.6311092432651
 30
0.0
 11
-340.7500075971637
 21
-102.0500008224112
 31
0.0
  0
LINE
  5
2F6
330
63
100
AcDbEntity
  8
0
  6
Continuous
 62
     7
100
AcDbLine
 10
-353.0500075971638
 20
-105.779009713316
 30
0.0
 11
-353.0500075971638
 21
-106.1606074241291
 31
0.0
  0
LINE
  5
2F7
330
63
100
AcDbEntity
  8
0
  6
Continuous
 62
     7
100
AcDbLine
 10
-340.7500075971637
 20
-103.6311092432651
 30
0.0
 11
-353.0500075971638
 21
-103.6311092432651
 31
0.0
  0
LINE
  5
2F8
330
63
100
AcDbEntity
  8
0
  6
Continuous
 62
     7
100
AcDbLine
 10
-353.0500075971638
 20
-108.6688347199005
 30
0.0
 11
-340.7500075971637
 21
-108.6688347199005
 31
0.0
  0
LINE
  5
2F9
330
63
100
AcDbEntity
  8
0
  6
Continuous
 62
     7
100
AcDbLine
 10
-340.7500075971637
 20
-106.160607424129
 30
0.0
 11
-340.7500075971637
 21
-105.779009713316
 31
0.0
  0
LINE
  5
2FA
330
63
100
AcDbEntity
  8
0
  6
Continuous
 62
     7
100
AcDbLine
 10
-340.7500075971637
 20
-110.2000008224112
 30
0.0
 11
-340.7500075971637
 21
-108.6688347199005
 31
0.0
  0
LINE
  5
2FB
330
63
100
AcDbEntity
  8
0
  6
Continuous
 62
     7
100
AcDbLine
 10
-340.7500075971637
 20
-108.6688347199005
 30
0.0
 11
-340.7500075971637
 21
-106.160607424129
 31
0.0
  0
LINE
  5
2FC
330
63
100
AcDbEntity
  8
0
  6
Continuous
 62
     7
100
AcDbLine
 10
-353.0500075971638
 20
-106.1606074241291
 30
0.0
 11
-340.7500075971637
 21
-106.160607424129
 31
0.0
  0
LINE
  5
2FD
330
63
100
AcDbEntity
  8
0
  6
Continuous
 62
     7
100
AcDbLine
 10
-353.0500075971638
 20
-105.779009713316
 30
0.0
 11
-340.7500075971637
 21
-105.779009713316
 31
0.0
  0
LINE
  5
2FE
330
63
100
AcDbEntity
  8
0
  6
Continuous
 62
     7
100
AcDbLine
 10
-355.2500075971637
 20
-102.0500008224112
 30
0.0
 11
-340.7500075971637
 21
-102.0500008224112
 31
0.0
  0
LINE
  5
2FF
330
63
100
AcDbEntity
  8
0
  6
Continuous
 62
     7
100
AcDbLine
 10
-353.0500075971638
 20
-137.9500008224112
 30
0.0
 11
-355.2500075971637
 21
-137.9500008224112
 31
0.0
  0
LINE
  5
300
330
63
100
AcDbEntity
  8
0
  6
Continuous
 62
     7
100
AcDbLine
 10
-355.2500075971637
 20
-132.2500008224112
 30
0.0
 11
-355.2500075971637
 21
-132.7118810377629
 31
0.0
  0
LINE
  5
301
330
63
100
AcDbEntity
  8
0
  6
Continuous
 62
     7
100
AcDbLine
 10
-353.0500075971638
 20
-132.2500008224112
 30
0.0
 11
-355.2500075971637
 21
-132.2500008224112
 31
0.0
  0
LINE
  5
302
330
63
100
AcDbEntity
  8
0
  6
Continuous
 62
     7
100
AcDbLine
 10
-353.0500075971638
 20
-132.7118810377629
 30
0.0
 11
-355.2500075971637
 21
-132.7118810377629
 31
0.0
  0
LINE
  5
303
330
63
100
AcDbEntity
  8
0
  6
Continuous
 62
     7
100
AcDbLine
 10
-355.2500075971637
 20
-137.9500008224112
 30
0.0
 11
-355.2500075971637
 21
-132.7118810377629
 31
0.0
  0
LINE
  5
304
330
63
100
AcDbEntity
  8
0
  6
Continuous
 62
     7
100
AcDbLine
 10
-355.2500075971637
 20
-132.2500008224112
 30
0.0
 11
-355.2500075971637
 21
-115.8873075183058
 31
0.0
  0
LINE
  5
305
330
63
100
AcDbEntity
  8
0
  6
Continuous
 62
     7
100
AcDbLine
 10
-342.8000075971638
 20
-128.6500008224112
 30
0.0
 11
-342.5729150667813
 21
-128.6500008224112
 31
0.0
  0
LINE
  5
306
330
63
100
AcDbEntity
  8
0
  6
Continuous
 62
     7
100
AcDbLine
 10
-346.1271001275462
 20
-128.6500008224112
 30
0.0
 11
-345.9000075971638
 21
-128.6500008224112
 31
0.0
  0
LINE
  5
307
330
63
100
AcDbEntity
  8
0
  6
Continuous
 62
     7
100
AcDbLine
 10
-348.9500075971638
 20
-128.6500008224112
 30
0.0
 11
-348.7229150667814
 21
-128.6500008224112
 31
0.0
  0
LINE
  5
308
330
63
100
AcDbEntity
  8
0
  6
Continuous
 62
     7
100
AcDbLine
 10
-345.9000075971638
 20
-128.6500008224112
 30
0.0
 11
-342.8000075971638
 21
-128.6500008224112
 31
0.0
  0
LINE
  5
309
330
63
100
AcDbEntity
  8
0
  6
Continuous
 62
     7
100
AcDbLine
 10
-342.8000075971638
 20
-125.1500008224111
 30
0.0
 11
-345.9000075971638
 21
-125.1500008224112
 31
0.0
  0
LINE
  5
30A
330
63
100
AcDbEntity
  8
0
  6
Continuous
 62
     7
100
AcDbLine
 10
-340.7500075971637
 20
-133.8500008224112
 30
0.0
 11
-340.7500075971637
 21
-131.9736124475449
 31
0.0
  0
LINE
  5
30B
330
63
100
AcDbEntity
  8
0
  6
Continuous
 62
     7
100
AcDbLine
 10
-353.0500075971638
 20
-131.9736124475449
 30
0.0
 11
-353.0500075971638
 21
-132.2500008224112
 31
0.0
  0
LINE
  5
30C
330
63
100
AcDbEntity
  8
0
  6
Continuous
 62
     7
100
AcDbLine
 10
-352.3500075971638
 20
-131.9736124475449
 30
0.0
 11
-352.3500075971638
 21
-128.7229082920288
 31
0.0
  0
LINE
  5
30D
330
63
100
AcDbEntity
  8
0
  6
Continuous
 62
     7
100
AcDbLine
 10
-353.0500075971638
 20
-132.2500008224112
 30
0.0
 11
-353.0500075971638
 21
-132.7118810377629
 31
0.0
  0
LINE
  5
30E
330
63
100
AcDbEntity
  8
0
  6
Continuous
 62
     7
100
AcDbLine
 10
-353.0500075971638
 20
-132.7118810377629
 30
0.0
 11
-353.0500075971638
 21
-133.8500008224112
 31
0.0
  0
LINE
  5
30F
330
63
100
AcDbEntity
  8
0
  6
Continuous
 62
     7
100
AcDbLine
 10
-352.2771001275463
 20
-128.6500008224112
 30
0.0
 11
-352.0500075971638
 21
-128.6500008224112
 31
0.0
  0
LINE
  5
310
330
63
100
AcDbEntity
  8
0
  6
Continuous
 62
     7
100
AcDbLine
 10
-352.0500075971638
 20
-128.6500008224112
 30
0.0
 11
-348.9500075971638
 21
-128.6500008224112
 31
0.0
  0
LINE
  5
311
330
63
100
AcDbEntity
  8
0
  6
Continuous
 62
     7
100
AcDbLine
 10
-352.3500075971638
 20
-128.7229082920288
 30
0.0
 11
-352.2771001275463
 21
-128.6500008224112
 31
0.0
  0
LINE
  5
312
330
63
100
AcDbEntity
  8
0
  6
Continuous
 62
     7
100
AcDbLine
 10
-346.2000075971638
 20
-128.7229082920288
 30
0.0
 11
-346.1271001275462
 21
-128.6500008224112
 31
0.0
  0
LINE
  5
313
330
63
100
AcDbEntity
  8
0
  6
Continuous
 62
     7
100
AcDbLine
 10
-345.9000075971638
 20
-125.1500008224112
 30
0.0
 11
-346.1886827317586
 21
-125.1500008224112
 31
0.0
  0
LINE
  5
314
330
63
100
AcDbEntity
  8
0
  6
Continuous
 62
     7
100
AcDbLine
 10
-348.9500075971638
 20
-128.6500008224112
 30
0.0
 11
-348.9500075971638
 21
-125.1500008224111
 31
0.0
  0
LINE
  5
315
330
63
100
AcDbEntity
  8
0
  6
Continuous
 62
     7
100
AcDbLine
 10
-348.6613324625689
 20
-125.1500008224111
 30
0.0
 11
-348.9500075971638
 21
-125.1500008224111
 31
0.0
  0
LINE
  5
316
330
63
100
AcDbEntity
  8
0
  6
Continuous
 62
     7
100
AcDbLine
 10
-348.9500075971638
 20
-125.1500008224111
 30
0.0
 11
-352.0500075971638
 21
-125.1500008224112
 31
0.0
  0
LINE
  5
317
330
63
100
AcDbEntity
  8
0
  6
Continuous
 62
     7
100
AcDbLine
 10
-345.9000075971638
 20
-128.6500008224112
 30
0.0
 11
-345.9000075971638
 21
-125.1500008224112
 31
0.0
  0
LINE
  5
318
330
63
100
AcDbEntity
  8
0
  6
Continuous
 62
     7
100
AcDbLine
 10
-342.5113324625689
 20
-125.1500008224111
 30
0.0
 11
-342.8000075971638
 21
-125.1500008224111
 31
0.0
  0
LINE
  5
319
330
63
100
AcDbEntity
  8
0
  6
Continuous
 62
     7
100
AcDbLine
 10
-340.7500075971637
 20
-131.9736124475449
 30
0.0
 11
-341.4500075971638
 21
-131.9736124475449
 31
0.0
  0
LINE
  5
31A
330
63
100
AcDbEntity
  8
0
  6
Continuous
 62
     7
100
AcDbLine
 10
-341.4500075971638
 20
-129.7729082920287
 30
0.0
 11
-341.4500075971638
 21
-131.9736124475449
 31
0.0
  0
LINE
  5
31B
330
63
100
AcDbEntity
  8
0
  6
Continuous
 62
     7
100
AcDbLine
 10
-342.8000075971638
 20
-128.6500008224112
 30
0.0
 11
-342.8000075971638
 21
-125.1500008224111
 31
0.0
  0
LINE
  5
31C
330
63
100
AcDbEntity
  8
0
  6
Continuous
 62
     7
100
AcDbLine
 10
-352.0500075971638
 20
-125.1500008224112
 30
0.0
 11
-352.3386827317586
 21
-125.1500008224112
 31
0.0
  0
LINE
  5
31D
330
63
100
AcDbEntity
  8
0
  6
Continuous
 62
     7
100
AcDbLine
 10
-353.0500075971638
 20
-131.9736124475449
 30
0.0
 11
-352.3500075971638
 21
-131.9736124475449
 31
0.0
  0
LINE
  5
31E
330
63
100
AcDbEntity
  8
0
  6
Continuous
 62
     7
100
AcDbLine
 10
-352.0500075971638
 20
-128.6500008224112
 30
0.0
 11
-352.0500075971638
 21
-125.1500008224112
 31
0.0
  0
LINE
  5
31F
330
63
100
AcDbEntity
  8
0
  6
Continuous
 62
     7
100
AcDbLine
 10
-342.5729150667813
 20
-128.6500008224112
 30
0.0
 11
-341.4500075971638
 21
-129.7729082920287
 31
0.0
  0
LINE
  5
320
330
63
100
AcDbEntity
  8
0
  6
Continuous
 62
     7
100
AcDbLine
 10
-347.6000075971638
 20
-129.7729082920287
 30
0.0
 11
-347.6000075971638
 21
-131.9736124475449
 31
0.0
  0
LINE
  5
321
330
63
100
AcDbEntity
  8
0
  6
Continuous
 62
     7
100
AcDbLine
 10
-347.6000075971638
 20
-122.124178187185
 30
0.0
 11
-347.6000075971638
 21
-129.7729082920287
 31
0.0
  0
LINE
  5
322
330
63
100
AcDbEntity
  8
0
  6
Continuous
 62
     7
100
AcDbLine
 10
-352.3500075971638
 20
-128.7229082920288
 30
0.0
 11
-352.3500075971638
 21
-125.1177137864611
 31
0.0
  0
LINE
  5
323
330
63
100
AcDbEntity
  8
0
  6
Continuous
 62
     7
100
AcDbLine
 10
-347.6000075971638
 20
-122.124178187185
 30
0.0
 11
-348.6613324625689
 21
-125.1500008224111
 31
0.0
  0
LINE
  5
324
330
63
100
AcDbEntity
  8
0
  6
Continuous
 62
     7
100
AcDbLine
 10
-355.2500075971637
 20
-111.9418592511154
 30
0.0
 11
-355.2500075971637
 21
-112.2500008224112
 31
0.0
  0
LINE
  5
325
330
63
100
AcDbEntity
  8
0
  6
Continuous
 62
     7
100
AcDbLine
 10
-340.7500075971637
 20
-111.9418592511154
 30
0.0
 11
-340.7500075971637
 21
-110.2000008224112
 31
0.0
  0
LINE
  5
326
330
63
100
AcDbEntity
  8
0
  6
Continuous
 62
     7
100
AcDbLine
 10
-340.7500075971637
 20
-112.2500008224112
 30
0.0
 11
-340.7500075971637
 21
-111.9418592511154
 31
0.0
  0
LINE
  5
327
330
63
100
AcDbEntity
  8
0
  6
Continuous
 62
     7
100
AcDbLine
 10
-355.2500075971637
 20
-110.2000008224112
 30
0.0
 11
-340.7500075971637
 21
-110.2000008224112
 31
0.0
  0
LINE
  5
328
330
63
100
AcDbEntity
  8
0
  6
Continuous
 62
     7
100
AcDbLine
 10
-355.2500075971637
 20
-111.9418592511154
 30
0.0
 11
-340.7500075971637
 21
-111.9418592511154
 31
0.0
  0
LINE
  5
329
330
63
100
AcDbEntity
  8
0
  6
Continuous
 62
     7
100
AcDbLine
 10
-355.2500075971637
 20
-110.2000008224112
 30
0.0
 11
-355.2500075971637
 21
-111.9418592511154
 31
0.0
  0
LINE
  5
32A
330
63
100
AcDbEntity
  8
0
  6
Continuous
 62
     7
100
AcDbLine
 10
-341.4500075971638
 20
-122.124178187185
 30
0.0
 11
-342.5113324625689
 21
-125.1500008224111
 31
0.0
  0
ENDBLK
  5
65
330
63
100
AcDbEntity
  8
0
100
AcDbBlockEnd
  0
BLOCK
  5
68
330
66
100
AcDbEntity
  8
0
100
AcDbBlockBegin
  2
SA_Rechts1
 70
     0
 10
-348.0000073015347
 20
-125.000000000195
 30
0.0
  3
SA_Rechts1
  1

  0
INSERT
  5
67
330
66
100
AcDbEntity
  8
0
100
AcDbBlockReference
  2
URELG_2-select__5
 10
-355.2500075971637
 20
-147.9500008224112
 30
0.0
  0
MTEXT
  5
32B
330
66
100
AcDbEntity
  8
1
 62
     6
100
AcDbMText
 10
-348.0000073015347
 20
-152.9500007631345
 30
0.0
 40
5.0
 41
0.0
 71
     2
 72
     1
  1
 
  7
CONVERTER_11
 73
     1
 44
1.32052821128451
  0
ENDBLK
  5
69
330
66
100
AcDbEntity
  8
0
100
AcDbBlockEnd
  0
BLOCK
  5
6B
330
6A
100
AcDbEntity
  8
0
100
AcDbBlockBegin
  2
URELG_2-select__6
 70
     0
 10
-291.7500045090477
 20
-147.9500008224112
 30
0.0
  3
URELG_2-select__6
  1

  0
LINE
  5
32C
330
6A
100
AcDbEntity
  8
0
  6
Continuous
 62
     7
100
AcDbLine
 10
-291.7500045090476
 20
-111.9418592511154
 30
0.0
 11
-291.7500045090476
 21
-110.2000008224112
 31
0.0
  0
LINE
  5
32D
330
6A
100
AcDbEntity
  8
0
  6
Continuous
 62
     7
100
AcDbLine
 10
-288.5000045090477
 20
-115.8873075183058
 30
0.0
 11
-290.6000045090477
 21
-112.2500008224112
 31
0.0
  0
LINE
  5
32E
330
6A
100
AcDbEntity
  8
0
  6
Continuous
 62
     7
100
AcDbLine
 10
-283.6000045090477
 20
-102.0500008224112
 30
0.0
 11
-282.9055565646771
 21
-102.0500008224112
 31
0.0
  0
LINE
  5
32F
330
6A
100
AcDbEntity
  8
0
  6
Continuous
 62
     7
100
AcDbLine
 10
-282.5000045090476
 20
-104.3500008224112
 30
0.0
 11
-282.9055565646771
 21
-102.0500008224112
 31
0.0
  0
LINE
  5
330
330
6A
100
AcDbEntity
  8
0
  6
Continuous
 62
     7
100
AcDbLine
 10
-289.3000045090477
 20
-132.7118810377629
 30
0.0
 11
-288.5000045090477
 21
-132.2500008224112
 31
0.0
  0
LINE
  5
331
330
6A
100
AcDbEntity
  8
0
  6
Continuous
 62
     7
100
AcDbLine
 10
-252.5000045090477
 20
-131.9736124475449
 30
0.0
 11
-249.2500045090477
 21
-133.8500008224112
 31
0.0
  0
LINE
  5
332
330
6A
100
AcDbEntity
  8
0
  6
Continuous
 62
     7
100
AcDbLine
 10
-291.7500045090476
 20
-133.7884182181988
 30
0.0
 11
-288.5000045090477
 21
-131.9120298433325
 31
0.0
  0
LINE
  5
333
330
6A
100
AcDbEntity
  8
0
  6
Continuous
 62
     7
100
AcDbLine
 10
-288.3684826751732
 20
-147.9500008224112
 30
0.0
 11
-291.7500045090477
 21
-147.9500008224112
 31
0.0
  0
LINE
  5
334
330
6A
100
AcDbEntity
  8
0
  6
Continuous
 62
     7
100
AcDbLine
 10
-291.7500045090477
 20
-147.9500008224112
 30
0.0
 11
-291.7500045090477
 21
-145.4500008224112
 31
0.0
  0
LINE
  5
335
330
6A
100
AcDbEntity
  8
0
  6
Continuous
 62
     7
100
AcDbLine
 10
-291.7500045090477
 20
-135.9500008224112
 30
0.0
 11
-289.3000045090477
 21
-135.9500008224112
 31
0.0
  0
LINE
  5
336
330
6A
100
AcDbEntity
  8
0
  6
Continuous
 62
     7
100
AcDbLine
 10
-291.7500045090477
 20
-135.9500008224112
 30
0.0
 11
-291.7500045090476
 21
-133.7884182181988
 31
0.0
  0
LINE
  5
337
330
6A
100
AcDbEntity
  8
0
  6
Continuous
 62
     7
100
AcDbLine
 10
-291.0750045090477
 20
-144.9500008224112
 30
0.0
 11
-291.2500045090477
 21
-144.9500008224112
 31
0.0
  0
LINE
  5
338
330
6A
100
AcDbEntity
  8
0
  6
Continuous
 62
     7
100
AcDbLine
 10
-289.2750045090477
 20
-146.9000008224112
 30
0.0
 11
-290.7000045090477
 21
-146.9000008224112
 31
0.0
  0
LINE
  5
339
330
6A
100
AcDbEntity
  8
0
  6
Continuous
 62
     7
100
AcDbLine
 10
-290.7000045090477
 20
-146.9000008224112
 30
0.0
 11
-290.7000045090477
 21
-146.2845461203248
 31
0.0
  0
LINE
  5
33A
330
6A
100
AcDbEntity
  8
0
  6
Continuous
 62
     7
100
AcDbLine
 10
-288.5000045090477
 20
-131.9120298433325
 30
0.0
 11
-288.5000045090477
 21
-115.8873075183058
 31
0.0
  0
LINE
  5
33B
330
6A
100
AcDbEntity
  8
0
  6
Continuous
 62
     7
100
AcDbLine
 10
-289.7750045090477
 20
-144.0210589061668
 30
0.0
 11
-291.5000045090477
 21
-145.016988120519
 31
0.0
  0
LINE
  5
33C
330
6A
100
AcDbEntity
  8
0
  6
Continuous
 62
     7
100
AcDbLine
 10
-251.7000045090477
 20
-137.9500008224112
 30
0.0
 11
-251.7000045090476
 21
-132.7118810377629
 31
0.0
  0
LINE
  5
33D
330
6A
100
AcDbEntity
  8
0
  6
Continuous
 62
     7
100
AcDbLine
 10
-249.2500045090477
 20
-110.2000008224112
 30
0.0
 11
-249.2500045090477
 21
-111.9418592511154
 31
0.0
  0
LINE
  5
33E
330
6A
100
AcDbEntity
  8
0
  6
Continuous
 62
     7
100
AcDbLine
 10
-253.0000045090477
 20
-142.8500008224112
 30
0.0
 11
-253.0000045090477
 21
-141.6500008224112
 31
0.0
  0
LINE
  5
33F
330
6A
100
AcDbEntity
  8
0
  6
Continuous
 62
     7
100
AcDbLine
 10
-253.0000045090477
 20
-142.8500008224112
 30
0.0
 11
-253.8000045090477
 21
-143.0500008224111
 31
0.0
  0
LINE
  5
340
330
6A
100
AcDbEntity
  8
0
  6
Continuous
 62
     7
100
AcDbLine
 10
-253.8000045090477
 20
-143.0500008224111
 30
0.0
 11
-253.8000045090477
 21
-143.5000008224111
 31
0.0
  0
LINE
  5
341
330
6A
100
AcDbEntity
  8
0
  6
Continuous
 62
     7
100
AcDbLine
 10
-252.8500045090476
 20
-144.4500008224111
 30
0.0
 11
-253.8000045090477
 21
-143.5000008224111
 31
0.0
  0
LINE
  5
342
330
6A
100
AcDbEntity
  8
0
  6
Continuous
 62
     7
100
AcDbLine
 10
-252.8500045090476
 20
-144.4500008224111
 30
0.0
 11
-249.2500045090477
 21
-144.4500008224112
 31
0.0
  0
LINE
  5
343
330
6A
100
AcDbEntity
  8
0
  6
Continuous
 62
     7
100
AcDbLine
 10
-249.2500045090477
 20
-144.4500008224112
 30
0.0
 11
-249.2500045090477
 21
-133.8500008224112
 31
0.0
  0
LINE
  5
344
330
6A
100
AcDbEntity
  8
0
  6
Continuous
 62
     7
100
AcDbLine
 10
-258.0944524534182
 20
-102.0500008224112
 30
0.0
 11
-257.4000045090477
 21
-102.0500008224112
 31
0.0
  0
LINE
  5
345
330
6A
100
AcDbEntity
  8
0
  6
Continuous
 62
     7
100
AcDbLine
 10
-252.5000045090477
 20
-132.2500008224112
 30
0.0
 11
-252.5000045090477
 21
-131.9736124475449
 31
0.0
  0
LINE
  5
346
330
6A
100
AcDbEntity
  8
0
  6
Continuous
 62
     7
100
AcDbLine
 10
-252.5000045090477
 20
-132.2500008224112
 30
0.0
 11
-251.7000045090476
 21
-132.7118810377629
 31
0.0
  0
LINE
  5
347
330
6A
100
AcDbEntity
  8
0
  6
Continuous
 62
     7
100
AcDbLine
 10
-252.5000045090477
 20
-131.9736124475449
 30
0.0
 11
-252.5000045090477
 21
-115.8873075183058
 31
0.0
  0
LINE
  5
348
330
6A
100
AcDbEntity
  8
0
  6
Continuous
 62
     7
100
AcDbLine
 10
-250.4000045090477
 20
-112.2500008224112
 30
0.0
 11
-252.5000045090477
 21
-115.8873075183058
 31
0.0
  0
LINE
  5
349
330
6A
100
AcDbEntity
  8
0
  6
Continuous
 62
     7
100
AcDbLine
 10
-258.5000045090476
 20
-104.3500008224112
 30
0.0
 11
-258.0944524534182
 21
-102.0500008224112
 31
0.0
  0
LINE
  5
34A
330
6A
100
AcDbEntity
  8
0
  6
Continuous
 62
     7
100
AcDbLine
 10
-257.4000045090477
 20
-102.0500008224112
 30
0.0
 11
-249.2500045090477
 21
-110.2000008224112
 31
0.0
  0
LINE
  5
34B
330
6A
100
AcDbEntity
  8
0
  6
Continuous
 62
     7
100
AcDbLine
 10
-288.5000045090477
 20
-132.2500008224112
 30
0.0
 11
-288.5000045090477
 21
-131.9120298433325
 31
0.0
  0
LINE
  5
34C
330
6A
100
AcDbEntity
  8
0
  6
Continuous
 62
     7
100
AcDbLine
 10
-257.5750045090476
 20
-147.9500008224112
 30
0.0
 11
-260.5250045090477
 21
-147.9500008224112
 31
0.0
  0
LINE
  5
34D
330
6A
100
AcDbEntity
  8
0
  6
Continuous
 62
     7
100
AcDbLine
 10
-289.2750045090477
 20
-146.9000008224112
 30
0.0
 11
-289.2750045090477
 21
-143.1550335023824
 31
0.0
  0
LINE
  5
34E
330
6A
100
AcDbEntity
  8
0
  6
Continuous
 62
     7
100
AcDbLine
 10
-289.2750045090477
 20
-143.1550335023824
 30
0.0
 11
-289.2750045090476
 21
-137.9500008224112
 31
0.0
  0
LINE
  5
34F
330
6A
100
AcDbEntity
  8
0
  6
Continuous
 62
     7
100
AcDbLine
 10
-260.5250045090477
 20
-147.9500008224112
 30
0.0
 11
-260.5250045090477
 21
-146.3000008224112
 31
0.0
  0
LINE
  5
350
330
6A
100
AcDbEntity
  8
0
  6
Continuous
 62
     7
100
AcDbLine
 10
-258.7250045090477
 20
-145.0500008224112
 30
0.0
 11
-258.7250045090477
 21
-146.5500008224112
 31
0.0
  0
LINE
  5
351
330
6A
100
AcDbEntity
  8
0
  6
Continuous
 62
     7
100
AcDbLine
 10
-257.5750045090476
 20
-146.6750008224112
 30
0.0
 11
-257.5750045090476
 21
-147.9500008224112
 31
0.0
  0
LINE
  5
352
330
6A
100
AcDbEntity
  8
0
  6
Continuous
 62
     7
100
AcDbLine
 10
-261.1650045090477
 20
-146.3000008224112
 30
0.0
 11
-260.5250045090477
 21
-146.3000008224112
 31
0.0
  0
LINE
  5
353
330
6A
100
AcDbEntity
  8
0
  6
Continuous
 62
     7
100
AcDbLine
 10
-257.8750045090477
 20
-145.0500008224112
 30
0.0
 11
-258.7250045090477
 21
-145.0500008224112
 31
0.0
  0
LINE
  5
354
330
6A
100
AcDbEntity
  8
0
  6
Continuous
 62
     7
100
AcDbLine
 10
-257.8750045090477
 20
-144.5500008224112
 30
0.0
 11
-257.8750045090477
 21
-145.0500008224112
 31
0.0
  0
LINE
  5
355
330
6A
100
AcDbEntity
  8
0
  6
Continuous
 62
     7
100
AcDbLine
 10
-275.9500045090477
 20
-137.9500008224112
 30
0.0
 11
-275.9500045090477
 21
-140.3000008224112
 31
0.0
  0
LINE
  5
356
330
6A
100
AcDbEntity
  8
0
  6
Continuous
 62
     7
100
AcDbLine
 10
-253.0000045090477
 20
-141.6500008224112
 30
0.0
 11
-257.0750045090476
 21
-141.6500008224112
 31
0.0
  0
LINE
  5
357
330
6A
100
AcDbEntity
  8
0
  6
Continuous
 62
     7
100
AcDbLine
 10
-259.1000045090477
 20
-139.0243829054252
 30
0.0
 11
-259.1000045090477
 21
-137.9500008224112
 31
0.0
  0
LINE
  5
358
330
6A
100
AcDbEntity
  8
0
  6
Continuous
 62
     7
100
AcDbLine
 10
-257.6000045090477
 20
-137.9500008224112
 30
0.0
 11
-257.6000045090477
 21
-139.2818788579886
 31
0.0
  0
LINE
  5
359
330
6A
100
AcDbEntity
  8
0
  6
Continuous
 62
     7
100
AcDbLine
 10
-257.6000045090477
 20
-137.9500008224112
 30
0.0
 11
-251.7000045090477
 21
-137.9500008224112
 31
0.0
  0
LINE
  5
35A
330
6A
100
AcDbEntity
  8
0
  6
Continuous
 62
     7
100
AcDbLine
 10
-277.0802603973734
 20
-137.9500008224112
 30
0.0
 11
-275.9500045090477
 21
-137.9500008224112
 31
0.0
  0
LINE
  5
35B
330
6A
100
AcDbEntity
  8
0
  6
Continuous
 62
     7
100
AcDbLine
 10
-259.1000045090477
 20
-137.9500008224112
 30
0.0
 11
-257.6000045090477
 21
-137.9500008224112
 31
0.0
  0
LINE
  5
35C
330
6A
100
AcDbEntity
  8
0
  6
Continuous
 62
     7
100
AcDbLine
 10
-257.6000045090477
 20
-139.2818788579886
 30
0.0
 11
-257.0750045090476
 21
-141.6500008224112
 31
0.0
  0
LINE
  5
35D
330
6A
100
AcDbEntity
  8
0
  6
Continuous
 62
     7
100
AcDbLine
 10
-275.9500045090477
 20
-137.9500008224112
 30
0.0
 11
-259.1000045090477
 21
-137.9500008224112
 31
0.0
  0
LINE
  5
35E
330
6A
100
AcDbEntity
  8
0
  6
Continuous
 62
     7
100
AcDbLine
 10
-258.7250045090477
 20
-146.5500008224112
 30
0.0
 11
-257.5750045090476
 21
-146.6750008224112
 31
0.0
  0
LINE
  5
35F
330
6A
100
AcDbEntity
  8
0
  6
Continuous
 62
     7
100
AcDbLine
 10
-259.1000045090477
 20
-139.0243829054252
 30
0.0
 11
-257.8750045090477
 21
-144.5500008224112
 31
0.0
  0
LINE
  5
360
330
6A
100
AcDbEntity
  8
0
  6
Continuous
 62
     7
100
AcDbLine
 10
-289.3000045090477
 20
-137.9500008224112
 30
0.0
 11
-289.2750045090476
 21
-137.9500008224112
 31
0.0
  0
LINE
  5
361
330
6A
100
AcDbEntity
  8
0
  6
Continuous
 62
     7
100
AcDbLine
 10
-289.2750045090476
 20
-137.9500008224112
 30
0.0
 11
-277.0802603973734
 21
-137.9500008224112
 31
0.0
  0
LINE
  5
362
330
6A
100
AcDbEntity
  8
0
  6
Continuous
 62
     7
100
AcDbLine
 10
-283.1750045090477
 20
-139.0500008224112
 30
0.0
 11
-283.4636796436425
 21
-138.5500008224111
 31
0.0
  0
LINE
  5
363
330
6A
100
AcDbEntity
  8
0
  6
Continuous
 62
     7
100
AcDbLine
 10
-287.8750045090476
 20
-139.3643601763561
 30
0.0
 11
-287.8750045090476
 21
-138.1527205232767
 31
0.0
  0
LINE
  5
364
330
6A
100
AcDbEntity
  8
0
  6
Continuous
 62
     7
100
AcDbLine
 10
-287.0750045090477
 20
-141.4495889203049
 30
0.0
 11
-287.0750045090477
 21
-140.7500008224112
 31
0.0
  0
LINE
  5
365
330
6A
100
AcDbEntity
  8
0
  6
Continuous
 62
     7
100
AcDbLine
 10
-288.2115968858979
 20
-141.6500008224112
 30
0.0
 11
-287.0750045090477
 21
-141.4495889203049
 31
0.0
  0
LINE
  5
366
330
6A
100
AcDbEntity
  8
0
  6
Continuous
 62
     7
100
AcDbLine
 10
-288.0000045090477
 20
-142.8500008224111
 30
0.0
 11
-288.2115968858979
 21
-141.6500008224112
 31
0.0
  0
LINE
  5
367
330
6A
100
AcDbEntity
  8
0
  6
Continuous
 62
     7
100
AcDbLine
 10
-286.9747251769394
 20
-143.0500008224112
 30
0.0
 11
-288.0000045090477
 21
-142.8500008224111
 31
0.0
  0
LINE
  5
368
330
6A
100
AcDbEntity
  8
0
  6
Continuous
 62
     7
100
AcDbLine
 10
-286.9747251769394
 20
-143.2500008224112
 30
0.0
 11
-286.9747251769394
 21
-143.0500008224112
 31
0.0
  0
LINE
  5
369
330
6A
100
AcDbEntity
  8
0
  6
Continuous
 62
     7
100
AcDbLine
 10
-283.1750045090477
 20
-139.0500008224112
 30
0.0
 11
-277.3750045090476
 21
-139.0500008224111
 31
0.0
  0
LINE
  5
36A
330
6A
100
AcDbEntity
  8
0
  6
Continuous
 62
     7
100
AcDbLine
 10
-277.3750045090476
 20
-139.0500008224111
 30
0.0
 11
-277.0802603973734
 21
-137.9500008224112
 31
0.0
  0
LINE
  5
36B
330
6A
100
AcDbEntity
  8
0
  6
Continuous
 62
     7
100
AcDbLine
 10
-289.3000045090477
 20
-135.9500008224112
 30
0.0
 11
-289.3000045090477
 21
-137.9500008224112
 31
0.0
  0
LINE
  5
36C
330
6A
100
AcDbEntity
  8
0
  6
Continuous
 62
     7
100
AcDbLine
 10
-289.3000045090477
 20
-132.7118810377629
 30
0.0
 11
-289.3000045090477
 21
-135.9500008224112
 31
0.0
  0
LINE
  5
36D
330
6A
100
AcDbEntity
  8
0
  6
Continuous
 62
     7
100
AcDbLine
 10
-287.0750045090477
 20
-140.7500008224112
 30
0.0
 11
-287.8750045090476
 21
-139.3643601763561
 31
0.0
  0
LINE
  5
36E
330
6A
100
AcDbEntity
  8
0
  6
Continuous
 62
     7
100
AcDbLine
 10
-287.8750045090476
 20
-138.1527205232767
 30
0.0
 11
-283.4636796436425
 21
-138.5500008224111
 31
0.0
  0
LINE
  5
36F
330
6A
100
AcDbEntity
  8
0
  6
Continuous
 62
     7
100
AcDbLine
 10
-290.6000045090477
 20
-112.2500008224112
 30
0.0
 11
-291.7500045090476
 21
-111.9418592511154
 31
0.0
  0
LINE
  5
370
330
6A
100
AcDbEntity
  8
0
  6
Continuous
 62
     7
100
AcDbLine
 10
-249.2500045090477
 20
-111.9418592511154
 30
0.0
 11
-250.4000045090477
 21
-112.2500008224112
 31
0.0
  0
LINE
  5
371
330
6A
100
AcDbEntity
  8
0
  6
Continuous
 62
     7
100
AcDbLine
 10
-282.5000045090476
 20
-104.3500008224112
 30
0.0
 11
-258.5000045090476
 21
-104.3500008224112
 31
0.0
  0
LINE
  5
372
330
6A
100
AcDbEntity
  8
0
  6
Continuous
 62
     7
100
AcDbLine
 10
-283.6000045090477
 20
-102.0500008224112
 30
0.0
 11
-291.7500045090476
 21
-110.2000008224112
 31
0.0
  0
ARC
  5
373
330
6A
100
AcDbEntity
  8
0
  6
Continuous
 62
     7
100
AcDbCircle
 10
-291.2500045090477
 20
-145.4500008224112
 30
0.0
 40
0.5
100
AcDbArc
 50
90.0
 51
120.0000000000006
  0
ARC
  5
374
330
6A
100
AcDbEntity
  8
0
  6
Continuous
 62
     7
100
AcDbCircle
 10
-290.5000045090477
 20
-146.2845461203248
 30
0.0
 40
0.2000000000000183
100
AcDbArc
 50
131.0823331404633
 51
180.0
  0
ARC
  5
375
330
6A
100
AcDbEntity
  8
0
  6
Continuous
 62
     7
100
AcDbCircle
 10
-291.0750045090477
 20
-145.6250008224112
 30
0.0
 40
0.6749999999999255
100
AcDbArc
 50
311.082333140451
 51
90.0
  0
ARC
  5
376
330
6A
100
AcDbEntity
  8
0
  6
Continuous
 62
     7
100
AcDbCircle
 10
-290.2750045090477
 20
-143.1550335023824
 30
0.0
 40
0.9999999999999589
100
AcDbArc
 50
300.0000000000013
 51
0.0
  0
ARC
  5
377
330
6A
100
AcDbEntity
  8
0
  6
Continuous
 62
     7
100
AcDbCircle
 10
-291.2500045090477
 20
-145.4500008224112
 30
0.0
 40
0.4999999999999918
100
AcDbArc
 50
120.0000000000006
 51
180.0
  0
ARC
  5
378
330
6A
100
AcDbEntity
  8
0
  6
Continuous
 62
     7
100
AcDbCircle
 10
-296.4711812979624
 20
-142.9905376429681
 30
0.0
 40
9.500000000000105
100
AcDbArc
 50
328.5302214160357
 51
358.434948005045
  0
ARC
  5
379
330
6A
100
AcDbEntity
  8
0
  6
Continuous
 62
     7
100
AcDbCircle
 10
-276.2500045090476
 20
-141.3000008224112
 30
0.0
 40
0.6999999999999886
100
AcDbArc
 50
90.0
 51
182.4150421413249
  0
ARC
  5
37A
330
6A
100
AcDbEntity
  8
0
  6
Continuous
 62
     7
100
AcDbCircle
 10
-276.2500045090476
 20
-140.3000008224112
 30
0.0
 40
0.3000000000000114
100
AcDbArc
 50
270.0
 51
0.0
  0
ARC
  5
37B
330
6A
100
AcDbEntity
  8
0
  6
Continuous
 62
     7
100
AcDbCircle
 10
-271.1750045090477
 20
-157.9500008224112
 30
0.0
 40
16.2
100
AcDbArc
 50
77.66476782071845
 51
100.706486968879
  0
ARC
  5
37C
330
6A
100
AcDbEntity
  8
0
  6
Continuous
 62
     7
100
AcDbCircle
 10
-269.4232290920559
 20
-149.9393027948718
 30
0.0
 40
8.000000000000016
100
AcDbArc
 50
34.32803523337618
 51
77.66476782071861
  0
ARC
  5
37D
330
6A
100
AcDbEntity
  8
0
  6
Continuous
 62
     7
100
AcDbCircle
 10
-261.1650045090477
 20
-144.3000008224112
 30
0.0
 40
1.999999999999933
100
AcDbArc
 50
214.3280352333768
 51
270.0
  0
ARC
  5
37E
330
6A
100
AcDbEntity
  8
0
  6
Continuous
 62
     7
100
AcDbCircle
 10
-273.9616724780414
 20
-143.2111242834553
 30
0.0
 40
1.200000000000014
100
AcDbArc
 50
100.7064869688785
 51
186.9237208440628
  0
ARC
  5
37F
330
6A
100
AcDbEntity
  8
0
  6
Continuous
 62
     7
100
AcDbCircle
 10
-275.5500045090477
 20
-143.4040008224112
 30
0.0
 40
0.3999999999999571
100
AcDbArc
 50
228.6834170699663
 51
6.92372084406828
  0
ARC
  5
380
330
6A
100
AcDbEntity
  8
0
  6
Continuous
 62
     7
100
AcDbCircle
 10
-273.602358234154
 20
-141.1883352366576
 30
0.0
 40
3.349999999999989
100
AcDbArc
 50
182.4150421413309
 51
228.683417069957
  0
ENDBLK
  5
6C
330
6A
100
AcDbEntity
  8
0
100
AcDbBlockEnd
  0
BLOCK
  5
6F
330
6D
100
AcDbEntity
  8
0
100
AcDbBlockBegin
  2
Vordans1
 70
     0
 10
-270.5000038324129
 20
-125.000000000195
 30
0.0
  3
Vordans1
  1

  0
INSERT
  5
6E
330
6D
100
AcDbEntity
  8
0
100
AcDbBlockReference
  2
URELG_2-select__6
 10
-291.7500045090477
 20
-147.9500008224112
 30
0.0
  0
LINE
  5
381
330
6D
100
AcDbEntity
  8
1
  6
DOT_CENTER
 62
     2
100
AcDbLine
 10
-270.5000045090477
 20
-136.455982981266
 30
0.0
 11
-270.5000045090477
 21
-139.455982981266
 31
0.0
  0
MTEXT
  5
382
330
6D
100
AcDbEntity
  8
1
 62
     6
100
AcDbMText
 10
-270.5000038324129
 20
-152.9500007631345
 30
0.0
 40
5.0
 41
0.0
 71
     2
 72
     1
  1
 
  7
CONVERTER_11
 73
     1
 44
1.32052821128451
  0
DIMENSION
  5
38D
330
6D
100
AcDbEntity
  8
1
100
AcDbDimension
  2
*D18
 10
-249.2500045090477
 20
-174.981068027847
 30
0.0
 11
-271.403470987562
 21
-171.056068027847
 31
0.0
 70
    32
  1
<>
 71
     5
 42
-1.0
 53
0.00013888888889
  3
ME10_DIM_11
100
AcDbAlignedDimension
 13
-291.7500045090476
 23
-111.9418592511154
 33
0.0
 14
-249.2500045090477
 24
-111.9418592511154
 34
0.0
100
AcDbRotatedDimension
  0
DIMENSION
  5
398
330
6D
100
AcDbEntity
  8
1
100
AcDbDimension
  2
*D19
 10
-300.206030557777
 20
-102.0500008224112
 30
0.0
 11
-303.631030557777
 21
-122.520108625309
 31
0.0
 70
    32
  1
<>
 71
     5
 42
-1.0
 53
90.0
  3
ME10_DIM_12
100
AcDbAlignedDimension
 13
-253.0000045090477
 23
-141.6500008224112
 33
0.0
 14
-282.9055565646771
 24
-102.0500008224112
 34
0.0
 50
90.0
100
AcDbRotatedDimension
  0
DIMENSION
  5
3A3
330
6D
100
AcDbEntity
  8
1
100
AcDbDimension
  2
*D20
 10
-308.206030557777
 20
-102.0500008224112
 30
0.0
 11
-311.631030557777
 21
-125.0000008224112
 31
0.0
 70
    32
  1
<>
 71
     5
 42
-1.0
 53
90.0
  3
ME10_DIM_13
100
AcDbAlignedDimension
 13
-257.5750045090476
 23
-147.9500008224112
 33
0.0
 14
-282.9055565646771
 24
-102.0500008224112
 34
0.0
 50
90.0
100
AcDbRotatedDimension
  0
DIMENSION
  5
3AE
330
6D
100
AcDbEntity
  8
1
100
AcDbDimension
  2
*D21
 10
-270.5000045090477
 20
-158.218298484808
 30
0.0
 11
-262.8166494256493
 21
-154.793298484808
 31
0.0
 70
    32
  1
<>
 71
     5
 42
-1.0
 53
0.00013888888889
  3
ME10_DIM_14
100
AcDbAlignedDimension
 13
-253.0000045090477
 23
-141.6500008224112
 33
0.0
 14
-270.5000045090477
 24
-139.455982981266
 34
0.0
100
AcDbRotatedDimension
  0
DIMENSION
  5
3B9
330
6D
100
AcDbEntity
  8
1
100
AcDbDimension
  2
*D22
 10
-270.5000045090477
 20
-166.218298484808
 30
0.0
 11
-259.8750045090477
 21
-162.793298484808
 31
0.0
 70
    32
  1
<>
 71
     5
 42
-1.0
 53
0.00013888888889
  3
ME10_DIM_15
100
AcDbAlignedDimension
 13
-249.2500045090477
 23
-111.9418592511154
 33
0.0
 14
-270.5000045090477
 24
-139.455982981266
 34
0.0
100
AcDbRotatedDimension
  0
ENDBLK
  5
70
330
6D
100
AcDbEntity
  8
0
100
AcDbBlockEnd
  0
BLOCK
  5
72
330
71
100
AcDbEntity
  8
0
100
AcDbBlockBegin
  2
_rahmen
 70
     0
 10
-94.61098443188042
 20
-272.688563924429
 30
0.0
  3
_rahmen
  1

  0
LINE
  5
3BA
330
71
100
AcDbEntity
  8
1
  6
Continuous
 62
     6
100
AcDbLine
 10
-224.1557889586304
 20
-242.1885639244289
 30
0.0
 11
-94.61098443187873
 21
-242.1885639244289
 31
0.0
  0
LINE
  5
3BB
330
71
100
AcDbEntity
  8
1
  6
Continuous
 62
     7
100
AcDbLine
 10
-205.9557889586304
 20
-263.4385639244289
 30
0.0
 11
-187.7557889586305
 21
-263.4385639244289
 31
0.0
  0
LINE
  5
3BC
330
71
100
AcDbEntity
  8
1
  6
Continuous
 62
     6
100
AcDbLine
 10
-205.9557889586304
 20
-267.6885639244289
 30
0.0
 11
-224.1557889586304
 21
-267.688563924429
 31
0.0
  0
LINE
  5
3BD
330
71
100
AcDbEntity
  8
1
  6
Continuous
 62
     7
100
AcDbLine
 10
-205.9557889586304
 20
-263.4385639244289
 30
0.0
 11
-205.9557889586304
 21
-267.6885639244289
 31
0.0
  0
LINE
  5
3BE
330
71
100
AcDbEntity
  8
1
  6
Continuous
 62
     7
100
AcDbLine
 10
-187.7557889586305
 20
-263.4385639244289
 30
0.0
 11
-187.7557889586305
 21
-267.688563924429
 31
0.0
  0
LINE
  5
3BF
330
71
100
AcDbEntity
  8
1
  6
Continuous
 62
     7
100
AcDbLine
 10
-224.1557889586304
 20
-263.438563924429
 30
0.0
 11
-224.1557889586304
 21
-267.688563924429
 31
0.0
  0
LINE
  5
3C0
330
71
100
AcDbEntity
  8
1
  6
Continuous
 62
     7
100
AcDbLine
 10
-224.1557889586304
 20
-263.438563924429
 30
0.0
 11
-205.9557889586304
 21
-263.4385639244289
 31
0.0
  0
LINE
  5
3C1
330
71
100
AcDbEntity
  8
1
  6
Continuous
 62
     2
100
AcDbLine
 10
-214.9191340720678
 20
-244.063563924429
 30
0.0
 11
-214.9191340720678
 21
-249.063563924429
 31
0.0
  0
LINE
  5
3C2
330
71
100
AcDbEntity
  8
1
  6
Continuous
 62
     2
100
AcDbLine
 10
-214.9191340720678
 20
-249.063563924429
 30
0.0
 11
-219.9191340720678
 21
-247.813563924429
 31
0.0
  0
LINE
  5
3C3
330
71
100
AcDbEntity
  8
1
  6
Continuous
 62
     2
100
AcDbLine
 10
-219.9191340720678
 20
-247.813563924429
 30
0.0
 11
-219.9191340720678
 21
-245.313563924429
 31
0.0
  0
LINE
  5
3C4
330
71
100
AcDbEntity
  8
1
  6
Continuous
 62
     2
100
AcDbLine
 10
-219.9191340720678
 20
-245.313563924429
 30
0.0
 11
-214.9191340720678
 21
-244.063563924429
 31
0.0
  0
LINE
  5
3C5
330
71
100
AcDbEntity
  8
1
  6
Continuous
 62
     6
100
AcDbLine
 10
-346.6109844318787
 20
-267.6885639244289
 30
0.0
 11
-381.6109844318785
 21
-267.6885639244289
 31
0.0
  0
LINE
  5
3C6
330
71
100
AcDbEntity
  8
1
  6
Continuous
 62
     6
100
AcDbLine
 10
-94.61098443187873
 20
-250.6885639244289
 30
0.0
 11
-94.61098443187913
 21
-259.1885639244289
 31
0.0
  0
LINE
  5
3C7
330
71
100
AcDbEntity
  8
1
  6
Continuous
 62
     6
100
AcDbLine
 10
-187.7557889586305
 20
-267.688563924429
 30
0.0
 11
-188.1109844318804
 21
-267.6885639244289
 31
0.0
  0
LINE
  5
3C8
330
71
100
AcDbEntity
  8
1
  6
Continuous
 62
     6
100
AcDbLine
 10
-340.4109844318807
 20
-267.688563924429
 30
0.0
 11
-346.6109844318787
 21
-267.6885639244289
 31
0.0
  0
LINE
  5
3C9
330
71
100
AcDbEntity
  8
1
  6
Continuous
 62
     7
100
AcDbLine
 10
-187.7557889586305
 20
-250.6885639244289
 30
0.0
 11
-187.7557889586305
 21
-263.4385639244289
 31
0.0
  0
LINE
  5
3CA
330
71
100
AcDbEntity
  8
1
  6
Continuous
 62
     7
100
AcDbLine
 10
-224.1557889586304
 20
-250.6885639244289
 30
0.0
 11
-224.1557889586304
 21
-263.438563924429
 31
0.0
  0
LINE
  5
3CB
330
71
100
AcDbEntity
  8
1
  6
Continuous
 62
     6
100
AcDbLine
 10
-238.1109844318804
 20
-267.6885639244289
 30
0.0
 11
-288.1109844318806
 21
-267.6885639244289
 31
0.0
  0
LINE
  5
3CC
330
71
100
AcDbEntity
  8
1
  6
Continuous
 62
     6
100
AcDbLine
 10
-340.4109844318807
 20
-267.688563924429
 30
0.0
 11
-338.1109844318804
 21
-267.6885639244289
 31
0.0
  0
LINE
  5
3CD
330
71
100
AcDbEntity
  8
1
  6
Continuous
 62
     6
100
AcDbLine
 10
-187.7557889586305
 20
-267.688563924429
 30
0.0
 11
-138.1109844318804
 21
-267.6885639244289
 31
0.0
  0
LINE
  5
3CE
330
71
100
AcDbEntity
  8
1
  6
Continuous
 62
     6
100
AcDbLine
 10
-94.61098443188042
 20
-267.6885639244289
 30
0.0
 11
-94.61098443187913
 21
-259.1885639244289
 31
0.0
  0
LINE
  5
3CF
330
71
100
AcDbEntity
  8
1
  6
Continuous
 62
     2
100
AcDbLine
 10
-386.6109844318795
 20
-267.6885639244289
 30
0.0
 11
-386.6109844318795
 21
-272.688563924429
 31
0.0
  0
LINE
  5
3D0
330
71
100
AcDbEntity
  8
1
  6
Continuous
 62
     2
100
AcDbLine
 10
-381.6109844318785
 20
-267.6885639244289
 30
0.0
 11
-386.6109844318795
 21
-267.6885639244289
 31
0.0
  0
LINE
  5
3D1
330
71
100
AcDbEntity
  8
1
  6
Continuous
 62
     2
100
AcDbLine
 10
-381.6109844318785
 20
-272.688563924429
 30
0.0
 11
-338.1109844318804
 21
-272.688563924429
 31
0.0
  0
LINE
  5
3D2
330
71
100
AcDbEntity
  8
1
  6
Continuous
 62
     2
100
AcDbLine
 10
-381.6109844318785
 20
-267.6885639244289
 30
0.0
 11
-381.6109844318785
 21
-272.688563924429
 31
0.0
  0
LINE
  5
3D3
330
71
100
AcDbEntity
  8
1
  6
Continuous
 62
     2
100
AcDbLine
 10
-138.1109844318804
 20
-272.688563924429
 30
0.0
 11
-188.1109844318804
 21
-272.688563924429
 31
0.0
  0
LINE
  5
3D4
330
71
100
AcDbEntity
  8
1
  6
Continuous
 62
     2
100
AcDbLine
 10
-138.1109844318804
 20
-272.688563924429
 30
0.0
 11
-138.1109844318804
 21
-267.6885639244289
 31
0.0
  0
LINE
  5
3D5
330
71
100
AcDbEntity
  8
1
  6
Continuous
 62
     2
100
AcDbLine
 10
-188.1109844318804
 20
-272.688563924429
 30
0.0
 11
-188.1109844318804
 21
-267.6885639244289
 31
0.0
  0
LINE
  5
3D6
330
71
100
AcDbEntity
  8
1
  6
Continuous
 62
     2
100
AcDbLine
 10
-238.1109844318804
 20
-272.688563924429
 30
0.0
 11
-188.1109844318804
 21
-272.688563924429
 31
0.0
  0
LINE
  5
3D7
330
71
100
AcDbEntity
  8
1
  6
Continuous
 62
     2
100
AcDbLine
 10
-238.1109844318804
 20
-272.688563924429
 30
0.0
 11
-238.1109844318804
 21
-267.6885639244289
 31
0.0
  0
LINE
  5
3D8
330
71
100
AcDbEntity
  8
1
  6
Continuous
 62
     2
100
AcDbLine
 10
-288.1109844318806
 20
-272.688563924429
 30
0.0
 11
-238.1109844318804
 21
-272.688563924429
 31
0.0
  0
LINE
  5
3D9
330
71
100
AcDbEntity
  8
1
  6
Continuous
 62
     2
100
AcDbLine
 10
-288.1109844318806
 20
-272.688563924429
 30
0.0
 11
-288.1109844318806
 21
-267.6885639244289
 31
0.0
  0
LINE
  5
3DA
330
71
100
AcDbEntity
  8
1
  6
Continuous
 62
     2
100
AcDbLine
 10
-338.1109844318804
 20
-272.688563924429
 30
0.0
 11
-288.1109844318806
 21
-272.688563924429
 31
0.0
  0
LINE
  5
3DB
330
71
100
AcDbEntity
  8
1
  6
Continuous
 62
     2
100
AcDbLine
 10
-338.1109844318804
 20
-272.688563924429
 30
0.0
 11
-338.1109844318804
 21
-267.6885639244289
 31
0.0
  0
LINE
  5
3DC
330
71
100
AcDbEntity
  8
1
  6
Continuous
 62
     6
100
AcDbLine
 10
-381.6109844318787
 20
-217.6885639244288
 30
0.0
 11
-381.6109844318785
 21
-267.6885639244289
 31
0.0
  0
LINE
  5
3DD
330
71
100
AcDbEntity
  8
1
  6
Continuous
 62
     2
100
AcDbLine
 10
-386.6109844318795
 20
-217.6885639244288
 30
0.0
 11
-386.6109844318795
 21
-267.6885639244289
 31
0.0
  0
LINE
  5
3DE
330
71
100
AcDbEntity
  8
1
  6
Continuous
 62
     2
100
AcDbLine
 10
-386.6109844318795
 20
-217.6885639244288
 30
0.0
 11
-381.6109844318787
 21
-217.6885639244288
 31
0.0
  0
LINE
  5
3DF
330
71
100
AcDbEntity
  8
1
  6
Continuous
 62
     6
100
AcDbLine
 10
-381.6109844318789
 20
-167.688563924429
 30
0.0
 11
-381.6109844318787
 21
-217.6885639244288
 31
0.0
  0
LINE
  5
3E0
330
71
100
AcDbEntity
  8
1
  6
Continuous
 62
     2
100
AcDbLine
 10
-386.6109844318795
 20
-167.688563924429
 30
0.0
 11
-386.6109844318795
 21
-217.6885639244288
 31
0.0
  0
LINE
  5
3E1
330
71
100
AcDbEntity
  8
1
  6
Continuous
 62
     2
100
AcDbLine
 10
-386.6109844318795
 20
-167.688563924429
 30
0.0
 11
-381.6109844318789
 21
-167.688563924429
 31
0.0
  0
LINE
  5
3E2
330
71
100
AcDbEntity
  8
1
  6
Continuous
 62
     6
100
AcDbLine
 10
-381.6109844318794
 20
-117.6885639244289
 30
0.0
 11
-381.6109844318789
 21
-167.688563924429
 31
0.0
  0
LINE
  5
3E3
330
71
100
AcDbEntity
  8
1
  6
Continuous
 62
     2
100
AcDbLine
 10
-386.6109844318795
 20
-117.6885639244289
 30
0.0
 11
-386.6109844318795
 21
-167.688563924429
 31
0.0
  0
LINE
  5
3E4
330
71
100
AcDbEntity
  8
1
  6
Continuous
 62
     2
100
AcDbLine
 10
-386.6109844318795
 20
-117.6885639244289
 30
0.0
 11
-381.6109844318794
 21
-117.6885639244289
 31
0.0
  0
LINE
  5
3E5
330
71
100
AcDbEntity
  8
1
  6
Continuous
 62
     6
100
AcDbLine
 10
-381.6109844318795
 20
-82.6885639244289
 30
0.0
 11
-381.6109844318794
 21
-117.6885639244289
 31
0.0
  0
LINE
  5
3E6
330
71
100
AcDbEntity
  8
1
  6
Continuous
 62
     2
100
AcDbLine
 10
-386.6109844318795
 20
-62.68856392442891
 30
0.0
 11
-386.6109844318795
 21
-117.6885639244289
 31
0.0
  0
LINE
  5
3E7
330
71
100
AcDbEntity
  8
1
  6
Continuous
 62
     2
100
AcDbLine
 10
-386.6109844318795
 20
-272.688563924429
 30
0.0
 11
-381.6109844318785
 21
-272.688563924429
 31
0.0
  0
LINE
  5
3E8
330
71
100
AcDbEntity
  8
1
  6
Continuous
 62
     2
100
AcDbLine
 10
-238.1109844318804
 20
-62.68856392442891
 30
0.0
 11
-238.1109844318804
 21
-71.89725576913023
 31
0.0
  0
LINE
  5
3E9
330
71
100
AcDbEntity
  8
1
  6
Continuous
 62
     2
100
AcDbLine
 10
-238.1109844318804
 20
-62.68856392442891
 30
0.0
 11
-386.6109844318795
 21
-62.68856392442891
 31
0.0
  0
LINE
  5
3EA
330
71
100
AcDbEntity
  8
1
  6
Continuous
 62
     2
100
AcDbLine
 10
-89.61098443188143
 20
-267.6885639244289
 30
0.0
 11
-89.61098443188143
 21
-217.6885639244288
 31
0.0
  0
LINE
  5
3EB
330
71
100
AcDbEntity
  8
1
  6
Continuous
 62
     2
100
AcDbLine
 10
-89.61098443188143
 20
-117.6885639244289
 30
0.0
 11
-89.61098443188143
 21
-62.68856392442891
 31
0.0
  0
LINE
  5
3EC
330
71
100
AcDbEntity
  8
1
  6
Continuous
 62
     6
100
AcDbLine
 10
-94.61098443188123
 20
-117.6885639244289
 30
0.0
 11
-94.61098443188143
 21
-82.6885639244289
 31
0.0
  0
LINE
  5
3ED
330
71
100
AcDbEntity
  8
1
  6
Continuous
 62
     2
100
AcDbLine
 10
-94.61098443188123
 20
-117.6885639244289
 30
0.0
 11
-89.61098443188143
 21
-117.6885639244289
 31
0.0
  0
LINE
  5
3EE
330
71
100
AcDbEntity
  8
1
  6
Continuous
 62
     2
100
AcDbLine
 10
-89.61098443188143
 20
-167.688563924429
 30
0.0
 11
-89.61098443188143
 21
-117.6885639244289
 31
0.0
  0
LINE
  5
3EF
330
71
100
AcDbEntity
  8
1
  6
Continuous
 62
     6
100
AcDbLine
 10
-94.61098443188003
 20
-167.688563924429
 30
0.0
 11
-94.61098443188123
 21
-117.6885639244289
 31
0.0
  0
LINE
  5
3F0
330
71
100
AcDbEntity
  8
1
  6
Continuous
 62
     2
100
AcDbLine
 10
-94.61098443188003
 20
-167.688563924429
 30
0.0
 11
-89.61098443188143
 21
-167.688563924429
 31
0.0
  0
LINE
  5
3F1
330
71
100
AcDbEntity
  8
1
  6
Continuous
 62
     2
100
AcDbLine
 10
-89.61098443188143
 20
-217.6885639244288
 30
0.0
 11
-89.61098443188143
 21
-167.688563924429
 31
0.0
  0
LINE
  5
3F2
330
71
100
AcDbEntity
  8
1
  6
Continuous
 62
     6
100
AcDbLine
 10
-94.61098443187953
 20
-217.6885639244288
 30
0.0
 11
-94.61098443188003
 21
-167.688563924429
 31
0.0
  0
LINE
  5
3F3
330
71
100
AcDbEntity
  8
1
  6
Continuous
 62
     2
100
AcDbLine
 10
-94.61098443187953
 20
-217.6885639244288
 30
0.0
 11
-89.61098443188143
 21
-217.6885639244288
 31
0.0
  0
LINE
  5
3F4
330
71
100
AcDbEntity
  8
1
  6
Continuous
 62
     6
100
AcDbLine
 10
-94.61098443188143
 20
-82.6885639244289
 30
0.0
 11
-381.6109844318795
 21
-82.6885639244289
 31
0.0
  0
LINE
  5
3F5
330
71
100
AcDbEntity
  8
1
  6
Continuous
 62
     2
100
AcDbLine
 10
-89.61098443188143
 20
-62.68856392442891
 30
0.0
 11
-238.1109844318804
 21
-62.68856392442891
 31
0.0
  0
LINE
  5
3F6
330
71
100
AcDbEntity
  8
1
  6
Continuous
 62
     6
100
AcDbLine
 10
-94.61098443187873
 20
-250.6885639244289
 30
0.0
 11
-94.61098443187953
 21
-217.6885639244288
 31
0.0
  0
LINE
  5
3F7
330
71
100
AcDbEntity
  8
1
  6
Continuous
 62
     2
100
AcDbLine
 10
-94.61098443188042
 20
-272.688563924429
 30
0.0
 11
-138.1109844318804
 21
-272.688563924429
 31
0.0
  0
LINE
  5
3F8
330
71
100
AcDbEntity
  8
1
  6
Continuous
 62
     2
100
AcDbLine
 10
-89.61098443188143
 20
-272.688563924429
 30
0.0
 11
-94.61098443188042
 21
-272.688563924429
 31
0.0
  0
LINE
  5
3F9
330
71
100
AcDbEntity
  8
1
  6
Continuous
 62
     2
100
AcDbLine
 10
-89.61098443188143
 20
-272.688563924429
 30
0.0
 11
-89.61098443188143
 21
-267.6885639244289
 31
0.0
  0
LINE
  5
3FA
330
71
100
AcDbEntity
  8
1
  6
Continuous
 62
     6
100
AcDbLine
 10
-224.1557889586304
 20
-250.6885639244289
 30
0.0
 11
-187.7557889586305
 21
-250.6885639244289
 31
0.0
  0
LINE
  5
3FB
330
71
100
AcDbEntity
  8
1
  6
Continuous
 62
     2
100
AcDbLine
 10
-94.61098443188042
 20
-267.6885639244289
 30
0.0
 11
-94.61098443188042
 21
-272.688563924429
 31
0.0
  0
LINE
  5
3FC
330
71
100
AcDbEntity
  8
1
  6
Continuous
 62
     2
100
AcDbLine
 10
-94.61098443188042
 20
-267.6885639244289
 30
0.0
 11
-89.61098443188143
 21
-267.6885639244289
 31
0.0
  0
LINE
  5
3FD
330
71
100
AcDbEntity
  8
1
  6
Continuous
 62
     6
100
AcDbLine
 10
-188.1109844318804
 20
-267.6885639244289
 30
0.0
 11
-205.9557889586304
 21
-267.6885639244289
 31
0.0
  0
LINE
  5
3FE
330
71
100
AcDbEntity
  8
1
  6
Continuous
 62
     6
100
AcDbLine
 10
-138.1109844318804
 20
-267.6885639244289
 30
0.0
 11
-94.61098443188042
 21
-267.6885639244289
 31
0.0
  0
LINE
  5
3FF
330
71
100
AcDbEntity
  8
1
  6
Continuous
 62
     6
100
AcDbLine
 10
-288.1109844318806
 20
-267.6885639244289
 30
0.0
 11
-293.1557889586304
 21
-267.6885639244289
 31
0.0
  0
LINE
  5
400
330
71
100
AcDbEntity
  8
1
  6
Continuous
 62
     6
100
AcDbLine
 10
-238.1109844318804
 20
-267.6885639244289
 30
0.0
 11
-224.1557889586304
 21
-267.688563924429
 31
0.0
  0
LINE
  5
401
102
{ACAD_REACTORS
330
4EB
330
4EC
102
}
330
71
100
AcDbEntity
  8
0
  6
Continuous
 62
     2
100
AcDbLine
 10
-216.6411630164836
 20
-255.6160491682168
 30
0.0
 11
-216.6411630164836
 21
-255.01051387971
 31
0.0
  0
LINE
  5
402
102
{ACAD_REACTORS
330
4EB
330
4EC
102
}
330
71
100
AcDbEntity
  8
0
  6
Continuous
 62
     2
100
AcDbLine
 10
-216.6411630164836
 20
-258.4161837748481
 30
0.0
 11
-216.6411630164836
 21
-257.834332368153
 31
0.0
  0
LINE
  5
403
102
{ACAD_REACTORS
330
4ED
330
4EE
102
}
330
71
100
AcDbEntity
  8
0
  6
Continuous
 62
     2
100
AcDbLine
 10
-194.0116765810044
 20
-258.1265197067251
 30
0.0
 11
-194.0116765810044
 21
-260.3950639244126
 31
0.0
  0
LINE
  5
404
102
{ACAD_REACTORS
330
4ED
330
4EE
102
}
330
71
100
AcDbEntity
  8
0
  6
Continuous
 62
     2
100
AcDbLine
 10
-195.392730359992
 20
-257.341254400602
 30
0.0
 11
-192.0077848413633
 21
-257.3412544006015
 31
0.0
  0
LINE
  5
405
102
{ACAD_REACTORS
330
4ED
330
4EE
102
}
330
71
100
AcDbEntity
  8
0
  6
Continuous
 62
     2
100
AcDbLine
 10
-192.0077848413633
 20
-258.1265197067251
 30
0.0
 11
-192.0077848413633
 21
-257.3412544006015
 31
0.0
  0
LINE
  5
406
102
{ACAD_REACTORS
330
4ED
330
4EE
102
}
330
71
100
AcDbEntity
  8
0
  6
Continuous
 62
     2
100
AcDbLine
 10
-192.8188838788367
 20
-258.1265197067251
 30
0.0
 11
-192.0077848413633
 21
-258.1265197067251
 31
0.0
  0
LINE
  5
407
102
{ACAD_REACTORS
330
4ED
330
4EE
102
}
330
71
100
AcDbEntity
  8
0
  6
Continuous
 62
     2
100
AcDbLine
 10
-192.8188838788367
 20
-260.3950639244126
 30
0.0
 11
-192.8188838788367
 21
-258.1265197067251
 31
0.0
  0
LINE
  5
408
102
{ACAD_REACTORS
330
4ED
330
4EE
102
}
330
71
100
AcDbEntity
  8
0
  6
Continuous
 62
     2
100
AcDbLine
 10
-194.0116765810044
 20
-260.3950639244126
 30
0.0
 11
-192.8188838788367
 21
-260.3950639244126
 31
0.0
  0
LINE
  5
409
102
{ACAD_REACTORS
330
4E3
330
4E4
102
}
330
71
100
AcDbEntity
  8
0
  6
Continuous
 62
     2
100
AcDbLine
 10
-194.7082675190689
 20
-253.9820639244271
 30
0.0
 11
-196.1109917368182
 21
-253.9820639244271
 31
0.0
  0
LINE
  5
40A
102
{ACAD_REACTORS
330
4E3
330
4E4
102
}
330
71
100
AcDbEntity
  8
0
  6
Continuous
 62
     2
100
AcDbLine
 10
-194.7082675190689
 20
-253.9820639244271
 30
0.0
 11
-194.1070999971771
 21
-254.6618872459826
 31
0.0
  0
LINE
  5
40B
102
{ACAD_REACTORS
330
4E3
330
4E4
102
}
330
71
100
AcDbEntity
  8
0
  6
Continuous
 62
     2
100
AcDbLine
 10
-194.1070999971771
 20
-254.6618872459826
 30
0.0
 11
-193.5059324752843
 21
-253.9820639244271
 31
0.0
  0
LINE
  5
40C
102
{ACAD_REACTORS
330
4E3
330
4E4
102
}
330
71
100
AcDbEntity
  8
0
  6
Continuous
 62
     2
100
AcDbLine
 10
-193.4057378883036
 20
-255.4550144544633
 30
0.0
 11
-192.1032082575371
 21
-253.9820639244271
 31
0.0
  0
LINE
  5
40D
102
{ACAD_REACTORS
330
4E3
330
4E4
102
}
330
71
100
AcDbEntity
  8
0
  6
Continuous
 62
     2
100
AcDbLine
 10
-193.4057378883036
 20
-255.4550144544633
 30
0.0
 11
-192.0077848413633
 21
-257.0358734482383
 31
0.0
  0
LINE
  5
40E
102
{ACAD_REACTORS
330
4E3
330
4E4
102
}
330
71
100
AcDbEntity
  8
0
  6
Continuous
 62
     2
100
AcDbLine
 10
-193.4105090591116
 20
-257.0358734482383
 30
0.0
 11
-192.0077848413633
 21
-257.0358734482383
 31
0.0
  0
LINE
  5
40F
102
{ACAD_REACTORS
330
4E3
330
4E4
102
}
330
71
100
AcDbEntity
  8
0
  6
Continuous
 62
     2
100
AcDbLine
 10
-194.1070999971771
 20
-256.2481416629446
 30
0.0
 11
-193.4105090591116
 21
-257.0358734482383
 31
0.0
  0
LINE
  5
410
102
{ACAD_REACTORS
330
4E1
330
4E2
102
}
330
71
100
AcDbEntity
  8
0
  6
Continuous
 62
     2
100
AcDbLine
 10
-197.5661988334608
 20
-253.9820639244271
 30
0.0
 11
-196.3256944232079
 21
-253.9820639244271
 31
0.0
  0
LINE
  5
411
102
{ACAD_REACTORS
330
4E1
330
4E2
102
}
330
71
100
AcDbEntity
  8
0
  6
Continuous
 62
     2
100
AcDbLine
 10
-196.3256944232079
 20
-253.9820639244271
 30
0.0
 11
-196.3256944232079
 21
-257.0358734482383
 31
0.0
  0
LINE
  5
412
102
{ACAD_REACTORS
330
4E1
330
4E2
102
}
330
71
100
AcDbEntity
  8
0
  6
Continuous
 62
     2
100
AcDbLine
 10
-197.5661988334608
 20
-257.0358734482383
 30
0.0
 11
-197.5661988334608
 21
-253.9820639244271
 31
0.0
  0
LINE
  5
413
102
{ACAD_REACTORS
330
4DF
330
4E0
102
}
330
71
100
AcDbEntity
  8
0
  6
Continuous
 62
     2
100
AcDbLine
 10
-199.0345089159984
 20
-259.1735401148881
 30
0.0
 11
-198.734343678806
 21
-258.4057251489014
 31
0.0
  0
LINE
  5
414
102
{ACAD_REACTORS
330
4DF
330
4E0
102
}
330
71
100
AcDbEntity
  8
0
  6
Continuous
 62
     2
100
AcDbLine
 10
-199.5120445206192
 20
-260.3950639244126
 30
0.0
 11
-199.3005644671434
 21
-259.8541033801947
 31
0.0
  0
LINE
  5
415
102
{ACAD_REACTORS
330
4DF
330
4E0
102
}
330
71
100
AcDbEntity
  8
0
  6
Continuous
 62
     2
100
AcDbLine
 10
-199.3545958839329
 20
-257.3412544006015
 30
0.0
 11
-200.7525489308722
 21
-260.3950639244126
 31
0.0
  0
LINE
  5
416
102
{ACAD_REACTORS
330
4DF
330
4E0
102
}
330
71
100
AcDbEntity
  8
0
  6
Continuous
 62
     2
100
AcDbLine
 10
-196.7161384267399
 20
-260.3950639244126
 30
0.0
 11
-197.9566428369938
 21
-260.3950639244126
 31
0.0
  0
LINE
  5
417
102
{ACAD_REACTORS
330
4DF
330
4E0
102
}
330
71
100
AcDbEntity
  8
0
  6
Continuous
 62
     2
100
AcDbLine
 10
-199.3005644671434
 20
-259.8541033801947
 30
0.0
 11
-198.1681228904696
 21
-259.8541033801947
 31
0.0
  0
LINE
  5
418
102
{ACAD_REACTORS
330
4DD
330
4DE
102
}
330
71
100
AcDbEntity
  8
0
  6
Continuous
 62
     2
100
AcDbLine
 10
-202.9100610700544
 20
-258.1265197067251
 30
0.0
 11
-202.0989620325798
 21
-258.1265197067251
 31
0.0
  0
LINE
  5
419
102
{ACAD_REACTORS
330
4DD
330
4DE
102
}
330
71
100
AcDbEntity
  8
0
  6
Continuous
 62
     2
100
AcDbLine
 10
-200.0950702929408
 20
-257.3412544006015
 30
0.0
 11
-202.9100610700544
 21
-257.3412544006015
 31
0.0
  0
LINE
  5
41A
102
{ACAD_REACTORS
330
4DD
330
4DE
102
}
330
71
100
AcDbEntity
  8
0
  6
Continuous
 62
     2
100
AcDbLine
 10
-200.0950702929408
 20
-258.1265197067251
 30
0.0
 11
-200.0950702929408
 21
-257.3412544006015
 31
0.0
  0
LINE
  5
41B
102
{ACAD_REACTORS
330
4DD
330
4DE
102
}
330
71
100
AcDbEntity
  8
0
  6
Continuous
 62
     2
100
AcDbLine
 10
-200.9061693304133
 20
-258.1265197067251
 30
0.0
 11
-200.0950702929408
 21
-258.1265197067251
 31
0.0
  0
LINE
  5
41C
102
{ACAD_REACTORS
330
4DD
330
4DE
102
}
330
71
100
AcDbEntity
  8
0
  6
Continuous
 62
     2
100
AcDbLine
 10
-200.9061693304133
 20
-260.3950639244126
 30
0.0
 11
-200.9061693304133
 21
-258.1265197067251
 31
0.0
  0
LINE
  5
41D
102
{ACAD_REACTORS
330
4DB
330
4DC
102
}
330
71
100
AcDbEntity
  8
0
  6
Continuous
 62
     2
100
AcDbLine
 10
-200.2380544863153
 20
-257.0358734482383
 30
0.0
 11
-200.2380544863153
 21
-255.7270979380336
 31
0.0
  0
LINE
  5
41E
102
{ACAD_REACTORS
330
4DB
330
4DC
102
}
330
71
100
AcDbEntity
  8
0
  6
Continuous
 62
     2
100
AcDbLine
 10
-201.4308471884818
 20
-253.9820639244271
 30
0.0
 11
-201.4308471884818
 21
-257.0358734482383
 31
0.0
  0
LINE
  5
41F
102
{ACAD_REACTORS
330
4DB
330
4DC
102
}
330
71
100
AcDbEntity
  8
0
  6
Continuous
 62
     2
100
AcDbLine
 10
-200.2380544863153
 20
-253.9820639244271
 30
0.0
 11
-201.4308471884818
 21
-253.9820639244271
 31
0.0
  0
LINE
  5
420
102
{ACAD_REACTORS
330
4DB
330
4DC
102
}
330
71
100
AcDbEntity
  8
0
  6
Continuous
 62
     2
100
AcDbLine
 10
-198.9975500760613
 20
-253.9820639244271
 30
0.0
 11
-198.9975500760613
 21
-255.2908394346323
 31
0.0
  0
LINE
  5
421
102
{ACAD_REACTORS
330
4D9
330
4DA
102
}
330
71
100
AcDbEntity
  8
0
  6
Continuous
 62
     2
100
AcDbLine
 10
-206.6792860089015
 20
-257.3412544006015
 30
0.0
 11
-206.6792860089015
 21
-260.3950639244126
 31
0.0
  0
LINE
  5
422
102
{ACAD_REACTORS
330
4D9
330
4DA
102
}
330
71
100
AcDbEntity
  8
0
  6
Continuous
 62
     2
100
AcDbLine
 10
-205.4864933067339
 20
-257.3412544006015
 30
0.0
 11
-206.6792860089015
 21
-257.3412544006015
 31
0.0
  0
LINE
  5
423
102
{ACAD_REACTORS
330
4D9
330
4DA
102
}
330
71
100
AcDbEntity
  8
0
  6
Continuous
 62
     2
100
AcDbLine
 10
-204.245988896481
 20
-260.3950639244126
 30
0.0
 11
-203.0531961943146
 21
-260.3950639244126
 31
0.0
  0
LINE
  5
424
102
{ACAD_REACTORS
330
4D9
330
4DA
102
}
330
71
100
AcDbEntity
  8
0
  6
Continuous
 62
     2
100
AcDbLine
 10
-206.6792860089015
 20
-260.3950639244126
 30
0.0
 11
-205.4864933067339
 21
-260.3950639244126
 31
0.0
  0
LINE
  5
425
102
{ACAD_REACTORS
330
4E9
330
4EA
102
}
330
71
100
AcDbEntity
  8
0
  6
Continuous
 62
     2
100
AcDbLine
 10
-203.0053335553424
 20
-255.1599618836118
 30
0.0
 11
-203.0053335553424
 21
-254.6800775298701
 31
0.0
  0
LINE
  5
426
102
{ACAD_REACTORS
330
4E9
330
4EA
102
}
330
71
100
AcDbEntity
  8
0
  6
Continuous
 62
     2
100
AcDbLine
 10
-201.6694057289147
 20
-255.1599618836118
 30
0.0
 11
-203.0053335553424
 21
-255.1599618836118
 31
0.0
  0
LINE
  5
427
102
{ACAD_REACTORS
330
4E9
330
4EA
102
}
330
71
100
AcDbEntity
  8
0
  6
Continuous
 62
     2
100
AcDbLine
 10
-201.6694057289147
 20
-255.8579754890541
 30
0.0
 11
-201.6694057289147
 21
-255.1599618836118
 31
0.0
  0
LINE
  5
428
102
{ACAD_REACTORS
330
4E9
330
4EA
102
}
330
71
100
AcDbEntity
  8
0
  6
Continuous
 62
     2
100
AcDbLine
 10
-203.0053335553424
 20
-255.8579754890541
 30
0.0
 11
-201.6694057289147
 21
-255.8579754890541
 31
0.0
  0
LINE
  5
429
102
{ACAD_REACTORS
330
4D7
330
4D8
102
}
330
71
100
AcDbEntity
  8
0
  6
Continuous
 62
     2
100
AcDbLine
 10
-206.4882882456693
 20
-253.9820639244271
 30
0.0
 11
-206.4882882456693
 21
-257.0358734482383
 31
0.0
  0
LINE
  5
42A
102
{ACAD_REACTORS
330
4D7
330
4D8
102
}
330
71
100
AcDbEntity
  8
0
  6
Continuous
 62
     2
100
AcDbLine
 10
-206.4882882456693
 20
-257.0358734482383
 30
0.0
 11
-207.6810809478357
 21
-257.0358734482383
 31
0.0
  0
LINE
  5
42B
102
{ACAD_REACTORS
330
4D7
330
4D8
102
}
330
71
100
AcDbEntity
  8
0
  6
Continuous
 62
     2
100
AcDbLine
 10
-207.6810809478357
 20
-257.0358734482383
 30
0.0
 11
-207.6810809478357
 21
-255.9016013393945
 31
0.0
  0
LINE
  5
42C
102
{ACAD_REACTORS
330
4D7
330
4D8
102
}
330
71
100
AcDbEntity
  8
0
  6
Continuous
 62
     2
100
AcDbLine
 10
-208.7307385257432
 20
-257.0358734482383
 30
0.0
 11
-209.9235312279098
 21
-257.0358734482383
 31
0.0
  0
LINE
  5
42D
102
{ACAD_REACTORS
330
4D7
330
4D8
102
}
330
71
100
AcDbEntity
  8
0
  6
Continuous
 62
     2
100
AcDbLine
 10
-209.9235312279098
 20
-253.9820639244271
 30
0.0
 11
-208.7307385257432
 21
-253.9820639244271
 31
0.0
  0
LINE
  5
42E
102
{ACAD_REACTORS
330
4D7
330
4D8
102
}
330
71
100
AcDbEntity
  8
0
  6
Continuous
 62
     2
100
AcDbLine
 10
-208.7307385257432
 20
-253.9820639244271
 30
0.0
 11
-208.7307385257432
 21
-255.0508972577617
 31
0.0
  0
LINE
  5
42F
102
{ACAD_REACTORS
330
4D7
330
4D8
102
}
330
71
100
AcDbEntity
  8
0
  6
Continuous
 62
     2
100
AcDbLine
 10
-208.7307385257432
 20
-255.0508972577617
 30
0.0
 11
-207.6810809478357
 21
-255.0508972577617
 31
0.0
  0
LINE
  5
430
102
{ACAD_REACTORS
330
4E5
330
4E6
102
}
330
71
100
AcDbEntity
  8
0
  6
Continuous
 62
     2
100
AcDbLine
 10
-211.8797112594634
 20
-254.6451697698672
 30
0.0
 11
-211.5624161979215
 21
-254.6451697698672
 31
0.0
  0
LINE
  5
431
102
{ACAD_REACTORS
330
4E5
330
4E6
102
}
330
71
100
AcDbEntity
  8
0
  6
Continuous
 62
     2
100
AcDbLine
 10
-211.8797112594634
 20
-255.3508974192094
 30
0.0
 11
-211.5624161979215
 21
-255.3508974192094
 31
0.0
  0
LINE
  5
432
102
{ACAD_REACTORS
330
4E5
330
4E6
102
}
330
71
100
AcDbEntity
  8
0
  6
Continuous
 62
     2
100
AcDbLine
 10
-213.1202156697175
 20
-253.9820639244271
 30
0.0
 11
-213.1202156697175
 21
-257.0358734482383
 31
0.0
  0
LINE
  5
433
102
{ACAD_REACTORS
330
4E5
330
4E6
102
}
330
71
100
AcDbEntity
  8
0
  6
Continuous
 62
     2
100
AcDbLine
 10
-213.1202156697175
 20
-253.9820639244271
 30
0.0
 11
-211.1209436716831
 21
-253.9820639244271
 31
0.0
  0
LINE
  5
434
102
{ACAD_REACTORS
330
4E5
330
4E6
102
}
330
71
100
AcDbEntity
  8
0
  6
Continuous
 62
     2
100
AcDbLine
 10
-211.8797112594634
 20
-256.0927952070945
 30
0.0
 11
-211.1209436716831
 21
-256.0927952070945
 31
0.0
  0
LINE
  5
435
102
{ACAD_REACTORS
330
4EB
330
4EC
102
}
330
71
100
AcDbEntity
  8
0
  6
Continuous
 62
     2
100
AcDbLine
 10
-219.2167117030142
 20
-255.0103364030619
 30
0.0
 11
-219.2167117030142
 21
-259.366791445779
 31
0.0
  0
LINE
  5
436
102
{ACAD_REACTORS
330
4EB
330
4EC
102
}
330
71
100
AcDbEntity
  8
0
  6
Continuous
 62
     2
100
AcDbLine
 10
-218.9009947799385
 20
-254.6946194799857
 30
0.0
 11
-217.4251615189289
 21
-254.6946194799857
 31
0.0
  0
LINE
  5
437
102
{ACAD_REACTORS
330
4EB
330
4EC
102
}
330
71
100
AcDbEntity
  8
0
  6
Continuous
 62
     2
100
AcDbLine
 10
-217.1094445958523
 20
-255.6143610221224
 30
0.0
 11
-217.1094445958523
 21
-255.0103364030619
 31
0.0
  0
LINE
  5
438
102
{ACAD_REACTORS
330
4EB
330
4EC
102
}
330
71
100
AcDbEntity
  8
0
  6
Continuous
 62
     2
100
AcDbLine
 10
-217.1094445958523
 20
-259.366791445779
 30
0.0
 11
-217.1094445958523
 21
-257.8360205142474
 31
0.0
  0
LINE
  5
439
102
{ACAD_REACTORS
330
4EB
330
4EC
102
}
330
71
100
AcDbEntity
  8
0
  6
Continuous
 62
     2
100
AcDbLine
 10
-214.0215773659682
 20
-260.3950639244126
 30
0.0
 11
-219.494889456685
 21
-260.3950639244126
 31
0.0
  0
LINE
  5
43A
102
{ACAD_REACTORS
330
4EB
330
4EC
102
}
330
71
100
AcDbEntity
  8
0
  6
Continuous
 62
     2
100
AcDbLine
 10
-213.5973327505843
 20
-254.4063085398291
 30
0.0
 11
-213.5973327505843
 21
-259.9708193090293
 31
0.0
  0
LINE
  5
43B
102
{ACAD_REACTORS
330
4EB
330
4EC
102
}
330
71
100
AcDbEntity
  8
0
  6
Continuous
 62
     2
100
AcDbLine
 10
-219.494889456685
 20
-253.9820639244453
 30
0.0
 11
-214.0215773659682
 21
-253.9820639244453
 31
0.0
  0
LINE
  5
43C
102
{ACAD_REACTORS
330
4EB
330
4EC
102
}
330
71
100
AcDbEntity
  8
0
  6
Continuous
 62
     2
100
AcDbLine
 10
-219.9191340720678
 20
-254.4063085398291
 30
0.0
 11
-219.9191340720678
 21
-259.9708193090293
 31
0.0
  0
LINE
  5
43D
102
{ACAD_REACTORS
330
4EB
330
4EC
102
}
330
71
100
AcDbEntity
  8
0
  6
Continuous
 62
     2
100
AcDbLine
 10
-217.4251615189289
 20
-259.6825083688557
 30
0.0
 11
-218.9009947799385
 21
-259.6825083688557
 31
0.0
  0
LINE
  5
43E
102
{ACAD_REACTORS
330
4E5
330
4E6
102
}
330
71
100
AcDbEntity
  8
0
  6
Continuous
 62
     2
100
AcDbLine
 10
-211.8797112594634
 20
-257.0358734482383
 30
0.0
 11
-211.8797112594634
 21
-256.0927952070945
 31
0.0
  0
LINE
  5
43F
102
{ACAD_REACTORS
330
4E5
330
4E6
102
}
330
71
100
AcDbEntity
  8
0
  6
Continuous
 62
     2
100
AcDbLine
 10
-213.1202156697175
 20
-257.0358734482383
 30
0.0
 11
-211.8797112594634
 21
-257.0358734482383
 31
0.0
  0
LINE
  5
440
102
{ACAD_REACTORS
330
4E5
330
4E6
102
}
330
71
100
AcDbEntity
  8
0
  6
Continuous
 62
     2
100
AcDbLine
 10
-211.8797112594634
 20
-255.3508974192094
 30
0.0
 11
-211.8797112594634
 21
-254.6451697698672
 31
0.0
  0
LINE
  5
441
102
{ACAD_REACTORS
330
4D7
330
4D8
102
}
330
71
100
AcDbEntity
  8
0
  6
Continuous
 62
     2
100
AcDbLine
 10
-209.9235312279098
 20
-253.9820639244271
 30
0.0
 11
-209.9235312279098
 21
-257.0358734482383
 31
0.0
  0
LINE
  5
442
102
{ACAD_REACTORS
330
4D7
330
4D8
102
}
330
71
100
AcDbEntity
  8
0
  6
Continuous
 62
     2
100
AcDbLine
 10
-208.7307385257432
 20
-255.9016013393945
 30
0.0
 11
-208.7307385257432
 21
-257.0358734482383
 31
0.0
  0
LINE
  5
443
102
{ACAD_REACTORS
330
4D7
330
4D8
102
}
330
71
100
AcDbEntity
  8
0
  6
Continuous
 62
     2
100
AcDbLine
 10
-207.6810809478357
 20
-255.9016013393945
 30
0.0
 11
-208.7307385257432
 21
-255.9016013393945
 31
0.0
  0
LINE
  5
444
102
{ACAD_REACTORS
330
4D7
330
4D8
102
}
330
71
100
AcDbEntity
  8
0
  6
Continuous
 62
     2
100
AcDbLine
 10
-207.6810809478357
 20
-253.9820639244271
 30
0.0
 11
-206.4882882456693
 21
-253.9820639244271
 31
0.0
  0
LINE
  5
445
102
{ACAD_REACTORS
330
4D7
330
4D8
102
}
330
71
100
AcDbEntity
  8
0
  6
Continuous
 62
     2
100
AcDbLine
 10
-207.6810809478357
 20
-255.0508972577617
 30
0.0
 11
-207.6810809478357
 21
-253.9820639244271
 31
0.0
  0
LINE
  5
446
102
{ACAD_REACTORS
330
4E9
330
4EA
102
}
330
71
100
AcDbEntity
  8
0
  6
Continuous
 62
     2
100
AcDbLine
 10
-201.6694057289147
 20
-254.6800775298701
 30
0.0
 11
-201.6694057289147
 21
-253.9820639244271
 31
0.0
  0
LINE
  5
447
102
{ACAD_REACTORS
330
4E9
330
4EA
102
}
330
71
100
AcDbEntity
  8
0
  6
Continuous
 62
     2
100
AcDbLine
 10
-204.8197254526957
 20
-253.9820639244271
 30
0.0
 11
-201.6694057289147
 21
-253.9820639244271
 31
0.0
  0
LINE
  5
448
102
{ACAD_REACTORS
330
4E9
330
4EA
102
}
330
71
100
AcDbEntity
  8
0
  6
Continuous
 62
     2
100
AcDbLine
 10
-204.8197254526957
 20
-257.0358734482383
 30
0.0
 11
-201.6694057289147
 21
-257.0358734482383
 31
0.0
  0
LINE
  5
449
102
{ACAD_REACTORS
330
4E9
330
4EA
102
}
330
71
100
AcDbEntity
  8
0
  6
Continuous
 62
     2
100
AcDbLine
 10
-201.6694057289147
 20
-257.0358734482383
 30
0.0
 11
-201.6694057289147
 21
-256.3378598427958
 31
0.0
  0
LINE
  5
44A
102
{ACAD_REACTORS
330
4E9
330
4EA
102
}
330
71
100
AcDbEntity
  8
0
  6
Continuous
 62
     2
100
AcDbLine
 10
-201.6694057289147
 20
-256.3378598427958
 30
0.0
 11
-203.0053335553424
 21
-256.3378598427958
 31
0.0
  0
LINE
  5
44B
102
{ACAD_REACTORS
330
4E9
330
4EA
102
}
330
71
100
AcDbEntity
  8
0
  6
Continuous
 62
     2
100
AcDbLine
 10
-203.0053335553424
 20
-256.3378598427958
 30
0.0
 11
-203.0053335553424
 21
-255.8579754890541
 31
0.0
  0
LINE
  5
44C
102
{ACAD_REACTORS
330
4E9
330
4EA
102
}
330
71
100
AcDbEntity
  8
0
  6
Continuous
 62
     2
100
AcDbLine
 10
-203.0053335553424
 20
-254.6800775298701
 30
0.0
 11
-201.6694057289147
 21
-254.6800775298701
 31
0.0
  0
LINE
  5
44D
102
{ACAD_REACTORS
330
4D9
330
4DA
102
}
330
71
100
AcDbEntity
  8
0
  6
Continuous
 62
     2
100
AcDbLine
 10
-205.4864933067339
 20
-260.3950639244126
 30
0.0
 11
-205.4864933067339
 21
-259.086288414208
 31
0.0
  0
LINE
  5
44E
102
{ACAD_REACTORS
330
4D9
330
4DA
102
}
330
71
100
AcDbEntity
  8
0
  6
Continuous
 62
     2
100
AcDbLine
 10
-205.4864933067339
 20
-259.086288414208
 30
0.0
 11
-204.245988896481
 21
-260.3950639244126
 31
0.0
  0
LINE
  5
44F
102
{ACAD_REACTORS
330
4D9
330
4DA
102
}
330
71
100
AcDbEntity
  8
0
  6
Continuous
 62
     2
100
AcDbLine
 10
-203.0531961943146
 20
-260.3950639244126
 30
0.0
 11
-203.0531961943146
 21
-257.3412544006015
 31
0.0
  0
LINE
  5
450
102
{ACAD_REACTORS
330
4D9
330
4DA
102
}
330
71
100
AcDbEntity
  8
0
  6
Continuous
 62
     2
100
AcDbLine
 10
-203.0531961943146
 20
-257.3412544006015
 30
0.0
 11
-204.245988896481
 21
-257.3412544006015
 31
0.0
  0
LINE
  5
451
102
{ACAD_REACTORS
330
4D9
330
4DA
102
}
330
71
100
AcDbEntity
  8
0
  6
Continuous
 62
     2
100
AcDbLine
 10
-204.245988896481
 20
-257.3412544006015
 30
0.0
 11
-204.245988896481
 21
-258.6500299108066
 31
0.0
  0
LINE
  5
452
102
{ACAD_REACTORS
330
4D9
330
4DA
102
}
330
71
100
AcDbEntity
  8
0
  6
Continuous
 62
     2
100
AcDbLine
 10
-204.245988896481
 20
-258.6500299108066
 30
0.0
 11
-205.4864933067339
 21
-257.3412544006015
 31
0.0
  0
LINE
  5
453
102
{ACAD_REACTORS
330
4DB
330
4DC
102
}
330
71
100
AcDbEntity
  8
0
  6
Continuous
 62
     2
100
AcDbLine
 10
-200.2380544863153
 20
-255.7270979380336
 30
0.0
 11
-198.9975500760613
 21
-257.0358734482383
 31
0.0
  0
LINE
  5
454
102
{ACAD_REACTORS
330
4DB
330
4DC
102
}
330
71
100
AcDbEntity
  8
0
  6
Continuous
 62
     2
100
AcDbLine
 10
-198.9975500760613
 20
-257.0358734482383
 30
0.0
 11
-197.8047573738947
 21
-257.0358734482383
 31
0.0
  0
LINE
  5
455
102
{ACAD_REACTORS
330
4DB
330
4DC
102
}
330
71
100
AcDbEntity
  8
0
  6
Continuous
 62
     2
100
AcDbLine
 10
-197.8047573738947
 20
-257.0358734482383
 30
0.0
 11
-197.8047573738947
 21
-253.9820639244271
 31
0.0
  0
LINE
  5
456
102
{ACAD_REACTORS
330
4DB
330
4DC
102
}
330
71
100
AcDbEntity
  8
0
  6
Continuous
 62
     2
100
AcDbLine
 10
-197.8047573738947
 20
-253.9820639244271
 30
0.0
 11
-198.9975500760613
 21
-253.9820639244271
 31
0.0
  0
LINE
  5
457
102
{ACAD_REACTORS
330
4DB
330
4DC
102
}
330
71
100
AcDbEntity
  8
0
  6
Continuous
 62
     2
100
AcDbLine
 10
-198.9975500760613
 20
-255.2908394346323
 30
0.0
 11
-200.2380544863153
 21
-253.9820639244271
 31
0.0
  0
LINE
  5
458
102
{ACAD_REACTORS
330
4DB
330
4DC
102
}
330
71
100
AcDbEntity
  8
0
  6
Continuous
 62
     2
100
AcDbLine
 10
-201.4308471884818
 20
-257.0358734482383
 30
0.0
 11
-200.2380544863153
 21
-257.0358734482383
 31
0.0
  0
LINE
  5
459
102
{ACAD_REACTORS
330
4DD
330
4DE
102
}
330
71
100
AcDbEntity
  8
0
  6
Continuous
 62
     2
100
AcDbLine
 10
-202.9100610700544
 20
-257.3412544006015
 30
0.0
 11
-202.9100610700544
 21
-258.1265197067251
 31
0.0
  0
LINE
  5
45A
102
{ACAD_REACTORS
330
4DD
330
4DE
102
}
330
71
100
AcDbEntity
  8
0
  6
Continuous
 62
     2
100
AcDbLine
 10
-202.0989620325798
 20
-258.1265197067251
 30
0.0
 11
-202.0989620325798
 21
-260.3950639244126
 31
0.0
  0
LINE
  5
45B
102
{ACAD_REACTORS
330
4DD
330
4DE
102
}
330
71
100
AcDbEntity
  8
0
  6
Continuous
 62
     2
100
AcDbLine
 10
-202.0989620325798
 20
-260.3950639244126
 30
0.0
 11
-200.9061693304133
 21
-260.3950639244126
 31
0.0
  0
LINE
  5
45C
102
{ACAD_REACTORS
330
4DF
330
4E0
102
}
330
71
100
AcDbEntity
  8
0
  6
Continuous
 62
     2
100
AcDbLine
 10
-197.9566428369938
 20
-260.3950639244126
 30
0.0
 11
-198.1681228904696
 21
-259.8541033801947
 31
0.0
  0
LINE
  5
45D
102
{ACAD_REACTORS
330
4DF
330
4E0
102
}
330
71
100
AcDbEntity
  8
0
  6
Continuous
 62
     2
100
AcDbLine
 10
-198.1140914736802
 20
-257.3412544006015
 30
0.0
 11
-196.7161384267399
 21
-260.3950639244126
 31
0.0
  0
LINE
  5
45E
102
{ACAD_REACTORS
330
4DF
330
4E0
102
}
330
71
100
AcDbEntity
  8
0
  6
Continuous
 62
     2
100
AcDbLine
 10
-199.3545958839329
 20
-257.3412544006015
 30
0.0
 11
-198.1140914736802
 21
-257.3412544006015
 31
0.0
  0
LINE
  5
45F
102
{ACAD_REACTORS
330
4DF
330
4E0
102
}
330
71
100
AcDbEntity
  8
0
  6
Continuous
 62
     2
100
AcDbLine
 10
-200.7525489308722
 20
-260.3950639244126
 30
0.0
 11
-199.5120445206192
 21
-260.3950639244126
 31
0.0
  0
LINE
  5
460
102
{ACAD_REACTORS
330
4DF
330
4E0
102
}
330
71
100
AcDbEntity
  8
0
  6
Continuous
 62
     2
100
AcDbLine
 10
-199.0345089159984
 20
-259.1735401148881
 30
0.0
 11
-198.4341784416159
 21
-259.1735401148881
 31
0.0
  0
LINE
  5
461
102
{ACAD_REACTORS
330
4DF
330
4E0
102
}
330
71
100
AcDbEntity
  8
0
  6
Continuous
 62
     2
100
AcDbLine
 10
-198.4341784416159
 20
-259.1735401148881
 30
0.0
 11
-198.734343678806
 21
-258.4057251489014
 31
0.0
  0
LINE
  5
462
102
{ACAD_REACTORS
330
4E1
330
4E2
102
}
330
71
100
AcDbEntity
  8
0
  6
Continuous
 62
     2
100
AcDbLine
 10
-196.3256944232079
 20
-257.0358734482383
 30
0.0
 11
-197.5661988334608
 21
-257.0358734482383
 31
0.0
  0
LINE
  5
463
102
{ACAD_REACTORS
330
4E3
330
4E4
102
}
330
71
100
AcDbEntity
  8
0
  6
Continuous
 62
     2
100
AcDbLine
 10
-194.8036909352428
 20
-257.0358734482383
 30
0.0
 11
-196.206415152991
 21
-257.0358734482383
 31
0.0
  0
LINE
  5
464
102
{ACAD_REACTORS
330
4E3
330
4E4
102
}
330
71
100
AcDbEntity
  8
0
  6
Continuous
 62
     2
100
AcDbLine
 10
-194.8036909352428
 20
-257.0358734482383
 30
0.0
 11
-194.1070999971771
 21
-256.2481416629446
 31
0.0
  0
LINE
  5
465
102
{ACAD_REACTORS
330
4E3
330
4E4
102
}
330
71
100
AcDbEntity
  8
0
  6
Continuous
 62
     2
100
AcDbLine
 10
-193.5059324752843
 20
-253.9820639244271
 30
0.0
 11
-192.1032082575371
 21
-253.9820639244271
 31
0.0
  0
LINE
  5
466
102
{ACAD_REACTORS
330
4E3
330
4E4
102
}
330
71
100
AcDbEntity
  8
0
  6
Continuous
 62
     2
100
AcDbLine
 10
-196.1109917368182
 20
-253.9820639244271
 30
0.0
 11
-194.8084621060507
 21
-255.4550144544633
 31
0.0
  0
LINE
  5
467
102
{ACAD_REACTORS
330
4E3
330
4E4
102
}
330
71
100
AcDbEntity
  8
0
  6
Continuous
 62
     2
100
AcDbLine
 10
-196.206415152991
 20
-257.0358734482383
 30
0.0
 11
-194.8084621060507
 21
-255.4550144544633
 31
0.0
  0
LINE
  5
468
102
{ACAD_REACTORS
330
4ED
330
4EE
102
}
330
71
100
AcDbEntity
  8
0
  6
Continuous
 62
     2
100
AcDbLine
 10
-194.3456585376111
 20
-259.348043516249
 30
0.0
 11
-194.3456585376111
 21
-260.2205605230523
 31
0.0
  0
LINE
  5
469
102
{ACAD_REACTORS
330
4ED
330
4EE
102
}
330
71
100
AcDbEntity
  8
0
  6
Continuous
 62
     2
100
AcDbLine
 10
-195.1153158805725
 20
-258.1265197067251
 30
0.0
 11
-194.0116765810044
 21
-258.1265197067251
 31
0.0
  0
LINE
  5
46A
102
{ACAD_REACTORS
330
4EF
330
4F0
102
}
330
71
100
AcDbEntity
  8
0
  6
Continuous
 62
     2
100
AcDbLine
 10
-210.448360016863
 20
-259.3480435162485
 30
0.0
 11
-210.448360016863
 21
-260.2205605230517
 31
0.0
  0
LINE
  5
46B
102
{ACAD_REACTORS
330
4EF
330
4F0
102
}
330
71
100
AcDbEntity
  8
0
  6
Continuous
 62
     2
100
AcDbLine
 10
-210.448360016863
 20
-258.3882748087656
 30
0.0
 11
-210.448360016863
 21
-257.5157578019623
 31
0.0
  0
LINE
  5
46C
330
71
100
AcDbEntity
  8
1
  6
Continuous
 62
     7
100
AcDbLine
 10
-94.61098443187913
 20
-259.1885639244289
 30
0.0
 11
-187.7557889586305
 21
-259.1885639244289
 31
0.0
  0
LINE
  5
46D
330
71
100
AcDbEntity
  8
1
  6
Continuous
 62
     6
100
AcDbLine
 10
-293.1557889586304
 20
-267.6885639244289
 30
0.0
 11
-338.1109844318804
 21
-267.6885639244289
 31
0.0
  0
LINE
  5
46E
330
71
100
AcDbEntity
  8
1
  6
Continuous
 62
     7
100
AcDbLine
 10
-103.5293927135579
 20
-242.1885639244289
 30
0.0
 11
-103.5293927135579
 21
-250.6885639244289
 31
0.0
  0
LINE
  5
46F
330
71
100
AcDbEntity
  8
1
  6
Continuous
 62
     7
100
AcDbLine
 10
-130.0293927135575
 20
-242.1885639244289
 30
0.0
 11
-130.0293927135575
 21
-250.6885639244289
 31
0.0
  0
LINE
  5
470
330
71
100
AcDbEntity
  8
1
  6
Continuous
 62
     7
100
AcDbLine
 10
-187.7557889586305
 20
-250.6885639244289
 30
0.0
 11
-187.7557889586305
 21
-242.1885639244289
 31
0.0
  0
LINE
  5
471
330
71
100
AcDbEntity
  8
1
  6
Continuous
 62
     7
100
AcDbLine
 10
-224.1557889586304
 20
-250.6885639244289
 30
0.0
 11
-224.1557889586304
 21
-242.1885639244289
 31
0.0
  0
LINE
  5
472
330
71
100
AcDbEntity
  8
1
  6
Continuous
 62
     6
100
AcDbLine
 10
-187.7557889586305
 20
-250.6885639244289
 30
0.0
 11
-94.61098443187873
 21
-250.6885639244289
 31
0.0
  0
LINE
  5
473
330
71
100
AcDbEntity
  8
1
  6
Continuous
 62
     7
100
AcDbLine
 10
-159.8557889586304
 20
-259.188563924429
 30
0.0
 11
-159.8557889586304
 21
-250.6885639244289
 31
0.0
  0
LINE
  5
474
330
71
100
AcDbEntity
  8
1
  6
PHANTOM
 62
     2
100
AcDbLine
 10
-208.6691340720678
 20
-246.563563924429
 30
0.0
 11
-214.1691340720678
 21
-246.563563924429
 31
0.0
  0
LINE
  5
475
330
71
100
AcDbEntity
  8
1
  6
PHANTOM
 62
     2
100
AcDbLine
 10
-211.4191340720678
 20
-243.813563924429
 30
0.0
 11
-211.4191340720678
 21
-249.313563924429
 31
0.0
  0
LINE
  5
476
330
71
100
AcDbEntity
  8
1
  6
DOT_CENTER
 62
     2
100
AcDbLine
 10
-220.1691340720678
 20
-246.563563924429
 30
0.0
 11
-214.6691340720678
 21
-246.563563924429
 31
0.0
  0
ARC
  5
477
102
{ACAD_REACTORS
330
4EF
330
4F0
102
}
330
71
100
AcDbEntity
  8
0
  6
Continuous
 62
     2
100
AcDbCircle
 10
-211.7842879339808
 20
-262.1808401077632
 30
0.0
 40
4.85259686349804
100
AcDbArc
 50
74.02000874164729
 51
84.84185523037502
  0
ARC
  5
478
102
{ACAD_REACTORS
330
4EF
330
4F0
102
}
330
71
100
AcDbEntity
  8
0
  6
Continuous
 62
     2
100
AcDbCircle
 10
-211.2082473252271
 20
-259.0250797518789
 30
0.0
 40
0.9059297849853228
100
AcDbArc
 50
71.55192388185348
 51
113.372277888129
  0
ARC
  5
479
102
{ACAD_REACTORS
330
4EF
330
4F0
102
}
330
71
100
AcDbEntity
  8
0
  6
Continuous
 62
     2
100
AcDbCircle
 10
-211.3646873579291
 20
-259.0732305918458
 30
0.0
 40
0.5115800601948034
100
AcDbArc
 50
208.5214732576956
 51
246.6277221118274
  0
ARC
  5
47A
102
{ACAD_REACTORS
330
4EF
330
4F0
102
}
330
71
100
AcDbEntity
  8
0
  6
Continuous
 62
     2
100
AcDbCircle
 10
-211.2082473252271
 20
-258.7112385731358
 30
0.0
 40
0.9059297849849192
100
AcDbArc
 50
246.627722111871
 51
288.4480761181579
  0
ARC
  5
47B
102
{ACAD_REACTORS
330
4EF
330
4F0
102
}
330
71
100
AcDbEntity
  8
0
  6
Continuous
 62
     2
100
AcDbCircle
 10
-211.6264150588879
 20
-257.4576927970986
 30
0.0
 40
2.227384008972764
100
AcDbArc
 50
288.4480761181326
 51
301.9309089499596
  0
ARC
  5
47C
102
{ACAD_REACTORS
330
4EB
330
4EC
102
}
330
71
100
AcDbEntity
  8
0
  6
Continuous
 62
     2
100
AcDbCircle
 10
-216.8514887914947
 20
-256.7251907681846
 30
0.0
 40
0.9118481501444847
100
AcDbArc
 50
295.3740086781757
 51
64.62599132180671
  0
ARC
  5
47D
102
{ACAD_REACTORS
330
4EB
330
4EC
102
}
330
71
100
AcDbEntity
  8
0
  6
Continuous
 62
     2
100
AcDbCircle
 10
-216.3254460934068
 20
-255.01051387971
 30
0.0
 40
0.3157169230760711
100
AcDbArc
 50
90.18896704254594
 51
180.0
  0
ARC
  5
47E
102
{ACAD_REACTORS
330
4ED
330
4EE
102
}
330
71
100
AcDbEntity
  8
0
  6
Continuous
 62
     2
100
AcDbCircle
 10
-195.1153158805725
 20
-259.0810427135512
 30
0.0
 40
0.9545230068260935
100
AcDbArc
 50
90.0
 51
109.337143219432
  0
ARC
  5
47F
102
{ACAD_REACTORS
330
4ED
330
4EE
102
}
330
71
100
AcDbEntity
  8
0
  6
Continuous
 62
     2
100
AcDbCircle
 10
-194.8846286205948
 20
-258.8681591625073
 30
0.0
 40
0.941059735334906
100
AcDbArc
 50
151.4785267423609
 51
208.5214732576695
  0
ARC
  5
480
102
{ACAD_REACTORS
330
4ED
330
4EE
102
}
330
71
100
AcDbEntity
  8
0
  6
Continuous
 62
     2
100
AcDbCircle
 10
-195.1055458459731
 20
-258.7112385731358
 30
0.0
 40
0.9059297849852801
100
AcDbArc
 50
246.6277221118183
 51
288.4480761180817
  0
ARC
  5
481
102
{ACAD_REACTORS
330
4ED
330
4EE
102
}
330
71
100
AcDbEntity
  8
0
  6
Continuous
 62
     2
100
AcDbCircle
 10
-195.523713579635
 20
-257.4576927970992
 30
0.0
 40
2.227384008972773
100
AcDbArc
 50
288.4480761181333
 51
301.9309089499394
  0
ARC
  5
482
102
{ACAD_REACTORS
330
4ED
330
4EE
102
}
330
71
100
AcDbEntity
  8
0
  6
Continuous
 62
     2
100
AcDbCircle
 10
-195.6815864547278
 20
-255.5554782172509
 30
0.0
 40
4.852596863498853
100
AcDbArc
 50
275.1581447696363
 51
285.9799912583387
  0
ARC
  5
483
102
{ACAD_REACTORS
330
4ED
330
4EE
102
}
330
71
100
AcDbEntity
  8
0
  6
Continuous
 62
     2
100
AcDbCircle
 10
-195.392730359992
 20
-258.7553688004725
 30
0.0
 40
1.639695123940434
100
AcDbArc
 50
195.0618917770993
 51
275.1581447696762
  0
ARC
  5
484
102
{ACAD_REACTORS
330
4E5
330
4E6
102
}
330
71
100
AcDbEntity
  8
0
  6
Continuous
 62
     2
100
AcDbCircle
 10
-211.1209436716831
 20
-255.0374295657608
 30
0.0
 40
1.055365641333736
100
AcDbArc
 50
270.0
 51
90.0
  0
ARC
  5
485
102
{ACAD_REACTORS
330
4EB
330
4EC
102
}
330
71
100
AcDbEntity
  8
0
  6
Continuous
 62
     2
100
AcDbCircle
 10
-218.9009947799385
 20
-259.366791445779
 30
0.0
 40
0.315716923075712
100
AcDbArc
 50
180.0
 51
270.0
  0
ARC
  5
486
102
{ACAD_REACTORS
330
4EB
330
4EC
102
}
330
71
100
AcDbEntity
  8
0
  6
Continuous
 62
     2
100
AcDbCircle
 10
-217.4251615189289
 20
-255.0103364030619
 30
0.0
 40
0.315716923076593
100
AcDbArc
 50
0.0
 51
90.0
  0
ARC
  5
487
102
{ACAD_REACTORS
330
4EB
330
4EC
102
}
330
71
100
AcDbEntity
  8
0
  6
Continuous
 62
     2
100
AcDbCircle
 10
-217.4251615189289
 20
-255.6143610221224
 30
0.0
 40
0.3157169230761203
100
AcDbArc
 50
295.1944106485397
 51
0.0
  0
ARC
  5
488
102
{ACAD_REACTORS
330
4EB
330
4EC
102
}
330
71
100
AcDbEntity
  8
0
  6
Continuous
 62
     2
100
AcDbCircle
 10
-217.4251615189289
 20
-259.366791445779
 30
0.0
 40
0.3157169230767067
100
AcDbArc
 50
270.0
 51
0.0
  0
ARC
  5
489
102
{ACAD_REACTORS
330
4EB
330
4EC
102
}
330
71
100
AcDbEntity
  8
0
  6
Continuous
 62
     2
100
AcDbCircle
 10
-219.494889456685
 20
-254.4063085398291
 30
0.0
 40
0.4242446153837989
100
AcDbArc
 50
90.0
 51
180.0
  0
ARC
  5
48A
102
{ACAD_REACTORS
330
4EB
330
4EC
102
}
330
71
100
AcDbEntity
  8
0
  6
Continuous
 62
     2
100
AcDbCircle
 10
-214.0215773659682
 20
-254.4063085398291
 30
0.0
 40
0.4242446153839126
100
AcDbArc
 50
0.0
 51
90.0
  0
ARC
  5
48B
102
{ACAD_REACTORS
330
4EB
330
4EC
102
}
330
71
100
AcDbEntity
  8
0
  6
Continuous
 62
     2
100
AcDbCircle
 10
-214.0215773659682
 20
-259.9708193090293
 30
0.0
 40
0.4242446153833157
100
AcDbArc
 50
270.0
 51
0.0
  0
ARC
  5
48C
102
{ACAD_REACTORS
330
4E9
330
4EA
102
}
330
71
100
AcDbEntity
  8
0
  6
Continuous
 62
     2
100
AcDbCircle
 10
-204.8031934788767
 20
-255.508968686333
 30
0.0
 40
0.7717997786796198
100
AcDbArc
 50
321.8795802028454
 51
38.12041979715956
  0
ARC
  5
48D
102
{ACAD_REACTORS
330
4E9
330
4EA
102
}
330
71
100
AcDbEntity
  8
0
  6
Continuous
 62
     2
100
AcDbCircle
 10
-204.6034534425305
 20
-255.6656998644534
 30
0.0
 40
0.5179085730134372
100
AcDbArc
 50
218.1204197971511
 51
321.8795802028566
  0
ARC
  5
48E
102
{ACAD_REACTORS
330
4E7
330
4E8
102
}
330
71
100
AcDbEntity
  8
0
  6
Continuous
 62
     2
100
AcDbCircle
 10
-208.2834610314907
 20
-258.8681591625073
 30
0.0
 40
1.458034083651977
100
AcDbArc
 50
297.5481481757016
 51
62.45185182429947
  0
ARC
  5
48F
102
{ACAD_REACTORS
330
4E7
330
4E8
102
}
330
71
100
AcDbEntity
  8
0
  6
Continuous
 62
     2
100
AcDbCircle
 10
-208.8453408151573
 20
-258.8681591625073
 30
0.0
 40
1.458034083651515
100
AcDbArc
 50
117.5481481756619
 51
242.451851824337
  0
ARC
  5
490
102
{ACAD_REACTORS
330
4E7
330
4E8
102
}
330
71
100
AcDbEntity
  8
0
  6
Continuous
 62
     2
100
AcDbCircle
 10
-208.564400923324
 20
-259.4067341728101
 30
0.0
 40
2.065479772208593
100
AcDbArc
 50
62.45185182430674
 51
117.548148175666
  0
ARC
  5
491
102
{ACAD_REACTORS
330
4E7
330
4E8
102
}
330
71
100
AcDbEntity
  8
0
  6
Continuous
 62
     2
100
AcDbCircle
 10
-208.564400923324
 20
-258.329584152204
 30
0.0
 40
2.065479772208483
100
AcDbArc
 50
242.4518518243399
 51
297.5481481756875
  0
ARC
  5
492
102
{ACAD_REACTORS
330
4E9
330
4EA
102
}
330
71
100
AcDbEntity
  8
0
  6
Continuous
 62
     2
100
AcDbCircle
 10
-204.4037134061842
 20
-255.508968686333
 30
0.0
 40
0.7717997786796724
100
AcDbArc
 50
141.8795802028404
 51
218.1204197971546
  0
ARC
  5
493
102
{ACAD_REACTORS
330
4E9
330
4EA
102
}
330
71
100
AcDbEntity
  8
0
  6
Continuous
 62
     2
100
AcDbCircle
 10
-204.6034534425305
 20
-255.3522375082125
 30
0.0
 40
0.5179085730135266
100
AcDbArc
 50
38.12041979714334
 51
141.8795802028489
  0
ARC
  5
494
102
{ACAD_REACTORS
330
4EB
330
4EC
102
}
330
71
100
AcDbEntity
  8
0
  6
Continuous
 62
     2
100
AcDbCircle
 10
-219.494889456685
 20
-259.9708193090293
 30
0.0
 40
0.4242446153828041
100
AcDbArc
 50
180.0
 51
270.0
  0
ARC
  5
495
102
{ACAD_REACTORS
330
4EB
330
4EC
102
}
330
71
100
AcDbEntity
  8
0
  6
Continuous
 62
     2
100
AcDbCircle
 10
-217.4251615189289
 20
-257.8360205142474
 30
0.0
 40
0.315716923076593
100
AcDbArc
 50
0.0
 51
64.80558935146468
  0
ARC
  5
496
102
{ACAD_REACTORS
330
4EB
330
4EC
102
}
330
71
100
AcDbEntity
  8
0
  6
Continuous
 62
     2
100
AcDbCircle
 10
-216.9025770713539
 20
-256.7251907681846
 30
0.0
 40
0.9118975235575889
100
AcDbArc
 50
115.194410648529
 51
244.8055893514878
  0
ARC
  5
497
102
{ACAD_REACTORS
330
4EB
330
4EC
102
}
330
71
100
AcDbEntity
  8
0
  6
Continuous
 62
     2
100
AcDbCircle
 10
-218.9009947799385
 20
-255.0103364030619
 30
0.0
 40
0.3157169230761951
100
AcDbArc
 50
90.0
 51
180.0
  0
ARC
  5
498
102
{ACAD_REACTORS
330
4E5
330
4E6
102
}
330
71
100
AcDbEntity
  8
0
  6
Continuous
 62
     2
100
AcDbCircle
 10
-211.5624161979215
 20
-254.9980335945383
 30
0.0
 40
0.3528638246710898
100
AcDbArc
 50
270.0
 51
90.0
  0
ARC
  5
499
102
{ACAD_REACTORS
330
4E9
330
4EA
102
}
330
71
100
AcDbEntity
  8
0
  6
Continuous
 62
     2
100
AcDbCircle
 10
-204.8197254526957
 20
-255.508968686333
 30
0.0
 40
1.526904761905882
100
AcDbArc
 50
90.0
 51
270.0
  0
ARC
  5
49A
102
{ACAD_REACTORS
330
4ED
330
4EE
102
}
330
71
100
AcDbEntity
  8
0
  6
Continuous
 62
     2
100
AcDbCircle
 10
-195.392730359992
 20
-258.9809495245422
 30
0.0
 40
1.639695123940214
100
AcDbArc
 50
90.0
 51
164.938108222895
  0
ARC
  5
49B
102
{ACAD_REACTORS
330
4ED
330
4EE
102
}
330
71
100
AcDbEntity
  8
0
  6
Continuous
 62
     2
100
AcDbCircle
 10
-195.8118582034536
 20
-258.8681591625073
 30
0.0
 40
1.205656168393002
100
AcDbArc
 50
164.9381082229028
 51
195.0618917770946
  0
ARC
  5
49C
102
{ACAD_REACTORS
330
4ED
330
4EE
102
}
330
71
100
AcDbEntity
  8
0
  6
Continuous
 62
     2
100
AcDbCircle
 10
-195.2619858786762
 20
-259.0732305918458
 30
0.0
 40
0.5115800601960215
100
AcDbArc
 50
208.5214732576866
 51
246.6277221118449
  0
ARC
  5
49D
102
{ACAD_REACTORS
330
4ED
330
4EE
102
}
330
71
100
AcDbEntity
  8
0
  6
Continuous
 62
     2
100
AcDbCircle
 10
-195.2619858786762
 20
-258.6630877331683
 30
0.0
 40
0.5115800601944143
100
AcDbArc
 50
109.3371432194853
 51
151.4785267424197
  0
ARC
  5
49E
102
{ACAD_REACTORS
330
4EB
330
4EC
102
}
330
71
100
AcDbEntity
  8
0
  6
Continuous
 62
     2
100
AcDbCircle
 10
-216.3254460934068
 20
-258.4161837748481
 30
0.0
 40
0.315716923076792
100
AcDbArc
 50
180.0
 51
269.8110329574542
  0
ARC
  5
49F
102
{ACAD_REACTORS
330
4EB
330
4EC
102
}
330
71
100
AcDbEntity
  8
0
  6
Continuous
 62
     2
100
AcDbCircle
 10
-216.3198299580968
 20
-256.7133488272791
 30
0.0
 40
2.018561131933266
100
AcDbArc
 50
269.8110329575858
 51
90.18896704241416
  0
ARC
  5
4A0
102
{ACAD_REACTORS
330
4EB
330
4EC
102
}
330
71
100
AcDbEntity
  8
0
  6
Continuous
 62
     2
100
AcDbCircle
 10
-216.3254460934068
 20
-255.6160491682168
 30
0.0
 40
0.315716923076792
100
AcDbArc
 50
180.0
 51
244.6259913216482
  0
ARC
  5
4A1
102
{ACAD_REACTORS
330
4EB
330
4EC
102
}
330
71
100
AcDbEntity
  8
0
  6
Continuous
 62
     2
100
AcDbCircle
 10
-216.3254460934068
 20
-257.834332368153
 30
0.0
 40
0.3157169230765328
100
AcDbArc
 50
115.3740086783519
 51
180.0
  0
ARC
  5
4A2
102
{ACAD_REACTORS
330
4EF
330
4F0
102
}
330
71
100
AcDbEntity
  8
0
  6
Continuous
 62
     2
100
AcDbCircle
 10
-211.4954318392449
 20
-258.9809495245422
 30
0.0
 40
1.639695123940507
100
AcDbArc
 50
84.84185523036236
 51
164.9381082228864
  0
ARC
  5
4A3
102
{ACAD_REACTORS
330
4EF
330
4F0
102
}
330
71
100
AcDbEntity
  8
0
  6
Continuous
 62
     2
100
AcDbCircle
 10
-211.9145596827077
 20
-258.8681591625073
 30
0.0
 40
1.205656168390944
100
AcDbArc
 50
164.9381082228765
 51
195.0618917770948
  0
ARC
  5
4A4
102
{ACAD_REACTORS
330
4EF
330
4F0
102
}
330
71
100
AcDbEntity
  8
0
  6
Continuous
 62
     2
100
AcDbCircle
 10
-211.4954318392449
 20
-258.7553688004725
 30
0.0
 40
1.63969512393938
100
AcDbArc
 50
195.0618917770886
 51
275.1581447696396
  0
ARC
  5
4A5
102
{ACAD_REACTORS
330
4EF
330
4F0
102
}
330
71
100
AcDbEntity
  8
0
  6
Continuous
 62
     2
100
AcDbCircle
 10
-211.7842879339808
 20
-255.5554782172509
 30
0.0
 40
4.852596863498138
100
AcDbArc
 50
275.1581447696249
 51
285.979991258353
  0
ARC
  5
4A6
102
{ACAD_REACTORS
330
4EF
330
4F0
102
}
330
71
100
AcDbEntity
  8
0
  6
Continuous
 62
     2
100
AcDbCircle
 10
-210.9873300998488
 20
-258.8681591625073
 30
0.0
 40
0.9410597353332545
100
AcDbArc
 50
151.4785267422669
 51
208.5214732577057
  0
ARC
  5
4A7
102
{ACAD_REACTORS
330
4EF
330
4F0
102
}
330
71
100
AcDbEntity
  8
0
  6
Continuous
 62
     2
100
AcDbCircle
 10
-211.3646873579291
 20
-258.6630877331683
 30
0.0
 40
0.511580060194904
100
AcDbArc
 50
113.3722778881979
 51
151.4785267423044
  0
ARC
  5
4A8
102
{ACAD_REACTORS
330
4EF
330
4F0
102
}
330
71
100
AcDbEntity
  8
0
  6
Continuous
 62
     2
100
AcDbCircle
 10
-211.6264150588879
 20
-260.2786255279155
 30
0.0
 40
2.227384008973501
100
AcDbArc
 50
58.06909105004111
 51
71.55192388186745
  0
ARC
  5
4A9
102
{ACAD_REACTORS
330
4E7
330
4E8
102
}
330
71
100
AcDbEntity
  8
0
  6
Continuous
 62
     2
100
AcDbCircle
 10
-208.564400923324
 20
-258.7114279843868
 30
0.0
 40
0.5179085730132297
100
AcDbArc
 50
38.12041979713714
 51
141.8795802028687
  0
ARC
  5
4AA
102
{ACAD_REACTORS
330
4E7
330
4E8
102
}
330
71
100
AcDbEntity
  8
0
  6
Continuous
 62
     2
100
AcDbCircle
 10
-208.3646608869779
 20
-258.8681591625073
 30
0.0
 40
0.7717997786794106
100
AcDbArc
 50
141.8795802028413
 51
218.1204197971687
  0
ARC
  5
4AB
102
{ACAD_REACTORS
330
4E7
330
4E8
102
}
330
71
100
AcDbEntity
  8
0
  6
Continuous
 62
     2
100
AcDbCircle
 10
-208.564400923324
 20
-259.0248903406273
 30
0.0
 40
0.5179085730137529
100
AcDbArc
 50
218.1204197971956
 51
321.8795802027985
  0
ARC
  5
4AC
102
{ACAD_REACTORS
330
4E7
330
4E8
102
}
330
71
100
AcDbEntity
  8
0
  6
Continuous
 62
     2
100
AcDbCircle
 10
-208.7641409596704
 20
-258.8681591625073
 30
0.0
 40
0.7717997786796947
100
AcDbArc
 50
321.8795802028417
 51
38.12041979714831
  0
CIRCLE
  5
4AD
330
71
100
AcDbEntity
  8
1
  6
Continuous
 62
     2
100
AcDbCircle
 10
-211.4191340720678
 20
-246.563563924429
 30
0.0
 40
2.5
  0
CIRCLE
  5
4AE
330
71
100
AcDbEntity
  8
1
  6
Continuous
 62
     2
100
AcDbCircle
 10
-211.4191340720678
 20
-246.563563924429
 30
0.0
 40
1.249999999999915
  0
CIRCLE
  5
4AF
102
{ACAD_REACTORS
330
4EB
330
4EC
102
}
330
71
100
AcDbEntity
  8
0
  6
Continuous
 62
     2
100
AcDbCircle
 10
-216.8753038061675
 20
-256.7251907681846
 30
0.0
 40
0.4709789327785074
  0
MTEXT
  5
4B0
330
71
100
AcDbEntity
  8
1
 62
     3
100
AcDbMText
 10
-381.6059166458086
 20
-80.89725576913011
 30
0.0
 40
1.8
 41
0.0
 71
     7
 72
     1
  3
Weitergabe sowie Vervielf\U+00e4ltigung dieses Dokuments, Verwertung und \PMitteilung seines Inhalts sind verboten, soweit nicht ausdr\U+00fccklich gestattet. \PZuwiderhandlungen verpflichten zu Schadenersatz. Alle Rechte f\U+00fcr den Fall\Pder Pat
  1
ent-, Gebrauchsmuster- oder Designeintragung vorbehalten.
  7
CONVERTER_11
 73
     1
 44
0.99639855942377
  0
MTEXT
  5
4B1
330
71
100
AcDbEntity
  8
1
 62
     3
100
AcDbMText
 10
-198.7528068070205
 20
-80.89725576913011
 30
0.0
 40
1.8
 41
0.0
 71
     7
 72
     1
  3
Transfer or duplication of this document as well as the utilisation or\Pcommunication of its content are not permitted unless express consent\Pis granted. Violations give rise to claims for damages. All rights reserved\Pin case of patent, utility mo
  1
del or design patent registrations.
  7
CONVERTER_11
 73
     1
 44
0.99639855942377
  0
TEXT
  5
4B2
330
71
100
AcDbEntity
  8
1
 62
     2
100
AcDbText
 10
-204.9557889586306
 20
-266.4475811394206
 30
0.0
 40
1.8
  1
of
 41
0.9
  7
CONVERTER_11
100
AcDbText
  0
TEXT
  5
4B3
330
71
100
AcDbEntity
  8
1
 62
     2
100
AcDbText
 10
-223.1557889586304
 20
-266.4475811394206
 30
0.0
 40
1.8
  1
page
 41
0.9
  7
CONVERTER_11
100
AcDbText
  0
TEXT
  5
4B4
330
71
100
AcDbEntity
  8
1
 62
     2
100
AcDbText
 10
-214.5095239882884
 20
-266.4878125782309
 30
0.0
 40
1.8
  1
1
 41
0.9
  7
CONVERTER_11
100
AcDbText
  0
TEXT
  5
4B5
330
71
100
AcDbEntity
  8
1
 62
     2
100
AcDbText
 10
-199.7204801488169
 20
-266.438563924429
 30
0.0
 40
1.8
  1
1
 41
0.9
  7
CONVERTER_11
100
AcDbText
  0
MTEXT
  5
4B7
330
71
100
AcDbEntity
  8
1
 62
     7
100
AcDbMText
 10
-141.1833866952549
 20
-264.4385639244287
 30
0.0
 40
3.0
 41
0.0
 71
     5
 72
     1
  1
URELG 2
  7
CONVERTER_12
 73
     1
 44
1.20048019207683
  0
MTEXT
  5
4B8
330
71
100
AcDbEntity
  8
1
 62
     2
100
AcDbMText
 10
-186.7557889586305
 20
-260.1885639244289
 30
0.0
 40
1.8
 41
0.0
 71
     1
 72
     1
  1
description
  7
CONVERTER_11
 73
     1
 44
1.20048019207683
  0
MTEXT
  5
4B9
330
71
100
AcDbEntity
  8
1
 62
     3
100
AcDbMText
 10
-197.9557889586305
 20
-246.5635639244289
 30
0.0
 40
2.5
 41
0.0
 71
     5
 72
     1
  1
DIN A4
  7
CONVERTER_11
 73
     1
 44
1.20048019207683
  0
MTEXT
  5
4BA
330
71
100
AcDbEntity
  8
1
 62
     7
100
AcDbMText
 10
-384.1109844318795
 20
-245.1885639244289
 30
0.0
 40
3.5
 41
0.0
 71
     5
 72
     1
  1
D
  7
CONVERTER_11
 73
     1
 44
1.20048019207683
  0
MTEXT
  5
4BB
330
71
100
AcDbEntity
  8
1
 62
     7
100
AcDbMText
 10
-384.1109844318795
 20
-192.6885639244289
 30
0.0
 40
3.5
 41
0.0
 71
     5
 72
     1
  1
C
  7
CONVERTER_11
 73
     1
 44
1.20048019207683
  0
MTEXT
  5
4BC
330
71
100
AcDbEntity
  8
1
 62
     7
100
AcDbMText
 10
-384.1109844318795
 20
-142.6885639244289
 30
0.0
 40
3.5
 41
0.0
 71
     5
 72
     1
  1
B
  7
CONVERTER_11
 73
     1
 44
1.20048019207683
  0
MTEXT
  5
4BD
330
71
100
AcDbEntity
  8
1
 62
     7
100
AcDbMText
 10
-384.1109844318795
 20
-90.1885639244289
 30
0.0
 40
3.5
 41
0.0
 71
     5
 72
     1
  1
A
  7
CONVERTER_11
 73
     1
 44
1.20048019207683
  0
MTEXT
  5
4BE
330
71
100
AcDbEntity
  8
1
 62
     7
100
AcDbMText
 10
-113.8609844318812
 20
-270.188563924429
 30
0.0
 40
3.5
 41
0.0
 71
     5
 72
     1
  1
6
  7
CONVERTER_11
 73
     1
 44
1.20048019207683
  0
MTEXT
  5
4BF
330
71
100
AcDbEntity
  8
1
 62
     7
100
AcDbMText
 10
-163.1109844318804
 20
-270.188563924429
 30
0.0
 40
3.5
 41
0.0
 71
     5
 72
     1
  1
5
  7
CONVERTER_11
 73
     1
 44
1.20048019207683
  0
MTEXT
  5
4C0
330
71
100
AcDbEntity
  8
1
 62
     7
100
AcDbMText
 10
-213.1109844318805
 20
-270.188563924429
 30
0.0
 40
3.5
 41
0.0
 71
     5
 72
     1
  1
4
  7
CONVERTER_11
 73
     1
 44
1.20048019207683
  0
MTEXT
  5
4C1
330
71
100
AcDbEntity
  8
1
 62
     7
100
AcDbMText
 10
-263.1109844318804
 20
-270.188563924429
 30
0.0
 40
3.5
 41
0.0
 71
     5
 72
     1
  1
3
  7
CONVERTER_11
 73
     1
 44
1.20048019207683
  0
MTEXT
  5
4C2
330
71
100
AcDbEntity
  8
1
 62
     7
100
AcDbMText
 10
-313.1109844318804
 20
-270.188563924429
 30
0.0
 40
3.5
 41
0.0
 71
     5
 72
     1
  1
2
  7
CONVERTER_11
 73
     1
 44
1.20048019207683
  0
MTEXT
  5
4C3
330
71
100
AcDbEntity
  8
1
 62
     7
100
AcDbMText
 10
-362.36098443188
 20
-270.188563924429
 30
0.0
 40
3.5
 41
0.0
 71
     5
 72
     1
  1
1
  7
CONVERTER_11
 73
     1
 44
1.20048019207683
  0
MTEXT
  5
4C4
330
71
100
AcDbEntity
  8
1
 62
     7
100
AcDbMText
 10
-92.11098443188143
 20
-245.1885639244289
 30
0.0
 40
3.5
 41
0.0
 71
     5
 72
     1
  1
D
  7
CONVERTER_11
 73
     1
 44
1.20048019207683
  0
MTEXT
  5
4C5
330
71
100
AcDbEntity
  8
1
 62
     7
100
AcDbMText
 10
-92.11098443188143
 20
-142.688563924427
 30
0.0
 40
3.5
 41
0.0
 71
     5
 72
     1
  1
B
  7
CONVERTER_11
 73
     1
 44
1.20048019207683
  0
MTEXT
  5
4C6
330
71
100
AcDbEntity
  8
1
 62
     7
100
AcDbMText
 10
-92.11098443188143
 20
-90.1885639244289
 30
0.0
 40
3.5
 41
0.0
 71
     5
 72
     1
  1
A
  7
CONVERTER_11
 73
     1
 44
1.20048019207683
  0
MTEXT
  5
4C7
330
71
100
AcDbEntity
  8
1
 62
     7
100
AcDbMText
 10
-92.11098443188143
 20
-192.688563924427
 30
0.0
 40
3.5
 41
0.0
 71
     5
 72
     1
  1
C
  7
CONVERTER_11
 73
     1
 44
1.20048019207683
  0
MTEXT
  5
4C8
330
71
100
AcDbEntity
  8
1
 62
     2
100
AcDbMText
 10
-258.593803683678
 20
-254.938563924429
 30
0.0
 40
2.0
 41
0.0
 71
     5
 72
     1
  1
General Information\P- Simplified representation\P- Document excluded from change process\P- Linear dimensions [mm]
  7
CONVERTER_11
 73
     1
 44
1.20048019207683
  0
TEXT
  5
4C9
330
71
100
AcDbEntity
  8
1
 62
     7
100
AcDbText
 10
-186.2557889586307
 20
-257.888563924429
 30
0.0
 40
2.5
  1
2820262
 41
0.81
  7
CONVERTER_12
100
AcDbText
  0
MTEXT
  5
4CA
330
71
100
AcDbEntity
  8
1
 62
     2
100
AcDbMText
 10
-186.6557889586304
 20
-251.6885639244289
 30
0.0
 40
1.8
 41
0.0
 71
     1
 72
     1
  1
ident.-No.
  7
CONVERTER_11
 73
     1
 44
1.20048019207683
  0
MTEXT
  5
4CB
330
71
100
AcDbEntity
  8
1
 62
     2
100
AcDbMText
 10
-102.4293927135577
 20
-243.1885639244289
 30
0.0
 40
1.8
 41
0.0
 71
     1
 72
     1
  1
scale
  7
CONVERTER_11
 73
     1
 44
1.20048019207683
  0
MTEXT
  5
4CD
330
71
100
AcDbEntity
  8
1
 62
     3
100
AcDbMText
 10
-99.07018857271812
 20
-249.3885639244288
 30
0.0
 40
2.5
 41
0.0
 71
     8
 72
     1
  1
1:1
  7
CONVERTER_13
 73
     1
 44
1.32052821128451
  0
TEXT
  5
4CE
330
71
100
AcDbEntity
  8
1
 62
     7
100
AcDbText
 10
-186.6557889586304
 20
-249.388563924429
 30
0.0
 40
2.5
  1
01116711
 41
0.81
  7
CONVERTER_12
100
AcDbText
  0
MTEXT
  5
4D0
330
71
100
AcDbEntity
  8
1
 62
     2
100
AcDbMText
 10
-186.6557889586304
 20
-243.1885639244289
 30
0.0
 40
1.8
 41
0.0
 71
     1
 72
     1
  1
document-No. / RI
  7
CONVERTER_14
 73
     1
 44
1.32052821128451
  0
TEXT
  5
4D1
330
71
100
AcDbEntity
  8
1
 62
     3
100
AcDbText
 10
-158.8557889586304
 20
-257.888563924429
 30
0.0
 40
2.5
  1
TECDOC 2D_Productdrawing
 41
0.81
  7
CONVERTER_12
100
AcDbText
  0
MTEXT
  5
4D2
330
71
100
AcDbEntity
  8
1
 62
     2
100
AcDbMText
 10
-158.8557889586304
 20
-251.688563924429
 30
0.0
 40
1.8
 41
0.0
 71
     1
 72
     1
  1
document-type
  7
CONVERTER_11
 73
     1
 44
1.20048019207683
  0
MTEXT
  5
4D3
330
71
100
AcDbEntity
  8
1
 62
     2
100
AcDbMText
 10
-129.0293927135575
 20
-243.188563924429
 30
0.0
 40
1.8
 41
0.0
 71
     1
 72
     1
  1
date
  7
CONVERTER_11
 73
     1
 44
1.32052821128451
  0
TEXT
  5
4D4
330
71
100
AcDbEntity
  8
1
 62
     3
100
AcDbText
 10
-129.0293927135575
 20
-249.388563924429
 30
0.0
 40
2.5
  1
12.12.2018
 41
0.81
  7
CONVERTER_12
100
AcDbText
  0
TEXT
  5
4D5
330
71
100
AcDbEntity
  8
1
 62
     7
100
AcDbText
 10
-166.6258767395746
 20
-249.388563924429
 30
0.0
 40
2.5
  1
00
 41
0.81
  7
CONVERTER_12
100
AcDbText
  0
TEXT
  5
4D6
330
71
100
AcDbEntity
  8
1
 62
     7
100
AcDbText
 10
-168.7822412366166
 20
-249.388563924429
 30
0.0
 40
2.5
  1
/
 41
0.9
  7
CONVERTER_11
100
AcDbText
  0
HATCH
  5
4D7
330
71
100
AcDbEntity
  8
1
  6
Continuous
 62
     2
100
AcDbHatch
 10
0.0
 20
0.0
 30
0.0
210
0.0
220
0.0
230
1.0
  2
_USER
 70
     0
 71
     1
 91
        1
 92
        1
 93
       12
 72
     1
 10
-206.4882882456693
 20
-257.0358734482383
 11
-207.6810809478357
 21
-257.0358734482383
 72
     1
 10
-207.6810809478357
 20
-257.0358734482383
 11
-207.6810809478357
 21
-255.9016013393945
 72
     1
 10
-207.6810809478357
 20
-255.9016013393945
 11
-208.7307385257432
 21
-255.9016013393945
 72
     1
 10
-208.7307385257432
 20
-255.9016013393945
 11
-208.7307385257432
 21
-257.0358734482383
 72
     1
 10
-208.7307385257432
 20
-257.0358734482383
 11
-209.9235312279098
 21
-257.0358734482383
 72
     1
 10
-209.9235312279098
 20
-257.0358734482383
 11
-209.9235312279098
 21
-253.9820639244271
 72
     1
 10
-209.9235312279098
 20
-253.9820639244271
 11
-208.7307385257432
 21
-253.9820639244271
 72
     1
 10
-208.7307385257432
 20
-253.9820639244271
 11
-208.7307385257432
 21
-255.0508972577617
 72
     1
 10
-208.7307385257432
 20
-255.0508972577617
 11
-207.6810809478357
 21
-255.0508972577617
 72
     1
 10
-207.6810809478357
 20
-255.0508972577617
 11
-207.6810809478357
 21
-253.9820639244271
 72
     1
 10
-207.6810809478357
 20
-253.9820639244271
 11
-206.4882882456693
 21
-253.9820639244271
 72
     1
 10
-206.4882882456693
 20
-253.9820639244271
 11
-206.4882882456693
 21
-257.0358734482383
 97
       12
330
444
330
445
330
42F
330
42E
330
42D
330
441
330
42C
330
442
330
443
330
42B
330
42A
330
429
 75
     1
 76
     0
 52
45.0
 41
0.1
 77
     0
 78
     1
 53
45.0
 43
0.0
 44
0.0
 45
-0.0707106781186548
 46
0.0707106781186548
 79
     0
 98
        1
 10
0.0
 20
0.0
  0
HATCH
  5
4D8
330
71
100
AcDbEntity
  8
1
  6
Continuous
 62
     2
100
AcDbHatch
 10
0.0
 20
0.0
 30
0.0
210
0.0
220
0.0
230
1.0
  2
_USER
 70
     0
 71
     1
 91
        1
 92
        1
 93
       12
 72
     1
 10
-206.4882882456693
 20
-257.0358734482383
 11
-207.6810809478357
 21
-257.0358734482383
 72
     1
 10
-207.6810809478357
 20
-257.0358734482383
 11
-207.6810809478357
 21
-255.9016013393945
 72
     1
 10
-207.6810809478357
 20
-255.9016013393945
 11
-208.7307385257432
 21
-255.9016013393945
 72
     1
 10
-208.7307385257432
 20
-255.9016013393945
 11
-208.7307385257432
 21
-257.0358734482383
 72
     1
 10
-208.7307385257432
 20
-257.0358734482383
 11
-209.9235312279098
 21
-257.0358734482383
 72
     1
 10
-209.9235312279098
 20
-257.0358734482383
 11
-209.9235312279098
 21
-253.9820639244271
 72
     1
 10
-209.9235312279098
 20
-253.9820639244271
 11
-208.7307385257432
 21
-253.9820639244271
 72
     1
 10
-208.7307385257432
 20
-253.9820639244271
 11
-208.7307385257432
 21
-255.0508972577617
 72
     1
 10
-208.7307385257432
 20
-255.0508972577617
 11
-207.6810809478357
 21
-255.0508972577617
 72
     1
 10
-207.6810809478357
 20
-255.0508972577617
 11
-207.6810809478357
 21
-253.9820639244271
 72
     1
 10
-207.6810809478357
 20
-253.9820639244271
 11
-206.4882882456693
 21
-253.9820639244271
 72
     1
 10
-206.4882882456693
 20
-253.9820639244271
 11
-206.4882882456693
 21
-257.0358734482383
 97
       12
330
444
330
445
330
42F
330
42E
330
42D
330
441
330
42C
330
442
330
443
330
42B
330
42A
330
429
 75
     1
 76
     0
 52
45.0
 41
0.1
 77
     0
 78
     1
 53
45.0
 43
0.0
 44
0.0
 45
-0.0707106781186548
 46
0.0707106781186548
 79
     0
 98
        1
 10
0.0
 20
0.0
  0
HATCH
  5
4D9
330
71
100
AcDbEntity
  8
1
  6
Continuous
 62
     2
100
AcDbHatch
 10
0.0
 20
0.0
 30
0.0
210
0.0
220
0.0
230
1.0
  2
_USER
 70
     0
 71
     1
 91
        1
 92
        1
 93
       10
 72
     1
 10
-204.245988896481
 20
-258.6500299108066
 11
-205.4864933067339
 21
-257.3412544006015
 72
     1
 10
-205.4864933067339
 20
-257.3412544006015
 11
-206.6792860089015
 21
-257.3412544006015
 72
     1
 10
-206.6792860089015
 20
-257.3412544006015
 11
-206.6792860089015
 21
-260.3950639244126
 72
     1
 10
-206.6792860089015
 20
-260.3950639244126
 11
-205.4864933067339
 21
-260.3950639244126
 72
     1
 10
-205.4864933067339
 20
-260.3950639244126
 11
-205.4864933067339
 21
-259.086288414208
 72
     1
 10
-205.4864933067339
 20
-259.086288414208
 11
-204.245988896481
 21
-260.3950639244126
 72
     1
 10
-204.245988896481
 20
-260.3950639244126
 11
-203.0531961943146
 21
-260.3950639244126
 72
     1
 10
-203.0531961943146
 20
-260.3950639244126
 11
-203.0531961943146
 21
-257.3412544006015
 72
     1
 10
-203.0531961943146
 20
-257.3412544006015
 11
-204.245988896481
 21
-257.3412544006015
 72
     1
 10
-204.245988896481
 20
-257.3412544006015
 11
-204.245988896481
 21
-258.6500299108066
 97
       10
330
452
330
422
330
421
330
424
330
44D
330
44E
330
423
330
44F
330
450
330
451
 75
     1
 76
     0
 52
45.0
 41
0.1
 77
     0
 78
     1
 53
45.0
 43
0.0
 44
0.0
 45
-0.0707106781186548
 46
0.0707106781186548
 79
     0
 98
        1
 10
0.0
 20
0.0
  0
HATCH
  5
4DA
330
71
100
AcDbEntity
  8
1
  6
Continuous
 62
     2
100
AcDbHatch
 10
0.0
 20
0.0
 30
0.0
210
0.0
220
0.0
230
1.0
  2
_USER
 70
     0
 71
     1
 91
        1
 92
        1
 93
       10
 72
     1
 10
-204.245988896481
 20
-258.6500299108066
 11
-205.4864933067339
 21
-257.3412544006015
 72
     1
 10
-205.4864933067339
 20
-257.3412544006015
 11
-206.6792860089015
 21
-257.3412544006015
 72
     1
 10
-206.6792860089015
 20
-257.3412544006015
 11
-206.6792860089015
 21
-260.3950639244126
 72
     1
 10
-206.6792860089015
 20
-260.3950639244126
 11
-205.4864933067339
 21
-260.3950639244126
 72
     1
 10
-205.4864933067339
 20
-260.3950639244126
 11
-205.4864933067339
 21
-259.086288414208
 72
     1
 10
-205.4864933067339
 20
-259.086288414208
 11
-204.245988896481
 21
-260.3950639244126
 72
     1
 10
-204.245988896481
 20
-260.3950639244126
 11
-203.0531961943146
 21
-260.3950639244126
 72
     1
 10
-203.0531961943146
 20
-260.3950639244126
 11
-203.0531961943146
 21
-257.3412544006015
 72
     1
 10
-203.0531961943146
 20
-257.3412544006015
 11
-204.245988896481
 21
-257.3412544006015
 72
     1
 10
-204.245988896481
 20
-257.3412544006015
 11
-204.245988896481
 21
-258.6500299108066
 97
       10
330
452
330
422
330
421
330
424
330
44D
330
44E
330
423
330
44F
330
450
330
451
 75
     1
 76
     0
 52
45.0
 41
0.1
 77
     0
 78
     1
 53
45.0
 43
0.0
 44
0.0
 45
-0.0707106781186548
 46
0.0707106781186548
 79
     0
 98
        1
 10
0.0
 20
0.0
  0
HATCH
  5
4DB
330
71
100
AcDbEntity
  8
1
  6
Continuous
 62
     2
100
AcDbHatch
 10
0.0
 20
0.0
 30
0.0
210
0.0
220
0.0
230
1.0
  2
_USER
 70
     0
 71
     1
 91
        1
 92
        1
 93
       10
 72
     1
 10
-198.9975500760613
 20
-255.2908394346323
 11
-200.2380544863153
 21
-253.9820639244271
 72
     1
 10
-200.2380544863153
 20
-253.9820639244271
 11
-201.4308471884818
 21
-253.9820639244271
 72
     1
 10
-201.4308471884818
 20
-253.9820639244271
 11
-201.4308471884818
 21
-257.0358734482383
 72
     1
 10
-201.4308471884818
 20
-257.0358734482383
 11
-200.2380544863153
 21
-257.0358734482383
 72
     1
 10
-200.2380544863153
 20
-257.0358734482383
 11
-200.2380544863153
 21
-255.7270979380336
 72
     1
 10
-200.2380544863153
 20
-255.7270979380336
 11
-198.9975500760613
 21
-257.0358734482383
 72
     1
 10
-198.9975500760613
 20
-257.0358734482383
 11
-197.8047573738947
 21
-257.0358734482383
 72
     1
 10
-197.8047573738947
 20
-257.0358734482383
 11
-197.8047573738947
 21
-253.9820639244271
 72
     1
 10
-197.8047573738947
 20
-253.9820639244271
 11
-198.9975500760613
 21
-253.9820639244271
 72
     1
 10
-198.9975500760613
 20
-253.9820639244271
 11
-198.9975500760613
 21
-255.2908394346323
 97
       10
330
457
330
41F
330
41E
330
458
330
41D
330
453
330
454
330
455
330
456
330
420
 75
     1
 76
     0
 52
45.0
 41
0.1
 77
     0
 78
     1
 53
45.0
 43
0.0
 44
0.0
 45
-0.0707106781186548
 46
0.0707106781186548
 79
     0
 98
        1
 10
0.0
 20
0.0
  0
HATCH
  5
4DC
330
71
100
AcDbEntity
  8
1
  6
Continuous
 62
     2
100
AcDbHatch
 10
0.0
 20
0.0
 30
0.0
210
0.0
220
0.0
230
1.0
  2
_USER
 70
     0
 71
     1
 91
        1
 92
        1
 93
       10
 72
     1
 10
-198.9975500760613
 20
-255.2908394346323
 11
-200.2380544863153
 21
-253.9820639244271
 72
     1
 10
-200.2380544863153
 20
-253.9820639244271
 11
-201.4308471884818
 21
-253.9820639244271
 72
     1
 10
-201.4308471884818
 20
-253.9820639244271
 11
-201.4308471884818
 21
-257.0358734482383
 72
     1
 10
-201.4308471884818
 20
-257.0358734482383
 11
-200.2380544863153
 21
-257.0358734482383
 72
     1
 10
-200.2380544863153
 20
-257.0358734482383
 11
-200.2380544863153
 21
-255.7270979380336
 72
     1
 10
-200.2380544863153
 20
-255.7270979380336
 11
-198.9975500760613
 21
-257.0358734482383
 72
     1
 10
-198.9975500760613
 20
-257.0358734482383
 11
-197.8047573738947
 21
-257.0358734482383
 72
     1
 10
-197.8047573738947
 20
-257.0358734482383
 11
-197.8047573738947
 21
-253.9820639244271
 72
     1
 10
-197.8047573738947
 20
-253.9820639244271
 11
-198.9975500760613
 21
-253.9820639244271
 72
     1
 10
-198.9975500760613
 20
-253.9820639244271
 11
-198.9975500760613
 21
-255.2908394346323
 97
       10
330
457
330
41F
330
41E
330
458
330
41D
330
453
330
454
330
455
330
456
330
420
 75
     1
 76
     0
 52
45.0
 41
0.1
 77
     0
 78
     1
 53
45.0
 43
0.0
 44
0.0
 45
-0.0707106781186548
 46
0.0707106781186548
 79
     0
 98
        1
 10
0.0
 20
0.0
  0
HATCH
  5
4DD
330
71
100
AcDbEntity
  8
1
  6
Continuous
 62
     2
100
AcDbHatch
 10
0.0
 20
0.0
 30
0.0
210
0.0
220
0.0
230
1.0
  2
_USER
 70
     0
 71
     1
 91
        1
 92
        1
 93
        8
 72
     1
 10
-200.0950702929408
 20
-257.3412544006015
 11
-202.9100610700544
 21
-257.3412544006015
 72
     1
 10
-202.9100610700544
 20
-257.3412544006015
 11
-202.9100610700544
 21
-258.1265197067251
 72
     1
 10
-202.9100610700544
 20
-258.1265197067251
 11
-202.0989620325798
 21
-258.1265197067251
 72
     1
 10
-202.0989620325798
 20
-258.1265197067251
 11
-202.0989620325798
 21
-260.3950639244126
 72
     1
 10
-202.0989620325798
 20
-260.3950639244126
 11
-200.9061693304133
 21
-260.3950639244126
 72
     1
 10
-200.9061693304133
 20
-260.3950639244126
 11
-200.9061693304133
 21
-258.1265197067251
 72
     1
 10
-200.9061693304133
 20
-258.1265197067251
 11
-200.0950702929408
 21
-258.1265197067251
 72
     1
 10
-200.0950702929408
 20
-258.1265197067251
 11
-200.0950702929408
 21
-257.3412544006015
 97
        8
330
419
330
459
330
418
330
45A
330
45B
330
41C
330
41B
330
41A
 75
     1
 76
     0
 52
45.0
 41
0.1
 77
     0
 78
     1
 53
45.0
 43
0.0
 44
0.0
 45
-0.0707106781186548
 46
0.0707106781186548
 79
     0
 98
        1
 10
0.0
 20
0.0
  0
HATCH
  5
4DE
330
71
100
AcDbEntity
  8
1
  6
Continuous
 62
     2
100
AcDbHatch
 10
0.0
 20
0.0
 30
0.0
210
0.0
220
0.0
230
1.0
  2
_USER
 70
     0
 71
     1
 91
        1
 92
        1
 93
        8
 72
     1
 10
-200.0950702929408
 20
-257.3412544006015
 11
-202.9100610700544
 21
-257.3412544006015
 72
     1
 10
-202.9100610700544
 20
-257.3412544006015
 11
-202.9100610700544
 21
-258.1265197067251
 72
     1
 10
-202.9100610700544
 20
-258.1265197067251
 11
-202.0989620325798
 21
-258.1265197067251
 72
     1
 10
-202.0989620325798
 20
-258.1265197067251
 11
-202.0989620325798
 21
-260.3950639244126
 72
     1
 10
-202.0989620325798
 20
-260.3950639244126
 11
-200.9061693304133
 21
-260.3950639244126
 72
     1
 10
-200.9061693304133
 20
-260.3950639244126
 11
-200.9061693304133
 21
-258.1265197067251
 72
     1
 10
-200.9061693304133
 20
-258.1265197067251
 11
-200.0950702929408
 21
-258.1265197067251
 72
     1
 10
-200.0950702929408
 20
-258.1265197067251
 11
-200.0950702929408
 21
-257.3412544006015
 97
        8
330
419
330
459
330
418
330
45A
330
45B
330
41C
330
41B
330
41A
 75
     1
 76
     0
 52
45.0
 41
0.1
 77
     0
 78
     1
 53
45.0
 43
0.0
 44
0.0
 45
-0.0707106781186548
 46
0.0707106781186548
 79
     0
 98
        1
 10
0.0
 20
0.0
  0
HATCH
  5
4DF
330
71
100
AcDbEntity
  8
1
  6
Continuous
 62
     2
100
AcDbHatch
 10
0.0
 20
0.0
 30
0.0
210
0.0
220
0.0
230
1.0
  2
_USER
 70
     0
 71
     1
 91
        2
 92
        1
 93
        8
 72
     1
 10
-197.9566428369938
 20
-260.3950639244126
 11
-198.1681228904696
 21
-259.8541033801947
 72
     1
 10
-198.1681228904696
 20
-259.8541033801947
 11
-199.3005644671434
 21
-259.8541033801947
 72
     1
 10
-199.3005644671434
 20
-259.8541033801947
 11
-199.5120445206192
 21
-260.3950639244126
 72
     1
 10
-199.5120445206192
 20
-260.3950639244126
 11
-200.7525489308722
 21
-260.3950639244126
 72
     1
 10
-200.7525489308722
 20
-260.3950639244126
 11
-199.3545958839329
 21
-257.3412544006015
 72
     1
 10
-199.3545958839329
 20
-257.3412544006015
 11
-198.1140914736802
 21
-257.3412544006015
 72
     1
 10
-198.1140914736802
 20
-257.3412544006015
 11
-196.7161384267399
 21
-260.3950639244126
 72
     1
 10
-196.7161384267399
 20
-260.3950639244126
 11
-197.9566428369938
 21
-260.3950639244126
 97
        8
330
45D
330
45E
330
415
330
45F
330
414
330
417
330
45C
330
416
 92
       16
 93
        3
 72
     1
 10
-199.0345089159984
 20
-259.1735401148881
 11
-198.734343678806
 21
-258.4057251489014
 72
     1
 10
-198.734343678806
 20
-258.4057251489014
 11
-198.4341784416159
 21
-259.1735401148881
 72
     1
 10
-198.4341784416159
 20
-259.1735401148881
 11
-199.0345089159984
 21
-259.1735401148881
 97
        3
330
413
330
461
330
460
 75
     1
 76
     0
 52
45.0
 41
0.1
 77
     0
 78
     1
 53
45.0
 43
0.0
 44
0.0
 45
-0.0707106781186548
 46
0.0707106781186548
 79
     0
 98
        1
 10
0.0
 20
0.0
  0
HATCH
  5
4E0
330
71
100
AcDbEntity
  8
1
  6
Continuous
 62
     2
100
AcDbHatch
 10
0.0
 20
0.0
 30
0.0
210
0.0
220
0.0
230
1.0
  2
_USER
 70
     0
 71
     1
 91
        2
 92
        1
 93
        8
 72
     1
 10
-197.9566428369938
 20
-260.3950639244126
 11
-198.1681228904696
 21
-259.8541033801947
 72
     1
 10
-198.1681228904696
 20
-259.8541033801947
 11
-199.3005644671434
 21
-259.8541033801947
 72
     1
 10
-199.3005644671434
 20
-259.8541033801947
 11
-199.5120445206192
 21
-260.3950639244126
 72
     1
 10
-199.5120445206192
 20
-260.3950639244126
 11
-200.7525489308722
 21
-260.3950639244126
 72
     1
 10
-200.7525489308722
 20
-260.3950639244126
 11
-199.3545958839329
 21
-257.3412544006015
 72
     1
 10
-199.3545958839329
 20
-257.3412544006015
 11
-198.1140914736802
 21
-257.3412544006015
 72
     1
 10
-198.1140914736802
 20
-257.3412544006015
 11
-196.7161384267399
 21
-260.3950639244126
 72
     1
 10
-196.7161384267399
 20
-260.3950639244126
 11
-197.9566428369938
 21
-260.3950639244126
 97
        8
330
45D
330
45E
330
415
330
45F
330
414
330
417
330
45C
330
416
 92
       16
 93
        3
 72
     1
 10
-199.0345089159984
 20
-259.1735401148881
 11
-198.734343678806
 21
-258.4057251489014
 72
     1
 10
-198.734343678806
 20
-258.4057251489014
 11
-198.4341784416159
 21
-259.1735401148881
 72
     1
 10
-198.4341784416159
 20
-259.1735401148881
 11
-199.0345089159984
 21
-259.1735401148881
 97
        3
330
413
330
461
330
460
 75
     1
 76
     0
 52
45.0
 41
0.1
 77
     0
 78
     1
 53
45.0
 43
0.0
 44
0.0
 45
-0.0707106781186548
 46
0.0707106781186548
 79
     0
 98
        1
 10
0.0
 20
0.0
  0
HATCH
  5
4E1
330
71
100
AcDbEntity
  8
1
  6
Continuous
 62
     2
100
AcDbHatch
 10
0.0
 20
0.0
 30
0.0
210
0.0
220
0.0
230
1.0
  2
_USER
 70
     0
 71
     1
 91
        1
 92
        1
 93
        4
 72
     1
 10
-196.3256944232079
 20
-257.0358734482383
 11
-197.5661988334608
 21
-257.0358734482383
 72
     1
 10
-197.5661988334608
 20
-257.0358734482383
 11
-197.5661988334608
 21
-253.9820639244271
 72
     1
 10
-197.5661988334608
 20
-253.9820639244271
 11
-196.3256944232079
 21
-253.9820639244271
 72
     1
 10
-196.3256944232079
 20
-253.9820639244271
 11
-196.3256944232079
 21
-257.0358734482383
 97
        4
330
410
330
412
330
462
330
411
 75
     1
 76
     0
 52
45.0
 41
0.1
 77
     0
 78
     1
 53
45.0
 43
0.0
 44
0.0
 45
-0.0707106781186548
 46
0.0707106781186548
 79
     0
 98
        1
 10
0.0
 20
0.0
  0
HATCH
  5
4E2
330
71
100
AcDbEntity
  8
1
  6
Continuous
 62
     2
100
AcDbHatch
 10
0.0
 20
0.0
 30
0.0
210
0.0
220
0.0
230
1.0
  2
_USER
 70
     0
 71
     1
 91
        1
 92
        1
 93
        4
 72
     1
 10
-196.3256944232079
 20
-257.0358734482383
 11
-197.5661988334608
 21
-257.0358734482383
 72
     1
 10
-197.5661988334608
 20
-257.0358734482383
 11
-197.5661988334608
 21
-253.9820639244271
 72
     1
 10
-197.5661988334608
 20
-253.9820639244271
 11
-196.3256944232079
 21
-253.9820639244271
 72
     1
 10
-196.3256944232079
 20
-253.9820639244271
 11
-196.3256944232079
 21
-257.0358734482383
 97
        4
330
410
330
412
330
462
330
411
 75
     1
 76
     0
 52
45.0
 41
0.1
 77
     0
 78
     1
 53
45.0
 43
0.0
 44
0.0
 45
-0.0707106781186548
 46
0.0707106781186548
 79
     0
 98
        1
 10
0.0
 20
0.0
  0
HATCH
  5
4E3
330
71
100
AcDbEntity
  8
1
  6
Continuous
 62
     2
100
AcDbHatch
 10
0.0
 20
0.0
 30
0.0
210
0.0
220
0.0
230
1.0
  2
_USER
 70
     0
 71
     1
 91
        1
 92
        1
 93
       12
 72
     1
 10
-192.1032082575371
 20
-253.9820639244271
 11
-193.4057378883036
 21
-255.4550144544633
 72
     1
 10
-193.4057378883036
 20
-255.4550144544633
 11
-192.0077848413633
 21
-257.0358734482383
 72
     1
 10
-192.0077848413633
 20
-257.0358734482383
 11
-193.4105090591116
 21
-257.0358734482383
 72
     1
 10
-193.4105090591116
 20
-257.0358734482383
 11
-194.1070999971771
 21
-256.2481416629446
 72
     1
 10
-194.1070999971771
 20
-256.2481416629446
 11
-194.8036909352428
 21
-257.0358734482383
 72
     1
 10
-194.8036909352428
 20
-257.0358734482383
 11
-196.206415152991
 21
-257.0358734482383
 72
     1
 10
-196.206415152991
 20
-257.0358734482383
 11
-194.8084621060507
 21
-255.4550144544633
 72
     1
 10
-194.8084621060507
 20
-255.4550144544633
 11
-196.1109917368182
 21
-253.9820639244271
 72
     1
 10
-196.1109917368182
 20
-253.9820639244271
 11
-194.7082675190689
 21
-253.9820639244271
 72
     1
 10
-194.7082675190689
 20
-253.9820639244271
 11
-194.1070999971771
 21
-254.6618872459826
 72
     1
 10
-194.1070999971771
 20
-254.6618872459826
 11
-193.5059324752843
 21
-253.9820639244271
 72
     1
 10
-193.5059324752843
 20
-253.9820639244271
 11
-192.1032082575371
 21
-253.9820639244271
 97
       12
330
40B
330
40A
330
409
330
466
330
467
330
463
330
464
330
40F
330
40E
330
40D
330
40C
330
465
 75
     1
 76
     0
 52
45.0
 41
0.1
 77
     0
 78
     1
 53
45.0
 43
0.0
 44
0.0
 45
-0.0707106781186548
 46
0.0707106781186548
 79
     0
 98
        1
 10
0.0
 20
0.0
  0
HATCH
  5
4E4
330
71
100
AcDbEntity
  8
1
  6
Continuous
 62
     2
100
AcDbHatch
 10
0.0
 20
0.0
 30
0.0
210
0.0
220
0.0
230
1.0
  2
_USER
 70
     0
 71
     1
 91
        1
 92
        1
 93
       12
 72
     1
 10
-192.1032082575371
 20
-253.9820639244271
 11
-193.4057378883036
 21
-255.4550144544633
 72
     1
 10
-193.4057378883036
 20
-255.4550144544633
 11
-192.0077848413633
 21
-257.0358734482383
 72
     1
 10
-192.0077848413633
 20
-257.0358734482383
 11
-193.4105090591116
 21
-257.0358734482383
 72
     1
 10
-193.4105090591116
 20
-257.0358734482383
 11
-194.1070999971771
 21
-256.2481416629446
 72
     1
 10
-194.1070999971771
 20
-256.2481416629446
 11
-194.8036909352428
 21
-257.0358734482383
 72
     1
 10
-194.8036909352428
 20
-257.0358734482383
 11
-196.206415152991
 21
-257.0358734482383
 72
     1
 10
-196.206415152991
 20
-257.0358734482383
 11
-194.8084621060507
 21
-255.4550144544633
 72
     1
 10
-194.8084621060507
 20
-255.4550144544633
 11
-196.1109917368182
 21
-253.9820639244271
 72
     1
 10
-196.1109917368182
 20
-253.9820639244271
 11
-194.7082675190689
 21
-253.9820639244271
 72
     1
 10
-194.7082675190689
 20
-253.9820639244271
 11
-194.1070999971771
 21
-254.6618872459826
 72
     1
 10
-194.1070999971771
 20
-254.6618872459826
 11
-193.5059324752843
 21
-253.9820639244271
 72
     1
 10
-193.5059324752843
 20
-253.9820639244271
 11
-192.1032082575371
 21
-253.9820639244271
 97
       12
330
40B
330
40A
330
409
330
466
330
467
330
463
330
464
330
40F
330
40E
330
40D
330
40C
330
465
 75
     1
 76
     0
 52
45.0
 41
0.1
 77
     0
 78
     1
 53
45.0
 43
0.0
 44
0.0
 45
-0.0707106781186548
 46
0.0707106781186548
 79
     0
 98
        1
 10
0.0
 20
0.0
  0
HATCH
  5
4E5
330
71
100
AcDbEntity
  8
1
  6
Continuous
 62
     2
100
AcDbHatch
 10
0.0
 20
0.0
 30
0.0
210
0.0
220
0.0
230
1.0
  2
_USER
 70
     0
 71
     1
 91
        2
 92
        1
 93
        6
 72
     1
 10
-211.1209436716831
 20
-256.0927952070945
 11
-211.8797112594634
 21
-256.0927952070945
 72
     1
 10
-211.8797112594634
 20
-256.0927952070945
 11
-211.8797112594634
 21
-257.0358734482383
 72
     1
 10
-211.8797112594634
 20
-257.0358734482383
 11
-213.1202156697175
 21
-257.0358734482383
 72
     1
 10
-213.1202156697175
 20
-257.0358734482383
 11
-213.1202156697175
 21
-253.9820639244271
 72
     1
 10
-213.1202156697175
 20
-253.9820639244271
 11
-211.1209436716831
 21
-253.9820639244271
 72
     2
 10
-211.1209436716831
 20
-255.0374295657608
 40
1.055365641333736
 50
270.0
 51
450.0
 73
     0
 97
        6
330
433
330
432
330
43F
330
43E
330
434
330
484
 92
       16
 93
        4
 72
     2
 10
-211.5624161979215
 20
-254.9980335945383
 40
0.3528638246710898
 50
270.0
 51
450.0
 73
     1
 72
     1
 10
-211.5624161979215
 20
-254.6451697698672
 11
-211.8797112594634
 21
-254.6451697698672
 72
     1
 10
-211.8797112594634
 20
-254.6451697698672
 11
-211.8797112594634
 21
-255.3508974192094
 72
     1
 10
-211.8797112594634
 20
-255.3508974192094
 11
-211.5624161979215
 21
-255.3508974192094
 97
        4
330
498
330
430
330
440
330
431
 75
     1
 76
     0
 52
45.0
 41
0.1
 77
     0
 78
     1
 53
45.0
 43
0.0
 44
0.0
 45
-0.0707106781186548
 46
0.0707106781186548
 79
     0
 98
        1
 10
0.0
 20
0.0
  0
HATCH
  5
4E6
330
71
100
AcDbEntity
  8
1
  6
Continuous
 62
     2
100
AcDbHatch
 10
0.0
 20
0.0
 30
0.0
210
0.0
220
0.0
230
1.0
  2
_USER
 70
     0
 71
     1
 91
        2
 92
        1
 93
        6
 72
     1
 10
-211.1209436716831
 20
-256.0927952070945
 11
-211.8797112594634
 21
-256.0927952070945
 72
     1
 10
-211.8797112594634
 20
-256.0927952070945
 11
-211.8797112594634
 21
-257.0358734482383
 72
     1
 10
-211.8797112594634
 20
-257.0358734482383
 11
-213.1202156697175
 21
-257.0358734482383
 72
     1
 10
-213.1202156697175
 20
-257.0358734482383
 11
-213.1202156697175
 21
-253.9820639244271
 72
     1
 10
-213.1202156697175
 20
-253.9820639244271
 11
-211.1209436716831
 21
-253.9820639244271
 72
     2
 10
-211.1209436716831
 20
-255.0374295657608
 40
1.055365641333736
 50
270.0
 51
450.0
 73
     0
 97
        6
330
433
330
432
330
43F
330
43E
330
434
330
484
 92
       16
 93
        4
 72
     2
 10
-211.5624161979215
 20
-254.9980335945383
 40
0.3528638246710898
 50
270.0
 51
450.0
 73
     1
 72
     1
 10
-211.5624161979215
 20
-254.6451697698672
 11
-211.8797112594634
 21
-254.6451697698672
 72
     1
 10
-211.8797112594634
 20
-254.6451697698672
 11
-211.8797112594634
 21
-255.3508974192094
 72
     1
 10
-211.8797112594634
 20
-255.3508974192094
 11
-211.5624161979215
 21
-255.3508974192094
 97
        4
330
498
330
430
330
440
330
431
 75
     1
 76
     0
 52
45.0
 41
0.1
 77
     0
 78
     1
 53
45.0
 43
0.0
 44
0.0
 45
-0.0707106781186548
 46
0.0707106781186548
 79
     0
 98
        1
 10
0.0
 20
0.0
  0
HATCH
  5
4E7
330
71
100
AcDbEntity
  8
1
  6
Continuous
 62
     2
100
AcDbHatch
 10
0.0
 20
0.0
 30
0.0
210
0.0
220
0.0
230
1.0
  2
_USER
 70
     0
 71
     1
 91
        2
 92
        1
 93
        4
 72
     2
 10
-208.564400923324
 20
-259.4067341728101
 40
2.065479772208593
 50
62.45185182430674
 51
117.548148175666
 73
     1
 72
     2
 10
-208.8453408151573
 20
-258.8681591625073
 40
1.458034083651515
 50
117.5481481756619
 51
242.451851824337
 73
     1
 72
     2
 10
-208.564400923324
 20
-258.329584152204
 40
2.065479772208483
 50
242.4518518243399
 51
297.5481481756875
 73
     1
 72
     2
 10
-208.2834610314907
 20
-258.8681591625073
 40
1.458034083651977
 50
297.5481481757016
 51
422.4518518242994
 73
     1
 97
        4
330
490
330
48F
330
491
330
48E
 92
       16
 93
        4
 72
     2
 10
-208.7641409596704
 20
-258.8681591625073
 40
0.7717997786796947
 50
321.8795802028417
 51
398.1204197971483
 73
     1
 72
     2
 10
-208.564400923324
 20
-258.7114279843868
 40
0.5179085730132297
 50
38.12041979713714
 51
141.8795802028687
 73
     1
 72
     2
 10
-208.3646608869779
 20
-258.8681591625073
 40
0.7717997786794106
 50
141.8795802028413
 51
218.1204197971687
 73
     1
 72
     2
 10
-208.564400923324
 20
-259.0248903406273
 40
0.5179085730137529
 50
218.1204197971956
 51
321.8795802027985
 73
     1
 97
        4
330
4AC
330
4A9
330
4AA
330
4AB
 75
     1
 76
     0
 52
45.0
 41
0.1
 77
     0
 78
     1
 53
45.0
 43
0.0
 44
0.0
 45
-0.0707106781186548
 46
0.0707106781186548
 79
     0
 98
        1
 10
0.0
 20
0.0
  0
HATCH
  5
4E8
330
71
100
AcDbEntity
  8
1
  6
Continuous
 62
     2
100
AcDbHatch
 10
0.0
 20
0.0
 30
0.0
210
0.0
220
0.0
230
1.0
  2
_USER
 70
     0
 71
     1
 91
        2
 92
        1
 93
        4
 72
     2
 10
-208.564400923324
 20
-259.4067341728101
 40
2.065479772208593
 50
62.45185182430674
 51
117.548148175666
 73
     1
 72
     2
 10
-208.8453408151573
 20
-258.8681591625073
 40
1.458034083651515
 50
117.5481481756619
 51
242.451851824337
 73
     1
 72
     2
 10
-208.564400923324
 20
-258.329584152204
 40
2.065479772208483
 50
242.4518518243399
 51
297.5481481756875
 73
     1
 72
     2
 10
-208.2834610314907
 20
-258.8681591625073
 40
1.458034083651977
 50
297.5481481757016
 51
422.4518518242994
 73
     1
 97
        4
330
490
330
48F
330
491
330
48E
 92
       16
 93
        4
 72
     2
 10
-208.7641409596704
 20
-258.8681591625073
 40
0.7717997786796947
 50
321.8795802028417
 51
398.1204197971483
 73
     1
 72
     2
 10
-208.564400923324
 20
-258.7114279843868
 40
0.5179085730132297
 50
38.12041979713714
 51
141.8795802028687
 73
     1
 72
     2
 10
-208.3646608869779
 20
-258.8681591625073
 40
0.7717997786794106
 50
141.8795802028413
 51
218.1204197971687
 73
     1
 72
     2
 10
-208.564400923324
 20
-259.0248903406273
 40
0.5179085730137529
 50
218.1204197971956
 51
321.8795802027985
 73
     1
 97
        4
330
4AC
330
4A9
330
4AA
330
4AB
 75
     1
 76
     0
 52
45.0
 41
0.1
 77
     0
 78
     1
 53
45.0
 43
0.0
 44
0.0
 45
-0.0707106781186548
 46
0.0707106781186548
 79
     0
 98
        1
 10
0.0
 20
0.0
  0
HATCH
  5
4E9
330
71
100
AcDbEntity
  8
1
  6
Continuous
 62
     2
100
AcDbHatch
 10
0.0
 20
0.0
 30
0.0
210
0.0
220
0.0
230
1.0
  2
_USER
 70
     0
 71
     1
 91
        2
 92
        1
 93
       12
 72
     1
 10
-201.6694057289147
 20
-254.6800775298701
 11
-203.0053335553424
 21
-254.6800775298701
 72
     1
 10
-203.0053335553424
 20
-254.6800775298701
 11
-203.0053335553424
 21
-255.1599618836118
 72
     1
 10
-203.0053335553424
 20
-255.1599618836118
 11
-201.6694057289147
 21
-255.1599618836118
 72
     1
 10
-201.6694057289147
 20
-255.1599618836118
 11
-201.6694057289147
 21
-255.8579754890541
 72
     1
 10
-201.6694057289147
 20
-255.8579754890541
 11
-203.0053335553424
 21
-255.8579754890541
 72
     1
 10
-203.0053335553424
 20
-255.8579754890541
 11
-203.0053335553424
 21
-256.3378598427958
 72
     1
 10
-203.0053335553424
 20
-256.3378598427958
 11
-201.6694057289147
 21
-256.3378598427958
 72
     1
 10
-201.6694057289147
 20
-256.3378598427958
 11
-201.6694057289147
 21
-257.0358734482383
 72
     1
 10
-201.6694057289147
 20
-257.0358734482383
 11
-204.8197254526957
 21
-257.0358734482383
 72
     2
 10
-204.8197254526957
 20
-255.508968686333
 40
1.526904761905882
 50
90.0
 51
270.0
 73
     0
 72
     1
 10
-204.8197254526957
 20
-253.9820639244271
 11
-201.6694057289147
 21
-253.9820639244271
 72
     1
 10
-201.6694057289147
 20
-253.9820639244271
 11
-201.6694057289147
 21
-254.6800775298701
 97
       12
330
447
330
499
330
448
330
449
330
44A
330
44B
330
428
330
427
330
426
330
425
330
44C
330
446
 92
       16
 93
        4
 72
     2
 10
-204.6034534425305
 20
-255.3522375082125
 40
0.5179085730135266
 50
38.12041979714334
 51
141.8795802028489
 73
     1
 72
     2
 10
-204.4037134061842
 20
-255.508968686333
 40
0.7717997786796724
 50
141.8795802028404
 51
218.1204197971546
 73
     1
 72
     2
 10
-204.6034534425305
 20
-255.6656998644534
 40
0.5179085730134372
 50
218.1204197971511
 51
321.8795802028566
 73
     1
 72
     2
 10
-204.8031934788767
 20
-255.508968686333
 40
0.7717997786796198
 50
321.8795802028454
 51
398.1204197971596
 73
     1
 97
        4
330
493
330
492
330
48D
330
48C
 75
     1
 76
     0
 52
45.0
 41
0.1
 77
     0
 78
     1
 53
45.0
 43
0.0
 44
0.0
 45
-0.0707106781186548
 46
0.0707106781186548
 79
     0
 98
        1
 10
0.0
 20
0.0
  0
HATCH
  5
4EA
330
71
100
AcDbEntity
  8
1
  6
Continuous
 62
     2
100
AcDbHatch
 10
0.0
 20
0.0
 30
0.0
210
0.0
220
0.0
230
1.0
  2
_USER
 70
     0
 71
     1
 91
        2
 92
        1
 93
       12
 72
     1
 10
-201.6694057289147
 20
-254.6800775298701
 11
-203.0053335553424
 21
-254.6800775298701
 72
     1
 10
-203.0053335553424
 20
-254.6800775298701
 11
-203.0053335553424
 21
-255.1599618836118
 72
     1
 10
-203.0053335553424
 20
-255.1599618836118
 11
-201.6694057289147
 21
-255.1599618836118
 72
     1
 10
-201.6694057289147
 20
-255.1599618836118
 11
-201.6694057289147
 21
-255.8579754890541
 72
     1
 10
-201.6694057289147
 20
-255.8579754890541
 11
-203.0053335553424
 21
-255.8579754890541
 72
     1
 10
-203.0053335553424
 20
-255.8579754890541
 11
-203.0053335553424
 21
-256.3378598427958
 72
     1
 10
-203.0053335553424
 20
-256.3378598427958
 11
-201.6694057289147
 21
-256.3378598427958
 72
     1
 10
-201.6694057289147
 20
-256.3378598427958
 11
-201.6694057289147
 21
-257.0358734482383
 72
     1
 10
-201.6694057289147
 20
-257.0358734482383
 11
-204.8197254526957
 21
-257.0358734482383
 72
     2
 10
-204.8197254526957
 20
-255.508968686333
 40
1.526904761905882
 50
90.0
 51
270.0
 73
     0
 72
     1
 10
-204.8197254526957
 20
-253.9820639244271
 11
-201.6694057289147
 21
-253.9820639244271
 72
     1
 10
-201.6694057289147
 20
-253.9820639244271
 11
-201.6694057289147
 21
-254.6800775298701
 97
       12
330
447
330
499
330
448
330
449
330
44A
330
44B
330
428
330
427
330
426
330
425
330
44C
330
446
 92
       16
 93
        4
 72
     2
 10
-204.6034534425305
 20
-255.3522375082125
 40
0.5179085730135266
 50
38.12041979714334
 51
141.8795802028489
 73
     1
 72
     2
 10
-204.4037134061842
 20
-255.508968686333
 40
0.7717997786796724
 50
141.8795802028404
 51
218.1204197971546
 73
     1
 72
     2
 10
-204.6034534425305
 20
-255.6656998644534
 40
0.5179085730134372
 50
218.1204197971511
 51
321.8795802028566
 73
     1
 72
     2
 10
-204.8031934788767
 20
-255.508968686333
 40
0.7717997786796198
 50
321.8795802028454
 51
398.1204197971596
 73
     1
 97
        4
330
493
330
492
330
48D
330
48C
 75
     1
 76
     0
 52
45.0
 41
0.1
 77
     0
 78
     1
 53
45.0
 43
0.0
 44
0.0
 45
-0.0707106781186548
 46
0.0707106781186548
 79
     0
 98
        1
 10
0.0
 20
0.0
  0
HATCH
  5
4EB
330
71
100
AcDbEntity
  8
1
  6
Continuous
 62
     2
100
AcDbHatch
 10
0.0
 20
0.0
 30
0.0
210
0.0
220
0.0
230
1.0
  2
_USER
 70
     0
 71
     1
 91
        4
 92
        1
 93
        8
 72
     1
 10
-213.5973327505843
 20
-254.4063085398291
 11
-213.5973327505843
 21
-259.9708193090293
 72
     2
 10
-214.0215773659682
 20
-259.9708193090293
 40
0.4242446153833157
 50
0.0
 51
90.0
 73
     0
 72
     1
 10
-214.0215773659682
 20
-260.3950639244126
 11
-219.494889456685
 21
-260.3950639244126
 72
     2
 10
-219.494889456685
 20
-259.9708193090293
 40
0.4242446153828041
 50
90.0
 51
180.0
 73
     0
 72
     1
 10
-219.9191340720678
 20
-259.9708193090293
 11
-219.9191340720678
 21
-254.4063085398291
 72
     2
 10
-219.494889456685
 20
-254.4063085398291
 40
0.4242446153837989
 50
180.0
 51
270.0
 73
     0
 72
     1
 10
-219.494889456685
 20
-253.9820639244453
 11
-214.0215773659682
 21
-253.9820639244453
 72
     2
 10
-214.0215773659682
 20
-254.4063085398291
 40
0.4242446153839126
 50
270.0
 51
360.0
 73
     0
 97
        8
330
43B
330
489
330
43C
330
494
330
439
330
48B
330
43A
330
48A
 92
       16
 93
        1
 72
     2
 10
-216.8753038061675
 20
-256.7251907681846
 40
0.4709789327785074
 50
0.0
 51
360.0
 73
     1
 97
        1
330
4AF
 92
       16
 93
        8
 72
     2
 10
-216.3254460934068
 20
-257.834332368153
 40
0.3157169230765328
 50
115.3740086783519
 51
180.0
 73
     1
 72
     1
 10
-216.6411630164836
 20
-257.834332368153
 11
-216.6411630164836
 21
-258.4161837748481
 72
     2
 10
-216.3254460934068
 20
-258.4161837748481
 40
0.315716923076792
 50
180.0
 51
269.8110329574542
 73
     1
 72
     2
 10
-216.3198299580968
 20
-256.7133488272791
 40
2.018561131933266
 50
269.8110329575858
 51
450.1889670424142
 73
     1
 72
     2
 10
-216.3254460934068
 20
-255.01051387971
 40
0.3157169230760711
 50
90.18896704254594
 51
180.0
 73
     1
 72
     1
 10
-216.6411630164836
 20
-255.01051387971
 11
-216.6411630164836
 21
-255.6160491682168
 72
     2
 10
-216.3254460934068
 20
-255.6160491682168
 40
0.315716923076792
 50
180.0
 51
244.6259913216482
 73
     1
 72
     2
 10
-216.8514887914947
 20
-256.7251907681846
 40
0.9118481501444847
 50
295.3740086781933
 51
424.6259913218244
 73
     0
 97
        8
330
4A1
330
402
330
49E
330
49F
330
47D
330
401
330
4A0
330
47C
 92
       16
 93
       12
 72
     2
 10
-218.9009947799385
 20
-259.366791445779
 40
0.315716923075712
 50
180.0
 51
270.0
 73
     1
 72
     1
 10
-218.9009947799385
 20
-259.6825083688557
 11
-217.4251615189289
 21
-259.6825083688557
 72
     2
 10
-217.4251615189289
 20
-259.366791445779
 40
0.3157169230767067
 50
270.0
 51
360.0
 73
     1
 72
     1
 10
-217.1094445958523
 20
-259.366791445779
 11
-217.1094445958523
 21
-257.8360205142474
 72
     2
 10
-217.4251615189289
 20
-257.8360205142474
 40
0.315716923076593
 50
0.0
 51
64.80558935146468
 73
     1
 72
     2
 10
-216.9025770713539
 20
-256.7251907681846
 40
0.9118975235575889
 50
115.1944106485122
 51
244.805589351471
 73
     0
 72
     2
 10
-217.4251615189289
 20
-255.6143610221224
 40
0.3157169230761203
 50
295.1944106485397
 51
360.0
 73
     1
 72
     1
 10
-217.1094445958523
 20
-255.6143610221224
 11
-217.1094445958523
 21
-255.0103364030619
 72
     2
 10
-217.4251615189289
 20
-255.0103364030619
 40
0.315716923076593
 50
0.0
 51
90.0
 73
     1
 72
     1
 10
-217.4251615189289
 20
-254.6946194799857
 11
-218.9009947799385
 21
-254.6946194799857
 72
     2
 10
-218.9009947799385
 20
-255.0103364030619
 40
0.3157169230761951
 50
90.0
 51
180.0
 73
     1
 72
     1
 10
-219.2167117030142
 20
-255.0103364030619
 11
-219.2167117030142
 21
-259.366791445779
 97
       12
330
485
330
43D
330
488
330
438
330
495
330
496
330
487
330
437
330
486
330
436
330
497
330
435
 75
     1
 76
     0
 52
45.0
 41
0.1
 77
     0
 78
     1
 53
45.0
 43
0.0
 44
0.0
 45
-0.0707106781186548
 46
0.0707106781186548
 79
     0
 98
        1
 10
0.0
 20
0.0
  0
HATCH
  5
4EC
330
71
100
AcDbEntity
  8
1
  6
Continuous
 62
     2
100
AcDbHatch
 10
0.0
 20
0.0
 30
0.0
210
0.0
220
0.0
230
1.0
  2
_USER
 70
     0
 71
     1
 91
        4
 92
        1
 93
        8
 72
     1
 10
-213.5973327505843
 20
-254.4063085398291
 11
-213.5973327505843
 21
-259.9708193090293
 72
     2
 10
-214.0215773659682
 20
-259.9708193090293
 40
0.4242446153833157
 50
0.0
 51
90.0
 73
     0
 72
     1
 10
-214.0215773659682
 20
-260.3950639244126
 11
-219.494889456685
 21
-260.3950639244126
 72
     2
 10
-219.494889456685
 20
-259.9708193090293
 40
0.4242446153828041
 50
90.0
 51
180.0
 73
     0
 72
     1
 10
-219.9191340720678
 20
-259.9708193090293
 11
-219.9191340720678
 21
-254.4063085398291
 72
     2
 10
-219.494889456685
 20
-254.4063085398291
 40
0.4242446153837989
 50
180.0
 51
270.0
 73
     0
 72
     1
 10
-219.494889456685
 20
-253.9820639244453
 11
-214.0215773659682
 21
-253.9820639244453
 72
     2
 10
-214.0215773659682
 20
-254.4063085398291
 40
0.4242446153839126
 50
270.0
 51
360.0
 73
     0
 97
        8
330
43B
330
489
330
43C
330
494
330
439
330
48B
330
43A
330
48A
 92
       16
 93
        1
 72
     2
 10
-216.8753038061675
 20
-256.7251907681846
 40
0.4709789327785074
 50
0.0
 51
360.0
 73
     1
 97
        1
330
4AF
 92
       16
 93
        8
 72
     2
 10
-216.3254460934068
 20
-257.834332368153
 40
0.3157169230765328
 50
115.3740086783519
 51
180.0
 73
     1
 72
     1
 10
-216.6411630164836
 20
-257.834332368153
 11
-216.6411630164836
 21
-258.4161837748481
 72
     2
 10
-216.3254460934068
 20
-258.4161837748481
 40
0.315716923076792
 50
180.0
 51
269.8110329574542
 73
     1
 72
     2
 10
-216.3198299580968
 20
-256.7133488272791
 40
2.018561131933266
 50
269.8110329575858
 51
450.1889670424142
 73
     1
 72
     2
 10
-216.3254460934068
 20
-255.01051387971
 40
0.3157169230760711
 50
90.18896704254594
 51
180.0
 73
     1
 72
     1
 10
-216.6411630164836
 20
-255.01051387971
 11
-216.6411630164836
 21
-255.6160491682168
 72
     2
 10
-216.3254460934068
 20
-255.6160491682168
 40
0.315716923076792
 50
180.0
 51
244.6259913216482
 73
     1
 72
     2
 10
-216.8514887914947
 20
-256.7251907681846
 40
0.9118481501444847
 50
295.3740086781933
 51
424.6259913218244
 73
     0
 97
        8
330
4A1
330
402
330
49E
330
49F
330
47D
330
401
330
4A0
330
47C
 92
       16
 93
       12
 72
     2
 10
-218.9009947799385
 20
-259.366791445779
 40
0.315716923075712
 50
180.0
 51
270.0
 73
     1
 72
     1
 10
-218.9009947799385
 20
-259.6825083688557
 11
-217.4251615189289
 21
-259.6825083688557
 72
     2
 10
-217.4251615189289
 20
-259.366791445779
 40
0.3157169230767067
 50
270.0
 51
360.0
 73
     1
 72
     1
 10
-217.1094445958523
 20
-259.366791445779
 11
-217.1094445958523
 21
-257.8360205142474
 72
     2
 10
-217.4251615189289
 20
-257.8360205142474
 40
0.315716923076593
 50
0.0
 51
64.80558935146468
 73
     1
 72
     2
 10
-216.9025770713539
 20
-256.7251907681846
 40
0.9118975235575889
 50
115.1944106485122
 51
244.805589351471
 73
     0
 72
     2
 10
-217.4251615189289
 20
-255.6143610221224
 40
0.3157169230761203
 50
295.1944106485397
 51
360.0
 73
     1
 72
     1
 10
-217.1094445958523
 20
-255.6143610221224
 11
-217.1094445958523
 21
-255.0103364030619
 72
     2
 10
-217.4251615189289
 20
-255.0103364030619
 40
0.315716923076593
 50
0.0
 51
90.0
 73
     1
 72
     1
 10
-217.4251615189289
 20
-254.6946194799857
 11
-218.9009947799385
 21
-254.6946194799857
 72
     2
 10
-218.9009947799385
 20
-255.0103364030619
 40
0.3157169230761951
 50
90.0
 51
180.0
 73
     1
 72
     1
 10
-219.2167117030142
 20
-255.0103364030619
 11
-219.2167117030142
 21
-259.366791445779
 97
       12
330
485
330
43D
330
488
330
438
330
495
330
496
330
487
330
437
330
486
330
436
330
497
330
435
 75
     1
 76
     0
 52
45.0
 41
0.1
 77
     0
 78
     1
 53
45.0
 43
0.0
 44
0.0
 45
-0.0707106781186548
 46
0.0707106781186548
 79
     0
 98
        1
 10
0.0
 20
0.0
  0
HATCH
  5
4ED
330
71
100
AcDbEntity
  8
1
  6
Continuous
 62
     2
100
AcDbHatch
 10
0.0
 20
0.0
 30
0.0
210
0.0
220
0.0
230
1.0
  2
_USER
 70
     0
 71
     1
 91
        1
 92
        1
 93
       18
 72
     1
 10
-192.0077848413633
 20
-258.1265197067251
 11
-192.8188838788367
 21
-258.1265197067251
 72
     1
 10
-192.8188838788367
 20
-258.1265197067251
 11
-192.8188838788367
 21
-260.3950639244126
 72
     1
 10
-192.8188838788367
 20
-260.3950639244126
 11
-194.0116765810044
 21
-260.3950639244126
 72
     1
 10
-194.0116765810044
 20
-260.3950639244126
 11
-194.0116765810044
 21
-258.1265197067251
 72
     1
 10
-194.0116765810044
 20
-258.1265197067251
 11
-195.1153158805725
 21
-258.1265197067251
 72
     2
 10
-195.1153158805725
 20
-259.0810427135512
 40
0.9545230068260935
 50
90.0
 51
109.337143219432
 73
     1
 72
     2
 10
-195.2619858786762
 20
-258.6630877331683
 40
0.5115800601944143
 50
109.3371432194853
 51
151.4785267424197
 73
     1
 72
     2
 10
-194.8846286205948
 20
-258.8681591625073
 40
0.941059735334906
 50
151.4785267423609
 51
208.5214732576695
 73
     1
 72
     2
 10
-195.2619858786762
 20
-259.0732305918458
 40
0.5115800601960215
 50
208.5214732576866
 51
246.6277221118449
 73
     1
 72
     2
 10
-195.1055458459731
 20
-258.7112385731358
 40
0.9059297849852801
 50
246.6277221118183
 51
288.4480761180817
 73
     1
 72
     2
 10
-195.523713579635
 20
-257.4576927970992
 40
2.227384008972773
 50
288.4480761181333
 51
301.9309089499394
 73
     1
 72
     1
 10
-194.3456585376111
 20
-259.348043516249
 11
-194.3456585376111
 21
-260.2205605230523
 72
     2
 10
-195.6815864547278
 20
-255.5554782172509
 40
4.852596863498853
 50
74.02000874166129
 51
84.8418552303637
 73
     0
 72
     2
 10
-195.392730359992
 20
-258.7553688004725
 40
1.639695123940434
 50
84.8418552303238
 51
164.9381082229007
 73
     0
 72
     2
 10
-195.8118582034536
 20
-258.8681591625073
 40
1.205656168393002
 50
164.9381082229054
 51
195.0618917770972
 73
     0
 72
     2
 10
-195.392730359992
 20
-258.9809495245422
 40
1.639695123940214
 50
195.061891777105
 51
270.0
 73
     0
 72
     1
 10
-195.392730359992
 20
-257.341254400602
 11
-192.0077848413633
 21
-257.3412544006015
 72
     1
 10
-192.0077848413633
 20
-257.3412544006015
 11
-192.0077848413633
 21
-258.1265197067251
 97
       18
330
404
330
49A
330
49B
330
483
330
482
330
468
330
481
330
480
330
49C
330
47F
330
49D
330
47E
330
469
330
403
330
408
330
407
330
406
330
405
 75
     1
 76
     0
 52
45.0
 41
0.1
 77
     0
 78
     1
 53
45.0
 43
0.0
 44
0.0
 45
-0.0707106781186548
 46
0.0707106781186548
 79
     0
 98
        1
 10
0.0
 20
0.0
  0
HATCH
  5
4EE
330
71
100
AcDbEntity
  8
1
  6
Continuous
 62
     2
100
AcDbHatch
 10
0.0
 20
0.0
 30
0.0
210
0.0
220
0.0
230
1.0
  2
_USER
 70
     0
 71
     1
 91
        1
 92
        1
 93
       18
 72
     1
 10
-192.0077848413633
 20
-258.1265197067251
 11
-192.8188838788367
 21
-258.1265197067251
 72
     1
 10
-192.8188838788367
 20
-258.1265197067251
 11
-192.8188838788367
 21
-260.3950639244126
 72
     1
 10
-192.8188838788367
 20
-260.3950639244126
 11
-194.0116765810044
 21
-260.3950639244126
 72
     1
 10
-194.0116765810044
 20
-260.3950639244126
 11
-194.0116765810044
 21
-258.1265197067251
 72
     1
 10
-194.0116765810044
 20
-258.1265197067251
 11
-195.1153158805725
 21
-258.1265197067251
 72
     2
 10
-195.1153158805725
 20
-259.0810427135512
 40
0.9545230068260935
 50
90.0
 51
109.337143219432
 73
     1
 72
     2
 10
-195.2619858786762
 20
-258.6630877331683
 40
0.5115800601944143
 50
109.3371432194853
 51
151.4785267424197
 73
     1
 72
     2
 10
-194.8846286205948
 20
-258.8681591625073
 40
0.941059735334906
 50
151.4785267423609
 51
208.5214732576695
 73
     1
 72
     2
 10
-195.2619858786762
 20
-259.0732305918458
 40
0.5115800601960215
 50
208.5214732576866
 51
246.6277221118449
 73
     1
 72
     2
 10
-195.1055458459731
 20
-258.7112385731358
 40
0.9059297849852801
 50
246.6277221118183
 51
288.4480761180817
 73
     1
 72
     2
 10
-195.523713579635
 20
-257.4576927970992
 40
2.227384008972773
 50
288.4480761181333
 51
301.9309089499394
 73
     1
 72
     1
 10
-194.3456585376111
 20
-259.348043516249
 11
-194.3456585376111
 21
-260.2205605230523
 72
     2
 10
-195.6815864547278
 20
-255.5554782172509
 40
4.852596863498853
 50
74.02000874166129
 51
84.8418552303637
 73
     0
 72
     2
 10
-195.392730359992
 20
-258.7553688004725
 40
1.639695123940434
 50
84.8418552303238
 51
164.9381082229007
 73
     0
 72
     2
 10
-195.8118582034536
 20
-258.8681591625073
 40
1.205656168393002
 50
164.9381082229054
 51
195.0618917770972
 73
     0
 72
     2
 10
-195.392730359992
 20
-258.9809495245422
 40
1.639695123940214
 50
195.061891777105
 51
270.0
 73
     0
 72
     1
 10
-195.392730359992
 20
-257.341254400602
 11
-192.0077848413633
 21
-257.3412544006015
 72
     1
 10
-192.0077848413633
 20
-257.3412544006015
 11
-192.0077848413633
 21
-258.1265197067251
 97
       18
330
404
330
49A
330
49B
330
483
330
482
330
468
330
481
330
480
330
49C
330
47F
330
49D
330
47E
330
469
330
403
330
408
330
407
330
406
330
405
 75
     1
 76
     0
 52
45.0
 41
0.1
 77
     0
 78
     1
 53
45.0
 43
0.0
 44
0.0
 45
-0.0707106781186548
 46
0.0707106781186548
 79
     0
 98
        1
 10
0.0
 20
0.0
  0
HATCH
  5
4EF
330
71
100
AcDbEntity
  8
1
  6
Continuous
 62
     2
100
AcDbHatch
 10
0.0
 20
0.0
 30
0.0
210
0.0
220
0.0
230
1.0
  2
_USER
 70
     0
 71
     1
 91
        1
 92
        1
 93
       14
 72
     2
 10
-211.4954318392449
 20
-258.9809495245422
 40
1.639695123940507
 50
84.84185523036236
 51
164.9381082228864
 73
     1
 72
     2
 10
-211.9145596827077
 20
-258.8681591625073
 40
1.205656168390944
 50
164.9381082228765
 51
195.0618917770948
 73
     1
 72
     2
 10
-211.4954318392449
 20
-258.7553688004725
 40
1.63969512393938
 50
195.0618917770886
 51
275.1581447696396
 73
     1
 72
     2
 10
-211.7842879339808
 20
-255.5554782172509
 40
4.852596863498138
 50
275.1581447696249
 51
285.979991258353
 73
     1
 72
     1
 10
-210.448360016863
 20
-260.2205605230517
 11
-210.448360016863
 21
-259.3480435162485
 72
     2
 10
-211.6264150588879
 20
-257.4576927970986
 40
2.227384008972764
 50
58.06909105004036
 51
71.55192388186742
 73
     0
 72
     2
 10
-211.2082473252271
 20
-258.7112385731358
 40
0.9059297849849192
 50
71.55192388184209
 51
113.372277888129
 73
     0
 72
     2
 10
-211.3646873579291
 20
-259.0732305918458
 40
0.5115800601948034
 50
113.3722778881726
 51
151.4785267423044
 73
     0
 72
     2
 10
-210.9873300998488
 20
-258.8681591625073
 40
0.9410597353332545
 50
151.4785267422943
 51
208.5214732577331
 73
     0
 72
     2
 10
-211.3646873579291
 20
-258.6630877331683
 40
0.511580060194904
 50
208.5214732576956
 51
246.6277221118021
 73
     0
 72
     2
 10
-211.2082473252271
 20
-259.0250797518789
 40
0.9059297849853228
 50
246.627722111871
 51
288.4480761181465
 73
     0
 72
     2
 10
-211.6264150588879
 20
-260.2786255279155
 40
2.227384008973501
 50
288.4480761181326
 51
301.9309089499589
 73
     0
 72
     1
 10
-210.448360016863
 20
-258.3882748087656
 11
-210.448360016863
 21
-257.5157578019623
 72
     2
 10
-211.7842879339808
 20
-262.1808401077632
 40
4.85259686349804
 50
74.02000874164729
 51
84.84185523037502
 73
     1
 97
       14
330
4A2
330
4A3
330
4A4
330
4A5
330
46A
330
47B
330
47A
330
479
330
4A6
330
4A7
330
478
330
4A8
330
46B
330
477
 75
     1
 76
     0
 52
45.0
 41
0.1
 77
     0
 78
     1
 53
45.0
 43
0.0
 44
0.0
 45
-0.0707106781186548
 46
0.0707106781186548
 79
     0
 98
        1
 10
0.0
 20
0.0
  0
HATCH
  5
4F0
330
71
100
AcDbEntity
  8
1
  6
Continuous
 62
     2
100
AcDbHatch
 10
0.0
 20
0.0
 30
0.0
210
0.0
220
0.0
230
1.0
  2
_USER
 70
     0
 71
     1
 91
        1
 92
        1
 93
       14
 72
     2
 10
-211.4954318392449
 20
-258.9809495245422
 40
1.639695123940507
 50
84.84185523036236
 51
164.9381082228864
 73
     1
 72
     2
 10
-211.9145596827077
 20
-258.8681591625073
 40
1.205656168390944
 50
164.9381082228765
 51
195.0618917770948
 73
     1
 72
     2
 10
-211.4954318392449
 20
-258.7553688004725
 40
1.63969512393938
 50
195.0618917770886
 51
275.1581447696396
 73
     1
 72
     2
 10
-211.7842879339808
 20
-255.5554782172509
 40
4.852596863498138
 50
275.1581447696249
 51
285.979991258353
 73
     1
 72
     1
 10
-210.448360016863
 20
-260.2205605230517
 11
-210.448360016863
 21
-259.3480435162485
 72
     2
 10
-211.6264150588879
 20
-257.4576927970986
 40
2.227384008972764
 50
58.06909105004036
 51
71.55192388186742
 73
     0
 72
     2
 10
-211.2082473252271
 20
-258.7112385731358
 40
0.9059297849849192
 50
71.55192388184209
 51
113.372277888129
 73
     0
 72
     2
 10
-211.3646873579291
 20
-259.0732305918458
 40
0.5115800601948034
 50
113.3722778881726
 51
151.4785267423044
 73
     0
 72
     2
 10
-210.9873300998488
 20
-258.8681591625073
 40
0.9410597353332545
 50
151.4785267422943
 51
208.5214732577331
 73
     0
 72
     2
 10
-211.3646873579291
 20
-258.6630877331683
 40
0.511580060194904
 50
208.5214732576956
 51
246.6277221118021
 73
     0
 72
     2
 10
-211.2082473252271
 20
-259.0250797518789
 40
0.9059297849853228
 50
246.627722111871
 51
288.4480761181465
 73
     0
 72
     2
 10
-211.6264150588879
 20
-260.2786255279155
 40
2.227384008973501
 50
288.4480761181326
 51
301.9309089499589
 73
     0
 72
     1
 10
-210.448360016863
 20
-258.3882748087656
 11
-210.448360016863
 21
-257.5157578019623
 72
     2
 10
-211.7842879339808
 20
-262.1808401077632
 40
4.85259686349804
 50
74.02000874164729
 51
84.84185523037502
 73
     1
 97
       14
330
4A2
330
4A3
330
4A4
330
4A5
330
46A
330
47B
330
47A
330
479
330
4A6
330
4A7
330
478
330
4A8
330
46B
330
477
 75
     1
 76
     0
 52
45.0
 41
0.1
 77
     0
 78
     1
 53
45.0
 43
0.0
 44
0.0
 45
-0.0707106781186548
 46
0.0707106781186548
 79
     0
 98
        1
 10
0.0
 20
0.0
  0
ENDBLK
  5
73
330
71
100
AcDbEntity
  8
0
100
AcDbBlockEnd
  0
BLOCK
  5
75
330
74
100
AcDbEntity
  8
0
100
AcDbBlockBegin
  2
_punkt
 70
     0
 10
-94.61098443188042
 20
-267.6885639244289
 30
0.0
  3
_punkt
  1

  0
LINE
  5
4F1
330
74
100
AcDbEntity
  8
1
  6
Continuous
 62
     2
100
AcDbLine
 10
-94.61098443188042
 20
-267.6885639244289
 30
0.0
 11
-89.61098443188143
 21
-267.6885639244289
 31
0.0
  0
LINE
  5
4F2
330
74
100
AcDbEntity
  8
1
  6
Continuous
 62
     2
100
AcDbLine
 10
-94.61098443188042
 20
-267.6885639244289
 30
0.0
 11
-94.61098443188042
 21
-272.688563924429
 31
0.0
  0
ENDBLK
  5
76
330
74
100
AcDbEntity
  8
0
100
AcDbBlockEnd
  0
BLOCK
  5
7A
330
77
100
AcDbEntity
  8
0
100
AcDbBlockBegin
  2
A4I_CS
 70
     0
 10
-94.61098443188042
 20
-272.688563924429
 30
0.0
  3
A4I_CS
  1

  0
INSERT
  5
78
330
77
100
AcDbEntity
  8
1
100
AcDbBlockReference
  2
_rahmen
 10
-94.61098443188042
 20
-272.688563924429
 30
0.0
  0
INSERT
  5
79
330
77
100
AcDbEntity
  8
1
100
AcDbBlockReference
  2
_punkt
 10
-94.61098443188042
 20
-267.6885639244289
 30
0.0
  0
ENDBLK
  5
7B
330
77
100
AcDbEntity
  8
0
100
AcDbBlockEnd
  0
BLOCK
  5
84
330
7C
100
AcDbEntity
  8
0
100
AcDbBlockBegin
  2
1
 70
     0
 10
0.0
 20
0.0
 30
0.0
  3
1
  1

  0
INSERT
  5
7D
330
7C
100
AcDbEntity
  8
0
100
AcDbBlockReference
  2
Allg1
 10
-172.000000363219
 20
-195.000000022734
 30
0.0
  0
INSERT
  5
7E
330
7C
100
AcDbEntity
  8
0
100
AcDbBlockReference
  2
Drfsicht1
 10
-270.5000038324128
 20
-202.2000029086966
 30
0.0
  0
INSERT
  5
7F
330
7C
100
AcDbEntity
  8
0
100
AcDbBlockReference
  2
Rckans1
 10
-173.4999961675892
 20
-125.000000000195
 30
0.0
  0
INSERT
  5
80
330
7C
100
AcDbEntity
  8
0
100
AcDbBlockReference
  2
SA_Links1
 10
-221.99999977931
 20
-125.000000000195
 30
0.0
  0
INSERT
  5
81
330
7C
100
AcDbEntity
  8
0
100
AcDbBlockReference
  2
SA_Rechts1
 10
-348.0000073015347
 20
-125.000000000195
 30
0.0
  0
INSERT
  5
82
330
7C
100
AcDbEntity
  8
0
100
AcDbBlockReference
  2
Vordans1
 10
-270.5000038324129
 20
-125.000000000195
 30
0.0
  0
INSERT
  5
83
330
7C
100
AcDbEntity
  8
0
100
AcDbBlockReference
  2
A4I_CS
 10
-94.61098443188042
 20
-272.688563924429
 30
0.0
  0
ENDBLK
  5
85
330
7C
100
AcDbEntity
  8
0
100
AcDbBlockEnd
  0
BLOCK
  5
1EE
330
1E7
100
AcDbEntity
  8
0
100
AcDbBlockBegin
  2
*D17
 70
     1
 10
0.0
 20
0.0
 30
0.0
  3
*D17
  1

  0
LINE
  5
1E8
330
1E7
100
AcDbEntity
  8
1
  6
Continuous
 62
     2
100
AcDbLine
 10
-300.206030557777
 20
-209.4500032043258
 30
0.0
 11
-300.206030557777
 21
-194.9500032043258
 31
0.0
  0
LINE
  5
1E9
330
1E7
100
AcDbEntity
  8
1
  6
Continuous
 62
     2
100
AcDbLine
 10
-292.2500045090476
 20
-209.4500032043258
 30
0.0
 11
-301.706030557777
 21
-209.4500032043258
 31
0.0
  0
LINE
  5
1EA
330
1E7
100
AcDbEntity
  8
1
  6
Continuous
 62
     2
100
AcDbLine
 10
-292.2500045090476
 20
-194.9500032043258
 30
0.0
 11
-301.706030557777
 21
-194.9500032043258
 31
0.0
  0
SOLID
  5
1EB
330
1E7
100
AcDbEntity
  8
1
 62
     2
100
AcDbTrace
 10
-300.6668142993329
 20
-205.9500032043258
 30
0.0
 11
-299.7452468162211
 21
-205.9500032043258
 31
0.0
 12
-300.206030557777
 22
-209.4500032043258
 32
0.0
 13
-300.206030557777
 23
-209.4500032043258
 33
0.0
  0
SOLID
  5
1EC
330
1E7
100
AcDbEntity
  8
1
 62
     2
100
AcDbTrace
 10
-299.7452468162211
 20
-198.4500032043258
 30
0.0
 11
-300.6668142993329
 21
-198.4500032043258
 31
0.0
 12
-300.206030557777
 22
-194.9500032043258
 32
0.0
 13
-300.206030557777
 23
-194.9500032043258
 33
0.0
  0
MTEXT
  5
1ED
330
1E7
100
AcDbEntity
  8
1
 62
     3
100
AcDbMText
 10
-302.556030557777
 20
-206.516295851339
 30
0.0
 40
3.5
 41
0.0
 71
     7
 72
     1
  1
14,5
  7
CONVERTER_11
 11
0.0
 21
1.0
 31
0.0
 73
     1
 44
0.60024009603842
  0
ENDBLK
  5
1EF
330
1E7
100
AcDbEntity
  8
0
100
AcDbBlockEnd
  0
BLOCK
  5
38A
330
383
100
AcDbEntity
  8
0
100
AcDbBlockBegin
  2
*D18
 70
     1
 10
0.0
 20
0.0
 30
0.0
  3
*D18
  1

  0
LINE
  5
384
330
383
100
AcDbEntity
  8
1
  6
Continuous
 62
     2
100
AcDbLine
 10
-249.2500045090477
 20
-174.981068027847
 30
0.0
 11
-291.7500045090476
 21
-174.981068027847
 31
0.0
  0
LINE
  5
385
330
383
100
AcDbEntity
  8
1
  6
Continuous
 62
     2
100
AcDbLine
 10
-249.2500045090477
 20
-112.4418592511154
 30
0.0
 11
-249.2500045090477
 21
-176.481068027847
 31
0.0
  0
LINE
  5
386
330
383
100
AcDbEntity
  8
1
  6
Continuous
 62
     2
100
AcDbLine
 10
-291.7500045090476
 20
-112.4418592511154
 30
0.0
 11
-291.7500045090476
 21
-176.481068027847
 31
0.0
  0
SOLID
  5
387
330
383
100
AcDbEntity
  8
1
 62
     2
100
AcDbTrace
 10
-252.7500045090477
 20
-175.4418517694029
 30
0.0
 11
-252.7500045090477
 21
-174.5202842862911
 31
0.0
 12
-249.2500045090477
 22
-174.981068027847
 32
0.0
 13
-249.2500045090477
 23
-174.981068027847
 33
0.0
  0
SOLID
  5
388
330
383
100
AcDbEntity
  8
1
 62
     2
100
AcDbTrace
 10
-288.2500045090476
 20
-174.5202842862911
 30
0.0
 11
-288.2500045090476
 21
-175.4418517694029
 31
0.0
 12
-291.7500045090476
 22
-174.981068027847
 32
0.0
 13
-291.7500045090476
 23
-174.981068027847
 33
0.0
  0
MTEXT
  5
389
330
383
100
AcDbEntity
  8
1
 62
     3
100
AcDbMText
 10
-276.215970987562
 20
-172.631068027847
 30
0.0
 40
3.5
 41
0.0
 71
     7
 72
     1
  1
42,5
  7
CONVERTER_11
 11
0.9999999999970619
 21
2.424068405545306E-6
 31
0.0
 73
     1
 44
0.60024009603842
  0
ENDBLK
  5
38B
330
383
100
AcDbEntity
  8
0
100
AcDbBlockEnd
  0
BLOCK
  5
395
330
38E
100
AcDbEntity
  8
0
100
AcDbBlockBegin
  2
*D19
 70
     1
 10
0.0
 20
0.0
 30
0.0
  3
*D19
  1

  0
LINE
  5
38F
330
38E
100
AcDbEntity
  8
1
  6
Continuous
 62
     2
100
AcDbLine
 10
-300.206030557777
 20
-102.0500008224112
 30
0.0
 11
-300.206030557777
 21
-141.6500008224112
 31
0.0
  0
LINE
  5
390
330
38E
100
AcDbEntity
  8
1
  6
Continuous
 62
     2
100
AcDbLine
 10
-282.9055565646771
 20
-102.0500008224112
 30
0.0
 11
-301.706030557777
 21
-102.0500008224112
 31
0.0
  0
LINE
  5
391
330
38E
100
AcDbEntity
  8
1
  6
Continuous
 62
     2
100
AcDbLine
 10
-253.0000045090477
 20
-141.6500008224112
 30
0.0
 11
-301.706030557777
 21
-141.6500008224112
 31
0.0
  0
SOLID
  5
392
330
38E
100
AcDbEntity
  8
1
 62
     2
100
AcDbTrace
 10
-299.7452468162211
 20
-105.5500008224112
 30
0.0
 11
-300.6668142993329
 21
-105.5500008224112
 31
0.0
 12
-300.206030557777
 22
-102.0500008224112
 32
0.0
 13
-300.206030557777
 23
-102.0500008224112
 33
0.0
  0
SOLID
  5
393
330
38E
100
AcDbEntity
  8
1
 62
     2
100
AcDbTrace
 10
-300.6668142993329
 20
-138.1500008224112
 30
0.0
 11
-299.7452468162211
 21
-138.1500008224112
 31
0.0
 12
-300.206030557777
 22
-141.6500008224112
 32
0.0
 13
-300.206030557777
 23
-141.6500008224112
 33
0.0
  0
MTEXT
  5
394
330
38E
100
AcDbEntity
  8
1
 62
     3
100
AcDbMText
 10
-302.056030557777
 20
-127.332608625309
 30
0.0
 40
3.5
 41
0.0
 71
     7
 72
     1
  1
39,6
  7
CONVERTER_11
 11
0.0
 21
1.0
 31
0.0
 73
     1
 44
0.60024009603842
  0
ENDBLK
  5
396
330
38E
100
AcDbEntity
  8
0
100
AcDbBlockEnd
  0
BLOCK
  5
3A0
330
399
100
AcDbEntity
  8
0
100
AcDbBlockBegin
  2
*D20
 70
     1
 10
0.0
 20
0.0
 30
0.0
  3
*D20
  1

  0
LINE
  5
39A
330
399
100
AcDbEntity
  8
1
  6
Continuous
 62
     2
100
AcDbLine
 10
-308.206030557777
 20
-102.0500008224112
 30
0.0
 11
-308.206030557777
 21
-147.9500008224112
 31
0.0
  0
LINE
  5
39B
330
399
100
AcDbEntity
  8
1
  6
Continuous
 62
     2
100
AcDbLine
 10
-282.9055565646771
 20
-102.0500008224112
 30
0.0
 11
-309.706030557777
 21
-102.0500008224112
 31
0.0
  0
LINE
  5
39C
330
399
100
AcDbEntity
  8
1
  6
Continuous
 62
     2
100
AcDbLine
 10
-257.5750045090476
 20
-147.9500008224112
 30
0.0
 11
-309.706030557777
 21
-147.9500008224112
 31
0.0
  0
SOLID
  5
39D
330
399
100
AcDbEntity
  8
1
 62
     2
100
AcDbTrace
 10
-307.7452468162211
 20
-105.5500008224112
 30
0.0
 11
-308.6668142993329
 21
-105.5500008224112
 31
0.0
 12
-308.206030557777
 22
-102.0500008224112
 32
0.0
 13
-308.206030557777
 23
-102.0500008224112
 33
0.0
  0
SOLID
  5
39E
330
399
100
AcDbEntity
  8
1
 62
     2
100
AcDbTrace
 10
-308.6668142993329
 20
-144.4500008224112
 30
0.0
 11
-307.7452468162211
 21
-144.4500008224112
 31
0.0
 12
-308.206030557777
 22
-147.9500008224112
 32
0.0
 13
-308.206030557777
 23
-147.9500008224112
 33
0.0
  0
MTEXT
  5
39F
330
399
100
AcDbEntity
  8
1
 62
     3
100
AcDbMText
 10
-310.056030557777
 20
-129.8125008224112
 30
0.0
 40
3.5
 41
0.0
 71
     7
 72
     1
  1
45,9
  7
CONVERTER_11
 11
0.0
 21
1.0
 31
0.0
 73
     1
 44
0.60024009603842
  0
ENDBLK
  5
3A1
330
399
100
AcDbEntity
  8
0
100
AcDbBlockEnd
  0
BLOCK
  5
3AB
330
3A4
100
AcDbEntity
  8
0
100
AcDbBlockBegin
  2
*D21
 70
     1
 10
0.0
 20
0.0
 30
0.0
  3
*D21
  1

  0
LINE
  5
3A5
330
3A4
100
AcDbEntity
  8
1
  6
Continuous
 62
     2
100
AcDbLine
 10
-270.5000045090477
 20
-158.218298484808
 30
0.0
 11
-253.0000045090477
 21
-158.218298484808
 31
0.0
  0
LINE
  5
3A6
330
3A4
100
AcDbEntity
  8
1
  6
Continuous
 62
     2
100
AcDbLine
 10
-270.5000045090477
 20
-139.455982981266
 30
0.0
 11
-270.5000045090477
 21
-159.718298484808
 31
0.0
  0
LINE
  5
3A7
330
3A4
100
AcDbEntity
  8
1
  6
Continuous
 62
     2
100
AcDbLine
 10
-253.0000045090477
 20
-141.6500008224112
 30
0.0
 11
-253.0000045090477
 21
-159.718298484808
 31
0.0
  0
SOLID
  5
3A8
330
3A4
100
AcDbEntity
  8
1
 62
     2
100
AcDbTrace
 10
-267.0000045090477
 20
-157.7575147432521
 30
0.0
 11
-267.0000045090477
 21
-158.6790822263639
 31
0.0
 12
-270.5000045090477
 22
-158.218298484808
 32
0.0
 13
-270.5000045090477
 23
-158.218298484808
 33
0.0
  0
SOLID
  5
3A9
330
3A4
100
AcDbEntity
  8
1
 62
     2
100
AcDbTrace
 10
-256.5000045090477
 20
-158.6790822263639
 30
0.0
 11
-256.5000045090477
 21
-157.7575147432521
 31
0.0
 12
-253.0000045090477
 22
-158.218298484808
 32
0.0
 13
-253.0000045090477
 23
-158.218298484808
 33
0.0
  0
MTEXT
  5
3AA
330
3A4
100
AcDbEntity
  8
1
 62
     3
100
AcDbMText
 10
-267.1041494256493
 20
-156.368298484808
 30
0.0
 40
3.5
 41
0.0
 71
     7
 72
     1
  1
17,5
  7
CONVERTER_11
 11
0.9999999999970619
 21
2.424068405545306E-6
 31
0.0
 73
     1
 44
0.60024009603842
  0
ENDBLK
  5
3AC
330
3A4
100
AcDbEntity
  8
0
100
AcDbBlockEnd
  0
BLOCK
  5
3B6
330
3AF
100
AcDbEntity
  8
0
100
AcDbBlockBegin
  2
*D22
 70
     1
 10
0.0
 20
0.0
 30
0.0
  3
*D22
  1

  0
LINE
  5
3B0
330
3AF
100
AcDbEntity
  8
1
  6
Continuous
 62
     2
100
AcDbLine
 10
-270.5000045090477
 20
-166.218298484808
 30
0.0
 11
-249.2500045090477
 21
-166.218298484808
 31
0.0
  0
LINE
  5
3B1
330
3AF
100
AcDbEntity
  8
1
  6
Continuous
 62
     2
100
AcDbLine
 10
-270.5000045090477
 20
-139.455982981266
 30
0.0
 11
-270.5000045090477
 21
-167.718298484808
 31
0.0
  0
LINE
  5
3B2
330
3AF
100
AcDbEntity
  8
1
  6
Continuous
 62
     2
100
AcDbLine
 10
-249.2500045090477
 20
-111.9418592511154
 30
0.0
 11
-249.2500045090477
 21
-167.718298484808
 31
0.0
  0
SOLID
  5
3B3
330
3AF
100
AcDbEntity
  8
1
 62
     2
100
AcDbTrace
 10
-267.0000045090477
 20
-165.7575147432521
 30
0.0
 11
-267.0000045090477
 21
-166.6790822263639
 31
0.0
 12
-270.5000045090477
 22
-166.218298484808
 32
0.0
 13
-270.5000045090477
 23
-166.218298484808
 33
0.0
  0
SOLID
  5
3B4
330
3AF
100
AcDbEntity
  8
1
 62
     2
100
AcDbTrace
 10
-252.7500045090477
 20
-166.6790822263639
 30
0.0
 11
-252.7500045090477
 21
-165.7575147432521
 31
0.0
 12
-249.2500045090477
 22
-166.218298484808
 32
0.0
 13
-249.2500045090477
 23
-166.218298484808
 33
0.0
  0
MTEXT
  5
3B5
330
3AF
100
AcDbEntity
  8
1
 62
     3
100
AcDbMText
 10
-265.7375045090477
 20
-164.368298484808
 30
0.0
 40
3.5
 41
0.0
 71
     7
 72
     1
  1
21,25
  7
CONVERTER_11
 11
0.9999999999970619
 21
2.424068405545306E-6
 31
0.0
 73
     1
 44
0.60024009603842
  0
ENDBLK
  5
3B7
330
3AF
100
AcDbEntity
  8
0
100
AcDbBlockEnd
  0
ENDSEC
  0
SECTION
  2
ENTITIES
  0
INSERT
  5
86
330
1F
100
AcDbEntity
  8
1
100
AcDbBlockReference
  2
1
 10
0.0
 20
0.0
 30
0.0
  0
ENDSEC
  0
SECTION
  2
OBJECTS
  0
DICTIONARY
  5
C
330
0
100
AcDbDictionary
281
     1
  3
ACAD_GROUP
350
D
  3
ACAD_LAYOUT
350
1A
  3
ACAD_MATERIAL
350
3B
  3
ACAD_MLEADERSTYLE
350
51A
  3
ACAD_MLINESTYLE
350
17
  3
ACAD_PLOTSETTINGS
350
19
  3
ACAD_PLOTSTYLENAME
350
E
  3
ACAD_TABLESTYLE
350
519
  3
ACAD_VISUALSTYLE
350
2A
  0
DICTIONARY
  5
D
102
{ACAD_REACTORS
330
C
102
}
330
C
100
AcDbDictionary
281
     1
  0
DICTIONARY
  5
1A
102
{ACAD_REACTORS
330
C
102
}
330
C
100
AcDbDictionary
281
     1
  3
Layout1
350
1E
  3
Layout2
350
26
  3
Model
350
22
  0
DICTIONARY
  5
3B
102
{ACAD_REACTORS
330
C
102
}
330
C
100
AcDbDictionary
281
     1
  3
ByBlock
350
3D
  3
ByLayer
350
3C
  3
Global
350
3E
  0
DICTIONARY
  5
51A
102
{ACAD_REACTORS
330
C
102
}
330
C
100
AcDbDictionary
281
     1
  0
DICTIONARY
  5
17
102
{ACAD_REACTORS
330
C
102
}
330
C
100
AcDbDictionary
281
     1
  3
Standard
350
18
  0
DICTIONARY
  5
19
102
{ACAD_REACTORS
330
C
102
}
330
C
100
AcDbDictionary
281
     1
  0
ACDBDICTIONARYWDFLT
  5
E
102
{ACAD_REACTORS
330
C
102
}
330
C
100
AcDbDictionary
281
     1
  3
Normal
350
F
100
AcDbDictionaryWithDefault
340
F
  0
DICTIONARY
  5
519
102
{ACAD_REACTORS
330
C
102
}
330
C
100
AcDbDictionary
281
     1
  0
DICTIONARY
  5
2A
102
{ACAD_REACTORS
330
C
102
}
330
C
100
AcDbDictionary
281
     1
  3
2dWireframe
350
2F
  3
3D Hidden
350
31
  3
3dWireframe
350
30
  3
Basic
350
32
  3
Brighten
350
36
  3
ColorChange
350
3A
  3
Conceptual
350
34
  3
Dim
350
35
  3
Facepattern
350
39
  3
Flat
350
2B
  3
FlatWithEdges
350
2C
  3
Gouraud
350
2D
  3
GouraudWithEdges
350
2E
  3
Linepattern
350
38
  3
Realistic
350
33
  3
Thicken
350
37
  0
LAYOUT
  5
1E
102
{ACAD_REACTORS
330
1A
102
}
330
1A
100
AcDbPlotSettings
  1

  2
none_device
  4

  6

 40
0.0
 41
0.0
 42
0.0
 43
0.0
 44
0.0
 45
0.0
 46
0.0
 47
0.0
 48
0.0
 49
0.0
140
0.0
141
0.0
142
1.0
143
1.0
 70
   688
 72
     0
 73
     0
 74
     5
  7

 75
    16
 76
     0
 77
     2
 78
   300
147
1.0
148
0.0
149
0.0
100
AcDbLayout
  1
Layout1
 70
     1
 71
     1
 10
0.0
 20
0.0
 11
12.0
 21
9.0
 12
0.0
 22
0.0
 32
0.0
 14
1.00000000000000E+20
 24
1.00000000000000E+20
 34
1.00000000000000E+20
 15
-1.00000000000000E+20
 25
-1.00000000000000E+20
 35
-1.00000000000000E+20
146
0.0
 13
0.0
 23
0.0
 33
0.0
 16
1.0
 26
0.0
 36
0.0
 17
0.0
 27
1.0
 37
0.0
 76
     0
330
1B
  0
LAYOUT
  5
26
102
{ACAD_REACTORS
330
1A
102
}
330
1A
100
AcDbPlotSettings
  1

  2
none_device
  4

  6

 40
0.0
 41
0.0
 42
0.0
 43
0.0
 44
0.0
 45
0.0
 46
0.0
 47
0.0
 48
0.0
 49
0.0
140
0.0
141
0.0
142
1.0
143
1.0
 70
   688
 72
     0
 73
     0
 74
     5
  7

 75
    16
 76
     0
 77
     2
 78
   300
147
1.0
148
0.0
149
0.0
100
AcDbLayout
  1
Layout2
 70
     1
 71
     2
 10
0.0
 20
0.0
 11
0.0
 21
0.0
 12
0.0
 22
0.0
 32
0.0
 14
0.0
 24
0.0
 34
0.0
 15
0.0
 25
0.0
 35
0.0
146
0.0
 13
0.0
 23
0.0
 33
0.0
 16
1.0
 26
0.0
 36
0.0
 17
0.0
 27
1.0
 37
0.0
 76
     0
330
23
  0
LAYOUT
  5
22
102
{ACAD_REACTORS
330
1A
102
}
330
1A
100
AcDbPlotSettings
  1

  2
none_device
  4

  6

 40
0.0
 41
0.0
 42
0.0
 43
0.0
 44
0.0
 45
0.0
 46
0.0
 47
0.0
 48
0.0
 49
0.0
140
0.0
141
0.0
142
1.0
143
1.0
 70
  1712
 72
     0
 73
     0
 74
     0
  7

 75
     0
 76
     0
 77
     2
 78
   300
147
1.0
148
0.0
149
0.0
100
AcDbLayout
  1
Model
 70
     1
 71
     0
 10
0.0
 20
0.0
 11
12.0
 21
9.0
 12
0.0
 22
0.0
 32
0.0
 14
-386.6109844318795
 24
-272.688563924429
 34
0.0
 15
-89.61098443188143
 25
-62.68856392442891
 35
0.0
146
0.0
 13
0.0
 23
0.0
 33
0.0
 16
1.0
 26
0.0
 36
0.0
 17
0.0
 27
1.0
 37
0.0
 76
     0
330
1F
331
29
  0
MATERIAL
  5
3D
102
{ACAD_REACTORS
330
3B
102
}
102
{ACAD_XDICTIONARY
360
515
102
}
330
3B
100
AcDbMaterial
  1
ByBlock
  0
MATERIAL
  5
3C
102
{ACAD_REACTORS
330
3B
102
}
102
{ACAD_XDICTIONARY
360
513
102
}
330
3B
100
AcDbMaterial
  1
ByLayer
  0
MATERIAL
  5
3E
102
{ACAD_REACTORS
330
3B
102
}
102
{ACAD_XDICTIONARY
360
517
102
}
330
3B
100
AcDbMaterial
  1
Global
  0
MLINESTYLE
  5
18
102
{ACAD_REACTORS
330
17
102
}
330
17
100
AcDbMlineStyle
  2
Standard
 70
     0
  3

 62
   256
 51
90.0
 52
90.0
 71
     2
 49
0.5
 62
   256
  6
BYLAYER
 49
-0.5
 62
   256
  6
BYLAYER
  0
ACDBPLACEHOLDER
  5
F
102
{ACAD_REACTORS
330
E
102
}
330
E
  0
VISUALSTYLE
  5
2F
102
{ACAD_REACTORS
330
2A
102
}
102
{ACAD_XDICTIONARY
360
4FB
102
}
330
2A
100
AcDbVisualStyle
  2
2dWireframe
 70
     4
 71
     0
 72
     2
 73
     0
 90
        0
 40
-0.6
 41
-30.0
 62
     5
 63
     7
421
 16777215
 74
     1
 91
        4
 64
     7
 65
   257
 75
     1
175
     1
 42
1.0
 92
        0
 66
   257
 43
1.0
 76
     1
 77
     6
 78
     2
 67
     7
 79
     5
170
     0
171
     0
290
     0
174
     0
 93
        1
 44
0.0
173
     0
291
     0
 45
0.0
1001
ACAD
1000
AcDbSavedByObjectVersion
1070
     0
  0
VISUALSTYLE
  5
31
102
{ACAD_REACTORS
330
2A
102
}
102
{ACAD_XDICTIONARY
360
4FF
102
}
330
2A
100
AcDbVisualStyle
  2
3D Hidden
 70
     6
 71
     1
 72
     2
 73
     2
 90
        0
 40
-0.6
 41
-30.0
 62
     5
 63
     7
421
 16777215
 74
     2
 91
        2
 64
     7
 65
   257
 75
     2
175
     1
 42
40.0
 92
        0
 66
   257
 43
1.0
 76
     1
 77
     6
 78
     2
 67
     7
 79
     3
170
     0
171
     0
290
     0
174
     0
 93
        1
 44
0.0
173
     0
291
     0
 45
0.0
1001
ACAD
1000
AcDbSavedByObjectVersion
1070
     0
  0
VISUALSTYLE
  5
30
102
{ACAD_REACTORS
330
2A
102
}
102
{ACAD_XDICTIONARY
360
4FD
102
}
330
2A
100
AcDbVisualStyle
  2
3dWireframe
 70
     5
 71
     0
 72
     2
 73
     0
 90
        0
 40
-0.6
 41
-30.0
 62
     5
 63
     7
421
 16777215
 74
     1
 91
        4
 64
     7
 65
   257
 75
     1
175
     1
 42
1.0
 92
        0
 66
   257
 43
1.0
 76
     1
 77
     6
 78
     2
 67
     7
 79
     5
170
     0
171
     0
290
     0
174
     0
 93
        1
 44
0.0
173
     0
291
     0
 45
0.0
1001
ACAD
1000
AcDbSavedByObjectVersion
1070
     0
  0
VISUALSTYLE
  5
32
102
{ACAD_REACTORS
330
2A
102
}
102
{ACAD_XDICTIONARY
360
501
102
}
330
2A
100
AcDbVisualStyle
  2
Basic
 70
     7
 71
     1
 72
     0
 73
     1
 90
        0
 40
-0.6
 41
-30.0
 62
     5
 63
     7
421
 16777215
 74
     0
 91
        4
 64
     7
 65
   257
 75
     1
175
     1
 42
1.0
 92
        8
 66
     7
 43
1.0
 76
     1
 77
     6
 78
     2
 67
     7
 79
     5
170
     0
171
     0
290
     0
174
     0
 93
        1
 44
0.0
173
     0
291
     1
 45
0.0
1001
ACAD
1000
AcDbSavedByObjectVersion
1070
     0
  0
VISUALSTYLE
  5
36
102
{ACAD_REACTORS
330
2A
102
}
102
{ACAD_XDICTIONARY
360
509
102
}
330
2A
100
AcDbVisualStyle
  2
Brighten
 70
    12
 71
     2
 72
     2
 73
     0
 90
        0
 40
-0.6
 41
-30.0
 62
     5
 63
     7
421
 16777215
 74
     1
 91
        4
 64
     7
 65
   257
 75
     1
175
     1
 42
1.0
 92
        8
 66
     7
 43
1.0
 76
     1
 77
     6
 78
     2
 67
     7
 79
     5
170
     0
171
     0
290
     0
174
     0
 93
        1
 44
50.0
173
     0
291
     1
 45
0.0
1001
ACAD
1000
AcDbSavedByObjectVersion
1070
     0
  0
VISUALSTYLE
  5
3A
102
{ACAD_REACTORS
330
2A
102
}
102
{ACAD_XDICTIONARY
360
511
102
}
330
2A
100
AcDbVisualStyle
  2
ColorChange
 70
    16
 71
     2
 72
     2
 73
     3
 90
        0
 40
-0.6
 41
-30.0
 62
     5
 63
     8
421
  8421504
 74
     1
 91
        4
 64
     7
 65
   257
 75
     1
175
     1
 42
1.0
 92
        8
 66
     8
424
  8421504
 43
1.0
 76
     1
 77
     6
 78
     2
 67
     7
 79
     5
170
     0
171
     0
290
     0
174
     0
 93
        1
 44
0.0
173
     0
291
     1
 45
0.0
1001
ACAD
1000
AcDbSavedByObjectVersion
1070
     0
  0
VISUALSTYLE
  5
34
102
{ACAD_REACTORS
330
2A
102
}
102
{ACAD_XDICTIONARY
360
505
102
}
330
2A
100
AcDbVisualStyle
  2
Conceptual
 70
     9
 71
     3
 72
     2
 73
     0
 90
        0
 40
-0.6
 41
-30.0
 62
     5
 63
     7
421
 16777215
 74
     2
 91
        2
 64
     7
 65
   257
 75
     1
175
     1
 42
40.0
 92
        8
 66
     7
 43
1.0
 76
     1
 77
     6
 78
     2
 67
     7
 79
     3
170
     0
171
     0
290
     0
174
     0
 93
        1
 44
0.0
173
     0
291
     0
 45
0.0
1001
ACAD
1000
AcDbSavedByObjectVersion
1070
     0
  0
VISUALSTYLE
  5
35
102
{ACAD_REACTORS
330
2A
102
}
102
{ACAD_XDICTIONARY
360
507
102
}
330
2A
100
AcDbVisualStyle
  2
Dim
 70
    11
 71
     2
 72
     2
 73
     0
 90
        0
 40
-0.6
 41
-30.0
 62
     5
 63
     7
421
 16777215
 74
     1
 91
        4
 64
     7
 65
   257
 75
     1
175
     1
 42
1.0
 92
        8
 66
     7
 43
1.0
 76
     1
 77
     6
 78
     2
 67
     7
 79
     5
170
     0
171
     0
290
     0
174
     0
 93
        1
 44
-50.0
173
     0
291
     1
 45
0.0
1001
ACAD
1000
AcDbSavedByObjectVersion
1070
     0
  0
VISUALSTYLE
  5
39
102
{ACAD_REACTORS
330
2A
102
}
102
{ACAD_XDICTIONARY
360
50F
102
}
330
2A
100
AcDbVisualStyle
  2
Facepattern
 70
    15
 71
     2
 72
     2
 73
     0
 90
        0
 40
-0.6
 41
-30.0
 62
     5
 63
     7
421
 16777215
 74
     1
 91
        4
 64
     7
 65
   257
 75
     1
175
     1
 42
1.0
 92
        8
 66
     7
 43
1.0
 76
     1
 77
     6
 78
     2
 67
     7
 79
     5
170
     0
171
     0
290
     0
174
     0
 93
        1
 44
0.0
173
     0
291
     1
 45
0.0
1001
ACAD
1000
AcDbSavedByObjectVersion
1070
     0
  0
VISUALSTYLE
  5
2B
102
{ACAD_REACTORS
330
2A
102
}
102
{ACAD_XDICTIONARY
360
4F3
102
}
330
2A
100
AcDbVisualStyle
  2
Flat
 70
     0
 71
     2
 72
     1
 73
     1
 90
        2
 40
-0.6
 41
30.0
 62
     5
 63
     7
421
 16777215
 74
     0
 91
        4
 64
     7
 65
   257
 75
     1
175
     1
 42
1.0
 92
        8
 66
     7
 43
1.0
 76
     1
 77
     6
 78
     2
 67
     7
 79
     5
170
     0
171
     0
290
     0
174
     0
 93
       13
 44
0.0
173
     0
291
     1
 45
0.0
1001
ACAD
1000
AcDbSavedByObjectVersion
1070
     0
  0
VISUALSTYLE
  5
2C
102
{ACAD_REACTORS
330
2A
102
}
102
{ACAD_XDICTIONARY
360
4F5
102
}
330
2A
100
AcDbVisualStyle
  2
FlatWithEdges
 70
     1
 71
     2
 72
     1
 73
     1
 90
        2
 40
-0.6
 41
30.0
 62
     5
 63
     7
421
 16777215
 74
     1
 91
        4
 64
     7
 65
   257
 75
     1
175
     1
 42
1.0
 92
        0
 66
   257
 43
1.0
 76
     1
 77
     6
 78
     2
 67
     7
 79
     5
170
     0
171
     0
290
     0
174
     0
 93
       13
 44
0.0
173
     0
291
     1
 45
0.0
1001
ACAD
1000
AcDbSavedByObjectVersion
1070
     0
  0
VISUALSTYLE
  5
2D
102
{ACAD_REACTORS
330
2A
102
}
102
{ACAD_XDICTIONARY
360
4F7
102
}
330
2A
100
AcDbVisualStyle
  2
Gouraud
 70
     2
 71
     2
 72
     2
 73
     1
 90
        2
 40
-0.6
 41
30.0
 62
     5
 63
     7
421
 16777215
 74
     0
 91
        4
 64
     7
 65
   257
 75
     1
175
     1
 42
1.0
 92
        0
 66
     7
 43
1.0
 76
     1
 77
     6
 78
     2
 67
     7
 79
     5
170
     0
171
     0
290
     0
174
     0
 93
       13
 44
0.0
173
     0
291
     1
 45
0.0
1001
ACAD
1000
AcDbSavedByObjectVersion
1070
     0
  0
VISUALSTYLE
  5
2E
102
{ACAD_REACTORS
330
2A
102
}
102
{ACAD_XDICTIONARY
360
4F9
102
}
330
2A
100
AcDbVisualStyle
  2
GouraudWithEdges
 70
     3
 71
     2
 72
     2
 73
     1
 90
        2
 40
-0.6
 41
30.0
 62
     5
 63
     7
421
 16777215
 74
     1
 91
        4
 64
     7
 65
   257
 75
     1
175
     1
 42
1.0
 92
        0
 66
   257
 43
1.0
 76
     1
 77
     6
 78
     2
 67
     7
 79
     5
170
     0
171
     0
290
     0
174
     0
 93
       13
 44
0.0
173
     0
291
     1
 45
0.0
1001
ACAD
1000
AcDbSavedByObjectVersion
1070
     0
  0
VISUALSTYLE
  5
38
102
{ACAD_REACTORS
330
2A
102
}
102
{ACAD_XDICTIONARY
360
50D
102
}
330
2A
100
AcDbVisualStyle
  2
Linepattern
 70
    14
 71
     2
 72
     2
 73
     0
 90
        0
 40
-0.6
 41
-30.0
 62
     5
 63
     7
421
 16777215
 74
     1
 91
        4
 64
     7
 65
   257
 75
     7
175
     7
 42
1.0
 92
        8
 66
     7
 43
1.0
 76
     1
 77
     6
 78
     2
 67
     7
 79
     5
170
     0
171
     0
290
     0
174
     0
 93
        1
 44
0.0
173
     0
291
     1
 45
0.0
1001
ACAD
1000
AcDbSavedByObjectVersion
1070
     0
  0
VISUALSTYLE
  5
33
102
{ACAD_REACTORS
330
2A
102
}
102
{ACAD_XDICTIONARY
360
503
102
}
330
2A
100
AcDbVisualStyle
  2
Realistic
 70
     8
 71
     2
 72
     2
 73
     0
 90
        0
 40
-0.6
 41
-30.0
 62
     5
 63
     7
421
 16777215
 74
     1
 91
        0
 64
     7
 65
   257
 75
     1
175
     1
 42
1.0
 92
        8
 66
     8
424
  7895160
 43
1.0
 76
     1
 77
     6
 78
     2
 67
     7
 79
     5
170
     0
171
     0
290
     0
174
     0
 93
       13
 44
0.0
173
     0
291
     0
 45
0.0
1001
ACAD
1000
AcDbSavedByObjectVersion
1070
     0
  0
VISUALSTYLE
  5
37
102
{ACAD_REACTORS
330
2A
102
}
102
{ACAD_XDICTIONARY
360
50B
102
}
330
2A
100
AcDbVisualStyle
  2
Thicken
 70
    13
 71
     2
 72
     2
 73
     0
 90
        0
 40
-0.6
 41
-30.0
 62
     5
 63
     7
421
 16777215
 74
     1
 91
        4
 64
     7
 65
   257
 75
     1
175
     1
 42
1.0
 92
       12
 66
     7
 43
1.0
 76
     1
 77
     6
 78
     2
 67
     7
 79
     5
170
     0
171
     0
290
     0
174
     0
 93
        1
 44
0.0
173
     0
291
     1
 45
0.0
1001
ACAD
1000
AcDbSavedByObjectVersion
1070
     0
  0
DICTIONARY
  5
515
330
3D
100
AcDbDictionary
280
     1
281
     1
  3
ACAD_XREC_ROUNDTRIP
360
516
  0
DICTIONARY
  5
513
330
3C
100
AcDbDictionary
280
     1
281
     1
  3
ACAD_XREC_ROUNDTRIP
360
514
  0
DICTIONARY
  5
517
330
3E
100
AcDbDictionary
280
     1
281
     1
  3
ACAD_XREC_ROUNDTRIP
360
518
  0
DICTIONARY
  5
4FB
330
2F
100
AcDbDictionary
280
     1
281
     1
  3
ACAD_XREC_ROUNDTRIP
360
4FC
  0
DICTIONARY
  5
4FF
330
31
100
AcDbDictionary
280
     1
281
     1
  3
ACAD_XREC_ROUNDTRIP
360
500
  0
DICTIONARY
  5
4FD
330
30
100
AcDbDictionary
280
     1
281
     1
  3
ACAD_XREC_ROUNDTRIP
360
4FE
  0
DICTIONARY
  5
501
330
32
100
AcDbDictionary
280
     1
281
     1
  3
ACAD_XREC_ROUNDTRIP
360
502
  0
DICTIONARY
  5
509
330
36
100
AcDbDictionary
280
     1
281
     1
  3
ACAD_XREC_ROUNDTRIP
360
50A
  0
DICTIONARY
  5
511
330
3A
100
AcDbDictionary
280
     1
281
     1
  3
ACAD_XREC_ROUNDTRIP
360
512
  0
DICTIONARY
  5
505
330
34
100
AcDbDictionary
280
     1
281
     1
  3
ACAD_XREC_ROUNDTRIP
360
506
  0
DICTIONARY
  5
507
330
35
100
AcDbDictionary
280
     1
281
     1
  3
ACAD_XREC_ROUNDTRIP
360
508
  0
DICTIONARY
  5
50F
330
39
100
AcDbDictionary
280
     1
281
     1
  3
ACAD_XREC_ROUNDTRIP
360
510
  0
DICTIONARY
  5
4F3
330
2B
100
AcDbDictionary
280
     1
281
     1
  3
ACAD_XREC_ROUNDTRIP
360
4F4
  0
DICTIONARY
  5
4F5
330
2C
100
AcDbDictionary
280
     1
281
     1
  3
ACAD_XREC_ROUNDTRIP
360
4F6
  0
DICTIONARY
  5
4F7
330
2D
100
AcDbDictionary
280
     1
281
     1
  3
ACAD_XREC_ROUNDTRIP
360
4F8
  0
DICTIONARY
  5
4F9
330
2E
100
AcDbDictionary
280
     1
281
     1
  3
ACAD_XREC_ROUNDTRIP
360
4FA
  0
DICTIONARY
  5
50D
330
38
100
AcDbDictionary
280
     1
281
     1
  3
ACAD_XREC_ROUNDTRIP
360
50E
  0
DICTIONARY
  5
503
330
33
100
AcDbDictionary
280
     1
281
     1
  3
ACAD_XREC_ROUNDTRIP
360
504
  0
DICTIONARY
  5
50B
330
37
100
AcDbDictionary
280
     1
281
     1
  3
ACAD_XREC_ROUNDTRIP
360
50C
  0
XRECORD
  5
516
102
{ACAD_REACTORS
330
515
102
}
330
515
100
AcDbXrecord
280
     1
102
MATERIAL
148
0.0
149
0.0
149
0.0
 93
        0
 94
      127
282
     0
 72
     1
 77
     1
171
     1
175
     1
179
     1
273
     0
  0
XRECORD
  5
514
102
{ACAD_REACTORS
330
513
102
}
330
513
100
AcDbXrecord
280
     1
102
MATERIAL
148
0.0
149
0.0
149
0.0
 93
        0
 94
      127
282
     0
 72
     1
 77
     1
171
     1
175
     1
179
     1
273
     0
  0
XRECORD
  5
518
102
{ACAD_REACTORS
330
517
102
}
330
517
100
AcDbXrecord
280
     1
102
MATERIAL
148
0.0
149
0.0
149
0.0
 93
        0
 94
      127
282
     0
 72
     1
 77
     1
171
     1
175
     1
179
     1
273
     0
  0
XRECORD
  5
4FC
102
{ACAD_REACTORS
330
4FB
102
}
330
4FB
100
AcDbXrecord
280
     1
102
RTVSPropertyOp0
 70
     1
102
RTVSPropertyOp1
 70
     1
102
RTVSPropertyOp2
 70
     1
102
RTVSPropertyOp3
 70
     1
102
RTVSPropertyOp4
 70
     1
102
RTVSPropertyOp5
 70
     1
102
RTVSPropertyOp6
 70
     1
102
RTVSPropertyOp7
 70
     1
102
RTVSPropertyOp8
 70
     1
102
RTVSPropertyOp9
 70
     1
102
RTVSPropertyOp10
 70
     1
102
RTVSPropertyOp11
 70
     1
102
RTVSPropertyOp12
 70
     1
102
RTVSPropertyOp13
 70
     1
102
RTVSPropertyOp14
 70
     1
102
RTVSPropertyOp15
 70
     1
102
RTVSPropertyOp16
 70
     1
102
RTVSPropertyOp17
 70
     1
102
RTVSPropertyOp18
 70
     1
102
RTVSPropertyOp19
 70
     1
102
RTVSPropertyOp20
 70
     1
102
RTVSPropertyOp21
 70
     1
102
RTVSPropertyOp22
 70
     1
102
RTVSPropertyOp23
 70
     1
102
RTVSPropertyOp24
 70
     1
102
RTVSPropertyOp25
 70
     1
102
RTVSPropertyOp26
 70
     1
102
RTVSPropertyOp27
 70
     1
102
RTVSPropertyOp28
 70
     1
102
RTVSPropertyOp29
 70
     1
102
RTVSPropertyOp30
 70
     1
102
RTVSPropertyOp31
 70
     1
102
RTVSPropertyOp32
 70
     1
  0
XRECORD
  5
500
102
{ACAD_REACTORS
330
4FF
102
}
330
4FF
100
AcDbXrecord
280
     1
102
RTVSPropertyOp0
 70
     1
102
RTVSPropertyOp1
 70
     1
102
RTVSPropertyOp2
 70
     1
102
RTVSPropertyOp3
 70
     1
102
RTVSPropertyOp4
 70
     1
102
RTVSPropertyOp5
 70
     1
102
RTVSPropertyOp6
 70
     1
102
RTVSPropertyOp7
 70
     1
102
RTVSPropertyOp8
 70
     1
102
RTVSPropertyOp9
 70
     1
102
RTVSPropertyOp10
 70
     1
102
RTVSPropertyOp11
 70
     1
102
RTVSPropertyOp12
 70
     1
102
RTVSPropertyOp13
 70
     1
102
RTVSPropertyOp14
 70
     1
102
RTVSPropertyOp15
 70
     1
102
RTVSPropertyOp16
 70
     1
102
RTVSPropertyOp17
 70
     1
102
RTVSPropertyOp18
 70
     1
102
RTVSPropertyOp19
 70
     1
102
RTVSPropertyOp20
 70
     1
102
RTVSPropertyOp21
 70
     1
102
RTVSPropertyOp22
 70
     1
102
RTVSPropertyOp23
 70
     1
102
RTVSPropertyOp24
 70
     1
102
RTVSPropertyOp25
 70
     1
102
RTVSPropertyOp26
 70
     1
102
RTVSPropertyOp27
 70
     1
102
RTVSPropertyOp28
 70
     1
102
RTVSPropertyOp29
 70
     1
102
RTVSPropertyOp30
 70
     1
102
RTVSPropertyOp31
 70
     1
102
RTVSPropertyOp32
 70
     1
  0
XRECORD
  5
4FE
102
{ACAD_REACTORS
330
4FD
102
}
330
4FD
100
AcDbXrecord
280
     1
102
RTVSPropertyOp0
 70
     1
102
RTVSPropertyOp1
 70
     1
102
RTVSPropertyOp2
 70
     1
102
RTVSPropertyOp3
 70
     1
102
RTVSPropertyOp4
 70
     1
102
RTVSPropertyOp5
 70
     1
102
RTVSPropertyOp6
 70
     1
102
RTVSPropertyOp7
 70
     1
102
RTVSPropertyOp8
 70
     1
102
RTVSPropertyOp9
 70
     1
102
RTVSPropertyOp10
 70
     1
102
RTVSPropertyOp11
 70
     1
102
RTVSPropertyOp12
 70
     1
102
RTVSPropertyOp13
 70
     1
102
RTVSPropertyOp14
 70
     1
102
RTVSPropertyOp15
 70
     1
102
RTVSPropertyOp16
 70
     1
102
RTVSPropertyOp17
 70
     1
102
RTVSPropertyOp18
 70
     1
102
RTVSPropertyOp19
 70
     1
102
RTVSPropertyOp20
 70
     1
102
RTVSPropertyOp21
 70
     1
102
RTVSPropertyOp22
 70
     1
102
RTVSPropertyOp23
 70
     1
102
RTVSPropertyOp24
 70
     1
102
RTVSPropertyOp25
 70
     1
102
RTVSPropertyOp26
 70
     1
102
RTVSPropertyOp27
 70
     1
102
RTVSPropertyOp28
 70
     1
102
RTVSPropertyOp29
 70
     1
102
RTVSPropertyOp30
 70
     1
102
RTVSPropertyOp31
 70
     1
102
RTVSPropertyOp32
 70
     1
  0
XRECORD
  5
502
102
{ACAD_REACTORS
330
501
102
}
330
501
100
AcDbXrecord
280
     1
102
RTVSPropertyOp0
 70
     1
102
RTVSPropertyOp1
 70
     1
102
RTVSPropertyOp2
 70
     1
102
RTVSPropertyOp3
 70
     1
102
RTVSPropertyOp4
 70
     1
102
RTVSPropertyOp5
 70
     1
102
RTVSPropertyOp6
 70
     1
102
RTVSPropertyOp7
 70
     1
102
RTVSPropertyOp8
 70
     1
102
RTVSPropertyOp9
 70
     1
102
RTVSPropertyOp10
 70
     1
102
RTVSPropertyOp11
 70
     1
102
RTVSPropertyOp12
 70
     1
102
RTVSPropertyOp13
 70
     1
102
RTVSPropertyOp14
 70
     1
102
RTVSPropertyOp15
 70
     1
102
RTVSPropertyOp16
 70
     1
102
RTVSPropertyOp17
 70
     1
102
RTVSPropertyOp18
 70
     1
102
RTVSPropertyOp19
 70
     1
102
RTVSPropertyOp20
 70
     1
102
RTVSPropertyOp21
 70
     1
102
RTVSPropertyOp22
 70
     1
102
RTVSPropertyOp23
 70
     1
102
RTVSPropertyOp24
 70
     1
102
RTVSPropertyOp25
 70
     1
102
RTVSPropertyOp26
 70
     1
102
RTVSPropertyOp27
 70
     1
102
RTVSPropertyOp28
 70
     1
102
RTVSPropertyOp29
 70
     1
102
RTVSPropertyOp30
 70
     1
102
RTVSPropertyOp31
 70
     1
102
RTVSPropertyOp32
 70
     1
  0
XRECORD
  5
50A
102
{ACAD_REACTORS
330
509
102
}
330
509
100
AcDbXrecord
280
     1
102
RTVSPropertyOp0
 70
     1
102
RTVSPropertyOp1
 70
     1
102
RTVSPropertyOp2
 70
     1
102
RTVSPropertyOp3
 70
     1
102
RTVSPropertyOp4
 70
     1
102
RTVSPropertyOp5
 70
     1
102
RTVSPropertyOp6
 70
     1
102
RTVSPropertyOp7
 70
     1
102
RTVSPropertyOp8
 70
     1
102
RTVSPropertyOp9
 70
     1
102
RTVSPropertyOp10
 70
     1
102
RTVSPropertyOp11
 70
     1
102
RTVSPropertyOp12
 70
     1
102
RTVSPropertyOp13
 70
     1
102
RTVSPropertyOp14
 70
     1
102
RTVSPropertyOp15
 70
     1
102
RTVSPropertyOp16
 70
     1
102
RTVSPropertyOp17
 70
     1
102
RTVSPropertyOp18
 70
     1
102
RTVSPropertyOp19
 70
     1
102
RTVSPropertyOp20
 70
     1
102
RTVSPropertyOp21
 70
     1
102
RTVSPropertyOp22
 70
     1
102
RTVSPropertyOp23
 70
     1
102
RTVSPropertyOp24
 70
     1
102
RTVSPropertyOp25
 70
     1
102
RTVSPropertyOp26
 70
     1
102
RTVSPropertyOp27
 70
     1
102
RTVSPropertyOp28
 70
     1
102
RTVSPropertyOp29
 70
     1
102
RTVSPropertyOp30
 70
     1
102
RTVSPropertyOp31
 70
     1
102
RTVSPropertyOp32
 70
     1
  0
XRECORD
  5
512
102
{ACAD_REACTORS
330
511
102
}
330
511
100
AcDbXrecord
280
     1
102
RTVSPropertyOp0
 70
     1
102
RTVSPropertyOp1
 70
     1
102
RTVSPropertyOp2
 70
     1
102
RTVSPropertyOp3
 70
     1
102
RTVSPropertyOp4
 70
     1
102
RTVSPropertyOp5
 70
     1
102
RTVSPropertyOp6
 70
     1
102
RTVSPropertyOp7
 70
     1
102
RTVSPropertyOp8
 70
     1
102
RTVSPropertyOp9
 70
     1
102
RTVSPropertyOp10
 70
     1
102
RTVSPropertyOp11
 70
     1
102
RTVSPropertyOp12
 70
     1
102
RTVSPropertyOp13
 70
     1
102
RTVSPropertyOp14
 70
     1
102
RTVSPropertyOp15
 70
     1
102
RTVSPropertyOp16
 70
     1
102
RTVSPropertyOp17
 70
     1
102
RTVSPropertyOp18
 70
     1
102
RTVSPropertyOp19
 70
     1
102
RTVSPropertyOp20
 70
     1
102
RTVSPropertyOp21
 70
     1
102
RTVSPropertyOp22
 70
     1
102
RTVSPropertyOp23
 70
     1
102
RTVSPropertyOp24
 70
     1
102
RTVSPropertyOp25
 70
     1
102
RTVSPropertyOp26
 70
     1
102
RTVSPropertyOp27
 70
     1
102
RTVSPropertyOp28
 70
     1
102
RTVSPropertyOp29
 70
     1
102
RTVSPropertyOp30
 70
     1
102
RTVSPropertyOp31
 70
     1
102
RTVSPropertyOp32
 70
     1
  0
XRECORD
  5
506
102
{ACAD_REACTORS
330
505
102
}
330
505
100
AcDbXrecord
280
     1
102
RTVSPropertyOp0
 70
     1
102
RTVSPropertyOp1
 70
     1
102
RTVSPropertyOp2
 70
     1
102
RTVSPropertyOp3
 70
     1
102
RTVSPropertyOp4
 70
     1
102
RTVSPropertyOp5
 70
     1
102
RTVSPropertyOp6
 70
     1
102
RTVSPropertyOp7
 70
     1
102
RTVSPropertyOp8
 70
     1
102
RTVSPropertyOp9
 70
     1
102
RTVSPropertyOp10
 70
     1
102
RTVSPropertyOp11
 70
     1
102
RTVSPropertyOp12
 70
     1
102
RTVSPropertyOp13
 70
     1
102
RTVSPropertyOp14
 70
     1
102
RTVSPropertyOp15
 70
     1
102
RTVSPropertyOp16
 70
     1
102
RTVSPropertyOp17
 70
     1
102
RTVSPropertyOp18
 70
     1
102
RTVSPropertyOp19
 70
     1
102
RTVSPropertyOp20
 70
     1
102
RTVSPropertyOp21
 70
     1
102
RTVSPropertyOp22
 70
     1
102
RTVSPropertyOp23
 70
     1
102
RTVSPropertyOp24
 70
     1
102
RTVSPropertyOp25
 70
     1
102
RTVSPropertyOp26
 70
     1
102
RTVSPropertyOp27
 70
     1
102
RTVSPropertyOp28
 70
     1
102
RTVSPropertyOp29
 70
     1
102
RTVSPropertyOp30
 70
     1
102
RTVSPropertyOp31
 70
     1
102
RTVSPropertyOp32
 70
     1
  0
XRECORD
  5
508
102
{ACAD_REACTORS
330
507
102
}
330
507
100
AcDbXrecord
280
     1
102
RTVSPropertyOp0
 70
     1
102
RTVSPropertyOp1
 70
     1
102
RTVSPropertyOp2
 70
     1
102
RTVSPropertyOp3
 70
     1
102
RTVSPropertyOp4
 70
     1
102
RTVSPropertyOp5
 70
     1
102
RTVSPropertyOp6
 70
     1
102
RTVSPropertyOp7
 70
     1
102
RTVSPropertyOp8
 70
     1
102
RTVSPropertyOp9
 70
     1
102
RTVSPropertyOp10
 70
     1
102
RTVSPropertyOp11
 70
     1
102
RTVSPropertyOp12
 70
     1
102
RTVSPropertyOp13
 70
     1
102
RTVSPropertyOp14
 70
     1
102
RTVSPropertyOp15
 70
     1
102
RTVSPropertyOp16
 70
     1
102
RTVSPropertyOp17
 70
     1
102
RTVSPropertyOp18
 70
     1
102
RTVSPropertyOp19
 70
     1
102
RTVSPropertyOp20
 70
     1
102
RTVSPropertyOp21
 70
     1
102
RTVSPropertyOp22
 70
     1
102
RTVSPropertyOp23
 70
     1
102
RTVSPropertyOp24
 70
     1
102
RTVSPropertyOp25
 70
     1
102
RTVSPropertyOp26
 70
     1
102
RTVSPropertyOp27
 70
     1
102
RTVSPropertyOp28
 70
     1
102
RTVSPropertyOp29
 70
     1
102
RTVSPropertyOp30
 70
     1
102
RTVSPropertyOp31
 70
     1
102
RTVSPropertyOp32
 70
     1
  0
XRECORD
  5
510
102
{ACAD_REACTORS
330
50F
102
}
330
50F
100
AcDbXrecord
280
     1
102
RTVSPropertyOp0
 70
     1
102
RTVSPropertyOp1
 70
     1
102
RTVSPropertyOp2
 70
     1
102
RTVSPropertyOp3
 70
     1
102
RTVSPropertyOp4
 70
     1
102
RTVSPropertyOp5
 70
     1
102
RTVSPropertyOp6
 70
     1
102
RTVSPropertyOp7
 70
     1
102
RTVSPropertyOp8
 70
     1
102
RTVSPropertyOp9
 70
     1
102
RTVSPropertyOp10
 70
     1
102
RTVSPropertyOp11
 70
     1
102
RTVSPropertyOp12
 70
     1
102
RTVSPropertyOp13
 70
     1
102
RTVSPropertyOp14
 70
     1
102
RTVSPropertyOp15
 70
     1
102
RTVSPropertyOp16
 70
     1
102
RTVSPropertyOp17
 70
     1
102
RTVSPropertyOp18
 70
     1
102
RTVSPropertyOp19
 70
     1
102
RTVSPropertyOp20
 70
     1
102
RTVSPropertyOp21
 70
     1
102
RTVSPropertyOp22
 70
     1
102
RTVSPropertyOp23
 70
     1
102
RTVSPropertyOp24
 70
     1
102
RTVSPropertyOp25
 70
     1
102
RTVSPropertyOp26
 70
     1
102
RTVSPropertyOp27
 70
     1
102
RTVSPropertyOp28
 70
     1
102
RTVSPropertyOp29
 70
     1
102
RTVSPropertyOp30
 70
     1
102
RTVSPropertyOp31
 70
     1
102
RTVSPropertyOp32
 70
     1
  0
XRECORD
  5
4F4
102
{ACAD_REACTORS
330
4F3
102
}
330
4F3
100
AcDbXrecord
280
     1
102
RTVSPropertyOp0
 70
     1
102
RTVSPropertyOp1
 70
     1
102
RTVSPropertyOp2
 70
     1
102
RTVSPropertyOp3
 70
     1
102
RTVSPropertyOp4
 70
     1
102
RTVSPropertyOp5
 70
     1
102
RTVSPropertyOp6
 70
     1
102
RTVSPropertyOp7
 70
     1
102
RTVSPropertyOp8
 70
     1
102
RTVSPropertyOp9
 70
     1
102
RTVSPropertyOp10
 70
     1
102
RTVSPropertyOp11
 70
     1
102
RTVSPropertyOp12
 70
     1
102
RTVSPropertyOp13
 70
     1
102
RTVSPropertyOp14
 70
     1
102
RTVSPropertyOp15
 70
     1
102
RTVSPropertyOp16
 70
     1
102
RTVSPropertyOp17
 70
     1
102
RTVSPropertyOp18
 70
     1
102
RTVSPropertyOp19
 70
     1
102
RTVSPropertyOp20
 70
     1
102
RTVSPropertyOp21
 70
     1
102
RTVSPropertyOp22
 70
     1
102
RTVSPropertyOp23
 70
     1
102
RTVSPropertyOp24
 70
     1
102
RTVSPropertyOp25
 70
     1
102
RTVSPropertyOp26
 70
     1
102
RTVSPropertyOp27
 70
     1
102
RTVSPropertyOp28
 70
     1
102
RTVSPropertyOp29
 70
     1
102
RTVSPropertyOp30
 70
     1
102
RTVSPropertyOp31
 70
     1
102
RTVSPropertyOp32
 70
     1
  0
XRECORD
  5
4F6
102
{ACAD_REACTORS
330
4F5
102
}
330
4F5
100
AcDbXrecord
280
     1
102
RTVSPropertyOp0
 70
     1
102
RTVSPropertyOp1
 70
     1
102
RTVSPropertyOp2
 70
     1
102
RTVSPropertyOp3
 70
     1
102
RTVSPropertyOp4
 70
     1
102
RTVSPropertyOp5
 70
     1
102
RTVSPropertyOp6
 70
     1
102
RTVSPropertyOp7
 70
     1
102
RTVSPropertyOp8
 70
     1
102
RTVSPropertyOp9
 70
     1
102
RTVSPropertyOp10
 70
     1
102
RTVSPropertyOp11
 70
     1
102
RTVSPropertyOp12
 70
     1
102
RTVSPropertyOp13
 70
     1
102
RTVSPropertyOp14
 70
     1
102
RTVSPropertyOp15
 70
     1
102
RTVSPropertyOp16
 70
     1
102
RTVSPropertyOp17
 70
     1
102
RTVSPropertyOp18
 70
     1
102
RTVSPropertyOp19
 70
     1
102
RTVSPropertyOp20
 70
     1
102
RTVSPropertyOp21
 70
     1
102
RTVSPropertyOp22
 70
     1
102
RTVSPropertyOp23
 70
     1
102
RTVSPropertyOp24
 70
     1
102
RTVSPropertyOp25
 70
     1
102
RTVSPropertyOp26
 70
     1
102
RTVSPropertyOp27
 70
     1
102
RTVSPropertyOp28
 70
     1
102
RTVSPropertyOp29
 70
     1
102
RTVSPropertyOp30
 70
     1
102
RTVSPropertyOp31
 70
     1
102
RTVSPropertyOp32
 70
     1
  0
XRECORD
  5
4F8
102
{ACAD_REACTORS
330
4F7
102
}
330
4F7
100
AcDbXrecord
280
     1
102
RTVSPropertyOp0
 70
     1
102
RTVSPropertyOp1
 70
     1
102
RTVSPropertyOp2
 70
     1
102
RTVSPropertyOp3
 70
     1
102
RTVSPropertyOp4
 70
     1
102
RTVSPropertyOp5
 70
     1
102
RTVSPropertyOp6
 70
     1
102
RTVSPropertyOp7
 70
     1
102
RTVSPropertyOp8
 70
     1
102
RTVSPropertyOp9
 70
     1
102
RTVSPropertyOp10
 70
     1
102
RTVSPropertyOp11
 70
     1
102
RTVSPropertyOp12
 70
     1
102
RTVSPropertyOp13
 70
     1
102
RTVSPropertyOp14
 70
     1
102
RTVSPropertyOp15
 70
     1
102
RTVSPropertyOp16
 70
     1
102
RTVSPropertyOp17
 70
     1
102
RTVSPropertyOp18
 70
     1
102
RTVSPropertyOp19
 70
     1
102
RTVSPropertyOp20
 70
     1
102
RTVSPropertyOp21
 70
     1
102
RTVSPropertyOp22
 70
     1
102
RTVSPropertyOp23
 70
     1
102
RTVSPropertyOp24
 70
     1
102
RTVSPropertyOp25
 70
     1
102
RTVSPropertyOp26
 70
     1
102
RTVSPropertyOp27
 70
     1
102
RTVSPropertyOp28
 70
     1
102
RTVSPropertyOp29
 70
     1
102
RTVSPropertyOp30
 70
     1
102
RTVSPropertyOp31
 70
     1
102
RTVSPropertyOp32
 70
     1
  0
XRECORD
  5
4FA
102
{ACAD_REACTORS
330
4F9
102
}
330
4F9
100
AcDbXrecord
280
     1
102
RTVSPropertyOp0
 70
     1
102
RTVSPropertyOp1
 70
     1
102
RTVSPropertyOp2
 70
     1
102
RTVSPropertyOp3
 70
     1
102
RTVSPropertyOp4
 70
     1
102
RTVSPropertyOp5
 70
     1
102
RTVSPropertyOp6
 70
     1
102
RTVSPropertyOp7
 70
     1
102
RTVSPropertyOp8
 70
     1
102
RTVSPropertyOp9
 70
     1
102
RTVSPropertyOp10
 70
     1
102
RTVSPropertyOp11
 70
     1
102
RTVSPropertyOp12
 70
     1
102
RTVSPropertyOp13
 70
     1
102
RTVSPropertyOp14
 70
     1
102
RTVSPropertyOp15
 70
     1
102
RTVSPropertyOp16
 70
     1
102
RTVSPropertyOp17
 70
     1
102
RTVSPropertyOp18
 70
     1
102
RTVSPropertyOp19
 70
     1
102
RTVSPropertyOp20
 70
     1
102
RTVSPropertyOp21
 70
     1
102
RTVSPropertyOp22
 70
     1
102
RTVSPropertyOp23
 70
     1
102
RTVSPropertyOp24
 70
     1
102
RTVSPropertyOp25
 70
     1
102
RTVSPropertyOp26
 70
     1
102
RTVSPropertyOp27
 70
     1
102
RTVSPropertyOp28
 70
     1
102
RTVSPropertyOp29
 70
     1
102
RTVSPropertyOp30
 70
     1
102
RTVSPropertyOp31
 70
     1
102
RTVSPropertyOp32
 70
     1
  0
XRECORD
  5
50E
102
{ACAD_REACTORS
330
50D
102
}
330
50D
100
AcDbXrecord
280
     1
102
RTVSPropertyOp0
 70
     1
102
RTVSPropertyOp1
 70
     1
102
RTVSPropertyOp2
 70
     1
102
RTVSPropertyOp3
 70
     1
102
RTVSPropertyOp4
 70
     1
102
RTVSPropertyOp5
 70
     1
102
RTVSPropertyOp6
 70
     1
102
RTVSPropertyOp7
 70
     1
102
RTVSPropertyOp8
 70
     1
102
RTVSPropertyOp9
 70
     1
102
RTVSPropertyOp10
 70
     1
102
RTVSPropertyOp11
 70
     1
102
RTVSPropertyOp12
 70
     1
102
RTVSPropertyOp13
 70
     1
102
RTVSPropertyOp14
 70
     1
102
RTVSPropertyOp15
 70
     1
102
RTVSPropertyOp16
 70
     1
102
RTVSPropertyOp17
 70
     1
102
RTVSPropertyOp18
 70
     1
102
RTVSPropertyOp19
 70
     1
102
RTVSPropertyOp20
 70
     1
102
RTVSPropertyOp21
 70
     1
102
RTVSPropertyOp22
 70
     1
102
RTVSPropertyOp23
 70
     1
102
RTVSPropertyOp24
 70
     1
102
RTVSPropertyOp25
 70
     1
102
RTVSPropertyOp26
 70
     1
102
RTVSPropertyOp27
 70
     1
102
RTVSPropertyOp28
 70
     1
102
RTVSPropertyOp29
 70
     1
102
RTVSPropertyOp30
 70
     1
102
RTVSPropertyOp31
 70
     1
102
RTVSPropertyOp32
 70
     1
  0
XRECORD
  5
504
102
{ACAD_REACTORS
330
503
102
}
330
503
100
AcDbXrecord
280
     1
102
RTVSPropertyOp0
 70
     1
102
RTVSPropertyOp1
 70
     1
102
RTVSPropertyOp2
 70
     1
102
RTVSPropertyOp3
 70
     1
102
RTVSPropertyOp4
 70
     1
102
RTVSPropertyOp5
 70
     1
102
RTVSPropertyOp6
 70
     1
102
RTVSPropertyOp7
 70
     1
102
RTVSPropertyOp8
 70
     1
102
RTVSPropertyOp9
 70
     1
102
RTVSPropertyOp10
 70
     1
102
RTVSPropertyOp11
 70
     1
102
RTVSPropertyOp12
 70
     1
102
RTVSPropertyOp13
 70
     1
102
RTVSPropertyOp14
 70
     1
102
RTVSPropertyOp15
 70
     1
102
RTVSPropertyOp16
 70
     1
102
RTVSPropertyOp17
 70
     1
102
RTVSPropertyOp18
 70
     1
102
RTVSPropertyOp19
 70
     1
102
RTVSPropertyOp20
 70
     1
102
RTVSPropertyOp21
 70
     1
102
RTVSPropertyOp22
 70
     1
102
RTVSPropertyOp23
 70
     1
102
RTVSPropertyOp24
 70
     1
102
RTVSPropertyOp25
 70
     1
102
RTVSPropertyOp26
 70
     1
102
RTVSPropertyOp27
 70
     1
102
RTVSPropertyOp28
 70
     1
102
RTVSPropertyOp29
 70
     1
102
RTVSPropertyOp30
 70
     1
102
RTVSPropertyOp31
 70
     1
102
RTVSPropertyOp32
 70
     1
  0
XRECORD
  5
50C
102
{ACAD_REACTORS
330
50B
102
}
330
50B
100
AcDbXrecord
280
     1
102
RTVSPropertyOp0
 70
     1
102
RTVSPropertyOp1
 70
     1
102
RTVSPropertyOp2
 70
     1
102
RTVSPropertyOp3
 70
     1
102
RTVSPropertyOp4
 70
     1
102
RTVSPropertyOp5
 70
     1
102
RTVSPropertyOp6
 70
     1
102
RTVSPropertyOp7
 70
     1
102
RTVSPropertyOp8
 70
     1
102
RTVSPropertyOp9
 70
     1
102
RTVSPropertyOp10
 70
     1
102
RTVSPropertyOp11
 70
     1
102
RTVSPropertyOp12
 70
     1
102
RTVSPropertyOp13
 70
     1
102
RTVSPropertyOp14
 70
     1
102
RTVSPropertyOp15
 70
     1
102
RTVSPropertyOp16
 70
     1
102
RTVSPropertyOp17
 70
     1
102
RTVSPropertyOp18
 70
     1
102
RTVSPropertyOp19
 70
     1
102
RTVSPropertyOp20
 70
     1
102
RTVSPropertyOp21
 70
     1
102
RTVSPropertyOp22
 70
     1
102
RTVSPropertyOp23
 70
     1
102
RTVSPropertyOp24
 70
     1
102
RTVSPropertyOp25
 70
     1
102
RTVSPropertyOp26
 70
     1
102
RTVSPropertyOp27
 70
     1
102
RTVSPropertyOp28
 70
     1
102
RTVSPropertyOp29
 70
     1
102
RTVSPropertyOp30
 70
     1
102
RTVSPropertyOp31
 70
     1
102
RTVSPropertyOp32
 70
     1
  0
ENDSEC
  0
EOF
