  0
SECTION
  2
HEADER
  9
$ACADVER
  1
AC1018
  9
$ACADMAINTVER
 70
     0
  9
$DWGCODEPAGE
  3
ANSI_1252
  9
$INSBASE
 10
0.0
 20
0.0
 30
0.0
  9
$EXTMIN
 10
-241.2999995773166
 20
10.6500002313021
 30
0.0
  9
$EXTMAX
 10
55.70000042268143
 20
220.6500002313022
 30
0.0
  9
$LIMMIN
 10
0.0
 20
0.0
  9
$LIMMAX
 10
12.0
 20
9.0
  9
$ORTHOMODE
 70
     0
  9
$REGENMODE
 70
     1
  9
$FILLMODE
 70
     1
  9
$QTEXTMODE
 70
     0
  9
$MIRRTEXT
 70
     1
  9
$LTSCALE
 40
1.0
  9
$ATTMODE
 70
     1
  9
$TEXTSIZE
 40
0.2
  9
$TRACEWID
 40
0.05
  9
$TEXTSTYLE
  7
Standard
  9
$CLAYER
  8
0
  9
$CELTYPE
  6
ByLayer
  9
$CECOLOR
 62
   256
  9
$CELTSCALE
 40
1.0
  9
$DISPSILH
 70
     0
  9
$DIMSCALE
 40
1.0
  9
$DIMASZ
 40
0.18
  9
$DIMEXO
 40
0.0625
  9
$DIMDLI
 40
0.38
  9
$DIMRND
 40
0.0
  9
$DIMDLE
 40
0.0
  9
$DIMEXE
 40
0.18
  9
$DIMTP
 40
0.0
  9
$DIMTM
 40
0.0
  9
$DIMTXT
 40
0.18
  9
$DIMCEN
 40
0.09
  9
$DIMTSZ
 40
0.0
  9
$DIMTOL
 70
     0
  9
$DIMLIM
 70
     0
  9
$DIMTIH
 70
     1
  9
$DIMTOH
 70
     1
  9
$DIMSE1
 70
     0
  9
$DIMSE2
 70
     0
  9
$DIMTAD
 70
     0
  9
$DIMZIN
 70
     0
  9
$DIMBLK
  1

  9
$DIMASO
 70
     1
  9
$DIMSHO
 70
     1
  9
$DIMPOST
  1

  9
$DIMAPOST
  1

  9
$DIMALT
 70
     0
  9
$DIMALTD
 70
     2
  9
$DIMALTF
 40
25.4
  9
$DIMLFAC
 40
1.0
  9
$DIMTOFL
 70
     0
  9
$DIMTVP
 40
0.0
  9
$DIMTIX
 70
     0
  9
$DIMSOXD
 70
     0
  9
$DIMSAH
 70
     0
  9
$DIMBLK1
  1

  9
$DIMBLK2
  1

  9
$DIMSTYLE
  2
Standard
  9
$DIMCLRD
 70
     0
  9
$DIMCLRE
 70
     0
  9
$DIMCLRT
 70
     0
  9
$DIMTFAC
 40
1.0
  9
$DIMGAP
 40
0.09
  9
$DIMJUST
 70
     0
  9
$DIMSD1
 70
     0
  9
$DIMSD2
 70
     0
  9
$DIMTOLJ
 70
     1
  9
$DIMTZIN
 70
     0
  9
$DIMALTZ
 70
     0
  9
$DIMALTTZ
 70
     0
  9
$DIMUPT
 70
     0
  9
$DIMDEC
 70
     4
  9
$DIMTDEC
 70
     4
  9
$DIMALTU
 70
     2
  9
$DIMALTTD
 70
     2
  9
$DIMTXSTY
  7
Standard
  9
$DIMAUNIT
 70
     0
  9
$DIMADEC
 70
     0
  9
$DIMALTRND
 40
0.0
  9
$DIMAZIN
 70
     0
  9
$DIMDSEP
 70
    46
  9
$DIMATFIT
 70
     3
  9
$DIMFRAC
 70
     0
  9
$DIMLDRBLK
  1

  9
$DIMLUNIT
 70
     2
  9
$DIMLWD
 70
    -2
  9
$DIMLWE
 70
    -2
  9
$DIMTMOVE
 70
     0
  9
$LUNITS
 70
     2
  9
$LUPREC
 70
     4
  9
$SKETCHINC
 40
0.1
  9
$FILLETRAD
 40
0.5
  9
$AUNITS
 70
     0
  9
$AUPREC
 70
     0
  9
$MENU
  1
.
  9
$ELEVATION
 40
0.0
  9
$PELEVATION
 40
0.0
  9
$THICKNESS
 40
0.0
  9
$LIMCHECK
 70
     0
  9
$CHAMFERA
 40
0.5
  9
$CHAMFERB
 40
0.5
  9
$CHAMFERC
 40
1.0
  9
$CHAMFERD
 40
0.0
  9
$SKPOLY
 70
     0
  9
$TDCREATE
 40
2458150.312963171
  9
$TDUCREATE
 40
2458150.271296504
  9
$TDUPDATE
 40
2458150.31296353
  9
$TDUUPDATE
 40
2458150.271296863
  9
$TDINDWG
 40
0.0000000116
  9
$TDUSRTIMER
 40
0.0000000116
  9
$USRTIMER
 70
     1
  9
$ANGBASE
 50
0.0
  9
$ANGDIR
 70
     0
  9
$PDMODE
 70
     0
  9
$PDSIZE
 40
0.0
  9
$PLINEWID
 40
0.0
  9
$SPLFRAME
 70
     0
  9
$SPLINETYPE
 70
     6
  9
$SPLINESEGS
 70
     8
  9
$HANDSEED
  5
420
  9
$SURFTAB1
 70
     6
  9
$SURFTAB2
 70
     6
  9
$SURFTYPE
 70
     6
  9
$SURFU
 70
     6
  9
$SURFV
 70
     6
  9
$UCSBASE
  2

  9
$UCSNAME
  2

  9
$UCSORG
 10
0.0
 20
0.0
 30
0.0
  9
$UCSXDIR
 10
1.0
 20
0.0
 30
0.0
  9
$UCSYDIR
 10
0.0
 20
1.0
 30
0.0
  9
$UCSORTHOREF
  2

  9
$UCSORTHOVIEW
 70
     0
  9
$UCSORGTOP
 10
0.0
 20
0.0
 30
0.0
  9
$UCSORGBOTTOM
 10
0.0
 20
0.0
 30
0.0
  9
$UCSORGLEFT
 10
0.0
 20
0.0
 30
0.0
  9
$UCSORGRIGHT
 10
0.0
 20
0.0
 30
0.0
  9
$UCSORGFRONT
 10
0.0
 20
0.0
 30
0.0
  9
$UCSORGBACK
 10
0.0
 20
0.0
 30
0.0
  9
$PUCSBASE
  2

  9
$PUCSNAME
  2

  9
$PUCSORG
 10
0.0
 20
0.0
 30
0.0
  9
$PUCSXDIR
 10
1.0
 20
0.0
 30
0.0
  9
$PUCSYDIR
 10
0.0
 20
1.0
 30
0.0
  9
$PUCSORTHOREF
  2

  9
$PUCSORTHOVIEW
 70
     0
  9
$PUCSORGTOP
 10
0.0
 20
0.0
 30
0.0
  9
$PUCSORGBOTTOM
 10
0.0
 20
0.0
 30
0.0
  9
$PUCSORGLEFT
 10
0.0
 20
0.0
 30
0.0
  9
$PUCSORGRIGHT
 10
0.0
 20
0.0
 30
0.0
  9
$PUCSORGFRONT
 10
0.0
 20
0.0
 30
0.0
  9
$PUCSORGBACK
 10
0.0
 20
0.0
 30
0.0
  9
$USERI1
 70
     0
  9
$USERI2
 70
     0
  9
$USERI3
 70
     0
  9
$USERI4
 70
     0
  9
$USERI5
 70
     0
  9
$USERR1
 40
18.1
  9
$USERR2
 40
0.0
  9
$USERR3
 40
0.0
  9
$USERR4
 40
0.0
  9
$USERR5
 40
0.0
  9
$WORLDVIEW
 70
     1
  9
$SHADEDGE
 70
     3
  9
$SHADEDIF
 70
    70
  9
$TILEMODE
 70
     1
  9
$MAXACTVP
 70
    64
  9
$PINSBASE
 10
0.0
 20
0.0
 30
0.0
  9
$PLIMCHECK
 70
     0
  9
$PEXTMIN
 10
1.00000000000000E+20
 20
1.00000000000000E+20
 30
1.00000000000000E+20
  9
$PEXTMAX
 10
-1.00000000000000E+20
 20
-1.00000000000000E+20
 30
-1.00000000000000E+20
  9
$PLIMMIN
 10
0.0
 20
0.0
  9
$PLIMMAX
 10
12.0
 20
9.0
  9
$UNITMODE
 70
     0
  9
$VISRETAIN
 70
     1
  9
$PLINEGEN
 70
     0
  9
$PSLTSCALE
 70
     1
  9
$TREEDEPTH
 70
  3020
  9
$CMLSTYLE
  2
Standard
  9
$CMLJUST
 70
     0
  9
$CMLSCALE
 40
1.0
  9
$PROXYGRAPHICS
 70
     1
  9
$MEASUREMENT
 70
     1
  9
$CELWEIGHT
370
    -1
  9
$ENDCAPS
280
     0
  9
$JOINSTYLE
280
     0
  9
$LWDISPLAY
290
     0
  9
$INSUNITS
 70
     4
  9
$HYPERLINKBASE
  1

  9
$STYLESHEET
  1

  9
$XEDIT
290
     1
  9
$CEPSNTYPE
380
     0
  9
$PSTYLEMODE
290
     1
  9
$FINGERPRINTGUID
  2
{1CC9BDD0-B0F6-4814-8506-1B3B2DE2A225}
  9
$VERSIONGUID
  2
{FAEB1C32-E019-11D5-929B-00C0DF256EC4}
  9
$EXTNAMES
290
     1
  9
$PSVPSCALE
 40
0.0
  9
$OLESTARTUP
290
     0
  9
$SORTENTS
280
   127
  9
$INDEXCTL
280
     0
  9
$HIDETEXT
280
     1
  9
$XCLIPFRAME
290
     0
  9
$HALOGAP
280
     0
  9
$OBSCOLOR
 70
   257
  9
$OBSLTYPE
280
     0
  9
$INTERSECTIONDISPLAY
280
     0
  9
$INTERSECTIONCOLOR
 70
   257
  9
$DIMASSOC
280
     2
  9
$PROJECTNAME
  1

  0
ENDSEC
  0
SECTION
  2
CLASSES
  0
CLASS
  1
ACDBDICTIONARYWDFLT
  2
AcDbDictionaryWithDefault
  3
ObjectDBX Classes
 90
        0
 91
        4
280
     0
281
     0
  0
CLASS
  1
VISUALSTYLE
  2
AcDbVisualStyle
  3
ObjectDBX Classes
 90
     4095
 91
        4
280
     0
281
     0
  0
CLASS
  1
MATERIAL
  2
AcDbMaterial
  3
ObjectDBX Classes
 90
     1153
 91
        4
280
     0
281
     0
  0
ENDSEC
  0
SECTION
  2
TABLES
  0
TABLE
  2
VPORT
  5
8
330
0
100
AcDbSymbolTable
 70
     1
  0
VPORT
  5
29
330
8
100
AcDbSymbolTableRecord
100
AcDbViewportTableRecord
  2
*Active
 70
     0
 10
0.0
 20
0.0
 11
1.0
 21
1.0
 12
-92.79999957731759
 22
115.6500002313021
 13
0.0
 23
0.0
 14
0.5
 24
0.5
 15
0.5
 25
0.5
 16
0.0
 26
0.0
 36
1.0
 17
0.0
 27
0.0
 37
0.0
 40
231.0000000000001
 41
1.60267857142857
 42
50.0
 43
0.0
 44
0.0
 50
0.0
 51
0.0
 71
     0
 72
   100
 73
     1
 74
     3
 75
     0
 76
     0
 77
     0
 78
     0
281
     0
 65
     1
110
0.0
120
0.0
130
0.0
111
1.0
121
0.0
131
0.0
112
0.0
122
1.0
132
0.0
 79
     0
146
0.0
  0
ENDTAB
  0
TABLE
  2
LTYPE
  5
5
330
0
100
AcDbSymbolTable
 70
     8
  0
LTYPE
  5
14
330
5
100
AcDbSymbolTableRecord
100
AcDbLinetypeTableRecord
  2
ByBlock
 70
     0
  3

 72
    65
 73
     0
 40
0.0
  0
LTYPE
  5
15
330
5
100
AcDbSymbolTableRecord
100
AcDbLinetypeTableRecord
  2
ByLayer
 70
     0
  3

 72
    65
 73
     0
 40
0.0
  0
LTYPE
  5
16
330
5
100
AcDbSymbolTableRecord
100
AcDbLinetypeTableRecord
  2
Continuous
 70
     0
  3
Solid line
 72
    65
 73
     0
 40
0.0
  0
LTYPE
  5
3F
330
5
100
AcDbSymbolTableRecord
100
AcDbLinetypeTableRecord
  2
DASHED
 70
     0
  3
Dashed
 72
    65
 73
     2
 40
15.0
 49
7.0
 74
     0
 49
-8.0
 74
     0
  0
LTYPE
  5
40
330
5
100
AcDbSymbolTableRecord
100
AcDbLinetypeTableRecord
  2
DOTTED
 70
     0
  3
Dotted
 72
    65
 73
     2
 40
1.0
 49
0.0
 74
     0
 49
-1.0
 74
     0
  0
LTYPE
  5
41
330
5
100
AcDbSymbolTableRecord
100
AcDbLinetypeTableRecord
  2
DOT_CENTER
 70
     0
  3
Dot_Center
 72
    65
 73
     4
 40
14.0
 49
12.0
 74
     0
 49
-1.0
 74
     0
 49
0.0
 74
     0
 49
-1.0
 74
     0
  0
LTYPE
  5
42
330
5
100
AcDbSymbolTableRecord
100
AcDbLinetypeTableRecord
  2
LONG_DASHED
 70
     0
  3
Long_Dashed
 72
    65
 73
     2
 40
15.0
 49
10.0
 74
     0
 49
-5.0
 74
     0
  0
LTYPE
  5
43
330
5
100
AcDbSymbolTableRecord
100
AcDbLinetypeTableRecord
  2
DASH_CENTER
 70
     0
  3
Dash_Center
 72
    65
 73
     4
 40
14.0
 49
11.0
 74
     0
 49
-1.0
 74
     0
 49
1.0
 74
     0
 49
-1.0
 74
     0
  0
LTYPE
  5
44
330
5
100
AcDbSymbolTableRecord
100
AcDbLinetypeTableRecord
  2
PHANTOM
 70
     0
  3
Phantom
 72
    65
 73
     6
 40
13.0
 49
10.0
 74
     0
 49
-1.0
 74
     0
 49
0.0
 74
     0
 49
-1.0
 74
     0
 49
0.0
 74
     0
 49
-1.0
 74
     0
  0
LTYPE
  5
45
330
5
100
AcDbSymbolTableRecord
100
AcDbLinetypeTableRecord
  2
CENTER_DASH_DASH
 70
     0
  3
Center_Dash_Dash
 72
    65
 73
     6
 40
14.0
 49
9.0
 74
     0
 49
-1.0
 74
     0
 49
1.0
 74
     0
 49
-1.0
 74
     0
 49
1.0
 74
     0
 49
-1.0
 74
     0
  0
ENDTAB
  0
TABLE
  2
LAYER
  5
2
330
0
100
AcDbSymbolTable
 70
     2
  0
LAYER
  5
10
330
2
100
AcDbSymbolTableRecord
100
AcDbLayerTableRecord
  2
0
 70
     0
 62
     7
  6
Continuous
370
    -3
390
F
  0
LAYER
  5
46
330
2
100
AcDbSymbolTableRecord
100
AcDbLayerTableRecord
  2
1
 70
     0
 62
     7
  6
Continuous
370
    -3
390
F
  0
ENDTAB
  0
TABLE
  2
STYLE
  5
3
330
0
100
AcDbSymbolTable
 70
     5
  0
STYLE
  5
11
330
3
100
AcDbSymbolTableRecord
100
AcDbTextStyleTableRecord
  2
Standard
 70
     0
 40
0.0
 41
1.0
 50
0.0
 71
     0
 42
0.2
  3
txt
  4

  0
STYLE
  5
103
330
3
100
AcDbSymbolTableRecord
100
AcDbTextStyleTableRecord
  2
CONVERTER_11
 70
     0
 40
0.0
 41
0.9
 50
0.0
 71
     0
 42
0.2
  3
txt.shx
  4

  0
STYLE
  5
3BB
330
3
100
AcDbSymbolTableRecord
100
AcDbTextStyleTableRecord
  2
CONVERTER_12
 70
     0
 40
0.0
 41
0.81
 50
0.0
 71
     0
 42
0.2
  3
txt.shx
  4

  0
STYLE
  5
3D1
330
3
100
AcDbSymbolTableRecord
100
AcDbTextStyleTableRecord
  2
CONVERTER_13
 70
     0
 40
0.0
 41
0.72
 50
0.0
 71
     0
 42
0.2
  3
txt.shx
  4

  0
STYLE
  5
3D4
330
3
100
AcDbSymbolTableRecord
100
AcDbTextStyleTableRecord
  2
CONVERTER_14
 70
     0
 40
0.0
 41
0.855
 50
0.0
 71
     0
 42
0.2
  3
txt.shx
  4

  0
ENDTAB
  0
TABLE
  2
VIEW
  5
6
330
0
100
AcDbSymbolTable
 70
     0
  0
ENDTAB
  0
TABLE
  2
UCS
  5
7
330
0
100
AcDbSymbolTable
 70
     0
  0
ENDTAB
  0
TABLE
  2
APPID
  5
9
330
0
100
AcDbSymbolTable
 70
     1
  0
APPID
  5
12
330
9
100
AcDbSymbolTableRecord
100
AcDbRegAppTableRecord
  2
ACAD
 70
     0
  0
ENDTAB
  0
TABLE
  2
DIMSTYLE
  5
A
330
0
100
AcDbSymbolTable
 70
     5
100
AcDbDimStyleTable
  0
DIMSTYLE
105
27
330
A
100
AcDbSymbolTableRecord
100
AcDbDimStyleTableRecord
  2
Standard
 70
     0
178
     0
340
11
  0
DIMSTYLE
105
133
102
{ACAD_REACTORS
330
134
102
}
330
A
100
AcDbSymbolTableRecord
100
AcDbDimStyleTableRecord
  2
ME10_DIM_10
 70
     0
 41
3.5
 42
0.0
 44
1.5
 73
     0
 74
     0
 77
     1
 78
     8
140
3.5
147
1.5
172
     1
173
     1
174
     1
175
     1
176
     2
177
     2
178
     3
340
103
  0
DIMSTYLE
105
2A7
102
{ACAD_REACTORS
330
2A8
102
}
330
A
100
AcDbSymbolTableRecord
100
AcDbDimStyleTableRecord
  2
ME10_DIM_11
 70
     0
 41
3.5
 42
0.0
 44
1.5
 73
     0
 74
     0
 77
     1
 78
     8
140
3.5
147
1.5
172
     1
173
     1
174
     1
175
     1
176
     2
177
     2
178
     3
340
103
  0
DIMSTYLE
105
2B2
102
{ACAD_REACTORS
330
2B3
102
}
330
A
100
AcDbSymbolTableRecord
100
AcDbDimStyleTableRecord
  2
ME10_DIM_12
 70
     0
 41
3.5
 42
0.0
 44
1.5
 73
     0
 74
     0
 77
     1
 78
     8
140
3.5
147
1.5
172
     1
173
     1
174
     1
175
     1
176
     2
177
     2
178
     3
340
103
  0
DIMSTYLE
105
2BD
102
{ACAD_REACTORS
330
2BE
102
}
330
A
100
AcDbSymbolTableRecord
100
AcDbDimStyleTableRecord
  2
ME10_DIM_13
 70
     0
 41
3.5
 42
0.0
 44
1.5
 73
     0
 74
     0
 77
     1
 78
     8
140
3.5
147
1.5
172
     1
173
     1
174
     1
175
     1
176
     2
177
     2
178
     3
340
103
  0
ENDTAB
  0
TABLE
  2
BLOCK_RECORD
  5
1
330
0
100
AcDbSymbolTable
 70
    21
  0
BLOCK_RECORD
  5
1F
330
1
100
AcDbSymbolTableRecord
100
AcDbBlockTableRecord
  2
*Model_Space
340
22
  0
BLOCK_RECORD
  5
1B
330
1
100
AcDbSymbolTableRecord
100
AcDbBlockTableRecord
  2
*Paper_Space
340
1E
  0
BLOCK_RECORD
  5
23
330
1
100
AcDbSymbolTableRecord
100
AcDbBlockTableRecord
  2
*Paper_Space0
340
26
  0
BLOCK_RECORD
  5
47
330
1
100
AcDbSymbolTableRecord
100
AcDbBlockTableRecord
  2
F_MS_12_ST-select__1
340
0
102
{BLKREFS
331
4B
102
}
  0
BLOCK_RECORD
  5
4A
330
1
100
AcDbSymbolTableRecord
100
AcDbBlockTableRecord
  2
Allg1
340
0
102
{BLKREFS
331
7D
102
}
  0
BLOCK_RECORD
  5
4E
330
1
100
AcDbSymbolTableRecord
100
AcDbBlockTableRecord
  2
F_MS_12_ST-select__2
340
0
102
{BLKREFS
331
52
102
}
  0
BLOCK_RECORD
  5
51
330
1
100
AcDbSymbolTableRecord
100
AcDbBlockTableRecord
  2
Drfsicht1
340
0
102
{BLKREFS
331
7E
102
}
  0
BLOCK_RECORD
  5
55
330
1
100
AcDbSymbolTableRecord
100
AcDbBlockTableRecord
  2
F_MS_12_ST-select__3
340
0
102
{BLKREFS
331
59
102
}
  0
BLOCK_RECORD
  5
58
330
1
100
AcDbSymbolTableRecord
100
AcDbBlockTableRecord
  2
Rckans1
340
0
102
{BLKREFS
331
7F
102
}
  0
BLOCK_RECORD
  5
5C
330
1
100
AcDbSymbolTableRecord
100
AcDbBlockTableRecord
  2
F_MS_12_ST-select__4
340
0
102
{BLKREFS
331
60
102
}
  0
BLOCK_RECORD
  5
5F
330
1
100
AcDbSymbolTableRecord
100
AcDbBlockTableRecord
  2
SA_Links1
340
0
102
{BLKREFS
331
80
102
}
  0
BLOCK_RECORD
  5
63
330
1
100
AcDbSymbolTableRecord
100
AcDbBlockTableRecord
  2
F_MS_12_ST-select__5
340
0
102
{BLKREFS
331
67
102
}
  0
BLOCK_RECORD
  5
66
330
1
100
AcDbSymbolTableRecord
100
AcDbBlockTableRecord
  2
SA_Rechts1
340
0
102
{BLKREFS
331
81
102
}
  0
BLOCK_RECORD
  5
6A
330
1
100
AcDbSymbolTableRecord
100
AcDbBlockTableRecord
  2
F_MS_12_ST-select__6
340
0
102
{BLKREFS
331
6E
102
}
  0
BLOCK_RECORD
  5
6D
330
1
100
AcDbSymbolTableRecord
100
AcDbBlockTableRecord
  2
Vordans1
340
0
102
{BLKREFS
331
82
102
}
  0
BLOCK_RECORD
  5
71
330
1
100
AcDbSymbolTableRecord
100
AcDbBlockTableRecord
  2
_rahmen
340
0
102
{BLKREFS
331
78
102
}
  0
BLOCK_RECORD
  5
74
330
1
100
AcDbSymbolTableRecord
100
AcDbBlockTableRecord
  2
_punkt
340
0
102
{BLKREFS
331
79
102
}
  0
BLOCK_RECORD
  5
77
330
1
100
AcDbSymbolTableRecord
100
AcDbBlockTableRecord
  2
A4I_CS
340
0
102
{BLKREFS
331
83
102
}
  0
BLOCK_RECORD
  5
7C
330
1
100
AcDbSymbolTableRecord
100
AcDbBlockTableRecord
  2
1
340
0
102
{BLKREFS
331
86
102
}
  0
BLOCK_RECORD
  5
12A
330
1
100
AcDbSymbolTableRecord
100
AcDbBlockTableRecord
  2
*D17
340
0
  0
BLOCK_RECORD
  5
29E
330
1
100
AcDbSymbolTableRecord
100
AcDbBlockTableRecord
  2
*D18
340
0
  0
BLOCK_RECORD
  5
2A9
330
1
100
AcDbSymbolTableRecord
100
AcDbBlockTableRecord
  2
*D19
340
0
  0
BLOCK_RECORD
  5
2B4
330
1
100
AcDbSymbolTableRecord
100
AcDbBlockTableRecord
  2
*D20
340
0
  0
ENDTAB
  0
ENDSEC
  0
SECTION
  2
BLOCKS
  0
BLOCK
  5
20
330
1F
100
AcDbEntity
  8
0
100
AcDbBlockBegin
  2
*Model_Space
 70
     0
 10
0.0
 20
0.0
 30
0.0
  3
*Model_Space
  1

  0
ENDBLK
  5
21
330
1F
100
AcDbEntity
  8
0
100
AcDbBlockEnd
  0
BLOCK
  5
1C
330
1B
100
AcDbEntity
 67
     1
  8
0
100
AcDbBlockBegin
  2
*Paper_Space
 70
     0
 10
0.0
 20
0.0
 30
0.0
  3
*Paper_Space
  1

  0
ENDBLK
  5
1D
330
1B
100
AcDbEntity
 67
     1
  8
0
100
AcDbBlockEnd
  0
BLOCK
  5
24
330
23
100
AcDbEntity
  8
0
100
AcDbBlockBegin
  2
*Paper_Space0
 70
     0
 10
0.0
 20
0.0
 30
0.0
  3
*Paper_Space0
  1

  0
ENDBLK
  5
25
330
23
100
AcDbEntity
  8
0
100
AcDbBlockEnd
  0
BLOCK
  5
48
330
47
100
AcDbEntity
  8
0
100
AcDbBlockBegin
  2
F_MS_12_ST-select__1
 70
     0
 10
-34.77396955988078
 20
54.47186473470436
 30
0.0
  3
F_MS_12_ST-select__1
  1

  0
LINE
  5
87
330
47
100
AcDbEntity
  8
0
  6
Continuous
 62
     7
100
AcDbLine
 10
11.94896856184931
 20
85.88926970695955
 30
0.0
 11
11.94896856184943
 21
89.55544391631197
 31
0.0
  0
LINE
  5
88
330
47
100
AcDbEntity
  8
0
  6
Continuous
 62
     7
100
AcDbLine
 10
11.9489685618488
 20
63.9210919642927
 30
0.0
 11
11.9489685618492
 21
84.02339310875247
 31
0.0
  0
LINE
  5
89
330
47
100
AcDbEntity
  8
0
  6
Continuous
 62
     7
100
AcDbLine
 10
12.21486509622352
 20
84.2536662622988
 30
0.0
 11
12.21486509622352
 21
85.81251198911079
 31
0.0
  0
LINE
  5
8A
330
47
100
AcDbEntity
  8
0
  6
Continuous
 62
     7
100
AcDbLine
 10
11.16486509622351
 20
83.34433958832513
 30
0.0
 11
11.16486509622351
 21
84.90318531513712
 31
0.0
  0
LINE
  5
8B
330
47
100
AcDbEntity
  8
0
  6
Continuous
 62
     7
100
AcDbLine
 10
12.4275584003351
 20
94.646452054871
 30
0.0
 11
12.4275584003351
 21
93.51440246647913
 31
0.0
  0
LINE
  5
8C
330
47
100
AcDbEntity
  8
0
  6
Continuous
 62
     7
100
AcDbLine
 10
11.16486509622351
 20
83.34433958832513
 30
0.0
 11
10.47204474586852
 21
83.54433959621387
 31
0.0
  0
LINE
  5
8D
330
47
100
AcDbEntity
  8
0
  6
Continuous
 62
     7
100
AcDbLine
 10
12.21486509622352
 20
85.81251198911079
 30
0.0
 11
11.16486509622351
 21
84.90318531513712
 31
0.0
  0
LINE
  5
8E
330
47
100
AcDbEntity
  8
0
  6
Continuous
 62
     7
100
AcDbLine
 10
12.21486509622352
 20
84.2536662622988
 30
0.0
 11
11.16486509622351
 21
83.34433958832513
 31
0.0
  0
LINE
  5
8F
330
47
100
AcDbEntity
  8
0
  6
Continuous
 62
     7
100
AcDbLine
 10
12.77396856185541
 20
101.0446923341623
 30
0.0
 11
6.30764554692502
 21
103.5176359633144
 31
0.0
  0
LINE
  5
90
330
47
100
AcDbEntity
  8
0
  6
Continuous
 62
     7
100
AcDbLine
 10
12.4275584003351
 20
93.51440246647913
 30
0.0
 11
12.77396856184942
 21
93.21440021462472
 31
0.0
  0
LINE
  5
91
330
47
100
AcDbEntity
  8
0
  6
Continuous
 62
     7
100
AcDbLine
 10
-34.77396952769419
 20
93.89219259132125
 30
0.0
 11
-32.39239966728628
 21
93.20469259132105
 31
0.0
  0
LINE
  5
92
330
47
100
AcDbEntity
  8
0
  6
Continuous
 62
     7
100
AcDbLine
 10
9.11157639161192
 20
83.49460072529305
 30
0.0
 11
8.92396856184931
 21
82.60559006733989
 31
0.0
  0
LINE
  5
93
330
47
100
AcDbEntity
  8
0
  6
Continuous
 62
     7
100
AcDbLine
 10
8.6349274387812
 20
83.31371077783784
 30
0.0
 11
8.07173531029471
 21
82.63341375635079
 31
0.0
  0
LINE
  5
94
330
47
100
AcDbEntity
  8
0
  6
Continuous
 62
     7
100
AcDbLine
 10
9.0307129744875
 20
83.46391277520357
 30
0.0
 11
8.07173531029471
 21
82.63341375635079
 31
0.0
  0
LINE
  5
95
330
47
100
AcDbEntity
  8
0
  6
Continuous
 62
     7
100
AcDbLine
 10
9.47780402376182
 20
83.63358539470818
 30
0.0
 11
8.6349274387812
 21
83.31371077783784
 31
0.0
  0
LINE
  5
96
330
47
100
AcDbEntity
  8
0
  6
Continuous
 62
     7
100
AcDbLine
 10
10.47204474586852
 20
83.54433959621387
 30
0.0
 11
9.47780402376182
 21
83.63358539470818
 31
0.0
  0
LINE
  5
97
330
47
100
AcDbEntity
  8
0
  6
Continuous
 62
     7
100
AcDbLine
 10
8.07173531029471
 20
82.63341375635079
 30
0.0
 11
7.87396856184932
 21
81.69626339336624
 31
0.0
  0
LINE
  5
98
330
47
100
AcDbEntity
  8
0
  6
Continuous
 62
     7
100
AcDbLine
 10
4.02396856184941
 20
85.63667793151087
 30
0.0
 11
4.0239685618493
 21
82.69219259132026
 31
0.0
  0
LINE
  5
99
330
47
100
AcDbEntity
  8
0
  6
Continuous
 62
     7
100
AcDbLine
 10
7.87396856184932
 20
85.85318531513516
 30
0.0
 11
7.87396856184932
 21
81.69626339336624
 31
0.0
  0
LINE
  5
9A
330
47
100
AcDbEntity
  8
0
  6
Continuous
 62
     7
100
AcDbLine
 10
11.9489685618488
 20
63.9210919642927
 30
0.0
 11
4.84896856184881
 21
57.77231159742317
 31
0.0
  0
LINE
  5
9B
330
47
100
AcDbEntity
  8
0
  6
Continuous
 62
     7
100
AcDbLine
 10
12.77396856185541
 20
101.0446923341623
 30
0.0
 11
12.77396856184882
 21
99.27657907379255
 31
0.0
  0
LINE
  5
9C
330
47
100
AcDbEntity
  8
0
  6
Continuous
 62
     7
100
AcDbLine
 10
12.77396856185541
 20
101.0446923341623
 30
0.0
 11
4.02396856185541
 21
93.46697005104784
 31
0.0
  0
LINE
  5
9D
330
47
100
AcDbEntity
  8
0
  6
Continuous
 62
     7
100
AcDbLine
 10
12.4275584003351
 20
97.84452948540131
 30
0.0
 11
12.77396856184882
 21
97.54452723354737
 31
0.0
  0
LINE
  5
9E
330
47
100
AcDbEntity
  8
0
  6
Continuous
 62
     7
100
AcDbLine
 10
8.92396856184942
 20
86.76251198910883
 30
0.0
 11
7.87396856184932
 21
85.85318531513516
 31
0.0
  0
LINE
  5
9F
330
47
100
AcDbEntity
  8
0
  6
Continuous
 62
     7
100
AcDbLine
 10
12.21486509622352
 20
85.81251198911079
 30
0.0
 11
8.92396856184942
 21
86.76251198910883
 31
0.0
  0
LINE
  5
A0
330
47
100
AcDbEntity
  8
0
  6
Continuous
 62
     7
100
AcDbLine
 10
12.7739685618493
 20
90.26991487443408
 30
0.0
 11
11.94896856184943
 21
89.55544391631197
 31
0.0
  0
LINE
  5
A1
330
47
100
AcDbEntity
  8
0
  6
Continuous
 62
     7
100
AcDbLine
 10
12.77396856184942
 20
93.21440021462472
 30
0.0
 11
12.7739685618493
 21
90.26991487443408
 31
0.0
  0
LINE
  5
A2
330
47
100
AcDbEntity
  8
0
  6
Continuous
 62
     7
100
AcDbLine
 10
3.6775584003351
 20
90.26680720228748
 30
0.0
 11
4.02396856184882
 21
89.96680495043353
 31
0.0
  0
LINE
  5
A3
330
47
100
AcDbEntity
  8
0
  6
Continuous
 62
     7
100
AcDbLine
 10
4.02396856185541
 20
93.46697005104784
 30
0.0
 11
4.02396856184882
 21
91.69885679067872
 31
0.0
  0
LINE
  5
A4
330
47
100
AcDbEntity
  8
0
  6
Continuous
 62
     7
100
AcDbLine
 10
4.02396856184882
 20
91.69885679067872
 30
0.0
 11
3.6775584003351
 21
91.79885679068
 31
0.0
  0
LINE
  5
A5
330
47
100
AcDbEntity
  8
0
  6
Continuous
 62
     7
100
AcDbLine
 10
4.02396856184882
 20
89.96680495043353
 30
0.0
 11
4.02396856184882
 21
89.53379328121825
 31
0.0
  0
LINE
  5
A6
330
47
100
AcDbEntity
  8
0
  6
Continuous
 62
     7
100
AcDbLine
 10
4.02396856184882
 20
89.53379328121825
 30
0.0
 11
3.6775584003351
 21
89.63379328121826
 31
0.0
  0
LINE
  5
A7
330
47
100
AcDbEntity
  8
0
  6
Continuous
 62
     7
100
AcDbLine
 10
3.6775584003351
 20
88.10174369282637
 30
0.0
 11
4.02396856184882
 21
87.80174144097244
 31
0.0
  0
LINE
  5
A8
330
47
100
AcDbEntity
  8
0
  6
Continuous
 62
     7
100
AcDbLine
 10
4.02396856184882
 20
87.80174144097244
 30
0.0
 11
4.02396856184882
 21
87.36872977175716
 31
0.0
  0
LINE
  5
A9
330
47
100
AcDbEntity
  8
0
  6
Continuous
 62
     7
100
AcDbLine
 10
4.02396856184882
 20
87.36872977175716
 30
0.0
 11
3.6775584003351
 21
87.46872977175717
 31
0.0
  0
LINE
  5
AA
330
47
100
AcDbEntity
  8
0
  6
Continuous
 62
     7
100
AcDbLine
 10
12.4275584003351
 20
93.51440246647913
 30
0.0
 11
3.6775584003351
 21
85.93668018336528
 31
0.0
  0
LINE
  5
AB
330
47
100
AcDbEntity
  8
0
  6
Continuous
 62
     7
100
AcDbLine
 10
3.6775584003351
 20
85.93668018336528
 30
0.0
 11
4.02396856184941
 21
85.63667793151087
 31
0.0
  0
LINE
  5
AC
330
47
100
AcDbEntity
  8
0
  6
Continuous
 62
     7
100
AcDbLine
 10
12.77396856184942
 20
93.21440021462472
 30
0.0
 11
4.02396856184941
 21
85.63667793151087
 31
0.0
  0
LINE
  5
AD
330
47
100
AcDbEntity
  8
0
  6
Continuous
 62
     7
100
AcDbLine
 10
12.77396856184882
 20
97.54452723354737
 30
0.0
 11
4.02396856184882
 21
89.96680495043353
 31
0.0
  0
LINE
  5
AE
330
47
100
AcDbEntity
  8
0
  6
Continuous
 62
     7
100
AcDbLine
 10
12.4275584003351
 20
97.84452948540131
 30
0.0
 11
3.6775584003351
 21
90.26680720228748
 31
0.0
  0
LINE
  5
AF
330
47
100
AcDbEntity
  8
0
  6
Continuous
 62
     7
100
AcDbLine
 10
12.4275584003351
 20
95.67946597594022
 30
0.0
 11
12.77396856184882
 21
95.37946372408628
 31
0.0
  0
LINE
  5
B0
330
47
100
AcDbEntity
  8
0
  6
Continuous
 62
     7
100
AcDbLine
 10
12.77396856184882
 20
95.37946372408628
 30
0.0
 11
12.77396856184882
 21
94.94645205487099
 31
0.0
  0
LINE
  5
B1
330
47
100
AcDbEntity
  8
0
  6
Continuous
 62
     7
100
AcDbLine
 10
12.4275584003351
 20
96.8115155643321
 30
0.0
 11
12.4275584003351
 21
95.67946597594022
 31
0.0
  0
LINE
  5
B2
330
47
100
AcDbEntity
  8
0
  6
Continuous
 62
     7
100
AcDbLine
 10
12.77396856184882
 20
97.54452723354737
 30
0.0
 11
12.77396856184882
 21
97.1115155643321
 31
0.0
  0
LINE
  5
B3
330
47
100
AcDbEntity
  8
0
  6
Continuous
 62
     7
100
AcDbLine
 10
12.4275584003351
 20
98.97657907379256
 30
0.0
 11
12.4275584003351
 21
97.84452948540131
 31
0.0
  0
LINE
  5
B4
330
47
100
AcDbEntity
  8
0
  6
Continuous
 62
     7
100
AcDbLine
 10
12.77396856184882
 20
99.27657907379255
 30
0.0
 11
4.02396856184882
 21
91.69885679067872
 31
0.0
  0
LINE
  5
B5
330
47
100
AcDbEntity
  8
0
  6
Continuous
 62
     7
100
AcDbLine
 10
12.77396856184882
 20
97.1115155643321
 30
0.0
 11
4.02396856184882
 21
89.53379328121825
 31
0.0
  0
LINE
  5
B6
330
47
100
AcDbEntity
  8
0
  6
Continuous
 62
     7
100
AcDbLine
 10
12.77396856184882
 20
94.94645205487099
 30
0.0
 11
4.02396856184882
 21
87.36872977175716
 31
0.0
  0
LINE
  5
B7
330
47
100
AcDbEntity
  8
0
  6
Continuous
 62
     7
100
AcDbLine
 10
6.30764554692502
 20
103.5176359633144
 30
0.0
 11
-2.4423544530749
 21
95.93991368020055
 31
0.0
  0
LINE
  5
B8
330
47
100
AcDbEntity
  8
0
  6
Continuous
 62
     7
100
AcDbLine
 10
12.4275584003351
 20
95.67946597594022
 30
0.0
 11
3.6775584003351
 21
88.10174369282637
 31
0.0
  0
LINE
  5
B9
330
47
100
AcDbEntity
  8
0
  6
Continuous
 62
     7
100
AcDbLine
 10
12.77396856184882
 20
95.37946372408628
 30
0.0
 11
4.02396856184882
 21
87.80174144097244
 31
0.0
  0
LINE
  5
BA
330
47
100
AcDbEntity
  8
0
  6
Continuous
 62
     7
100
AcDbLine
 10
-34.42755934793449
 20
97.13667805804334
 30
0.0
 11
-34.77396954627669
 21
96.83667802614896
 31
0.0
  0
LINE
  5
BB
330
47
100
AcDbEntity
  8
0
  6
Continuous
 62
     7
100
AcDbLine
 10
-34.77396954627669
 20
96.83667802614896
 30
0.0
 11
-34.42755934423209
 21
96.93668012970004
 31
0.0
  0
LINE
  5
BC
330
47
100
AcDbEntity
  8
0
  6
Continuous
 62
     7
100
AcDbLine
 10
-8.90867746799879
 20
98.16932717200513
 30
0.0
 11
-2.4423544530749
 21
95.93991368020055
 31
0.0
  0
LINE
  5
BD
330
47
100
AcDbEntity
  8
0
  6
Continuous
 62
     7
100
AcDbLine
 10
-34.42755934423209
 20
96.93668012970004
 30
0.0
 11
-34.42755937259298
 21
98.46872977360837
 31
0.0
  0
LINE
  5
BE
330
47
100
AcDbEntity
  8
0
  6
Continuous
 62
     7
100
AcDbLine
 10
-6.62500048292588
 20
107.7344629062821
 30
0.0
 11
-15.37500048292588
 21
100.1567406231682
 31
0.0
  0
LINE
  5
BF
330
47
100
AcDbEntity
  8
0
  6
Continuous
 62
     7
100
AcDbLine
 10
-0.15867746799879
 20
105.747049455119
 30
0.0
 11
-8.90867746799879
 21
98.16932717200513
 31
0.0
  0
LINE
  5
C0
330
47
100
AcDbEntity
  8
0
  6
Continuous
 62
     7
100
AcDbLine
 10
-0.15867746799879
 20
105.747049455119
 30
0.0
 11
-6.62500048292588
 21
107.7344629062821
 31
0.0
  0
LINE
  5
C1
330
47
100
AcDbEntity
  8
0
  6
Continuous
 62
     7
100
AcDbLine
 10
1.642398701442
 20
83.37969259132028
 30
0.0
 11
4.0239685618493
 21
82.69219259132026
 31
0.0
  0
LINE
  5
C2
330
47
100
AcDbEntity
  8
0
  6
Continuous
 62
     7
100
AcDbLine
 10
7.87396856184932
 20
81.69626339336624
 30
0.0
 11
8.92396856184931
 21
82.60559006733989
 31
0.0
  0
LINE
  5
C3
330
47
100
AcDbEntity
  8
0
  6
Continuous
 62
     7
100
AcDbLine
 10
4.0239685618493
 20
82.69219259132026
 30
0.0
 11
4.84896856184932
 21
83.40666354944246
 31
0.0
  0
LINE
  5
C4
330
47
100
AcDbEntity
  8
0
  6
Continuous
 62
     7
100
AcDbLine
 10
11.16486509622351
 20
84.90318531513712
 30
0.0
 11
7.87396856184932
 21
85.85318531513516
 31
0.0
  0
LINE
  5
C5
330
47
100
AcDbEntity
  8
0
  6
Continuous
 62
     7
100
AcDbLine
 10
6.30764554692502
 20
103.5176359633144
 30
0.0
 11
-0.15867746799879
 21
105.747049455119
 31
0.0
  0
LINE
  5
C6
330
47
100
AcDbEntity
  8
0
  6
Continuous
 62
     7
100
AcDbLine
 10
-19.55764651277349
 20
110.9843026299822
 30
0.0
 11
-26.02396952769409
 21
112.2446923341649
 31
0.0
  0
LINE
  5
C7
330
47
100
AcDbEntity
  8
0
  6
Continuous
 62
     7
100
AcDbLine
 10
-24.52036677535399
 20
111.076339482514
 30
0.0
 11
-24.47994515163359
 21
110.6335488652215
 31
0.0
  0
LINE
  5
C8
330
47
100
AcDbEntity
  8
0
  6
Continuous
 62
     7
100
AcDbLine
 10
-26.02396952769409
 20
112.2446923341649
 30
0.0
 11
-34.77396952769409
 21
104.6669700510511
 31
0.0
  0
LINE
  5
C9
330
47
100
AcDbEntity
  8
0
  6
Continuous
 62
     7
100
AcDbLine
 10
-13.09132349784969
 20
109.4803827884534
 30
0.0
 11
-19.55764651277349
 21
110.9843026299822
 31
0.0
  0
LINE
  5
CA
330
47
100
AcDbEntity
  8
0
  6
Continuous
 62
     7
100
AcDbLine
 10
-24.52036677535399
 20
111.076339482514
 30
0.0
 11
-31.62036677535409
 21
104.9275591156445
 31
0.0
  0
LINE
  5
CB
330
47
100
AcDbEntity
  8
0
  6
Continuous
 62
     7
100
AcDbLine
 10
-24.47994515163359
 20
110.6335488652215
 30
0.0
 11
-31.17001506277688
 21
104.8397783690775
 31
0.0
  0
LINE
  5
CC
330
47
100
AcDbEntity
  8
0
  6
Continuous
 62
     7
100
AcDbLine
 10
-20.65582112105339
 20
110.323077769051
 30
0.0
 11
-24.52036677535399
 21
111.076339482514
 31
0.0
  0
LINE
  5
CD
330
47
100
AcDbEntity
  8
0
  6
Continuous
 62
     7
100
AcDbLine
 10
-21.06575120990999
 20
109.9680678983255
 30
0.0
 11
-24.47994515163359
 21
110.6335488652215
 31
0.0
  0
LINE
  5
CE
330
47
100
AcDbEntity
  8
0
  6
Continuous
 62
     7
100
AcDbLine
 10
-31.62036677535409
 20
104.9275591156445
 30
0.0
 11
-27.75582112105339
 21
104.1742974021815
 31
0.0
  0
LINE
  5
CF
330
47
100
AcDbEntity
  8
0
  6
Continuous
 62
     7
100
AcDbLine
 10
-34.77396952769419
 20
100.7337932683436
 30
0.0
 11
-34.77396955988078
 21
101.1668050411451
 31
0.0
  0
LINE
  5
D0
330
47
100
AcDbEntity
  8
0
  6
Continuous
 62
     7
100
AcDbLine
 10
-34.77396955988078
 20
101.1668050411451
 30
0.0
 11
-34.42755934423209
 21
101.2668071486218
 31
0.0
  0
LINE
  5
D1
330
47
100
AcDbEntity
  8
0
  6
Continuous
 62
     7
100
AcDbLine
 10
-34.77396954501448
 20
99.00174153597443
 30
0.0
 11
-34.42755934423209
 21
99.10174363916113
 31
0.0
  0
LINE
  5
D2
330
47
100
AcDbEntity
  8
0
  6
Continuous
 62
     7
100
AcDbLine
 10
-34.42755937259298
 20
98.46872977360837
 30
0.0
 11
-34.77396954501448
 21
98.56872977675715
 31
0.0
  0
LINE
  5
D3
330
47
100
AcDbEntity
  8
0
  6
Continuous
 62
     7
100
AcDbLine
 10
-34.77396954501448
 20
98.56872977675715
 30
0.0
 11
-34.77396954501448
 21
99.00174153597443
 31
0.0
  0
LINE
  5
D4
330
47
100
AcDbEntity
  8
0
  6
Continuous
 62
     7
100
AcDbLine
 10
-34.42755937259298
 20
100.6337932959442
 30
0.0
 11
-34.77396952769419
 21
100.7337932683436
 31
0.0
  0
LINE
  5
D5
330
47
100
AcDbEntity
  8
0
  6
Continuous
 62
     7
100
AcDbLine
 10
-34.42755937259298
 20
102.7988567925306
 30
0.0
 11
-34.77396952769409
 21
102.8988567906794
 31
0.0
  0
LINE
  5
D6
330
47
100
AcDbEntity
  8
0
  6
Continuous
 62
     7
100
AcDbLine
 10
-34.77396952769409
 20
102.8988567906794
 30
0.0
 11
-34.77396952769409
 21
104.6669700510511
 31
0.0
  0
LINE
  5
D7
330
47
100
AcDbEntity
  8
0
  6
Continuous
 62
     7
100
AcDbLine
 10
-34.42755934423209
 20
99.10174363916113
 30
0.0
 11
-34.42755937259298
 21
100.6337932959442
 31
0.0
  0
LINE
  5
D8
330
47
100
AcDbEntity
  8
0
  6
Continuous
 62
     7
100
AcDbLine
 10
-34.42755934423209
 20
101.2668071486218
 30
0.0
 11
-34.42755937259298
 21
102.7988567925306
 31
0.0
  0
LINE
  5
D9
330
47
100
AcDbEntity
  8
0
  6
Continuous
 62
     7
100
AcDbLine
 10
-15.37500048292588
 20
100.1567406231682
 30
0.0
 11
-8.90867746799879
 21
98.16932717200513
 31
0.0
  0
LINE
  5
DA
330
47
100
AcDbEntity
  8
0
  6
Continuous
 62
     7
100
AcDbLine
 10
-21.84132349784959
 20
101.9026605053395
 30
0.0
 11
-15.37500048292588
 21
100.1567406231682
 31
0.0
  0
LINE
  5
DB
330
47
100
AcDbEntity
  8
0
  6
Continuous
 62
     7
100
AcDbLine
 10
-28.30764651277349
 20
103.4065803468684
 30
0.0
 11
-21.84132349784959
 21
101.9026605053395
 31
0.0
  0
LINE
  5
DC
330
47
100
AcDbEntity
  8
0
  6
Continuous
 62
     7
100
AcDbLine
 10
-34.77396952769409
 20
104.6669700510511
 30
0.0
 11
-28.30764651277349
 21
103.4065803468684
 31
0.0
  0
LINE
  5
DD
330
47
100
AcDbEntity
  8
0
  6
Continuous
 62
     7
100
AcDbLine
 10
-34.42755934793449
 20
99.30174156677573
 30
0.0
 11
-34.77396954501448
 21
99.00174153597443
 31
0.0
  0
LINE
  5
DE
330
47
100
AcDbEntity
  8
0
  6
Continuous
 62
     7
100
AcDbLine
 10
-34.42755934793449
 20
101.4668050848211
 30
0.0
 11
-34.77396955988078
 21
101.1668050411451
 31
0.0
  0
LINE
  5
DF
330
47
100
AcDbEntity
  8
0
  6
Continuous
 62
     7
100
AcDbLine
 10
-27.75582112105339
 20
104.1742974021815
 30
0.0
 11
-20.65582112105339
 21
110.323077769051
 31
0.0
  0
LINE
  5
E0
330
47
100
AcDbEntity
  8
0
  6
Continuous
 62
     7
100
AcDbLine
 10
-19.55764651277349
 20
110.9843026299822
 30
0.0
 11
-28.30764651277349
 21
103.4065803468684
 31
0.0
  0
LINE
  5
E1
330
47
100
AcDbEntity
  8
0
  6
Continuous
 62
     7
100
AcDbLine
 10
-13.09132349784969
 20
109.4803827884534
 30
0.0
 11
-21.84132349784959
 21
101.9026605053395
 31
0.0
  0
LINE
  5
E2
330
47
100
AcDbEntity
  8
0
  6
Continuous
 62
     7
100
AcDbLine
 10
-6.62500048292588
 20
107.7344629062821
 30
0.0
 11
-13.09132349784969
 21
109.4803827884534
 31
0.0
  0
LINE
  5
E3
330
47
100
AcDbEntity
  8
0
  6
Continuous
 62
     7
100
AcDbLine
 10
-34.77396952769419
 20
93.89219259132125
 30
0.0
 11
-34.77396954627669
 21
96.83667802614896
 31
0.0
  0
LINE
  5
E4
330
47
100
AcDbEntity
  8
0
  6
Continuous
 62
     7
100
AcDbLine
 10
-2.4423544530749
 20
95.93991368020055
 30
0.0
 11
4.02396856185541
 21
93.46697005104784
 31
0.0
  0
LINE
  5
E5
330
47
100
AcDbEntity
  8
0
  6
Continuous
 62
     7
100
AcDbLine
 10
-33.94896952168209
 20
93.65403560354503
 30
0.0
 11
-33.94896936591688
 21
68.97231155072306
 31
0.0
  0
LINE
  5
E6
330
47
100
AcDbEntity
  8
0
  6
Continuous
 62
     7
100
AcDbLine
 10
-32.39239966728628
 20
93.20469259132105
 30
0.0
 11
-32.39239966728628
 21
67.57034063930165
 31
0.0
  0
LINE
  5
E7
330
47
100
AcDbEntity
  8
0
  6
Continuous
 62
     7
100
AcDbLine
 10
3.6775584003351
 20
91.79885679068
 30
0.0
 11
3.6775584003351
 21
90.26680720228748
 31
0.0
  0
LINE
  5
E8
330
47
100
AcDbEntity
  8
0
  6
Continuous
 62
     7
100
AcDbLine
 10
3.6775584003351
 20
89.63379328121826
 30
0.0
 11
3.6775584003351
 21
88.10174369282637
 31
0.0
  0
LINE
  5
E9
330
47
100
AcDbEntity
  8
0
  6
Continuous
 62
     7
100
AcDbLine
 10
3.6775584003351
 20
87.46872977175717
 30
0.0
 11
3.6775584003351
 21
85.93668018336528
 31
0.0
  0
LINE
  5
EA
330
47
100
AcDbEntity
  8
0
  6
Continuous
 62
     7
100
AcDbLine
 10
-33.94896936591688
 20
68.97231155072306
 30
0.0
 11
-32.39239966728628
 21
68.52296858346462
 31
0.0
  0
LINE
  5
EB
330
47
100
AcDbEntity
  8
0
  6
Continuous
 62
     7
100
AcDbLine
 10
-20.33836378493729
 20
64.0906402085536
 30
0.0
 11
-20.33836378493739
 21
61.17502091862032
 31
0.0
  0
LINE
  5
EC
330
47
100
AcDbEntity
  8
0
  6
Continuous
 62
     7
100
AcDbLine
 10
-14.45525890462079
 20
62.39233411539267
 30
0.0
 11
-13.4058545364633
 21
61.48352327372588
 31
0.0
  0
LINE
  5
ED
330
47
100
AcDbEntity
  8
0
  6
Continuous
 62
     7
100
AcDbLine
 10
-14.39221136223088
 20
62.33773334203681
 30
0.0
 11
-14.39221136223088
 21
60.32453997145869
 31
0.0
  0
LINE
  5
EE
330
47
100
AcDbEntity
  8
0
  6
Continuous
 62
     7
100
AcDbLine
 10
-14.39221136223088
 20
60.32453997145869
 30
0.0
 11
-15.14221136223088
 21
59.67502091862036
 31
0.0
  0
LINE
  5
EF
330
47
100
AcDbEntity
  8
0
  6
Continuous
 62
     7
100
AcDbLine
 10
-15.14221136223088
 20
62.59064020855351
 30
0.0
 11
-15.14221136223088
 21
59.67502091862036
 31
0.0
  0
LINE
  5
F0
330
47
100
AcDbEntity
  8
0
  6
Continuous
 62
     7
100
AcDbLine
 10
-13.4058545364633
 20
62.08939716817039
 30
0.0
 11
-13.4058545364633
 21
61.48352327372588
 31
0.0
  0
LINE
  5
F1
330
47
100
AcDbEntity
  8
0
  6
Continuous
 62
     7
100
AcDbLine
 10
-13.4058545364633
 20
61.48352327372588
 30
0.0
 11
-11.30704580014827
 21
61.48352327372584
 31
0.0
  0
LINE
  5
F2
330
47
100
AcDbEntity
  8
0
  6
Continuous
 62
     7
100
AcDbLine
 10
-13.02568567070938
 20
56.63692824416538
 30
0.0
 11
-10.52568567070949
 21
54.47186473470436
 31
0.0
  0
LINE
  5
F3
330
47
100
AcDbEntity
  8
0
  6
Continuous
 62
     7
100
AcDbLine
 10
-10.52568567070949
 20
54.47186473470436
 30
0.0
 11
-10.52568567070938
 21
61.25796403319302
 31
0.0
  0
LINE
  5
F4
330
47
100
AcDbEntity
  8
0
  6
Continuous
 62
     7
100
AcDbLine
 10
-13.02568567070938
 20
56.63692824416538
 30
0.0
 11
-13.02568567070929
 21
61.48352327372587
 31
0.0
  0
LINE
  5
F5
330
47
100
AcDbEntity
  8
0
  6
Continuous
 62
     7
100
AcDbLine
 10
-8.02568567070958
 20
56.63692824416539
 30
0.0
 11
-8.02568567070949
 21
60.53627619670597
 31
0.0
  0
LINE
  5
F6
330
47
100
AcDbEntity
  8
0
  6
Continuous
 62
     7
100
AcDbLine
 10
-1.6825896000135
 20
58.70518208474984
 30
0.0
 11
-1.68258960001359
 21
56.63139488226659
 31
0.0
  0
LINE
  5
F7
330
47
100
AcDbEntity
  8
0
  6
Continuous
 62
     7
100
AcDbLine
 10
-2.43258960001359
 20
55.98187582942826
 30
0.0
 11
-1.68258960001359
 21
56.63139488226659
 31
0.0
  0
LINE
  5
F8
330
47
100
AcDbEntity
  8
0
  6
Continuous
 62
     7
100
AcDbLine
 10
-2.4325896000135
 20
58.92168843569596
 30
0.0
 11
-2.43258960001359
 21
55.98187582942826
 31
0.0
  0
LINE
  5
F9
330
47
100
AcDbEntity
  8
0
  6
Continuous
 62
     7
100
AcDbLine
 10
-7.62874202272039
 20
60.42168843569616
 30
0.0
 11
-7.62874202272047
 21
57.48187582942835
 31
0.0
  0
LINE
  5
FA
330
47
100
AcDbEntity
  8
0
  6
Continuous
 62
     7
100
AcDbLine
 10
1.642398701442
 20
57.74534063930091
 30
0.0
 11
1.642398701442
 21
83.37969259132028
 31
0.0
  0
LINE
  5
FB
330
47
100
AcDbEntity
  8
0
  6
Continuous
 62
     7
100
AcDbLine
 10
4.84896856184881
 20
57.77231159742317
 30
0.0
 11
4.84896856184932
 21
83.40666354944246
 31
0.0
  0
LINE
  5
FC
330
47
100
AcDbEntity
  8
0
  6
Continuous
 62
     7
100
AcDbLine
 10
2.46739870144202
 20
58.4598115974231
 30
0.0
 11
2.46739870144211
 21
83.14153560527956
 31
0.0
  0
LINE
  5
FD
330
47
100
AcDbEntity
  8
0
  6
Continuous
 62
     7
100
AcDbLine
 10
-7.62874202272047
 20
57.48187582942835
 30
0.0
 11
-2.43258960001359
 21
55.98187582942826
 31
0.0
  0
LINE
  5
FE
330
47
100
AcDbEntity
  8
0
  6
Continuous
 62
     7
100
AcDbLine
 10
2.46739870144202
 20
58.4598115974231
 30
0.0
 11
1.642398701442
 21
57.74534063930091
 31
0.0
  0
LINE
  5
FF
330
47
100
AcDbEntity
  8
0
  6
Continuous
 62
     7
100
AcDbLine
 10
-10.52568567070949
 20
54.47186473470436
 30
0.0
 11
-8.02568567070958
 21
56.63692824416539
 31
0.0
  0
LINE
  5
100
330
47
100
AcDbEntity
  8
0
  6
Continuous
 62
     7
100
AcDbLine
 10
2.46739870144202
 20
58.4598115974231
 30
0.0
 11
4.84896856184881
 21
57.77231159742317
 31
0.0
  0
LINE
  5
101
330
47
100
AcDbEntity
  8
0
  6
Continuous
 62
     7
100
AcDbLine
 10
-15.14221136223088
 20
59.67502091862036
 30
0.0
 11
-20.33836378493739
 21
61.17502091862032
 31
0.0
  0
LINE
  5
102
330
47
100
AcDbEntity
  8
0
  6
Continuous
 62
     7
100
AcDbLine
 10
1.642398701442
 20
57.74534063930091
 30
0.0
 11
-32.39239966728628
 21
67.57034063930165
 31
0.0
  0
ENDBLK
  5
49
330
47
100
AcDbEntity
  8
0
100
AcDbBlockEnd
  0
BLOCK
  5
4C
330
4A
100
AcDbEntity
  8
0
100
AcDbBlockBegin
  2
Allg1
 70
     0
 10
-11.0000000000822
 20
79.99999999982492
 30
0.0
  3
Allg1
  1

  0
INSERT
  5
4B
330
4A
100
AcDbEntity
  8
0
100
AcDbBlockReference
  2
F_MS_12_ST-select__1
 10
-34.77396955988078
 20
54.47186473470436
 30
0.0
  0
MTEXT
  5
104
330
4A
100
AcDbEntity
  8
1
 62
     6
100
AcDbMText
 10
-11.00000000008186
 20
40.71553511824322
 30
0.0
 40
5.0
 41
0.0
 71
     2
 72
     1
  1
 
  7
CONVERTER_11
 73
     1
 44
1.32052821128451
  0
ENDBLK
  5
4D
330
4A
100
AcDbEntity
  8
0
100
AcDbBlockEnd
  0
BLOCK
  5
4F
330
4E
100
AcDbEntity
  8
0
100
AcDbBlockBegin
  2
F_MS_12_ST-select__2
 70
     0
 10
-143.200000689131
 20
69.25000022776399
 30
0.0
  3
F_MS_12_ST-select__2
  1

  0
LINE
  5
105
330
4E
100
AcDbEntity
  8
0
  6
Continuous
 62
     7
100
AcDbLine
 10
-94.60000068913003
 20
86.75000022776399
 30
0.0
 11
-94.60000068913011
 21
79.0500002277641
 31
0.0
  0
LINE
  5
106
330
4E
100
AcDbEntity
  8
0
  6
Continuous
 62
     7
100
AcDbLine
 10
-102.0666673557973
 20
86.75000022776399
 30
0.0
 11
-102.0666673557973
 21
69.25000022776399
 31
0.0
  0
LINE
  5
107
330
4E
100
AcDbEntity
  8
0
  6
Continuous
 62
     7
100
AcDbLine
 10
-131.9333340224677
 20
86.75000022776399
 30
0.0
 11
-139.4000007262968
 21
86.75000022776399
 31
0.0
  0
LINE
  5
108
330
4E
100
AcDbEntity
  8
0
  6
Continuous
 62
     7
100
AcDbLine
 10
-102.0666673557973
 20
86.75000022776399
 30
0.0
 11
-94.60000068913003
 21
86.75000022776399
 31
0.0
  0
LINE
  5
109
330
4E
100
AcDbEntity
  8
0
  6
Continuous
 62
     7
100
AcDbLine
 10
-136.6644869666601
 20
85.10000022776399
 30
0.0
 11
-136.7111618373323
 21
85.10000022776399
 31
0.0
  0
LINE
  5
10A
330
4E
100
AcDbEntity
  8
0
  6
Continuous
 62
     7
100
AcDbLine
 10
-117.0000006891345
 20
86.75000022776399
 30
0.0
 11
-124.4666673558011
 21
86.75000022776399
 31
0.0
  0
LINE
  5
10B
330
4E
100
AcDbEntity
  8
0
  6
Continuous
 62
     7
100
AcDbLine
 10
-102.0666673557973
 20
86.75000022776399
 30
0.0
 11
-109.533334022464
 21
86.75000022776399
 31
0.0
  0
LINE
  5
10C
330
4E
100
AcDbEntity
  8
0
  6
Continuous
 62
     7
100
AcDbLine
 10
-109.533334022464
 20
86.75000022776399
 30
0.0
 11
-117.0000006891345
 21
86.75000022776399
 31
0.0
  0
LINE
  5
10D
330
4E
100
AcDbEntity
  8
0
  6
Continuous
 62
     7
100
AcDbLine
 10
-90.80000068913789
 20
76.95000022776411
 30
0.0
 11
-94.60000068913011
 21
76.9500002277641
 31
0.0
  0
LINE
  5
10E
330
4E
100
AcDbEntity
  8
0
  6
Continuous
 62
     7
100
AcDbLine
 10
-143.200000689131
 20
76.9500002277641
 30
0.0
 11
-139.4000006878686
 21
76.9500002277641
 31
0.0
  0
LINE
  5
10F
330
4E
100
AcDbEntity
  8
0
  6
Continuous
 62
     7
100
AcDbLine
 10
-94.60000068913011
 20
79.0500002277641
 30
0.0
 11
-94.60000068913011
 21
76.9500002277641
 31
0.0
  0
LINE
  5
110
330
4E
100
AcDbEntity
  8
0
  6
Continuous
 62
     7
100
AcDbLine
 10
-94.60000068913011
 20
76.9500002277641
 30
0.0
 11
-94.60000068913003
 21
69.25000022776399
 31
0.0
  0
LINE
  5
111
330
4E
100
AcDbEntity
  8
0
  6
Continuous
 62
     7
100
AcDbLine
 10
-109.533334022464
 20
86.75000022776399
 30
0.0
 11
-109.533334022464
 21
69.25000022776399
 31
0.0
  0
LINE
  5
112
330
4E
100
AcDbEntity
  8
0
  6
Continuous
 62
     7
100
AcDbLine
 10
-102.0666673557973
 20
69.25000022776399
 30
0.0
 11
-94.60000068913003
 21
69.25000022776399
 31
0.0
  0
LINE
  5
113
330
4E
100
AcDbEntity
  8
0
  6
Continuous
 62
     7
100
AcDbLine
 10
-131.9333340224678
 20
69.25000022776399
 30
0.0
 11
-124.466667355801
 21
69.25000022776399
 31
0.0
  0
LINE
  5
114
330
4E
100
AcDbEntity
  8
0
  6
Continuous
 62
     7
100
AcDbLine
 10
-124.466667355801
 20
69.25000022776399
 30
0.0
 11
-117.0000006891345
 21
69.25000022776399
 31
0.0
  0
LINE
  5
115
330
4E
100
AcDbEntity
  8
0
  6
Continuous
 62
     7
100
AcDbLine
 10
-139.4000007262968
 20
69.25000022776399
 30
0.0
 11
-131.9333340224678
 21
69.25000022776399
 31
0.0
  0
LINE
  5
116
330
4E
100
AcDbEntity
  8
0
  6
Continuous
 62
     7
100
AcDbLine
 10
-109.533334022464
 20
69.25000022776399
 30
0.0
 11
-102.0666673557973
 21
69.25000022776399
 31
0.0
  0
LINE
  5
117
330
4E
100
AcDbEntity
  8
0
  6
Continuous
 62
     7
100
AcDbLine
 10
-117.0000006891345
 20
69.25000022776399
 30
0.0
 11
-109.533334022464
 21
69.25000022776399
 31
0.0
  0
LINE
  5
118
330
4E
100
AcDbEntity
  8
0
  6
Continuous
 62
     7
100
AcDbLine
 10
-90.80000068913789
 20
79.0500002277641
 30
0.0
 11
-90.80000068913789
 21
76.95000022776411
 31
0.0
  0
LINE
  5
119
330
4E
100
AcDbEntity
  8
0
  6
Continuous
 62
     7
100
AcDbLine
 10
-131.9333340224677
 20
86.75000022776399
 30
0.0
 11
-131.9333340224678
 21
69.25000022776399
 31
0.0
  0
LINE
  5
11A
330
4E
100
AcDbEntity
  8
0
  6
Continuous
 62
     7
100
AcDbLine
 10
-124.4666673558011
 20
86.75000022776399
 30
0.0
 11
-131.9333340224677
 21
86.75000022776399
 31
0.0
  0
LINE
  5
11B
330
4E
100
AcDbEntity
  8
0
  6
Continuous
 62
     7
100
AcDbLine
 10
-132.2487688897201
 20
85.10000022776399
 30
0.0
 11
-136.6644869666601
 21
85.10000022776399
 31
0.0
  0
LINE
  5
11C
330
4E
100
AcDbEntity
  8
0
  6
Continuous
 62
     7
100
AcDbLine
 10
-136.6644869666601
 20
85.10000022776399
 30
0.0
 11
-136.6644869666601
 21
70.90000022776398
 31
0.0
  0
LINE
  5
11D
330
4E
100
AcDbEntity
  8
0
  6
Continuous
 62
     7
100
AcDbLine
 10
-136.7111618373323
 20
70.90000022776398
 30
0.0
 11
-136.6644869666601
 21
70.90000022776398
 31
0.0
  0
LINE
  5
11E
330
4E
100
AcDbEntity
  8
0
  6
Continuous
 62
     7
100
AcDbLine
 10
-136.6644869666601
 20
70.90000022776398
 30
0.0
 11
-132.2487688897201
 21
70.90000022776398
 31
0.0
  0
LINE
  5
11F
330
4E
100
AcDbEntity
  8
0
  6
Continuous
 62
     7
100
AcDbLine
 10
-139.4000006878686
 20
76.9500002277641
 30
0.0
 11
-139.4000007262968
 21
69.25000022776399
 31
0.0
  0
LINE
  5
120
330
4E
100
AcDbEntity
  8
0
  6
Continuous
 62
     7
100
AcDbLine
 10
-132.2487688897201
 20
70.90000022776398
 30
0.0
 11
-132.2487688897201
 21
85.10000022776399
 31
0.0
  0
LINE
  5
121
330
4E
100
AcDbEntity
  8
0
  6
Continuous
 62
     7
100
AcDbLine
 10
-124.4666673558011
 20
86.75000022776399
 30
0.0
 11
-124.466667355801
 21
69.25000022776399
 31
0.0
  0
LINE
  5
122
330
4E
100
AcDbEntity
  8
0
  6
Continuous
 62
     7
100
AcDbLine
 10
-143.200000689131
 20
79.0500002277641
 30
0.0
 11
-143.200000689131
 21
76.9500002277641
 31
0.0
  0
LINE
  5
123
330
4E
100
AcDbEntity
  8
0
  6
Continuous
 62
     7
100
AcDbLine
 10
-90.80000068913789
 20
79.0500002277641
 30
0.0
 11
-94.60000068913011
 21
79.0500002277641
 31
0.0
  0
LINE
  5
124
330
4E
100
AcDbEntity
  8
0
  6
Continuous
 62
     7
100
AcDbLine
 10
-143.200000689131
 20
79.0500002277641
 30
0.0
 11
-139.4000006878686
 21
79.0500002277641
 31
0.0
  0
LINE
  5
125
330
4E
100
AcDbEntity
  8
0
  6
Continuous
 62
     7
100
AcDbLine
 10
-139.4000006878686
 20
79.0500002277641
 30
0.0
 11
-139.4000006878686
 21
76.9500002277641
 31
0.0
  0
LINE
  5
126
330
4E
100
AcDbEntity
  8
0
  6
Continuous
 62
     7
100
AcDbLine
 10
-139.4000007262968
 20
86.75000022776399
 30
0.0
 11
-139.4000006878686
 21
79.0500002277641
 31
0.0
  0
LINE
  5
127
330
4E
100
AcDbEntity
  8
0
  6
Continuous
 62
     7
100
AcDbLine
 10
-136.7111618373323
 20
85.10000022776399
 30
0.0
 11
-136.7111618373323
 21
70.90000022776398
 31
0.0
  0
LINE
  5
128
330
4E
100
AcDbEntity
  8
0
  6
Continuous
 62
     7
100
AcDbLine
 10
-117.0000006891345
 20
86.75000022776399
 30
0.0
 11
-117.0000006891345
 21
69.25000022776399
 31
0.0
  0
ENDBLK
  5
50
330
4E
100
AcDbEntity
  8
0
100
AcDbBlockEnd
  0
BLOCK
  5
53
330
51
100
AcDbEntity
  8
0
100
AcDbBlockBegin
  2
Drfsicht1
 70
     0
 10
-117.000000000095
 20
78.00000000000001
 30
0.0
  3
Drfsicht1
  1

  0
INSERT
  5
52
330
51
100
AcDbEntity
  8
0
100
AcDbBlockReference
  2
F_MS_12_ST-select__2
 10
-143.200000689131
 20
69.25000022776399
 30
0.0
  0
MTEXT
  5
129
330
51
100
AcDbEntity
  8
1
 62
     6
100
AcDbMText
 10
-117.000000000095
 20
64.24999988079071
 30
0.0
 40
5.0
 41
0.0
 71
     2
 72
     1
  1
 
  7
CONVERTER_11
 73
     1
 44
1.32052821128451
  0
DIMENSION
  5
134
330
51
100
AcDbEntity
  8
1
100
AcDbDimension
  2
*D17
 10
-149.4000007262968
 20
69.25000022776399
 30
0.0
 11
-152.8250007262968
 21
78.32046814728993
 31
0.0
 70
    32
  1
<>
 71
     5
 42
-1.0
 53
90.0
  3
ME10_DIM_10
100
AcDbAlignedDimension
 13
-139.4000007262968
 23
86.75000022776399
 33
0.0
 14
-131.9333340224678
 24
69.25000022776399
 34
0.0
 50
90.0
100
AcDbRotatedDimension
  0
ENDBLK
  5
54
330
51
100
AcDbEntity
  8
0
100
AcDbBlockEnd
  0
BLOCK
  5
56
330
55
100
AcDbEntity
  8
0
100
AcDbBlockBegin
  2
F_MS_12_ST-select__3
 70
     0
 10
-24.29999945391749
 20
122.7500005818134
 30
0.0
  3
F_MS_12_ST-select__3
  1

  0
LINE
  5
135
330
55
100
AcDbEntity
  8
0
  6
Continuous
 62
     7
100
AcDbLine
 10
-20.49999945392474
 20
172.7499993893818
 30
0.0
 11
-20.49999945392474
 21
172.2500005818144
 31
0.0
  0
LINE
  5
136
330
55
100
AcDbEntity
  8
0
  6
Continuous
 62
     7
100
AcDbLine
 10
-20.49999945392474
 20
170.2499993893818
 30
0.0
 11
-20.49999945392474
 21
169.7500005818144
 31
0.0
  0
LINE
  5
137
330
55
100
AcDbEntity
  8
0
  6
Continuous
 62
     7
100
AcDbLine
 10
-20.49999945392536
 20
167.7499993893814
 30
0.0
 11
-20.49999945392528
 21
164.3500005818135
 31
0.0
  0
LINE
  5
138
330
55
100
AcDbEntity
  8
0
  6
Continuous
 62
     7
100
AcDbLine
 10
-20.09999945392474
 20
172.2500005818144
 30
0.0
 11
-20.09999945392474
 21
170.4809420972746
 31
0.0
  0
LINE
  5
139
330
55
100
AcDbEntity
  8
0
  6
Continuous
 62
     7
100
AcDbLine
 10
-20.09999945392474
 20
169.7500005818144
 30
0.0
 11
-20.09999945392474
 21
167.9809420972746
 31
0.0
  0
LINE
  5
13A
330
55
100
AcDbEntity
  8
0
  6
Continuous
 62
     7
100
AcDbLine
 10
-20.09999945392474
 20
172.2500005818144
 30
0.0
 11
-20.49999945392474
 21
172.2500005818144
 31
0.0
  0
LINE
  5
13B
330
55
100
AcDbEntity
  8
0
  6
Continuous
 62
     7
100
AcDbLine
 10
-20.09999945392474
 20
170.4809420972746
 30
0.0
 11
-20.49999945392474
 21
170.2499993893818
 31
0.0
  0
LINE
  5
13C
330
55
100
AcDbEntity
  8
0
  6
Continuous
 62
     7
100
AcDbLine
 10
-20.09999945392474
 20
169.7500005818144
 30
0.0
 11
-20.49999945392474
 21
169.7500005818144
 31
0.0
  0
LINE
  5
13D
330
55
100
AcDbEntity
  8
0
  6
Continuous
 62
     7
100
AcDbLine
 10
-20.09999945392474
 20
167.9809420972746
 30
0.0
 11
-20.49999945392536
 21
167.7499993893814
 31
0.0
  0
LINE
  5
13E
330
55
100
AcDbEntity
  8
0
  6
Continuous
 62
     7
100
AcDbLine
 10
-20.09999945392475
 20
172.9809420972746
 30
0.0
 11
-20.49999945392474
 21
172.7499993893818
 31
0.0
  0
LINE
  5
13F
330
55
100
AcDbEntity
  8
0
  6
Continuous
 62
     7
100
AcDbLine
 10
-20.09999945392475
 20
174.7500005818152
 30
0.0
 11
-20.09999945392475
 21
172.9809420972746
 31
0.0
  0
LINE
  5
140
330
55
100
AcDbEntity
  8
0
  6
Continuous
 62
     7
100
AcDbLine
 10
-20.09999945392475
 20
174.7500005818152
 30
0.0
 11
-20.49999945392474
 21
174.7500005818137
 31
0.0
  0
LINE
  5
141
330
55
100
AcDbEntity
  8
0
  6
Continuous
 62
     7
100
AcDbLine
 10
-20.49999945393228
 20
176.7916419154803
 30
0.0
 11
-20.49999945392474
 21
174.7500005818137
 31
0.0
  0
LINE
  5
142
330
55
100
AcDbEntity
  8
0
  6
Continuous
 62
     7
100
AcDbLine
 10
-5.5666661205914
 20
177.9105742047491
 30
0.0
 11
1.90000054607907
 21
178.0500005818136
 31
0.0
  0
LINE
  5
143
330
55
100
AcDbEntity
  8
0
  6
Continuous
 62
     7
100
AcDbLine
 10
-23.49999942236255
 20
162.3500005818154
 30
0.0
 11
-22.35194912526728
 21
162.1216391793493
 31
0.0
  0
LINE
  5
144
330
55
100
AcDbEntity
  8
0
  6
Continuous
 62
     7
100
AcDbLine
 10
-13.03333278725805
 20
177.491710250467
 30
0.0
 11
-5.5666661205914
 21
177.9105742047491
 31
0.0
  0
LINE
  5
145
330
55
100
AcDbEntity
  8
0
  6
Continuous
 62
     7
100
AcDbLine
 10
24.52836191698681
 20
160.4980508789107
 30
0.0
 11
24.30000051452068
 21
159.3500006007483
 31
0.0
  0
LINE
  5
146
330
55
100
AcDbEntity
  8
0
  6
Continuous
 62
     7
100
AcDbLine
 10
24.30000051452068
 20
159.3500006007483
 30
0.0
 11
24.30000035927124
 21
134.7500005818145
 31
0.0
  0
LINE
  5
147
330
55
100
AcDbEntity
  8
0
  6
Continuous
 62
     7
100
AcDbLine
 10
24.30000054481324
 20
164.1500005818154
 30
0.0
 11
24.30000051452068
 21
159.3500006007483
 31
0.0
  0
LINE
  5
148
330
55
100
AcDbEntity
  8
0
  6
Continuous
 62
     7
100
AcDbLine
 10
24.30000054607544
 20
164.3500005818144
 30
0.0
 11
24.30000054481324
 21
164.1500005818154
 31
0.0
  0
LINE
  5
149
330
55
100
AcDbEntity
  8
0
  6
Continuous
 62
     7
100
AcDbLine
 10
21.55000054607464
 20
134.7500005818144
 30
0.0
 11
21.55000054607464
 21
164.3500005818144
 31
0.0
  0
LINE
  5
14A
330
55
100
AcDbEntity
  8
0
  6
Continuous
 62
     7
100
AcDbLine
 10
-24.29999945391749
 20
164.1500005818154
 30
0.0
 11
-20.49999945392527
 21
164.1500005818154
 31
0.0
  0
LINE
  5
14B
330
55
100
AcDbEntity
  8
0
  6
Continuous
 62
     7
100
AcDbLine
 10
28.10000054607562
 20
164.1500005818155
 30
0.0
 11
24.30000054481324
 21
164.1500005818154
 31
0.0
  0
LINE
  5
14C
330
55
100
AcDbEntity
  8
0
  6
Continuous
 62
     7
100
AcDbLine
 10
21.55000054607464
 20
164.3500005818144
 30
0.0
 11
24.30000054607544
 21
164.3500005818144
 31
0.0
  0
LINE
  5
14D
330
55
100
AcDbEntity
  8
0
  6
Continuous
 62
     7
100
AcDbLine
 10
-20.72836082482868
 20
160.4980508789107
 30
0.0
 11
-20.49999945392516
 21
159.3500006007483
 31
0.0
  0
LINE
  5
14E
330
55
100
AcDbEntity
  8
0
  6
Continuous
 62
     7
100
AcDbLine
 10
-21.3786790788029
 20
161.4713209253751
 30
0.0
 11
-20.72836082482868
 21
160.4980508789107
 31
0.0
  0
LINE
  5
14F
330
55
100
AcDbEntity
  8
0
  6
Continuous
 62
     7
100
AcDbLine
 10
-22.35194912526728
 20
162.1216391793493
 30
0.0
 11
-21.3786790788029
 21
161.4713209253751
 31
0.0
  0
LINE
  5
150
330
55
100
AcDbEntity
  8
0
  6
Continuous
 62
     7
100
AcDbLine
 10
26.15195021742539
 20
162.1216391793493
 30
0.0
 11
25.17868017096103
 21
161.4713209253751
 31
0.0
  0
LINE
  5
151
330
55
100
AcDbEntity
  8
0
  6
Continuous
 62
     7
100
AcDbLine
 10
1.90000054607907
 20
178.0500005818136
 30
0.0
 11
9.36666721274572
 21
177.9105742047492
 31
0.0
  0
LINE
  5
152
330
55
100
AcDbEntity
  8
0
  6
Continuous
 62
     7
100
AcDbLine
 10
23.90000055348014
 20
174.7500005818144
 30
0.0
 11
24.30000054607541
 21
174.7500005818144
 31
0.0
  0
LINE
  5
153
330
55
100
AcDbEntity
  8
0
  6
Continuous
 62
     7
100
AcDbLine
 10
23.90000055348014
 20
169.7500005818144
 30
0.0
 11
24.30000056607523
 21
169.7500005818144
 31
0.0
  0
LINE
  5
154
330
55
100
AcDbEntity
  8
0
  6
Continuous
 62
     7
100
AcDbLine
 10
25.17868017096103
 20
161.4713209253751
 30
0.0
 11
24.52836191698681
 21
160.4980508789107
 31
0.0
  0
LINE
  5
155
330
55
100
AcDbEntity
  8
0
  6
Continuous
 62
     7
100
AcDbLine
 10
27.30000051452068
 20
162.3500005818154
 30
0.0
 11
26.15195021742539
 21
162.1216391793493
 31
0.0
  0
LINE
  5
156
330
55
100
AcDbEntity
  8
0
  6
Continuous
 62
     7
100
AcDbLine
 10
28.10000054607562
 20
162.3500005818154
 30
0.0
 11
28.10000054607562
 21
164.1500005818155
 31
0.0
  0
LINE
  5
157
330
55
100
AcDbEntity
  8
0
  6
Continuous
 62
     7
100
AcDbLine
 10
24.30000054607544
 20
164.3500005818144
 30
0.0
 11
24.30000056753268
 21
167.7499994924657
 31
0.0
  0
LINE
  5
158
330
55
100
AcDbEntity
  8
0
  6
Continuous
 62
     7
100
AcDbLine
 10
24.30000056753268
 20
167.7499994924657
 30
0.0
 11
23.90000052073178
 21
167.9809420426234
 31
0.0
  0
LINE
  5
159
330
55
100
AcDbEntity
  8
0
  6
Continuous
 62
     7
100
AcDbLine
 10
23.90000052073178
 20
167.9809420426234
 30
0.0
 11
23.90000055348014
 21
169.7500005818144
 31
0.0
  0
LINE
  5
15A
330
55
100
AcDbEntity
  8
0
  6
Continuous
 62
     7
100
AcDbLine
 10
24.30000056607523
 20
169.7500005818144
 30
0.0
 11
24.30000056607523
 21
170.2499994933071
 31
0.0
  0
LINE
  5
15B
330
55
100
AcDbEntity
  8
0
  6
Continuous
 62
     7
100
AcDbLine
 10
24.30000056607523
 20
170.2499994933071
 30
0.0
 11
23.90000052073178
 21
170.4809420426233
 31
0.0
  0
LINE
  5
15C
330
55
100
AcDbEntity
  8
0
  6
Continuous
 62
     7
100
AcDbLine
 10
23.90000052073178
 20
170.4809420426233
 30
0.0
 11
23.90000055348014
 21
172.2500005966808
 31
0.0
  0
LINE
  5
15D
330
55
100
AcDbEntity
  8
0
  6
Continuous
 62
     7
100
AcDbLine
 10
23.90000055348014
 20
172.2500005966808
 30
0.0
 11
24.30000054607544
 21
172.2500005669481
 31
0.0
  0
LINE
  5
15E
330
55
100
AcDbEntity
  8
0
  6
Continuous
 62
     7
100
AcDbLine
 10
24.30000054607544
 20
172.2500005669481
 30
0.0
 11
24.3000005832414
 21
172.7499994833976
 31
0.0
  0
LINE
  5
15F
330
55
100
AcDbEntity
  8
0
  6
Continuous
 62
     7
100
AcDbLine
 10
23.90000052073178
 20
172.9809420426229
 30
0.0
 11
24.3000005832414
 21
172.7499994833976
 31
0.0
  0
LINE
  5
160
330
55
100
AcDbEntity
  8
0
  6
Continuous
 62
     7
100
AcDbLine
 10
23.90000055348014
 20
174.7500005818144
 30
0.0
 11
23.90000052073178
 21
172.9809420426229
 31
0.0
  0
LINE
  5
161
330
55
100
AcDbEntity
  8
0
  6
Continuous
 62
     7
100
AcDbLine
 10
24.30000054607541
 20
174.7500005818144
 30
0.0
 11
24.30000054607542
 21
176.7916419154811
 31
0.0
  0
LINE
  5
162
330
55
100
AcDbEntity
  8
0
  6
Continuous
 62
     7
100
AcDbLine
 10
9.36666721274572
 20
177.9105742047492
 30
0.0
 11
16.83333387941235
 21
177.4917102504673
 31
0.0
  0
LINE
  5
163
330
55
100
AcDbEntity
  8
0
  6
Continuous
 62
     7
100
AcDbLine
 10
16.83333387941235
 20
177.4917102504673
 30
0.0
 11
24.30000054607542
 21
176.7916419154811
 31
0.0
  0
LINE
  5
164
330
55
100
AcDbEntity
  8
0
  6
Continuous
 62
     7
100
AcDbLine
 10
-0.09330033143269
 20
122.7500005818134
 30
0.0
 11
4.23682668748935
 21
122.7500005818134
 31
0.0
  0
LINE
  5
165
330
55
100
AcDbEntity
  8
0
  6
Continuous
 62
     7
100
AcDbLine
 10
4.23682668748935
 20
122.7500005818134
 30
0.0
 11
4.23682668748914
 21
131.450000581814
 31
0.0
  0
LINE
  5
166
330
55
100
AcDbEntity
  8
0
  6
Continuous
 62
     7
100
AcDbLine
 10
-0.09330033143269
 20
122.7500005818134
 30
0.0
 11
-0.0933003314329
 21
131.4500005818139
 31
0.0
  0
LINE
  5
167
330
55
100
AcDbEntity
  8
0
  6
Continuous
 62
     7
100
AcDbLine
 10
4.23682668748914
 20
131.450000581814
 30
0.0
 11
2.48400796553552
 21
131.450000581814
 31
0.0
  0
LINE
  5
168
330
55
100
AcDbEntity
  8
0
  6
Continuous
 62
     7
100
AcDbLine
 10
6.07823659959553
 20
131.4500005818141
 30
0.0
 11
4.23682668748914
 21
131.450000581814
 31
0.0
  0
LINE
  5
169
330
55
100
AcDbEntity
  8
0
  6
Continuous
 62
     7
100
AcDbLine
 10
6.07823659959544
 20
134.7500005818141
 30
0.0
 11
6.07823659959553
 21
131.4500005818141
 31
0.0
  0
LINE
  5
16A
330
55
100
AcDbEntity
  8
0
  6
Continuous
 62
     7
100
AcDbLine
 10
6.25000054607553
 20
134.7500005818141
 30
0.0
 11
6.25000054607574
 21
126.0500005818134
 31
0.0
  0
LINE
  5
16B
330
55
100
AcDbEntity
  8
0
  6
Continuous
 62
     7
100
AcDbLine
 10
12.25000054607534
 20
134.7500005818142
 30
0.0
 11
12.25000054607556
 21
126.0500005818134
 31
0.0
  0
LINE
  5
16C
330
55
100
AcDbEntity
  8
0
  6
Continuous
 62
     7
100
AcDbLine
 10
2.48400796553544
 20
134.750000581814
 30
0.0
 11
2.48400796553552
 21
131.450000581814
 31
0.0
  0
LINE
  5
16D
330
55
100
AcDbEntity
  8
0
  6
Continuous
 62
     7
100
AcDbLine
 10
2.48400796553552
 20
131.450000581814
 30
0.0
 11
1.27246523365542
 21
131.450000581814
 31
0.0
  0
LINE
  5
16E
330
55
100
AcDbEntity
  8
0
  6
Continuous
 62
     7
100
AcDbLine
 10
1.27246523365534
 20
134.7500005818139
 30
0.0
 11
1.27246523365542
 21
131.450000581814
 31
0.0
  0
LINE
  5
16F
330
55
100
AcDbEntity
  8
0
  6
Continuous
 62
     7
100
AcDbLine
 10
-2.32176340040446
 20
131.4500005818139
 30
0.0
 11
-0.0933003314329
 21
131.4500005818139
 31
0.0
  0
LINE
  5
170
330
55
100
AcDbEntity
  8
0
  6
Continuous
 62
     7
100
AcDbLine
 10
-0.0933003314329
 20
131.4500005818139
 30
0.0
 11
1.27246523365542
 21
131.450000581814
 31
0.0
  0
LINE
  5
171
330
55
100
AcDbEntity
  8
0
  6
Continuous
 62
     7
100
AcDbLine
 10
-2.32176340040461
 20
134.7500005818139
 30
0.0
 11
-2.32176340040446
 21
131.4500005818139
 31
0.0
  0
LINE
  5
172
330
55
100
AcDbEntity
  8
0
  6
Continuous
 62
     7
100
AcDbLine
 10
-8.44999945216463
 20
134.7500005818137
 30
0.0
 11
-8.44999945216443
 21
126.0500001089362
 31
0.0
  0
LINE
  5
173
330
55
100
AcDbEntity
  8
0
  6
Continuous
 62
     7
100
AcDbLine
 10
-8.44999945216443
 20
126.0500001089362
 30
0.0
 11
-2.44999945216411
 21
126.0500001089362
 31
0.0
  0
LINE
  5
174
330
55
100
AcDbEntity
  8
0
  6
Continuous
 62
     7
100
AcDbLine
 10
12.25000054607556
 20
126.0500005818134
 30
0.0
 11
6.25000054607574
 21
126.0500005818134
 31
0.0
  0
LINE
  5
175
330
55
100
AcDbEntity
  8
0
  6
Continuous
 62
     7
100
AcDbLine
 10
6.07823659959544
 20
134.7500005818141
 30
0.0
 11
6.25000054607553
 21
134.7500005818141
 31
0.0
  0
LINE
  5
176
330
55
100
AcDbEntity
  8
0
  6
Continuous
 62
     7
100
AcDbLine
 10
1.27246523365534
 20
134.7500005818139
 30
0.0
 11
2.48400796553544
 21
134.750000581814
 31
0.0
  0
LINE
  5
177
330
55
100
AcDbEntity
  8
0
  6
Continuous
 62
     7
100
AcDbLine
 10
2.48400796553544
 20
134.750000581814
 30
0.0
 11
6.07823659959544
 21
134.7500005818141
 31
0.0
  0
LINE
  5
178
330
55
100
AcDbEntity
  8
0
  6
Continuous
 62
     7
100
AcDbLine
 10
6.25000054607553
 20
134.7500005818141
 30
0.0
 11
12.25000054607534
 21
134.7500005818142
 31
0.0
  0
LINE
  5
179
330
55
100
AcDbEntity
  8
0
  6
Continuous
 62
     7
100
AcDbLine
 10
-2.44999945216433
 20
134.7500005818139
 30
0.0
 11
-2.32176340040461
 21
134.7500005818139
 31
0.0
  0
LINE
  5
17A
330
55
100
AcDbEntity
  8
0
  6
Continuous
 62
     7
100
AcDbLine
 10
-2.32176340040461
 20
134.7500005818139
 30
0.0
 11
1.27246523365534
 21
134.7500005818139
 31
0.0
  0
LINE
  5
17B
330
55
100
AcDbEntity
  8
0
  6
Continuous
 62
     7
100
AcDbLine
 10
24.30000035927124
 20
134.7500005818145
 30
0.0
 11
21.55000054607464
 21
134.7500005818144
 31
0.0
  0
LINE
  5
17C
330
55
100
AcDbEntity
  8
0
  6
Continuous
 62
     7
100
AcDbLine
 10
-17.74999945392518
 20
134.7500005818135
 30
0.0
 11
-20.49999945392464
 21
134.7500005818134
 31
0.0
  0
LINE
  5
17D
330
55
100
AcDbEntity
  8
0
  6
Continuous
 62
     7
100
AcDbLine
 10
-8.44999945216463
 20
134.7500005818137
 30
0.0
 11
-2.44999945216433
 21
134.7500005818139
 31
0.0
  0
LINE
  5
17E
330
55
100
AcDbEntity
  8
0
  6
Continuous
 62
     7
100
AcDbLine
 10
-2.44999945216433
 20
134.7500005818139
 30
0.0
 11
-2.44999945216411
 21
126.0500001089362
 31
0.0
  0
LINE
  5
17F
330
55
100
AcDbEntity
  8
0
  6
Continuous
 62
     7
100
AcDbLine
 10
12.25000054607534
 20
134.7500005818142
 30
0.0
 11
21.55000054607464
 21
134.7500005818144
 31
0.0
  0
LINE
  5
180
330
55
100
AcDbEntity
  8
0
  6
Continuous
 62
     7
100
AcDbLine
 10
-17.74999945392518
 20
134.7500005818135
 30
0.0
 11
-8.44999945216463
 21
134.7500005818137
 31
0.0
  0
LINE
  5
181
330
55
100
AcDbEntity
  8
0
  6
Continuous
 62
     7
100
AcDbLine
 10
-24.29999945391749
 20
162.3500005818154
 30
0.0
 11
-23.49999942236255
 21
162.3500005818154
 31
0.0
  0
LINE
  5
182
330
55
100
AcDbEntity
  8
0
  6
Continuous
 62
     7
100
AcDbLine
 10
28.10000054607562
 20
162.3500005818154
 30
0.0
 11
27.30000051452068
 21
162.3500005818154
 31
0.0
  0
LINE
  5
183
330
55
100
AcDbEntity
  8
0
  6
Continuous
 62
     7
100
AcDbLine
 10
-24.29999945391749
 20
162.3500005818154
 30
0.0
 11
-24.29999945391749
 21
164.1500005818154
 31
0.0
  0
LINE
  5
184
330
55
100
AcDbEntity
  8
0
  6
Continuous
 62
     7
100
AcDbLine
 10
-20.49999945392528
 20
164.3500005818135
 30
0.0
 11
-17.74999945392518
 21
164.3500005818135
 31
0.0
  0
LINE
  5
185
330
55
100
AcDbEntity
  8
0
  6
Continuous
 62
     7
100
AcDbLine
 10
-20.49999945392527
 20
164.1500005818154
 30
0.0
 11
-20.49999945392528
 21
164.3500005818135
 31
0.0
  0
LINE
  5
186
330
55
100
AcDbEntity
  8
0
  6
Continuous
 62
     7
100
AcDbLine
 10
-20.49999945392516
 20
159.3500006007483
 30
0.0
 11
-20.49999945392527
 21
164.1500005818154
 31
0.0
  0
LINE
  5
187
330
55
100
AcDbEntity
  8
0
  6
Continuous
 62
     7
100
AcDbLine
 10
-20.49999945392464
 20
134.7500005818134
 30
0.0
 11
-20.49999945392516
 21
159.3500006007483
 31
0.0
  0
LINE
  5
188
330
55
100
AcDbEntity
  8
0
  6
Continuous
 62
     7
100
AcDbLine
 10
-17.74999945392518
 20
164.3500005818135
 30
0.0
 11
-17.74999945392518
 21
134.7500005818135
 31
0.0
  0
LINE
  5
189
330
55
100
AcDbEntity
  8
0
  6
Continuous
 62
     7
100
AcDbLine
 10
-20.49999945393228
 20
176.7916419154803
 30
0.0
 11
-13.03333278725805
 21
177.491710250467
 31
0.0
  0
ENDBLK
  5
57
330
55
100
AcDbEntity
  8
0
100
AcDbBlockEnd
  0
BLOCK
  5
5A
330
58
100
AcDbEntity
  8
0
100
AcDbBlockBegin
  2
Rckans1
 70
     0
 10
1.89999985703966
 20
150.4000016448587
 30
0.0
  3
Rckans1
  1

  0
INSERT
  5
59
330
58
100
AcDbEntity
  8
0
100
AcDbBlockReference
  2
F_MS_12_ST-select__3
 10
-24.29999945391749
 20
122.7500005818134
 30
0.0
  0
MTEXT
  5
18A
330
58
100
AcDbEntity
  8
1
 62
     6
100
AcDbMText
 10
1.89999985703969
 20
117.7500001189793
 30
0.0
 40
5.0
 41
0.0
 71
     2
 72
     1
  1
 
  7
CONVERTER_11
 73
     1
 44
1.32052821128451
  0
ENDBLK
  5
5B
330
58
100
AcDbEntity
  8
0
100
AcDbBlockEnd
  0
BLOCK
  5
5D
330
5C
100
AcDbEntity
  8
0
100
AcDbBlockBegin
  2
F_MS_12_ST-select__4
 70
     0
 10
-64.8000002992891
 20
122.7500005818133
 30
0.0
  3
F_MS_12_ST-select__4
  1

  0
LINE
  5
18B
330
5C
100
AcDbEntity
  8
0
  6
Continuous
 62
     7
100
AcDbLine
 10
-64.8000002992891
 20
178.0500005818136
 30
0.0
 11
-64.8000002992891
 21
177.9105742047492
 31
0.0
  0
LINE
  5
18C
330
5C
100
AcDbEntity
  8
0
  6
Continuous
 62
     7
100
AcDbLine
 10
-47.3000002992891
 20
177.9105742047492
 30
0.0
 11
-47.3000002992891
 21
178.0500005818136
 31
0.0
  0
LINE
  5
18D
330
5C
100
AcDbEntity
  8
0
  6
Continuous
 62
     7
100
AcDbLine
 10
-64.8000002992891
 20
177.9105742047492
 30
0.0
 11
-64.8000002992891
 21
177.4917102504673
 31
0.0
  0
LINE
  5
18E
330
5C
100
AcDbEntity
  8
0
  6
Continuous
 62
     7
100
AcDbLine
 10
-47.3000002992891
 20
177.4917102504672
 30
0.0
 11
-47.3000002992891
 21
177.9105742047492
 31
0.0
  0
LINE
  5
18F
330
5C
100
AcDbEntity
  8
0
  6
Continuous
 62
     7
100
AcDbLine
 10
-64.8000002992891
 20
177.4917102504673
 30
0.0
 11
-64.8000002992891
 21
176.7916419154811
 31
0.0
  0
LINE
  5
190
330
5C
100
AcDbEntity
  8
0
  6
Continuous
 62
     7
100
AcDbLine
 10
-47.3000002992891
 20
176.7916419154811
 30
0.0
 11
-47.3000002992891
 21
177.4917102504672
 31
0.0
  0
LINE
  5
191
330
5C
100
AcDbEntity
  8
0
  6
Continuous
 62
     7
100
AcDbLine
 10
-64.8000002992891
 20
174.7500005818144
 30
0.0
 11
-64.8000002992891
 21
176.7916419154811
 31
0.0
  0
LINE
  5
192
330
5C
100
AcDbEntity
  8
0
  6
Continuous
 62
     7
100
AcDbLine
 10
-47.3000002992891
 20
174.7500005818144
 30
0.0
 11
-47.3000002992891
 21
176.7916419154811
 31
0.0
  0
LINE
  5
193
330
5C
100
AcDbEntity
  8
0
  6
Continuous
 62
     7
100
AcDbLine
 10
-48.95000029928909
 20
177.4621353448002
 30
0.0
 11
-63.15000029928909
 21
177.4621353448002
 31
0.0
  0
LINE
  5
194
330
5C
100
AcDbEntity
  8
0
  6
Continuous
 62
     7
100
AcDbLine
 10
-63.15000029928909
 20
177.0437451661096
 30
0.0
 11
-48.95000029928909
 21
177.0437451661096
 31
0.0
  0
LINE
  5
195
330
5C
100
AcDbEntity
  8
0
  6
Continuous
 62
     7
100
AcDbLine
 10
-48.95000029928909
 20
177.0437451661096
 30
0.0
 11
-48.95000029928909
 21
177.4621353448002
 31
0.0
  0
LINE
  5
196
330
5C
100
AcDbEntity
  8
0
  6
Continuous
 62
     7
100
AcDbLine
 10
-63.15000029928909
 20
177.4621353448002
 30
0.0
 11
-63.15000029928909
 21
177.0437451661096
 31
0.0
  0
LINE
  5
197
330
5C
100
AcDbEntity
  8
0
  6
Continuous
 62
     7
100
AcDbLine
 10
-47.3000002992891
 20
172.9809420426229
 30
0.0
 11
-47.3000002992891
 21
174.7500005818144
 31
0.0
  0
LINE
  5
198
330
5C
100
AcDbEntity
  8
0
  6
Continuous
 62
     7
100
AcDbLine
 10
-64.8000002992891
 20
174.7500005818144
 30
0.0
 11
-64.8000002992891
 21
172.9809420426229
 31
0.0
  0
LINE
  5
199
330
5C
100
AcDbEntity
  8
0
  6
Continuous
 62
     7
100
AcDbLine
 10
-64.8000002992891
 20
172.9809420426229
 30
0.0
 11
-47.3000002992891
 21
172.9809420426229
 31
0.0
  0
LINE
  5
19A
330
5C
100
AcDbEntity
  8
0
  6
Continuous
 62
     7
100
AcDbLine
 10
-64.8000002992891
 20
172.7499994833976
 30
0.0
 11
-47.3000002992891
 21
172.7499994833976
 31
0.0
  0
LINE
  5
19B
330
5C
100
AcDbEntity
  8
0
  6
Continuous
 62
     7
100
AcDbLine
 10
-64.8000002992891
 20
174.7500005818144
 30
0.0
 11
-47.3000002992891
 21
174.7500005818144
 31
0.0
  0
LINE
  5
19C
330
5C
100
AcDbEntity
  8
0
  6
Continuous
 62
     7
100
AcDbLine
 10
-64.8000002992891
 20
176.7916419154811
 30
0.0
 11
-47.3000002992891
 21
176.7916419154811
 31
0.0
  0
LINE
  5
19D
330
5C
100
AcDbEntity
  8
0
  6
Continuous
 62
     7
100
AcDbLine
 10
-64.8000002992891
 20
177.4917102504673
 30
0.0
 11
-47.3000002992891
 21
177.4917102504672
 31
0.0
  0
LINE
  5
19E
330
5C
100
AcDbEntity
  8
0
  6
Continuous
 62
     7
100
AcDbLine
 10
-64.8000002992891
 20
177.9105742047492
 30
0.0
 11
-47.3000002992891
 21
177.9105742047492
 31
0.0
  0
LINE
  5
19F
330
5C
100
AcDbEntity
  8
0
  6
Continuous
 62
     7
100
AcDbLine
 10
-64.8000002992891
 20
178.0500005818136
 30
0.0
 11
-47.3000002992891
 21
178.0500005818136
 31
0.0
  0
LINE
  5
1A0
330
5C
100
AcDbEntity
  8
0
  6
Continuous
 62
     7
100
AcDbLine
 10
-64.8000002992891
 20
167.7499994924657
 30
0.0
 11
-64.8000002992891
 21
167.9809420426234
 31
0.0
  0
LINE
  5
1A1
330
5C
100
AcDbEntity
  8
0
  6
Continuous
 62
     7
100
AcDbLine
 10
-64.8000002992891
 20
167.9809420426234
 30
0.0
 11
-64.8000002992891
 21
169.7500005818144
 31
0.0
  0
LINE
  5
1A2
330
5C
100
AcDbEntity
  8
0
  6
Continuous
 62
     7
100
AcDbLine
 10
-47.3000002992891
 20
167.9809420426234
 30
0.0
 11
-47.3000002992891
 21
169.7500005818144
 31
0.0
  0
LINE
  5
1A3
330
5C
100
AcDbEntity
  8
0
  6
Continuous
 62
     7
100
AcDbLine
 10
-64.8000002992891
 20
169.7500005818144
 30
0.0
 11
-64.8000002992891
 21
170.2499994933071
 31
0.0
  0
LINE
  5
1A4
330
5C
100
AcDbEntity
  8
0
  6
Continuous
 62
     7
100
AcDbLine
 10
-47.3000002992891
 20
169.7500005818144
 30
0.0
 11
-47.3000002992891
 21
170.2499994933071
 31
0.0
  0
LINE
  5
1A5
330
5C
100
AcDbEntity
  8
0
  6
Continuous
 62
     7
100
AcDbLine
 10
-64.8000002992891
 20
170.2499994933071
 30
0.0
 11
-47.3000002992891
 21
170.2499994933071
 31
0.0
  0
LINE
  5
1A6
330
5C
100
AcDbEntity
  8
0
  6
Continuous
 62
     7
100
AcDbLine
 10
-64.8000002992891
 20
169.7500005818144
 30
0.0
 11
-47.3000002992891
 21
169.7500005818144
 31
0.0
  0
LINE
  5
1A7
330
5C
100
AcDbEntity
  8
0
  6
Continuous
 62
     7
100
AcDbLine
 10
-64.8000002992891
 20
167.9809420426234
 30
0.0
 11
-47.3000002992891
 21
167.9809420426234
 31
0.0
  0
LINE
  5
1A8
330
5C
100
AcDbEntity
  8
0
  6
Continuous
 62
     7
100
AcDbLine
 10
-64.8000002992891
 20
167.7499994924657
 30
0.0
 11
-47.3000002992891
 21
167.7499994924657
 31
0.0
  0
LINE
  5
1A9
330
5C
100
AcDbEntity
  8
0
  6
Continuous
 62
     7
100
AcDbLine
 10
-58.54613152909968
 20
122.7500005818134
 30
0.0
 11
-56.04613152909975
 21
122.7500005818134
 31
0.0
  0
LINE
  5
1AA
330
5C
100
AcDbEntity
  8
0
  6
Continuous
 62
     7
100
AcDbLine
 10
-55.29999955359785
 20
126.0500005818134
 30
0.0
 11
-56.79999955359785
 21
126.0500005818134
 31
0.0
  0
LINE
  5
1AB
330
5C
100
AcDbEntity
  8
0
  6
Continuous
 62
     7
100
AcDbLine
 10
-58.47520932292074
 20
131.4500005818141
 30
0.0
 11
-58.54613152909967
 21
131.4500005818139
 31
0.0
  0
LINE
  5
1AC
330
5C
100
AcDbEntity
  8
0
  6
Continuous
 62
     7
100
AcDbLine
 10
-58.47520932292074
 20
131.4500005818141
 30
0.0
 11
-56.79999955359784
 21
131.4500005818141
 31
0.0
  0
LINE
  5
1AD
330
5C
100
AcDbEntity
  8
0
  6
Continuous
 62
     7
100
AcDbLine
 10
-58.54613152909967
 20
131.4500005818139
 30
0.0
 11
-60.55033819232432
 21
131.450000581814
 31
0.0
  0
LINE
  5
1AE
330
5C
100
AcDbEntity
  8
0
  6
Continuous
 62
     7
100
AcDbLine
 10
-64.8000002992891
 20
172.250000566948
 30
0.0
 11
-64.8000002992891
 21
172.7499994833976
 31
0.0
  0
LINE
  5
1AF
330
5C
100
AcDbEntity
  8
0
  6
Continuous
 62
     7
100
AcDbLine
 10
-64.8000002992891
 20
170.4809420426233
 30
0.0
 11
-64.8000002992891
 21
172.250000566948
 31
0.0
  0
LINE
  5
1B0
330
5C
100
AcDbEntity
  8
0
  6
Continuous
 62
     7
100
AcDbLine
 10
-63.15000029928923
 20
164.3500005818144
 30
0.0
 11
-63.15000029928923
 21
134.7500005818145
 31
0.0
  0
LINE
  5
1B1
330
5C
100
AcDbEntity
  8
0
  6
Continuous
 62
     7
100
AcDbLine
 10
-64.8000002992891
 20
134.7500005818144
 30
0.0
 11
-63.15000029928923
 21
134.7500005818145
 31
0.0
  0
LINE
  5
1B2
330
5C
100
AcDbEntity
  8
0
  6
Continuous
 62
     7
100
AcDbLine
 10
-58.47520932292074
 20
134.7500005818141
 30
0.0
 11
-58.47520932292074
 21
131.4500005818141
 31
0.0
  0
LINE
  5
1B3
330
5C
100
AcDbEntity
  8
0
  6
Continuous
 62
     7
100
AcDbLine
 10
-56.79999955359784
 20
134.7500005818142
 30
0.0
 11
-56.79999955359785
 21
126.0500005818134
 31
0.0
  0
LINE
  5
1B4
330
5C
100
AcDbEntity
  8
0
  6
Continuous
 62
     7
100
AcDbLine
 10
-55.29999955359784
 20
134.7500005818142
 30
0.0
 11
-54.32495158411357
 21
134.7500005818141
 31
0.0
  0
LINE
  5
1B5
330
5C
100
AcDbEntity
  8
0
  6
Continuous
 62
     7
100
AcDbLine
 10
-56.79999955359784
 20
134.7500005818142
 30
0.0
 11
-55.29999955359784
 21
134.7500005818142
 31
0.0
  0
LINE
  5
1B6
330
5C
100
AcDbEntity
  8
0
  6
Continuous
 62
     7
100
AcDbLine
 10
-58.47520932292074
 20
134.7500005818141
 30
0.0
 11
-56.79999955359784
 21
134.7500005818142
 31
0.0
  0
LINE
  5
1B7
330
5C
100
AcDbEntity
  8
0
  6
Continuous
 62
     7
100
AcDbLine
 10
-60.55033819232435
 20
134.750000581814
 30
0.0
 11
-58.47520932292074
 21
134.7500005818141
 31
0.0
  0
LINE
  5
1B8
330
5C
100
AcDbEntity
  8
0
  6
Continuous
 62
     7
100
AcDbLine
 10
-51.2005959311315
 20
134.750000581814
 30
0.0
 11
-48.95000029928919
 21
134.7500005818145
 31
0.0
  0
LINE
  5
1B9
330
5C
100
AcDbEntity
  8
0
  6
Continuous
 62
     7
100
AcDbLine
 10
-57.10000029928921
 20
160.4980508789107
 30
0.0
 11
-57.10000029928921
 21
159.3500006007483
 31
0.0
  0
LINE
  5
1BA
330
5C
100
AcDbEntity
  8
0
  6
Continuous
 62
     7
100
AcDbLine
 10
-55.00000029928921
 20
160.4980508789107
 30
0.0
 11
-55.00000029928921
 21
159.3500006007483
 31
0.0
  0
LINE
  5
1BB
330
5C
100
AcDbEntity
  8
0
  6
Continuous
 62
     7
100
AcDbLine
 10
-57.10000029928921
 20
162.3500005818154
 30
0.0
 11
-57.10000029928921
 21
164.1500005818154
 31
0.0
  0
LINE
  5
1BC
330
5C
100
AcDbEntity
  8
0
  6
Continuous
 62
     7
100
AcDbLine
 10
-57.10000029928921
 20
162.3500005818154
 30
0.0
 11
-57.10000029928921
 21
162.1216391793493
 31
0.0
  0
LINE
  5
1BD
330
5C
100
AcDbEntity
  8
0
  6
Continuous
 62
     7
100
AcDbLine
 10
-57.10000029928921
 20
161.4713209253751
 30
0.0
 11
-57.10000029928921
 21
160.4980508789107
 31
0.0
  0
LINE
  5
1BE
330
5C
100
AcDbEntity
  8
0
  6
Continuous
 62
     7
100
AcDbLine
 10
-55.00000029928921
 20
162.3500005818154
 30
0.0
 11
-55.00000029928921
 21
162.1216391793493
 31
0.0
  0
LINE
  5
1BF
330
5C
100
AcDbEntity
  8
0
  6
Continuous
 62
     7
100
AcDbLine
 10
-55.00000029928921
 20
161.4713209253751
 30
0.0
 11
-55.00000029928921
 21
160.4980508789107
 31
0.0
  0
LINE
  5
1C0
330
5C
100
AcDbEntity
  8
0
  6
Continuous
 62
     7
100
AcDbLine
 10
-57.10000029928921
 20
162.1216391793493
 30
0.0
 11
-57.10000029928921
 21
161.4713209253751
 31
0.0
  0
LINE
  5
1C1
330
5C
100
AcDbEntity
  8
0
  6
Continuous
 62
     7
100
AcDbLine
 10
-55.00000029928921
 20
162.1216391793493
 30
0.0
 11
-55.00000029928921
 21
161.4713209253751
 31
0.0
  0
LINE
  5
1C2
330
5C
100
AcDbEntity
  8
0
  6
Continuous
 62
     7
100
AcDbLine
 10
-57.10000029928921
 20
162.1216391793493
 30
0.0
 11
-55.00000029928921
 21
162.1216391793493
 31
0.0
  0
LINE
  5
1C3
330
5C
100
AcDbEntity
  8
0
  6
Continuous
 62
     7
100
AcDbLine
 10
-57.10000029928921
 20
161.4713209253751
 30
0.0
 11
-55.00000029928921
 21
161.4713209253751
 31
0.0
  0
LINE
  5
1C4
330
5C
100
AcDbEntity
  8
0
  6
Continuous
 62
     7
100
AcDbLine
 10
-57.10000029928921
 20
164.1500005818154
 30
0.0
 11
-55.00000029928921
 21
164.1500005818154
 31
0.0
  0
LINE
  5
1C5
330
5C
100
AcDbEntity
  8
0
  6
Continuous
 62
     7
100
AcDbLine
 10
-55.00000029928921
 20
162.3500005818154
 30
0.0
 11
-55.00000029928921
 21
164.1500005818154
 31
0.0
  0
LINE
  5
1C6
330
5C
100
AcDbEntity
  8
0
  6
Continuous
 62
     7
100
AcDbLine
 10
-57.10000029928921
 20
162.3500005818154
 30
0.0
 11
-55.00000029928921
 21
162.3500005818154
 31
0.0
  0
LINE
  5
1C7
330
5C
100
AcDbEntity
  8
0
  6
Continuous
 62
     7
100
AcDbLine
 10
-57.10000029928921
 20
160.4980508789107
 30
0.0
 11
-55.00000029928921
 21
160.4980508789107
 31
0.0
  0
LINE
  5
1C8
330
5C
100
AcDbEntity
  8
0
  6
Continuous
 62
     7
100
AcDbLine
 10
-63.15000029928923
 20
164.3500005818144
 30
0.0
 11
-64.8000002992891
 21
164.3500005818144
 31
0.0
  0
LINE
  5
1C9
330
5C
100
AcDbEntity
  8
0
  6
Continuous
 62
     7
100
AcDbLine
 10
-57.10000029928921
 20
159.3500006007483
 30
0.0
 11
-55.00000029928921
 21
159.3500006007483
 31
0.0
  0
LINE
  5
1CA
330
5C
100
AcDbEntity
  8
0
  6
Continuous
 62
     7
100
AcDbLine
 10
-64.8000002992891
 20
170.2499994933071
 30
0.0
 11
-64.8000002992891
 21
170.4809420426233
 31
0.0
  0
LINE
  5
1CB
330
5C
100
AcDbEntity
  8
0
  6
Continuous
 62
     7
100
AcDbLine
 10
-64.8000002992891
 20
164.3500005818144
 30
0.0
 11
-64.8000002992891
 21
167.7499994924657
 31
0.0
  0
LINE
  5
1CC
330
5C
100
AcDbEntity
  8
0
  6
Continuous
 62
     7
100
AcDbLine
 10
-48.95000029928919
 20
164.3500005818144
 30
0.0
 11
-48.95000029928919
 21
134.7500005818145
 31
0.0
  0
LINE
  5
1CD
330
5C
100
AcDbEntity
  8
0
  6
Continuous
 62
     7
100
AcDbLine
 10
-48.95000029928919
 20
164.3500005818144
 30
0.0
 11
-47.3000002992891
 21
164.3500005818144
 31
0.0
  0
LINE
  5
1CE
330
5C
100
AcDbEntity
  8
0
  6
Continuous
 62
     7
100
AcDbLine
 10
-47.3000002992891
 20
170.2499994933071
 30
0.0
 11
-47.3000002992891
 21
170.4809420426234
 31
0.0
  0
LINE
  5
1CF
330
5C
100
AcDbEntity
  8
0
  6
Continuous
 62
     7
100
AcDbLine
 10
-47.3000002992891
 20
167.7499994924657
 30
0.0
 11
-47.3000002992891
 21
167.9809420426234
 31
0.0
  0
LINE
  5
1D0
330
5C
100
AcDbEntity
  8
0
  6
Continuous
 62
     7
100
AcDbLine
 10
-47.3000002992891
 20
164.3500005818144
 30
0.0
 11
-47.3000002992891
 21
167.7499994924657
 31
0.0
  0
LINE
  5
1D1
330
5C
100
AcDbEntity
  8
0
  6
Continuous
 62
     7
100
AcDbLine
 10
-47.3000002992891
 20
134.7500005818144
 30
0.0
 11
-48.95000029928919
 21
134.7500005818145
 31
0.0
  0
LINE
  5
1D2
330
5C
100
AcDbEntity
  8
0
  6
Continuous
 62
     7
100
AcDbLine
 10
-64.8000002992891
 20
170.4809420426233
 30
0.0
 11
-47.3000002992891
 21
170.4809420426234
 31
0.0
  0
LINE
  5
1D3
330
5C
100
AcDbEntity
  8
0
  6
Continuous
 62
     7
100
AcDbLine
 10
-64.8000002992891
 20
172.250000566948
 30
0.0
 11
-47.3000002992891
 21
172.250000566948
 31
0.0
  0
LINE
  5
1D4
330
5C
100
AcDbEntity
  8
0
  6
Continuous
 62
     7
100
AcDbLine
 10
-63.15000029928923
 20
134.7500005818145
 30
0.0
 11
-60.55033819232435
 21
134.750000581814
 31
0.0
  0
LINE
  5
1D5
330
5C
100
AcDbEntity
  8
0
  6
Continuous
 62
     7
100
AcDbLine
 10
-60.55033819232435
 20
134.750000581814
 30
0.0
 11
-60.55033819232432
 21
131.450000581814
 31
0.0
  0
LINE
  5
1D6
330
5C
100
AcDbEntity
  8
0
  6
Continuous
 62
     7
100
AcDbLine
 10
-64.8000002992891
 20
172.9809420426229
 30
0.0
 11
-64.8000002992891
 21
172.7499994833976
 31
0.0
  0
LINE
  5
1D7
330
5C
100
AcDbEntity
  8
0
  6
Continuous
 62
     7
100
AcDbLine
 10
-64.8000002992891
 20
134.7500005818144
 30
0.0
 11
-64.8000002992891
 21
164.3500005818144
 31
0.0
  0
LINE
  5
1D8
330
5C
100
AcDbEntity
  8
0
  6
Continuous
 62
     7
100
AcDbLine
 10
-58.54613152909968
 20
122.7500005818134
 30
0.0
 11
-58.54613152909967
 21
131.4500005818139
 31
0.0
  0
LINE
  5
1D9
330
5C
100
AcDbEntity
  8
0
  6
Continuous
 62
     7
100
AcDbLine
 10
-47.3000002992891
 20
172.7499994833976
 30
0.0
 11
-47.3000002992891
 21
172.9809420426229
 31
0.0
  0
LINE
  5
1DA
330
5C
100
AcDbEntity
  8
0
  6
Continuous
 62
     7
100
AcDbLine
 10
-53.54613152909985
 20
122.7500005818133
 30
0.0
 11
-53.54613152909983
 21
131.4500005818139
 31
0.0
  0
LINE
  5
1DB
330
5C
100
AcDbEntity
  8
0
  6
Continuous
 62
     7
100
AcDbLine
 10
-53.27572480053505
 20
131.450000581814
 30
0.0
 11
-53.54613152909983
 21
131.4500005818139
 31
0.0
  0
LINE
  5
1DC
330
5C
100
AcDbEntity
  8
0
  6
Continuous
 62
     7
100
AcDbLine
 10
-53.27572480053505
 20
131.450000581814
 30
0.0
 11
-51.2005959311315
 21
131.450000581814
 31
0.0
  0
LINE
  5
1DD
330
5C
100
AcDbEntity
  8
0
  6
Continuous
 62
     7
100
AcDbLine
 10
-53.27572480053506
 20
134.7500005818141
 30
0.0
 11
-53.27572480053505
 21
131.450000581814
 31
0.0
  0
LINE
  5
1DE
330
5C
100
AcDbEntity
  8
0
  6
Continuous
 62
     7
100
AcDbLine
 10
-51.2005959311315
 20
134.750000581814
 30
0.0
 11
-51.2005959311315
 21
131.450000581814
 31
0.0
  0
LINE
  5
1DF
330
5C
100
AcDbEntity
  8
0
  6
Continuous
 62
     7
100
AcDbLine
 10
-53.54613152909983
 20
131.4500005818139
 30
0.0
 11
-54.32495158411356
 21
131.4500005818141
 31
0.0
  0
LINE
  5
1E0
330
5C
100
AcDbEntity
  8
0
  6
Continuous
 62
     7
100
AcDbLine
 10
-54.32495158411357
 20
134.7500005818141
 30
0.0
 11
-54.32495158411356
 21
131.4500005818141
 31
0.0
  0
LINE
  5
1E1
330
5C
100
AcDbEntity
  8
0
  6
Continuous
 62
     7
100
AcDbLine
 10
-56.04613152909975
 20
122.7500005818134
 30
0.0
 11
-53.54613152909985
 21
122.7500005818133
 31
0.0
  0
LINE
  5
1E2
330
5C
100
AcDbEntity
  8
0
  6
Continuous
 62
     7
100
AcDbLine
 10
-56.04613152909975
 20
122.7500005818134
 30
0.0
 11
-56.04613152909975
 21
126.0500005818134
 31
0.0
  0
LINE
  5
1E3
330
5C
100
AcDbEntity
  8
0
  6
Continuous
 62
     7
100
AcDbLine
 10
-55.29999955359785
 20
131.450000581814
 30
0.0
 11
-54.32495158411356
 21
131.4500005818141
 31
0.0
  0
LINE
  5
1E4
330
5C
100
AcDbEntity
  8
0
  6
Continuous
 62
     7
100
AcDbLine
 10
-54.32495158411357
 20
134.7500005818141
 30
0.0
 11
-53.27572480053506
 21
134.7500005818141
 31
0.0
  0
LINE
  5
1E5
330
5C
100
AcDbEntity
  8
0
  6
Continuous
 62
     7
100
AcDbLine
 10
-53.27572480053506
 20
134.7500005818141
 30
0.0
 11
-51.2005959311315
 21
134.750000581814
 31
0.0
  0
LINE
  5
1E6
330
5C
100
AcDbEntity
  8
0
  6
Continuous
 62
     7
100
AcDbLine
 10
-47.3000002992891
 20
172.250000566948
 30
0.0
 11
-47.3000002992891
 21
172.7499994833976
 31
0.0
  0
LINE
  5
1E7
330
5C
100
AcDbEntity
  8
0
  6
Continuous
 62
     7
100
AcDbLine
 10
-47.3000002992891
 20
170.4809420426234
 30
0.0
 11
-47.3000002992891
 21
172.250000566948
 31
0.0
  0
LINE
  5
1E8
330
5C
100
AcDbEntity
  8
0
  6
Continuous
 62
     7
100
AcDbLine
 10
-55.29999955359784
 20
134.7500005818142
 30
0.0
 11
-55.29999955359785
 21
126.0500005818134
 31
0.0
  0
LINE
  5
1E9
330
5C
100
AcDbEntity
  8
0
  6
Continuous
 62
     7
100
AcDbLine
 10
-47.3000002992891
 20
164.3500005818144
 30
0.0
 11
-47.3000002992891
 21
134.7500005818144
 31
0.0
  0
ENDBLK
  5
5E
330
5C
100
AcDbEntity
  8
0
100
AcDbBlockEnd
  0
BLOCK
  5
61
330
5F
100
AcDbEntity
  8
0
100
AcDbBlockBegin
  2
SA_Links1
 70
     0
 10
-56.05000007152512
 20
150.4000016448587
 30
0.0
  3
SA_Links1
  1

  0
INSERT
  5
60
330
5F
100
AcDbEntity
  8
0
100
AcDbBlockReference
  2
F_MS_12_ST-select__4
 10
-64.8000002992891
 20
122.7500005818133
 30
0.0
  0
MTEXT
  5
1EA
330
5F
100
AcDbEntity
  8
1
 62
     6
100
AcDbMText
 10
-56.05000007152512
 20
117.7500001189793
 30
0.0
 40
5.0
 41
0.0
 71
     2
 72
     1
  1
 
  7
CONVERTER_11
 73
     1
 44
1.32052821128451
  0
ENDBLK
  5
62
330
5F
100
AcDbEntity
  8
0
100
AcDbBlockEnd
  0
BLOCK
  5
64
330
63
100
AcDbEntity
  8
0
100
AcDbBlockBegin
  2
F_MS_12_ST-select__5
 70
     0
 10
-211.6999997007109
 20
122.7500005818134
 30
0.0
  3
F_MS_12_ST-select__5
  1

  0
LINE
  5
1EB
330
63
100
AcDbEntity
  8
0
  6
Continuous
 62
     7
100
AcDbLine
 10
-211.6999997007109
 20
177.4917102504671
 30
0.0
 11
-211.6999997007109
 21
176.7916419154797
 31
0.0
  0
LINE
  5
1EC
330
63
100
AcDbEntity
  8
0
  6
Continuous
 62
     7
100
AcDbLine
 10
-211.6999997007109
 20
177.9105742047492
 30
0.0
 11
-211.6999997007109
 21
177.4917102504671
 31
0.0
  0
LINE
  5
1ED
330
63
100
AcDbEntity
  8
0
  6
Continuous
 62
     7
100
AcDbLine
 10
-211.6999997007109
 20
178.0500005818136
 30
0.0
 11
-211.6999997007109
 21
177.9105742047492
 31
0.0
  0
LINE
  5
1EE
330
63
100
AcDbEntity
  8
0
  6
Continuous
 62
     7
100
AcDbLine
 10
-211.6999997007109
 20
170.4809420972747
 30
0.0
 11
-211.6999997007109
 21
170.2499993893819
 31
0.0
  0
LINE
  5
1EF
330
63
100
AcDbEntity
  8
0
  6
Continuous
 62
     7
100
AcDbLine
 10
-211.6999997007109
 20
170.2499993893819
 30
0.0
 11
-211.6999997007109
 21
169.7500005818145
 31
0.0
  0
LINE
  5
1F0
330
63
100
AcDbEntity
  8
0
  6
Continuous
 62
     7
100
AcDbLine
 10
-211.6999997007109
 20
172.7499993893819
 30
0.0
 11
-211.6999997007109
 21
172.2500005818145
 31
0.0
  0
LINE
  5
1F1
330
63
100
AcDbEntity
  8
0
  6
Continuous
 62
     7
100
AcDbLine
 10
-211.6999997007109
 20
172.2500005818145
 30
0.0
 11
-211.6999997007109
 21
170.4809420972747
 31
0.0
  0
LINE
  5
1F2
330
63
100
AcDbEntity
  8
0
  6
Continuous
 62
     7
100
AcDbLine
 10
-211.6999997007109
 20
172.9809420972747
 30
0.0
 11
-211.6999997007109
 21
172.7499993893819
 31
0.0
  0
LINE
  5
1F3
330
63
100
AcDbEntity
  8
0
  6
Continuous
 62
     7
100
AcDbLine
 10
-211.6999997007109
 20
174.7500005818138
 30
0.0
 11
-211.6999997007109
 21
172.9809420972747
 31
0.0
  0
LINE
  5
1F4
330
63
100
AcDbEntity
  8
0
  6
Continuous
 62
     7
100
AcDbLine
 10
-211.6999997007109
 20
167.9809420972747
 30
0.0
 11
-211.6999997007109
 21
167.7499993893815
 31
0.0
  0
LINE
  5
1F5
330
63
100
AcDbEntity
  8
0
  6
Continuous
 62
     7
100
AcDbLine
 10
-211.6999997007109
 20
169.7500005818145
 30
0.0
 11
-211.6999997007109
 21
167.9809420972747
 31
0.0
  0
LINE
  5
1F6
330
63
100
AcDbEntity
  8
0
  6
Continuous
 62
     7
100
AcDbLine
 10
-211.6999997007109
 20
176.7916419154797
 30
0.0
 11
-211.6999997007109
 21
174.7500005818138
 31
0.0
  0
LINE
  5
1F7
330
63
100
AcDbEntity
  8
0
  6
Continuous
 62
     7
100
AcDbLine
 10
-207.7994040688685
 20
134.7500005818141
 30
0.0
 11
-207.7994040688685
 21
131.450000581814
 31
0.0
  0
LINE
  5
1F8
330
63
100
AcDbEntity
  8
0
  6
Continuous
 62
     7
100
AcDbLine
 10
-210.0499997007108
 20
134.7500005818135
 30
0.0
 11
-211.6999997007109
 21
134.7500005818136
 31
0.0
  0
LINE
  5
1F9
330
63
100
AcDbEntity
  8
0
  6
Continuous
 62
     7
100
AcDbLine
 10
-211.6999997007109
 20
167.7499993893815
 30
0.0
 11
-211.6999997007109
 21
164.3500005818136
 31
0.0
  0
LINE
  5
1FA
330
63
100
AcDbEntity
  8
0
  6
Continuous
 62
     7
100
AcDbLine
 10
-211.6999997007109
 20
134.7500005818136
 30
0.0
 11
-211.6999997007109
 21
164.3500005818136
 31
0.0
  0
LINE
  5
1FB
330
63
100
AcDbEntity
  8
0
  6
Continuous
 62
     7
100
AcDbLine
 10
-204.6750484158864
 20
134.7500005818139
 30
0.0
 11
-204.6750484158864
 21
131.4500005818139
 31
0.0
  0
LINE
  5
1FC
330
63
100
AcDbEntity
  8
0
  6
Continuous
 62
     7
100
AcDbLine
 10
-202.2419037901819
 20
134.7500005818138
 30
0.0
 11
-202.2419037901819
 21
126.0500001089362
 31
0.0
  0
LINE
  5
1FD
330
63
100
AcDbEntity
  8
0
  6
Continuous
 62
     7
100
AcDbLine
 10
-201.8999997007108
 20
162.3500005818155
 30
0.0
 11
-201.8999997007108
 21
164.1500005818155
 31
0.0
  0
LINE
  5
1FE
330
63
100
AcDbEntity
  8
0
  6
Continuous
 62
     7
100
AcDbLine
 10
-203.9999997007108
 20
162.3500005818155
 30
0.0
 11
-203.9999997007108
 21
164.1500005818155
 31
0.0
  0
LINE
  5
1FF
330
63
100
AcDbEntity
  8
0
  6
Continuous
 62
     7
100
AcDbLine
 10
-201.8999997007108
 20
162.3500005818155
 30
0.0
 11
-201.8999997007108
 21
162.1216391793494
 31
0.0
  0
LINE
  5
200
330
63
100
AcDbEntity
  8
0
  6
Continuous
 62
     7
100
AcDbLine
 10
-201.8999997007108
 20
162.1216391793494
 30
0.0
 11
-201.8999997007108
 21
161.4713209253752
 31
0.0
  0
LINE
  5
201
330
63
100
AcDbEntity
  8
0
  6
Continuous
 62
     7
100
AcDbLine
 10
-203.9999997007108
 20
162.1216391793494
 30
0.0
 11
-203.9999997007108
 21
161.4713209253752
 31
0.0
  0
LINE
  5
202
330
63
100
AcDbEntity
  8
0
  6
Continuous
 62
     7
100
AcDbLine
 10
-201.8999997007108
 20
161.4713209253752
 30
0.0
 11
-201.8999997007108
 21
160.4980508789108
 31
0.0
  0
LINE
  5
203
330
63
100
AcDbEntity
  8
0
  6
Continuous
 62
     7
100
AcDbLine
 10
-203.9999997007108
 20
161.4713209253752
 30
0.0
 11
-203.9999997007108
 21
160.4980508789108
 31
0.0
  0
LINE
  5
204
330
63
100
AcDbEntity
  8
0
  6
Continuous
 62
     7
100
AcDbLine
 10
-201.8999997007108
 20
160.4980508789108
 30
0.0
 11
-201.8999997007108
 21
159.3500006007484
 31
0.0
  0
LINE
  5
205
330
63
100
AcDbEntity
  8
0
  6
Continuous
 62
     7
100
AcDbLine
 10
-203.9999997007108
 20
159.3500006007484
 30
0.0
 11
-201.8999997007108
 21
159.3500006007484
 31
0.0
  0
LINE
  5
206
330
63
100
AcDbEntity
  8
0
  6
Continuous
 62
     7
100
AcDbLine
 10
-201.8999997007108
 20
160.4980508789108
 30
0.0
 11
-203.9999997007108
 21
160.4980508789108
 31
0.0
  0
LINE
  5
207
330
63
100
AcDbEntity
  8
0
  6
Continuous
 62
     7
100
AcDbLine
 10
-203.9999997007108
 20
160.4980508789108
 30
0.0
 11
-203.9999997007108
 21
159.3500006007484
 31
0.0
  0
LINE
  5
208
330
63
100
AcDbEntity
  8
0
  6
Continuous
 62
     7
100
AcDbLine
 10
-201.8999997007108
 20
161.4713209253752
 30
0.0
 11
-203.9999997007108
 21
161.4713209253752
 31
0.0
  0
LINE
  5
209
330
63
100
AcDbEntity
  8
0
  6
Continuous
 62
     7
100
AcDbLine
 10
-201.8999997007108
 20
162.1216391793494
 30
0.0
 11
-203.9999997007108
 21
162.1216391793494
 31
0.0
  0
LINE
  5
20A
330
63
100
AcDbEntity
  8
0
  6
Continuous
 62
     7
100
AcDbLine
 10
-203.9999997007108
 20
162.3500005818155
 30
0.0
 11
-203.9999997007108
 21
162.1216391793494
 31
0.0
  0
LINE
  5
20B
330
63
100
AcDbEntity
  8
0
  6
Continuous
 62
     7
100
AcDbLine
 10
-201.8999997007108
 20
162.3500005818155
 30
0.0
 11
-203.9999997007108
 21
162.3500005818155
 31
0.0
  0
LINE
  5
20C
330
63
100
AcDbEntity
  8
0
  6
Continuous
 62
     7
100
AcDbLine
 10
-203.7419037901819
 20
134.7500005818138
 30
0.0
 11
-203.7419037901819
 21
126.0500001089362
 31
0.0
  0
LINE
  5
20D
330
63
100
AcDbEntity
  8
0
  6
Continuous
 62
     7
100
AcDbLine
 10
-205.4538684709002
 20
122.7500005818134
 30
0.0
 11
-205.4538684709002
 21
131.450000581814
 31
0.0
  0
LINE
  5
20E
330
63
100
AcDbEntity
  8
0
  6
Continuous
 62
     7
100
AcDbLine
 10
-205.724275199465
 20
134.750000581814
 30
0.0
 11
-205.724275199465
 21
131.450000581814
 31
0.0
  0
LINE
  5
20F
330
63
100
AcDbEntity
  8
0
  6
Continuous
 62
     7
100
AcDbLine
 10
-203.7419037901819
 20
126.0500001089362
 30
0.0
 11
-202.2419037901819
 21
126.0500001089362
 31
0.0
  0
LINE
  5
210
330
63
100
AcDbEntity
  8
0
  6
Continuous
 62
     7
100
AcDbLine
 10
-200.4538684709004
 20
131.450000581814
 30
0.0
 11
-198.4496618076757
 21
131.450000581814
 31
0.0
  0
LINE
  5
211
330
63
100
AcDbEntity
  8
0
  6
Continuous
 62
     7
100
AcDbLine
 10
-204.6750484158864
 20
131.4500005818139
 30
0.0
 11
-203.7419037901819
 21
131.4500005818139
 31
0.0
  0
LINE
  5
212
330
63
100
AcDbEntity
  8
0
  6
Continuous
 62
     7
100
AcDbLine
 10
-200.5247906770793
 20
131.450000581814
 30
0.0
 11
-200.4538684709004
 21
131.450000581814
 31
0.0
  0
LINE
  5
213
330
63
100
AcDbEntity
  8
0
  6
Continuous
 62
     7
100
AcDbLine
 10
-202.2419037901819
 20
131.450000581814
 30
0.0
 11
-200.5247906770793
 21
131.450000581814
 31
0.0
  0
LINE
  5
214
330
63
100
AcDbEntity
  8
0
  6
Continuous
 62
     7
100
AcDbLine
 10
-205.724275199465
 20
131.450000581814
 30
0.0
 11
-205.4538684709002
 21
131.450000581814
 31
0.0
  0
LINE
  5
215
330
63
100
AcDbEntity
  8
0
  6
Continuous
 62
     7
100
AcDbLine
 10
-205.4538684709002
 20
131.450000581814
 30
0.0
 11
-204.6750484158864
 21
131.4500005818139
 31
0.0
  0
LINE
  5
216
330
63
100
AcDbEntity
  8
0
  6
Continuous
 62
     7
100
AcDbLine
 10
-207.7994040688685
 20
131.450000581814
 30
0.0
 11
-205.724275199465
 21
131.450000581814
 31
0.0
  0
LINE
  5
217
330
63
100
AcDbEntity
  8
0
  6
Continuous
 62
     7
100
AcDbLine
 10
-205.4538684709002
 20
122.7500005818134
 30
0.0
 11
-200.4538684709003
 21
122.7500005818134
 31
0.0
  0
LINE
  5
218
330
63
100
AcDbEntity
  8
0
  6
Continuous
 62
     7
100
AcDbLine
 10
-198.4496618076757
 20
134.7500005818141
 30
0.0
 11
-200.5247906770793
 21
134.7500005818139
 31
0.0
  0
LINE
  5
219
330
63
100
AcDbEntity
  8
0
  6
Continuous
 62
     7
100
AcDbLine
 10
-200.5247906770793
 20
134.7500005818139
 30
0.0
 11
-202.2419037901819
 21
134.7500005818138
 31
0.0
  0
LINE
  5
21A
330
63
100
AcDbEntity
  8
0
  6
Continuous
 62
     7
100
AcDbLine
 10
-202.2419037901819
 20
134.7500005818138
 30
0.0
 11
-203.7419037901819
 21
134.7500005818138
 31
0.0
  0
LINE
  5
21B
330
63
100
AcDbEntity
  8
0
  6
Continuous
 62
     7
100
AcDbLine
 10
-203.7419037901819
 20
134.7500005818138
 30
0.0
 11
-204.6750484158864
 21
134.7500005818139
 31
0.0
  0
LINE
  5
21C
330
63
100
AcDbEntity
  8
0
  6
Continuous
 62
     7
100
AcDbLine
 10
-204.6750484158864
 20
134.7500005818139
 30
0.0
 11
-205.724275199465
 21
134.750000581814
 31
0.0
  0
LINE
  5
21D
330
63
100
AcDbEntity
  8
0
  6
Continuous
 62
     7
100
AcDbLine
 10
-207.7994040688685
 20
134.7500005818141
 30
0.0
 11
-210.0499997007108
 21
134.7500005818135
 31
0.0
  0
LINE
  5
21E
330
63
100
AcDbEntity
  8
0
  6
Continuous
 62
     7
100
AcDbLine
 10
-205.724275199465
 20
134.750000581814
 30
0.0
 11
-207.7994040688685
 21
134.7500005818141
 31
0.0
  0
LINE
  5
21F
330
63
100
AcDbEntity
  8
0
  6
Continuous
 62
     7
100
AcDbLine
 10
-195.8499997007108
 20
134.7500005818136
 30
0.0
 11
-194.1999997007109
 21
134.7500005818136
 31
0.0
  0
LINE
  5
220
330
63
100
AcDbEntity
  8
0
  6
Continuous
 62
     7
100
AcDbLine
 10
-195.8499997007108
 20
134.7500005818136
 30
0.0
 11
-198.4496618076757
 21
134.7500005818141
 31
0.0
  0
LINE
  5
221
330
63
100
AcDbEntity
  8
0
  6
Continuous
 62
     7
100
AcDbLine
 10
-200.4538684709003
 20
122.7500005818134
 30
0.0
 11
-200.4538684709004
 21
131.450000581814
 31
0.0
  0
LINE
  5
222
330
63
100
AcDbEntity
  8
0
  6
Continuous
 62
     7
100
AcDbLine
 10
-194.1999997007109
 20
167.9809420972747
 30
0.0
 11
-194.1999997007109
 21
167.7499993893815
 31
0.0
  0
LINE
  5
223
330
63
100
AcDbEntity
  8
0
  6
Continuous
 62
     7
100
AcDbLine
 10
-194.1999997007109
 20
169.7500005818145
 30
0.0
 11
-194.1999997007109
 21
167.9809420972747
 31
0.0
  0
LINE
  5
224
330
63
100
AcDbEntity
  8
0
  6
Continuous
 62
     7
100
AcDbLine
 10
-194.1999997007109
 20
167.7499993893815
 30
0.0
 11
-194.1999997007109
 21
164.3500005818136
 31
0.0
  0
LINE
  5
225
330
63
100
AcDbEntity
  8
0
  6
Continuous
 62
     7
100
AcDbLine
 10
-194.1999997007109
 20
164.3500005818136
 30
0.0
 11
-194.1999997007109
 21
134.7500005818136
 31
0.0
  0
LINE
  5
226
330
63
100
AcDbEntity
  8
0
  6
Continuous
 62
     7
100
AcDbLine
 10
-194.1999997007109
 20
174.7500005818138
 30
0.0
 11
-194.1999997007109
 21
172.9809420972747
 31
0.0
  0
LINE
  5
227
330
63
100
AcDbEntity
  8
0
  6
Continuous
 62
     7
100
AcDbLine
 10
-194.1999997007109
 20
172.9809420972747
 30
0.0
 11
-194.1999997007109
 21
172.7499993893819
 31
0.0
  0
LINE
  5
228
330
63
100
AcDbEntity
  8
0
  6
Continuous
 62
     7
100
AcDbLine
 10
-194.1999997007109
 20
170.4809420972747
 30
0.0
 11
-194.1999997007109
 21
170.2499993893819
 31
0.0
  0
LINE
  5
229
330
63
100
AcDbEntity
  8
0
  6
Continuous
 62
     7
100
AcDbLine
 10
-194.1999997007109
 20
170.2499993893819
 30
0.0
 11
-194.1999997007109
 21
169.7500005818145
 31
0.0
  0
LINE
  5
22A
330
63
100
AcDbEntity
  8
0
  6
Continuous
 62
     7
100
AcDbLine
 10
-194.1999997007109
 20
169.7500005818145
 30
0.0
 11
-211.6999997007109
 21
169.7500005818145
 31
0.0
  0
LINE
  5
22B
330
63
100
AcDbEntity
  8
0
  6
Continuous
 62
     7
100
AcDbLine
 10
-194.1999997007109
 20
167.9809420972747
 30
0.0
 11
-211.6999997007109
 21
167.9809420972747
 31
0.0
  0
LINE
  5
22C
330
63
100
AcDbEntity
  8
0
  6
Continuous
 62
     7
100
AcDbLine
 10
-194.1999997007109
 20
170.2499993893819
 30
0.0
 11
-211.6999997007109
 21
170.2499993893819
 31
0.0
  0
LINE
  5
22D
330
63
100
AcDbEntity
  8
0
  6
Continuous
 62
     7
100
AcDbLine
 10
-194.1999997007109
 20
172.9809420972747
 30
0.0
 11
-211.6999997007109
 21
172.9809420972747
 31
0.0
  0
LINE
  5
22E
330
63
100
AcDbEntity
  8
0
  6
Continuous
 62
     7
100
AcDbLine
 10
-194.1999997007109
 20
176.7916419154804
 30
0.0
 11
-194.1999997007109
 21
177.4917102504671
 31
0.0
  0
LINE
  5
22F
330
63
100
AcDbEntity
  8
0
  6
Continuous
 62
     7
100
AcDbLine
 10
-194.1999997007109
 20
176.7916419154804
 30
0.0
 11
-194.1999997007109
 21
174.7500005818138
 31
0.0
  0
LINE
  5
230
330
63
100
AcDbEntity
  8
0
  6
Continuous
 62
     7
100
AcDbLine
 10
-194.1999997007109
 20
174.7500005818138
 30
0.0
 11
-211.6999997007109
 21
174.7500005818138
 31
0.0
  0
LINE
  5
231
330
63
100
AcDbEntity
  8
0
  6
Continuous
 62
     7
100
AcDbLine
 10
-194.1999997007109
 20
176.7916419154804
 30
0.0
 11
-211.6999997007109
 21
176.7916419154797
 31
0.0
  0
LINE
  5
232
330
63
100
AcDbEntity
  8
0
  6
Continuous
 62
     7
100
AcDbLine
 10
-194.1999997007109
 20
177.9105742047492
 30
0.0
 11
-194.1999997007109
 21
178.0500005818137
 31
0.0
  0
LINE
  5
233
330
63
100
AcDbEntity
  8
0
  6
Continuous
 62
     7
100
AcDbLine
 10
-194.1999997007109
 20
177.4917102504671
 30
0.0
 11
-194.1999997007109
 21
177.9105742047492
 31
0.0
  0
LINE
  5
234
330
63
100
AcDbEntity
  8
0
  6
Continuous
 62
     7
100
AcDbLine
 10
-194.1999997007109
 20
177.4917102504671
 30
0.0
 11
-211.6999997007109
 21
177.4917102504671
 31
0.0
  0
LINE
  5
235
330
63
100
AcDbEntity
  8
0
  6
Continuous
 62
     7
100
AcDbLine
 10
-194.1999997007109
 20
177.9105742047492
 30
0.0
 11
-211.6999997007109
 21
177.9105742047492
 31
0.0
  0
LINE
  5
236
330
63
100
AcDbEntity
  8
0
  6
Continuous
 62
     7
100
AcDbLine
 10
-194.1999997007109
 20
172.2500005818145
 30
0.0
 11
-194.1999997007109
 21
170.4809420972747
 31
0.0
  0
LINE
  5
237
330
63
100
AcDbEntity
  8
0
  6
Continuous
 62
     7
100
AcDbLine
 10
-194.1999997007109
 20
172.7499993893819
 30
0.0
 11
-194.1999997007109
 21
172.2500005818145
 31
0.0
  0
LINE
  5
238
330
63
100
AcDbEntity
  8
0
  6
Continuous
 62
     7
100
AcDbLine
 10
-194.1999997007109
 20
172.7499993893819
 30
0.0
 11
-211.6999997007109
 21
172.7499993893819
 31
0.0
  0
LINE
  5
239
330
63
100
AcDbEntity
  8
0
  6
Continuous
 62
     7
100
AcDbLine
 10
-194.1999997007109
 20
172.2500005818145
 30
0.0
 11
-211.6999997007109
 21
172.2500005818145
 31
0.0
  0
LINE
  5
23A
330
63
100
AcDbEntity
  8
0
  6
Continuous
 62
     7
100
AcDbLine
 10
-194.1999997007109
 20
170.4809420972747
 30
0.0
 11
-211.6999997007109
 21
170.4809420972747
 31
0.0
  0
LINE
  5
23B
330
63
100
AcDbEntity
  8
0
  6
Continuous
 62
     7
100
AcDbLine
 10
-194.1999997007109
 20
178.0500005818137
 30
0.0
 11
-211.6999997007109
 21
178.0500005818136
 31
0.0
  0
LINE
  5
23C
330
63
100
AcDbEntity
  8
0
  6
Continuous
 62
     7
100
AcDbLine
 10
-211.6999997007109
 20
164.3500005818136
 30
0.0
 11
-210.0499997007108
 21
164.3500005818136
 31
0.0
  0
LINE
  5
23D
330
63
100
AcDbEntity
  8
0
  6
Continuous
 62
     7
100
AcDbLine
 10
-194.1999997007109
 20
164.3500005818136
 30
0.0
 11
-195.8499997007108
 21
164.3500005818136
 31
0.0
  0
LINE
  5
23E
330
63
100
AcDbEntity
  8
0
  6
Continuous
 62
     7
100
AcDbLine
 10
-201.8999997007108
 20
164.1500005818155
 30
0.0
 11
-203.9999997007108
 21
164.1500005818155
 31
0.0
  0
LINE
  5
23F
330
63
100
AcDbEntity
  8
0
  6
Continuous
 62
     7
100
AcDbLine
 10
-194.1999997007109
 20
167.7499993893815
 30
0.0
 11
-211.6999997007109
 21
167.7499993893815
 31
0.0
  0
LINE
  5
240
330
63
100
AcDbEntity
  8
0
  6
Continuous
 62
     7
100
AcDbLine
 10
-198.4496618076757
 20
134.7500005818141
 30
0.0
 11
-198.4496618076757
 21
131.450000581814
 31
0.0
  0
LINE
  5
241
330
63
100
AcDbEntity
  8
0
  6
Continuous
 62
     7
100
AcDbLine
 10
-195.8499997007108
 20
134.7500005818136
 30
0.0
 11
-195.8499997007108
 21
164.3500005818136
 31
0.0
  0
LINE
  5
242
330
63
100
AcDbEntity
  8
0
  6
Continuous
 62
     7
100
AcDbLine
 10
-200.5247906770793
 20
134.7500005818139
 30
0.0
 11
-200.5247906770793
 21
131.450000581814
 31
0.0
  0
LINE
  5
243
330
63
100
AcDbEntity
  8
0
  6
Continuous
 62
     7
100
AcDbLine
 10
-210.0499997007108
 20
134.7500005818135
 30
0.0
 11
-210.0499997007108
 21
164.3500005818136
 31
0.0
  0
ENDBLK
  5
65
330
63
100
AcDbEntity
  8
0
100
AcDbBlockEnd
  0
BLOCK
  5
68
330
66
100
AcDbEntity
  8
0
100
AcDbBlockBegin
  2
SA_Rechts1
 70
     0
 10
-202.9499999284749
 20
150.4000016448588
 30
0.0
  3
SA_Rechts1
  1

  0
INSERT
  5
67
330
66
100
AcDbEntity
  8
0
100
AcDbBlockReference
  2
F_MS_12_ST-select__5
 10
-211.6999997007109
 20
122.7500005818134
 30
0.0
  0
MTEXT
  5
244
330
66
100
AcDbEntity
  8
1
 62
     6
100
AcDbMText
 10
-202.9499999284749
 20
117.7500001189793
 30
0.0
 40
5.0
 41
0.0
 71
     2
 72
     1
  1
 
  7
CONVERTER_11
 73
     1
 44
1.32052821128451
  0
ENDBLK
  5
69
330
66
100
AcDbEntity
  8
0
100
AcDbBlockEnd
  0
BLOCK
  5
6B
330
6A
100
AcDbEntity
  8
0
100
AcDbBlockBegin
  2
F_MS_12_ST-select__6
 70
     0
 10
-143.200000689131
 20
122.7500005818134
 30
0.0
  3
F_MS_12_ST-select__6
  1

  0
LINE
  5
245
330
6A
100
AcDbEntity
  8
0
  6
Continuous
 62
     7
100
AcDbLine
 10
-121.3500006891311
 20
126.0500005818134
 30
0.0
 11
-127.3500006891309
 21
126.0500005818134
 31
0.0
  0
LINE
  5
246
330
6A
100
AcDbEntity
  8
0
  6
Continuous
 62
     7
100
AcDbLine
 10
-109.5333340224639
 20
177.9105742047491
 30
0.0
 11
-102.0666673557973
 21
177.491710250467
 31
0.0
  0
LINE
  5
247
330
6A
100
AcDbEntity
  8
0
  6
Continuous
 62
     7
100
AcDbLine
 10
-117.0000006891345
 20
178.0500005818136
 30
0.0
 11
-109.5333340224639
 21
177.9105742047491
 31
0.0
  0
LINE
  5
248
330
6A
100
AcDbEntity
  8
0
  6
Continuous
 62
     7
100
AcDbLine
 10
-124.466667355801
 20
177.9105742047493
 30
0.0
 11
-117.0000006891345
 21
178.0500005818136
 31
0.0
  0
LINE
  5
249
330
6A
100
AcDbEntity
  8
0
  6
Continuous
 62
     7
100
AcDbLine
 10
-131.9333340224678
 20
177.4917102504673
 30
0.0
 11
-124.466667355801
 21
177.9105742047493
 31
0.0
  0
LINE
  5
24A
330
6A
100
AcDbEntity
  8
0
  6
Continuous
 62
     7
100
AcDbLine
 10
-139.4000006891308
 20
176.7916419154811
 30
0.0
 11
-131.9333340224678
 21
177.4917102504673
 31
0.0
  0
LINE
  5
24B
330
6A
100
AcDbEntity
  8
0
  6
Continuous
 62
     7
100
AcDbLine
 10
-127.3500006891307
 20
134.7500005818142
 30
0.0
 11
-127.3500006891309
 21
126.0500005818134
 31
0.0
  0
LINE
  5
24C
330
6A
100
AcDbEntity
  8
0
  6
Continuous
 62
     7
100
AcDbLine
 10
-121.3500006891309
 20
134.7500005818141
 30
0.0
 11
-121.3500006891311
 21
126.0500005818134
 31
0.0
  0
LINE
  5
24D
330
6A
100
AcDbEntity
  8
0
  6
Continuous
 62
     7
100
AcDbLine
 10
-95.00000068913063
 20
170.4809420972746
 30
0.0
 11
-94.60000068913064
 21
170.2499993893818
 31
0.0
  0
LINE
  5
24E
330
6A
100
AcDbEntity
  8
0
  6
Continuous
 62
     7
100
AcDbLine
 10
-139.4000007091306
 20
170.2499994933072
 30
0.0
 11
-139.0000006637872
 21
170.4809420426234
 31
0.0
  0
LINE
  5
24F
330
6A
100
AcDbEntity
  8
0
  6
Continuous
 62
     7
100
AcDbLine
 10
-141.2519503604808
 20
162.1216391793493
 30
0.0
 11
-140.2786803140164
 21
161.4713209253751
 31
0.0
  0
LINE
  5
250
330
6A
100
AcDbEntity
  8
0
  6
Continuous
 62
     7
100
AcDbLine
 10
-140.2786803140164
 20
161.4713209253751
 30
0.0
 11
-139.6283620600422
 21
160.4980508789107
 31
0.0
  0
LINE
  5
251
330
6A
100
AcDbEntity
  8
0
  6
Continuous
 62
     7
100
AcDbLine
 10
-139.6283620600422
 20
160.4980508789107
 30
0.0
 11
-139.4000006575761
 21
159.3500006007483
 31
0.0
  0
LINE
  5
252
330
6A
100
AcDbEntity
  8
0
  6
Continuous
 62
     7
100
AcDbLine
 10
-95.00000068913063
 20
174.7500005818152
 30
0.0
 11
-95.00000068913063
 21
172.9809420972746
 31
0.0
  0
LINE
  5
253
330
6A
100
AcDbEntity
  8
0
  6
Continuous
 62
     7
100
AcDbLine
 10
-139.0000006637872
 20
172.9809420426229
 30
0.0
 11
-139.0000006965355
 21
174.7500005818145
 31
0.0
  0
LINE
  5
254
330
6A
100
AcDbEntity
  8
0
  6
Continuous
 62
     7
100
AcDbLine
 10
-120.5724653767109
 20
131.4500005818141
 30
0.0
 11
-121.1782367426509
 21
131.4500005818141
 31
0.0
  0
LINE
  5
255
330
6A
100
AcDbEntity
  8
0
  6
Continuous
 62
     7
100
AcDbLine
 10
-121.1782367426508
 20
134.7500005818141
 30
0.0
 11
-121.1782367426509
 21
131.4500005818141
 31
0.0
  0
LINE
  5
256
330
6A
100
AcDbEntity
  8
0
  6
Continuous
 62
     7
100
AcDbLine
 10
-120.5724653767109
 20
131.4500005818141
 30
0.0
 11
-119.3368268305445
 21
131.450000581814
 31
0.0
  0
LINE
  5
257
330
6A
100
AcDbEntity
  8
0
  6
Continuous
 62
     7
100
AcDbLine
 10
-119.3368268305445
 20
131.450000581814
 30
0.0
 11
-116.9782367426509
 21
131.450000581814
 31
0.0
  0
LINE
  5
258
330
6A
100
AcDbEntity
  8
0
  6
Continuous
 62
     7
100
AcDbLine
 10
-112.7782367426508
 20
134.7500005818139
 30
0.0
 11
-112.7782367426509
 21
131.4500005818139
 31
0.0
  0
LINE
  5
259
330
6A
100
AcDbEntity
  8
0
  6
Continuous
 62
     7
100
AcDbLine
 10
-113.3840081085909
 20
131.4500005818139
 30
0.0
 11
-112.7782367426509
 21
131.4500005818139
 31
0.0
  0
LINE
  5
25A
330
6A
100
AcDbEntity
  8
0
  6
Continuous
 62
     7
100
AcDbLine
 10
-113.3840081085908
 20
134.7500005818139
 30
0.0
 11
-113.3840081085909
 21
131.4500005818139
 31
0.0
  0
LINE
  5
25B
330
6A
100
AcDbEntity
  8
0
  6
Continuous
 62
     7
100
AcDbLine
 10
-116.9782367426509
 20
131.450000581814
 30
0.0
 11
-115.0066998116225
 21
131.4500005818139
 31
0.0
  0
LINE
  5
25C
330
6A
100
AcDbEntity
  8
0
  6
Continuous
 62
     7
100
AcDbLine
 10
-115.0066998116225
 20
131.4500005818139
 30
0.0
 11
-113.3840081085909
 21
131.4500005818139
 31
0.0
  0
LINE
  5
25D
330
6A
100
AcDbEntity
  8
0
  6
Continuous
 62
     7
100
AcDbLine
 10
-116.9782367426508
 20
134.750000581814
 30
0.0
 11
-116.9782367426509
 21
131.450000581814
 31
0.0
  0
LINE
  5
25E
330
6A
100
AcDbEntity
  8
0
  6
Continuous
 62
     7
100
AcDbLine
 10
-112.6500006908913
 20
126.0500001089362
 30
0.0
 11
-106.650000690891
 21
126.0500001089362
 31
0.0
  0
LINE
  5
25F
330
6A
100
AcDbEntity
  8
0
  6
Continuous
 62
     7
100
AcDbLine
 10
-97.3500006891302
 20
134.7500005818135
 30
0.0
 11
-94.60000068913072
 21
134.7500005818135
 31
0.0
  0
LINE
  5
260
330
6A
100
AcDbEntity
  8
0
  6
Continuous
 62
     7
100
AcDbLine
 10
-90.80000068913787
 20
162.3500005818154
 30
0.0
 11
-90.80000068913787
 21
164.1500005818155
 31
0.0
  0
LINE
  5
261
330
6A
100
AcDbEntity
  8
0
  6
Continuous
 62
     7
100
AcDbLine
 10
-94.60000068913064
 20
172.7499993893818
 30
0.0
 11
-94.60000068913062
 21
172.2500005818145
 31
0.0
  0
LINE
  5
262
330
6A
100
AcDbEntity
  8
0
  6
Continuous
 62
     7
100
AcDbLine
 10
-94.60000068912309
 20
176.7916419154796
 30
0.0
 11
-94.60000068913064
 21
174.7500005818137
 31
0.0
  0
LINE
  5
263
330
6A
100
AcDbEntity
  8
0
  6
Continuous
 62
     7
100
AcDbLine
 10
-94.3716393182267
 20
160.4980508789107
 30
0.0
 11
-94.6000006891302
 21
159.3500006007483
 31
0.0
  0
LINE
  5
264
330
6A
100
AcDbEntity
  8
0
  6
Continuous
 62
     7
100
AcDbLine
 10
-93.72132106425246
 20
161.4713209253751
 30
0.0
 11
-94.3716393182267
 21
160.4980508789107
 31
0.0
  0
LINE
  5
265
330
6A
100
AcDbEntity
  8
0
  6
Continuous
 62
     7
100
AcDbLine
 10
-92.7480510177881
 20
162.1216391793493
 30
0.0
 11
-93.72132106425246
 21
161.4713209253751
 31
0.0
  0
LINE
  5
266
330
6A
100
AcDbEntity
  8
0
  6
Continuous
 62
     7
100
AcDbLine
 10
-91.60000072069283
 20
162.3500005818155
 30
0.0
 11
-92.7480510177881
 21
162.1216391793493
 31
0.0
  0
LINE
  5
267
330
6A
100
AcDbEntity
  8
0
  6
Continuous
 62
     7
100
AcDbLine
 10
-90.80000068913787
 20
162.3500005818154
 30
0.0
 11
-91.60000072069283
 21
162.3500005818155
 31
0.0
  0
LINE
  5
268
330
6A
100
AcDbEntity
  8
0
  6
Continuous
 62
     7
100
AcDbLine
 10
-90.80000068913787
 20
164.1500005818155
 30
0.0
 11
-94.6000006891301
 21
164.1500005818155
 31
0.0
  0
LINE
  5
269
330
6A
100
AcDbEntity
  8
0
  6
Continuous
 62
     7
100
AcDbLine
 10
-112.650000690891
 20
134.7500005818139
 30
0.0
 11
-112.6500006908913
 21
126.0500001089362
 31
0.0
  0
LINE
  5
26A
330
6A
100
AcDbEntity
  8
0
  6
Continuous
 62
     7
100
AcDbLine
 10
-106.6500006908907
 20
134.7500005818138
 30
0.0
 11
-106.650000690891
 21
126.0500001089362
 31
0.0
  0
LINE
  5
26B
330
6A
100
AcDbEntity
  8
0
  6
Continuous
 62
     7
100
AcDbLine
 10
-119.3368268305447
 20
122.7500005818134
 30
0.0
 11
-119.3368268305445
 21
131.450000581814
 31
0.0
  0
LINE
  5
26C
330
6A
100
AcDbEntity
  8
0
  6
Continuous
 62
     7
100
AcDbLine
 10
-119.3368268305447
 20
122.7500005818134
 30
0.0
 11
-115.0066998116227
 21
122.7500005818134
 31
0.0
  0
LINE
  5
26D
330
6A
100
AcDbEntity
  8
0
  6
Continuous
 62
     7
100
AcDbLine
 10
-115.0066998116227
 20
122.7500005818134
 30
0.0
 11
-115.0066998116225
 21
131.4500005818139
 31
0.0
  0
LINE
  5
26E
330
6A
100
AcDbEntity
  8
0
  6
Continuous
 62
     7
100
AcDbLine
 10
-120.5724653767108
 20
134.7500005818141
 30
0.0
 11
-120.5724653767109
 21
131.4500005818141
 31
0.0
  0
LINE
  5
26F
330
6A
100
AcDbEntity
  8
0
  6
Continuous
 62
     7
100
AcDbLine
 10
-94.60000068913072
 20
134.7500005818135
 30
0.0
 11
-94.6000006891302
 21
159.3500006007483
 31
0.0
  0
LINE
  5
270
330
6A
100
AcDbEntity
  8
0
  6
Continuous
 62
     7
100
AcDbLine
 10
-95.00000068913063
 20
172.9809420972746
 30
0.0
 11
-94.60000068913064
 21
172.7499993893818
 31
0.0
  0
LINE
  5
271
330
6A
100
AcDbEntity
  8
0
  6
Continuous
 62
     7
100
AcDbLine
 10
-139.4000007262968
 20
172.7499994833976
 30
0.0
 11
-139.0000006637872
 21
172.9809420426229
 31
0.0
  0
LINE
  5
272
330
6A
100
AcDbEntity
  8
0
  6
Continuous
 62
     7
100
AcDbLine
 10
-94.60000068913062
 20
172.2500005818145
 30
0.0
 11
-95.00000068913063
 21
172.2500005818145
 31
0.0
  0
LINE
  5
273
330
6A
100
AcDbEntity
  8
0
  6
Continuous
 62
     7
100
AcDbLine
 10
-139.4000006891308
 20
172.2500005669481
 30
0.0
 11
-139.4000007262968
 21
172.7499994833976
 31
0.0
  0
LINE
  5
274
330
6A
100
AcDbEntity
  8
0
  6
Continuous
 62
     7
100
AcDbLine
 10
-139.0000006965355
 20
172.2500005966809
 30
0.0
 11
-139.4000006891308
 21
172.2500005669481
 31
0.0
  0
LINE
  5
275
330
6A
100
AcDbEntity
  8
0
  6
Continuous
 62
     7
100
AcDbLine
 10
-95.00000068913063
 20
172.2500005818145
 30
0.0
 11
-95.00000068913063
 21
170.4809420972746
 31
0.0
  0
LINE
  5
276
330
6A
100
AcDbEntity
  8
0
  6
Continuous
 62
     7
100
AcDbLine
 10
-139.0000006637872
 20
170.4809420426234
 30
0.0
 11
-139.0000006965355
 21
172.2500005966809
 31
0.0
  0
LINE
  5
277
330
6A
100
AcDbEntity
  8
0
  6
Continuous
 62
     7
100
AcDbLine
 10
-139.0000006965355
 20
169.7500005818145
 30
0.0
 11
-139.4000007091306
 21
169.7500005818145
 31
0.0
  0
LINE
  5
278
330
6A
100
AcDbEntity
  8
0
  6
Continuous
 62
     7
100
AcDbLine
 10
-94.60000068913064
 20
170.2499993893818
 30
0.0
 11
-94.60000068913064
 21
169.7500005818145
 31
0.0
  0
LINE
  5
279
330
6A
100
AcDbEntity
  8
0
  6
Continuous
 62
     7
100
AcDbLine
 10
-139.4000007091306
 20
169.7500005818145
 30
0.0
 11
-139.4000007091306
 21
170.2499994933072
 31
0.0
  0
LINE
  5
27A
330
6A
100
AcDbEntity
  8
0
  6
Continuous
 62
     7
100
AcDbLine
 10
-143.200000689131
 20
164.1500005818155
 30
0.0
 11
-139.4000006878686
 21
164.1500005818155
 31
0.0
  0
LINE
  5
27B
330
6A
100
AcDbEntity
  8
0
  6
Continuous
 62
     7
100
AcDbLine
 10
-143.200000689131
 20
162.3500005818154
 30
0.0
 11
-143.200000689131
 21
164.1500005818155
 31
0.0
  0
LINE
  5
27C
330
6A
100
AcDbEntity
  8
0
  6
Continuous
 62
     7
100
AcDbLine
 10
-143.200000689131
 20
162.3500005818154
 30
0.0
 11
-142.400000657576
 21
162.3500005818155
 31
0.0
  0
LINE
  5
27D
330
6A
100
AcDbEntity
  8
0
  6
Continuous
 62
     7
100
AcDbLine
 10
-142.400000657576
 20
162.3500005818155
 30
0.0
 11
-141.2519503604808
 21
162.1216391793493
 31
0.0
  0
LINE
  5
27E
330
6A
100
AcDbEntity
  8
0
  6
Continuous
 62
     7
100
AcDbLine
 10
-139.0000006965355
 20
174.7500005818145
 30
0.0
 11
-139.4000006891308
 21
174.7500005818145
 31
0.0
  0
LINE
  5
27F
330
6A
100
AcDbEntity
  8
0
  6
Continuous
 62
     7
100
AcDbLine
 10
-94.60000068913064
 20
174.7500005818137
 30
0.0
 11
-95.00000068913063
 21
174.7500005818152
 31
0.0
  0
LINE
  5
280
330
6A
100
AcDbEntity
  8
0
  6
Continuous
 62
     7
100
AcDbLine
 10
-139.4000006891308
 20
174.7500005818145
 30
0.0
 11
-139.4000006891308
 21
176.7916419154811
 31
0.0
  0
LINE
  5
281
330
6A
100
AcDbEntity
  8
0
  6
Continuous
 62
     7
100
AcDbLine
 10
-127.3500006891307
 20
134.7500005818142
 30
0.0
 11
-136.65000068913
 21
134.7500005818145
 31
0.0
  0
LINE
  5
282
330
6A
100
AcDbEntity
  8
0
  6
Continuous
 62
     7
100
AcDbLine
 10
-121.1782367426508
 20
134.7500005818141
 30
0.0
 11
-121.3500006891309
 21
134.7500005818141
 31
0.0
  0
LINE
  5
283
330
6A
100
AcDbEntity
  8
0
  6
Continuous
 62
     7
100
AcDbLine
 10
-121.3500006891309
 20
134.7500005818141
 30
0.0
 11
-127.3500006891307
 21
134.7500005818142
 31
0.0
  0
LINE
  5
284
330
6A
100
AcDbEntity
  8
0
  6
Continuous
 62
     7
100
AcDbLine
 10
-120.5724653767108
 20
134.7500005818141
 30
0.0
 11
-121.1782367426508
 21
134.7500005818141
 31
0.0
  0
LINE
  5
285
330
6A
100
AcDbEntity
  8
0
  6
Continuous
 62
     7
100
AcDbLine
 10
-116.9782367426508
 20
134.750000581814
 30
0.0
 11
-120.5724653767108
 21
134.7500005818141
 31
0.0
  0
LINE
  5
286
330
6A
100
AcDbEntity
  8
0
  6
Continuous
 62
     7
100
AcDbLine
 10
-112.650000690891
 20
134.7500005818139
 30
0.0
 11
-112.7782367426508
 21
134.7500005818139
 31
0.0
  0
LINE
  5
287
330
6A
100
AcDbEntity
  8
0
  6
Continuous
 62
     7
100
AcDbLine
 10
-112.7782367426508
 20
134.7500005818139
 30
0.0
 11
-113.3840081085908
 21
134.7500005818139
 31
0.0
  0
LINE
  5
288
330
6A
100
AcDbEntity
  8
0
  6
Continuous
 62
     7
100
AcDbLine
 10
-113.3840081085908
 20
134.7500005818139
 30
0.0
 11
-116.9782367426508
 21
134.750000581814
 31
0.0
  0
LINE
  5
289
330
6A
100
AcDbEntity
  8
0
  6
Continuous
 62
     7
100
AcDbLine
 10
-106.6500006908907
 20
134.7500005818138
 30
0.0
 11
-112.650000690891
 21
134.7500005818139
 31
0.0
  0
LINE
  5
28A
330
6A
100
AcDbEntity
  8
0
  6
Continuous
 62
     7
100
AcDbLine
 10
-97.3500006891302
 20
134.7500005818135
 30
0.0
 11
-106.6500006908907
 21
134.7500005818138
 31
0.0
  0
LINE
  5
28B
330
6A
100
AcDbEntity
  8
0
  6
Continuous
 62
     7
100
AcDbLine
 10
-97.3500006891302
 20
134.7500005818135
 30
0.0
 11
-97.35000068913018
 21
164.3500005818135
 31
0.0
  0
LINE
  5
28C
330
6A
100
AcDbEntity
  8
0
  6
Continuous
 62
     7
100
AcDbLine
 10
-139.4000005023266
 20
134.7500005818145
 30
0.0
 11
-136.65000068913
 21
134.7500005818145
 31
0.0
  0
LINE
  5
28D
330
6A
100
AcDbEntity
  8
0
  6
Continuous
 62
     7
100
AcDbLine
 10
-139.4000006891308
 20
164.3500005818145
 30
0.0
 11
-139.4000006878686
 21
164.1500005818155
 31
0.0
  0
LINE
  5
28E
330
6A
100
AcDbEntity
  8
0
  6
Continuous
 62
     7
100
AcDbLine
 10
-139.4000006878686
 20
164.1500005818155
 30
0.0
 11
-139.4000006575761
 21
159.3500006007483
 31
0.0
  0
LINE
  5
28F
330
6A
100
AcDbEntity
  8
0
  6
Continuous
 62
     7
100
AcDbLine
 10
-94.6000006891301
 20
164.1500005818155
 30
0.0
 11
-94.60000068913008
 21
164.3500005818135
 31
0.0
  0
LINE
  5
290
330
6A
100
AcDbEntity
  8
0
  6
Continuous
 62
     7
100
AcDbLine
 10
-94.6000006891302
 20
159.3500006007483
 30
0.0
 11
-94.6000006891301
 21
164.1500005818155
 31
0.0
  0
LINE
  5
291
330
6A
100
AcDbEntity
  8
0
  6
Continuous
 62
     7
100
AcDbLine
 10
-94.60000068913001
 20
167.7499993893815
 30
0.0
 11
-94.60000068913008
 21
164.3500005818135
 31
0.0
  0
LINE
  5
292
330
6A
100
AcDbEntity
  8
0
  6
Continuous
 62
     7
100
AcDbLine
 10
-97.35000068913018
 20
164.3500005818135
 30
0.0
 11
-94.60000068913008
 21
164.3500005818135
 31
0.0
  0
LINE
  5
293
330
6A
100
AcDbEntity
  8
0
  6
Continuous
 62
     7
100
AcDbLine
 10
-94.60000068913064
 20
169.7500005818145
 30
0.0
 11
-95.00000068913063
 21
169.7500005818145
 31
0.0
  0
LINE
  5
294
330
6A
100
AcDbEntity
  8
0
  6
Continuous
 62
     7
100
AcDbLine
 10
-95.00000068913063
 20
169.7500005818145
 30
0.0
 11
-95.00000068913063
 21
167.9809420972746
 31
0.0
  0
LINE
  5
295
330
6A
100
AcDbEntity
  8
0
  6
Continuous
 62
     7
100
AcDbLine
 10
-95.00000068913063
 20
167.9809420972746
 30
0.0
 11
-94.60000068913001
 21
167.7499993893815
 31
0.0
  0
LINE
  5
296
330
6A
100
AcDbEntity
  8
0
  6
Continuous
 62
     7
100
AcDbLine
 10
-139.0000006637872
 20
167.9809420426234
 30
0.0
 11
-139.0000006965355
 21
169.7500005818145
 31
0.0
  0
LINE
  5
297
330
6A
100
AcDbEntity
  8
0
  6
Continuous
 62
     7
100
AcDbLine
 10
-139.4000007105881
 20
167.7499994924657
 30
0.0
 11
-139.0000006637872
 21
167.9809420426234
 31
0.0
  0
LINE
  5
298
330
6A
100
AcDbEntity
  8
0
  6
Continuous
 62
     7
100
AcDbLine
 10
-139.4000006891308
 20
164.3500005818145
 30
0.0
 11
-139.4000007105881
 21
167.7499994924657
 31
0.0
  0
LINE
  5
299
330
6A
100
AcDbEntity
  8
0
  6
Continuous
 62
     7
100
AcDbLine
 10
-139.4000006891308
 20
164.3500005818145
 30
0.0
 11
-136.65000068913
 21
164.3500005818145
 31
0.0
  0
LINE
  5
29A
330
6A
100
AcDbEntity
  8
0
  6
Continuous
 62
     7
100
AcDbLine
 10
-136.65000068913
 20
164.3500005818145
 30
0.0
 11
-136.65000068913
 21
134.7500005818145
 31
0.0
  0
LINE
  5
29B
330
6A
100
AcDbEntity
  8
0
  6
Continuous
 62
     7
100
AcDbLine
 10
-139.4000006575761
 20
159.3500006007483
 30
0.0
 11
-139.4000005023266
 21
134.7500005818145
 31
0.0
  0
LINE
  5
29C
330
6A
100
AcDbEntity
  8
0
  6
Continuous
 62
     7
100
AcDbLine
 10
-102.0666673557973
 20
177.491710250467
 30
0.0
 11
-94.60000068912309
 21
176.7916419154796
 31
0.0
  0
ENDBLK
  5
6C
330
6A
100
AcDbEntity
  8
0
100
AcDbBlockEnd
  0
BLOCK
  5
6F
330
6D
100
AcDbEntity
  8
0
100
AcDbBlockBegin
  2
Vordans1
 70
     0
 10
-117.000000000095
 20
150.4000016448587
 30
0.0
  3
Vordans1
  1

  0
INSERT
  5
6E
330
6D
100
AcDbEntity
  8
0
100
AcDbBlockReference
  2
F_MS_12_ST-select__6
 10
-143.200000689131
 20
122.7500005818134
 30
0.0
  0
MTEXT
  5
29D
330
6D
100
AcDbEntity
  8
1
 62
     6
100
AcDbMText
 10
-117.0000000000949
 20
117.7500001189793
 30
0.0
 40
5.0
 41
0.0
 71
     2
 72
     1
  1
 
  7
CONVERTER_11
 73
     1
 44
1.32052821128451
  0
DIMENSION
  5
2A8
330
6D
100
AcDbEntity
  8
1
100
AcDbDimension
  2
*D18
 10
-156.558984572419
 20
122.7500005818134
 30
0.0
 11
-159.983984572419
 21
153.4508713594881
 31
0.0
 70
    32
  1
<>
 71
     5
 42
-1.0
 53
90.0
  3
ME10_DIM_11
100
AcDbAlignedDimension
 13
-117.0000006891345
 23
178.0500005818136
 33
0.0
 14
-115.0066998116227
 24
122.7500005818134
 34
0.0
 50
90.0
100
AcDbRotatedDimension
  0
DIMENSION
  5
2B3
330
6D
100
AcDbEntity
  8
1
100
AcDbDimension
  2
*D19
 10
-148.558984572419
 20
134.7500005818145
 30
0.0
 11
-151.983984572419
 21
156.3851554932131
 31
0.0
 70
    32
  1
<>
 71
     5
 42
-1.0
 53
90.0
  3
ME10_DIM_12
100
AcDbAlignedDimension
 13
-117.0000006891345
 23
178.0500005818136
 33
0.0
 14
-136.65000068913
 24
134.7500005818145
 34
0.0
 50
90.0
100
AcDbRotatedDimension
  0
DIMENSION
  5
2BE
330
6D
100
AcDbEntity
  8
1
100
AcDbDimension
  2
*D20
 10
-139.4000005023266
 20
114.3250001189794
 30
0.0
 11
-117.0000000000949
 21
117.7500001189794
 31
0.0
 70
    32
  1
<>
 71
     5
 42
-1.0
 53
0.00013888888889
  3
ME10_DIM_13
100
AcDbAlignedDimension
 13
-94.60000068913072
 23
134.7500005818135
 33
0.0
 14
-139.4000005023266
 24
134.7500005818145
 34
0.0
100
AcDbRotatedDimension
  0
ENDBLK
  5
70
330
6D
100
AcDbEntity
  8
0
100
AcDbBlockEnd
  0
BLOCK
  5
72
330
71
100
AcDbEntity
  8
0
100
AcDbBlockBegin
  2
_rahmen
 70
     0
 10
50.70000042268244
 20
10.6500002313021
 30
0.0
  3
_rahmen
  1

  0
LINE
  5
2BF
330
71
100
AcDbEntity
  8
1
  6
Continuous
 62
     6
100
AcDbLine
 10
-78.84480410406758
 20
41.15000023130222
 30
0.0
 11
50.70000042268413
 21
41.15000023130222
 31
0.0
  0
LINE
  5
2C0
330
71
100
AcDbEntity
  8
1
  6
Continuous
 62
     7
100
AcDbLine
 10
-60.64480410406756
 20
19.90000023130222
 30
0.0
 11
-42.44480410406766
 21
19.90000023130222
 31
0.0
  0
LINE
  5
2C1
330
71
100
AcDbEntity
  8
1
  6
Continuous
 62
     6
100
AcDbLine
 10
-60.64480410406756
 20
15.65000023130222
 30
0.0
 11
-78.84480410406758
 21
15.6500002313021
 31
0.0
  0
LINE
  5
2C2
330
71
100
AcDbEntity
  8
1
  6
Continuous
 62
     7
100
AcDbLine
 10
-60.64480410406756
 20
19.90000023130222
 30
0.0
 11
-60.64480410406756
 21
15.65000023130222
 31
0.0
  0
LINE
  5
2C3
330
71
100
AcDbEntity
  8
1
  6
Continuous
 62
     7
100
AcDbLine
 10
-42.44480410406766
 20
19.90000023130222
 30
0.0
 11
-42.44480410406766
 21
15.6500002313021
 31
0.0
  0
LINE
  5
2C4
330
71
100
AcDbEntity
  8
1
  6
Continuous
 62
     7
100
AcDbLine
 10
-78.84480410406758
 20
19.9000002313021
 30
0.0
 11
-78.84480410406758
 21
15.6500002313021
 31
0.0
  0
LINE
  5
2C5
330
71
100
AcDbEntity
  8
1
  6
Continuous
 62
     7
100
AcDbLine
 10
-78.84480410406758
 20
19.9000002313021
 30
0.0
 11
-60.64480410406756
 21
19.90000023130222
 31
0.0
  0
LINE
  5
2C6
330
71
100
AcDbEntity
  8
1
  6
Continuous
 62
     2
100
AcDbLine
 10
-69.60814921750497
 20
39.27500023130213
 30
0.0
 11
-69.60814921750497
 21
34.27500023130213
 31
0.0
  0
LINE
  5
2C7
330
71
100
AcDbEntity
  8
1
  6
Continuous
 62
     2
100
AcDbLine
 10
-69.60814921750497
 20
34.27500023130213
 30
0.0
 11
-74.60814921750497
 21
35.52500023130213
 31
0.0
  0
LINE
  5
2C8
330
71
100
AcDbEntity
  8
1
  6
Continuous
 62
     2
100
AcDbLine
 10
-74.60814921750497
 20
35.52500023130213
 30
0.0
 11
-74.60814921750497
 21
38.02500023130213
 31
0.0
  0
LINE
  5
2C9
330
71
100
AcDbEntity
  8
1
  6
Continuous
 62
     2
100
AcDbLine
 10
-74.60814921750497
 20
38.02500023130213
 30
0.0
 11
-69.60814921750497
 21
39.27500023130213
 31
0.0
  0
LINE
  5
2CA
330
71
100
AcDbEntity
  8
1
  6
Continuous
 62
     6
100
AcDbLine
 10
-201.2999995773158
 20
15.65000023130222
 30
0.0
 11
-236.2999995773157
 21
15.65000023130222
 31
0.0
  0
LINE
  5
2CB
330
71
100
AcDbEntity
  8
1
  6
Continuous
 62
     6
100
AcDbLine
 10
50.70000042268413
 20
32.65000023130222
 30
0.0
 11
50.70000042268373
 21
24.15000023130222
 31
0.0
  0
LINE
  5
2CC
330
71
100
AcDbEntity
  8
1
  6
Continuous
 62
     6
100
AcDbLine
 10
-42.44480410406766
 20
15.6500002313021
 30
0.0
 11
-42.79999957731758
 21
15.65000023130222
 31
0.0
  0
LINE
  5
2CD
330
71
100
AcDbEntity
  8
1
  6
Continuous
 62
     6
100
AcDbLine
 10
-195.0999995773178
 20
15.6500002313021
 30
0.0
 11
-201.2999995773158
 21
15.65000023130222
 31
0.0
  0
LINE
  5
2CE
330
71
100
AcDbEntity
  8
1
  6
Continuous
 62
     7
100
AcDbLine
 10
-42.44480410406766
 20
32.65000023130222
 30
0.0
 11
-42.44480410406766
 21
19.90000023130222
 31
0.0
  0
LINE
  5
2CF
330
71
100
AcDbEntity
  8
1
  6
Continuous
 62
     7
100
AcDbLine
 10
-78.84480410406758
 20
32.65000023130222
 30
0.0
 11
-78.84480410406758
 21
19.9000002313021
 31
0.0
  0
LINE
  5
2D0
330
71
100
AcDbEntity
  8
1
  6
Continuous
 62
     6
100
AcDbLine
 10
-92.79999957731755
 20
15.65000023130222
 30
0.0
 11
-142.7999995773178
 21
15.65000023130222
 31
0.0
  0
LINE
  5
2D1
330
71
100
AcDbEntity
  8
1
  6
Continuous
 62
     6
100
AcDbLine
 10
-195.0999995773178
 20
15.6500002313021
 30
0.0
 11
-192.7999995773176
 21
15.65000023130222
 31
0.0
  0
LINE
  5
2D2
330
71
100
AcDbEntity
  8
1
  6
Continuous
 62
     6
100
AcDbLine
 10
-42.44480410406766
 20
15.6500002313021
 30
0.0
 11
7.20000042268242
 21
15.65000023130222
 31
0.0
  0
LINE
  5
2D3
330
71
100
AcDbEntity
  8
1
  6
Continuous
 62
     6
100
AcDbLine
 10
50.70000042268244
 20
15.65000023130222
 30
0.0
 11
50.70000042268373
 21
24.15000023130222
 31
0.0
  0
LINE
  5
2D4
330
71
100
AcDbEntity
  8
1
  6
Continuous
 62
     2
100
AcDbLine
 10
-241.2999995773166
 20
15.65000023130222
 30
0.0
 11
-241.2999995773166
 21
10.6500002313021
 31
0.0
  0
LINE
  5
2D5
330
71
100
AcDbEntity
  8
1
  6
Continuous
 62
     2
100
AcDbLine
 10
-236.2999995773157
 20
15.65000023130222
 30
0.0
 11
-241.2999995773166
 21
15.65000023130222
 31
0.0
  0
LINE
  5
2D6
330
71
100
AcDbEntity
  8
1
  6
Continuous
 62
     2
100
AcDbLine
 10
-236.2999995773157
 20
10.6500002313021
 30
0.0
 11
-192.7999995773176
 21
10.6500002313021
 31
0.0
  0
LINE
  5
2D7
330
71
100
AcDbEntity
  8
1
  6
Continuous
 62
     2
100
AcDbLine
 10
-236.2999995773157
 20
15.65000023130222
 30
0.0
 11
-236.2999995773157
 21
10.6500002313021
 31
0.0
  0
LINE
  5
2D8
330
71
100
AcDbEntity
  8
1
  6
Continuous
 62
     2
100
AcDbLine
 10
7.20000042268242
 20
10.6500002313021
 30
0.0
 11
-42.79999957731758
 21
10.6500002313021
 31
0.0
  0
LINE
  5
2D9
330
71
100
AcDbEntity
  8
1
  6
Continuous
 62
     2
100
AcDbLine
 10
7.20000042268242
 20
10.6500002313021
 30
0.0
 11
7.20000042268242
 21
15.65000023130222
 31
0.0
  0
LINE
  5
2DA
330
71
100
AcDbEntity
  8
1
  6
Continuous
 62
     2
100
AcDbLine
 10
-42.79999957731758
 20
10.6500002313021
 30
0.0
 11
-42.79999957731758
 21
15.65000023130222
 31
0.0
  0
LINE
  5
2DB
330
71
100
AcDbEntity
  8
1
  6
Continuous
 62
     2
100
AcDbLine
 10
-92.79999957731755
 20
10.6500002313021
 30
0.0
 11
-42.79999957731758
 21
10.6500002313021
 31
0.0
  0
LINE
  5
2DC
330
71
100
AcDbEntity
  8
1
  6
Continuous
 62
     2
100
AcDbLine
 10
-92.79999957731755
 20
10.6500002313021
 30
0.0
 11
-92.79999957731755
 21
15.65000023130222
 31
0.0
  0
LINE
  5
2DD
330
71
100
AcDbEntity
  8
1
  6
Continuous
 62
     2
100
AcDbLine
 10
-142.7999995773178
 20
10.6500002313021
 30
0.0
 11
-92.79999957731755
 21
10.6500002313021
 31
0.0
  0
LINE
  5
2DE
330
71
100
AcDbEntity
  8
1
  6
Continuous
 62
     2
100
AcDbLine
 10
-142.7999995773178
 20
10.6500002313021
 30
0.0
 11
-142.7999995773178
 21
15.65000023130222
 31
0.0
  0
LINE
  5
2DF
330
71
100
AcDbEntity
  8
1
  6
Continuous
 62
     2
100
AcDbLine
 10
-192.7999995773176
 20
10.6500002313021
 30
0.0
 11
-142.7999995773178
 21
10.6500002313021
 31
0.0
  0
LINE
  5
2E0
330
71
100
AcDbEntity
  8
1
  6
Continuous
 62
     2
100
AcDbLine
 10
-192.7999995773176
 20
10.6500002313021
 30
0.0
 11
-192.7999995773176
 21
15.65000023130222
 31
0.0
  0
LINE
  5
2E1
330
71
100
AcDbEntity
  8
1
  6
Continuous
 62
     6
100
AcDbLine
 10
-236.2999995773158
 20
65.65000023130233
 30
0.0
 11
-236.2999995773157
 21
15.65000023130222
 31
0.0
  0
LINE
  5
2E2
330
71
100
AcDbEntity
  8
1
  6
Continuous
 62
     2
100
AcDbLine
 10
-241.2999995773166
 20
65.65000023130233
 30
0.0
 11
-241.2999995773166
 21
15.65000023130222
 31
0.0
  0
LINE
  5
2E3
330
71
100
AcDbEntity
  8
1
  6
Continuous
 62
     2
100
AcDbLine
 10
-241.2999995773166
 20
65.65000023130233
 30
0.0
 11
-236.2999995773158
 21
65.65000023130233
 31
0.0
  0
LINE
  5
2E4
330
71
100
AcDbEntity
  8
1
  6
Continuous
 62
     6
100
AcDbLine
 10
-236.2999995773161
 20
115.6500002313021
 30
0.0
 11
-236.2999995773158
 21
65.65000023130233
 31
0.0
  0
LINE
  5
2E5
330
71
100
AcDbEntity
  8
1
  6
Continuous
 62
     2
100
AcDbLine
 10
-241.2999995773166
 20
115.6500002313021
 30
0.0
 11
-241.2999995773166
 21
65.65000023130233
 31
0.0
  0
LINE
  5
2E6
330
71
100
AcDbEntity
  8
1
  6
Continuous
 62
     2
100
AcDbLine
 10
-241.2999995773166
 20
115.6500002313021
 30
0.0
 11
-236.2999995773161
 21
115.6500002313021
 31
0.0
  0
LINE
  5
2E7
330
71
100
AcDbEntity
  8
1
  6
Continuous
 62
     6
100
AcDbLine
 10
-236.2999995773166
 20
165.6500002313022
 30
0.0
 11
-236.2999995773161
 21
115.6500002313021
 31
0.0
  0
LINE
  5
2E8
330
71
100
AcDbEntity
  8
1
  6
Continuous
 62
     2
100
AcDbLine
 10
-241.2999995773166
 20
165.6500002313022
 30
0.0
 11
-241.2999995773166
 21
115.6500002313021
 31
0.0
  0
LINE
  5
2E9
330
71
100
AcDbEntity
  8
1
  6
Continuous
 62
     2
100
AcDbLine
 10
-241.2999995773166
 20
165.6500002313022
 30
0.0
 11
-236.2999995773166
 21
165.6500002313022
 31
0.0
  0
LINE
  5
2EA
330
71
100
AcDbEntity
  8
1
  6
Continuous
 62
     6
100
AcDbLine
 10
-236.2999995773166
 20
200.6500002313022
 30
0.0
 11
-236.2999995773166
 21
165.6500002313022
 31
0.0
  0
LINE
  5
2EB
330
71
100
AcDbEntity
  8
1
  6
Continuous
 62
     2
100
AcDbLine
 10
-241.2999995773166
 20
220.6500002313022
 30
0.0
 11
-241.2999995773166
 21
165.6500002313022
 31
0.0
  0
LINE
  5
2EC
330
71
100
AcDbEntity
  8
1
  6
Continuous
 62
     2
100
AcDbLine
 10
-241.2999995773166
 20
10.6500002313021
 30
0.0
 11
-236.2999995773157
 21
10.6500002313021
 31
0.0
  0
LINE
  5
2ED
330
71
100
AcDbEntity
  8
1
  6
Continuous
 62
     2
100
AcDbLine
 10
-92.79999957731755
 20
220.6500002313022
 30
0.0
 11
-92.79999957731755
 21
211.4413083866009
 31
0.0
  0
LINE
  5
2EE
330
71
100
AcDbEntity
  8
1
  6
Continuous
 62
     2
100
AcDbLine
 10
-92.79999957731755
 20
220.6500002313022
 30
0.0
 11
-241.2999995773166
 21
220.6500002313022
 31
0.0
  0
LINE
  5
2EF
330
71
100
AcDbEntity
  8
1
  6
Continuous
 62
     2
100
AcDbLine
 10
55.70000042268143
 20
15.65000023130222
 30
0.0
 11
55.70000042268143
 21
65.65000023130233
 31
0.0
  0
LINE
  5
2F0
330
71
100
AcDbEntity
  8
1
  6
Continuous
 62
     2
100
AcDbLine
 10
55.70000042268143
 20
165.6500002313022
 30
0.0
 11
55.70000042268143
 21
220.6500002313022
 31
0.0
  0
LINE
  5
2F1
330
71
100
AcDbEntity
  8
1
  6
Continuous
 62
     6
100
AcDbLine
 10
50.70000042268163
 20
165.6500002313022
 30
0.0
 11
50.70000042268143
 21
200.6500002313022
 31
0.0
  0
LINE
  5
2F2
330
71
100
AcDbEntity
  8
1
  6
Continuous
 62
     2
100
AcDbLine
 10
50.70000042268163
 20
165.6500002313022
 30
0.0
 11
55.70000042268143
 21
165.6500002313022
 31
0.0
  0
LINE
  5
2F3
330
71
100
AcDbEntity
  8
1
  6
Continuous
 62
     2
100
AcDbLine
 10
55.70000042268143
 20
115.6500002313021
 30
0.0
 11
55.70000042268143
 21
165.6500002313022
 31
0.0
  0
LINE
  5
2F4
330
71
100
AcDbEntity
  8
1
  6
Continuous
 62
     6
100
AcDbLine
 10
50.70000042268283
 20
115.6500002313021
 30
0.0
 11
50.70000042268163
 21
165.6500002313022
 31
0.0
  0
LINE
  5
2F5
330
71
100
AcDbEntity
  8
1
  6
Continuous
 62
     2
100
AcDbLine
 10
50.70000042268283
 20
115.6500002313021
 30
0.0
 11
55.70000042268143
 21
115.6500002313021
 31
0.0
  0
LINE
  5
2F6
330
71
100
AcDbEntity
  8
1
  6
Continuous
 62
     2
100
AcDbLine
 10
55.70000042268143
 20
65.65000023130233
 30
0.0
 11
55.70000042268143
 21
115.6500002313021
 31
0.0
  0
LINE
  5
2F7
330
71
100
AcDbEntity
  8
1
  6
Continuous
 62
     6
100
AcDbLine
 10
50.70000042268333
 20
65.65000023130233
 30
0.0
 11
50.70000042268283
 21
115.6500002313021
 31
0.0
  0
LINE
  5
2F8
330
71
100
AcDbEntity
  8
1
  6
Continuous
 62
     2
100
AcDbLine
 10
50.70000042268333
 20
65.65000023130233
 30
0.0
 11
55.70000042268143
 21
65.65000023130233
 31
0.0
  0
LINE
  5
2F9
330
71
100
AcDbEntity
  8
1
  6
Continuous
 62
     6
100
AcDbLine
 10
50.70000042268143
 20
200.6500002313022
 30
0.0
 11
-236.2999995773166
 21
200.6500002313022
 31
0.0
  0
LINE
  5
2FA
330
71
100
AcDbEntity
  8
1
  6
Continuous
 62
     2
100
AcDbLine
 10
55.70000042268143
 20
220.6500002313022
 30
0.0
 11
-92.79999957731755
 21
220.6500002313022
 31
0.0
  0
LINE
  5
2FB
330
71
100
AcDbEntity
  8
1
  6
Continuous
 62
     6
100
AcDbLine
 10
50.70000042268413
 20
32.65000023130222
 30
0.0
 11
50.70000042268333
 21
65.65000023130233
 31
0.0
  0
LINE
  5
2FC
330
71
100
AcDbEntity
  8
1
  6
Continuous
 62
     2
100
AcDbLine
 10
50.70000042268244
 20
10.6500002313021
 30
0.0
 11
7.20000042268242
 21
10.6500002313021
 31
0.0
  0
LINE
  5
2FD
330
71
100
AcDbEntity
  8
1
  6
Continuous
 62
     2
100
AcDbLine
 10
55.70000042268143
 20
10.6500002313021
 30
0.0
 11
50.70000042268244
 21
10.6500002313021
 31
0.0
  0
LINE
  5
2FE
330
71
100
AcDbEntity
  8
1
  6
Continuous
 62
     2
100
AcDbLine
 10
55.70000042268143
 20
10.6500002313021
 30
0.0
 11
55.70000042268143
 21
15.65000023130222
 31
0.0
  0
LINE
  5
2FF
330
71
100
AcDbEntity
  8
1
  6
Continuous
 62
     6
100
AcDbLine
 10
-78.84480410406758
 20
32.65000023130222
 30
0.0
 11
-42.44480410406766
 21
32.65000023130222
 31
0.0
  0
LINE
  5
300
330
71
100
AcDbEntity
  8
1
  6
Continuous
 62
     2
100
AcDbLine
 10
50.70000042268244
 20
15.65000023130222
 30
0.0
 11
50.70000042268244
 21
10.6500002313021
 31
0.0
  0
LINE
  5
301
330
71
100
AcDbEntity
  8
1
  6
Continuous
 62
     2
100
AcDbLine
 10
50.70000042268244
 20
15.65000023130222
 30
0.0
 11
55.70000042268143
 21
15.65000023130222
 31
0.0
  0
LINE
  5
302
330
71
100
AcDbEntity
  8
1
  6
Continuous
 62
     6
100
AcDbLine
 10
-42.79999957731758
 20
15.65000023130222
 30
0.0
 11
-60.64480410406756
 21
15.65000023130222
 31
0.0
  0
LINE
  5
303
330
71
100
AcDbEntity
  8
1
  6
Continuous
 62
     6
100
AcDbLine
 10
7.20000042268242
 20
15.65000023130222
 30
0.0
 11
50.70000042268244
 21
15.65000023130222
 31
0.0
  0
LINE
  5
304
330
71
100
AcDbEntity
  8
1
  6
Continuous
 62
     6
100
AcDbLine
 10
-142.7999995773178
 20
15.65000023130222
 30
0.0
 11
-147.8448041040676
 21
15.65000023130222
 31
0.0
  0
LINE
  5
305
330
71
100
AcDbEntity
  8
1
  6
Continuous
 62
     6
100
AcDbLine
 10
-92.79999957731755
 20
15.65000023130222
 30
0.0
 11
-78.84480410406758
 21
15.6500002313021
 31
0.0
  0
LINE
  5
306
102
{ACAD_REACTORS
330
3F0
330
3F1
102
}
330
71
100
AcDbEntity
  8
0
  6
Continuous
 62
     2
100
AcDbLine
 10
-71.33017816192077
 20
27.72251498751433
 30
0.0
 11
-71.33017816192077
 21
28.32805027602112
 31
0.0
  0
LINE
  5
307
102
{ACAD_REACTORS
330
3F0
330
3F1
102
}
330
71
100
AcDbEntity
  8
0
  6
Continuous
 62
     2
100
AcDbLine
 10
-71.33017816192077
 20
24.92238038088303
 30
0.0
 11
-71.33017816192077
 21
25.50423178757811
 31
0.0
  0
LINE
  5
308
102
{ACAD_REACTORS
330
3F2
330
3F3
102
}
330
71
100
AcDbEntity
  8
0
  6
Continuous
 62
     2
100
AcDbLine
 10
-48.70069172644156
 20
25.21204444900602
 30
0.0
 11
-48.70069172644156
 21
22.94350023131852
 31
0.0
  0
LINE
  5
309
102
{ACAD_REACTORS
330
3F2
330
3F3
102
}
330
71
100
AcDbEntity
  8
0
  6
Continuous
 62
     2
100
AcDbLine
 10
-50.08174550542915
 20
25.99730975512912
 30
0.0
 11
-46.69679998680047
 21
25.99730975512961
 31
0.0
  0
LINE
  5
30A
102
{ACAD_REACTORS
330
3F2
330
3F3
102
}
330
71
100
AcDbEntity
  8
0
  6
Continuous
 62
     2
100
AcDbLine
 10
-46.69679998680047
 20
25.21204444900602
 30
0.0
 11
-46.69679998680047
 21
25.99730975512961
 31
0.0
  0
LINE
  5
30B
102
{ACAD_REACTORS
330
3F2
330
3F3
102
}
330
71
100
AcDbEntity
  8
0
  6
Continuous
 62
     2
100
AcDbLine
 10
-47.50789902427385
 20
25.21204444900602
 30
0.0
 11
-46.69679998680047
 21
25.21204444900602
 31
0.0
  0
LINE
  5
30C
102
{ACAD_REACTORS
330
3F2
330
3F3
102
}
330
71
100
AcDbEntity
  8
0
  6
Continuous
 62
     2
100
AcDbLine
 10
-47.50789902427385
 20
22.94350023131852
 30
0.0
 11
-47.50789902427385
 21
25.21204444900602
 31
0.0
  0
LINE
  5
30D
102
{ACAD_REACTORS
330
3F2
330
3F3
102
}
330
71
100
AcDbEntity
  8
0
  6
Continuous
 62
     2
100
AcDbLine
 10
-48.70069172644156
 20
22.94350023131852
 30
0.0
 11
-47.50789902427385
 21
22.94350023131852
 31
0.0
  0
LINE
  5
30E
102
{ACAD_REACTORS
330
3E8
330
3E9
102
}
330
71
100
AcDbEntity
  8
0
  6
Continuous
 62
     2
100
AcDbLine
 10
-49.39728266450607
 20
29.35650023130401
 30
0.0
 11
-50.80000688225536
 21
29.35650023130401
 31
0.0
  0
LINE
  5
30F
102
{ACAD_REACTORS
330
3E8
330
3E9
102
}
330
71
100
AcDbEntity
  8
0
  6
Continuous
 62
     2
100
AcDbLine
 10
-49.39728266450607
 20
29.35650023130401
 30
0.0
 11
-48.79611514261427
 21
28.67667690974852
 31
0.0
  0
LINE
  5
310
102
{ACAD_REACTORS
330
3E8
330
3E9
102
}
330
71
100
AcDbEntity
  8
0
  6
Continuous
 62
     2
100
AcDbLine
 10
-48.79611514261427
 20
28.67667690974852
 30
0.0
 11
-48.19494762072148
 21
29.35650023130401
 31
0.0
  0
LINE
  5
311
102
{ACAD_REACTORS
330
3E8
330
3E9
102
}
330
71
100
AcDbEntity
  8
0
  6
Continuous
 62
     2
100
AcDbLine
 10
-48.09475303374077
 20
27.88354970126781
 30
0.0
 11
-46.79222340297426
 21
29.35650023130401
 31
0.0
  0
LINE
  5
312
102
{ACAD_REACTORS
330
3E8
330
3E9
102
}
330
71
100
AcDbEntity
  8
0
  6
Continuous
 62
     2
100
AcDbLine
 10
-48.09475303374077
 20
27.88354970126781
 30
0.0
 11
-46.69679998680047
 21
26.30269070749282
 31
0.0
  0
LINE
  5
313
102
{ACAD_REACTORS
330
3E8
330
3E9
102
}
330
71
100
AcDbEntity
  8
0
  6
Continuous
 62
     2
100
AcDbLine
 10
-48.09952420454877
 20
26.30269070749282
 30
0.0
 11
-46.69679998680047
 21
26.30269070749282
 31
0.0
  0
LINE
  5
314
102
{ACAD_REACTORS
330
3E8
330
3E9
102
}
330
71
100
AcDbEntity
  8
0
  6
Continuous
 62
     2
100
AcDbLine
 10
-48.79611514261427
 20
27.09042249278653
 30
0.0
 11
-48.09952420454877
 21
26.30269070749282
 31
0.0
  0
LINE
  5
315
102
{ACAD_REACTORS
330
3E6
330
3E7
102
}
330
71
100
AcDbEntity
  8
0
  6
Continuous
 62
     2
100
AcDbLine
 10
-52.25521397889796
 20
29.35650023130401
 30
0.0
 11
-51.01470956864506
 21
29.35650023130401
 31
0.0
  0
LINE
  5
316
102
{ACAD_REACTORS
330
3E6
330
3E7
102
}
330
71
100
AcDbEntity
  8
0
  6
Continuous
 62
     2
100
AcDbLine
 10
-51.01470956864506
 20
29.35650023130401
 30
0.0
 11
-51.01470956864506
 21
26.30269070749282
 31
0.0
  0
LINE
  5
317
102
{ACAD_REACTORS
330
3E6
330
3E7
102
}
330
71
100
AcDbEntity
  8
0
  6
Continuous
 62
     2
100
AcDbLine
 10
-52.25521397889796
 20
26.30269070749282
 30
0.0
 11
-52.25521397889796
 21
29.35650023130401
 31
0.0
  0
LINE
  5
318
102
{ACAD_REACTORS
330
3E4
330
3E5
102
}
330
71
100
AcDbEntity
  8
0
  6
Continuous
 62
     2
100
AcDbLine
 10
-53.72352406143557
 20
24.16502404084301
 30
0.0
 11
-53.42335882424317
 21
24.93283900682971
 31
0.0
  0
LINE
  5
319
102
{ACAD_REACTORS
330
3E4
330
3E5
102
}
330
71
100
AcDbEntity
  8
0
  6
Continuous
 62
     2
100
AcDbLine
 10
-54.20105966605638
 20
22.94350023131852
 30
0.0
 11
-53.98957961258057
 21
23.48446077553641
 31
0.0
  0
LINE
  5
31A
102
{ACAD_REACTORS
330
3E4
330
3E5
102
}
330
71
100
AcDbEntity
  8
0
  6
Continuous
 62
     2
100
AcDbLine
 10
-54.04361102937006
 20
25.99730975512961
 30
0.0
 11
-55.44156407630936
 21
22.94350023131852
 31
0.0
  0
LINE
  5
31B
102
{ACAD_REACTORS
330
3E4
330
3E5
102
}
330
71
100
AcDbEntity
  8
0
  6
Continuous
 62
     2
100
AcDbLine
 10
-51.40515357217706
 20
22.94350023131852
 30
0.0
 11
-52.64565798243098
 21
22.94350023131852
 31
0.0
  0
LINE
  5
31C
102
{ACAD_REACTORS
330
3E4
330
3E5
102
}
330
71
100
AcDbEntity
  8
0
  6
Continuous
 62
     2
100
AcDbLine
 10
-53.98957961258057
 20
23.48446077553641
 30
0.0
 11
-52.85713803590676
 21
23.48446077553641
 31
0.0
  0
LINE
  5
31D
102
{ACAD_REACTORS
330
3E2
330
3E3
102
}
330
71
100
AcDbEntity
  8
0
  6
Continuous
 62
     2
100
AcDbLine
 10
-57.59907621549158
 20
25.21204444900602
 30
0.0
 11
-56.78797717801697
 21
25.21204444900602
 31
0.0
  0
LINE
  5
31E
102
{ACAD_REACTORS
330
3E2
330
3E3
102
}
330
71
100
AcDbEntity
  8
0
  6
Continuous
 62
     2
100
AcDbLine
 10
-54.78408543837796
 20
25.99730975512961
 30
0.0
 11
-57.59907621549158
 21
25.99730975512961
 31
0.0
  0
LINE
  5
31F
102
{ACAD_REACTORS
330
3E2
330
3E3
102
}
330
71
100
AcDbEntity
  8
0
  6
Continuous
 62
     2
100
AcDbLine
 10
-54.78408543837796
 20
25.21204444900602
 30
0.0
 11
-54.78408543837796
 21
25.99730975512961
 31
0.0
  0
LINE
  5
320
102
{ACAD_REACTORS
330
3E2
330
3E3
102
}
330
71
100
AcDbEntity
  8
0
  6
Continuous
 62
     2
100
AcDbLine
 10
-55.59518447585046
 20
25.21204444900602
 30
0.0
 11
-54.78408543837796
 21
25.21204444900602
 31
0.0
  0
LINE
  5
321
102
{ACAD_REACTORS
330
3E2
330
3E3
102
}
330
71
100
AcDbEntity
  8
0
  6
Continuous
 62
     2
100
AcDbLine
 10
-55.59518447585046
 20
22.94350023131852
 30
0.0
 11
-55.59518447585046
 21
25.21204444900602
 31
0.0
  0
LINE
  5
322
102
{ACAD_REACTORS
330
3E0
330
3E1
102
}
330
71
100
AcDbEntity
  8
0
  6
Continuous
 62
     2
100
AcDbLine
 10
-54.92706963175246
 20
26.30269070749282
 30
0.0
 11
-54.92706963175246
 21
27.61146621769751
 31
0.0
  0
LINE
  5
323
102
{ACAD_REACTORS
330
3E0
330
3E1
102
}
330
71
100
AcDbEntity
  8
0
  6
Continuous
 62
     2
100
AcDbLine
 10
-56.11986233391897
 20
29.35650023130401
 30
0.0
 11
-56.11986233391897
 21
26.30269070749282
 31
0.0
  0
LINE
  5
324
102
{ACAD_REACTORS
330
3E0
330
3E1
102
}
330
71
100
AcDbEntity
  8
0
  6
Continuous
 62
     2
100
AcDbLine
 10
-54.92706963175246
 20
29.35650023130401
 30
0.0
 11
-56.11986233391897
 21
29.35650023130401
 31
0.0
  0
LINE
  5
325
102
{ACAD_REACTORS
330
3E0
330
3E1
102
}
330
71
100
AcDbEntity
  8
0
  6
Continuous
 62
     2
100
AcDbLine
 10
-53.68656522149846
 20
29.35650023130401
 30
0.0
 11
-53.68656522149846
 21
28.04772472109883
 31
0.0
  0
LINE
  5
326
102
{ACAD_REACTORS
330
3DE
330
3DF
102
}
330
71
100
AcDbEntity
  8
0
  6
Continuous
 62
     2
100
AcDbLine
 10
-61.36830115433867
 20
25.99730975512961
 30
0.0
 11
-61.36830115433867
 21
22.94350023131852
 31
0.0
  0
LINE
  5
327
102
{ACAD_REACTORS
330
3DE
330
3DF
102
}
330
71
100
AcDbEntity
  8
0
  6
Continuous
 62
     2
100
AcDbLine
 10
-60.17550845217107
 20
25.99730975512961
 30
0.0
 11
-61.36830115433867
 21
25.99730975512961
 31
0.0
  0
LINE
  5
328
102
{ACAD_REACTORS
330
3DE
330
3DF
102
}
330
71
100
AcDbEntity
  8
0
  6
Continuous
 62
     2
100
AcDbLine
 10
-58.93500404191818
 20
22.94350023131852
 30
0.0
 11
-57.74221133975178
 21
22.94350023131852
 31
0.0
  0
LINE
  5
329
102
{ACAD_REACTORS
330
3DE
330
3DF
102
}
330
71
100
AcDbEntity
  8
0
  6
Continuous
 62
     2
100
AcDbLine
 10
-61.36830115433867
 20
22.94350023131852
 30
0.0
 11
-60.17550845217107
 21
22.94350023131852
 31
0.0
  0
LINE
  5
32A
102
{ACAD_REACTORS
330
3EE
330
3EF
102
}
330
71
100
AcDbEntity
  8
0
  6
Continuous
 62
     2
100
AcDbLine
 10
-57.69434870077956
 20
28.17860227211932
 30
0.0
 11
-57.69434870077956
 21
28.65848662586103
 31
0.0
  0
LINE
  5
32B
102
{ACAD_REACTORS
330
3EE
330
3EF
102
}
330
71
100
AcDbEntity
  8
0
  6
Continuous
 62
     2
100
AcDbLine
 10
-56.35842087435188
 20
28.17860227211932
 30
0.0
 11
-57.69434870077956
 21
28.17860227211932
 31
0.0
  0
LINE
  5
32C
102
{ACAD_REACTORS
330
3EE
330
3EF
102
}
330
71
100
AcDbEntity
  8
0
  6
Continuous
 62
     2
100
AcDbLine
 10
-56.35842087435188
 20
27.48058866667702
 30
0.0
 11
-56.35842087435188
 21
28.17860227211932
 31
0.0
  0
LINE
  5
32D
102
{ACAD_REACTORS
330
3EE
330
3EF
102
}
330
71
100
AcDbEntity
  8
0
  6
Continuous
 62
     2
100
AcDbLine
 10
-57.69434870077956
 20
27.48058866667702
 30
0.0
 11
-56.35842087435188
 21
27.48058866667702
 31
0.0
  0
LINE
  5
32E
102
{ACAD_REACTORS
330
3DC
330
3DD
102
}
330
71
100
AcDbEntity
  8
0
  6
Continuous
 62
     2
100
AcDbLine
 10
-61.17730339110648
 20
29.35650023130401
 30
0.0
 11
-61.17730339110648
 21
26.30269070749282
 31
0.0
  0
LINE
  5
32F
102
{ACAD_REACTORS
330
3DC
330
3DD
102
}
330
71
100
AcDbEntity
  8
0
  6
Continuous
 62
     2
100
AcDbLine
 10
-61.17730339110648
 20
26.30269070749282
 30
0.0
 11
-62.37009609327288
 21
26.30269070749282
 31
0.0
  0
LINE
  5
330
102
{ACAD_REACTORS
330
3DC
330
3DD
102
}
330
71
100
AcDbEntity
  8
0
  6
Continuous
 62
     2
100
AcDbLine
 10
-62.37009609327288
 20
26.30269070749282
 30
0.0
 11
-62.37009609327288
 21
27.43696281633663
 31
0.0
  0
LINE
  5
331
102
{ACAD_REACTORS
330
3DC
330
3DD
102
}
330
71
100
AcDbEntity
  8
0
  6
Continuous
 62
     2
100
AcDbLine
 10
-63.41975367118036
 20
26.30269070749282
 30
0.0
 11
-64.61254637334696
 21
26.30269070749282
 31
0.0
  0
LINE
  5
332
102
{ACAD_REACTORS
330
3DC
330
3DD
102
}
330
71
100
AcDbEntity
  8
0
  6
Continuous
 62
     2
100
AcDbLine
 10
-64.61254637334696
 20
29.35650023130401
 30
0.0
 11
-63.41975367118036
 21
29.35650023130401
 31
0.0
  0
LINE
  5
333
102
{ACAD_REACTORS
330
3DC
330
3DD
102
}
330
71
100
AcDbEntity
  8
0
  6
Continuous
 62
     2
100
AcDbLine
 10
-63.41975367118036
 20
29.35650023130401
 30
0.0
 11
-63.41975367118036
 21
28.28766689796942
 31
0.0
  0
LINE
  5
334
102
{ACAD_REACTORS
330
3DC
330
3DD
102
}
330
71
100
AcDbEntity
  8
0
  6
Continuous
 62
     2
100
AcDbLine
 10
-63.41975367118036
 20
28.28766689796942
 30
0.0
 11
-62.37009609327288
 21
28.28766689796942
 31
0.0
  0
LINE
  5
335
102
{ACAD_REACTORS
330
3EA
330
3EB
102
}
330
71
100
AcDbEntity
  8
0
  6
Continuous
 62
     2
100
AcDbLine
 10
-66.56872640490056
 20
28.69339438586391
 30
0.0
 11
-66.25143134335866
 21
28.69339438586391
 31
0.0
  0
LINE
  5
336
102
{ACAD_REACTORS
330
3EA
330
3EB
102
}
330
71
100
AcDbEntity
  8
0
  6
Continuous
 62
     2
100
AcDbLine
 10
-66.56872640490056
 20
27.9876667365217
 30
0.0
 11
-66.25143134335866
 21
27.9876667365217
 31
0.0
  0
LINE
  5
337
102
{ACAD_REACTORS
330
3EA
330
3EB
102
}
330
71
100
AcDbEntity
  8
0
  6
Continuous
 62
     2
100
AcDbLine
 10
-67.80923081515468
 20
29.35650023130401
 30
0.0
 11
-67.80923081515468
 21
26.30269070749282
 31
0.0
  0
LINE
  5
338
102
{ACAD_REACTORS
330
3EA
330
3EB
102
}
330
71
100
AcDbEntity
  8
0
  6
Continuous
 62
     2
100
AcDbLine
 10
-67.80923081515468
 20
29.35650023130401
 30
0.0
 11
-65.80995881712028
 21
29.35650023130401
 31
0.0
  0
LINE
  5
339
102
{ACAD_REACTORS
330
3EA
330
3EB
102
}
330
71
100
AcDbEntity
  8
0
  6
Continuous
 62
     2
100
AcDbLine
 10
-66.56872640490056
 20
27.24576894863662
 30
0.0
 11
-65.80995881712028
 21
27.24576894863662
 31
0.0
  0
LINE
  5
33A
102
{ACAD_REACTORS
330
3F0
330
3F1
102
}
330
71
100
AcDbEntity
  8
0
  6
Continuous
 62
     2
100
AcDbLine
 10
-73.90572684845137
 20
28.32822775266922
 30
0.0
 11
-73.90572684845137
 21
23.97177270995212
 31
0.0
  0
LINE
  5
33B
102
{ACAD_REACTORS
330
3F0
330
3F1
102
}
330
71
100
AcDbEntity
  8
0
  6
Continuous
 62
     2
100
AcDbLine
 10
-73.59000992537568
 20
28.64394467574542
 30
0.0
 11
-72.11417666436606
 21
28.64394467574542
 31
0.0
  0
LINE
  5
33C
102
{ACAD_REACTORS
330
3F0
330
3F1
102
}
330
71
100
AcDbEntity
  8
0
  6
Continuous
 62
     2
100
AcDbLine
 10
-71.79845974128946
 20
27.72420313360871
 30
0.0
 11
-71.79845974128946
 21
28.32822775266922
 31
0.0
  0
LINE
  5
33D
102
{ACAD_REACTORS
330
3F0
330
3F1
102
}
330
71
100
AcDbEntity
  8
0
  6
Continuous
 62
     2
100
AcDbLine
 10
-71.79845974128946
 20
23.97177270995212
 30
0.0
 11
-71.79845974128946
 21
25.50254364148373
 31
0.0
  0
LINE
  5
33E
102
{ACAD_REACTORS
330
3F0
330
3F1
102
}
330
71
100
AcDbEntity
  8
0
  6
Continuous
 62
     2
100
AcDbLine
 10
-68.71059251140537
 20
22.94350023131852
 30
0.0
 11
-74.18390460212217
 21
22.94350023131852
 31
0.0
  0
LINE
  5
33F
102
{ACAD_REACTORS
330
3F0
330
3F1
102
}
330
71
100
AcDbEntity
  8
0
  6
Continuous
 62
     2
100
AcDbLine
 10
-68.28634789602148
 20
28.93225561590202
 30
0.0
 11
-68.28634789602148
 21
23.36774484670181
 31
0.0
  0
LINE
  5
340
102
{ACAD_REACTORS
330
3F0
330
3F1
102
}
330
71
100
AcDbEntity
  8
0
  6
Continuous
 62
     2
100
AcDbLine
 10
-74.18390460212217
 20
29.35650023128582
 30
0.0
 11
-68.71059251140537
 21
29.35650023128582
 31
0.0
  0
LINE
  5
341
102
{ACAD_REACTORS
330
3F0
330
3F1
102
}
330
71
100
AcDbEntity
  8
0
  6
Continuous
 62
     2
100
AcDbLine
 10
-74.60814921750497
 20
28.93225561590202
 30
0.0
 11
-74.60814921750497
 21
23.36774484670181
 31
0.0
  0
LINE
  5
342
102
{ACAD_REACTORS
330
3F0
330
3F1
102
}
330
71
100
AcDbEntity
  8
0
  6
Continuous
 62
     2
100
AcDbLine
 10
-72.11417666436606
 20
23.65605578687541
 30
0.0
 11
-73.59000992537568
 21
23.65605578687541
 31
0.0
  0
LINE
  5
343
102
{ACAD_REACTORS
330
3EA
330
3EB
102
}
330
71
100
AcDbEntity
  8
0
  6
Continuous
 62
     2
100
AcDbLine
 10
-66.56872640490056
 20
26.30269070749282
 30
0.0
 11
-66.56872640490056
 21
27.24576894863662
 31
0.0
  0
LINE
  5
344
102
{ACAD_REACTORS
330
3EA
330
3EB
102
}
330
71
100
AcDbEntity
  8
0
  6
Continuous
 62
     2
100
AcDbLine
 10
-67.80923081515468
 20
26.30269070749282
 30
0.0
 11
-66.56872640490056
 21
26.30269070749282
 31
0.0
  0
LINE
  5
345
102
{ACAD_REACTORS
330
3EA
330
3EB
102
}
330
71
100
AcDbEntity
  8
0
  6
Continuous
 62
     2
100
AcDbLine
 10
-66.56872640490056
 20
27.9876667365217
 30
0.0
 11
-66.56872640490056
 21
28.69339438586391
 31
0.0
  0
LINE
  5
346
102
{ACAD_REACTORS
330
3DC
330
3DD
102
}
330
71
100
AcDbEntity
  8
0
  6
Continuous
 62
     2
100
AcDbLine
 10
-64.61254637334696
 20
29.35650023130401
 30
0.0
 11
-64.61254637334696
 21
26.30269070749282
 31
0.0
  0
LINE
  5
347
102
{ACAD_REACTORS
330
3DC
330
3DD
102
}
330
71
100
AcDbEntity
  8
0
  6
Continuous
 62
     2
100
AcDbLine
 10
-63.41975367118036
 20
27.43696281633663
 30
0.0
 11
-63.41975367118036
 21
26.30269070749282
 31
0.0
  0
LINE
  5
348
102
{ACAD_REACTORS
330
3DC
330
3DD
102
}
330
71
100
AcDbEntity
  8
0
  6
Continuous
 62
     2
100
AcDbLine
 10
-62.37009609327288
 20
27.43696281633663
 30
0.0
 11
-63.41975367118036
 21
27.43696281633663
 31
0.0
  0
LINE
  5
349
102
{ACAD_REACTORS
330
3DC
330
3DD
102
}
330
71
100
AcDbEntity
  8
0
  6
Continuous
 62
     2
100
AcDbLine
 10
-62.37009609327288
 20
29.35650023130401
 30
0.0
 11
-61.17730339110648
 21
29.35650023130401
 31
0.0
  0
LINE
  5
34A
102
{ACAD_REACTORS
330
3DC
330
3DD
102
}
330
71
100
AcDbEntity
  8
0
  6
Continuous
 62
     2
100
AcDbLine
 10
-62.37009609327288
 20
28.28766689796942
 30
0.0
 11
-62.37009609327288
 21
29.35650023130401
 31
0.0
  0
LINE
  5
34B
102
{ACAD_REACTORS
330
3EE
330
3EF
102
}
330
71
100
AcDbEntity
  8
0
  6
Continuous
 62
     2
100
AcDbLine
 10
-56.35842087435188
 20
28.65848662586103
 30
0.0
 11
-56.35842087435188
 21
29.35650023130401
 31
0.0
  0
LINE
  5
34C
102
{ACAD_REACTORS
330
3EE
330
3EF
102
}
330
71
100
AcDbEntity
  8
0
  6
Continuous
 62
     2
100
AcDbLine
 10
-59.50874059813287
 20
29.35650023130401
 30
0.0
 11
-56.35842087435188
 21
29.35650023130401
 31
0.0
  0
LINE
  5
34D
102
{ACAD_REACTORS
330
3EE
330
3EF
102
}
330
71
100
AcDbEntity
  8
0
  6
Continuous
 62
     2
100
AcDbLine
 10
-59.50874059813287
 20
26.30269070749282
 30
0.0
 11
-56.35842087435188
 21
26.30269070749282
 31
0.0
  0
LINE
  5
34E
102
{ACAD_REACTORS
330
3EE
330
3EF
102
}
330
71
100
AcDbEntity
  8
0
  6
Continuous
 62
     2
100
AcDbLine
 10
-56.35842087435188
 20
26.30269070749282
 30
0.0
 11
-56.35842087435188
 21
27.00070431293531
 31
0.0
  0
LINE
  5
34F
102
{ACAD_REACTORS
330
3EE
330
3EF
102
}
330
71
100
AcDbEntity
  8
0
  6
Continuous
 62
     2
100
AcDbLine
 10
-56.35842087435188
 20
27.00070431293531
 30
0.0
 11
-57.69434870077956
 21
27.00070431293531
 31
0.0
  0
LINE
  5
350
102
{ACAD_REACTORS
330
3EE
330
3EF
102
}
330
71
100
AcDbEntity
  8
0
  6
Continuous
 62
     2
100
AcDbLine
 10
-57.69434870077956
 20
27.00070431293531
 30
0.0
 11
-57.69434870077956
 21
27.48058866667702
 31
0.0
  0
LINE
  5
351
102
{ACAD_REACTORS
330
3EE
330
3EF
102
}
330
71
100
AcDbEntity
  8
0
  6
Continuous
 62
     2
100
AcDbLine
 10
-57.69434870077956
 20
28.65848662586103
 30
0.0
 11
-56.35842087435188
 21
28.65848662586103
 31
0.0
  0
LINE
  5
352
102
{ACAD_REACTORS
330
3DE
330
3DF
102
}
330
71
100
AcDbEntity
  8
0
  6
Continuous
 62
     2
100
AcDbLine
 10
-60.17550845217107
 20
22.94350023131852
 30
0.0
 11
-60.17550845217107
 21
24.25227574152311
 31
0.0
  0
LINE
  5
353
102
{ACAD_REACTORS
330
3DE
330
3DF
102
}
330
71
100
AcDbEntity
  8
0
  6
Continuous
 62
     2
100
AcDbLine
 10
-60.17550845217107
 20
24.25227574152311
 30
0.0
 11
-58.93500404191818
 21
22.94350023131852
 31
0.0
  0
LINE
  5
354
102
{ACAD_REACTORS
330
3DE
330
3DF
102
}
330
71
100
AcDbEntity
  8
0
  6
Continuous
 62
     2
100
AcDbLine
 10
-57.74221133975178
 20
22.94350023131852
 30
0.0
 11
-57.74221133975178
 21
25.99730975512961
 31
0.0
  0
LINE
  5
355
102
{ACAD_REACTORS
330
3DE
330
3DF
102
}
330
71
100
AcDbEntity
  8
0
  6
Continuous
 62
     2
100
AcDbLine
 10
-57.74221133975178
 20
25.99730975512961
 30
0.0
 11
-58.93500404191818
 21
25.99730975512961
 31
0.0
  0
LINE
  5
356
102
{ACAD_REACTORS
330
3DE
330
3DF
102
}
330
71
100
AcDbEntity
  8
0
  6
Continuous
 62
     2
100
AcDbLine
 10
-58.93500404191818
 20
25.99730975512961
 30
0.0
 11
-58.93500404191818
 21
24.68853424492451
 31
0.0
  0
LINE
  5
357
102
{ACAD_REACTORS
330
3DE
330
3DF
102
}
330
71
100
AcDbEntity
  8
0
  6
Continuous
 62
     2
100
AcDbLine
 10
-58.93500404191818
 20
24.68853424492451
 30
0.0
 11
-60.17550845217107
 21
25.99730975512961
 31
0.0
  0
LINE
  5
358
102
{ACAD_REACTORS
330
3E0
330
3E1
102
}
330
71
100
AcDbEntity
  8
0
  6
Continuous
 62
     2
100
AcDbLine
 10
-54.92706963175246
 20
27.61146621769751
 30
0.0
 11
-53.68656522149846
 21
26.30269070749282
 31
0.0
  0
LINE
  5
359
102
{ACAD_REACTORS
330
3E0
330
3E1
102
}
330
71
100
AcDbEntity
  8
0
  6
Continuous
 62
     2
100
AcDbLine
 10
-53.68656522149846
 20
26.30269070749282
 30
0.0
 11
-52.49377251933186
 21
26.30269070749282
 31
0.0
  0
LINE
  5
35A
102
{ACAD_REACTORS
330
3E0
330
3E1
102
}
330
71
100
AcDbEntity
  8
0
  6
Continuous
 62
     2
100
AcDbLine
 10
-52.49377251933186
 20
26.30269070749282
 30
0.0
 11
-52.49377251933186
 21
29.35650023130401
 31
0.0
  0
LINE
  5
35B
102
{ACAD_REACTORS
330
3E0
330
3E1
102
}
330
71
100
AcDbEntity
  8
0
  6
Continuous
 62
     2
100
AcDbLine
 10
-52.49377251933186
 20
29.35650023130401
 30
0.0
 11
-53.68656522149846
 21
29.35650023130401
 31
0.0
  0
LINE
  5
35C
102
{ACAD_REACTORS
330
3E0
330
3E1
102
}
330
71
100
AcDbEntity
  8
0
  6
Continuous
 62
     2
100
AcDbLine
 10
-53.68656522149846
 20
28.04772472109883
 30
0.0
 11
-54.92706963175246
 21
29.35650023130401
 31
0.0
  0
LINE
  5
35D
102
{ACAD_REACTORS
330
3E0
330
3E1
102
}
330
71
100
AcDbEntity
  8
0
  6
Continuous
 62
     2
100
AcDbLine
 10
-56.11986233391897
 20
26.30269070749282
 30
0.0
 11
-54.92706963175246
 21
26.30269070749282
 31
0.0
  0
LINE
  5
35E
102
{ACAD_REACTORS
330
3E2
330
3E3
102
}
330
71
100
AcDbEntity
  8
0
  6
Continuous
 62
     2
100
AcDbLine
 10
-57.59907621549158
 20
25.99730975512961
 30
0.0
 11
-57.59907621549158
 21
25.21204444900602
 31
0.0
  0
LINE
  5
35F
102
{ACAD_REACTORS
330
3E2
330
3E3
102
}
330
71
100
AcDbEntity
  8
0
  6
Continuous
 62
     2
100
AcDbLine
 10
-56.78797717801697
 20
25.21204444900602
 30
0.0
 11
-56.78797717801697
 21
22.94350023131852
 31
0.0
  0
LINE
  5
360
102
{ACAD_REACTORS
330
3E2
330
3E3
102
}
330
71
100
AcDbEntity
  8
0
  6
Continuous
 62
     2
100
AcDbLine
 10
-56.78797717801697
 20
22.94350023131852
 30
0.0
 11
-55.59518447585046
 21
22.94350023131852
 31
0.0
  0
LINE
  5
361
102
{ACAD_REACTORS
330
3E4
330
3E5
102
}
330
71
100
AcDbEntity
  8
0
  6
Continuous
 62
     2
100
AcDbLine
 10
-52.64565798243098
 20
22.94350023131852
 30
0.0
 11
-52.85713803590676
 21
23.48446077553641
 31
0.0
  0
LINE
  5
362
102
{ACAD_REACTORS
330
3E4
330
3E5
102
}
330
71
100
AcDbEntity
  8
0
  6
Continuous
 62
     2
100
AcDbLine
 10
-52.80310661911736
 20
25.99730975512961
 30
0.0
 11
-51.40515357217706
 21
22.94350023131852
 31
0.0
  0
LINE
  5
363
102
{ACAD_REACTORS
330
3E4
330
3E5
102
}
330
71
100
AcDbEntity
  8
0
  6
Continuous
 62
     2
100
AcDbLine
 10
-54.04361102937006
 20
25.99730975512961
 30
0.0
 11
-52.80310661911736
 21
25.99730975512961
 31
0.0
  0
LINE
  5
364
102
{ACAD_REACTORS
330
3E4
330
3E5
102
}
330
71
100
AcDbEntity
  8
0
  6
Continuous
 62
     2
100
AcDbLine
 10
-55.44156407630936
 20
22.94350023131852
 30
0.0
 11
-54.20105966605638
 21
22.94350023131852
 31
0.0
  0
LINE
  5
365
102
{ACAD_REACTORS
330
3E4
330
3E5
102
}
330
71
100
AcDbEntity
  8
0
  6
Continuous
 62
     2
100
AcDbLine
 10
-53.72352406143557
 20
24.16502404084301
 30
0.0
 11
-53.12319358705307
 21
24.16502404084301
 31
0.0
  0
LINE
  5
366
102
{ACAD_REACTORS
330
3E4
330
3E5
102
}
330
71
100
AcDbEntity
  8
0
  6
Continuous
 62
     2
100
AcDbLine
 10
-53.12319358705307
 20
24.16502404084301
 30
0.0
 11
-53.42335882424317
 21
24.93283900682971
 31
0.0
  0
LINE
  5
367
102
{ACAD_REACTORS
330
3E6
330
3E7
102
}
330
71
100
AcDbEntity
  8
0
  6
Continuous
 62
     2
100
AcDbLine
 10
-51.01470956864506
 20
26.30269070749282
 30
0.0
 11
-52.25521397889796
 21
26.30269070749282
 31
0.0
  0
LINE
  5
368
102
{ACAD_REACTORS
330
3E8
330
3E9
102
}
330
71
100
AcDbEntity
  8
0
  6
Continuous
 62
     2
100
AcDbLine
 10
-49.49270608067997
 20
26.30269070749282
 30
0.0
 11
-50.89543029842818
 21
26.30269070749282
 31
0.0
  0
LINE
  5
369
102
{ACAD_REACTORS
330
3E8
330
3E9
102
}
330
71
100
AcDbEntity
  8
0
  6
Continuous
 62
     2
100
AcDbLine
 10
-49.49270608067997
 20
26.30269070749282
 30
0.0
 11
-48.79611514261427
 21
27.09042249278653
 31
0.0
  0
LINE
  5
36A
102
{ACAD_REACTORS
330
3E8
330
3E9
102
}
330
71
100
AcDbEntity
  8
0
  6
Continuous
 62
     2
100
AcDbLine
 10
-48.19494762072148
 20
29.35650023130401
 30
0.0
 11
-46.79222340297426
 21
29.35650023130401
 31
0.0
  0
LINE
  5
36B
102
{ACAD_REACTORS
330
3E8
330
3E9
102
}
330
71
100
AcDbEntity
  8
0
  6
Continuous
 62
     2
100
AcDbLine
 10
-50.80000688225536
 20
29.35650023130401
 30
0.0
 11
-49.49747725148788
 21
27.88354970126781
 31
0.0
  0
LINE
  5
36C
102
{ACAD_REACTORS
330
3E8
330
3E9
102
}
330
71
100
AcDbEntity
  8
0
  6
Continuous
 62
     2
100
AcDbLine
 10
-50.89543029842818
 20
26.30269070749282
 30
0.0
 11
-49.49747725148788
 21
27.88354970126781
 31
0.0
  0
LINE
  5
36D
102
{ACAD_REACTORS
330
3F2
330
3F3
102
}
330
71
100
AcDbEntity
  8
0
  6
Continuous
 62
     2
100
AcDbLine
 10
-49.03467368304825
 20
23.99052063948213
 30
0.0
 11
-49.03467368304825
 21
23.11800363267881
 31
0.0
  0
LINE
  5
36E
102
{ACAD_REACTORS
330
3F2
330
3F3
102
}
330
71
100
AcDbEntity
  8
0
  6
Continuous
 62
     2
100
AcDbLine
 10
-49.80433102600966
 20
25.21204444900602
 30
0.0
 11
-48.70069172644156
 21
25.21204444900602
 31
0.0
  0
LINE
  5
36F
102
{ACAD_REACTORS
330
3F4
330
3F5
102
}
330
71
100
AcDbEntity
  8
0
  6
Continuous
 62
     2
100
AcDbLine
 10
-65.13737516230017
 20
23.99052063948261
 30
0.0
 11
-65.13737516230017
 21
23.1180036326794
 31
0.0
  0
LINE
  5
370
102
{ACAD_REACTORS
330
3F4
330
3F5
102
}
330
71
100
AcDbEntity
  8
0
  6
Continuous
 62
     2
100
AcDbLine
 10
-65.13737516230017
 20
24.95028934696552
 30
0.0
 11
-65.13737516230017
 21
25.82280635376881
 31
0.0
  0
LINE
  5
371
330
71
100
AcDbEntity
  8
1
  6
Continuous
 62
     7
100
AcDbLine
 10
50.70000042268373
 20
24.15000023130222
 30
0.0
 11
-42.44480410406766
 21
24.15000023130222
 31
0.0
  0
LINE
  5
372
330
71
100
AcDbEntity
  8
1
  6
Continuous
 62
     6
100
AcDbLine
 10
-147.8448041040676
 20
15.65000023130222
 30
0.0
 11
-192.7999995773176
 21
15.65000023130222
 31
0.0
  0
LINE
  5
373
330
71
100
AcDbEntity
  8
1
  6
Continuous
 62
     7
100
AcDbLine
 10
41.78159214100492
 20
41.15000023130222
 30
0.0
 11
41.78159214100492
 21
32.65000023130222
 31
0.0
  0
LINE
  5
374
330
71
100
AcDbEntity
  8
1
  6
Continuous
 62
     7
100
AcDbLine
 10
15.28159214100532
 20
41.15000023130222
 30
0.0
 11
15.28159214100532
 21
32.65000023130222
 31
0.0
  0
LINE
  5
375
330
71
100
AcDbEntity
  8
1
  6
Continuous
 62
     7
100
AcDbLine
 10
-42.44480410406766
 20
32.65000023130222
 30
0.0
 11
-42.44480410406766
 21
41.15000023130222
 31
0.0
  0
LINE
  5
376
330
71
100
AcDbEntity
  8
1
  6
Continuous
 62
     7
100
AcDbLine
 10
-78.84480410406758
 20
32.65000023130222
 30
0.0
 11
-78.84480410406758
 21
41.15000023130222
 31
0.0
  0
LINE
  5
377
330
71
100
AcDbEntity
  8
1
  6
Continuous
 62
     6
100
AcDbLine
 10
-42.44480410406766
 20
32.65000023130222
 30
0.0
 11
50.70000042268413
 21
32.65000023130222
 31
0.0
  0
LINE
  5
378
330
71
100
AcDbEntity
  8
1
  6
Continuous
 62
     7
100
AcDbLine
 10
-14.54480410406757
 20
24.15000023130213
 30
0.0
 11
-14.54480410406757
 21
32.65000023130222
 31
0.0
  0
LINE
  5
379
330
71
100
AcDbEntity
  8
1
  6
PHANTOM
 62
     2
100
AcDbLine
 10
-63.35814921750497
 20
36.77500023130213
 30
0.0
 11
-68.85814921750497
 21
36.77500023130213
 31
0.0
  0
LINE
  5
37A
330
71
100
AcDbEntity
  8
1
  6
PHANTOM
 62
     2
100
AcDbLine
 10
-66.10814921750497
 20
39.52500023130213
 30
0.0
 11
-66.10814921750497
 21
34.02500023130213
 31
0.0
  0
LINE
  5
37B
330
71
100
AcDbEntity
  8
1
  6
DOT_CENTER
 62
     2
100
AcDbLine
 10
-74.85814921750497
 20
36.77500023130213
 30
0.0
 11
-69.35814921750497
 21
36.77500023130213
 31
0.0
  0
ARC
  5
37C
102
{ACAD_REACTORS
330
3F4
330
3F5
102
}
330
71
100
AcDbEntity
  8
0
  6
Continuous
 62
     2
100
AcDbCircle
 10
-66.47330307941797
 20
21.15772404796792
 30
0.0
 40
4.852596863498064
100
AcDbArc
 50
74.02000874164737
 51
84.84185523037506
  0
ARC
  5
37D
102
{ACAD_REACTORS
330
3F4
330
3F5
102
}
330
71
100
AcDbEntity
  8
0
  6
Continuous
 62
     2
100
AcDbCircle
 10
-65.89726247066426
 20
24.31348440385222
 30
0.0
 40
0.9059297849853194
100
AcDbArc
 50
71.55192388185341
 51
113.372277888129
  0
ARC
  5
37E
102
{ACAD_REACTORS
330
3F4
330
3F5
102
}
330
71
100
AcDbEntity
  8
0
  6
Continuous
 62
     2
100
AcDbCircle
 10
-66.05370250336628
 20
24.26533356388532
 30
0.0
 40
0.5115800601948034
100
AcDbArc
 50
208.5214732576956
 51
246.6277221118272
  0
ARC
  5
37F
102
{ACAD_REACTORS
330
3F4
330
3F5
102
}
330
71
100
AcDbEntity
  8
0
  6
Continuous
 62
     2
100
AcDbCircle
 10
-65.89726247066426
 20
24.62732558259532
 30
0.0
 40
0.905929784984916
100
AcDbArc
 50
246.6277221118709
 51
288.4480761181586
  0
ARC
  5
380
102
{ACAD_REACTORS
330
3F4
330
3F5
102
}
330
71
100
AcDbEntity
  8
0
  6
Continuous
 62
     2
100
AcDbCircle
 10
-66.31543020432505
 20
25.8808713586325
 30
0.0
 40
2.227384008972727
100
AcDbArc
 50
288.4480761181329
 51
301.9309089499593
  0
ARC
  5
381
102
{ACAD_REACTORS
330
3F0
330
3F1
102
}
330
71
100
AcDbEntity
  8
0
  6
Continuous
 62
     2
100
AcDbCircle
 10
-71.54050393693186
 20
26.61337338754652
 30
0.0
 40
0.911848150144459
100
AcDbArc
 50
295.3740086781764
 51
64.62599132180736
  0
ARC
  5
382
102
{ACAD_REACTORS
330
3F0
330
3F1
102
}
330
71
100
AcDbEntity
  8
0
  6
Continuous
 62
     2
100
AcDbCircle
 10
-71.01446123884398
 20
28.32805027602112
 30
0.0
 40
0.315716923076064
100
AcDbArc
 50
90.18896704254594
 51
180.0
  0
ARC
  5
383
102
{ACAD_REACTORS
330
3F2
330
3F3
102
}
330
71
100
AcDbEntity
  8
0
  6
Continuous
 62
     2
100
AcDbCircle
 10
-49.80433102600966
 20
24.25752144217992
 30
0.0
 40
0.954523006826097
100
AcDbArc
 50
90.0
 51
109.3371432194321
  0
ARC
  5
384
102
{ACAD_REACTORS
330
3F2
330
3F3
102
}
330
71
100
AcDbEntity
  8
0
  6
Continuous
 62
     2
100
AcDbCircle
 10
-49.57364376603198
 20
24.47040499322381
 30
0.0
 40
0.9410597353348844
100
AcDbArc
 50
151.4785267423624
 51
208.5214732576697
  0
ARC
  5
385
102
{ACAD_REACTORS
330
3F2
330
3F3
102
}
330
71
100
AcDbEntity
  8
0
  6
Continuous
 62
     2
100
AcDbCircle
 10
-49.79456099141027
 20
24.62732558259532
 30
0.0
 40
0.905929784985274
100
AcDbArc
 50
246.6277221118186
 51
288.4480761180818
  0
ARC
  5
386
102
{ACAD_REACTORS
330
3F2
330
3F3
102
}
330
71
100
AcDbEntity
  8
0
  6
Continuous
 62
     2
100
AcDbCircle
 10
-50.21272872507217
 20
25.88087135863191
 30
0.0
 40
2.227384008972744
100
AcDbArc
 50
288.4480761181333
 51
301.9309089499399
  0
ARC
  5
387
102
{ACAD_REACTORS
330
3F2
330
3F3
102
}
330
71
100
AcDbEntity
  8
0
  6
Continuous
 62
     2
100
AcDbCircle
 10
-50.37060160016497
 20
27.78308593848021
 30
0.0
 40
4.852596863498824
100
AcDbArc
 50
275.1581447696362
 51
285.9799912583387
  0
ARC
  5
388
102
{ACAD_REACTORS
330
3F2
330
3F3
102
}
330
71
100
AcDbEntity
  8
0
  6
Continuous
 62
     2
100
AcDbCircle
 10
-50.08174550542915
 20
24.58319535525862
 30
0.0
 40
1.639695123940453
100
AcDbArc
 50
195.0618917771009
 51
275.158144769676
  0
ARC
  5
389
102
{ACAD_REACTORS
330
3EA
330
3EB
102
}
330
71
100
AcDbEntity
  8
0
  6
Continuous
 62
     2
100
AcDbCircle
 10
-65.80995881712028
 20
28.30113458997033
 30
0.0
 40
1.055365641333712
100
AcDbArc
 50
270.0
 51
90.0
  0
ARC
  5
38A
102
{ACAD_REACTORS
330
3F0
330
3F1
102
}
330
71
100
AcDbEntity
  8
0
  6
Continuous
 62
     2
100
AcDbCircle
 10
-73.59000992537568
 20
23.97177270995212
 30
0.0
 40
0.3157169230756836
100
AcDbArc
 50
180.0
 51
270.0
  0
ARC
  5
38B
102
{ACAD_REACTORS
330
3F0
330
3F1
102
}
330
71
100
AcDbEntity
  8
0
  6
Continuous
 62
     2
100
AcDbCircle
 10
-72.11417666436606
 20
28.32822775266922
 30
0.0
 40
0.315716923076593
100
AcDbArc
 50
0.0
 51
90.0
  0
ARC
  5
38C
102
{ACAD_REACTORS
330
3F0
330
3F1
102
}
330
71
100
AcDbEntity
  8
0
  6
Continuous
 62
     2
100
AcDbCircle
 10
-72.11417666436606
 20
27.72420313360871
 30
0.0
 40
0.3157169230761203
100
AcDbArc
 50
295.1944106485397
 51
0.0
  0
ARC
  5
38D
102
{ACAD_REACTORS
330
3F0
330
3F1
102
}
330
71
100
AcDbEntity
  8
0
  6
Continuous
 62
     2
100
AcDbCircle
 10
-72.11417666436606
 20
23.97177270995212
 30
0.0
 40
0.3157169230767103
100
AcDbArc
 50
270.0
 51
0.0
  0
ARC
  5
38E
102
{ACAD_REACTORS
330
3F0
330
3F1
102
}
330
71
100
AcDbEntity
  8
0
  6
Continuous
 62
     2
100
AcDbCircle
 10
-74.18390460212217
 20
28.93225561590202
 30
0.0
 40
0.4242446153838024
100
AcDbArc
 50
90.0
 51
180.0
  0
ARC
  5
38F
102
{ACAD_REACTORS
330
3F0
330
3F1
102
}
330
71
100
AcDbEntity
  8
0
  6
Continuous
 62
     2
100
AcDbCircle
 10
-68.71059251140537
 20
28.93225561590202
 30
0.0
 40
0.4242446153838841
100
AcDbArc
 50
0.0
 51
90.0
  0
ARC
  5
390
102
{ACAD_REACTORS
330
3F0
330
3F1
102
}
330
71
100
AcDbEntity
  8
0
  6
Continuous
 62
     2
100
AcDbCircle
 10
-68.71059251140537
 20
23.36774484670181
 30
0.0
 40
0.4242446153832908
100
AcDbArc
 50
270.0
 51
0.0
  0
ARC
  5
391
102
{ACAD_REACTORS
330
3EE
330
3EF
102
}
330
71
100
AcDbEntity
  8
0
  6
Continuous
 62
     2
100
AcDbCircle
 10
-59.49220862431386
 20
27.82959546939813
 30
0.0
 40
0.7717997786796351
100
AcDbArc
 50
321.879580202844
 51
38.12041979715978
  0
ARC
  5
392
102
{ACAD_REACTORS
330
3EE
330
3EF
102
}
330
71
100
AcDbEntity
  8
0
  6
Continuous
 62
     2
100
AcDbCircle
 10
-59.29246858796768
 20
27.67286429127771
 30
0.0
 40
0.5179085730134315
100
AcDbArc
 50
218.1204197971516
 51
321.8795802028571
  0
ARC
  5
393
102
{ACAD_REACTORS
330
3EC
330
3ED
102
}
330
71
100
AcDbEntity
  8
0
  6
Continuous
 62
     2
100
AcDbCircle
 10
-62.97247617692787
 20
24.47040499322381
 30
0.0
 40
1.458034083652003
100
AcDbArc
 50
297.548148175701
 51
62.45185182429896
  0
ARC
  5
394
102
{ACAD_REACTORS
330
3EC
330
3ED
102
}
330
71
100
AcDbEntity
  8
0
  6
Continuous
 62
     2
100
AcDbCircle
 10
-63.53435596059447
 20
24.47040499322381
 30
0.0
 40
1.45803408365149
100
AcDbArc
 50
117.5481481756624
 51
242.4518518243375
  0
ARC
  5
395
102
{ACAD_REACTORS
330
3EC
330
3ED
102
}
330
71
100
AcDbEntity
  8
0
  6
Continuous
 62
     2
100
AcDbCircle
 10
-63.25341606876117
 20
23.93182998292102
 30
0.0
 40
2.065479772208564
100
AcDbArc
 50
62.45185182430632
 51
117.5481481756664
  0
ARC
  5
396
102
{ACAD_REACTORS
330
3EC
330
3ED
102
}
330
71
100
AcDbEntity
  8
0
  6
Continuous
 62
     2
100
AcDbCircle
 10
-63.25341606876117
 20
25.00898000352711
 30
0.0
 40
2.065479772208505
100
AcDbArc
 50
242.4518518243401
 51
297.5481481756871
  0
ARC
  5
397
102
{ACAD_REACTORS
330
3EE
330
3EF
102
}
330
71
100
AcDbEntity
  8
0
  6
Continuous
 62
     2
100
AcDbCircle
 10
-59.09272855162138
 20
27.82959546939813
 30
0.0
 40
0.7717997786796745
100
AcDbArc
 50
141.8795802028402
 51
218.120419797156
  0
ARC
  5
398
102
{ACAD_REACTORS
330
3EE
330
3EF
102
}
330
71
100
AcDbEntity
  8
0
  6
Continuous
 62
     2
100
AcDbCircle
 10
-59.29246858796768
 20
27.98632664751861
 30
0.0
 40
0.5179085730135343
100
AcDbArc
 50
38.12041979714316
 51
141.8795802028481
  0
ARC
  5
399
102
{ACAD_REACTORS
330
3F0
330
3F1
102
}
330
71
100
AcDbEntity
  8
0
  6
Continuous
 62
     2
100
AcDbCircle
 10
-74.18390460212217
 20
23.36774484670181
 30
0.0
 40
0.4242446153828041
100
AcDbArc
 50
180.0
 51
270.0
  0
ARC
  5
39A
102
{ACAD_REACTORS
330
3F0
330
3F1
102
}
330
71
100
AcDbEntity
  8
0
  6
Continuous
 62
     2
100
AcDbCircle
 10
-72.11417666436606
 20
25.50254364148373
 30
0.0
 40
0.315716923076593
100
AcDbArc
 50
0.0
 51
64.80558935146027
  0
ARC
  5
39B
102
{ACAD_REACTORS
330
3F0
330
3F1
102
}
330
71
100
AcDbEntity
  8
0
  6
Continuous
 62
     2
100
AcDbCircle
 10
-71.59159221679107
 20
26.61337338754652
 30
0.0
 40
0.9118975235576114
100
AcDbArc
 50
115.1944106485283
 51
244.8055893514878
  0
ARC
  5
39C
102
{ACAD_REACTORS
330
3F0
330
3F1
102
}
330
71
100
AcDbEntity
  8
0
  6
Continuous
 62
     2
100
AcDbCircle
 10
-73.59000992537568
 20
28.32822775266922
 30
0.0
 40
0.3157169230761987
100
AcDbArc
 50
90.0
 51
180.0
  0
ARC
  5
39D
102
{ACAD_REACTORS
330
3EA
330
3EB
102
}
330
71
100
AcDbEntity
  8
0
  6
Continuous
 62
     2
100
AcDbCircle
 10
-66.25143134335866
 20
28.34053056119282
 30
0.0
 40
0.3528638246711218
100
AcDbArc
 50
270.0
 51
90.0
  0
ARC
  5
39E
102
{ACAD_REACTORS
330
3EE
330
3EF
102
}
330
71
100
AcDbEntity
  8
0
  6
Continuous
 62
     2
100
AcDbCircle
 10
-59.50874059813287
 20
27.82959546939813
 30
0.0
 40
1.526904761905882
100
AcDbArc
 50
90.0
 51
270.0
  0
ARC
  5
39F
102
{ACAD_REACTORS
330
3F2
330
3F3
102
}
330
71
100
AcDbEntity
  8
0
  6
Continuous
 62
     2
100
AcDbCircle
 10
-50.08174550542915
 20
24.35761463118891
 30
0.0
 40
1.639695123940211
100
AcDbArc
 50
90.0
 51
164.938108222895
  0
ARC
  5
3A0
102
{ACAD_REACTORS
330
3F2
330
3F3
102
}
330
71
100
AcDbEntity
  8
0
  6
Continuous
 62
     2
100
AcDbCircle
 10
-50.50087334889076
 20
24.47040499322381
 30
0.0
 40
1.205656168393009
100
AcDbArc
 50
164.9381082229029
 51
195.0618917770957
  0
ARC
  5
3A1
102
{ACAD_REACTORS
330
3F2
330
3F3
102
}
330
71
100
AcDbEntity
  8
0
  6
Continuous
 62
     2
100
AcDbCircle
 10
-49.95100102411337
 20
24.26533356388532
 30
0.0
 40
0.5115800601960153
100
AcDbArc
 50
208.521473257687
 51
246.6277221118447
  0
ARC
  5
3A2
102
{ACAD_REACTORS
330
3F2
330
3F3
102
}
330
71
100
AcDbEntity
  8
0
  6
Continuous
 62
     2
100
AcDbCircle
 10
-49.95100102411337
 20
24.67547642256281
 30
0.0
 40
0.5115800601944109
100
AcDbArc
 50
109.3371432194854
 51
151.4785267424224
  0
ARC
  5
3A3
102
{ACAD_REACTORS
330
3F0
330
3F1
102
}
330
71
100
AcDbEntity
  8
0
  6
Continuous
 62
     2
100
AcDbCircle
 10
-71.01446123884398
 20
24.92238038088303
 30
0.0
 40
0.315716923076792
100
AcDbArc
 50
180.0
 51
269.8110329574542
  0
ARC
  5
3A4
102
{ACAD_REACTORS
330
3F0
330
3F1
102
}
330
71
100
AcDbEntity
  8
0
  6
Continuous
 62
     2
100
AcDbCircle
 10
-71.00884510353396
 20
26.62521532845202
 30
0.0
 40
2.018561131933266
100
AcDbArc
 50
269.8110329575858
 51
90.18896704241416
  0
ARC
  5
3A5
102
{ACAD_REACTORS
330
3F0
330
3F1
102
}
330
71
100
AcDbEntity
  8
0
  6
Continuous
 62
     2
100
AcDbCircle
 10
-71.01446123884398
 20
27.72251498751433
 30
0.0
 40
0.315716923076792
100
AcDbArc
 50
180.0
 51
244.6259913216482
  0
ARC
  5
3A6
102
{ACAD_REACTORS
330
3F0
330
3F1
102
}
330
71
100
AcDbEntity
  8
0
  6
Continuous
 62
     2
100
AcDbCircle
 10
-71.01446123884398
 20
25.50423178757811
 30
0.0
 40
0.3157169230765328
100
AcDbArc
 50
115.3740086783519
 51
180.0
  0
ARC
  5
3A7
102
{ACAD_REACTORS
330
3F4
330
3F5
102
}
330
71
100
AcDbEntity
  8
0
  6
Continuous
 62
     2
100
AcDbCircle
 10
-66.18444698468207
 20
24.35761463118891
 30
0.0
 40
1.639695123940507
100
AcDbArc
 50
84.84185523036236
 51
164.9381082228864
  0
ARC
  5
3A8
102
{ACAD_REACTORS
330
3F4
330
3F5
102
}
330
71
100
AcDbEntity
  8
0
  6
Continuous
 62
     2
100
AcDbCircle
 10
-66.60357482814487
 20
24.47040499322381
 30
0.0
 40
1.205656168390944
100
AcDbArc
 50
164.9381082228765
 51
195.061891777095
  0
ARC
  5
3A9
102
{ACAD_REACTORS
330
3F4
330
3F5
102
}
330
71
100
AcDbEntity
  8
0
  6
Continuous
 62
     2
100
AcDbCircle
 10
-66.18444698468207
 20
24.58319535525862
 30
0.0
 40
1.639695123939387
100
AcDbArc
 50
195.0618917770896
 51
275.1581447696395
  0
ARC
  5
3AA
102
{ACAD_REACTORS
330
3F4
330
3F5
102
}
330
71
100
AcDbEntity
  8
0
  6
Continuous
 62
     2
100
AcDbCircle
 10
-66.47330307941797
 20
27.78308593848021
 30
0.0
 40
4.852596863498134
100
AcDbArc
 50
275.1581447696249
 51
285.9799912583529
  0
ARC
  5
3AB
102
{ACAD_REACTORS
330
3F4
330
3F5
102
}
330
71
100
AcDbEntity
  8
0
  6
Continuous
 62
     2
100
AcDbCircle
 10
-65.67634524528597
 20
24.47040499322381
 30
0.0
 40
0.9410597353332545
100
AcDbArc
 50
151.4785267422669
 51
208.5214732577057
  0
ARC
  5
3AC
102
{ACAD_REACTORS
330
3F4
330
3F5
102
}
330
71
100
AcDbEntity
  8
0
  6
Continuous
 62
     2
100
AcDbCircle
 10
-66.05370250336628
 20
24.67547642256281
 30
0.0
 40
0.5115800601948811
100
AcDbArc
 50
113.372277888199
 51
151.4785267423044
  0
ARC
  5
3AD
102
{ACAD_REACTORS
330
3F4
330
3F5
102
}
330
71
100
AcDbEntity
  8
0
  6
Continuous
 62
     2
100
AcDbCircle
 10
-66.31543020432505
 20
23.05993862781563
 30
0.0
 40
2.227384008973474
100
AcDbArc
 50
58.06909105004068
 51
71.55192388186722
  0
ARC
  5
3AE
102
{ACAD_REACTORS
330
3EC
330
3ED
102
}
330
71
100
AcDbEntity
  8
0
  6
Continuous
 62
     2
100
AcDbCircle
 10
-63.25341606876117
 20
24.62713617134432
 30
0.0
 40
0.5179085730132976
100
AcDbArc
 50
38.12041979714672
 51
141.8795802028591
  0
ARC
  5
3AF
102
{ACAD_REACTORS
330
3EC
330
3ED
102
}
330
71
100
AcDbEntity
  8
0
  6
Continuous
 62
     2
100
AcDbCircle
 10
-63.05367603241507
 20
24.47040499322381
 30
0.0
 40
0.771799778679461
100
AcDbArc
 50
141.8795802028365
 51
218.1204197971687
  0
ARC
  5
3B0
102
{ACAD_REACTORS
330
3EC
330
3ED
102
}
330
71
100
AcDbEntity
  8
0
  6
Continuous
 62
     2
100
AcDbCircle
 10
-63.25341606876117
 20
24.31367381510381
 30
0.0
 40
0.5179085730137354
100
AcDbArc
 50
218.1204197971931
 51
321.879580202801
  0
ARC
  5
3B1
102
{ACAD_REACTORS
330
3EC
330
3ED
102
}
330
71
100
AcDbEntity
  8
0
  6
Continuous
 62
     2
100
AcDbCircle
 10
-63.45315610510758
 20
24.47040499322381
 30
0.0
 40
0.7717997786796947
100
AcDbArc
 50
321.8795802028417
 51
38.12041979715308
  0
CIRCLE
  5
3B2
330
71
100
AcDbEntity
  8
1
  6
Continuous
 62
     2
100
AcDbCircle
 10
-66.10814921750497
 20
36.77500023130213
 30
0.0
 40
2.5
  0
CIRCLE
  5
3B3
330
71
100
AcDbEntity
  8
1
  6
Continuous
 62
     2
100
AcDbCircle
 10
-66.10814921750497
 20
36.77500023130213
 30
0.0
 40
1.249999999999915
  0
CIRCLE
  5
3B4
102
{ACAD_REACTORS
330
3F0
330
3F1
102
}
330
71
100
AcDbEntity
  8
0
  6
Continuous
 62
     2
100
AcDbCircle
 10
-71.56431895160466
 20
26.61337338754652
 30
0.0
 40
0.4709789327785074
  0
MTEXT
  5
3B5
330
71
100
AcDbEntity
  8
1
 62
     3
100
AcDbMText
 10
-236.2949317912458
 20
202.441308386601
 30
0.0
 40
1.8
 41
0.0
 71
     7
 72
     1
  3
Weitergabe sowie Vervielf\U+00e4ltigung dieses Dokuments, Verwertung und \PMitteilung seines Inhalts sind verboten, soweit nicht ausdr\U+00fccklich gestattet. \PZuwiderhandlungen verpflichten zu Schadenersatz. Alle Rechte f\U+00fcr den Fall\Pder Pat
  1
ent-, Gebrauchsmuster- oder Designeintragung vorbehalten.
  7
CONVERTER_11
 73
     1
 44
0.99639855942377
  0
MTEXT
  5
3B6
330
71
100
AcDbEntity
  8
1
 62
     3
100
AcDbMText
 10
-53.44182195245767
 20
202.441308386601
 30
0.0
 40
1.8
 41
0.0
 71
     7
 72
     1
  3
Transfer or duplication of this document as well as the utilisation or\Pcommunication of its content are not permitted unless express consent\Pis granted. Violations give rise to claims for damages. All rights reserved\Pin case of patent, utility mo
  1
del or design patent registrations.
  7
CONVERTER_11
 73
     1
 44
0.99639855942377
  0
TEXT
  5
3B7
330
71
100
AcDbEntity
  8
1
 62
     2
100
AcDbText
 10
-59.64480410406776
 20
16.8909830163106
 30
0.0
 40
1.8
  1
of
 41
0.9
  7
CONVERTER_11
100
AcDbText
  0
TEXT
  5
3B8
330
71
100
AcDbEntity
  8
1
 62
     2
100
AcDbText
 10
-77.84480410406758
 20
16.89098301631054
 30
0.0
 40
1.8
  1
page
 41
0.9
  7
CONVERTER_11
100
AcDbText
  0
TEXT
  5
3B9
330
71
100
AcDbEntity
  8
1
 62
     2
100
AcDbText
 10
-69.19853913372557
 20
16.85075157750021
 30
0.0
 40
1.8
  1
1
 41
0.9
  7
CONVERTER_11
100
AcDbText
  0
TEXT
  5
3BA
330
71
100
AcDbEntity
  8
1
 62
     2
100
AcDbText
 10
-54.40949529425407
 20
16.9000002313021
 30
0.0
 40
1.8
  1
1
 41
0.9
  7
CONVERTER_11
100
AcDbText
  0
MTEXT
  5
3BC
330
71
100
AcDbEntity
  8
1
 62
     7
100
AcDbMText
 10
4.12759815930792
 20
18.90000023130244
 30
0.0
 40
3.0
 41
0.0
 71
     5
 72
     1
  1
F-MS 12 ST
  7
CONVERTER_12
 73
     1
 44
1.20048019207683
  0
MTEXT
  5
3BD
330
71
100
AcDbEntity
  8
1
 62
     2
100
AcDbMText
 10
-41.44480410406766
 20
23.15000023130222
 30
0.0
 40
1.8
 41
0.0
 71
     1
 72
     1
  1
description
  7
CONVERTER_11
 73
     1
 44
1.20048019207683
  0
MTEXT
  5
3BE
330
71
100
AcDbEntity
  8
1
 62
     3
100
AcDbMText
 10
-52.64480410406767
 20
36.77500023130222
 30
0.0
 40
2.5
 41
0.0
 71
     5
 72
     1
  1
DIN A4
  7
CONVERTER_11
 73
     1
 44
1.20048019207683
  0
MTEXT
  5
3BF
330
71
100
AcDbEntity
  8
1
 62
     7
100
AcDbMText
 10
-238.7999995773166
 20
38.15000023130222
 30
0.0
 40
3.5
 41
0.0
 71
     5
 72
     1
  1
D
  7
CONVERTER_11
 73
     1
 44
1.20048019207683
  0
MTEXT
  5
3C0
330
71
100
AcDbEntity
  8
1
 62
     7
100
AcDbMText
 10
-238.7999995773166
 20
90.65000023130222
 30
0.0
 40
3.5
 41
0.0
 71
     5
 72
     1
  1
C
  7
CONVERTER_11
 73
     1
 44
1.20048019207683
  0
MTEXT
  5
3C1
330
71
100
AcDbEntity
  8
1
 62
     7
100
AcDbMText
 10
-238.7999995773166
 20
140.6500002313022
 30
0.0
 40
3.5
 41
0.0
 71
     5
 72
     1
  1
B
  7
CONVERTER_11
 73
     1
 44
1.20048019207683
  0
MTEXT
  5
3C2
330
71
100
AcDbEntity
  8
1
 62
     7
100
AcDbMText
 10
-238.7999995773166
 20
193.1500002313022
 30
0.0
 40
3.5
 41
0.0
 71
     5
 72
     1
  1
A
  7
CONVERTER_11
 73
     1
 44
1.20048019207683
  0
MTEXT
  5
3C3
330
71
100
AcDbEntity
  8
1
 62
     7
100
AcDbMText
 10
31.45000042268163
 20
13.1500002313021
 30
0.0
 40
3.5
 41
0.0
 71
     5
 72
     1
  1
6
  7
CONVERTER_11
 73
     1
 44
1.20048019207683
  0
MTEXT
  5
3C4
330
71
100
AcDbEntity
  8
1
 62
     7
100
AcDbMText
 10
-17.79999957731758
 20
13.1500002313021
 30
0.0
 40
3.5
 41
0.0
 71
     5
 72
     1
  1
5
  7
CONVERTER_11
 73
     1
 44
1.20048019207683
  0
MTEXT
  5
3C5
330
71
100
AcDbEntity
  8
1
 62
     7
100
AcDbMText
 10
-67.79999957731766
 20
13.1500002313021
 30
0.0
 40
3.5
 41
0.0
 71
     5
 72
     1
  1
4
  7
CONVERTER_11
 73
     1
 44
1.20048019207683
  0
MTEXT
  5
3C6
330
71
100
AcDbEntity
  8
1
 62
     7
100
AcDbMText
 10
-117.7999995773176
 20
13.1500002313021
 30
0.0
 40
3.5
 41
0.0
 71
     5
 72
     1
  1
3
  7
CONVERTER_11
 73
     1
 44
1.20048019207683
  0
MTEXT
  5
3C7
330
71
100
AcDbEntity
  8
1
 62
     7
100
AcDbMText
 10
-167.7999995773176
 20
13.1500002313021
 30
0.0
 40
3.5
 41
0.0
 71
     5
 72
     1
  1
2
  7
CONVERTER_11
 73
     1
 44
1.20048019207683
  0
MTEXT
  5
3C8
330
71
100
AcDbEntity
  8
1
 62
     7
100
AcDbMText
 10
-217.0499995773172
 20
13.1500002313021
 30
0.0
 40
3.5
 41
0.0
 71
     5
 72
     1
  1
1
  7
CONVERTER_11
 73
     1
 44
1.20048019207683
  0
MTEXT
  5
3C9
330
71
100
AcDbEntity
  8
1
 62
     7
100
AcDbMText
 10
53.20000042268143
 20
38.15000023130222
 30
0.0
 40
3.5
 41
0.0
 71
     5
 72
     1
  1
D
  7
CONVERTER_11
 73
     1
 44
1.20048019207683
  0
MTEXT
  5
3CA
330
71
100
AcDbEntity
  8
1
 62
     7
100
AcDbMText
 10
53.20000042268143
 20
140.6500002313041
 30
0.0
 40
3.5
 41
0.0
 71
     5
 72
     1
  1
B
  7
CONVERTER_11
 73
     1
 44
1.20048019207683
  0
MTEXT
  5
3CB
330
71
100
AcDbEntity
  8
1
 62
     7
100
AcDbMText
 10
53.20000042268143
 20
193.1500002313022
 30
0.0
 40
3.5
 41
0.0
 71
     5
 72
     1
  1
A
  7
CONVERTER_11
 73
     1
 44
1.20048019207683
  0
MTEXT
  5
3CC
330
71
100
AcDbEntity
  8
1
 62
     7
100
AcDbMText
 10
53.20000042268143
 20
90.65000023130412
 30
0.0
 40
3.5
 41
0.0
 71
     5
 72
     1
  1
C
  7
CONVERTER_11
 73
     1
 44
1.20048019207683
  0
MTEXT
  5
3CD
330
71
100
AcDbEntity
  8
1
 62
     2
100
AcDbMText
 10
-113.2828188291151
 20
28.40000023130213
 30
0.0
 40
2.0
 41
0.0
 71
     5
 72
     1
  1
General Information\P- Simplified representation\P- Document excluded from change process\P- Linear dimensions [mm]
  7
CONVERTER_11
 73
     1
 44
1.20048019207683
  0
TEXT
  5
3CE
330
71
100
AcDbEntity
  8
1
 62
     7
100
AcDbText
 10
-40.94480410406786
 20
25.45000023130211
 30
0.0
 40
2.5
  1
2817990
 41
0.81
  7
CONVERTER_12
100
AcDbText
  0
MTEXT
  5
3CF
330
71
100
AcDbEntity
  8
1
 62
     2
100
AcDbMText
 10
-41.34480410406758
 20
31.65000023130222
 30
0.0
 40
1.8
 41
0.0
 71
     1
 72
     1
  1
ident.-No.
  7
CONVERTER_11
 73
     1
 44
1.20048019207683
  0
MTEXT
  5
3D0
330
71
100
AcDbEntity
  8
1
 62
     2
100
AcDbMText
 10
42.88159214100514
 20
40.15000023130222
 30
0.0
 40
1.8
 41
0.0
 71
     1
 72
     1
  1
scale
  7
CONVERTER_11
 73
     1
 44
1.20048019207683
  0
MTEXT
  5
3D2
330
71
100
AcDbEntity
  8
1
 62
     3
100
AcDbMText
 10
46.24079628184474
 20
33.95000023130231
 30
0.0
 40
2.5
 41
0.0
 71
     8
 72
     1
  1
1:1
  7
CONVERTER_13
 73
     1
 44
1.32052821128451
  0
TEXT
  5
3D3
330
71
100
AcDbEntity
  8
1
 62
     7
100
AcDbText
 10
-41.34480410406758
 20
33.95000023130211
 30
0.0
 40
2.5
  1
00359291
 41
0.81
  7
CONVERTER_12
100
AcDbText
  0
MTEXT
  5
3D5
330
71
100
AcDbEntity
  8
1
 62
     2
100
AcDbMText
 10
-41.34480410406758
 20
40.15000023130222
 30
0.0
 40
1.8
 41
0.0
 71
     1
 72
     1
  1
document-No. / RI
  7
CONVERTER_14
 73
     1
 44
1.32052821128451
  0
TEXT
  5
3D6
330
71
100
AcDbEntity
  8
1
 62
     3
100
AcDbText
 10
-13.54480410406757
 20
25.45000023130211
 30
0.0
 40
2.5
  1
TECDOC 2D_Productdrawing
 41
0.81
  7
CONVERTER_12
100
AcDbText
  0
MTEXT
  5
3D7
330
71
100
AcDbEntity
  8
1
 62
     2
100
AcDbMText
 10
-13.54480410406757
 20
31.65000023130213
 30
0.0
 40
1.8
 41
0.0
 71
     1
 72
     1
  1
document-type
  7
CONVERTER_11
 73
     1
 44
1.20048019207683
  0
MTEXT
  5
3D8
330
71
100
AcDbEntity
  8
1
 62
     2
100
AcDbMText
 10
16.28159214100532
 20
40.15000023130213
 30
0.0
 40
1.8
 41
0.0
 71
     1
 72
     1
  1
date
  7
CONVERTER_11
 73
     1
 44
1.32052821128451
  0
TEXT
  5
3D9
330
71
100
AcDbEntity
  8
1
 62
     3
100
AcDbText
 10
16.28159214100532
 20
33.95000023130211
 30
0.0
 40
2.5
  1
29.01.2018
 41
0.81
  7
CONVERTER_12
100
AcDbText
  0
TEXT
  5
3DA
330
71
100
AcDbEntity
  8
1
 62
     7
100
AcDbText
 10
-21.31489188501178
 20
33.95000023130211
 30
0.0
 40
2.5
  1
01
 41
0.81
  7
CONVERTER_12
100
AcDbText
  0
TEXT
  5
3DB
330
71
100
AcDbEntity
  8
1
 62
     7
100
AcDbText
 10
-23.47125638205378
 20
33.95000023130211
 30
0.0
 40
2.5
  1
/
 41
0.9
  7
CONVERTER_11
100
AcDbText
  0
HATCH
  5
3DC
330
71
100
AcDbEntity
  8
1
  6
Continuous
 62
     2
100
AcDbHatch
 10
0.0
 20
0.0
 30
0.0
210
0.0
220
0.0
230
1.0
  2
_USER
 70
     0
 71
     1
 91
        1
 92
        1
 93
       12
 72
     1
 10
-61.17730339110648
 20
26.30269070749282
 11
-62.37009609327288
 21
26.30269070749282
 72
     1
 10
-62.37009609327288
 20
26.30269070749282
 11
-62.37009609327288
 21
27.43696281633663
 72
     1
 10
-62.37009609327288
 20
27.43696281633663
 11
-63.41975367118036
 21
27.43696281633663
 72
     1
 10
-63.41975367118036
 20
27.43696281633663
 11
-63.41975367118036
 21
26.30269070749282
 72
     1
 10
-63.41975367118036
 20
26.30269070749282
 11
-64.61254637334696
 21
26.30269070749282
 72
     1
 10
-64.61254637334696
 20
26.30269070749282
 11
-64.61254637334696
 21
29.35650023130401
 72
     1
 10
-64.61254637334696
 20
29.35650023130401
 11
-63.41975367118036
 21
29.35650023130401
 72
     1
 10
-63.41975367118036
 20
29.35650023130401
 11
-63.41975367118036
 21
28.28766689796942
 72
     1
 10
-63.41975367118036
 20
28.28766689796942
 11
-62.37009609327288
 21
28.28766689796942
 72
     1
 10
-62.37009609327288
 20
28.28766689796942
 11
-62.37009609327288
 21
29.35650023130401
 72
     1
 10
-62.37009609327288
 20
29.35650023130401
 11
-61.17730339110648
 21
29.35650023130401
 72
     1
 10
-61.17730339110648
 20
29.35650023130401
 11
-61.17730339110648
 21
26.30269070749282
 97
       12
330
349
330
34A
330
334
330
333
330
332
330
346
330
331
330
347
330
348
330
330
330
32F
330
32E
 75
     1
 76
     0
 52
45.0
 41
0.1
 77
     0
 78
     1
 53
45.0
 43
0.0
 44
0.0
 45
-0.0707106781186548
 46
0.0707106781186548
 79
     0
 98
        1
 10
0.0
 20
0.0
  0
HATCH
  5
3DD
330
71
100
AcDbEntity
  8
1
  6
Continuous
 62
     2
100
AcDbHatch
 10
0.0
 20
0.0
 30
0.0
210
0.0
220
0.0
230
1.0
  2
_USER
 70
     0
 71
     1
 91
        1
 92
        1
 93
       12
 72
     1
 10
-61.17730339110648
 20
26.30269070749282
 11
-62.37009609327288
 21
26.30269070749282
 72
     1
 10
-62.37009609327288
 20
26.30269070749282
 11
-62.37009609327288
 21
27.43696281633663
 72
     1
 10
-62.37009609327288
 20
27.43696281633663
 11
-63.41975367118036
 21
27.43696281633663
 72
     1
 10
-63.41975367118036
 20
27.43696281633663
 11
-63.41975367118036
 21
26.30269070749282
 72
     1
 10
-63.41975367118036
 20
26.30269070749282
 11
-64.61254637334696
 21
26.30269070749282
 72
     1
 10
-64.61254637334696
 20
26.30269070749282
 11
-64.61254637334696
 21
29.35650023130401
 72
     1
 10
-64.61254637334696
 20
29.35650023130401
 11
-63.41975367118036
 21
29.35650023130401
 72
     1
 10
-63.41975367118036
 20
29.35650023130401
 11
-63.41975367118036
 21
28.28766689796942
 72
     1
 10
-63.41975367118036
 20
28.28766689796942
 11
-62.37009609327288
 21
28.28766689796942
 72
     1
 10
-62.37009609327288
 20
28.28766689796942
 11
-62.37009609327288
 21
29.35650023130401
 72
     1
 10
-62.37009609327288
 20
29.35650023130401
 11
-61.17730339110648
 21
29.35650023130401
 72
     1
 10
-61.17730339110648
 20
29.35650023130401
 11
-61.17730339110648
 21
26.30269070749282
 97
       12
330
349
330
34A
330
334
330
333
330
332
330
346
330
331
330
347
330
348
330
330
330
32F
330
32E
 75
     1
 76
     0
 52
45.0
 41
0.1
 77
     0
 78
     1
 53
45.0
 43
0.0
 44
0.0
 45
-0.0707106781186548
 46
0.0707106781186548
 79
     0
 98
        1
 10
0.0
 20
0.0
  0
HATCH
  5
3DE
330
71
100
AcDbEntity
  8
1
  6
Continuous
 62
     2
100
AcDbHatch
 10
0.0
 20
0.0
 30
0.0
210
0.0
220
0.0
230
1.0
  2
_USER
 70
     0
 71
     1
 91
        1
 92
        1
 93
       10
 72
     1
 10
-58.93500404191818
 20
24.68853424492451
 11
-60.17550845217107
 21
25.99730975512961
 72
     1
 10
-60.17550845217107
 20
25.99730975512961
 11
-61.36830115433867
 21
25.99730975512961
 72
     1
 10
-61.36830115433867
 20
25.99730975512961
 11
-61.36830115433867
 21
22.94350023131852
 72
     1
 10
-61.36830115433867
 20
22.94350023131852
 11
-60.17550845217107
 21
22.94350023131852
 72
     1
 10
-60.17550845217107
 20
22.94350023131852
 11
-60.17550845217107
 21
24.25227574152311
 72
     1
 10
-60.17550845217107
 20
24.25227574152311
 11
-58.93500404191818
 21
22.94350023131852
 72
     1
 10
-58.93500404191818
 20
22.94350023131852
 11
-57.74221133975178
 21
22.94350023131852
 72
     1
 10
-57.74221133975178
 20
22.94350023131852
 11
-57.74221133975178
 21
25.99730975512961
 72
     1
 10
-57.74221133975178
 20
25.99730975512961
 11
-58.93500404191818
 21
25.99730975512961
 72
     1
 10
-58.93500404191818
 20
25.99730975512961
 11
-58.93500404191818
 21
24.68853424492451
 97
       10
330
357
330
327
330
326
330
329
330
352
330
353
330
328
330
354
330
355
330
356
 75
     1
 76
     0
 52
45.0
 41
0.1
 77
     0
 78
     1
 53
45.0
 43
0.0
 44
0.0
 45
-0.0707106781186548
 46
0.0707106781186548
 79
     0
 98
        1
 10
0.0
 20
0.0
  0
HATCH
  5
3DF
330
71
100
AcDbEntity
  8
1
  6
Continuous
 62
     2
100
AcDbHatch
 10
0.0
 20
0.0
 30
0.0
210
0.0
220
0.0
230
1.0
  2
_USER
 70
     0
 71
     1
 91
        1
 92
        1
 93
       10
 72
     1
 10
-58.93500404191818
 20
24.68853424492451
 11
-60.17550845217107
 21
25.99730975512961
 72
     1
 10
-60.17550845217107
 20
25.99730975512961
 11
-61.36830115433867
 21
25.99730975512961
 72
     1
 10
-61.36830115433867
 20
25.99730975512961
 11
-61.36830115433867
 21
22.94350023131852
 72
     1
 10
-61.36830115433867
 20
22.94350023131852
 11
-60.17550845217107
 21
22.94350023131852
 72
     1
 10
-60.17550845217107
 20
22.94350023131852
 11
-60.17550845217107
 21
24.25227574152311
 72
     1
 10
-60.17550845217107
 20
24.25227574152311
 11
-58.93500404191818
 21
22.94350023131852
 72
     1
 10
-58.93500404191818
 20
22.94350023131852
 11
-57.74221133975178
 21
22.94350023131852
 72
     1
 10
-57.74221133975178
 20
22.94350023131852
 11
-57.74221133975178
 21
25.99730975512961
 72
     1
 10
-57.74221133975178
 20
25.99730975512961
 11
-58.93500404191818
 21
25.99730975512961
 72
     1
 10
-58.93500404191818
 20
25.99730975512961
 11
-58.93500404191818
 21
24.68853424492451
 97
       10
330
357
330
327
330
326
330
329
330
352
330
353
330
328
330
354
330
355
330
356
 75
     1
 76
     0
 52
45.0
 41
0.1
 77
     0
 78
     1
 53
45.0
 43
0.0
 44
0.0
 45
-0.0707106781186548
 46
0.0707106781186548
 79
     0
 98
        1
 10
0.0
 20
0.0
  0
HATCH
  5
3E0
330
71
100
AcDbEntity
  8
1
  6
Continuous
 62
     2
100
AcDbHatch
 10
0.0
 20
0.0
 30
0.0
210
0.0
220
0.0
230
1.0
  2
_USER
 70
     0
 71
     1
 91
        1
 92
        1
 93
       10
 72
     1
 10
-53.68656522149846
 20
28.04772472109883
 11
-54.92706963175246
 21
29.35650023130401
 72
     1
 10
-54.92706963175246
 20
29.35650023130401
 11
-56.11986233391897
 21
29.35650023130401
 72
     1
 10
-56.11986233391897
 20
29.35650023130401
 11
-56.11986233391897
 21
26.30269070749282
 72
     1
 10
-56.11986233391897
 20
26.30269070749282
 11
-54.92706963175246
 21
26.30269070749282
 72
     1
 10
-54.92706963175246
 20
26.30269070749282
 11
-54.92706963175246
 21
27.61146621769751
 72
     1
 10
-54.92706963175246
 20
27.61146621769751
 11
-53.68656522149846
 21
26.30269070749282
 72
     1
 10
-53.68656522149846
 20
26.30269070749282
 11
-52.49377251933186
 21
26.30269070749282
 72
     1
 10
-52.49377251933186
 20
26.30269070749282
 11
-52.49377251933186
 21
29.35650023130401
 72
     1
 10
-52.49377251933186
 20
29.35650023130401
 11
-53.68656522149846
 21
29.35650023130401
 72
     1
 10
-53.68656522149846
 20
29.35650023130401
 11
-53.68656522149846
 21
28.04772472109883
 97
       10
330
35C
330
324
330
323
330
35D
330
322
330
358
330
359
330
35A
330
35B
330
325
 75
     1
 76
     0
 52
45.0
 41
0.1
 77
     0
 78
     1
 53
45.0
 43
0.0
 44
0.0
 45
-0.0707106781186548
 46
0.0707106781186548
 79
     0
 98
        1
 10
0.0
 20
0.0
  0
HATCH
  5
3E1
330
71
100
AcDbEntity
  8
1
  6
Continuous
 62
     2
100
AcDbHatch
 10
0.0
 20
0.0
 30
0.0
210
0.0
220
0.0
230
1.0
  2
_USER
 70
     0
 71
     1
 91
        1
 92
        1
 93
       10
 72
     1
 10
-53.68656522149846
 20
28.04772472109883
 11
-54.92706963175246
 21
29.35650023130401
 72
     1
 10
-54.92706963175246
 20
29.35650023130401
 11
-56.11986233391897
 21
29.35650023130401
 72
     1
 10
-56.11986233391897
 20
29.35650023130401
 11
-56.11986233391897
 21
26.30269070749282
 72
     1
 10
-56.11986233391897
 20
26.30269070749282
 11
-54.92706963175246
 21
26.30269070749282
 72
     1
 10
-54.92706963175246
 20
26.30269070749282
 11
-54.92706963175246
 21
27.61146621769751
 72
     1
 10
-54.92706963175246
 20
27.61146621769751
 11
-53.68656522149846
 21
26.30269070749282
 72
     1
 10
-53.68656522149846
 20
26.30269070749282
 11
-52.49377251933186
 21
26.30269070749282
 72
     1
 10
-52.49377251933186
 20
26.30269070749282
 11
-52.49377251933186
 21
29.35650023130401
 72
     1
 10
-52.49377251933186
 20
29.35650023130401
 11
-53.68656522149846
 21
29.35650023130401
 72
     1
 10
-53.68656522149846
 20
29.35650023130401
 11
-53.68656522149846
 21
28.04772472109883
 97
       10
330
35C
330
324
330
323
330
35D
330
322
330
358
330
359
330
35A
330
35B
330
325
 75
     1
 76
     0
 52
45.0
 41
0.1
 77
     0
 78
     1
 53
45.0
 43
0.0
 44
0.0
 45
-0.0707106781186548
 46
0.0707106781186548
 79
     0
 98
        1
 10
0.0
 20
0.0
  0
HATCH
  5
3E2
330
71
100
AcDbEntity
  8
1
  6
Continuous
 62
     2
100
AcDbHatch
 10
0.0
 20
0.0
 30
0.0
210
0.0
220
0.0
230
1.0
  2
_USER
 70
     0
 71
     1
 91
        1
 92
        1
 93
        8
 72
     1
 10
-54.78408543837796
 20
25.99730975512961
 11
-57.59907621549158
 21
25.99730975512961
 72
     1
 10
-57.59907621549158
 20
25.99730975512961
 11
-57.59907621549158
 21
25.21204444900602
 72
     1
 10
-57.59907621549158
 20
25.21204444900602
 11
-56.78797717801697
 21
25.21204444900602
 72
     1
 10
-56.78797717801697
 20
25.21204444900602
 11
-56.78797717801697
 21
22.94350023131852
 72
     1
 10
-56.78797717801697
 20
22.94350023131852
 11
-55.59518447585046
 21
22.94350023131852
 72
     1
 10
-55.59518447585046
 20
22.94350023131852
 11
-55.59518447585046
 21
25.21204444900602
 72
     1
 10
-55.59518447585046
 20
25.21204444900602
 11
-54.78408543837796
 21
25.21204444900602
 72
     1
 10
-54.78408543837796
 20
25.21204444900602
 11
-54.78408543837796
 21
25.99730975512961
 97
        8
330
31E
330
35E
330
31D
330
35F
330
360
330
321
330
320
330
31F
 75
     1
 76
     0
 52
45.0
 41
0.1
 77
     0
 78
     1
 53
45.0
 43
0.0
 44
0.0
 45
-0.0707106781186548
 46
0.0707106781186548
 79
     0
 98
        1
 10
0.0
 20
0.0
  0
HATCH
  5
3E3
330
71
100
AcDbEntity
  8
1
  6
Continuous
 62
     2
100
AcDbHatch
 10
0.0
 20
0.0
 30
0.0
210
0.0
220
0.0
230
1.0
  2
_USER
 70
     0
 71
     1
 91
        1
 92
        1
 93
        8
 72
     1
 10
-54.78408543837796
 20
25.99730975512961
 11
-57.59907621549158
 21
25.99730975512961
 72
     1
 10
-57.59907621549158
 20
25.99730975512961
 11
-57.59907621549158
 21
25.21204444900602
 72
     1
 10
-57.59907621549158
 20
25.21204444900602
 11
-56.78797717801697
 21
25.21204444900602
 72
     1
 10
-56.78797717801697
 20
25.21204444900602
 11
-56.78797717801697
 21
22.94350023131852
 72
     1
 10
-56.78797717801697
 20
22.94350023131852
 11
-55.59518447585046
 21
22.94350023131852
 72
     1
 10
-55.59518447585046
 20
22.94350023131852
 11
-55.59518447585046
 21
25.21204444900602
 72
     1
 10
-55.59518447585046
 20
25.21204444900602
 11
-54.78408543837796
 21
25.21204444900602
 72
     1
 10
-54.78408543837796
 20
25.21204444900602
 11
-54.78408543837796
 21
25.99730975512961
 97
        8
330
31E
330
35E
330
31D
330
35F
330
360
330
321
330
320
330
31F
 75
     1
 76
     0
 52
45.0
 41
0.1
 77
     0
 78
     1
 53
45.0
 43
0.0
 44
0.0
 45
-0.0707106781186548
 46
0.0707106781186548
 79
     0
 98
        1
 10
0.0
 20
0.0
  0
HATCH
  5
3E4
330
71
100
AcDbEntity
  8
1
  6
Continuous
 62
     2
100
AcDbHatch
 10
0.0
 20
0.0
 30
0.0
210
0.0
220
0.0
230
1.0
  2
_USER
 70
     0
 71
     1
 91
        2
 92
        1
 93
        8
 72
     1
 10
-52.64565798243098
 20
22.94350023131852
 11
-52.85713803590676
 21
23.48446077553641
 72
     1
 10
-52.85713803590676
 20
23.48446077553641
 11
-53.98957961258057
 21
23.48446077553641
 72
     1
 10
-53.98957961258057
 20
23.48446077553641
 11
-54.20105966605638
 21
22.94350023131852
 72
     1
 10
-54.20105966605638
 20
22.94350023131852
 11
-55.44156407630936
 21
22.94350023131852
 72
     1
 10
-55.44156407630936
 20
22.94350023131852
 11
-54.04361102937006
 21
25.99730975512961
 72
     1
 10
-54.04361102937006
 20
25.99730975512961
 11
-52.80310661911736
 21
25.99730975512961
 72
     1
 10
-52.80310661911736
 20
25.99730975512961
 11
-51.40515357217706
 21
22.94350023131852
 72
     1
 10
-51.40515357217706
 20
22.94350023131852
 11
-52.64565798243098
 21
22.94350023131852
 97
        8
330
362
330
363
330
31A
330
364
330
319
330
31C
330
361
330
31B
 92
       16
 93
        3
 72
     1
 10
-53.72352406143557
 20
24.16502404084301
 11
-53.42335882424317
 21
24.93283900682971
 72
     1
 10
-53.42335882424317
 20
24.93283900682971
 11
-53.12319358705307
 21
24.16502404084301
 72
     1
 10
-53.12319358705307
 20
24.16502404084301
 11
-53.72352406143557
 21
24.16502404084301
 97
        3
330
318
330
366
330
365
 75
     1
 76
     0
 52
45.0
 41
0.1
 77
     0
 78
     1
 53
45.0
 43
0.0
 44
0.0
 45
-0.0707106781186548
 46
0.0707106781186548
 79
     0
 98
        1
 10
0.0
 20
0.0
  0
HATCH
  5
3E5
330
71
100
AcDbEntity
  8
1
  6
Continuous
 62
     2
100
AcDbHatch
 10
0.0
 20
0.0
 30
0.0
210
0.0
220
0.0
230
1.0
  2
_USER
 70
     0
 71
     1
 91
        2
 92
        1
 93
        8
 72
     1
 10
-52.64565798243098
 20
22.94350023131852
 11
-52.85713803590676
 21
23.48446077553641
 72
     1
 10
-52.85713803590676
 20
23.48446077553641
 11
-53.98957961258057
 21
23.48446077553641
 72
     1
 10
-53.98957961258057
 20
23.48446077553641
 11
-54.20105966605638
 21
22.94350023131852
 72
     1
 10
-54.20105966605638
 20
22.94350023131852
 11
-55.44156407630936
 21
22.94350023131852
 72
     1
 10
-55.44156407630936
 20
22.94350023131852
 11
-54.04361102937006
 21
25.99730975512961
 72
     1
 10
-54.04361102937006
 20
25.99730975512961
 11
-52.80310661911736
 21
25.99730975512961
 72
     1
 10
-52.80310661911736
 20
25.99730975512961
 11
-51.40515357217706
 21
22.94350023131852
 72
     1
 10
-51.40515357217706
 20
22.94350023131852
 11
-52.64565798243098
 21
22.94350023131852
 97
        8
330
362
330
363
330
31A
330
364
330
319
330
31C
330
361
330
31B
 92
       16
 93
        3
 72
     1
 10
-53.72352406143557
 20
24.16502404084301
 11
-53.42335882424317
 21
24.93283900682971
 72
     1
 10
-53.42335882424317
 20
24.93283900682971
 11
-53.12319358705307
 21
24.16502404084301
 72
     1
 10
-53.12319358705307
 20
24.16502404084301
 11
-53.72352406143557
 21
24.16502404084301
 97
        3
330
318
330
366
330
365
 75
     1
 76
     0
 52
45.0
 41
0.1
 77
     0
 78
     1
 53
45.0
 43
0.0
 44
0.0
 45
-0.0707106781186548
 46
0.0707106781186548
 79
     0
 98
        1
 10
0.0
 20
0.0
  0
HATCH
  5
3E6
330
71
100
AcDbEntity
  8
1
  6
Continuous
 62
     2
100
AcDbHatch
 10
0.0
 20
0.0
 30
0.0
210
0.0
220
0.0
230
1.0
  2
_USER
 70
     0
 71
     1
 91
        1
 92
        1
 93
        4
 72
     1
 10
-51.01470956864506
 20
26.30269070749282
 11
-52.25521397889796
 21
26.30269070749282
 72
     1
 10
-52.25521397889796
 20
26.30269070749282
 11
-52.25521397889796
 21
29.35650023130401
 72
     1
 10
-52.25521397889796
 20
29.35650023130401
 11
-51.01470956864506
 21
29.35650023130401
 72
     1
 10
-51.01470956864506
 20
29.35650023130401
 11
-51.01470956864506
 21
26.30269070749282
 97
        4
330
315
330
317
330
367
330
316
 75
     1
 76
     0
 52
45.0
 41
0.1
 77
     0
 78
     1
 53
45.0
 43
0.0
 44
0.0
 45
-0.0707106781186548
 46
0.0707106781186548
 79
     0
 98
        1
 10
0.0
 20
0.0
  0
HATCH
  5
3E7
330
71
100
AcDbEntity
  8
1
  6
Continuous
 62
     2
100
AcDbHatch
 10
0.0
 20
0.0
 30
0.0
210
0.0
220
0.0
230
1.0
  2
_USER
 70
     0
 71
     1
 91
        1
 92
        1
 93
        4
 72
     1
 10
-51.01470956864506
 20
26.30269070749282
 11
-52.25521397889796
 21
26.30269070749282
 72
     1
 10
-52.25521397889796
 20
26.30269070749282
 11
-52.25521397889796
 21
29.35650023130401
 72
     1
 10
-52.25521397889796
 20
29.35650023130401
 11
-51.01470956864506
 21
29.35650023130401
 72
     1
 10
-51.01470956864506
 20
29.35650023130401
 11
-51.01470956864506
 21
26.30269070749282
 97
        4
330
315
330
317
330
367
330
316
 75
     1
 76
     0
 52
45.0
 41
0.1
 77
     0
 78
     1
 53
45.0
 43
0.0
 44
0.0
 45
-0.0707106781186548
 46
0.0707106781186548
 79
     0
 98
        1
 10
0.0
 20
0.0
  0
HATCH
  5
3E8
330
71
100
AcDbEntity
  8
1
  6
Continuous
 62
     2
100
AcDbHatch
 10
0.0
 20
0.0
 30
0.0
210
0.0
220
0.0
230
1.0
  2
_USER
 70
     0
 71
     1
 91
        1
 92
        1
 93
       12
 72
     1
 10
-46.79222340297426
 20
29.35650023130401
 11
-48.09475303374077
 21
27.88354970126781
 72
     1
 10
-48.09475303374077
 20
27.88354970126781
 11
-46.69679998680047
 21
26.30269070749282
 72
     1
 10
-46.69679998680047
 20
26.30269070749282
 11
-48.09952420454877
 21
26.30269070749282
 72
     1
 10
-48.09952420454877
 20
26.30269070749282
 11
-48.79611514261427
 21
27.09042249278653
 72
     1
 10
-48.79611514261427
 20
27.09042249278653
 11
-49.49270608067997
 21
26.30269070749282
 72
     1
 10
-49.49270608067997
 20
26.30269070749282
 11
-50.89543029842818
 21
26.30269070749282
 72
     1
 10
-50.89543029842818
 20
26.30269070749282
 11
-49.49747725148788
 21
27.88354970126781
 72
     1
 10
-49.49747725148788
 20
27.88354970126781
 11
-50.80000688225536
 21
29.35650023130401
 72
     1
 10
-50.80000688225536
 20
29.35650023130401
 11
-49.39728266450607
 21
29.35650023130401
 72
     1
 10
-49.39728266450607
 20
29.35650023130401
 11
-48.79611514261427
 21
28.67667690974852
 72
     1
 10
-48.79611514261427
 20
28.67667690974852
 11
-48.19494762072148
 21
29.35650023130401
 72
     1
 10
-48.19494762072148
 20
29.35650023130401
 11
-46.79222340297426
 21
29.35650023130401
 97
       12
330
310
330
30F
330
30E
330
36B
330
36C
330
368
330
369
330
314
330
313
330
312
330
311
330
36A
 75
     1
 76
     0
 52
45.0
 41
0.1
 77
     0
 78
     1
 53
45.0
 43
0.0
 44
0.0
 45
-0.0707106781186548
 46
0.0707106781186548
 79
     0
 98
        1
 10
0.0
 20
0.0
  0
HATCH
  5
3E9
330
71
100
AcDbEntity
  8
1
  6
Continuous
 62
     2
100
AcDbHatch
 10
0.0
 20
0.0
 30
0.0
210
0.0
220
0.0
230
1.0
  2
_USER
 70
     0
 71
     1
 91
        1
 92
        1
 93
       12
 72
     1
 10
-46.79222340297426
 20
29.35650023130401
 11
-48.09475303374077
 21
27.88354970126781
 72
     1
 10
-48.09475303374077
 20
27.88354970126781
 11
-46.69679998680047
 21
26.30269070749282
 72
     1
 10
-46.69679998680047
 20
26.30269070749282
 11
-48.09952420454877
 21
26.30269070749282
 72
     1
 10
-48.09952420454877
 20
26.30269070749282
 11
-48.79611514261427
 21
27.09042249278653
 72
     1
 10
-48.79611514261427
 20
27.09042249278653
 11
-49.49270608067997
 21
26.30269070749282
 72
     1
 10
-49.49270608067997
 20
26.30269070749282
 11
-50.89543029842818
 21
26.30269070749282
 72
     1
 10
-50.89543029842818
 20
26.30269070749282
 11
-49.49747725148788
 21
27.88354970126781
 72
     1
 10
-49.49747725148788
 20
27.88354970126781
 11
-50.80000688225536
 21
29.35650023130401
 72
     1
 10
-50.80000688225536
 20
29.35650023130401
 11
-49.39728266450607
 21
29.35650023130401
 72
     1
 10
-49.39728266450607
 20
29.35650023130401
 11
-48.79611514261427
 21
28.67667690974852
 72
     1
 10
-48.79611514261427
 20
28.67667690974852
 11
-48.19494762072148
 21
29.35650023130401
 72
     1
 10
-48.19494762072148
 20
29.35650023130401
 11
-46.79222340297426
 21
29.35650023130401
 97
       12
330
310
330
30F
330
30E
330
36B
330
36C
330
368
330
369
330
314
330
313
330
312
330
311
330
36A
 75
     1
 76
     0
 52
45.0
 41
0.1
 77
     0
 78
     1
 53
45.0
 43
0.0
 44
0.0
 45
-0.0707106781186548
 46
0.0707106781186548
 79
     0
 98
        1
 10
0.0
 20
0.0
  0
HATCH
  5
3EA
330
71
100
AcDbEntity
  8
1
  6
Continuous
 62
     2
100
AcDbHatch
 10
0.0
 20
0.0
 30
0.0
210
0.0
220
0.0
230
1.0
  2
_USER
 70
     0
 71
     1
 91
        2
 92
        1
 93
        6
 72
     1
 10
-65.80995881712028
 20
27.24576894863662
 11
-66.56872640490056
 21
27.24576894863662
 72
     1
 10
-66.56872640490056
 20
27.24576894863662
 11
-66.56872640490056
 21
26.30269070749282
 72
     1
 10
-66.56872640490056
 20
26.30269070749282
 11
-67.80923081515468
 21
26.30269070749282
 72
     1
 10
-67.80923081515468
 20
26.30269070749282
 11
-67.80923081515468
 21
29.35650023130401
 72
     1
 10
-67.80923081515468
 20
29.35650023130401
 11
-65.80995881712028
 21
29.35650023130401
 72
     2
 10
-65.80995881712028
 20
28.30113458997033
 40
1.055365641333712
 50
270.0
 51
450.0
 73
     0
 97
        6
330
338
330
337
330
344
330
343
330
339
330
389
 92
       16
 93
        4
 72
     2
 10
-66.25143134335866
 20
28.34053056119282
 40
0.3528638246711218
 50
270.0
 51
450.0
 73
     1
 72
     1
 10
-66.25143134335866
 20
28.69339438586391
 11
-66.56872640490056
 21
28.69339438586391
 72
     1
 10
-66.56872640490056
 20
28.69339438586391
 11
-66.56872640490056
 21
27.9876667365217
 72
     1
 10
-66.56872640490056
 20
27.9876667365217
 11
-66.25143134335866
 21
27.9876667365217
 97
        4
330
39D
330
335
330
345
330
336
 75
     1
 76
     0
 52
45.0
 41
0.1
 77
     0
 78
     1
 53
45.0
 43
0.0
 44
0.0
 45
-0.0707106781186548
 46
0.0707106781186548
 79
     0
 98
        1
 10
0.0
 20
0.0
  0
HATCH
  5
3EB
330
71
100
AcDbEntity
  8
1
  6
Continuous
 62
     2
100
AcDbHatch
 10
0.0
 20
0.0
 30
0.0
210
0.0
220
0.0
230
1.0
  2
_USER
 70
     0
 71
     1
 91
        2
 92
        1
 93
        6
 72
     1
 10
-65.80995881712028
 20
27.24576894863662
 11
-66.56872640490056
 21
27.24576894863662
 72
     1
 10
-66.56872640490056
 20
27.24576894863662
 11
-66.56872640490056
 21
26.30269070749282
 72
     1
 10
-66.56872640490056
 20
26.30269070749282
 11
-67.80923081515468
 21
26.30269070749282
 72
     1
 10
-67.80923081515468
 20
26.30269070749282
 11
-67.80923081515468
 21
29.35650023130401
 72
     1
 10
-67.80923081515468
 20
29.35650023130401
 11
-65.80995881712028
 21
29.35650023130401
 72
     2
 10
-65.80995881712028
 20
28.30113458997033
 40
1.055365641333712
 50
270.0
 51
450.0
 73
     0
 97
        6
330
338
330
337
330
344
330
343
330
339
330
389
 92
       16
 93
        4
 72
     2
 10
-66.25143134335866
 20
28.34053056119282
 40
0.3528638246711218
 50
270.0
 51
450.0
 73
     1
 72
     1
 10
-66.25143134335866
 20
28.69339438586391
 11
-66.56872640490056
 21
28.69339438586391
 72
     1
 10
-66.56872640490056
 20
28.69339438586391
 11
-66.56872640490056
 21
27.9876667365217
 72
     1
 10
-66.56872640490056
 20
27.9876667365217
 11
-66.25143134335866
 21
27.9876667365217
 97
        4
330
39D
330
335
330
345
330
336
 75
     1
 76
     0
 52
45.0
 41
0.1
 77
     0
 78
     1
 53
45.0
 43
0.0
 44
0.0
 45
-0.0707106781186548
 46
0.0707106781186548
 79
     0
 98
        1
 10
0.0
 20
0.0
  0
HATCH
  5
3EC
330
71
100
AcDbEntity
  8
1
  6
Continuous
 62
     2
100
AcDbHatch
 10
0.0
 20
0.0
 30
0.0
210
0.0
220
0.0
230
1.0
  2
_USER
 70
     0
 71
     1
 91
        2
 92
        1
 93
        4
 72
     2
 10
-63.25341606876117
 20
23.93182998292102
 40
2.065479772208564
 50
62.45185182430632
 51
117.5481481756664
 73
     1
 72
     2
 10
-63.53435596059447
 20
24.47040499322381
 40
1.45803408365149
 50
117.5481481756624
 51
242.4518518243375
 73
     1
 72
     2
 10
-63.25341606876117
 20
25.00898000352711
 40
2.065479772208505
 50
242.4518518243401
 51
297.5481481756871
 73
     1
 72
     2
 10
-62.97247617692787
 20
24.47040499322381
 40
1.458034083652003
 50
297.548148175701
 51
422.451851824299
 73
     1
 97
        4
330
395
330
394
330
396
330
393
 92
       16
 93
        4
 72
     2
 10
-63.45315610510758
 20
24.47040499322381
 40
0.7717997786796947
 50
321.8795802028417
 51
398.120419797153
 73
     1
 72
     2
 10
-63.25341606876117
 20
24.62713617134432
 40
0.5179085730132976
 50
38.12041979714672
 51
141.8795802028591
 73
     1
 72
     2
 10
-63.05367603241507
 20
24.47040499322381
 40
0.771799778679461
 50
141.8795802028365
 51
218.1204197971687
 73
     1
 72
     2
 10
-63.25341606876117
 20
24.31367381510381
 40
0.5179085730137354
 50
218.1204197971931
 51
321.879580202801
 73
     1
 97
        4
330
3B1
330
3AE
330
3AF
330
3B0
 75
     1
 76
     0
 52
45.0
 41
0.1
 77
     0
 78
     1
 53
45.0
 43
0.0
 44
0.0
 45
-0.0707106781186548
 46
0.0707106781186548
 79
     0
 98
        1
 10
0.0
 20
0.0
  0
HATCH
  5
3ED
330
71
100
AcDbEntity
  8
1
  6
Continuous
 62
     2
100
AcDbHatch
 10
0.0
 20
0.0
 30
0.0
210
0.0
220
0.0
230
1.0
  2
_USER
 70
     0
 71
     1
 91
        2
 92
        1
 93
        4
 72
     2
 10
-63.25341606876117
 20
23.93182998292102
 40
2.065479772208564
 50
62.45185182430632
 51
117.5481481756664
 73
     1
 72
     2
 10
-63.53435596059447
 20
24.47040499322381
 40
1.45803408365149
 50
117.5481481756624
 51
242.4518518243375
 73
     1
 72
     2
 10
-63.25341606876117
 20
25.00898000352711
 40
2.065479772208505
 50
242.4518518243401
 51
297.5481481756871
 73
     1
 72
     2
 10
-62.97247617692787
 20
24.47040499322381
 40
1.458034083652003
 50
297.548148175701
 51
422.451851824299
 73
     1
 97
        4
330
395
330
394
330
396
330
393
 92
       16
 93
        4
 72
     2
 10
-63.45315610510758
 20
24.47040499322381
 40
0.7717997786796947
 50
321.8795802028417
 51
398.120419797153
 73
     1
 72
     2
 10
-63.25341606876117
 20
24.62713617134432
 40
0.5179085730132976
 50
38.12041979714672
 51
141.8795802028591
 73
     1
 72
     2
 10
-63.05367603241507
 20
24.47040499322381
 40
0.771799778679461
 50
141.8795802028365
 51
218.1204197971687
 73
     1
 72
     2
 10
-63.25341606876117
 20
24.31367381510381
 40
0.5179085730137354
 50
218.1204197971931
 51
321.879580202801
 73
     1
 97
        4
330
3B1
330
3AE
330
3AF
330
3B0
 75
     1
 76
     0
 52
45.0
 41
0.1
 77
     0
 78
     1
 53
45.0
 43
0.0
 44
0.0
 45
-0.0707106781186548
 46
0.0707106781186548
 79
     0
 98
        1
 10
0.0
 20
0.0
  0
HATCH
  5
3EE
330
71
100
AcDbEntity
  8
1
  6
Continuous
 62
     2
100
AcDbHatch
 10
0.0
 20
0.0
 30
0.0
210
0.0
220
0.0
230
1.0
  2
_USER
 70
     0
 71
     1
 91
        2
 92
        1
 93
       12
 72
     1
 10
-56.35842087435188
 20
28.65848662586103
 11
-57.69434870077956
 21
28.65848662586103
 72
     1
 10
-57.69434870077956
 20
28.65848662586103
 11
-57.69434870077956
 21
28.17860227211932
 72
     1
 10
-57.69434870077956
 20
28.17860227211932
 11
-56.35842087435188
 21
28.17860227211932
 72
     1
 10
-56.35842087435188
 20
28.17860227211932
 11
-56.35842087435188
 21
27.48058866667702
 72
     1
 10
-56.35842087435188
 20
27.48058866667702
 11
-57.69434870077956
 21
27.48058866667702
 72
     1
 10
-57.69434870077956
 20
27.48058866667702
 11
-57.69434870077956
 21
27.00070431293531
 72
     1
 10
-57.69434870077956
 20
27.00070431293531
 11
-56.35842087435188
 21
27.00070431293531
 72
     1
 10
-56.35842087435188
 20
27.00070431293531
 11
-56.35842087435188
 21
26.30269070749282
 72
     1
 10
-56.35842087435188
 20
26.30269070749282
 11
-59.50874059813287
 21
26.30269070749282
 72
     2
 10
-59.50874059813287
 20
27.82959546939813
 40
1.526904761905882
 50
90.0
 51
270.0
 73
     0
 72
     1
 10
-59.50874059813287
 20
29.35650023130401
 11
-56.35842087435188
 21
29.35650023130401
 72
     1
 10
-56.35842087435188
 20
29.35650023130401
 11
-56.35842087435188
 21
28.65848662586103
 97
       12
330
34C
330
39E
330
34D
330
34E
330
34F
330
350
330
32D
330
32C
330
32B
330
32A
330
351
330
34B
 92
       16
 93
        4
 72
     2
 10
-59.29246858796768
 20
27.98632664751861
 40
0.5179085730135343
 50
38.12041979714316
 51
141.8795802028481
 73
     1
 72
     2
 10
-59.09272855162138
 20
27.82959546939813
 40
0.7717997786796745
 50
141.8795802028402
 51
218.120419797156
 73
     1
 72
     2
 10
-59.29246858796768
 20
27.67286429127771
 40
0.5179085730134315
 50
218.1204197971516
 51
321.8795802028571
 73
     1
 72
     2
 10
-59.49220862431386
 20
27.82959546939813
 40
0.7717997786796351
 50
321.879580202844
 51
398.1204197971597
 73
     1
 97
        4
330
398
330
397
330
392
330
391
 75
     1
 76
     0
 52
45.0
 41
0.1
 77
     0
 78
     1
 53
45.0
 43
0.0
 44
0.0
 45
-0.0707106781186548
 46
0.0707106781186548
 79
     0
 98
        1
 10
0.0
 20
0.0
  0
HATCH
  5
3EF
330
71
100
AcDbEntity
  8
1
  6
Continuous
 62
     2
100
AcDbHatch
 10
0.0
 20
0.0
 30
0.0
210
0.0
220
0.0
230
1.0
  2
_USER
 70
     0
 71
     1
 91
        2
 92
        1
 93
       12
 72
     1
 10
-56.35842087435188
 20
28.65848662586103
 11
-57.69434870077956
 21
28.65848662586103
 72
     1
 10
-57.69434870077956
 20
28.65848662586103
 11
-57.69434870077956
 21
28.17860227211932
 72
     1
 10
-57.69434870077956
 20
28.17860227211932
 11
-56.35842087435188
 21
28.17860227211932
 72
     1
 10
-56.35842087435188
 20
28.17860227211932
 11
-56.35842087435188
 21
27.48058866667702
 72
     1
 10
-56.35842087435188
 20
27.48058866667702
 11
-57.69434870077956
 21
27.48058866667702
 72
     1
 10
-57.69434870077956
 20
27.48058866667702
 11
-57.69434870077956
 21
27.00070431293531
 72
     1
 10
-57.69434870077956
 20
27.00070431293531
 11
-56.35842087435188
 21
27.00070431293531
 72
     1
 10
-56.35842087435188
 20
27.00070431293531
 11
-56.35842087435188
 21
26.30269070749282
 72
     1
 10
-56.35842087435188
 20
26.30269070749282
 11
-59.50874059813287
 21
26.30269070749282
 72
     2
 10
-59.50874059813287
 20
27.82959546939813
 40
1.526904761905882
 50
90.0
 51
270.0
 73
     0
 72
     1
 10
-59.50874059813287
 20
29.35650023130401
 11
-56.35842087435188
 21
29.35650023130401
 72
     1
 10
-56.35842087435188
 20
29.35650023130401
 11
-56.35842087435188
 21
28.65848662586103
 97
       12
330
34C
330
39E
330
34D
330
34E
330
34F
330
350
330
32D
330
32C
330
32B
330
32A
330
351
330
34B
 92
       16
 93
        4
 72
     2
 10
-59.29246858796768
 20
27.98632664751861
 40
0.5179085730135343
 50
38.12041979714316
 51
141.8795802028481
 73
     1
 72
     2
 10
-59.09272855162138
 20
27.82959546939813
 40
0.7717997786796745
 50
141.8795802028402
 51
218.120419797156
 73
     1
 72
     2
 10
-59.29246858796768
 20
27.67286429127771
 40
0.5179085730134315
 50
218.1204197971516
 51
321.8795802028571
 73
     1
 72
     2
 10
-59.49220862431386
 20
27.82959546939813
 40
0.7717997786796351
 50
321.879580202844
 51
398.1204197971597
 73
     1
 97
        4
330
398
330
397
330
392
330
391
 75
     1
 76
     0
 52
45.0
 41
0.1
 77
     0
 78
     1
 53
45.0
 43
0.0
 44
0.0
 45
-0.0707106781186548
 46
0.0707106781186548
 79
     0
 98
        1
 10
0.0
 20
0.0
  0
HATCH
  5
3F0
330
71
100
AcDbEntity
  8
1
  6
Continuous
 62
     2
100
AcDbHatch
 10
0.0
 20
0.0
 30
0.0
210
0.0
220
0.0
230
1.0
  2
_USER
 70
     0
 71
     1
 91
        4
 92
        1
 93
        8
 72
     1
 10
-68.28634789602148
 20
28.93225561590202
 11
-68.28634789602148
 21
23.36774484670181
 72
     2
 10
-68.71059251140537
 20
23.36774484670181
 40
0.4242446153832908
 50
0.0
 51
90.0
 73
     0
 72
     1
 10
-68.71059251140537
 20
22.94350023131852
 11
-74.18390460212217
 21
22.94350023131852
 72
     2
 10
-74.18390460212217
 20
23.36774484670181
 40
0.4242446153828041
 50
90.0
 51
180.0
 73
     0
 72
     1
 10
-74.60814921750497
 20
23.36774484670181
 11
-74.60814921750497
 21
28.93225561590202
 72
     2
 10
-74.18390460212217
 20
28.93225561590202
 40
0.4242446153838024
 50
180.0
 51
270.0
 73
     0
 72
     1
 10
-74.18390460212217
 20
29.35650023128582
 11
-68.71059251140537
 21
29.35650023128582
 72
     2
 10
-68.71059251140537
 20
28.93225561590202
 40
0.4242446153838841
 50
270.0
 51
360.0
 73
     0
 97
        8
330
340
330
38E
330
341
330
399
330
33E
330
390
330
33F
330
38F
 92
       16
 93
        1
 72
     2
 10
-71.56431895160466
 20
26.61337338754652
 40
0.4709789327785074
 50
0.0
 51
360.0
 73
     1
 97
        1
330
3B4
 92
       16
 93
        8
 72
     2
 10
-71.01446123884398
 20
25.50423178757811
 40
0.3157169230765328
 50
115.3740086783519
 51
180.0
 73
     1
 72
     1
 10
-71.33017816192077
 20
25.50423178757811
 11
-71.33017816192077
 21
24.92238038088303
 72
     2
 10
-71.01446123884398
 20
24.92238038088303
 40
0.315716923076792
 50
180.0
 51
269.8110329574542
 73
     1
 72
     2
 10
-71.00884510353396
 20
26.62521532845202
 40
2.018561131933266
 50
269.8110329575858
 51
450.1889670424142
 73
     1
 72
     2
 10
-71.01446123884398
 20
28.32805027602112
 40
0.315716923076064
 50
90.18896704254594
 51
180.0
 73
     1
 72
     1
 10
-71.33017816192077
 20
28.32805027602112
 11
-71.33017816192077
 21
27.72251498751433
 72
     2
 10
-71.01446123884398
 20
27.72251498751433
 40
0.315716923076792
 50
180.0
 51
244.6259913216482
 73
     1
 72
     2
 10
-71.54050393693186
 20
26.61337338754652
 40
0.911848150144459
 50
295.3740086781926
 51
424.6259913218236
 73
     0
 97
        8
330
3A6
330
307
330
3A3
330
3A4
330
382
330
306
330
3A5
330
381
 92
       16
 93
       12
 72
     2
 10
-73.59000992537568
 20
23.97177270995212
 40
0.3157169230756836
 50
180.0
 51
270.0
 73
     1
 72
     1
 10
-73.59000992537568
 20
23.65605578687541
 11
-72.11417666436606
 21
23.65605578687541
 72
     2
 10
-72.11417666436606
 20
23.97177270995212
 40
0.3157169230767103
 50
270.0
 51
360.0
 73
     1
 72
     1
 10
-71.79845974128946
 20
23.97177270995212
 11
-71.79845974128946
 21
25.50254364148373
 72
     2
 10
-72.11417666436606
 20
25.50254364148373
 40
0.315716923076593
 50
0.0
 51
64.80558935146027
 73
     1
 72
     2
 10
-71.59159221679107
 20
26.61337338754652
 40
0.9118975235576114
 50
115.1944106485122
 51
244.8055893514717
 73
     0
 72
     2
 10
-72.11417666436606
 20
27.72420313360871
 40
0.3157169230761203
 50
295.1944106485397
 51
360.0
 73
     1
 72
     1
 10
-71.79845974128946
 20
27.72420313360871
 11
-71.79845974128946
 21
28.32822775266922
 72
     2
 10
-72.11417666436606
 20
28.32822775266922
 40
0.315716923076593
 50
0.0
 51
90.0
 73
     1
 72
     1
 10
-72.11417666436606
 20
28.64394467574542
 11
-73.59000992537568
 21
28.64394467574542
 72
     2
 10
-73.59000992537568
 20
28.32822775266922
 40
0.3157169230761987
 50
90.0
 51
180.0
 73
     1
 72
     1
 10
-73.90572684845137
 20
28.32822775266922
 11
-73.90572684845137
 21
23.97177270995212
 97
       12
330
38A
330
342
330
38D
330
33D
330
39A
330
39B
330
38C
330
33C
330
38B
330
33B
330
39C
330
33A
 75
     1
 76
     0
 52
45.0
 41
0.1
 77
     0
 78
     1
 53
45.0
 43
0.0
 44
0.0
 45
-0.0707106781186548
 46
0.0707106781186548
 79
     0
 98
        1
 10
0.0
 20
0.0
  0
HATCH
  5
3F1
330
71
100
AcDbEntity
  8
1
  6
Continuous
 62
     2
100
AcDbHatch
 10
0.0
 20
0.0
 30
0.0
210
0.0
220
0.0
230
1.0
  2
_USER
 70
     0
 71
     1
 91
        4
 92
        1
 93
        8
 72
     1
 10
-68.28634789602148
 20
28.93225561590202
 11
-68.28634789602148
 21
23.36774484670181
 72
     2
 10
-68.71059251140537
 20
23.36774484670181
 40
0.4242446153832908
 50
0.0
 51
90.0
 73
     0
 72
     1
 10
-68.71059251140537
 20
22.94350023131852
 11
-74.18390460212217
 21
22.94350023131852
 72
     2
 10
-74.18390460212217
 20
23.36774484670181
 40
0.4242446153828041
 50
90.0
 51
180.0
 73
     0
 72
     1
 10
-74.60814921750497
 20
23.36774484670181
 11
-74.60814921750497
 21
28.93225561590202
 72
     2
 10
-74.18390460212217
 20
28.93225561590202
 40
0.4242446153838024
 50
180.0
 51
270.0
 73
     0
 72
     1
 10
-74.18390460212217
 20
29.35650023128582
 11
-68.71059251140537
 21
29.35650023128582
 72
     2
 10
-68.71059251140537
 20
28.93225561590202
 40
0.4242446153838841
 50
270.0
 51
360.0
 73
     0
 97
        8
330
340
330
38E
330
341
330
399
330
33E
330
390
330
33F
330
38F
 92
       16
 93
        1
 72
     2
 10
-71.56431895160466
 20
26.61337338754652
 40
0.4709789327785074
 50
0.0
 51
360.0
 73
     1
 97
        1
330
3B4
 92
       16
 93
        8
 72
     2
 10
-71.01446123884398
 20
25.50423178757811
 40
0.3157169230765328
 50
115.3740086783519
 51
180.0
 73
     1
 72
     1
 10
-71.33017816192077
 20
25.50423178757811
 11
-71.33017816192077
 21
24.92238038088303
 72
     2
 10
-71.01446123884398
 20
24.92238038088303
 40
0.315716923076792
 50
180.0
 51
269.8110329574542
 73
     1
 72
     2
 10
-71.00884510353396
 20
26.62521532845202
 40
2.018561131933266
 50
269.8110329575858
 51
450.1889670424142
 73
     1
 72
     2
 10
-71.01446123884398
 20
28.32805027602112
 40
0.315716923076064
 50
90.18896704254594
 51
180.0
 73
     1
 72
     1
 10
-71.33017816192077
 20
28.32805027602112
 11
-71.33017816192077
 21
27.72251498751433
 72
     2
 10
-71.01446123884398
 20
27.72251498751433
 40
0.315716923076792
 50
180.0
 51
244.6259913216482
 73
     1
 72
     2
 10
-71.54050393693186
 20
26.61337338754652
 40
0.911848150144459
 50
295.3740086781926
 51
424.6259913218236
 73
     0
 97
        8
330
3A6
330
307
330
3A3
330
3A4
330
382
330
306
330
3A5
330
381
 92
       16
 93
       12
 72
     2
 10
-73.59000992537568
 20
23.97177270995212
 40
0.3157169230756836
 50
180.0
 51
270.0
 73
     1
 72
     1
 10
-73.59000992537568
 20
23.65605578687541
 11
-72.11417666436606
 21
23.65605578687541
 72
     2
 10
-72.11417666436606
 20
23.97177270995212
 40
0.3157169230767103
 50
270.0
 51
360.0
 73
     1
 72
     1
 10
-71.79845974128946
 20
23.97177270995212
 11
-71.79845974128946
 21
25.50254364148373
 72
     2
 10
-72.11417666436606
 20
25.50254364148373
 40
0.315716923076593
 50
0.0
 51
64.80558935146027
 73
     1
 72
     2
 10
-71.59159221679107
 20
26.61337338754652
 40
0.9118975235576114
 50
115.1944106485122
 51
244.8055893514717
 73
     0
 72
     2
 10
-72.11417666436606
 20
27.72420313360871
 40
0.3157169230761203
 50
295.1944106485397
 51
360.0
 73
     1
 72
     1
 10
-71.79845974128946
 20
27.72420313360871
 11
-71.79845974128946
 21
28.32822775266922
 72
     2
 10
-72.11417666436606
 20
28.32822775266922
 40
0.315716923076593
 50
0.0
 51
90.0
 73
     1
 72
     1
 10
-72.11417666436606
 20
28.64394467574542
 11
-73.59000992537568
 21
28.64394467574542
 72
     2
 10
-73.59000992537568
 20
28.32822775266922
 40
0.3157169230761987
 50
90.0
 51
180.0
 73
     1
 72
     1
 10
-73.90572684845137
 20
28.32822775266922
 11
-73.90572684845137
 21
23.97177270995212
 97
       12
330
38A
330
342
330
38D
330
33D
330
39A
330
39B
330
38C
330
33C
330
38B
330
33B
330
39C
330
33A
 75
     1
 76
     0
 52
45.0
 41
0.1
 77
     0
 78
     1
 53
45.0
 43
0.0
 44
0.0
 45
-0.0707106781186548
 46
0.0707106781186548
 79
     0
 98
        1
 10
0.0
 20
0.0
  0
HATCH
  5
3F2
330
71
100
AcDbEntity
  8
1
  6
Continuous
 62
     2
100
AcDbHatch
 10
0.0
 20
0.0
 30
0.0
210
0.0
220
0.0
230
1.0
  2
_USER
 70
     0
 71
     1
 91
        1
 92
        1
 93
       18
 72
     1
 10
-46.69679998680047
 20
25.21204444900602
 11
-47.50789902427385
 21
25.21204444900602
 72
     1
 10
-47.50789902427385
 20
25.21204444900602
 11
-47.50789902427385
 21
22.94350023131852
 72
     1
 10
-47.50789902427385
 20
22.94350023131852
 11
-48.70069172644156
 21
22.94350023131852
 72
     1
 10
-48.70069172644156
 20
22.94350023131852
 11
-48.70069172644156
 21
25.21204444900602
 72
     1
 10
-48.70069172644156
 20
25.21204444900602
 11
-49.80433102600966
 21
25.21204444900602
 72
     2
 10
-49.80433102600966
 20
24.25752144217992
 40
0.954523006826097
 50
90.0
 51
109.3371432194321
 73
     1
 72
     2
 10
-49.95100102411337
 20
24.67547642256281
 40
0.5115800601944109
 50
109.3371432194854
 51
151.4785267424224
 73
     1
 72
     2
 10
-49.57364376603198
 20
24.47040499322381
 40
0.9410597353348844
 50
151.4785267423624
 51
208.5214732576697
 73
     1
 72
     2
 10
-49.95100102411337
 20
24.26533356388532
 40
0.5115800601960153
 50
208.521473257687
 51
246.6277221118447
 73
     1
 72
     2
 10
-49.79456099141027
 20
24.62732558259532
 40
0.905929784985274
 50
246.6277221118186
 51
288.4480761180818
 73
     1
 72
     2
 10
-50.21272872507217
 20
25.88087135863191
 40
2.227384008972744
 50
288.4480761181333
 51
301.9309089499399
 73
     1
 72
     1
 10
-49.03467368304825
 20
23.99052063948213
 11
-49.03467368304825
 21
23.11800363267881
 72
     2
 10
-50.37060160016497
 20
27.78308593848021
 40
4.852596863498824
 50
74.02000874166129
 51
84.84185523036375
 73
     0
 72
     2
 10
-50.08174550542915
 20
24.58319535525862
 40
1.639695123940453
 50
84.84185523032401
 51
164.9381082228991
 73
     0
 72
     2
 10
-50.50087334889076
 20
24.47040499322381
 40
1.205656168393009
 50
164.9381082229043
 51
195.0618917770971
 73
     0
 72
     2
 10
-50.08174550542915
 20
24.35761463118891
 40
1.639695123940211
 50
195.061891777105
 51
270.0
 73
     0
 72
     1
 10
-50.08174550542915
 20
25.99730975512912
 11
-46.69679998680047
 21
25.99730975512961
 72
     1
 10
-46.69679998680047
 20
25.99730975512961
 11
-46.69679998680047
 21
25.21204444900602
 97
       18
330
309
330
39F
330
3A0
330
388
330
387
330
36D
330
386
330
385
330
3A1
330
384
330
3A2
330
383
330
36E
330
308
330
30D
330
30C
330
30B
330
30A
 75
     1
 76
     0
 52
45.0
 41
0.1
 77
     0
 78
     1
 53
45.0
 43
0.0
 44
0.0
 45
-0.0707106781186548
 46
0.0707106781186548
 79
     0
 98
        1
 10
0.0
 20
0.0
  0
HATCH
  5
3F3
330
71
100
AcDbEntity
  8
1
  6
Continuous
 62
     2
100
AcDbHatch
 10
0.0
 20
0.0
 30
0.0
210
0.0
220
0.0
230
1.0
  2
_USER
 70
     0
 71
     1
 91
        1
 92
        1
 93
       18
 72
     1
 10
-46.69679998680047
 20
25.21204444900602
 11
-47.50789902427385
 21
25.21204444900602
 72
     1
 10
-47.50789902427385
 20
25.21204444900602
 11
-47.50789902427385
 21
22.94350023131852
 72
     1
 10
-47.50789902427385
 20
22.94350023131852
 11
-48.70069172644156
 21
22.94350023131852
 72
     1
 10
-48.70069172644156
 20
22.94350023131852
 11
-48.70069172644156
 21
25.21204444900602
 72
     1
 10
-48.70069172644156
 20
25.21204444900602
 11
-49.80433102600966
 21
25.21204444900602
 72
     2
 10
-49.80433102600966
 20
24.25752144217992
 40
0.954523006826097
 50
90.0
 51
109.3371432194321
 73
     1
 72
     2
 10
-49.95100102411337
 20
24.67547642256281
 40
0.5115800601944109
 50
109.3371432194854
 51
151.4785267424224
 73
     1
 72
     2
 10
-49.57364376603198
 20
24.47040499322381
 40
0.9410597353348844
 50
151.4785267423624
 51
208.5214732576697
 73
     1
 72
     2
 10
-49.95100102411337
 20
24.26533356388532
 40
0.5115800601960153
 50
208.521473257687
 51
246.6277221118447
 73
     1
 72
     2
 10
-49.79456099141027
 20
24.62732558259532
 40
0.905929784985274
 50
246.6277221118186
 51
288.4480761180818
 73
     1
 72
     2
 10
-50.21272872507217
 20
25.88087135863191
 40
2.227384008972744
 50
288.4480761181333
 51
301.9309089499399
 73
     1
 72
     1
 10
-49.03467368304825
 20
23.99052063948213
 11
-49.03467368304825
 21
23.11800363267881
 72
     2
 10
-50.37060160016497
 20
27.78308593848021
 40
4.852596863498824
 50
74.02000874166129
 51
84.84185523036375
 73
     0
 72
     2
 10
-50.08174550542915
 20
24.58319535525862
 40
1.639695123940453
 50
84.84185523032401
 51
164.9381082228991
 73
     0
 72
     2
 10
-50.50087334889076
 20
24.47040499322381
 40
1.205656168393009
 50
164.9381082229043
 51
195.0618917770971
 73
     0
 72
     2
 10
-50.08174550542915
 20
24.35761463118891
 40
1.639695123940211
 50
195.061891777105
 51
270.0
 73
     0
 72
     1
 10
-50.08174550542915
 20
25.99730975512912
 11
-46.69679998680047
 21
25.99730975512961
 72
     1
 10
-46.69679998680047
 20
25.99730975512961
 11
-46.69679998680047
 21
25.21204444900602
 97
       18
330
309
330
39F
330
3A0
330
388
330
387
330
36D
330
386
330
385
330
3A1
330
384
330
3A2
330
383
330
36E
330
308
330
30D
330
30C
330
30B
330
30A
 75
     1
 76
     0
 52
45.0
 41
0.1
 77
     0
 78
     1
 53
45.0
 43
0.0
 44
0.0
 45
-0.0707106781186548
 46
0.0707106781186548
 79
     0
 98
        1
 10
0.0
 20
0.0
  0
HATCH
  5
3F4
330
71
100
AcDbEntity
  8
1
  6
Continuous
 62
     2
100
AcDbHatch
 10
0.0
 20
0.0
 30
0.0
210
0.0
220
0.0
230
1.0
  2
_USER
 70
     0
 71
     1
 91
        1
 92
        1
 93
       14
 72
     2
 10
-66.18444698468207
 20
24.35761463118891
 40
1.639695123940507
 50
84.84185523036236
 51
164.9381082228864
 73
     1
 72
     2
 10
-66.60357482814487
 20
24.47040499322381
 40
1.205656168390944
 50
164.9381082228765
 51
195.061891777095
 73
     1
 72
     2
 10
-66.18444698468207
 20
24.58319535525862
 40
1.639695123939387
 50
195.0618917770896
 51
275.1581447696395
 73
     1
 72
     2
 10
-66.47330307941797
 20
27.78308593848021
 40
4.852596863498134
 50
275.1581447696249
 51
285.9799912583529
 73
     1
 72
     1
 10
-65.13737516230017
 20
23.1180036326794
 11
-65.13737516230017
 21
23.99052063948261
 72
     2
 10
-66.31543020432505
 20
25.8808713586325
 40
2.227384008972727
 50
58.06909105004065
 51
71.55192388186713
 73
     0
 72
     2
 10
-65.89726247066426
 20
24.62732558259532
 40
0.905929784984916
 50
71.55192388184138
 51
113.3722778881291
 73
     0
 72
     2
 10
-66.05370250336628
 20
24.26533356388532
 40
0.5115800601948034
 50
113.3722778881728
 51
151.4785267423044
 73
     0
 72
     2
 10
-65.67634524528597
 20
24.47040499322381
 40
0.9410597353332545
 50
151.4785267422943
 51
208.5214732577331
 73
     0
 72
     2
 10
-66.05370250336628
 20
24.67547642256281
 40
0.5115800601948811
 50
208.5214732576956
 51
246.627722111801
 73
     0
 72
     2
 10
-65.89726247066426
 20
24.31348440385222
 40
0.9059297849853194
 50
246.6277221118709
 51
288.4480761181466
 73
     0
 72
     2
 10
-66.31543020432505
 20
23.05993862781563
 40
2.227384008973474
 50
288.4480761181328
 51
301.9309089499593
 73
     0
 72
     1
 10
-65.13737516230017
 20
24.95028934696552
 11
-65.13737516230017
 21
25.82280635376881
 72
     2
 10
-66.47330307941797
 20
21.15772404796792
 40
4.852596863498064
 50
74.02000874164737
 51
84.84185523037506
 73
     1
 97
       14
330
3A7
330
3A8
330
3A9
330
3AA
330
36F
330
380
330
37F
330
37E
330
3AB
330
3AC
330
37D
330
3AD
330
370
330
37C
 75
     1
 76
     0
 52
45.0
 41
0.1
 77
     0
 78
     1
 53
45.0
 43
0.0
 44
0.0
 45
-0.0707106781186548
 46
0.0707106781186548
 79
     0
 98
        1
 10
0.0
 20
0.0
  0
HATCH
  5
3F5
330
71
100
AcDbEntity
  8
1
  6
Continuous
 62
     2
100
AcDbHatch
 10
0.0
 20
0.0
 30
0.0
210
0.0
220
0.0
230
1.0
  2
_USER
 70
     0
 71
     1
 91
        1
 92
        1
 93
       14
 72
     2
 10
-66.18444698468207
 20
24.35761463118891
 40
1.639695123940507
 50
84.84185523036236
 51
164.9381082228864
 73
     1
 72
     2
 10
-66.60357482814487
 20
24.47040499322381
 40
1.205656168390944
 50
164.9381082228765
 51
195.061891777095
 73
     1
 72
     2
 10
-66.18444698468207
 20
24.58319535525862
 40
1.639695123939387
 50
195.0618917770896
 51
275.1581447696395
 73
     1
 72
     2
 10
-66.47330307941797
 20
27.78308593848021
 40
4.852596863498134
 50
275.1581447696249
 51
285.9799912583529
 73
     1
 72
     1
 10
-65.13737516230017
 20
23.1180036326794
 11
-65.13737516230017
 21
23.99052063948261
 72
     2
 10
-66.31543020432505
 20
25.8808713586325
 40
2.227384008972727
 50
58.06909105004065
 51
71.55192388186713
 73
     0
 72
     2
 10
-65.89726247066426
 20
24.62732558259532
 40
0.905929784984916
 50
71.55192388184138
 51
113.3722778881291
 73
     0
 72
     2
 10
-66.05370250336628
 20
24.26533356388532
 40
0.5115800601948034
 50
113.3722778881728
 51
151.4785267423044
 73
     0
 72
     2
 10
-65.67634524528597
 20
24.47040499322381
 40
0.9410597353332545
 50
151.4785267422943
 51
208.5214732577331
 73
     0
 72
     2
 10
-66.05370250336628
 20
24.67547642256281
 40
0.5115800601948811
 50
208.5214732576956
 51
246.627722111801
 73
     0
 72
     2
 10
-65.89726247066426
 20
24.31348440385222
 40
0.9059297849853194
 50
246.6277221118709
 51
288.4480761181466
 73
     0
 72
     2
 10
-66.31543020432505
 20
23.05993862781563
 40
2.227384008973474
 50
288.4480761181328
 51
301.9309089499593
 73
     0
 72
     1
 10
-65.13737516230017
 20
24.95028934696552
 11
-65.13737516230017
 21
25.82280635376881
 72
     2
 10
-66.47330307941797
 20
21.15772404796792
 40
4.852596863498064
 50
74.02000874164737
 51
84.84185523037506
 73
     1
 97
       14
330
3A7
330
3A8
330
3A9
330
3AA
330
36F
330
380
330
37F
330
37E
330
3AB
330
3AC
330
37D
330
3AD
330
370
330
37C
 75
     1
 76
     0
 52
45.0
 41
0.1
 77
     0
 78
     1
 53
45.0
 43
0.0
 44
0.0
 45
-0.0707106781186548
 46
0.0707106781186548
 79
     0
 98
        1
 10
0.0
 20
0.0
  0
ENDBLK
  5
73
330
71
100
AcDbEntity
  8
0
100
AcDbBlockEnd
  0
BLOCK
  5
75
330
74
100
AcDbEntity
  8
0
100
AcDbBlockBegin
  2
_punkt
 70
     0
 10
50.70000042268244
 20
15.65000023130222
 30
0.0
  3
_punkt
  1

  0
LINE
  5
3F6
330
74
100
AcDbEntity
  8
1
  6
Continuous
 62
     2
100
AcDbLine
 10
50.70000042268244
 20
15.65000023130222
 30
0.0
 11
55.70000042268143
 21
15.65000023130222
 31
0.0
  0
LINE
  5
3F7
330
74
100
AcDbEntity
  8
1
  6
Continuous
 62
     2
100
AcDbLine
 10
50.70000042268244
 20
15.65000023130222
 30
0.0
 11
50.70000042268244
 21
10.6500002313021
 31
0.0
  0
ENDBLK
  5
76
330
74
100
AcDbEntity
  8
0
100
AcDbBlockEnd
  0
BLOCK
  5
7A
330
77
100
AcDbEntity
  8
0
100
AcDbBlockBegin
  2
A4I_CS
 70
     0
 10
50.70000042268244
 20
10.6500002313021
 30
0.0
  3
A4I_CS
  1

  0
INSERT
  5
78
330
77
100
AcDbEntity
  8
1
100
AcDbBlockReference
  2
_rahmen
 10
50.70000042268244
 20
10.6500002313021
 30
0.0
  0
INSERT
  5
79
330
77
100
AcDbEntity
  8
1
100
AcDbBlockReference
  2
_punkt
 10
50.70000042268244
 20
15.65000023130222
 30
0.0
  0
ENDBLK
  5
7B
330
77
100
AcDbEntity
  8
0
100
AcDbBlockEnd
  0
BLOCK
  5
84
330
7C
100
AcDbEntity
  8
0
100
AcDbBlockBegin
  2
1
 70
     0
 10
0.0
 20
0.0
 30
0.0
  3
1
  1

  0
INSERT
  5
7D
330
7C
100
AcDbEntity
  8
0
100
AcDbBlockReference
  2
Allg1
 10
-11.0000000000822
 20
79.99999999982492
 30
0.0
  0
INSERT
  5
7E
330
7C
100
AcDbEntity
  8
0
100
AcDbBlockReference
  2
Drfsicht1
 10
-117.000000000095
 20
78.00000000000001
 30
0.0
  0
INSERT
  5
7F
330
7C
100
AcDbEntity
  8
0
100
AcDbBlockReference
  2
Rckans1
 10
1.89999985703966
 20
150.4000016448587
 30
0.0
  0
INSERT
  5
80
330
7C
100
AcDbEntity
  8
0
100
AcDbBlockReference
  2
SA_Links1
 10
-56.05000007152512
 20
150.4000016448587
 30
0.0
  0
INSERT
  5
81
330
7C
100
AcDbEntity
  8
0
100
AcDbBlockReference
  2
SA_Rechts1
 10
-202.9499999284749
 20
150.4000016448588
 30
0.0
  0
INSERT
  5
82
330
7C
100
AcDbEntity
  8
0
100
AcDbBlockReference
  2
Vordans1
 10
-117.000000000095
 20
150.4000016448587
 30
0.0
  0
INSERT
  5
83
330
7C
100
AcDbEntity
  8
0
100
AcDbBlockReference
  2
A4I_CS
 10
50.70000042268244
 20
10.6500002313021
 30
0.0
  0
ENDBLK
  5
85
330
7C
100
AcDbEntity
  8
0
100
AcDbBlockEnd
  0
BLOCK
  5
131
330
12A
100
AcDbEntity
  8
0
100
AcDbBlockBegin
  2
*D17
 70
     1
 10
0.0
 20
0.0
 30
0.0
  3
*D17
  1

  0
LINE
  5
12B
330
12A
100
AcDbEntity
  8
1
  6
Continuous
 62
     2
100
AcDbLine
 10
-149.4000007262968
 20
69.25000022776399
 30
0.0
 11
-149.4000007262968
 21
86.75000022776399
 31
0.0
  0
LINE
  5
12C
330
12A
100
AcDbEntity
  8
1
  6
Continuous
 62
     2
100
AcDbLine
 10
-131.9333340224678
 20
69.25000022776399
 30
0.0
 11
-150.9000007262968
 21
69.25000022776399
 31
0.0
  0
LINE
  5
12D
330
12A
100
AcDbEntity
  8
1
  6
Continuous
 62
     2
100
AcDbLine
 10
-139.4000007262968
 20
86.75000022776399
 30
0.0
 11
-150.9000007262968
 21
86.75000022776399
 31
0.0
  0
SOLID
  5
12E
330
12A
100
AcDbEntity
  8
1
 62
     2
100
AcDbTrace
 10
-149.8607844678527
 20
72.75000022776399
 30
0.0
 11
-148.9392169847409
 21
72.75000022776399
 31
0.0
 12
-149.4000007262968
 22
69.25000022776399
 32
0.0
 13
-149.4000007262968
 23
69.25000022776399
 33
0.0
  0
SOLID
  5
12F
330
12A
100
AcDbEntity
  8
1
 62
     2
100
AcDbTrace
 10
-148.9392169847409
 20
83.25000022776399
 30
0.0
 11
-149.8607844678527
 21
83.25000022776399
 31
0.0
 12
-149.4000007262968
 22
86.75000022776399
 32
0.0
 13
-149.4000007262968
 23
86.75000022776399
 33
0.0
  0
MTEXT
  5
130
330
12A
100
AcDbEntity
  8
1
 62
     3
100
AcDbMText
 10
-151.2500007262968
 20
74.03296814728992
 30
0.0
 40
3.5
 41
0.0
 71
     7
 72
     1
  1
17,5
  7
CONVERTER_11
 11
0.0
 21
1.0
 31
0.0
 73
     1
 44
0.60024009603842
  0
ENDBLK
  5
132
330
12A
100
AcDbEntity
  8
0
100
AcDbBlockEnd
  0
BLOCK
  5
2A5
330
29E
100
AcDbEntity
  8
0
100
AcDbBlockBegin
  2
*D18
 70
     1
 10
0.0
 20
0.0
 30
0.0
  3
*D18
  1

  0
LINE
  5
29F
330
29E
100
AcDbEntity
  8
1
  6
Continuous
 62
     2
100
AcDbLine
 10
-156.558984572419
 20
122.7500005818134
 30
0.0
 11
-156.558984572419
 21
178.0500005818136
 31
0.0
  0
LINE
  5
2A0
330
29E
100
AcDbEntity
  8
1
  6
Continuous
 62
     2
100
AcDbLine
 10
-115.0066998116227
 20
122.7500005818134
 30
0.0
 11
-158.058984572419
 21
122.7500005818134
 31
0.0
  0
LINE
  5
2A1
330
29E
100
AcDbEntity
  8
1
  6
Continuous
 62
     2
100
AcDbLine
 10
-117.0000006891345
 20
178.0500005818136
 30
0.0
 11
-158.058984572419
 21
178.0500005818136
 31
0.0
  0
SOLID
  5
2A2
330
29E
100
AcDbEntity
  8
1
 62
     2
100
AcDbTrace
 10
-157.0197683139749
 20
126.2500005818134
 30
0.0
 11
-156.0982008308631
 21
126.2500005818134
 31
0.0
 12
-156.558984572419
 22
122.7500005818134
 32
0.0
 13
-156.558984572419
 23
122.7500005818134
 33
0.0
  0
SOLID
  5
2A3
330
29E
100
AcDbEntity
  8
1
 62
     2
100
AcDbTrace
 10
-156.0982008308631
 20
174.5500005818136
 30
0.0
 11
-157.0197683139749
 21
174.5500005818136
 31
0.0
 12
-156.558984572419
 22
178.0500005818136
 32
0.0
 13
-156.558984572419
 23
178.0500005818136
 33
0.0
  0
MTEXT
  5
2A4
330
29E
100
AcDbEntity
  8
1
 62
     3
100
AcDbMText
 10
-158.408984572419
 20
148.6383713594881
 30
0.0
 40
3.5
 41
0.0
 71
     7
 72
     1
  1
55,3
  7
CONVERTER_11
 11
0.0
 21
1.0
 31
0.0
 73
     1
 44
0.60024009603842
  0
ENDBLK
  5
2A6
330
29E
100
AcDbEntity
  8
0
100
AcDbBlockEnd
  0
BLOCK
  5
2B0
330
2A9
100
AcDbEntity
  8
0
100
AcDbBlockBegin
  2
*D19
 70
     1
 10
0.0
 20
0.0
 30
0.0
  3
*D19
  1

  0
LINE
  5
2AA
330
2A9
100
AcDbEntity
  8
1
  6
Continuous
 62
     2
100
AcDbLine
 10
-148.558984572419
 20
134.7500005818145
 30
0.0
 11
-148.558984572419
 21
178.0500005818136
 31
0.0
  0
LINE
  5
2AB
330
2A9
100
AcDbEntity
  8
1
  6
Continuous
 62
     2
100
AcDbLine
 10
-136.65000068913
 20
134.7500005818145
 30
0.0
 11
-150.058984572419
 21
134.7500005818145
 31
0.0
  0
LINE
  5
2AC
330
2A9
100
AcDbEntity
  8
1
  6
Continuous
 62
     2
100
AcDbLine
 10
-117.0000006891345
 20
178.0500005818136
 30
0.0
 11
-150.058984572419
 21
178.0500005818136
 31
0.0
  0
SOLID
  5
2AD
330
2A9
100
AcDbEntity
  8
1
 62
     2
100
AcDbTrace
 10
-149.0197683139749
 20
138.2500005818145
 30
0.0
 11
-148.0982008308631
 21
138.2500005818145
 31
0.0
 12
-148.558984572419
 22
134.7500005818145
 32
0.0
 13
-148.558984572419
 23
134.7500005818145
 33
0.0
  0
SOLID
  5
2AE
330
2A9
100
AcDbEntity
  8
1
 62
     2
100
AcDbTrace
 10
-148.0982008308631
 20
174.5500005818136
 30
0.0
 11
-149.0197683139749
 21
174.5500005818136
 31
0.0
 12
-148.558984572419
 22
178.0500005818136
 32
0.0
 13
-148.558984572419
 23
178.0500005818136
 33
0.0
  0
MTEXT
  5
2AF
330
2A9
100
AcDbEntity
  8
1
 62
     3
100
AcDbMText
 10
-150.408984572419
 20
151.5726554932131
 30
0.0
 40
3.5
 41
0.0
 71
     7
 72
     1
  1
43,3
  7
CONVERTER_11
 11
0.0
 21
1.0
 31
0.0
 73
     1
 44
0.60024009603842
  0
ENDBLK
  5
2B1
330
2A9
100
AcDbEntity
  8
0
100
AcDbBlockEnd
  0
BLOCK
  5
2BB
330
2B4
100
AcDbEntity
  8
0
100
AcDbBlockBegin
  2
*D20
 70
     1
 10
0.0
 20
0.0
 30
0.0
  3
*D20
  1

  0
LINE
  5
2B5
330
2B4
100
AcDbEntity
  8
1
  6
Continuous
 62
     2
100
AcDbLine
 10
-139.4000005023266
 20
114.3250001189794
 30
0.0
 11
-94.60000068913072
 21
114.3250001189794
 31
0.0
  0
LINE
  5
2B6
330
2B4
100
AcDbEntity
  8
1
  6
Continuous
 62
     2
100
AcDbLine
 10
-139.4000005023266
 20
134.7500005818146
 30
0.0
 11
-139.4000005023266
 21
112.8250001189794
 31
0.0
  0
LINE
  5
2B7
330
2B4
100
AcDbEntity
  8
1
  6
Continuous
 62
     2
100
AcDbLine
 10
-94.60000068913072
 20
134.7500005818135
 30
0.0
 11
-94.60000068913072
 21
112.8250001189794
 31
0.0
  0
SOLID
  5
2B8
330
2B4
100
AcDbEntity
  8
1
 62
     2
100
AcDbTrace
 10
-135.9000005023266
 20
114.7857838605353
 30
0.0
 11
-135.9000005023266
 21
113.8642163774235
 31
0.0
 12
-139.4000005023266
 22
114.3250001189794
 32
0.0
 13
-139.4000005023266
 23
114.3250001189794
 33
0.0
  0
SOLID
  5
2B9
330
2B4
100
AcDbEntity
  8
1
 62
     2
100
AcDbTrace
 10
-98.10000068913072
 20
113.8642163774235
 30
0.0
 11
-98.10000068913072
 21
114.7857838605353
 31
0.0
 12
-94.60000068913072
 22
114.3250001189794
 32
0.0
 13
-94.60000068913072
 23
114.3250001189794
 33
0.0
  0
MTEXT
  5
2BA
330
2B4
100
AcDbEntity
  8
1
 62
     3
100
AcDbMText
 10
-121.8125000000949
 20
116.1750001189794
 30
0.0
 40
3.5
 41
0.0
 71
     7
 72
     1
  1
44,8
  7
CONVERTER_11
 11
0.9999999999970619
 21
2.424068405545306E-6
 31
0.0
 73
     1
 44
0.60024009603842
  0
ENDBLK
  5
2BC
330
2B4
100
AcDbEntity
  8
0
100
AcDbBlockEnd
  0
ENDSEC
  0
SECTION
  2
ENTITIES
  0
INSERT
  5
86
330
1F
100
AcDbEntity
  8
1
100
AcDbBlockReference
  2
1
 10
0.0
 20
0.0
 30
0.0
  0
ENDSEC
  0
SECTION
  2
OBJECTS
  0
DICTIONARY
  5
C
330
0
100
AcDbDictionary
281
     1
  3
ACAD_GROUP
350
D
  3
ACAD_LAYOUT
350
1A
  3
ACAD_MATERIAL
350
3B
  3
ACAD_MLEADERSTYLE
350
41F
  3
ACAD_MLINESTYLE
350
17
  3
ACAD_PLOTSETTINGS
350
19
  3
ACAD_PLOTSTYLENAME
350
E
  3
ACAD_TABLESTYLE
350
41E
  3
ACAD_VISUALSTYLE
350
2A
  0
DICTIONARY
  5
D
102
{ACAD_REACTORS
330
C
102
}
330
C
100
AcDbDictionary
281
     1
  0
DICTIONARY
  5
1A
102
{ACAD_REACTORS
330
C
102
}
330
C
100
AcDbDictionary
281
     1
  3
Layout1
350
1E
  3
Layout2
350
26
  3
Model
350
22
  0
DICTIONARY
  5
3B
102
{ACAD_REACTORS
330
C
102
}
330
C
100
AcDbDictionary
281
     1
  3
ByBlock
350
3D
  3
ByLayer
350
3C
  3
Global
350
3E
  0
DICTIONARY
  5
41F
102
{ACAD_REACTORS
330
C
102
}
330
C
100
AcDbDictionary
281
     1
  0
DICTIONARY
  5
17
102
{ACAD_REACTORS
330
C
102
}
330
C
100
AcDbDictionary
281
     1
  3
Standard
350
18
  0
DICTIONARY
  5
19
102
{ACAD_REACTORS
330
C
102
}
330
C
100
AcDbDictionary
281
     1
  0
ACDBDICTIONARYWDFLT
  5
E
102
{ACAD_REACTORS
330
C
102
}
330
C
100
AcDbDictionary
281
     1
  3
Normal
350
F
100
AcDbDictionaryWithDefault
340
F
  0
DICTIONARY
  5
41E
102
{ACAD_REACTORS
330
C
102
}
330
C
100
AcDbDictionary
281
     1
  0
DICTIONARY
  5
2A
102
{ACAD_REACTORS
330
C
102
}
330
C
100
AcDbDictionary
281
     1
  3
2dWireframe
350
2F
  3
3D Hidden
350
31
  3
3dWireframe
350
30
  3
Basic
350
32
  3
Brighten
350
36
  3
ColorChange
350
3A
  3
Conceptual
350
34
  3
Dim
350
35
  3
Facepattern
350
39
  3
Flat
350
2B
  3
FlatWithEdges
350
2C
  3
Gouraud
350
2D
  3
GouraudWithEdges
350
2E
  3
Linepattern
350
38
  3
Realistic
350
33
  3
Thicken
350
37
  0
LAYOUT
  5
1E
102
{ACAD_REACTORS
330
1A
102
}
330
1A
100
AcDbPlotSettings
  1

  2
none_device
  4

  6

 40
0.0
 41
0.0
 42
0.0
 43
0.0
 44
0.0
 45
0.0
 46
0.0
 47
0.0
 48
0.0
 49
0.0
140
0.0
141
0.0
142
1.0
143
1.0
 70
   688
 72
     0
 73
     0
 74
     5
  7

 75
    16
 76
     0
 77
     2
 78
   300
147
1.0
148
0.0
149
0.0
100
AcDbLayout
  1
Layout1
 70
     1
 71
     1
 10
0.0
 20
0.0
 11
12.0
 21
9.0
 12
0.0
 22
0.0
 32
0.0
 14
1.00000000000000E+20
 24
1.00000000000000E+20
 34
1.00000000000000E+20
 15
-1.00000000000000E+20
 25
-1.00000000000000E+20
 35
-1.00000000000000E+20
146
0.0
 13
0.0
 23
0.0
 33
0.0
 16
1.0
 26
0.0
 36
0.0
 17
0.0
 27
1.0
 37
0.0
 76
     0
330
1B
  0
LAYOUT
  5
26
102
{ACAD_REACTORS
330
1A
102
}
330
1A
100
AcDbPlotSettings
  1

  2
none_device
  4

  6

 40
0.0
 41
0.0
 42
0.0
 43
0.0
 44
0.0
 45
0.0
 46
0.0
 47
0.0
 48
0.0
 49
0.0
140
0.0
141
0.0
142
1.0
143
1.0
 70
   688
 72
     0
 73
     0
 74
     5
  7

 75
    16
 76
     0
 77
     2
 78
   300
147
1.0
148
0.0
149
0.0
100
AcDbLayout
  1
Layout2
 70
     1
 71
     2
 10
0.0
 20
0.0
 11
0.0
 21
0.0
 12
0.0
 22
0.0
 32
0.0
 14
0.0
 24
0.0
 34
0.0
 15
0.0
 25
0.0
 35
0.0
146
0.0
 13
0.0
 23
0.0
 33
0.0
 16
1.0
 26
0.0
 36
0.0
 17
0.0
 27
1.0
 37
0.0
 76
     0
330
23
  0
LAYOUT
  5
22
102
{ACAD_REACTORS
330
1A
102
}
330
1A
100
AcDbPlotSettings
  1

  2
none_device
  4

  6

 40
0.0
 41
0.0
 42
0.0
 43
0.0
 44
0.0
 45
0.0
 46
0.0
 47
0.0
 48
0.0
 49
0.0
140
0.0
141
0.0
142
1.0
143
1.0
 70
  1712
 72
     0
 73
     0
 74
     0
  7

 75
     0
 76
     0
 77
     2
 78
   300
147
1.0
148
0.0
149
0.0
100
AcDbLayout
  1
Model
 70
     1
 71
     0
 10
0.0
 20
0.0
 11
12.0
 21
9.0
 12
0.0
 22
0.0
 32
0.0
 14
-241.2999995773166
 24
10.6500002313021
 34
0.0
 15
55.70000042268143
 25
220.6500002313022
 35
0.0
146
0.0
 13
0.0
 23
0.0
 33
0.0
 16
1.0
 26
0.0
 36
0.0
 17
0.0
 27
1.0
 37
0.0
 76
     0
330
1F
331
29
  0
MATERIAL
  5
3D
102
{ACAD_REACTORS
330
3B
102
}
102
{ACAD_XDICTIONARY
360
41A
102
}
330
3B
100
AcDbMaterial
  1
ByBlock
  0
MATERIAL
  5
3C
102
{ACAD_REACTORS
330
3B
102
}
102
{ACAD_XDICTIONARY
360
418
102
}
330
3B
100
AcDbMaterial
  1
ByLayer
  0
MATERIAL
  5
3E
102
{ACAD_REACTORS
330
3B
102
}
102
{ACAD_XDICTIONARY
360
41C
102
}
330
3B
100
AcDbMaterial
  1
Global
  0
MLINESTYLE
  5
18
102
{ACAD_REACTORS
330
17
102
}
330
17
100
AcDbMlineStyle
  2
Standard
 70
     0
  3

 62
   256
 51
90.0
 52
90.0
 71
     2
 49
0.5
 62
   256
  6
BYLAYER
 49
-0.5
 62
   256
  6
BYLAYER
  0
ACDBPLACEHOLDER
  5
F
102
{ACAD_REACTORS
330
E
102
}
330
E
  0
VISUALSTYLE
  5
2F
102
{ACAD_REACTORS
330
2A
102
}
102
{ACAD_XDICTIONARY
360
400
102
}
330
2A
100
AcDbVisualStyle
  2
2dWireframe
 70
     4
 71
     0
 72
     2
 73
     0
 90
        0
 40
-0.6
 41
-30.0
 62
     5
 63
     7
421
 16777215
 74
     1
 91
        4
 64
     7
 65
   257
 75
     1
175
     1
 42
1.0
 92
        0
 66
   257
 43
1.0
 76
     1
 77
     6
 78
     2
 67
     7
 79
     5
170
     0
171
     0
290
     0
174
     0
 93
        1
 44
0.0
173
     0
291
     0
 45
0.0
1001
ACAD
1000
AcDbSavedByObjectVersion
1070
     0
  0
VISUALSTYLE
  5
31
102
{ACAD_REACTORS
330
2A
102
}
102
{ACAD_XDICTIONARY
360
404
102
}
330
2A
100
AcDbVisualStyle
  2
3D Hidden
 70
     6
 71
     1
 72
     2
 73
     2
 90
        0
 40
-0.6
 41
-30.0
 62
     5
 63
     7
421
 16777215
 74
     2
 91
        2
 64
     7
 65
   257
 75
     2
175
     1
 42
40.0
 92
        0
 66
   257
 43
1.0
 76
     1
 77
     6
 78
     2
 67
     7
 79
     3
170
     0
171
     0
290
     0
174
     0
 93
        1
 44
0.0
173
     0
291
     0
 45
0.0
1001
ACAD
1000
AcDbSavedByObjectVersion
1070
     0
  0
VISUALSTYLE
  5
30
102
{ACAD_REACTORS
330
2A
102
}
102
{ACAD_XDICTIONARY
360
402
102
}
330
2A
100
AcDbVisualStyle
  2
3dWireframe
 70
     5
 71
     0
 72
     2
 73
     0
 90
        0
 40
-0.6
 41
-30.0
 62
     5
 63
     7
421
 16777215
 74
     1
 91
        4
 64
     7
 65
   257
 75
     1
175
     1
 42
1.0
 92
        0
 66
   257
 43
1.0
 76
     1
 77
     6
 78
     2
 67
     7
 79
     5
170
     0
171
     0
290
     0
174
     0
 93
        1
 44
0.0
173
     0
291
     0
 45
0.0
1001
ACAD
1000
AcDbSavedByObjectVersion
1070
     0
  0
VISUALSTYLE
  5
32
102
{ACAD_REACTORS
330
2A
102
}
102
{ACAD_XDICTIONARY
360
406
102
}
330
2A
100
AcDbVisualStyle
  2
Basic
 70
     7
 71
     1
 72
     0
 73
     1
 90
        0
 40
-0.6
 41
-30.0
 62
     5
 63
     7
421
 16777215
 74
     0
 91
        4
 64
     7
 65
   257
 75
     1
175
     1
 42
1.0
 92
        8
 66
     7
 43
1.0
 76
     1
 77
     6
 78
     2
 67
     7
 79
     5
170
     0
171
     0
290
     0
174
     0
 93
        1
 44
0.0
173
     0
291
     1
 45
0.0
1001
ACAD
1000
AcDbSavedByObjectVersion
1070
     0
  0
VISUALSTYLE
  5
36
102
{ACAD_REACTORS
330
2A
102
}
102
{ACAD_XDICTIONARY
360
40E
102
}
330
2A
100
AcDbVisualStyle
  2
Brighten
 70
    12
 71
     2
 72
     2
 73
     0
 90
        0
 40
-0.6
 41
-30.0
 62
     5
 63
     7
421
 16777215
 74
     1
 91
        4
 64
     7
 65
   257
 75
     1
175
     1
 42
1.0
 92
        8
 66
     7
 43
1.0
 76
     1
 77
     6
 78
     2
 67
     7
 79
     5
170
     0
171
     0
290
     0
174
     0
 93
        1
 44
50.0
173
     0
291
     1
 45
0.0
1001
ACAD
1000
AcDbSavedByObjectVersion
1070
     0
  0
VISUALSTYLE
  5
3A
102
{ACAD_REACTORS
330
2A
102
}
102
{ACAD_XDICTIONARY
360
416
102
}
330
2A
100
AcDbVisualStyle
  2
ColorChange
 70
    16
 71
     2
 72
     2
 73
     3
 90
        0
 40
-0.6
 41
-30.0
 62
     5
 63
     8
421
  8421504
 74
     1
 91
        4
 64
     7
 65
   257
 75
     1
175
     1
 42
1.0
 92
        8
 66
     8
424
  8421504
 43
1.0
 76
     1
 77
     6
 78
     2
 67
     7
 79
     5
170
     0
171
     0
290
     0
174
     0
 93
        1
 44
0.0
173
     0
291
     1
 45
0.0
1001
ACAD
1000
AcDbSavedByObjectVersion
1070
     0
  0
VISUALSTYLE
  5
34
102
{ACAD_REACTORS
330
2A
102
}
102
{ACAD_XDICTIONARY
360
40A
102
}
330
2A
100
AcDbVisualStyle
  2
Conceptual
 70
     9
 71
     3
 72
     2
 73
     0
 90
        0
 40
-0.6
 41
-30.0
 62
     5
 63
     7
421
 16777215
 74
     2
 91
        2
 64
     7
 65
   257
 75
     1
175
     1
 42
40.0
 92
        8
 66
     7
 43
1.0
 76
     1
 77
     6
 78
     2
 67
     7
 79
     3
170
     0
171
     0
290
     0
174
     0
 93
        1
 44
0.0
173
     0
291
     0
 45
0.0
1001
ACAD
1000
AcDbSavedByObjectVersion
1070
     0
  0
VISUALSTYLE
  5
35
102
{ACAD_REACTORS
330
2A
102
}
102
{ACAD_XDICTIONARY
360
40C
102
}
330
2A
100
AcDbVisualStyle
  2
Dim
 70
    11
 71
     2
 72
     2
 73
     0
 90
        0
 40
-0.6
 41
-30.0
 62
     5
 63
     7
421
 16777215
 74
     1
 91
        4
 64
     7
 65
   257
 75
     1
175
     1
 42
1.0
 92
        8
 66
     7
 43
1.0
 76
     1
 77
     6
 78
     2
 67
     7
 79
     5
170
     0
171
     0
290
     0
174
     0
 93
        1
 44
-50.0
173
     0
291
     1
 45
0.0
1001
ACAD
1000
AcDbSavedByObjectVersion
1070
     0
  0
VISUALSTYLE
  5
39
102
{ACAD_REACTORS
330
2A
102
}
102
{ACAD_XDICTIONARY
360
414
102
}
330
2A
100
AcDbVisualStyle
  2
Facepattern
 70
    15
 71
     2
 72
     2
 73
     0
 90
        0
 40
-0.6
 41
-30.0
 62
     5
 63
     7
421
 16777215
 74
     1
 91
        4
 64
     7
 65
   257
 75
     1
175
     1
 42
1.0
 92
        8
 66
     7
 43
1.0
 76
     1
 77
     6
 78
     2
 67
     7
 79
     5
170
     0
171
     0
290
     0
174
     0
 93
        1
 44
0.0
173
     0
291
     1
 45
0.0
1001
ACAD
1000
AcDbSavedByObjectVersion
1070
     0
  0
VISUALSTYLE
  5
2B
102
{ACAD_REACTORS
330
2A
102
}
102
{ACAD_XDICTIONARY
360
3F8
102
}
330
2A
100
AcDbVisualStyle
  2
Flat
 70
     0
 71
     2
 72
     1
 73
     1
 90
        2
 40
-0.6
 41
30.0
 62
     5
 63
     7
421
 16777215
 74
     0
 91
        4
 64
     7
 65
   257
 75
     1
175
     1
 42
1.0
 92
        8
 66
     7
 43
1.0
 76
     1
 77
     6
 78
     2
 67
     7
 79
     5
170
     0
171
     0
290
     0
174
     0
 93
       13
 44
0.0
173
     0
291
     1
 45
0.0
1001
ACAD
1000
AcDbSavedByObjectVersion
1070
     0
  0
VISUALSTYLE
  5
2C
102
{ACAD_REACTORS
330
2A
102
}
102
{ACAD_XDICTIONARY
360
3FA
102
}
330
2A
100
AcDbVisualStyle
  2
FlatWithEdges
 70
     1
 71
     2
 72
     1
 73
     1
 90
        2
 40
-0.6
 41
30.0
 62
     5
 63
     7
421
 16777215
 74
     1
 91
        4
 64
     7
 65
   257
 75
     1
175
     1
 42
1.0
 92
        0
 66
   257
 43
1.0
 76
     1
 77
     6
 78
     2
 67
     7
 79
     5
170
     0
171
     0
290
     0
174
     0
 93
       13
 44
0.0
173
     0
291
     1
 45
0.0
1001
ACAD
1000
AcDbSavedByObjectVersion
1070
     0
  0
VISUALSTYLE
  5
2D
102
{ACAD_REACTORS
330
2A
102
}
102
{ACAD_XDICTIONARY
360
3FC
102
}
330
2A
100
AcDbVisualStyle
  2
Gouraud
 70
     2
 71
     2
 72
     2
 73
     1
 90
        2
 40
-0.6
 41
30.0
 62
     5
 63
     7
421
 16777215
 74
     0
 91
        4
 64
     7
 65
   257
 75
     1
175
     1
 42
1.0
 92
        0
 66
     7
 43
1.0
 76
     1
 77
     6
 78
     2
 67
     7
 79
     5
170
     0
171
     0
290
     0
174
     0
 93
       13
 44
0.0
173
     0
291
     1
 45
0.0
1001
ACAD
1000
AcDbSavedByObjectVersion
1070
     0
  0
VISUALSTYLE
  5
2E
102
{ACAD_REACTORS
330
2A
102
}
102
{ACAD_XDICTIONARY
360
3FE
102
}
330
2A
100
AcDbVisualStyle
  2
GouraudWithEdges
 70
     3
 71
     2
 72
     2
 73
     1
 90
        2
 40
-0.6
 41
30.0
 62
     5
 63
     7
421
 16777215
 74
     1
 91
        4
 64
     7
 65
   257
 75
     1
175
     1
 42
1.0
 92
        0
 66
   257
 43
1.0
 76
     1
 77
     6
 78
     2
 67
     7
 79
     5
170
     0
171
     0
290
     0
174
     0
 93
       13
 44
0.0
173
     0
291
     1
 45
0.0
1001
ACAD
1000
AcDbSavedByObjectVersion
1070
     0
  0
VISUALSTYLE
  5
38
102
{ACAD_REACTORS
330
2A
102
}
102
{ACAD_XDICTIONARY
360
412
102
}
330
2A
100
AcDbVisualStyle
  2
Linepattern
 70
    14
 71
     2
 72
     2
 73
     0
 90
        0
 40
-0.6
 41
-30.0
 62
     5
 63
     7
421
 16777215
 74
     1
 91
        4
 64
     7
 65
   257
 75
     7
175
     7
 42
1.0
 92
        8
 66
     7
 43
1.0
 76
     1
 77
     6
 78
     2
 67
     7
 79
     5
170
     0
171
     0
290
     0
174
     0
 93
        1
 44
0.0
173
     0
291
     1
 45
0.0
1001
ACAD
1000
AcDbSavedByObjectVersion
1070
     0
  0
VISUALSTYLE
  5
33
102
{ACAD_REACTORS
330
2A
102
}
102
{ACAD_XDICTIONARY
360
408
102
}
330
2A
100
AcDbVisualStyle
  2
Realistic
 70
     8
 71
     2
 72
     2
 73
     0
 90
        0
 40
-0.6
 41
-30.0
 62
     5
 63
     7
421
 16777215
 74
     1
 91
        0
 64
     7
 65
   257
 75
     1
175
     1
 42
1.0
 92
        8
 66
     8
424
  7895160
 43
1.0
 76
     1
 77
     6
 78
     2
 67
     7
 79
     5
170
     0
171
     0
290
     0
174
     0
 93
       13
 44
0.0
173
     0
291
     0
 45
0.0
1001
ACAD
1000
AcDbSavedByObjectVersion
1070
     0
  0
VISUALSTYLE
  5
37
102
{ACAD_REACTORS
330
2A
102
}
102
{ACAD_XDICTIONARY
360
410
102
}
330
2A
100
AcDbVisualStyle
  2
Thicken
 70
    13
 71
     2
 72
     2
 73
     0
 90
        0
 40
-0.6
 41
-30.0
 62
     5
 63
     7
421
 16777215
 74
     1
 91
        4
 64
     7
 65
   257
 75
     1
175
     1
 42
1.0
 92
       12
 66
     7
 43
1.0
 76
     1
 77
     6
 78
     2
 67
     7
 79
     5
170
     0
171
     0
290
     0
174
     0
 93
        1
 44
0.0
173
     0
291
     1
 45
0.0
1001
ACAD
1000
AcDbSavedByObjectVersion
1070
     0
  0
DICTIONARY
  5
41A
330
3D
100
AcDbDictionary
280
     1
281
     1
  3
ACAD_XREC_ROUNDTRIP
360
41B
  0
DICTIONARY
  5
418
330
3C
100
AcDbDictionary
280
     1
281
     1
  3
ACAD_XREC_ROUNDTRIP
360
419
  0
DICTIONARY
  5
41C
330
3E
100
AcDbDictionary
280
     1
281
     1
  3
ACAD_XREC_ROUNDTRIP
360
41D
  0
DICTIONARY
  5
400
330
2F
100
AcDbDictionary
280
     1
281
     1
  3
ACAD_XREC_ROUNDTRIP
360
401
  0
DICTIONARY
  5
404
330
31
100
AcDbDictionary
280
     1
281
     1
  3
ACAD_XREC_ROUNDTRIP
360
405
  0
DICTIONARY
  5
402
330
30
100
AcDbDictionary
280
     1
281
     1
  3
ACAD_XREC_ROUNDTRIP
360
403
  0
DICTIONARY
  5
406
330
32
100
AcDbDictionary
280
     1
281
     1
  3
ACAD_XREC_ROUNDTRIP
360
407
  0
DICTIONARY
  5
40E
330
36
100
AcDbDictionary
280
     1
281
     1
  3
ACAD_XREC_ROUNDTRIP
360
40F
  0
DICTIONARY
  5
416
330
3A
100
AcDbDictionary
280
     1
281
     1
  3
ACAD_XREC_ROUNDTRIP
360
417
  0
DICTIONARY
  5
40A
330
34
100
AcDbDictionary
280
     1
281
     1
  3
ACAD_XREC_ROUNDTRIP
360
40B
  0
DICTIONARY
  5
40C
330
35
100
AcDbDictionary
280
     1
281
     1
  3
ACAD_XREC_ROUNDTRIP
360
40D
  0
DICTIONARY
  5
414
330
39
100
AcDbDictionary
280
     1
281
     1
  3
ACAD_XREC_ROUNDTRIP
360
415
  0
DICTIONARY
  5
3F8
330
2B
100
AcDbDictionary
280
     1
281
     1
  3
ACAD_XREC_ROUNDTRIP
360
3F9
  0
DICTIONARY
  5
3FA
330
2C
100
AcDbDictionary
280
     1
281
     1
  3
ACAD_XREC_ROUNDTRIP
360
3FB
  0
DICTIONARY
  5
3FC
330
2D
100
AcDbDictionary
280
     1
281
     1
  3
ACAD_XREC_ROUNDTRIP
360
3FD
  0
DICTIONARY
  5
3FE
330
2E
100
AcDbDictionary
280
     1
281
     1
  3
ACAD_XREC_ROUNDTRIP
360
3FF
  0
DICTIONARY
  5
412
330
38
100
AcDbDictionary
280
     1
281
     1
  3
ACAD_XREC_ROUNDTRIP
360
413
  0
DICTIONARY
  5
408
330
33
100
AcDbDictionary
280
     1
281
     1
  3
ACAD_XREC_ROUNDTRIP
360
409
  0
DICTIONARY
  5
410
330
37
100
AcDbDictionary
280
     1
281
     1
  3
ACAD_XREC_ROUNDTRIP
360
411
  0
XRECORD
  5
41B
102
{ACAD_REACTORS
330
41A
102
}
330
41A
100
AcDbXrecord
280
     1
102
MATERIAL
148
0.0
149
0.0
149
0.0
 93
        0
 94
      127
282
     0
 72
     1
 77
     1
171
     1
175
     1
179
     1
273
     0
  0
XRECORD
  5
419
102
{ACAD_REACTORS
330
418
102
}
330
418
100
AcDbXrecord
280
     1
102
MATERIAL
148
0.0
149
0.0
149
0.0
 93
        0
 94
      127
282
     0
 72
     1
 77
     1
171
     1
175
     1
179
     1
273
     0
  0
XRECORD
  5
41D
102
{ACAD_REACTORS
330
41C
102
}
330
41C
100
AcDbXrecord
280
     1
102
MATERIAL
148
0.0
149
0.0
149
0.0
 93
        0
 94
      127
282
     0
 72
     1
 77
     1
171
     1
175
     1
179
     1
273
     0
  0
XRECORD
  5
401
102
{ACAD_REACTORS
330
400
102
}
330
400
100
AcDbXrecord
280
     1
102
RTVSPropertyOp0
 70
     1
102
RTVSPropertyOp1
 70
     1
102
RTVSPropertyOp2
 70
     1
102
RTVSPropertyOp3
 70
     1
102
RTVSPropertyOp4
 70
     1
102
RTVSPropertyOp5
 70
     1
102
RTVSPropertyOp6
 70
     1
102
RTVSPropertyOp7
 70
     1
102
RTVSPropertyOp8
 70
     1
102
RTVSPropertyOp9
 70
     1
102
RTVSPropertyOp10
 70
     1
102
RTVSPropertyOp11
 70
     1
102
RTVSPropertyOp12
 70
     1
102
RTVSPropertyOp13
 70
     1
102
RTVSPropertyOp14
 70
     1
102
RTVSPropertyOp15
 70
     1
102
RTVSPropertyOp16
 70
     1
102
RTVSPropertyOp17
 70
     1
102
RTVSPropertyOp18
 70
     1
102
RTVSPropertyOp19
 70
     1
102
RTVSPropertyOp20
 70
     1
102
RTVSPropertyOp21
 70
     1
102
RTVSPropertyOp22
 70
     1
102
RTVSPropertyOp23
 70
     1
102
RTVSPropertyOp24
 70
     1
102
RTVSPropertyOp25
 70
     1
102
RTVSPropertyOp26
 70
     1
102
RTVSPropertyOp27
 70
     1
102
RTVSPropertyOp28
 70
     1
102
RTVSPropertyOp29
 70
     1
102
RTVSPropertyOp30
 70
     1
102
RTVSPropertyOp31
 70
     1
102
RTVSPropertyOp32
 70
     1
  0
XRECORD
  5
405
102
{ACAD_REACTORS
330
404
102
}
330
404
100
AcDbXrecord
280
     1
102
RTVSPropertyOp0
 70
     1
102
RTVSPropertyOp1
 70
     1
102
RTVSPropertyOp2
 70
     1
102
RTVSPropertyOp3
 70
     1
102
RTVSPropertyOp4
 70
     1
102
RTVSPropertyOp5
 70
     1
102
RTVSPropertyOp6
 70
     1
102
RTVSPropertyOp7
 70
     1
102
RTVSPropertyOp8
 70
     1
102
RTVSPropertyOp9
 70
     1
102
RTVSPropertyOp10
 70
     1
102
RTVSPropertyOp11
 70
     1
102
RTVSPropertyOp12
 70
     1
102
RTVSPropertyOp13
 70
     1
102
RTVSPropertyOp14
 70
     1
102
RTVSPropertyOp15
 70
     1
102
RTVSPropertyOp16
 70
     1
102
RTVSPropertyOp17
 70
     1
102
RTVSPropertyOp18
 70
     1
102
RTVSPropertyOp19
 70
     1
102
RTVSPropertyOp20
 70
     1
102
RTVSPropertyOp21
 70
     1
102
RTVSPropertyOp22
 70
     1
102
RTVSPropertyOp23
 70
     1
102
RTVSPropertyOp24
 70
     1
102
RTVSPropertyOp25
 70
     1
102
RTVSPropertyOp26
 70
     1
102
RTVSPropertyOp27
 70
     1
102
RTVSPropertyOp28
 70
     1
102
RTVSPropertyOp29
 70
     1
102
RTVSPropertyOp30
 70
     1
102
RTVSPropertyOp31
 70
     1
102
RTVSPropertyOp32
 70
     1
  0
XRECORD
  5
403
102
{ACAD_REACTORS
330
402
102
}
330
402
100
AcDbXrecord
280
     1
102
RTVSPropertyOp0
 70
     1
102
RTVSPropertyOp1
 70
     1
102
RTVSPropertyOp2
 70
     1
102
RTVSPropertyOp3
 70
     1
102
RTVSPropertyOp4
 70
     1
102
RTVSPropertyOp5
 70
     1
102
RTVSPropertyOp6
 70
     1
102
RTVSPropertyOp7
 70
     1
102
RTVSPropertyOp8
 70
     1
102
RTVSPropertyOp9
 70
     1
102
RTVSPropertyOp10
 70
     1
102
RTVSPropertyOp11
 70
     1
102
RTVSPropertyOp12
 70
     1
102
RTVSPropertyOp13
 70
     1
102
RTVSPropertyOp14
 70
     1
102
RTVSPropertyOp15
 70
     1
102
RTVSPropertyOp16
 70
     1
102
RTVSPropertyOp17
 70
     1
102
RTVSPropertyOp18
 70
     1
102
RTVSPropertyOp19
 70
     1
102
RTVSPropertyOp20
 70
     1
102
RTVSPropertyOp21
 70
     1
102
RTVSPropertyOp22
 70
     1
102
RTVSPropertyOp23
 70
     1
102
RTVSPropertyOp24
 70
     1
102
RTVSPropertyOp25
 70
     1
102
RTVSPropertyOp26
 70
     1
102
RTVSPropertyOp27
 70
     1
102
RTVSPropertyOp28
 70
     1
102
RTVSPropertyOp29
 70
     1
102
RTVSPropertyOp30
 70
     1
102
RTVSPropertyOp31
 70
     1
102
RTVSPropertyOp32
 70
     1
  0
XRECORD
  5
407
102
{ACAD_REACTORS
330
406
102
}
330
406
100
AcDbXrecord
280
     1
102
RTVSPropertyOp0
 70
     1
102
RTVSPropertyOp1
 70
     1
102
RTVSPropertyOp2
 70
     1
102
RTVSPropertyOp3
 70
     1
102
RTVSPropertyOp4
 70
     1
102
RTVSPropertyOp5
 70
     1
102
RTVSPropertyOp6
 70
     1
102
RTVSPropertyOp7
 70
     1
102
RTVSPropertyOp8
 70
     1
102
RTVSPropertyOp9
 70
     1
102
RTVSPropertyOp10
 70
     1
102
RTVSPropertyOp11
 70
     1
102
RTVSPropertyOp12
 70
     1
102
RTVSPropertyOp13
 70
     1
102
RTVSPropertyOp14
 70
     1
102
RTVSPropertyOp15
 70
     1
102
RTVSPropertyOp16
 70
     1
102
RTVSPropertyOp17
 70
     1
102
RTVSPropertyOp18
 70
     1
102
RTVSPropertyOp19
 70
     1
102
RTVSPropertyOp20
 70
     1
102
RTVSPropertyOp21
 70
     1
102
RTVSPropertyOp22
 70
     1
102
RTVSPropertyOp23
 70
     1
102
RTVSPropertyOp24
 70
     1
102
RTVSPropertyOp25
 70
     1
102
RTVSPropertyOp26
 70
     1
102
RTVSPropertyOp27
 70
     1
102
RTVSPropertyOp28
 70
     1
102
RTVSPropertyOp29
 70
     1
102
RTVSPropertyOp30
 70
     1
102
RTVSPropertyOp31
 70
     1
102
RTVSPropertyOp32
 70
     1
  0
XRECORD
  5
40F
102
{ACAD_REACTORS
330
40E
102
}
330
40E
100
AcDbXrecord
280
     1
102
RTVSPropertyOp0
 70
     1
102
RTVSPropertyOp1
 70
     1
102
RTVSPropertyOp2
 70
     1
102
RTVSPropertyOp3
 70
     1
102
RTVSPropertyOp4
 70
     1
102
RTVSPropertyOp5
 70
     1
102
RTVSPropertyOp6
 70
     1
102
RTVSPropertyOp7
 70
     1
102
RTVSPropertyOp8
 70
     1
102
RTVSPropertyOp9
 70
     1
102
RTVSPropertyOp10
 70
     1
102
RTVSPropertyOp11
 70
     1
102
RTVSPropertyOp12
 70
     1
102
RTVSPropertyOp13
 70
     1
102
RTVSPropertyOp14
 70
     1
102
RTVSPropertyOp15
 70
     1
102
RTVSPropertyOp16
 70
     1
102
RTVSPropertyOp17
 70
     1
102
RTVSPropertyOp18
 70
     1
102
RTVSPropertyOp19
 70
     1
102
RTVSPropertyOp20
 70
     1
102
RTVSPropertyOp21
 70
     1
102
RTVSPropertyOp22
 70
     1
102
RTVSPropertyOp23
 70
     1
102
RTVSPropertyOp24
 70
     1
102
RTVSPropertyOp25
 70
     1
102
RTVSPropertyOp26
 70
     1
102
RTVSPropertyOp27
 70
     1
102
RTVSPropertyOp28
 70
     1
102
RTVSPropertyOp29
 70
     1
102
RTVSPropertyOp30
 70
     1
102
RTVSPropertyOp31
 70
     1
102
RTVSPropertyOp32
 70
     1
  0
XRECORD
  5
417
102
{ACAD_REACTORS
330
416
102
}
330
416
100
AcDbXrecord
280
     1
102
RTVSPropertyOp0
 70
     1
102
RTVSPropertyOp1
 70
     1
102
RTVSPropertyOp2
 70
     1
102
RTVSPropertyOp3
 70
     1
102
RTVSPropertyOp4
 70
     1
102
RTVSPropertyOp5
 70
     1
102
RTVSPropertyOp6
 70
     1
102
RTVSPropertyOp7
 70
     1
102
RTVSPropertyOp8
 70
     1
102
RTVSPropertyOp9
 70
     1
102
RTVSPropertyOp10
 70
     1
102
RTVSPropertyOp11
 70
     1
102
RTVSPropertyOp12
 70
     1
102
RTVSPropertyOp13
 70
     1
102
RTVSPropertyOp14
 70
     1
102
RTVSPropertyOp15
 70
     1
102
RTVSPropertyOp16
 70
     1
102
RTVSPropertyOp17
 70
     1
102
RTVSPropertyOp18
 70
     1
102
RTVSPropertyOp19
 70
     1
102
RTVSPropertyOp20
 70
     1
102
RTVSPropertyOp21
 70
     1
102
RTVSPropertyOp22
 70
     1
102
RTVSPropertyOp23
 70
     1
102
RTVSPropertyOp24
 70
     1
102
RTVSPropertyOp25
 70
     1
102
RTVSPropertyOp26
 70
     1
102
RTVSPropertyOp27
 70
     1
102
RTVSPropertyOp28
 70
     1
102
RTVSPropertyOp29
 70
     1
102
RTVSPropertyOp30
 70
     1
102
RTVSPropertyOp31
 70
     1
102
RTVSPropertyOp32
 70
     1
  0
XRECORD
  5
40B
102
{ACAD_REACTORS
330
40A
102
}
330
40A
100
AcDbXrecord
280
     1
102
RTVSPropertyOp0
 70
     1
102
RTVSPropertyOp1
 70
     1
102
RTVSPropertyOp2
 70
     1
102
RTVSPropertyOp3
 70
     1
102
RTVSPropertyOp4
 70
     1
102
RTVSPropertyOp5
 70
     1
102
RTVSPropertyOp6
 70
     1
102
RTVSPropertyOp7
 70
     1
102
RTVSPropertyOp8
 70
     1
102
RTVSPropertyOp9
 70
     1
102
RTVSPropertyOp10
 70
     1
102
RTVSPropertyOp11
 70
     1
102
RTVSPropertyOp12
 70
     1
102
RTVSPropertyOp13
 70
     1
102
RTVSPropertyOp14
 70
     1
102
RTVSPropertyOp15
 70
     1
102
RTVSPropertyOp16
 70
     1
102
RTVSPropertyOp17
 70
     1
102
RTVSPropertyOp18
 70
     1
102
RTVSPropertyOp19
 70
     1
102
RTVSPropertyOp20
 70
     1
102
RTVSPropertyOp21
 70
     1
102
RTVSPropertyOp22
 70
     1
102
RTVSPropertyOp23
 70
     1
102
RTVSPropertyOp24
 70
     1
102
RTVSPropertyOp25
 70
     1
102
RTVSPropertyOp26
 70
     1
102
RTVSPropertyOp27
 70
     1
102
RTVSPropertyOp28
 70
     1
102
RTVSPropertyOp29
 70
     1
102
RTVSPropertyOp30
 70
     1
102
RTVSPropertyOp31
 70
     1
102
RTVSPropertyOp32
 70
     1
  0
XRECORD
  5
40D
102
{ACAD_REACTORS
330
40C
102
}
330
40C
100
AcDbXrecord
280
     1
102
RTVSPropertyOp0
 70
     1
102
RTVSPropertyOp1
 70
     1
102
RTVSPropertyOp2
 70
     1
102
RTVSPropertyOp3
 70
     1
102
RTVSPropertyOp4
 70
     1
102
RTVSPropertyOp5
 70
     1
102
RTVSPropertyOp6
 70
     1
102
RTVSPropertyOp7
 70
     1
102
RTVSPropertyOp8
 70
     1
102
RTVSPropertyOp9
 70
     1
102
RTVSPropertyOp10
 70
     1
102
RTVSPropertyOp11
 70
     1
102
RTVSPropertyOp12
 70
     1
102
RTVSPropertyOp13
 70
     1
102
RTVSPropertyOp14
 70
     1
102
RTVSPropertyOp15
 70
     1
102
RTVSPropertyOp16
 70
     1
102
RTVSPropertyOp17
 70
     1
102
RTVSPropertyOp18
 70
     1
102
RTVSPropertyOp19
 70
     1
102
RTVSPropertyOp20
 70
     1
102
RTVSPropertyOp21
 70
     1
102
RTVSPropertyOp22
 70
     1
102
RTVSPropertyOp23
 70
     1
102
RTVSPropertyOp24
 70
     1
102
RTVSPropertyOp25
 70
     1
102
RTVSPropertyOp26
 70
     1
102
RTVSPropertyOp27
 70
     1
102
RTVSPropertyOp28
 70
     1
102
RTVSPropertyOp29
 70
     1
102
RTVSPropertyOp30
 70
     1
102
RTVSPropertyOp31
 70
     1
102
RTVSPropertyOp32
 70
     1
  0
XRECORD
  5
415
102
{ACAD_REACTORS
330
414
102
}
330
414
100
AcDbXrecord
280
     1
102
RTVSPropertyOp0
 70
     1
102
RTVSPropertyOp1
 70
     1
102
RTVSPropertyOp2
 70
     1
102
RTVSPropertyOp3
 70
     1
102
RTVSPropertyOp4
 70
     1
102
RTVSPropertyOp5
 70
     1
102
RTVSPropertyOp6
 70
     1
102
RTVSPropertyOp7
 70
     1
102
RTVSPropertyOp8
 70
     1
102
RTVSPropertyOp9
 70
     1
102
RTVSPropertyOp10
 70
     1
102
RTVSPropertyOp11
 70
     1
102
RTVSPropertyOp12
 70
     1
102
RTVSPropertyOp13
 70
     1
102
RTVSPropertyOp14
 70
     1
102
RTVSPropertyOp15
 70
     1
102
RTVSPropertyOp16
 70
     1
102
RTVSPropertyOp17
 70
     1
102
RTVSPropertyOp18
 70
     1
102
RTVSPropertyOp19
 70
     1
102
RTVSPropertyOp20
 70
     1
102
RTVSPropertyOp21
 70
     1
102
RTVSPropertyOp22
 70
     1
102
RTVSPropertyOp23
 70
     1
102
RTVSPropertyOp24
 70
     1
102
RTVSPropertyOp25
 70
     1
102
RTVSPropertyOp26
 70
     1
102
RTVSPropertyOp27
 70
     1
102
RTVSPropertyOp28
 70
     1
102
RTVSPropertyOp29
 70
     1
102
RTVSPropertyOp30
 70
     1
102
RTVSPropertyOp31
 70
     1
102
RTVSPropertyOp32
 70
     1
  0
XRECORD
  5
3F9
102
{ACAD_REACTORS
330
3F8
102
}
330
3F8
100
AcDbXrecord
280
     1
102
RTVSPropertyOp0
 70
     1
102
RTVSPropertyOp1
 70
     1
102
RTVSPropertyOp2
 70
     1
102
RTVSPropertyOp3
 70
     1
102
RTVSPropertyOp4
 70
     1
102
RTVSPropertyOp5
 70
     1
102
RTVSPropertyOp6
 70
     1
102
RTVSPropertyOp7
 70
     1
102
RTVSPropertyOp8
 70
     1
102
RTVSPropertyOp9
 70
     1
102
RTVSPropertyOp10
 70
     1
102
RTVSPropertyOp11
 70
     1
102
RTVSPropertyOp12
 70
     1
102
RTVSPropertyOp13
 70
     1
102
RTVSPropertyOp14
 70
     1
102
RTVSPropertyOp15
 70
     1
102
RTVSPropertyOp16
 70
     1
102
RTVSPropertyOp17
 70
     1
102
RTVSPropertyOp18
 70
     1
102
RTVSPropertyOp19
 70
     1
102
RTVSPropertyOp20
 70
     1
102
RTVSPropertyOp21
 70
     1
102
RTVSPropertyOp22
 70
     1
102
RTVSPropertyOp23
 70
     1
102
RTVSPropertyOp24
 70
     1
102
RTVSPropertyOp25
 70
     1
102
RTVSPropertyOp26
 70
     1
102
RTVSPropertyOp27
 70
     1
102
RTVSPropertyOp28
 70
     1
102
RTVSPropertyOp29
 70
     1
102
RTVSPropertyOp30
 70
     1
102
RTVSPropertyOp31
 70
     1
102
RTVSPropertyOp32
 70
     1
  0
XRECORD
  5
3FB
102
{ACAD_REACTORS
330
3FA
102
}
330
3FA
100
AcDbXrecord
280
     1
102
RTVSPropertyOp0
 70
     1
102
RTVSPropertyOp1
 70
     1
102
RTVSPropertyOp2
 70
     1
102
RTVSPropertyOp3
 70
     1
102
RTVSPropertyOp4
 70
     1
102
RTVSPropertyOp5
 70
     1
102
RTVSPropertyOp6
 70
     1
102
RTVSPropertyOp7
 70
     1
102
RTVSPropertyOp8
 70
     1
102
RTVSPropertyOp9
 70
     1
102
RTVSPropertyOp10
 70
     1
102
RTVSPropertyOp11
 70
     1
102
RTVSPropertyOp12
 70
     1
102
RTVSPropertyOp13
 70
     1
102
RTVSPropertyOp14
 70
     1
102
RTVSPropertyOp15
 70
     1
102
RTVSPropertyOp16
 70
     1
102
RTVSPropertyOp17
 70
     1
102
RTVSPropertyOp18
 70
     1
102
RTVSPropertyOp19
 70
     1
102
RTVSPropertyOp20
 70
     1
102
RTVSPropertyOp21
 70
     1
102
RTVSPropertyOp22
 70
     1
102
RTVSPropertyOp23
 70
     1
102
RTVSPropertyOp24
 70
     1
102
RTVSPropertyOp25
 70
     1
102
RTVSPropertyOp26
 70
     1
102
RTVSPropertyOp27
 70
     1
102
RTVSPropertyOp28
 70
     1
102
RTVSPropertyOp29
 70
     1
102
RTVSPropertyOp30
 70
     1
102
RTVSPropertyOp31
 70
     1
102
RTVSPropertyOp32
 70
     1
  0
XRECORD
  5
3FD
102
{ACAD_REACTORS
330
3FC
102
}
330
3FC
100
AcDbXrecord
280
     1
102
RTVSPropertyOp0
 70
     1
102
RTVSPropertyOp1
 70
     1
102
RTVSPropertyOp2
 70
     1
102
RTVSPropertyOp3
 70
     1
102
RTVSPropertyOp4
 70
     1
102
RTVSPropertyOp5
 70
     1
102
RTVSPropertyOp6
 70
     1
102
RTVSPropertyOp7
 70
     1
102
RTVSPropertyOp8
 70
     1
102
RTVSPropertyOp9
 70
     1
102
RTVSPropertyOp10
 70
     1
102
RTVSPropertyOp11
 70
     1
102
RTVSPropertyOp12
 70
     1
102
RTVSPropertyOp13
 70
     1
102
RTVSPropertyOp14
 70
     1
102
RTVSPropertyOp15
 70
     1
102
RTVSPropertyOp16
 70
     1
102
RTVSPropertyOp17
 70
     1
102
RTVSPropertyOp18
 70
     1
102
RTVSPropertyOp19
 70
     1
102
RTVSPropertyOp20
 70
     1
102
RTVSPropertyOp21
 70
     1
102
RTVSPropertyOp22
 70
     1
102
RTVSPropertyOp23
 70
     1
102
RTVSPropertyOp24
 70
     1
102
RTVSPropertyOp25
 70
     1
102
RTVSPropertyOp26
 70
     1
102
RTVSPropertyOp27
 70
     1
102
RTVSPropertyOp28
 70
     1
102
RTVSPropertyOp29
 70
     1
102
RTVSPropertyOp30
 70
     1
102
RTVSPropertyOp31
 70
     1
102
RTVSPropertyOp32
 70
     1
  0
XRECORD
  5
3FF
102
{ACAD_REACTORS
330
3FE
102
}
330
3FE
100
AcDbXrecord
280
     1
102
RTVSPropertyOp0
 70
     1
102
RTVSPropertyOp1
 70
     1
102
RTVSPropertyOp2
 70
     1
102
RTVSPropertyOp3
 70
     1
102
RTVSPropertyOp4
 70
     1
102
RTVSPropertyOp5
 70
     1
102
RTVSPropertyOp6
 70
     1
102
RTVSPropertyOp7
 70
     1
102
RTVSPropertyOp8
 70
     1
102
RTVSPropertyOp9
 70
     1
102
RTVSPropertyOp10
 70
     1
102
RTVSPropertyOp11
 70
     1
102
RTVSPropertyOp12
 70
     1
102
RTVSPropertyOp13
 70
     1
102
RTVSPropertyOp14
 70
     1
102
RTVSPropertyOp15
 70
     1
102
RTVSPropertyOp16
 70
     1
102
RTVSPropertyOp17
 70
     1
102
RTVSPropertyOp18
 70
     1
102
RTVSPropertyOp19
 70
     1
102
RTVSPropertyOp20
 70
     1
102
RTVSPropertyOp21
 70
     1
102
RTVSPropertyOp22
 70
     1
102
RTVSPropertyOp23
 70
     1
102
RTVSPropertyOp24
 70
     1
102
RTVSPropertyOp25
 70
     1
102
RTVSPropertyOp26
 70
     1
102
RTVSPropertyOp27
 70
     1
102
RTVSPropertyOp28
 70
     1
102
RTVSPropertyOp29
 70
     1
102
RTVSPropertyOp30
 70
     1
102
RTVSPropertyOp31
 70
     1
102
RTVSPropertyOp32
 70
     1
  0
XRECORD
  5
413
102
{ACAD_REACTORS
330
412
102
}
330
412
100
AcDbXrecord
280
     1
102
RTVSPropertyOp0
 70
     1
102
RTVSPropertyOp1
 70
     1
102
RTVSPropertyOp2
 70
     1
102
RTVSPropertyOp3
 70
     1
102
RTVSPropertyOp4
 70
     1
102
RTVSPropertyOp5
 70
     1
102
RTVSPropertyOp6
 70
     1
102
RTVSPropertyOp7
 70
     1
102
RTVSPropertyOp8
 70
     1
102
RTVSPropertyOp9
 70
     1
102
RTVSPropertyOp10
 70
     1
102
RTVSPropertyOp11
 70
     1
102
RTVSPropertyOp12
 70
     1
102
RTVSPropertyOp13
 70
     1
102
RTVSPropertyOp14
 70
     1
102
RTVSPropertyOp15
 70
     1
102
RTVSPropertyOp16
 70
     1
102
RTVSPropertyOp17
 70
     1
102
RTVSPropertyOp18
 70
     1
102
RTVSPropertyOp19
 70
     1
102
RTVSPropertyOp20
 70
     1
102
RTVSPropertyOp21
 70
     1
102
RTVSPropertyOp22
 70
     1
102
RTVSPropertyOp23
 70
     1
102
RTVSPropertyOp24
 70
     1
102
RTVSPropertyOp25
 70
     1
102
RTVSPropertyOp26
 70
     1
102
RTVSPropertyOp27
 70
     1
102
RTVSPropertyOp28
 70
     1
102
RTVSPropertyOp29
 70
     1
102
RTVSPropertyOp30
 70
     1
102
RTVSPropertyOp31
 70
     1
102
RTVSPropertyOp32
 70
     1
  0
XRECORD
  5
409
102
{ACAD_REACTORS
330
408
102
}
330
408
100
AcDbXrecord
280
     1
102
RTVSPropertyOp0
 70
     1
102
RTVSPropertyOp1
 70
     1
102
RTVSPropertyOp2
 70
     1
102
RTVSPropertyOp3
 70
     1
102
RTVSPropertyOp4
 70
     1
102
RTVSPropertyOp5
 70
     1
102
RTVSPropertyOp6
 70
     1
102
RTVSPropertyOp7
 70
     1
102
RTVSPropertyOp8
 70
     1
102
RTVSPropertyOp9
 70
     1
102
RTVSPropertyOp10
 70
     1
102
RTVSPropertyOp11
 70
     1
102
RTVSPropertyOp12
 70
     1
102
RTVSPropertyOp13
 70
     1
102
RTVSPropertyOp14
 70
     1
102
RTVSPropertyOp15
 70
     1
102
RTVSPropertyOp16
 70
     1
102
RTVSPropertyOp17
 70
     1
102
RTVSPropertyOp18
 70
     1
102
RTVSPropertyOp19
 70
     1
102
RTVSPropertyOp20
 70
     1
102
RTVSPropertyOp21
 70
     1
102
RTVSPropertyOp22
 70
     1
102
RTVSPropertyOp23
 70
     1
102
RTVSPropertyOp24
 70
     1
102
RTVSPropertyOp25
 70
     1
102
RTVSPropertyOp26
 70
     1
102
RTVSPropertyOp27
 70
     1
102
RTVSPropertyOp28
 70
     1
102
RTVSPropertyOp29
 70
     1
102
RTVSPropertyOp30
 70
     1
102
RTVSPropertyOp31
 70
     1
102
RTVSPropertyOp32
 70
     1
  0
XRECORD
  5
411
102
{ACAD_REACTORS
330
410
102
}
330
410
100
AcDbXrecord
280
     1
102
RTVSPropertyOp0
 70
     1
102
RTVSPropertyOp1
 70
     1
102
RTVSPropertyOp2
 70
     1
102
RTVSPropertyOp3
 70
     1
102
RTVSPropertyOp4
 70
     1
102
RTVSPropertyOp5
 70
     1
102
RTVSPropertyOp6
 70
     1
102
RTVSPropertyOp7
 70
     1
102
RTVSPropertyOp8
 70
     1
102
RTVSPropertyOp9
 70
     1
102
RTVSPropertyOp10
 70
     1
102
RTVSPropertyOp11
 70
     1
102
RTVSPropertyOp12
 70
     1
102
RTVSPropertyOp13
 70
     1
102
RTVSPropertyOp14
 70
     1
102
RTVSPropertyOp15
 70
     1
102
RTVSPropertyOp16
 70
     1
102
RTVSPropertyOp17
 70
     1
102
RTVSPropertyOp18
 70
     1
102
RTVSPropertyOp19
 70
     1
102
RTVSPropertyOp20
 70
     1
102
RTVSPropertyOp21
 70
     1
102
RTVSPropertyOp22
 70
     1
102
RTVSPropertyOp23
 70
     1
102
RTVSPropertyOp24
 70
     1
102
RTVSPropertyOp25
 70
     1
102
RTVSPropertyOp26
 70
     1
102
RTVSPropertyOp27
 70
     1
102
RTVSPropertyOp28
 70
     1
102
RTVSPropertyOp29
 70
     1
102
RTVSPropertyOp30
 70
     1
102
RTVSPropertyOp31
 70
     1
102
RTVSPropertyOp32
 70
     1
  0
ENDSEC
  0
EOF
