  0
SECTION
  2
HEADER
  9
$ACADVER
  1
AC1018
  9
$ACADMAINTVER
 70
     0
  9
$DWGCODEPAGE
  3
ANSI_1252
  9
$INSBASE
 10
0.0
 20
0.0
 30
0.0
  9
$EXTMIN
 10
-153.1999975146535
 20
280.2999996756695
 30
0.0
  9
$EXTMAX
 10
266.8000024853449
 20
577.2999996756695
 30
0.0
  9
$LIMMIN
 10
0.0
 20
0.0
  9
$LIMMAX
 10
12.0
 20
9.0
  9
$ORTHOMODE
 70
     0
  9
$REGENMODE
 70
     1
  9
$FILLMODE
 70
     1
  9
$QTEXTMODE
 70
     0
  9
$MIRRTEXT
 70
     1
  9
$LTSCALE
 40
1.0
  9
$ATTMODE
 70
     1
  9
$TEXTSIZE
 40
0.2
  9
$TRACEWID
 40
0.05
  9
$TEXTSTYLE
  7
Standard
  9
$CLAYER
  8
0
  9
$CELTYPE
  6
ByLayer
  9
$CECOLOR
 62
   256
  9
$CELTSCALE
 40
1.0
  9
$DISPSILH
 70
     0
  9
$DIMSCALE
 40
1.0
  9
$DIMASZ
 40
0.18
  9
$DIMEXO
 40
0.0625
  9
$DIMDLI
 40
0.38
  9
$DIMRND
 40
0.0
  9
$DIMDLE
 40
0.0
  9
$DIMEXE
 40
0.18
  9
$DIMTP
 40
0.0
  9
$DIMTM
 40
0.0
  9
$DIMTXT
 40
0.18
  9
$DIMCEN
 40
0.09
  9
$DIMTSZ
 40
0.0
  9
$DIMTOL
 70
     0
  9
$DIMLIM
 70
     0
  9
$DIMTIH
 70
     1
  9
$DIMTOH
 70
     1
  9
$DIMSE1
 70
     0
  9
$DIMSE2
 70
     0
  9
$DIMTAD
 70
     0
  9
$DIMZIN
 70
     0
  9
$DIMBLK
  1

  9
$DIMASO
 70
     1
  9
$DIMSHO
 70
     1
  9
$DIMPOST
  1

  9
$DIMAPOST
  1

  9
$DIMALT
 70
     0
  9
$DIMALTD
 70
     2
  9
$DIMALTF
 40
25.4
  9
$DIMLFAC
 40
1.0
  9
$DIMTOFL
 70
     0
  9
$DIMTVP
 40
0.0
  9
$DIMTIX
 70
     0
  9
$DIMSOXD
 70
     0
  9
$DIMSAH
 70
     0
  9
$DIMBLK1
  1

  9
$DIMBLK2
  1

  9
$DIMSTYLE
  2
Standard
  9
$DIMCLRD
 70
     0
  9
$DIMCLRE
 70
     0
  9
$DIMCLRT
 70
     0
  9
$DIMTFAC
 40
1.0
  9
$DIMGAP
 40
0.09
  9
$DIMJUST
 70
     0
  9
$DIMSD1
 70
     0
  9
$DIMSD2
 70
     0
  9
$DIMTOLJ
 70
     1
  9
$DIMTZIN
 70
     0
  9
$DIMALTZ
 70
     0
  9
$DIMALTTZ
 70
     0
  9
$DIMUPT
 70
     0
  9
$DIMDEC
 70
     4
  9
$DIMTDEC
 70
     4
  9
$DIMALTU
 70
     2
  9
$DIMALTTD
 70
     2
  9
$DIMTXSTY
  7
Standard
  9
$DIMAUNIT
 70
     0
  9
$DIMADEC
 70
     0
  9
$DIMALTRND
 40
0.0
  9
$DIMAZIN
 70
     0
  9
$DIMDSEP
 70
    46
  9
$DIMATFIT
 70
     3
  9
$DIMFRAC
 70
     0
  9
$DIMLDRBLK
  1

  9
$DIMLUNIT
 70
     2
  9
$DIMLWD
 70
    -2
  9
$DIMLWE
 70
    -2
  9
$DIMTMOVE
 70
     0
  9
$LUNITS
 70
     2
  9
$LUPREC
 70
     4
  9
$SKETCHINC
 40
0.1
  9
$FILLETRAD
 40
0.5
  9
$AUNITS
 70
     0
  9
$AUPREC
 70
     0
  9
$MENU
  1
.
  9
$ELEVATION
 40
0.0
  9
$PELEVATION
 40
0.0
  9
$THICKNESS
 40
0.0
  9
$LIMCHECK
 70
     0
  9
$CHAMFERA
 40
0.5
  9
$CHAMFERB
 40
0.5
  9
$CHAMFERC
 40
1.0
  9
$CHAMFERD
 40
0.0
  9
$SKPOLY
 70
     0
  9
$TDCREATE
 40
2458158.319885046
  9
$TDUCREATE
 40
2458158.27821838
  9
$TDUPDATE
 40
2458158.319885405
  9
$TDUUPDATE
 40
2458158.278218738
  9
$TDINDWG
 40
0.0000000116
  9
$TDUSRTIMER
 40
0.0000000116
  9
$USRTIMER
 70
     1
  9
$ANGBASE
 50
0.0
  9
$ANGDIR
 70
     0
  9
$PDMODE
 70
     0
  9
$PDSIZE
 40
0.0
  9
$PLINEWID
 40
0.0
  9
$SPLFRAME
 70
     0
  9
$SPLINETYPE
 70
     6
  9
$SPLINESEGS
 70
     8
  9
$HANDSEED
  5
314
  9
$SURFTAB1
 70
     6
  9
$SURFTAB2
 70
     6
  9
$SURFTYPE
 70
     6
  9
$SURFU
 70
     6
  9
$SURFV
 70
     6
  9
$UCSBASE
  2

  9
$UCSNAME
  2

  9
$UCSORG
 10
0.0
 20
0.0
 30
0.0
  9
$UCSXDIR
 10
1.0
 20
0.0
 30
0.0
  9
$UCSYDIR
 10
0.0
 20
1.0
 30
0.0
  9
$UCSORTHOREF
  2

  9
$UCSORTHOVIEW
 70
     0
  9
$UCSORGTOP
 10
0.0
 20
0.0
 30
0.0
  9
$UCSORGBOTTOM
 10
0.0
 20
0.0
 30
0.0
  9
$UCSORGLEFT
 10
0.0
 20
0.0
 30
0.0
  9
$UCSORGRIGHT
 10
0.0
 20
0.0
 30
0.0
  9
$UCSORGFRONT
 10
0.0
 20
0.0
 30
0.0
  9
$UCSORGBACK
 10
0.0
 20
0.0
 30
0.0
  9
$PUCSBASE
  2

  9
$PUCSNAME
  2

  9
$PUCSORG
 10
0.0
 20
0.0
 30
0.0
  9
$PUCSXDIR
 10
1.0
 20
0.0
 30
0.0
  9
$PUCSYDIR
 10
0.0
 20
1.0
 30
0.0
  9
$PUCSORTHOREF
  2

  9
$PUCSORTHOVIEW
 70
     0
  9
$PUCSORGTOP
 10
0.0
 20
0.0
 30
0.0
  9
$PUCSORGBOTTOM
 10
0.0
 20
0.0
 30
0.0
  9
$PUCSORGLEFT
 10
0.0
 20
0.0
 30
0.0
  9
$PUCSORGRIGHT
 10
0.0
 20
0.0
 30
0.0
  9
$PUCSORGFRONT
 10
0.0
 20
0.0
 30
0.0
  9
$PUCSORGBACK
 10
0.0
 20
0.0
 30
0.0
  9
$USERI1
 70
     0
  9
$USERI2
 70
     0
  9
$USERI3
 70
     0
  9
$USERI4
 70
     0
  9
$USERI5
 70
     0
  9
$USERR1
 40
18.1
  9
$USERR2
 40
0.0
  9
$USERR3
 40
0.0
  9
$USERR4
 40
0.0
  9
$USERR5
 40
0.0
  9
$WORLDVIEW
 70
     1
  9
$SHADEDGE
 70
     3
  9
$SHADEDIF
 70
    70
  9
$TILEMODE
 70
     1
  9
$MAXACTVP
 70
    64
  9
$PINSBASE
 10
0.0
 20
0.0
 30
0.0
  9
$PLIMCHECK
 70
     0
  9
$PEXTMIN
 10
1.00000000000000E+20
 20
1.00000000000000E+20
 30
1.00000000000000E+20
  9
$PEXTMAX
 10
-1.00000000000000E+20
 20
-1.00000000000000E+20
 30
-1.00000000000000E+20
  9
$PLIMMIN
 10
0.0
 20
0.0
  9
$PLIMMAX
 10
12.0
 20
9.0
  9
$UNITMODE
 70
     0
  9
$VISRETAIN
 70
     1
  9
$PLINEGEN
 70
     0
  9
$PSLTSCALE
 70
     1
  9
$TREEDEPTH
 70
  3020
  9
$CMLSTYLE
  2
Standard
  9
$CMLJUST
 70
     0
  9
$CMLSCALE
 40
1.0
  9
$PROXYGRAPHICS
 70
     1
  9
$MEASUREMENT
 70
     1
  9
$CELWEIGHT
370
    -1
  9
$ENDCAPS
280
     0
  9
$JOINSTYLE
280
     0
  9
$LWDISPLAY
290
     0
  9
$INSUNITS
 70
     4
  9
$HYPERLINKBASE
  1

  9
$STYLESHEET
  1

  9
$XEDIT
290
     1
  9
$CEPSNTYPE
380
     0
  9
$PSTYLEMODE
290
     1
  9
$FINGERPRINTGUID
  2
{4EA934CE-9E56-4815-87F4-EBA961E7958E}
  9
$VERSIONGUID
  2
{FAEB1C32-E019-11D5-929B-00C0DF256EC4}
  9
$EXTNAMES
290
     1
  9
$PSVPSCALE
 40
0.0
  9
$OLESTARTUP
290
     0
  9
$SORTENTS
280
   127
  9
$INDEXCTL
280
     0
  9
$HIDETEXT
280
     1
  9
$XCLIPFRAME
290
     0
  9
$HALOGAP
280
     0
  9
$OBSCOLOR
 70
   257
  9
$OBSLTYPE
280
     0
  9
$INTERSECTIONDISPLAY
280
     0
  9
$INTERSECTIONCOLOR
 70
   257
  9
$DIMASSOC
280
     2
  9
$PROJECTNAME
  1

  0
ENDSEC
  0
SECTION
  2
CLASSES
  0
CLASS
  1
ACDBDICTIONARYWDFLT
  2
AcDbDictionaryWithDefault
  3
ObjectDBX Classes
 90
        0
 91
        4
280
     0
281
     0
  0
CLASS
  1
VISUALSTYLE
  2
AcDbVisualStyle
  3
ObjectDBX Classes
 90
     4095
 91
        4
280
     0
281
     0
  0
CLASS
  1
MATERIAL
  2
AcDbMaterial
  3
ObjectDBX Classes
 90
     1153
 91
        4
280
     0
281
     0
  0
ENDSEC
  0
SECTION
  2
TABLES
  0
TABLE
  2
VPORT
  5
8
330
0
100
AcDbSymbolTable
 70
     1
  0
VPORT
  5
29
330
8
100
AcDbSymbolTableRecord
100
AcDbViewportTableRecord
  2
*Active
 70
     0
 10
0.0
 20
0.0
 11
1.0
 21
1.0
 12
56.80000248534571
 22
428.7999996756695
 13
0.0
 23
0.0
 14
0.5
 24
0.5
 15
0.5
 25
0.5
 16
0.0
 26
0.0
 36
1.0
 17
0.0
 27
0.0
 37
0.0
 40
326.7
 41
1.60267857142857
 42
50.0
 43
0.0
 44
0.0
 50
0.0
 51
0.0
 71
     0
 72
   100
 73
     1
 74
     3
 75
     0
 76
     0
 77
     0
 78
     0
281
     0
 65
     1
110
0.0
120
0.0
130
0.0
111
1.0
121
0.0
131
0.0
112
0.0
122
1.0
132
0.0
 79
     0
146
0.0
  0
ENDTAB
  0
TABLE
  2
LTYPE
  5
5
330
0
100
AcDbSymbolTable
 70
     8
  0
LTYPE
  5
14
330
5
100
AcDbSymbolTableRecord
100
AcDbLinetypeTableRecord
  2
ByBlock
 70
     0
  3

 72
    65
 73
     0
 40
0.0
  0
LTYPE
  5
15
330
5
100
AcDbSymbolTableRecord
100
AcDbLinetypeTableRecord
  2
ByLayer
 70
     0
  3

 72
    65
 73
     0
 40
0.0
  0
LTYPE
  5
16
330
5
100
AcDbSymbolTableRecord
100
AcDbLinetypeTableRecord
  2
Continuous
 70
     0
  3
Solid line
 72
    65
 73
     0
 40
0.0
  0
LTYPE
  5
3F
330
5
100
AcDbSymbolTableRecord
100
AcDbLinetypeTableRecord
  2
DASHED
 70
     0
  3
Dashed
 72
    65
 73
     2
 40
15.0
 49
7.0
 74
     0
 49
-8.0
 74
     0
  0
LTYPE
  5
40
330
5
100
AcDbSymbolTableRecord
100
AcDbLinetypeTableRecord
  2
DOTTED
 70
     0
  3
Dotted
 72
    65
 73
     2
 40
1.0
 49
0.0
 74
     0
 49
-1.0
 74
     0
  0
LTYPE
  5
41
330
5
100
AcDbSymbolTableRecord
100
AcDbLinetypeTableRecord
  2
DOT_CENTER
 70
     0
  3
Dot_Center
 72
    65
 73
     4
 40
14.0
 49
12.0
 74
     0
 49
-1.0
 74
     0
 49
0.0
 74
     0
 49
-1.0
 74
     0
  0
LTYPE
  5
42
330
5
100
AcDbSymbolTableRecord
100
AcDbLinetypeTableRecord
  2
LONG_DASHED
 70
     0
  3
Long_Dashed
 72
    65
 73
     2
 40
15.0
 49
10.0
 74
     0
 49
-5.0
 74
     0
  0
LTYPE
  5
43
330
5
100
AcDbSymbolTableRecord
100
AcDbLinetypeTableRecord
  2
DASH_CENTER
 70
     0
  3
Dash_Center
 72
    65
 73
     4
 40
14.0
 49
11.0
 74
     0
 49
-1.0
 74
     0
 49
1.0
 74
     0
 49
-1.0
 74
     0
  0
LTYPE
  5
44
330
5
100
AcDbSymbolTableRecord
100
AcDbLinetypeTableRecord
  2
PHANTOM
 70
     0
  3
Phantom
 72
    65
 73
     6
 40
13.0
 49
10.0
 74
     0
 49
-1.0
 74
     0
 49
0.0
 74
     0
 49
-1.0
 74
     0
 49
0.0
 74
     0
 49
-1.0
 74
     0
  0
LTYPE
  5
45
330
5
100
AcDbSymbolTableRecord
100
AcDbLinetypeTableRecord
  2
CENTER_DASH_DASH
 70
     0
  3
Center_Dash_Dash
 72
    65
 73
     6
 40
14.0
 49
9.0
 74
     0
 49
-1.0
 74
     0
 49
1.0
 74
     0
 49
-1.0
 74
     0
 49
1.0
 74
     0
 49
-1.0
 74
     0
  0
ENDTAB
  0
TABLE
  2
LAYER
  5
2
330
0
100
AcDbSymbolTable
 70
     2
  0
LAYER
  5
10
330
2
100
AcDbSymbolTableRecord
100
AcDbLayerTableRecord
  2
0
 70
     0
 62
     7
  6
Continuous
370
    -3
390
F
  0
LAYER
  5
46
330
2
100
AcDbSymbolTableRecord
100
AcDbLayerTableRecord
  2
1
 70
     0
 62
     7
  6
Continuous
370
    -3
390
F
  0
ENDTAB
  0
TABLE
  2
STYLE
  5
3
330
0
100
AcDbSymbolTable
 70
     5
  0
STYLE
  5
11
330
3
100
AcDbSymbolTableRecord
100
AcDbTextStyleTableRecord
  2
Standard
 70
     0
 40
0.0
 41
1.0
 50
0.0
 71
     0
 42
0.2
  3
txt
  4

  0
STYLE
  5
E6
330
3
100
AcDbSymbolTableRecord
100
AcDbTextStyleTableRecord
  2
CONVERTER_11
 70
     0
 40
0.0
 41
0.9
 50
0.0
 71
     0
 42
0.2
  3
txt.shx
  4

  0
STYLE
  5
2B8
330
3
100
AcDbSymbolTableRecord
100
AcDbTextStyleTableRecord
  2
CONVERTER_12
 70
     0
 40
0.0
 41
0.81
 50
0.0
 71
     0
 42
0.2
  3
txt.shx
  4

  0
STYLE
  5
2BE
330
3
100
AcDbSymbolTableRecord
100
AcDbTextStyleTableRecord
  2
CONVERTER_13
 70
     0
 40
0.0
 41
0.855
 50
0.0
 71
     0
 42
0.2
  3
txt.shx
  4

  0
STYLE
  5
2C1
330
3
100
AcDbSymbolTableRecord
100
AcDbTextStyleTableRecord
  2
CONVERTER_14
 70
     0
 40
0.0
 41
0.72
 50
0.0
 71
     0
 42
0.2
  3
txt.shx
  4

  0
ENDTAB
  0
TABLE
  2
VIEW
  5
6
330
0
100
AcDbSymbolTable
 70
     0
  0
ENDTAB
  0
TABLE
  2
UCS
  5
7
330
0
100
AcDbSymbolTable
 70
     0
  0
ENDTAB
  0
TABLE
  2
APPID
  5
9
330
0
100
AcDbSymbolTable
 70
     1
  0
APPID
  5
12
330
9
100
AcDbSymbolTableRecord
100
AcDbRegAppTableRecord
  2
ACAD
 70
     0
  0
ENDTAB
  0
TABLE
  2
DIMSTYLE
  5
A
330
0
100
AcDbSymbolTable
 70
     5
100
AcDbDimStyleTable
  0
DIMSTYLE
105
27
330
A
100
AcDbSymbolTableRecord
100
AcDbDimStyleTableRecord
  2
Standard
 70
     0
178
     0
340
11
  0
DIMSTYLE
105
122
102
{ACAD_REACTORS
330
123
102
}
330
A
100
AcDbSymbolTableRecord
100
AcDbDimStyleTableRecord
  2
ME10_DIM_10
 70
     0
 41
1.75
 42
0.0
 44
0.75
 73
     0
 74
     0
 77
     1
 78
     8
140
1.75
147
0.75
172
     1
173
     1
174
     1
175
     1
176
     2
177
     2
271
     2
178
     3
271
     2
340
E6
  0
DIMSTYLE
105
187
102
{ACAD_REACTORS
330
188
102
}
330
A
100
AcDbSymbolTableRecord
100
AcDbDimStyleTableRecord
  2
ME10_DIM_11
 70
     0
 41
1.75
 42
0.0
 44
0.75
 73
     0
 74
     0
 77
     1
 78
     8
140
1.75
147
0.75
172
     1
173
     1
174
     1
175
     1
176
     2
177
     2
178
     3
340
E6
  0
DIMSTYLE
105
192
102
{ACAD_REACTORS
330
193
102
}
330
A
100
AcDbSymbolTableRecord
100
AcDbDimStyleTableRecord
  2
ME10_DIM_12
 70
     0
 41
1.75
 42
0.0
 44
0.75
 73
     0
 74
     0
 77
     1
 78
     8
140
1.75
147
0.75
172
     1
173
     1
174
     1
175
     1
176
     2
177
     2
271
     2
178
     3
271
     2
340
E6
  0
DIMSTYLE
105
19D
102
{ACAD_REACTORS
330
19E
102
}
330
A
100
AcDbSymbolTableRecord
100
AcDbDimStyleTableRecord
  2
ME10_DIM_13
 70
     0
 41
1.75
 42
0.0
 44
0.75
 73
     0
 74
     0
 77
     1
 78
     8
140
1.75
147
0.75
172
     1
173
     1
174
     1
175
     1
176
     2
177
     2
271
     2
178
     3
271
     2
340
E6
  0
ENDTAB
  0
TABLE
  2
BLOCK_RECORD
  5
1
330
0
100
AcDbSymbolTable
 70
    21
  0
BLOCK_RECORD
  5
1F
330
1
100
AcDbSymbolTableRecord
100
AcDbBlockTableRecord
  2
*Model_Space
340
22
  0
BLOCK_RECORD
  5
1B
330
1
100
AcDbSymbolTableRecord
100
AcDbBlockTableRecord
  2
*Paper_Space
340
1E
  0
BLOCK_RECORD
  5
23
330
1
100
AcDbSymbolTableRecord
100
AcDbBlockTableRecord
  2
*Paper_Space0
340
26
  0
BLOCK_RECORD
  5
47
330
1
100
AcDbSymbolTableRecord
100
AcDbBlockTableRecord
  2
MPB_18_1_3-select__1
340
0
102
{BLKREFS
331
4B
102
}
  0
BLOCK_RECORD
  5
4A
330
1
100
AcDbSymbolTableRecord
100
AcDbBlockTableRecord
  2
Allg1
340
0
102
{BLKREFS
331
7D
102
}
  0
BLOCK_RECORD
  5
4E
330
1
100
AcDbSymbolTableRecord
100
AcDbBlockTableRecord
  2
MPB_18_1_3-select__2
340
0
102
{BLKREFS
331
52
102
}
  0
BLOCK_RECORD
  5
51
330
1
100
AcDbSymbolTableRecord
100
AcDbBlockTableRecord
  2
Drfsicht1
340
0
102
{BLKREFS
331
7E
102
}
  0
BLOCK_RECORD
  5
55
330
1
100
AcDbSymbolTableRecord
100
AcDbBlockTableRecord
  2
MPB_18_1_3-select__3
340
0
102
{BLKREFS
331
59
102
}
  0
BLOCK_RECORD
  5
58
330
1
100
AcDbSymbolTableRecord
100
AcDbBlockTableRecord
  2
Rckans1
340
0
102
{BLKREFS
331
7F
102
}
  0
BLOCK_RECORD
  5
5C
330
1
100
AcDbSymbolTableRecord
100
AcDbBlockTableRecord
  2
MPB_18_1_3-select__4
340
0
102
{BLKREFS
331
60
102
}
  0
BLOCK_RECORD
  5
5F
330
1
100
AcDbSymbolTableRecord
100
AcDbBlockTableRecord
  2
SA_Links1
340
0
102
{BLKREFS
331
80
102
}
  0
BLOCK_RECORD
  5
63
330
1
100
AcDbSymbolTableRecord
100
AcDbBlockTableRecord
  2
MPB_18_1_3-select__5
340
0
102
{BLKREFS
331
67
102
}
  0
BLOCK_RECORD
  5
66
330
1
100
AcDbSymbolTableRecord
100
AcDbBlockTableRecord
  2
SA_Rechts1
340
0
102
{BLKREFS
331
81
102
}
  0
BLOCK_RECORD
  5
6A
330
1
100
AcDbSymbolTableRecord
100
AcDbBlockTableRecord
  2
MPB_18_1_3-select__6
340
0
102
{BLKREFS
331
6E
102
}
  0
BLOCK_RECORD
  5
6D
330
1
100
AcDbSymbolTableRecord
100
AcDbBlockTableRecord
  2
Vordans1
340
0
102
{BLKREFS
331
82
102
}
  0
BLOCK_RECORD
  5
71
330
1
100
AcDbSymbolTableRecord
100
AcDbBlockTableRecord
  2
_rahmen
340
0
102
{BLKREFS
331
78
102
}
  0
BLOCK_RECORD
  5
74
330
1
100
AcDbSymbolTableRecord
100
AcDbBlockTableRecord
  2
_punkt
340
0
102
{BLKREFS
331
79
102
}
  0
BLOCK_RECORD
  5
77
330
1
100
AcDbSymbolTableRecord
100
AcDbBlockTableRecord
  2
A3I_CS
340
0
102
{BLKREFS
331
83
102
}
  0
BLOCK_RECORD
  5
7C
330
1
100
AcDbSymbolTableRecord
100
AcDbBlockTableRecord
  2
1
340
0
102
{BLKREFS
331
86
102
}
  0
BLOCK_RECORD
  5
119
330
1
100
AcDbSymbolTableRecord
100
AcDbBlockTableRecord
  2
*D17
340
0
  0
BLOCK_RECORD
  5
17E
330
1
100
AcDbSymbolTableRecord
100
AcDbBlockTableRecord
  2
*D18
340
0
  0
BLOCK_RECORD
  5
189
330
1
100
AcDbSymbolTableRecord
100
AcDbBlockTableRecord
  2
*D19
340
0
  0
BLOCK_RECORD
  5
194
330
1
100
AcDbSymbolTableRecord
100
AcDbBlockTableRecord
  2
*D20
340
0
  0
ENDTAB
  0
ENDSEC
  0
SECTION
  2
BLOCKS
  0
BLOCK
  5
20
330
1F
100
AcDbEntity
  8
0
100
AcDbBlockBegin
  2
*Model_Space
 70
     0
 10
0.0
 20
0.0
 30
0.0
  3
*Model_Space
  1

  0
ENDBLK
  5
21
330
1F
100
AcDbEntity
  8
0
100
AcDbBlockEnd
  0
BLOCK
  5
1C
330
1B
100
AcDbEntity
 67
     1
  8
0
100
AcDbBlockBegin
  2
*Paper_Space
 70
     0
 10
0.0
 20
0.0
 30
0.0
  3
*Paper_Space
  1

  0
ENDBLK
  5
1D
330
1B
100
AcDbEntity
 67
     1
  8
0
100
AcDbBlockEnd
  0
BLOCK
  5
24
330
23
100
AcDbEntity
  8
0
100
AcDbBlockBegin
  2
*Paper_Space0
 70
     0
 10
0.0
 20
0.0
 30
0.0
  3
*Paper_Space0
  1

  0
ENDBLK
  5
25
330
23
100
AcDbEntity
  8
0
100
AcDbBlockEnd
  0
BLOCK
  5
48
330
47
100
AcDbEntity
  8
0
100
AcDbBlockBegin
  2
MPB_18_1_3-select__1
 70
     0
 10
68.31389430838188
 20
183.6492771294208
 30
0.0
  3
MPB_18_1_3-select__1
  1

  0
LINE
  5
87
330
47
100
AcDbEntity
  8
0
  6
Continuous
 62
     7
100
AcDbLine
 10
75.99359262835218
 20
210.4980755906155
 30
0.0
 11
75.23584410524808
 21
209.8418461199263
 31
0.0
  0
LINE
  5
88
330
47
100
AcDbEntity
  8
0
  6
Continuous
 62
     7
100
AcDbLine
 10
75.67312472504507
 20
206.9951624379372
 30
0.0
 11
75.55882566822338
 21
209.1218996568478
 31
0.0
  0
LINE
  5
89
330
47
100
AcDbEntity
  8
0
  6
Continuous
 62
     7
100
AcDbLine
 10
70.82536797935677
 20
199.8968819448036
 30
0.0
 11
70.82536797935677
 21
198.5978438391269
 31
0.0
  0
LINE
  5
8A
330
47
100
AcDbEntity
  8
0
  6
Continuous
 62
     2
100
AcDbLine
 10
73.67536797935678
 20
202.3650543455892
 30
0.0
 11
73.67536797935678
 21
201.0660162399126
 31
0.0
  0
LINE
  5
8B
330
47
100
AcDbEntity
  8
0
  6
Continuous
 62
     7
100
AcDbLine
 10
70.82536797935677
 20
199.8968819448036
 30
0.0
 11
73.67536797935678
 21
202.3650543455892
 31
0.0
  0
LINE
  5
8C
330
47
100
AcDbEntity
  8
0
  6
Continuous
 62
     7
100
AcDbLine
 10
70.82536797935677
 20
198.5978438391269
 30
0.0
 11
73.67536797935678
 21
201.0660162399126
 31
0.0
  0
LINE
  5
8D
330
47
100
AcDbEntity
  8
0
  6
Continuous
 62
     7
100
AcDbLine
 10
68.31389430838188
 20
199.322843839127
 30
0.0
 11
70.82536797935677
 21
198.5978438391269
 31
0.0
  0
LINE
  5
8E
330
47
100
AcDbEntity
  8
0
  6
Continuous
 62
     7
100
AcDbLine
 10
68.31389430838188
 20
200.6218819448036
 30
0.0
 11
68.31389430838188
 21
199.322843839127
 31
0.0
  0
LINE
  5
8F
330
47
100
AcDbEntity
  8
0
  6
Continuous
 62
     7
100
AcDbLine
 10
68.31389430838188
 20
200.6218819448036
 30
0.0
 11
70.82536797935677
 21
199.8968819448036
 31
0.0
  0
LINE
  5
90
330
47
100
AcDbEntity
  8
0
  6
Continuous
 62
     7
100
AcDbLine
 10
76.02152040206337
 20
197.0978438391269
 30
0.0
 11
76.02152040206337
 21
198.3968819448036
 31
0.0
  0
LINE
  5
91
330
47
100
AcDbEntity
  8
0
  6
Continuous
 62
     7
100
AcDbLine
 10
74.24464256238697
 20
196.5992771294208
 30
0.0
 11
74.24464256238697
 21
201.4210008498635
 31
0.0
  0
LINE
  5
92
330
47
100
AcDbEntity
  8
0
  6
Continuous
 62
     7
100
AcDbLine
 10
77.31389430838188
 20
208.4161105788636
 30
0.0
 11
68.31389430838188
 21
200.6218819448036
 31
0.0
  0
LINE
  5
93
330
47
100
AcDbEntity
  8
0
  6
Continuous
 62
     7
100
AcDbLine
 10
87.70619915379507
 20
202.81803436751
 30
0.0
 11
86.95619915379507
 21
202.1685153146717
 31
0.0
  0
LINE
  5
94
330
47
100
AcDbEntity
  8
0
  6
Continuous
 62
     7
100
AcDbLine
 10
90.47914649574457
 20
202.0175534203484
 30
0.0
 11
87.70619915379507
 21
202.81803436751
 31
0.0
  0
LINE
  5
95
330
47
100
AcDbEntity
  8
0
  6
Continuous
 62
     7
100
AcDbLine
 10
86.95619915379507
 20
202.1685153146717
 30
0.0
 11
89.72914649574457
 21
201.3680343675101
 31
0.0
  0
LINE
  5
96
330
47
100
AcDbEntity
  8
0
  6
Continuous
 62
     7
100
AcDbLine
 10
89.37330081495197
 20
201.0598629681167
 30
0.0
 11
85.47535347300227
 21
202.1851034416976
 31
0.0
  0
LINE
  5
97
330
47
100
AcDbEntity
  8
0
  6
Continuous
 62
     7
100
AcDbLine
 10
86.95619915379507
 20
202.1685153146717
 30
0.0
 11
86.95809416562527
 21
203.4691945487339
 31
0.0
  0
LINE
  5
98
330
47
100
AcDbEntity
  8
0
  6
Continuous
 62
     7
100
AcDbLine
 10
83.72914649574477
 20
196.1718819448037
 30
0.0
 11
92.72914649574477
 21
203.9661105788636
 31
0.0
  0
LINE
  5
99
330
47
100
AcDbEntity
  8
0
  6
Continuous
 62
     7
100
AcDbLine
 10
76.02152040206337
 20
198.3968819448036
 30
0.0
 11
78.70619915379507
 21
197.6218819448036
 31
0.0
  0
LINE
  5
9A
330
47
100
AcDbEntity
  8
0
  6
Continuous
 62
     7
100
AcDbLine
 10
76.02152040206337
 20
197.0978438391269
 30
0.0
 11
78.70619915379507
 21
196.322843839127
 31
0.0
  0
LINE
  5
9B
330
47
100
AcDbEntity
  8
0
  6
Continuous
 62
     7
100
AcDbLine
 10
78.87152040206337
 20
200.8650543455892
 30
0.0
 11
76.02152040206337
 21
198.3968819448036
 31
0.0
  0
LINE
  5
9C
330
47
100
AcDbEntity
  8
0
  6
Continuous
 62
     7
100
AcDbLine
 10
78.70619915379507
 20
196.322843839127
 30
0.0
 11
78.70619915379507
 21
197.6218819448036
 31
0.0
  0
LINE
  5
9D
330
47
100
AcDbEntity
  8
0
  6
Continuous
 62
     7
100
AcDbLine
 10
83.72914649574477
 20
196.1718819448037
 30
0.0
 11
86.24062016671968
 21
195.4468819448036
 31
0.0
  0
LINE
  5
9E
330
47
100
AcDbEntity
  8
0
  6
Continuous
 62
     7
100
AcDbLine
 10
83.72914649574477
 20
196.1718819448037
 30
0.0
 11
83.72914649574477
 21
194.872843839127
 31
0.0
  0
LINE
  5
9F
330
47
100
AcDbEntity
  8
0
  6
Continuous
 62
     7
100
AcDbLine
 10
87.70619915379507
 20
205.4161105788636
 30
0.0
 11
77.31389430838188
 21
208.4161105788636
 31
0.0
  0
LINE
  5
A0
330
47
100
AcDbEntity
  8
0
  6
Continuous
 62
     7
100
AcDbLine
 10
87.70619915379507
 20
205.4161105788636
 30
0.0
 11
87.70619915379507
 21
202.81803436751
 31
0.0
  0
LINE
  5
A1
330
47
100
AcDbEntity
  8
0
  6
Continuous
 62
     7
100
AcDbLine
 10
84.97535347300227
 20
201.7520907398053
 30
0.0
 11
88.87330081495188
 21
200.6268502662245
 31
0.0
  0
LINE
  5
A2
330
47
100
AcDbEntity
  8
0
  6
Continuous
 62
     7
100
AcDbLine
 10
78.70619915379507
 20
197.6218819448036
 30
0.0
 11
87.70619915379507
 21
205.4161105788636
 31
0.0
  0
LINE
  5
A3
330
47
100
AcDbEntity
  8
0
  6
Continuous
 62
     7
100
AcDbLine
 10
78.70619915379507
 20
196.322843839127
 30
0.0
 11
86.95809416562527
 21
203.4691945487339
 31
0.0
  0
LINE
  5
A4
330
47
100
AcDbEntity
  8
0
  6
Continuous
 62
     7
100
AcDbLine
 10
103.121451341158
 20
200.9661105788636
 30
0.0
 11
92.72914649574477
 21
203.9661105788636
 31
0.0
  0
LINE
  5
A5
330
47
100
AcDbEntity
  8
0
  6
Continuous
 62
     7
100
AcDbLine
 10
120.095960021282
 20
196.8918461199263
 30
0.0
 11
75.23584410524808
 21
209.8418461199263
 31
0.0
  0
LINE
  5
A6
330
47
100
AcDbEntity
  8
0
  6
Continuous
 62
     7
100
AcDbLine
 10
75.23584410524808
 20
209.2151364030113
 30
0.0
 11
75.23584410524808
 21
209.8418461199263
 31
0.0
  0
LINE
  5
A7
330
47
100
AcDbEntity
  8
0
  6
Continuous
 62
     7
100
AcDbLine
 10
120.8537085443862
 20
197.5480755906155
 30
0.0
 11
75.99359262835218
 21
210.4980755906155
 31
0.0
  0
LINE
  5
A8
330
47
100
AcDbEntity
  8
0
  6
Continuous
 62
     7
100
AcDbLine
 10
106.8520247767894
 20
188.197843839127
 30
0.0
 11
106.8520247767894
 21
189.4968819448036
 31
0.0
  0
LINE
  5
A9
330
47
100
AcDbEntity
  8
0
  6
Continuous
 62
     7
100
AcDbLine
 10
106.8520247767894
 20
188.197843839127
 30
0.0
 11
109.536703528521
 21
187.422843839127
 31
0.0
  0
LINE
  5
AA
330
47
100
AcDbEntity
  8
0
  6
Continuous
 62
     7
100
AcDbLine
 10
119.104758478421
 20
191.8997801562252
 30
0.0
 11
119.104758478421
 21
183.6492771294208
 31
0.0
  0
LINE
  5
AB
330
47
100
AcDbEntity
  8
0
  6
Continuous
 62
     7
100
AcDbLine
 10
109.536703528521
 20
188.7218819448036
 30
0.0
 11
109.536703528521
 21
187.422843839127
 31
0.0
  0
LINE
  5
AC
330
47
100
AcDbEntity
  8
0
  6
Continuous
 62
     7
100
AcDbLine
 10
106.8520247767894
 20
189.4968819448036
 30
0.0
 11
109.536703528521
 21
188.7218819448036
 31
0.0
  0
LINE
  5
AD
330
47
100
AcDbEntity
  8
0
  6
Continuous
 62
     7
100
AcDbLine
 10
101.6558723540827
 20
190.9968819448036
 30
0.0
 11
101.6558723540827
 21
189.697843839127
 31
0.0
  0
LINE
  5
AE
330
47
100
AcDbEntity
  8
0
  6
Continuous
 62
     7
100
AcDbLine
 10
109.7020247767894
 20
191.9650543455893
 30
0.0
 11
106.8520247767894
 21
189.4968819448036
 31
0.0
  0
LINE
  5
AF
330
47
100
AcDbEntity
  8
0
  6
Continuous
 62
     7
100
AcDbLine
 10
101.6558723540827
 20
189.697843839127
 30
0.0
 11
104.5058723540827
 21
192.1660162399126
 31
0.0
  0
LINE
  5
B0
330
47
100
AcDbEntity
  8
0
  6
Continuous
 62
     7
100
AcDbLine
 10
117.7885985403512
 20
194.569194548734
 30
0.0
 11
109.536703528521
 21
187.422843839127
 31
0.0
  0
LINE
  5
B1
330
47
100
AcDbEntity
  8
0
  6
Continuous
 62
     7
100
AcDbLine
 10
117.7861051304735
 20
192.8577928581175
 30
0.0
 11
116.3058578477282
 21
193.2851034416976
 31
0.0
  0
LINE
  5
B2
330
47
100
AcDbEntity
  8
0
  6
Continuous
 62
     7
100
AcDbLine
 10
117.7885985403512
 20
194.569194548734
 30
0.0
 11
117.7861051304735
 21
192.8577928581175
 31
0.0
  0
LINE
  5
B3
330
47
100
AcDbEntity
  8
0
  6
Continuous
 62
     7
100
AcDbLine
 10
115.8058578477282
 20
192.8520907398054
 30
0.0
 11
119.104758478421
 21
191.8997801562252
 31
0.0
  0
LINE
  5
B4
330
47
100
AcDbEntity
  8
0
  6
Continuous
 62
     7
100
AcDbLine
 10
108.1443986831078
 20
199.5161105788636
 30
0.0
 11
118.536703528521
 21
196.5161105788636
 31
0.0
  0
LINE
  5
B5
330
47
100
AcDbEntity
  8
0
  6
Continuous
 62
     7
100
AcDbLine
 10
118.536703528521
 20
192.6411137645345
 30
0.0
 11
118.536703528521
 21
196.5161105788636
 31
0.0
  0
LINE
  5
B6
330
47
100
AcDbEntity
  8
0
  6
Continuous
 62
     7
100
AcDbLine
 10
118.536703528521
 20
196.5161105788636
 30
0.0
 11
109.536703528521
 21
188.7218819448036
 31
0.0
  0
LINE
  5
B7
330
47
100
AcDbEntity
  8
0
  6
Continuous
 62
     7
100
AcDbLine
 10
91.43677258942627
 20
192.647843839127
 30
0.0
 11
91.43677258942637
 21
193.9468819448036
 31
0.0
  0
LINE
  5
B8
330
47
100
AcDbEntity
  8
0
  6
Continuous
 62
     7
100
AcDbLine
 10
91.43677258942627
 20
192.647843839127
 30
0.0
 11
94.12145134115798
 21
191.872843839127
 31
0.0
  0
LINE
  5
B9
330
47
100
AcDbEntity
  8
0
  6
Continuous
 62
     7
100
AcDbLine
 10
94.12145134115798
 20
191.872843839127
 30
0.0
 11
94.12145134115798
 21
193.1718819448037
 31
0.0
  0
LINE
  5
BA
330
47
100
AcDbEntity
  8
0
  6
Continuous
 62
     7
100
AcDbLine
 10
100.3906056603652
 20
197.3020907398054
 30
0.0
 11
104.288553002315
 21
196.1768502662245
 31
0.0
  0
LINE
  5
BB
330
47
100
AcDbEntity
  8
0
  6
Continuous
 62
     7
100
AcDbLine
 10
94.28677258942638
 20
196.4150543455893
 30
0.0
 11
91.43677258942637
 21
193.9468819448036
 31
0.0
  0
LINE
  5
BC
330
47
100
AcDbEntity
  8
0
  6
Continuous
 62
     7
100
AcDbLine
 10
91.43677258942637
 20
193.9468819448036
 30
0.0
 11
94.12145134115798
 21
193.1718819448037
 31
0.0
  0
LINE
  5
BD
330
47
100
AcDbEntity
  8
0
  6
Continuous
 62
     7
100
AcDbLine
 10
103.121451341158
 20
200.9661105788636
 30
0.0
 11
103.121451341158
 21
198.36803436751
 31
0.0
  0
LINE
  5
BE
330
47
100
AcDbEntity
  8
0
  6
Continuous
 62
     7
100
AcDbLine
 10
103.121451341158
 20
200.9661105788636
 30
0.0
 11
94.12145134115798
 21
193.1718819448037
 31
0.0
  0
LINE
  5
BF
330
47
100
AcDbEntity
  8
0
  6
Continuous
 62
     2
100
AcDbLine
 10
89.09062016671967
 20
197.9150543455893
 30
0.0
 11
89.09062016671967
 21
196.6160162399126
 31
0.0
  0
LINE
  5
C0
330
47
100
AcDbEntity
  8
0
  6
Continuous
 62
     7
100
AcDbLine
 10
86.24062016671968
 20
195.4468819448036
 30
0.0
 11
89.09062016671967
 21
197.9150543455893
 31
0.0
  0
LINE
  5
C1
330
47
100
AcDbEntity
  8
0
  6
Continuous
 62
     7
100
AcDbLine
 10
94.12145134115798
 20
191.872843839127
 30
0.0
 11
102.3733463529882
 21
199.019194548734
 31
0.0
  0
LINE
  5
C2
330
47
100
AcDbEntity
  8
0
  6
Continuous
 62
     7
100
AcDbLine
 10
83.72914649574477
 20
194.872843839127
 30
0.0
 11
86.24062016671968
 21
194.147843839127
 31
0.0
  0
LINE
  5
C3
330
47
100
AcDbEntity
  8
0
  6
Continuous
 62
     7
100
AcDbLine
 10
86.24062016671968
 20
195.4468819448036
 30
0.0
 11
86.24062016671968
 21
194.147843839127
 31
0.0
  0
LINE
  5
C4
330
47
100
AcDbEntity
  8
0
  6
Continuous
 62
     7
100
AcDbLine
 10
86.24062016671968
 20
194.147843839127
 30
0.0
 11
89.09062016671967
 21
196.6160162399126
 31
0.0
  0
LINE
  5
C5
330
47
100
AcDbEntity
  8
0
  6
Continuous
 62
     7
100
AcDbLine
 10
99.14439868310778
 20
191.7218819448036
 30
0.0
 11
99.14439868310778
 21
190.422843839127
 31
0.0
  0
LINE
  5
C6
330
47
100
AcDbEntity
  8
0
  6
Continuous
 62
     7
100
AcDbLine
 10
102.371451341158
 20
197.7185153146717
 30
0.0
 11
105.1443986831076
 21
196.9180343675101
 31
0.0
  0
LINE
  5
C7
330
47
100
AcDbEntity
  8
0
  6
Continuous
 62
     7
100
AcDbLine
 10
104.788553002315
 20
196.6098629681167
 30
0.0
 11
100.8906056603652
 21
197.7351034416976
 31
0.0
  0
LINE
  5
C8
330
47
100
AcDbEntity
  8
0
  6
Continuous
 62
     2
100
AcDbLine
 10
104.5058723540827
 20
193.4650543455893
 30
0.0
 11
104.5058723540827
 21
192.1660162399126
 31
0.0
  0
LINE
  5
C9
330
47
100
AcDbEntity
  8
0
  6
Continuous
 62
     7
100
AcDbLine
 10
102.371451341158
 20
197.7185153146717
 30
0.0
 11
102.3733463529882
 21
199.019194548734
 31
0.0
  0
LINE
  5
CA
330
47
100
AcDbEntity
  8
0
  6
Continuous
 62
     7
100
AcDbLine
 10
105.8943986831076
 20
197.5675534203484
 30
0.0
 11
103.121451341158
 21
198.36803436751
 31
0.0
  0
LINE
  5
CB
330
47
100
AcDbEntity
  8
0
  6
Continuous
 62
     7
100
AcDbLine
 10
103.121451341158
 20
198.36803436751
 30
0.0
 11
102.371451341158
 21
197.7185153146717
 31
0.0
  0
LINE
  5
CC
330
47
100
AcDbEntity
  8
0
  6
Continuous
 62
     7
100
AcDbLine
 10
99.14439868310778
 20
191.7218819448036
 30
0.0
 11
101.6558723540827
 21
190.9968819448036
 31
0.0
  0
LINE
  5
CD
330
47
100
AcDbEntity
  8
0
  6
Continuous
 62
     7
100
AcDbLine
 10
101.6558723540827
 20
190.9968819448036
 30
0.0
 11
104.5058723540827
 21
193.4650543455893
 31
0.0
  0
LINE
  5
CE
330
47
100
AcDbEntity
  8
0
  6
Continuous
 62
     7
100
AcDbLine
 10
99.14439868310778
 20
191.7218819448036
 30
0.0
 11
108.1443986831078
 21
199.5161105788636
 31
0.0
  0
LINE
  5
CF
330
47
100
AcDbEntity
  8
0
  6
Continuous
 62
     7
100
AcDbLine
 10
99.14439868310778
 20
190.422843839127
 30
0.0
 11
101.6558723540827
 21
189.697843839127
 31
0.0
  0
LINE
  5
D0
330
47
100
AcDbEntity
  8
0
  6
Continuous
 62
     7
100
AcDbLine
 10
120.8537085443862
 20
197.5480755906155
 30
0.0
 11
120.095960021282
 21
196.8918461199263
 31
0.0
  0
LINE
  5
D1
330
47
100
AcDbEntity
  8
0
  6
Continuous
 62
     7
100
AcDbLine
 10
120.3997893867174
 20
196.528260351894
 30
0.0
 11
120.095960021282
 21
196.2651364030112
 31
0.0
  0
LINE
  5
D2
330
47
100
AcDbEntity
  8
0
  6
Continuous
 62
     7
100
AcDbLine
 10
120.095960021282
 20
196.8918461199263
 30
0.0
 11
120.095960021282
 21
196.2651364030112
 31
0.0
  0
LINE
  5
D3
330
47
100
AcDbEntity
  8
0
  6
Continuous
 62
     7
100
AcDbLine
 10
119.604758478421
 20
192.3327928581174
 30
0.0
 11
119.104758478421
 21
191.8997801562252
 31
0.0
  0
LINE
  5
D4
330
47
100
AcDbEntity
  8
0
  6
Continuous
 62
     7
100
AcDbLine
 10
119.604758478421
 20
192.3327928581174
 30
0.0
 11
119.59424467611
 21
185.1164345647188
 31
0.0
  0
LINE
  5
D5
330
47
100
AcDbEntity
  8
0
  6
Continuous
 62
     7
100
AcDbLine
 10
120.9591042278865
 20
186.1212130596421
 30
0.0
 11
119.59424467611
 21
185.1164345647188
 31
0.0
  0
LINE
  5
D6
330
47
100
AcDbEntity
  8
0
  6
Continuous
 62
     7
100
AcDbLine
 10
120.9591042278865
 20
186.1212130596421
 30
0.0
 11
119.5962817574124
 21
186.5146260197351
 31
0.0
  0
LINE
  5
D7
330
47
100
AcDbEntity
  8
0
  6
Continuous
 62
     7
100
AcDbLine
 10
117.7861051304735
 20
192.8577928581175
 30
0.0
 11
119.604758478421
 21
192.3327928581174
 31
0.0
  0
LINE
  5
D8
330
47
100
AcDbEntity
  8
0
  6
Continuous
 62
     7
100
AcDbLine
 10
120.3997893867174
 20
196.528260351894
 30
0.0
 11
120.9591042278865
 21
186.1212130596421
 31
0.0
  0
LINE
  5
D9
330
47
100
AcDbEntity
  8
0
  6
Continuous
 62
     7
100
AcDbLine
 10
119.104758478421
 20
183.6492771294208
 30
0.0
 11
121.5047584784215
 21
185.727738098504
 31
0.0
  0
LINE
  5
DA
330
47
100
AcDbEntity
  8
0
  6
Continuous
 62
     7
100
AcDbLine
 10
120.8537085443862
 20
197.5480755906155
 30
0.0
 11
121.5047584784215
 21
185.727738098504
 31
0.0
  0
LINE
  5
DB
330
47
100
AcDbEntity
  8
0
  6
Continuous
 62
     7
100
AcDbLine
 10
74.24464256238697
 20
196.5992771294208
 30
0.0
 11
119.104758478421
 21
183.6492771294208
 31
0.0
  0
LINE
  5
DC
330
47
100
AcDbEntity
  8
0
  6
Continuous
 62
     7
100
AcDbLine
 10
75.23584410524808
 20
209.2151364030113
 30
0.0
 11
120.095960021282
 21
196.2651364030112
 31
0.0
  0
SPLINE
  5
DD
330
47
100
AcDbEntity
  8
0
  6
Continuous
 62
     7
100
AcDbSpline
210
0.0
220
0.0
230
1.0
 70
     8
 71
     3
 72
    17
 73
    13
 74
    11
 42
0.000000001
 43
0.0000000001
 44
0.00000001
 40
0.0
 40
0.0
 40
0.0
 40
0.0
 40
0.4014610005568429
 40
0.8712471548146579
 40
1.440286929418585
 40
2.105766036395412
 40
2.844663643742288
 40
3.622801011199116
 40
4.400938378432903
 40
5.139835984870729
 40
5.805315092454783
 40
6.37435487273242
 40
6.37435487273242
 40
6.37435487273242
 40
6.37435487273242
 10
79.27344419071008
 20
201.6150543455892
 30
0.0
 10
79.25058485374518
 20
201.7494757695918
 30
0.0
 10
79.2009757094902
 20
202.0411959640901
 30
0.0
 10
78.85700958845267
 20
202.4063821324825
 30
0.0
 10
78.37624617617541
 20
202.7088572222065
 30
0.0
 10
77.75421483616792
 20
202.9385095441368
 30
0.0
 10
77.03919597423554
 20
203.082636273267
 30
0.0
 10
76.27355569405549
 20
203.1315121576444
 30
0.0
 10
75.5072576904838
 20
203.0833010633909
 30
0.0
 10
74.79405206747889
 20
202.9361091805214
 30
0.0
 10
74.16635313302243
 20
202.7163933592391
 30
0.0
 10
73.83027842677414
 20
202.4759051234636
 30
0.0
 10
73.67536797935678
 20
202.3650543455892
 30
0.0
 11
79.27344419071008
 21
201.6150543455892
 31
0.0
 11
79.17122089701307
 21
202.0032828097391
 31
0.0
 11
78.87152040206337
 21
202.3650543455892
 31
0.0
 11
78.39476396871349
 21
202.6757142345909
 31
0.0
 11
77.77344419071012
 21
202.9140924512659
 31
0.0
 11
77.04990111900975
 21
203.0639426987407
 31
0.0
 11
76.27344419071012
 21
203.1150543455892
 31
0.0
 11
75.49698726241051
 21
203.0639426987407
 31
0.0
 11
74.77344419071012
 21
202.9140924512659
 31
0.0
 11
74.1521244127067
 21
202.6757142345909
 31
0.0
 11
73.67536797935678
 21
202.3650543455892
 31
0.0
  0
SPLINE
  5
DE
330
47
100
AcDbEntity
  8
0
  6
Continuous
 62
     7
100
AcDbSpline
210
0.0
220
0.0
230
1.0
 70
     8
 71
     3
 72
     9
 73
     5
 74
     3
 42
0.000000001
 43
0.0000000001
 44
0.00000001
 40
0.0
 40
0.0
 40
0.0
 40
0.0
 40
0.4697861522011184
 40
0.8712471595482685
 40
0.8712471595482685
 40
0.8712471595482685
 40
0.8712471595482685
 10
78.87152040206337
 20
200.8650543455892
 30
0.0
 10
78.9876040618178
 20
200.9773293220594
 30
0.0
 10
79.20288829428594
 20
201.1855501449517
 30
0.0
 10
79.2511881585074
 20
201.4795722325746
 30
0.0
 10
79.27344419071008
 20
201.6150543455892
 30
0.0
 11
78.87152040206337
 21
200.8650543455892
 31
0.0
 11
79.17122089701307
 21
201.2268258814394
 31
0.0
 11
79.27344419071008
 21
201.6150543455892
 31
0.0
  0
SPLINE
  5
DF
330
47
100
AcDbEntity
  8
0
  6
Continuous
 62
     7
100
AcDbSpline
210
0.0
220
0.0
230
1.0
 70
     8
 71
     3
 72
    17
 73
    13
 74
    11
 42
0.000000001
 43
0.0000000001
 44
0.00000001
 40
0.0
 40
0.0
 40
0.0
 40
0.0
 40
0.4402907597323495
 40
0.9502556701880562
 40
1.522077305629887
 40
2.140295052070107
 40
2.78486119458406
 40
3.433418320360297
 40
4.063274413136404
 40
4.653339186704265
 40
5.186256500830535
 40
5.651115466776467
 40
5.651115466776467
 40
5.651115466776467
 40
5.651115466776467
 10
78.97760764730808
 20
200.9655352927509
 30
0.0
 10
78.86678096806605
 20
201.0626357367286
 30
0.0
 10
78.62758974368467
 20
201.2722023415277
 30
0.0
 10
78.16498225830853
 20
201.4928985015577
 30
0.0
 10
77.62567017950641
 20
201.6685032789257
 30
0.0
 10
77.02252314477546
 20
201.7802523225461
 30
0.0
 10
76.38595592866527
 20
201.8265890545319
 30
0.0
 10
75.74420454422233
 20
201.8040643425314
 30
0.0
 10
75.12604397653023
 20
201.7149899633829
 30
0.0
 10
74.56209069552281
 20
201.5600308074883
 30
0.0
 10
74.06844616546934
 20
201.3570938379891
 30
0.0
 10
73.80029722234707
 20
201.158527370053
 30
0.0
 10
73.67536797935678
 20
201.0660162399126
 30
0.0
 11
78.97760764730808
 21
200.9655352927509
 31
0.0
 11
78.63447468485958
 21
201.2414260746852
 31
0.0
 11
78.18058272816273
 21
201.4739046843409
 31
0.0
 11
77.63722379177824
 21
201.6520648583383
 31
0.0
 11
77.02988819038876
 21
201.7675492635939
 31
0.0
 11
76.38706656707436
 21
201.8149398869898
 31
0.0
 11
75.73891477112497
 21
201.7920140633864
 31
0.0
 11
75.11583862216466
 21
201.6998467742585
 31
0.0
 11
74.54706724767723
 21
201.5427622049115
 31
0.0
 11
74.05928303162756
 21
201.3281289812969
 31
0.0
 11
73.67536797935678
 21
201.0660162399126
 31
0.0
  0
SPLINE
  5
E0
330
47
100
AcDbEntity
  8
0
  6
Continuous
 62
     7
100
AcDbSpline
210
0.0
220
0.0
230
1.0
 70
     8
 71
     3
 72
    17
 73
    13
 74
    11
 42
0.000000001
 43
0.0000000001
 44
0.00000001
 40
0.0
 40
0.0
 40
0.0
 40
0.0
 40
0.4402907597323563
 40
0.9502556701881011
 40
1.522077305629896
 40
2.140295052070111
 40
2.784861194584081
 40
3.433418320360304
 40
4.063274413136415
 40
4.653339186704295
 40
5.186256500830551
 40
5.6511154667765
 40
5.6511154667765
 40
5.6511154667765
 40
5.6511154667765
 10
94.39285983467097
 20
196.5155352927509
 30
0.0
 10
94.28203315542896
 20
196.6126357367286
 30
0.0
 10
94.04284193104758
 20
196.8222023415277
 30
0.0
 10
93.58023444567145
 20
197.0428985015578
 30
0.0
 10
93.0409223668693
 20
197.2185032789257
 30
0.0
 10
92.43777533213839
 20
197.3302523225462
 30
0.0
 10
91.80120811602814
 20
197.3765890545319
 30
0.0
 10
91.15945673158527
 20
197.3540643425314
 30
0.0
 10
90.5412961638931
 20
197.2649899633827
 30
0.0
 10
89.97734288288575
 20
197.1100308074884
 30
0.0
 10
89.48369835283222
 20
196.9070938379892
 30
0.0
 10
89.21554940970996
 20
196.7085273700531
 30
0.0
 10
89.09062016671967
 20
196.6160162399126
 30
0.0
 11
94.39285983467097
 21
196.5155352927509
 31
0.0
 11
94.0497268722225
 21
196.7914260746853
 31
0.0
 11
93.59583491552561
 21
197.023904684341
 31
0.0
 11
93.05247597914115
 21
197.2020648583384
 31
0.0
 11
92.44514037775167
 21
197.3175492635939
 31
0.0
 11
91.80231875443725
 21
197.3649398869898
 31
0.0
 11
91.15416695848788
 21
197.3420140633864
 31
0.0
 11
90.53109080952757
 21
197.2498467742585
 31
0.0
 11
89.96231943504011
 21
197.0927622049115
 31
0.0
 11
89.47453521899045
 21
196.8781289812969
 31
0.0
 11
89.09062016671967
 21
196.6160162399126
 31
0.0
  0
SPLINE
  5
E1
330
47
100
AcDbEntity
  8
0
  6
Continuous
 62
     7
100
AcDbSpline
210
0.0
220
0.0
230
1.0
 70
     8
 71
     3
 72
     9
 73
     5
 74
     3
 42
0.000000001
 43
0.0000000001
 44
0.00000001
 40
0.0
 40
0.0
 40
0.0
 40
0.0
 40
0.4697861522010383
 40
0.871247159548229
 40
0.871247159548229
 40
0.871247159548229
 40
0.871247159548229
 10
94.28677258942638
 20
196.4150543455893
 30
0.0
 10
94.4028562491808
 20
196.5273293220596
 30
0.0
 10
94.61814048164896
 20
196.7355501449519
 30
0.0
 10
94.66644034587029
 20
197.0295722325747
 30
0.0
 10
94.68869637807298
 20
197.1650543455893
 30
0.0
 11
94.28677258942638
 21
196.4150543455893
 31
0.0
 11
94.58647308437602
 21
196.7768258814395
 31
0.0
 11
94.68869637807298
 21
197.1650543455893
 31
0.0
  0
SPLINE
  5
E2
330
47
100
AcDbEntity
  8
0
  6
Continuous
 62
     7
100
AcDbSpline
210
0.0
220
0.0
230
1.0
 70
     8
 71
     3
 72
    17
 73
    13
 74
    11
 42
0.000000001
 43
0.0000000001
 44
0.00000001
 40
0.0
 40
0.0
 40
0.0
 40
0.0
 40
0.4014610005567221
 40
0.871247154814528
 40
1.440286929418503
 40
2.10576603639533
 40
2.844663643742203
 40
3.62280101119905
 40
4.400938378432869
 40
5.139835984870679
 40
5.80531509245472
 40
6.374354872732306
 40
6.374354872732306
 40
6.374354872732306
 40
6.374354872732306
 10
94.68869637807298
 20
197.1650543455893
 30
0.0
 10
94.66583704110809
 20
197.2994757695919
 30
0.0
 10
94.61622789685308
 20
197.5911959640901
 30
0.0
 10
94.27226177581561
 20
197.9563821324825
 30
0.0
 10
93.79149836353837
 20
198.2588572222065
 30
0.0
 10
93.16946702353081
 20
198.4885095441368
 30
0.0
 10
92.45444816159844
 20
198.6326362732671
 30
0.0
 10
91.6888078814184
 20
198.6815121576446
 30
0.0
 10
90.92250987784666
 20
198.6333010633908
 30
0.0
 10
90.20930425484177
 20
198.4861091805215
 30
0.0
 10
89.58160532038539
 20
198.2663933592391
 30
0.0
 10
89.24553061413707
 20
198.0259051234638
 30
0.0
 10
89.09062016671967
 20
197.9150543455893
 30
0.0
 11
94.68869637807298
 21
197.1650543455893
 31
0.0
 11
94.58647308437601
 21
197.5532828097391
 31
0.0
 11
94.28677258942632
 21
197.9150543455893
 31
0.0
 11
93.81001615607639
 21
198.225714234591
 31
0.0
 11
93.18869637807302
 21
198.4640924512659
 31
0.0
 11
92.46515330637266
 21
198.6139426987408
 31
0.0
 11
91.68869637807302
 21
198.6650543455893
 31
0.0
 11
90.91223944977338
 21
198.6139426987408
 31
0.0
 11
90.18869637807302
 21
198.4640924512659
 31
0.0
 11
89.56737660006961
 21
198.225714234591
 31
0.0
 11
89.09062016671967
 21
197.9150543455893
 31
0.0
  0
SPLINE
  5
E3
330
47
100
AcDbEntity
  8
0
  6
Continuous
 62
     7
100
AcDbSpline
210
0.0
220
0.0
230
1.0
 70
     8
 71
     3
 72
     9
 73
     5
 74
     3
 42
0.000000001
 43
0.0000000001
 44
0.00000001
 40
0.0
 40
0.0
 40
0.0
 40
0.0
 40
0.4697861522010436
 40
0.8712471595482763
 40
0.8712471595482763
 40
0.8712471595482763
 40
0.8712471595482763
 10
109.7020247767894
 20
191.9650543455893
 30
0.0
 10
109.8181084365438
 20
192.0773293220596
 30
0.0
 10
110.033392669012
 20
192.2855501449518
 30
0.0
 10
110.0816925332334
 20
192.5795722325747
 30
0.0
 10
110.1039485654361
 20
192.7150543455893
 30
0.0
 11
109.7020247767894
 21
191.9650543455893
 31
0.0
 11
110.0017252717391
 21
192.3268258814394
 31
0.0
 11
110.1039485654361
 21
192.7150543455893
 31
0.0
  0
SPLINE
  5
E4
330
47
100
AcDbEntity
  8
0
  6
Continuous
 62
     7
100
AcDbSpline
210
0.0
220
0.0
230
1.0
 70
     8
 71
     3
 72
    17
 73
    13
 74
    11
 42
0.000000001
 43
0.0000000001
 44
0.00000001
 40
0.0
 40
0.0
 40
0.0
 40
0.0
 40
0.4402907597324405
 40
0.9502556701881855
 40
1.522077305629944
 40
2.14029505207015
 40
2.784861194584161
 40
3.433418320360397
 40
4.063274413136508
 40
4.653339186704381
 40
5.186256500830637
 40
5.651115466776601
 40
5.651115466776601
 40
5.651115466776601
 40
5.651115466776601
 10
109.8081120220341
 20
192.0655352927509
 30
0.0
 10
109.6972853427921
 20
192.1626357367286
 30
0.0
 10
109.4580941184107
 20
192.3722023415279
 30
0.0
 10
108.9954866330345
 20
192.5928985015578
 30
0.0
 10
108.4561745542324
 20
192.7685032789257
 30
0.0
 10
107.8530275195014
 20
192.8802523225462
 30
0.0
 10
107.2164603033912
 20
192.9265890545319
 30
0.0
 10
106.5747089189483
 20
192.9040643425314
 30
0.0
 10
105.9565483512562
 20
192.8149899633828
 30
0.0
 10
105.3925950702487
 20
192.6600308074885
 30
0.0
 10
104.8989505401953
 20
192.4570938379892
 30
0.0
 10
104.630801597073
 20
192.2585273700531
 30
0.0
 10
104.5058723540827
 20
192.1660162399126
 30
0.0
 11
109.8081120220341
 21
192.0655352927509
 31
0.0
 11
109.4649790595855
 21
192.3414260746853
 31
0.0
 11
109.0110871028887
 21
192.573904684341
 31
0.0
 11
108.4677281665042
 21
192.7520648583384
 31
0.0
 11
107.8603925651148
 21
192.867549263594
 31
0.0
 11
107.2175709418003
 21
192.9149398869898
 31
0.0
 11
106.5694191458509
 21
192.8920140633865
 31
0.0
 11
105.9463429968906
 21
192.7998467742585
 31
0.0
 11
105.3775716224031
 21
192.6427622049115
 31
0.0
 11
104.8897874063535
 21
192.4281289812969
 31
0.0
 11
104.5058723540827
 21
192.1660162399126
 31
0.0
  0
SPLINE
  5
E5
330
47
100
AcDbEntity
  8
0
  6
Continuous
 62
     7
100
AcDbSpline
210
0.0
220
0.0
230
1.0
 70
     8
 71
     3
 72
    17
 73
    13
 74
    11
 42
0.000000001
 43
0.0000000001
 44
0.00000001
 40
0.0
 40
0.0
 40
0.0
 40
0.0
 40
0.401461000556733
 40
0.8712471548145388
 40
1.440286929418502
 40
2.105766036395382
 40
2.844663643742269
 40
3.622801011199116
 40
4.400938378432908
 40
5.139835984870726
 40
5.80531509245473
 40
6.374354872732368
 40
6.374354872732368
 40
6.374354872732368
 40
6.374354872732368
 10
110.1039485654361
 20
192.7150543455893
 30
0.0
 10
110.0810892284712
 20
192.849475769592
 30
0.0
 10
110.0314800842161
 20
193.14119596409
 30
0.0
 10
109.6875139631787
 20
193.5063821324826
 30
0.0
 10
109.2067505509014
 20
193.8088572222065
 30
0.0
 10
108.5847192108939
 20
194.0385095441368
 30
0.0
 10
107.8697003489615
 20
194.182636273267
 30
0.0
 10
107.1040600687814
 20
194.2315121576446
 30
0.0
 10
106.3377620652097
 20
194.1833010633908
 30
0.0
 10
105.6245564422048
 20
194.0361091805214
 30
0.0
 10
104.9968575077484
 20
193.816393359239
 30
0.0
 10
104.6607828015001
 20
193.5759051234637
 30
0.0
 10
104.5058723540827
 20
193.4650543455893
 30
0.0
 11
110.1039485654361
 21
192.7150543455893
 31
0.0
 11
110.0017252717391
 21
193.1032828097391
 31
0.0
 11
109.7020247767894
 21
193.4650543455892
 31
0.0
 11
109.2252683434395
 21
193.7757142345909
 31
0.0
 11
108.6039485654361
 21
194.0140924512659
 31
0.0
 11
107.8804054937357
 21
194.1639426987408
 31
0.0
 11
107.103948565436
 21
194.2150543455893
 31
0.0
 11
106.3274916371364
 21
194.1639426987408
 31
0.0
 11
105.6039485654361
 21
194.0140924512659
 31
0.0
 11
104.9826287874327
 21
193.775714234591
 31
0.0
 11
104.5058723540827
 21
193.4650543455893
 31
0.0
  0
ENDBLK
  5
49
330
47
100
AcDbEntity
  8
0
100
AcDbBlockEnd
  0
BLOCK
  5
4C
330
4A
100
AcDbEntity
  8
0
100
AcDbBlockBegin
  2
Allg1
 70
     0
 10
94.00000000006168
 20
194.000000000123
 30
0.0
  3
Allg1
  1

  0
INSERT
  5
4B
330
4A
100
AcDbEntity
  8
0
100
AcDbBlockReference
  2
MPB_18_1_3-select__1
 10
68.31389430838188
 20
183.6492771294208
 30
0.0
  0
MTEXT
  5
E7
330
4A
100
AcDbEntity
  8
1
 62
     6
100
AcDbMText
 10
94.00000000006213
 20
174.4380975336851
 30
0.0
 40
2.5
 41
0.0
 71
     2
 72
     1
  1
 
  7
CONVERTER_11
 73
     1
 44
1.32052821128451
  0
ENDBLK
  5
4D
330
4A
100
AcDbEntity
  8
0
100
AcDbBlockEnd
  0
BLOCK
  5
4F
330
4E
100
AcDbEntity
  8
0
100
AcDbBlockBegin
  2
MPB_18_1_3-select__2
 70
     0
 10
-16.40000042915349
 20
189.3505985801602
 30
0.0
  3
MPB_18_1_3-select__2
  1

  0
LINE
  5
E8
330
4E
100
AcDbEntity
  8
0
  6
Continuous
 62
     7
100
AcDbLine
 10
-16.40000042915349
 20
209.6494017840662
 30
0.0
 11
35.3999995708465
 21
209.6494017840662
 31
0.0
  0
LINE
  5
E9
330
4E
100
AcDbEntity
  8
0
  6
Continuous
 62
     7
100
AcDbLine
 10
35.3999995708465
 20
208.3473019159955
 30
0.0
 11
-16.40000042915349
 21
208.3473019159955
 31
0.0
  0
LINE
  5
EA
330
4E
100
AcDbEntity
  8
0
  6
Continuous
 62
     7
100
AcDbLine
 10
-16.40000042915349
 20
209.6494017840662
 30
0.0
 11
-16.40000042915349
 21
208.3473019159955
 31
0.0
  0
LINE
  5
EB
330
4E
100
AcDbEntity
  8
0
  6
Continuous
 62
     7
100
AcDbLine
 10
-14.30000042915349
 20
205.8494017840651
 30
0.0
 11
-16.40000042915349
 21
205.8494017840651
 31
0.0
  0
LINE
  5
EC
330
4E
100
AcDbEntity
  8
0
  6
Continuous
 62
     7
100
AcDbLine
 10
3.4999995708464
 20
205.8494017840651
 30
0.0
 11
-2.30000042915349
 21
205.8494017840651
 31
0.0
  0
LINE
  5
ED
330
4E
100
AcDbEntity
  8
0
  6
Continuous
 62
     7
100
AcDbLine
 10
-14.30000042915349
 20
206.8318048697872
 30
0.0
 11
-14.30000042915349
 21
205.8494017840651
 31
0.0
  0
LINE
  5
EE
330
4E
100
AcDbEntity
  8
0
  6
Continuous
 62
     7
100
AcDbLine
 10
-2.30000042915349
 20
205.8505985801601
 30
0.0
 11
-2.30000042915349
 21
206.8318048697872
 31
0.0
  0
LINE
  5
EF
330
4E
100
AcDbEntity
  8
0
  6
Continuous
 62
     7
100
AcDbLine
 10
-2.30000042915349
 20
205.8505985801601
 30
0.0
 11
3.4999995708464
 21
205.8505985801601
 31
0.0
  0
LINE
  5
F0
330
4E
100
AcDbEntity
  8
0
  6
Continuous
 62
     7
100
AcDbLine
 10
3.4999995708464
 20
205.8505985801601
 30
0.0
 11
3.4999995708464
 21
206.8318048697872
 31
0.0
  0
LINE
  5
F1
330
4E
100
AcDbEntity
  8
0
  6
Continuous
 62
     7
100
AcDbLine
 10
-16.40000042915349
 20
204.8494017840651
 30
0.0
 11
-16.40000042915349
 21
205.8494017840651
 31
0.0
  0
LINE
  5
F2
330
4E
100
AcDbEntity
  8
0
  6
Continuous
 62
     7
100
AcDbLine
 10
-16.40000042915349
 20
206.8318048697872
 30
0.0
 11
-16.40000042915349
 21
208.3473019159955
 31
0.0
  0
LINE
  5
F3
330
4E
100
AcDbEntity
  8
0
  6
Continuous
 62
     7
100
AcDbLine
 10
15.4999995708464
 20
206.8318048697872
 30
0.0
 11
15.4999995708464
 21
205.8505985801601
 31
0.0
  0
LINE
  5
F4
330
4E
100
AcDbEntity
  8
0
  6
Continuous
 62
     7
100
AcDbLine
 10
35.3999995708465
 20
206.8318048697872
 30
0.0
 11
-16.40000042915349
 21
206.8318048697872
 31
0.0
  0
LINE
  5
F5
330
4E
100
AcDbEntity
  8
0
  6
Continuous
 62
     7
100
AcDbLine
 10
-2.30000042915349
 20
204.8494017840651
 30
0.0
 11
3.4999995708464
 21
204.8494017840651
 31
0.0
  0
LINE
  5
F6
330
4E
100
AcDbEntity
  8
0
  6
Continuous
 62
     7
100
AcDbLine
 10
-2.30000042915349
 20
189.3505985801602
 30
0.0
 11
-2.30000042915349
 21
205.8505985801601
 31
0.0
  0
LINE
  5
F7
330
4E
100
AcDbEntity
  8
0
  6
Continuous
 62
     7
100
AcDbLine
 10
-5.4000004291534
 20
189.3505985801602
 30
0.0
 11
-2.30000042915349
 21
189.3505985801602
 31
0.0
  0
LINE
  5
F8
330
4E
100
AcDbEntity
  8
0
  6
Continuous
 62
     7
100
AcDbLine
 10
-5.4000004291534
 20
195.0505985801601
 30
0.0
 11
-5.4000004291534
 21
189.3505985801602
 31
0.0
  0
LINE
  5
F9
330
4E
100
AcDbEntity
  8
0
  6
Continuous
 62
     7
100
AcDbLine
 10
-14.30000042915349
 20
205.8494017840651
 30
0.0
 11
-14.30000042915349
 21
189.3505985801602
 31
0.0
  0
LINE
  5
FA
330
4E
100
AcDbEntity
  8
0
  6
Continuous
 62
     7
100
AcDbLine
 10
-11.40000042915341
 20
189.3505985801602
 30
0.0
 11
-11.40000042915341
 21
195.0505985801601
 31
0.0
  0
LINE
  5
FB
330
4E
100
AcDbEntity
  8
0
  6
Continuous
 62
     7
100
AcDbLine
 10
-14.30000042915349
 20
189.3505985801602
 30
0.0
 11
-11.40000042915341
 21
189.3505985801602
 31
0.0
  0
LINE
  5
FC
330
4E
100
AcDbEntity
  8
0
  6
Continuous
 62
     7
100
AcDbLine
 10
6.39999957084649
 20
189.3505985801602
 30
0.0
 11
6.39999957084649
 21
195.0505985801601
 31
0.0
  0
LINE
  5
FD
330
4E
100
AcDbEntity
  8
0
  6
Continuous
 62
     7
100
AcDbLine
 10
3.4999995708464
 20
189.3505985801602
 30
0.0
 11
3.4999995708464
 21
205.8505985801601
 31
0.0
  0
LINE
  5
FE
330
4E
100
AcDbEntity
  8
0
  6
Continuous
 62
     7
100
AcDbLine
 10
35.3999995708465
 20
208.3473019159955
 30
0.0
 11
35.3999995708465
 21
209.6494017840662
 31
0.0
  0
LINE
  5
FF
330
4E
100
AcDbEntity
  8
0
  6
Continuous
 62
     7
100
AcDbLine
 10
33.29999957084638
 20
205.8494017840651
 30
0.0
 11
35.3999995708465
 21
205.8494017840651
 31
0.0
  0
LINE
  5
100
330
4E
100
AcDbEntity
  8
0
  6
Continuous
 62
     7
100
AcDbLine
 10
35.3999995708465
 20
205.8494017840651
 30
0.0
 11
35.3999995708465
 21
204.8494017840651
 31
0.0
  0
LINE
  5
101
330
4E
100
AcDbEntity
  8
0
  6
Continuous
 62
     7
100
AcDbLine
 10
33.29999957084638
 20
204.8494017840651
 30
0.0
 11
35.3999995708465
 21
204.8494017840651
 31
0.0
  0
LINE
  5
102
330
4E
100
AcDbEntity
  8
0
  6
Continuous
 62
     7
100
AcDbLine
 10
33.29999957084638
 20
206.8318048697872
 30
0.0
 11
33.29999957084638
 21
205.8494017840651
 31
0.0
  0
LINE
  5
103
330
4E
100
AcDbEntity
  8
0
  6
Continuous
 62
     7
100
AcDbLine
 10
33.29999957084638
 20
205.8494017840651
 30
0.0
 11
33.29999957084638
 21
189.3505985801602
 31
0.0
  0
LINE
  5
104
330
4E
100
AcDbEntity
  8
0
  6
Continuous
 62
     7
100
AcDbLine
 10
35.3999995708465
 20
206.8318048697872
 30
0.0
 11
35.3999995708465
 21
205.8494017840651
 31
0.0
  0
LINE
  5
105
330
4E
100
AcDbEntity
  8
0
  6
Continuous
 62
     7
100
AcDbLine
 10
35.3999995708465
 20
208.3473019159955
 30
0.0
 11
35.3999995708465
 21
206.8318048697872
 31
0.0
  0
LINE
  5
106
330
4E
100
AcDbEntity
  8
0
  6
Continuous
 62
     7
100
AcDbLine
 10
30.19999957084651
 20
189.3505985801602
 30
0.0
 11
33.29999957084638
 21
189.3505985801602
 31
0.0
  0
LINE
  5
107
330
4E
100
AcDbEntity
  8
0
  6
Continuous
 62
     7
100
AcDbLine
 10
30.19999957084651
 20
195.0505985801601
 30
0.0
 11
30.19999957084651
 21
189.3505985801602
 31
0.0
  0
LINE
  5
108
330
4E
100
AcDbEntity
  8
0
  6
Continuous
 62
     7
100
AcDbLine
 10
21.29999957084642
 20
205.8505985801601
 30
0.0
 11
21.29999957084642
 21
206.8318048697872
 31
0.0
  0
LINE
  5
109
330
4E
100
AcDbEntity
  8
0
  6
Continuous
 62
     7
100
AcDbLine
 10
21.29999957084642
 20
189.3505985801602
 30
0.0
 11
21.29999957084642
 21
205.8505985801601
 31
0.0
  0
LINE
  5
10A
330
4E
100
AcDbEntity
  8
0
  6
Continuous
 62
     7
100
AcDbLine
 10
3.4999995708464
 20
189.3505985801602
 30
0.0
 11
6.39999957084649
 21
189.3505985801602
 31
0.0
  0
LINE
  5
10B
330
4E
100
AcDbEntity
  8
0
  6
Continuous
 62
     7
100
AcDbLine
 10
21.29999957084642
 20
189.3505985801602
 30
0.0
 11
24.19999957084651
 21
189.3505985801602
 31
0.0
  0
LINE
  5
10C
330
4E
100
AcDbEntity
  8
0
  6
Continuous
 62
     7
100
AcDbLine
 10
12.39999957084649
 20
189.3505985801602
 30
0.0
 11
15.4999995708464
 21
189.3505985801602
 31
0.0
  0
LINE
  5
10D
330
4E
100
AcDbEntity
  8
0
  6
Continuous
 62
     7
100
AcDbLine
 10
15.4999995708464
 20
205.8505985801601
 30
0.0
 11
21.29999957084642
 21
205.8505985801601
 31
0.0
  0
LINE
  5
10E
330
4E
100
AcDbEntity
  8
0
  6
Continuous
 62
     7
100
AcDbLine
 10
15.4999995708464
 20
205.8505985801601
 30
0.0
 11
15.4999995708464
 21
189.3505985801602
 31
0.0
  0
LINE
  5
10F
330
4E
100
AcDbEntity
  8
0
  6
Continuous
 62
     7
100
AcDbLine
 10
-16.40000042915349
 20
205.8494017840651
 30
0.0
 11
-16.40000042915349
 21
206.8318048697872
 31
0.0
  0
LINE
  5
110
330
4E
100
AcDbEntity
  8
0
  6
Continuous
 62
     7
100
AcDbLine
 10
-16.40000042915349
 20
204.8494017840651
 30
0.0
 11
-14.30000042915349
 21
204.8494017840651
 31
0.0
  0
LINE
  5
111
330
4E
100
AcDbEntity
  8
0
  6
Continuous
 62
     7
100
AcDbLine
 10
15.4999995708464
 20
204.8494017840651
 30
0.0
 11
21.29999957084642
 21
204.8494017840651
 31
0.0
  0
LINE
  5
112
330
4E
100
AcDbEntity
  8
0
  6
Continuous
 62
     7
100
AcDbLine
 10
21.29999957084642
 20
205.8494017840651
 30
0.0
 11
15.4999995708464
 21
205.8494017840651
 31
0.0
  0
LINE
  5
113
330
4E
100
AcDbEntity
  8
0
  6
Continuous
 62
     7
100
AcDbLine
 10
12.39999957084649
 20
195.0505985801601
 30
0.0
 11
12.39999957084649
 21
189.3505985801602
 31
0.0
  0
LINE
  5
114
330
4E
100
AcDbEntity
  8
0
  6
Continuous
 62
     7
100
AcDbLine
 10
24.19999957084651
 20
189.3505985801602
 30
0.0
 11
24.19999957084651
 21
195.0505985801601
 31
0.0
  0
ARC
  5
115
330
4E
100
AcDbEntity
  8
0
  6
Continuous
 62
     7
100
AcDbCircle
 10
-8.4000004291534
 20
195.0505985801601
 30
0.0
 40
3.000000000000002
100
AcDbArc
 50
0.0
 51
180.0
  0
ARC
  5
116
330
4E
100
AcDbEntity
  8
0
  6
Continuous
 62
     7
100
AcDbCircle
 10
9.39999957084649
 20
195.0505985801601
 30
0.0
 40
2.999999999999996
100
AcDbArc
 50
0.0
 51
180.0
  0
ARC
  5
117
330
4E
100
AcDbEntity
  8
0
  6
Continuous
 62
     7
100
AcDbCircle
 10
27.19999957084651
 20
195.0505985801601
 30
0.0
 40
3.0
100
AcDbArc
 50
0.0
 51
180.0
  0
ENDBLK
  5
50
330
4E
100
AcDbEntity
  8
0
100
AcDbBlockEnd
  0
BLOCK
  5
53
330
51
100
AcDbEntity
  8
0
100
AcDbBlockBegin
  2
Drfsicht1
 70
     0
 10
9.5
 20
199.500000000065
 30
0.0
  3
Drfsicht1
  1

  0
INSERT
  5
52
330
51
100
AcDbEntity
  8
0
100
AcDbBlockReference
  2
MPB_18_1_3-select__2
 10
-16.40000042915349
 20
189.3505985801602
 30
0.0
  0
MTEXT
  5
118
330
51
100
AcDbEntity
  8
1
 62
     6
100
AcDbMText
 10
9.5
 20
186.8505973816568
 30
0.0
 40
2.5
 41
0.0
 71
     2
 72
     1
  1
 
  7
CONVERTER_11
 73
     1
 44
1.32052821128451
  0
DIMENSION
  5
123
330
51
100
AcDbEntity
  8
1
100
AcDbDimension
  2
*D17
 10
-21.40000042915349
 20
189.3505985801602
 30
0.0
 11
-23.11250042915349
 21
200.0283857634545
 31
0.0
 70
    32
  1
<>
 71
     5
 42
-1.0
 53
90.0
  3
ME10_DIM_10
100
AcDbAlignedDimension
 13
-16.40000042915349
 23
209.6494017840662
 33
0.0
 14
-11.40000042915341
 24
189.3505985801602
 34
0.0
 50
90.0
100
AcDbRotatedDimension
  0
ENDBLK
  5
54
330
51
100
AcDbEntity
  8
0
100
AcDbBlockEnd
  0
BLOCK
  5
56
330
55
100
AcDbEntity
  8
0
100
AcDbBlockBegin
  2
MPB_18_1_3-select__3
 70
     0
 10
71.69880638134762
 20
250.1494022940117
 30
0.0
  3
MPB_18_1_3-select__3
  1

  0
LINE
  5
124
330
55
100
AcDbEntity
  8
0
  6
Continuous
 62
     7
100
AcDbLine
 10
71.69880638134762
 20
264.4494022940127
 30
0.0
 11
123.4988063813476
 21
264.4494022940127
 31
0.0
  0
LINE
  5
125
330
55
100
AcDbEntity
  8
0
  6
Continuous
 62
     7
100
AcDbLine
 10
123.4988063813476
 20
250.1494022940117
 30
0.0
 11
123.4988063813476
 21
264.4494022940127
 31
0.0
  0
LINE
  5
126
330
55
100
AcDbEntity
  8
0
  6
Continuous
 62
     7
100
AcDbLine
 10
71.69880638134762
 20
264.4494022940127
 30
0.0
 11
71.69880638134762
 21
250.1494022940117
 31
0.0
  0
LINE
  5
127
330
55
100
AcDbEntity
  8
0
  6
Continuous
 62
     7
100
AcDbLine
 10
123.4988063813476
 20
250.1494022940117
 30
0.0
 11
71.69880638134762
 21
250.1494022940117
 31
0.0
  0
ENDBLK
  5
57
330
55
100
AcDbEntity
  8
0
100
AcDbBlockEnd
  0
BLOCK
  5
5A
330
58
100
AcDbEntity
  8
0
100
AcDbBlockBegin
  2
Rckans1
 70
     0
 10
97.59880595219411
 20
257.2994025953064
 30
0.0
  3
Rckans1
  1

  0
INSERT
  5
59
330
58
100
AcDbEntity
  8
0
100
AcDbBlockReference
  2
MPB_18_1_3-select__3
 10
71.69880638134762
 20
250.1494022940117
 30
0.0
  0
MTEXT
  5
128
330
58
100
AcDbEntity
  8
1
 62
     6
100
AcDbMText
 10
97.5988059521942
 20
247.6494020231018
 30
0.0
 40
2.5
 41
0.0
 71
     2
 72
     1
  1
 
  7
CONVERTER_11
 73
     1
 44
1.32052821128451
  0
ENDBLK
  5
5B
330
58
100
AcDbEntity
  8
0
100
AcDbBlockEnd
  0
BLOCK
  5
5D
330
5C
100
AcDbEntity
  8
0
100
AcDbBlockBegin
  2
MPB_18_1_3-select__4
 70
     0
 10
45.40000069209584
 20
250.1494022940117
 30
0.0
  3
MPB_18_1_3-select__4
  1

  0
LINE
  5
129
330
5C
100
AcDbEntity
  8
0
  6
Continuous
 62
     7
100
AcDbLine
 10
47.69880389600195
 20
251.2399256246227
 30
0.0
 11
47.69880389600195
 21
263.1499256246228
 31
0.0
  0
LINE
  5
12A
330
5C
100
AcDbEntity
  8
0
  6
Continuous
 62
     7
100
AcDbLine
 10
46.49130919316585
 20
251.1494022940117
 30
0.0
 11
47.60993887550406
 21
263.7257402464824
 31
0.0
  0
LINE
  5
12B
330
5C
100
AcDbEntity
  8
0
  6
Continuous
 62
     7
100
AcDbLine
 10
50.20000069209695
 20
259.6762625809624
 30
0.0
 11
49.20000069209695
 21
259.6762625809624
 31
0.0
  0
LINE
  5
12C
330
5C
100
AcDbEntity
  8
0
  6
Continuous
 62
     7
100
AcDbLine
 10
50.20000069209695
 20
250.1494022940117
 30
0.0
 11
50.20000069209695
 21
259.6762625809624
 31
0.0
  0
LINE
  5
12D
330
5C
100
AcDbEntity
  8
0
  6
Continuous
 62
     7
100
AcDbLine
 10
49.19501387234159
 20
261.6499256246228
 30
0.0
 11
49.20000069209695
 21
259.6762625809624
 31
0.0
  0
LINE
  5
12E
330
5C
100
AcDbEntity
  8
0
  6
Continuous
 62
     7
100
AcDbLine
 10
49.20000069209695
 20
259.6762625809624
 30
0.0
 11
49.22102829671864
 21
251.3540435767484
 31
0.0
  0
LINE
  5
12F
330
5C
100
AcDbEntity
  8
0
  6
Continuous
 62
     7
100
AcDbLine
 10
45.40000069209584
 20
250.1494022940117
 30
0.0
 11
50.20000069209695
 21
250.1494022940117
 31
0.0
  0
LINE
  5
130
330
5C
100
AcDbEntity
  8
0
  6
Continuous
 62
     7
100
AcDbLine
 10
47.69880389600195
 20
251.2399256246227
 30
0.0
 11
46.49130919316585
 21
251.1494022940117
 31
0.0
  0
LINE
  5
131
330
5C
100
AcDbEntity
  8
0
  6
Continuous
 62
     7
100
AcDbLine
 10
49.22102829671864
 20
251.3540435767484
 30
0.0
 11
47.69880389600195
 21
251.2399256246227
 31
0.0
  0
LINE
  5
132
330
5C
100
AcDbEntity
  8
0
  6
Continuous
 62
     7
100
AcDbLine
 10
48.21759760637487
 20
263.7257402464824
 30
0.0
 11
47.60993887550406
 21
263.7257402464824
 31
0.0
  0
LINE
  5
133
330
5C
100
AcDbEntity
  8
0
  6
Continuous
 62
     7
100
AcDbLine
 10
48.21759760637487
 20
263.7257402464824
 30
0.0
 11
48.21759760637485
 21
264.4494022940118
 31
0.0
  0
LINE
  5
134
330
5C
100
AcDbEntity
  8
0
  6
Continuous
 62
     7
100
AcDbLine
 10
46.70210056016653
 20
264.4494022940127
 30
0.0
 11
48.21759760637485
 21
264.4494022940118
 31
0.0
  0
LINE
  5
135
330
5C
100
AcDbEntity
  8
0
  6
Continuous
 62
     7
100
AcDbLine
 10
47.69880389600195
 20
263.1499256246228
 30
0.0
 11
65.69880389600192
 21
263.1499256246228
 31
0.0
  0
LINE
  5
136
330
5C
100
AcDbEntity
  8
0
  6
Continuous
 62
     7
100
AcDbLine
 10
65.69880389600192
 20
263.1499256246228
 30
0.0
 11
65.69880389600192
 21
261.6499256246228
 31
0.0
  0
LINE
  5
137
330
5C
100
AcDbEntity
  8
0
  6
Continuous
 62
     7
100
AcDbLine
 10
49.19501387234159
 20
261.6499256246228
 30
0.0
 11
65.69880389600192
 21
261.6499256246228
 31
0.0
  0
LINE
  5
138
330
5C
100
AcDbEntity
  8
0
  6
Continuous
 62
     7
100
AcDbLine
 10
45.40000069209584
 20
250.1494022940117
 30
0.0
 11
46.70210056016653
 21
264.4494022940127
 31
0.0
  0
ENDBLK
  5
5E
330
5C
100
AcDbEntity
  8
0
100
AcDbBlockEnd
  0
BLOCK
  5
61
330
5F
100
AcDbEntity
  8
0
100
AcDbBlockBegin
  2
SA_Links1
 70
     0
 10
55.5494024760971
 20
257.2994025953064
 30
0.0
  3
SA_Links1
  1

  0
INSERT
  5
60
330
5F
100
AcDbEntity
  8
0
100
AcDbBlockReference
  2
MPB_18_1_3-select__4
 10
45.40000069209584
 20
250.1494022940117
 30
0.0
  0
MTEXT
  5
139
330
5F
100
AcDbEntity
  8
1
 62
     6
100
AcDbMText
 10
55.5494024760971
 20
247.6494020231018
 30
0.0
 40
2.5
 41
0.0
 71
     2
 72
     1
  1
 
  7
CONVERTER_11
 73
     1
 44
1.32052821128451
  0
ENDBLK
  5
62
330
5F
100
AcDbEntity
  8
0
100
AcDbBlockEnd
  0
BLOCK
  5
64
330
63
100
AcDbEntity
  8
0
100
AcDbBlockBegin
  2
MPB_18_1_3-select__5
 70
     0
 10
-58.69880389600215
 20
250.1494022940118
 30
0.0
  3
MPB_18_1_3-select__5
  1

  0
LINE
  5
13A
330
63
100
AcDbEntity
  8
0
  6
Continuous
 62
     7
100
AcDbLine
 10
-40.69880389600215
 20
251.2399256246228
 30
0.0
 11
-40.69880389600215
 21
263.1499256246228
 31
0.0
  0
LINE
  5
13B
330
63
100
AcDbEntity
  8
0
  6
Continuous
 62
     7
100
AcDbLine
 10
-39.49130919316605
 20
251.1494022940118
 30
0.0
 11
-40.69880389600215
 21
251.2399256246228
 31
0.0
  0
LINE
  5
13C
330
63
100
AcDbEntity
  8
0
  6
Continuous
 62
     7
100
AcDbLine
 10
-40.60993887550424
 20
263.7257402464824
 30
0.0
 11
-39.49130919316605
 21
251.1494022940118
 31
0.0
  0
LINE
  5
13D
330
63
100
AcDbEntity
  8
0
  6
Continuous
 62
     7
100
AcDbLine
 10
-39.70210056016674
 20
264.4494022940127
 30
0.0
 11
-41.21759760637505
 21
264.4494022940118
 31
0.0
  0
LINE
  5
13E
330
63
100
AcDbEntity
  8
0
  6
Continuous
 62
     7
100
AcDbLine
 10
-40.69880389600215
 20
251.2399256246228
 30
0.0
 11
-42.22102829671894
 21
251.3540435767484
 31
0.0
  0
LINE
  5
13F
330
63
100
AcDbEntity
  8
0
  6
Continuous
 62
     7
100
AcDbLine
 10
-42.19501387234183
 20
261.6499256246228
 30
0.0
 11
-42.20000069209715
 21
259.6762625809624
 31
0.0
  0
LINE
  5
140
330
63
100
AcDbEntity
  8
0
  6
Continuous
 62
     7
100
AcDbLine
 10
-42.20000069209715
 20
259.6762625809624
 30
0.0
 11
-42.22102829671894
 21
251.3540435767484
 31
0.0
  0
LINE
  5
141
330
63
100
AcDbEntity
  8
0
  6
Continuous
 62
     7
100
AcDbLine
 10
-43.20000069209715
 20
259.6762625809624
 30
0.0
 11
-43.20000069209715
 21
250.1494022940118
 31
0.0
  0
LINE
  5
142
330
63
100
AcDbEntity
  8
0
  6
Continuous
 62
     7
100
AcDbLine
 10
-43.20000069209715
 20
250.1494022940118
 30
0.0
 11
-38.40000069209606
 21
250.1494022940118
 31
0.0
  0
LINE
  5
143
330
63
100
AcDbEntity
  8
0
  6
Continuous
 62
     7
100
AcDbLine
 10
-40.69880389600215
 20
263.1499256246228
 30
0.0
 11
-58.69880389600215
 21
263.1499256246228
 31
0.0
  0
LINE
  5
144
330
63
100
AcDbEntity
  8
0
  6
Continuous
 62
     7
100
AcDbLine
 10
-42.19501387234183
 20
261.6499256246228
 30
0.0
 11
-58.69880389600215
 21
261.6499256246228
 31
0.0
  0
LINE
  5
145
330
63
100
AcDbEntity
  8
0
  6
Continuous
 62
     7
100
AcDbLine
 10
-41.21759760637505
 20
264.4494022940118
 30
0.0
 11
-41.21759760637514
 21
263.7257402464825
 31
0.0
  0
LINE
  5
146
330
63
100
AcDbEntity
  8
0
  6
Continuous
 62
     7
100
AcDbLine
 10
-40.60993887550424
 20
263.7257402464824
 30
0.0
 11
-41.21759760637514
 21
263.7257402464825
 31
0.0
  0
LINE
  5
147
330
63
100
AcDbEntity
  8
0
  6
Continuous
 62
     7
100
AcDbLine
 10
-42.20000069209715
 20
259.6762625809624
 30
0.0
 11
-43.20000069209715
 21
259.6762625809624
 31
0.0
  0
LINE
  5
148
330
63
100
AcDbEntity
  8
0
  6
Continuous
 62
     7
100
AcDbLine
 10
-58.69880389600215
 20
263.1499256246228
 30
0.0
 11
-58.69880389600215
 21
261.6499256246228
 31
0.0
  0
LINE
  5
149
330
63
100
AcDbEntity
  8
0
  6
Continuous
 62
     7
100
AcDbLine
 10
-39.70210056016674
 20
264.4494022940127
 30
0.0
 11
-38.40000069209606
 21
250.1494022940118
 31
0.0
  0
ENDBLK
  5
65
330
63
100
AcDbEntity
  8
0
100
AcDbBlockEnd
  0
BLOCK
  5
68
330
66
100
AcDbEntity
  8
0
100
AcDbBlockBegin
  2
SA_Rechts1
 70
     0
 10
-48.54940247609724
 20
257.2994025953064
 30
0.0
  3
SA_Rechts1
  1

  0
INSERT
  5
67
330
66
100
AcDbEntity
  8
0
100
AcDbBlockReference
  2
MPB_18_1_3-select__5
 10
-58.69880389600215
 20
250.1494022940118
 30
0.0
  0
MTEXT
  5
14A
330
66
100
AcDbEntity
  8
1
 62
     6
100
AcDbMText
 10
-48.54940247609716
 20
247.6494020231018
 30
0.0
 40
2.5
 41
0.0
 71
     2
 72
     1
  1
 
  7
CONVERTER_11
 73
     1
 44
1.32052821128451
  0
ENDBLK
  5
69
330
66
100
AcDbEntity
  8
0
100
AcDbBlockEnd
  0
BLOCK
  5
6B
330
6A
100
AcDbEntity
  8
0
100
AcDbBlockBegin
  2
MPB_18_1_3-select__6
 70
     0
 10
-16.40000042915354
 20
250.1494022940118
 30
0.0
  3
MPB_18_1_3-select__6
  1

  0
LINE
  5
14B
330
6A
100
AcDbEntity
  8
0
  6
Continuous
 62
     7
100
AcDbLine
 10
3.49999957084636
 20
263.1499256246228
 30
0.0
 11
3.49999957084636
 21
261.6499256246228
 31
0.0
  0
LINE
  5
14C
330
6A
100
AcDbEntity
  8
0
  6
Continuous
 62
     7
100
AcDbLine
 10
-2.30000042915355
 20
261.6499256246228
 30
0.0
 11
-2.30000042915355
 21
263.1499256246228
 31
0.0
  0
LINE
  5
14D
330
6A
100
AcDbEntity
  8
0
  6
Continuous
 62
     7
100
AcDbLine
 10
-5.40000042915346
 20
261.6499256246228
 30
0.0
 11
-5.40000042915346
 21
263.1499256246228
 31
0.0
  0
LINE
  5
14E
330
6A
100
AcDbEntity
  8
0
  6
Continuous
 62
     7
100
AcDbLine
 10
-11.40000042915346
 20
263.1499256246228
 30
0.0
 11
-11.40000042915346
 21
261.6499256246228
 31
0.0
  0
LINE
  5
14F
330
6A
100
AcDbEntity
  8
0
  6
Continuous
 62
     7
100
AcDbLine
 10
-2.30000042915355
 20
260.1499256246226
 30
0.0
 11
3.49999957084636
 21
260.1499256246226
 31
0.0
  0
LINE
  5
150
330
6A
100
AcDbEntity
  8
0
  6
Continuous
 62
     7
100
AcDbLine
 10
-16.40000042915354
 20
259.6762625809624
 30
0.0
 11
-14.30000042915355
 21
259.6762625809624
 31
0.0
  0
LINE
  5
151
330
6A
100
AcDbEntity
  8
0
  6
Continuous
 62
     7
100
AcDbLine
 10
15.49999957084635
 20
260.1499256246226
 30
0.0
 11
21.29999957084636
 21
260.1499256246226
 31
0.0
  0
LINE
  5
152
330
6A
100
AcDbEntity
  8
0
  6
Continuous
 62
     7
100
AcDbLine
 10
-14.30000042915355
 20
259.6762625809624
 30
0.0
 11
33.29999957084633
 21
259.6762625809624
 31
0.0
  0
LINE
  5
153
330
6A
100
AcDbEntity
  8
0
  6
Continuous
 62
     7
100
AcDbLine
 10
-14.30000042915355
 20
263.1499256246228
 30
0.0
 11
-11.40000042915346
 21
263.1499256246228
 31
0.0
  0
LINE
  5
154
330
6A
100
AcDbEntity
  8
0
  6
Continuous
 62
     7
100
AcDbLine
 10
21.29999957084636
 20
263.1499256246228
 30
0.0
 11
24.19999957084645
 21
263.1499256246228
 31
0.0
  0
LINE
  5
155
330
6A
100
AcDbEntity
  8
0
  6
Continuous
 62
     7
100
AcDbLine
 10
3.49999957084636
 20
263.1499256246228
 30
0.0
 11
6.39999957084645
 21
263.1499256246228
 31
0.0
  0
LINE
  5
156
330
6A
100
AcDbEntity
  8
0
  6
Continuous
 62
     7
100
AcDbLine
 10
30.19999957084645
 20
263.1499256246228
 30
0.0
 11
24.19999957084645
 21
263.1499256246228
 31
0.0
  0
LINE
  5
157
330
6A
100
AcDbEntity
  8
0
  6
Continuous
 62
     7
100
AcDbLine
 10
-5.40000042915346
 20
263.1499256246228
 30
0.0
 11
-2.30000042915355
 21
263.1499256246228
 31
0.0
  0
LINE
  5
158
330
6A
100
AcDbEntity
  8
0
  6
Continuous
 62
     7
100
AcDbLine
 10
-5.40000042915346
 20
263.1499256246228
 30
0.0
 11
-11.40000042915346
 21
263.1499256246228
 31
0.0
  0
LINE
  5
159
330
6A
100
AcDbEntity
  8
0
  6
Continuous
 62
     7
100
AcDbLine
 10
30.19999957084645
 20
263.1499256246228
 30
0.0
 11
33.29999957084633
 21
263.1499256246228
 31
0.0
  0
LINE
  5
15A
330
6A
100
AcDbEntity
  8
0
  6
Continuous
 62
     7
100
AcDbLine
 10
35.39999957084645
 20
264.4494022940118
 30
0.0
 11
-16.40000042915354
 21
264.4494022940118
 31
0.0
  0
LINE
  5
15B
330
6A
100
AcDbEntity
  8
0
  6
Continuous
 62
     7
100
AcDbLine
 10
21.29999957084636
 20
261.6499256246228
 30
0.0
 11
24.19999957084645
 21
261.6499256246228
 31
0.0
  0
LINE
  5
15C
330
6A
100
AcDbEntity
  8
0
  6
Continuous
 62
     7
100
AcDbLine
 10
3.49999957084636
 20
261.6499256246228
 30
0.0
 11
6.39999957084645
 21
261.6499256246228
 31
0.0
  0
LINE
  5
15D
330
6A
100
AcDbEntity
  8
0
  6
Continuous
 62
     7
100
AcDbLine
 10
30.19999957084645
 20
261.6499256246228
 30
0.0
 11
24.19999957084645
 21
261.6499256246228
 31
0.0
  0
LINE
  5
15E
330
6A
100
AcDbEntity
  8
0
  6
Continuous
 62
     7
100
AcDbLine
 10
-5.40000042915346
 20
261.6499256246228
 30
0.0
 11
-2.30000042915355
 21
261.6499256246228
 31
0.0
  0
LINE
  5
15F
330
6A
100
AcDbEntity
  8
0
  6
Continuous
 62
     7
100
AcDbLine
 10
-5.40000042915346
 20
261.6499256246228
 30
0.0
 11
-11.40000042915346
 21
261.6499256246228
 31
0.0
  0
LINE
  5
160
330
6A
100
AcDbEntity
  8
0
  6
Continuous
 62
     7
100
AcDbLine
 10
30.19999957084645
 20
261.6499256246228
 30
0.0
 11
33.29999957084633
 21
261.6499256246228
 31
0.0
  0
LINE
  5
161
330
6A
100
AcDbEntity
  8
0
  6
Continuous
 62
     7
100
AcDbLine
 10
-14.30000042915355
 20
261.6499256246228
 30
0.0
 11
-11.40000042915346
 21
261.6499256246228
 31
0.0
  0
LINE
  5
162
330
6A
100
AcDbEntity
  8
0
  6
Continuous
 62
     7
100
AcDbLine
 10
-14.30000042915355
 20
263.1499256246228
 30
0.0
 11
-14.30000042915355
 21
261.6499256246228
 31
0.0
  0
LINE
  5
163
330
6A
100
AcDbEntity
  8
0
  6
Continuous
 62
     7
100
AcDbLine
 10
-16.40000042915354
 20
259.6762625809624
 30
0.0
 11
-16.40000042915354
 21
263.7257402464825
 31
0.0
  0
LINE
  5
164
330
6A
100
AcDbEntity
  8
0
  6
Continuous
 62
     7
100
AcDbLine
 10
-16.40000042915354
 20
263.7257402464825
 30
0.0
 11
-16.40000042915354
 21
264.4494022940118
 31
0.0
  0
LINE
  5
165
330
6A
100
AcDbEntity
  8
0
  6
Continuous
 62
     7
100
AcDbLine
 10
-16.40000042915354
 20
250.1494022940118
 30
0.0
 11
-16.40000042915354
 21
259.6762625809624
 31
0.0
  0
LINE
  5
166
330
6A
100
AcDbEntity
  8
0
  6
Continuous
 62
     7
100
AcDbLine
 10
-14.30000042915355
 20
261.6499256246228
 30
0.0
 11
-14.30000042915355
 21
259.6762625809624
 31
0.0
  0
LINE
  5
167
330
6A
100
AcDbEntity
  8
0
  6
Continuous
 62
     7
100
AcDbLine
 10
30.19999957084645
 20
261.6499256246228
 30
0.0
 11
30.19999957084645
 21
263.1499256246228
 31
0.0
  0
LINE
  5
168
330
6A
100
AcDbEntity
  8
0
  6
Continuous
 62
     7
100
AcDbLine
 10
24.19999957084645
 20
263.1499256246228
 30
0.0
 11
24.19999957084645
 21
261.6499256246228
 31
0.0
  0
LINE
  5
169
330
6A
100
AcDbEntity
  8
0
  6
Continuous
 62
     7
100
AcDbLine
 10
6.39999957084645
 20
263.1499256246228
 30
0.0
 11
6.39999957084645
 21
261.6499256246228
 31
0.0
  0
LINE
  5
16A
330
6A
100
AcDbEntity
  8
0
  6
Continuous
 62
     7
100
AcDbLine
 10
12.39999957084644
 20
263.1499256246228
 30
0.0
 11
6.39999957084645
 21
263.1499256246228
 31
0.0
  0
LINE
  5
16B
330
6A
100
AcDbEntity
  8
0
  6
Continuous
 62
     7
100
AcDbLine
 10
12.39999957084644
 20
261.6499256246228
 30
0.0
 11
6.39999957084645
 21
261.6499256246228
 31
0.0
  0
LINE
  5
16C
330
6A
100
AcDbEntity
  8
0
  6
Continuous
 62
     7
100
AcDbLine
 10
35.39999957084645
 20
263.7257402464825
 30
0.0
 11
35.39999957084645
 21
259.6762625809624
 31
0.0
  0
LINE
  5
16D
330
6A
100
AcDbEntity
  8
0
  6
Continuous
 62
     7
100
AcDbLine
 10
35.39999957084645
 20
264.4494022940118
 30
0.0
 11
35.39999957084645
 21
263.7257402464825
 31
0.0
  0
LINE
  5
16E
330
6A
100
AcDbEntity
  8
0
  6
Continuous
 62
     7
100
AcDbLine
 10
33.29999957084633
 20
261.6499256246228
 30
0.0
 11
33.29999957084633
 21
259.6762625809624
 31
0.0
  0
LINE
  5
16F
330
6A
100
AcDbEntity
  8
0
  6
Continuous
 62
     7
100
AcDbLine
 10
35.39999957084645
 20
259.6762625809624
 30
0.0
 11
35.39999957084645
 21
250.1494022940118
 31
0.0
  0
LINE
  5
170
330
6A
100
AcDbEntity
  8
0
  6
Continuous
 62
     7
100
AcDbLine
 10
33.29999957084633
 20
259.6762625809624
 30
0.0
 11
35.39999957084645
 21
259.6762625809624
 31
0.0
  0
LINE
  5
171
330
6A
100
AcDbEntity
  8
0
  6
Continuous
 62
     7
100
AcDbLine
 10
33.29999957084633
 20
263.1499256246228
 30
0.0
 11
33.29999957084633
 21
261.6499256246228
 31
0.0
  0
LINE
  5
172
330
6A
100
AcDbEntity
  8
0
  6
Continuous
 62
     7
100
AcDbLine
 10
-16.40000042915354
 20
250.1494022940118
 30
0.0
 11
35.39999957084645
 21
250.1494022940118
 31
0.0
  0
LINE
  5
173
330
6A
100
AcDbEntity
  8
0
  6
Continuous
 62
     7
100
AcDbLine
 10
3.49999957084636
 20
261.6499256246228
 30
0.0
 11
3.49999957084636
 21
260.1499256246226
 31
0.0
  0
LINE
  5
174
330
6A
100
AcDbEntity
  8
0
  6
Continuous
 62
     7
100
AcDbLine
 10
-2.30000042915355
 20
260.1499256246226
 30
0.0
 11
-2.30000042915355
 21
261.6499256246228
 31
0.0
  0
LINE
  5
175
330
6A
100
AcDbEntity
  8
0
  6
Continuous
 62
     7
100
AcDbLine
 10
21.29999957084636
 20
263.1499256246228
 30
0.0
 11
21.29999957084636
 21
261.6499256246228
 31
0.0
  0
LINE
  5
176
330
6A
100
AcDbEntity
  8
0
  6
Continuous
 62
     7
100
AcDbLine
 10
21.29999957084636
 20
261.6499256246228
 30
0.0
 11
21.29999957084636
 21
260.1499256246226
 31
0.0
  0
LINE
  5
177
330
6A
100
AcDbEntity
  8
0
  6
Continuous
 62
     7
100
AcDbLine
 10
15.49999957084635
 20
261.6499256246228
 30
0.0
 11
15.49999957084635
 21
263.1499256246228
 31
0.0
  0
LINE
  5
178
330
6A
100
AcDbEntity
  8
0
  6
Continuous
 62
     7
100
AcDbLine
 10
12.39999957084644
 20
263.1499256246228
 30
0.0
 11
15.49999957084635
 21
263.1499256246228
 31
0.0
  0
LINE
  5
179
330
6A
100
AcDbEntity
  8
0
  6
Continuous
 62
     7
100
AcDbLine
 10
12.39999957084644
 20
261.6499256246228
 30
0.0
 11
15.49999957084635
 21
261.6499256246228
 31
0.0
  0
LINE
  5
17A
330
6A
100
AcDbEntity
  8
0
  6
Continuous
 62
     7
100
AcDbLine
 10
12.39999957084644
 20
261.6499256246228
 30
0.0
 11
12.39999957084644
 21
263.1499256246228
 31
0.0
  0
LINE
  5
17B
330
6A
100
AcDbEntity
  8
0
  6
Continuous
 62
     7
100
AcDbLine
 10
15.49999957084635
 20
260.1499256246226
 30
0.0
 11
15.49999957084635
 21
261.6499256246228
 31
0.0
  0
LINE
  5
17C
330
6A
100
AcDbEntity
  8
0
  6
Continuous
 62
     7
100
AcDbLine
 10
-16.40000042915354
 20
263.7257402464825
 30
0.0
 11
35.39999957084645
 21
263.7257402464825
 31
0.0
  0
ENDBLK
  5
6C
330
6A
100
AcDbEntity
  8
0
100
AcDbBlockEnd
  0
BLOCK
  5
6F
330
6D
100
AcDbEntity
  8
0
100
AcDbBlockBegin
  2
Vordans1
 70
     0
 10
9.49999999999995
 20
257.2994025953064
 30
0.0
  3
Vordans1
  1

  0
INSERT
  5
6E
330
6D
100
AcDbEntity
  8
0
100
AcDbBlockReference
  2
MPB_18_1_3-select__6
 10
-16.40000042915354
 20
250.1494022940118
 30
0.0
  0
MTEXT
  5
17D
330
6D
100
AcDbEntity
  8
1
 62
     6
100
AcDbMText
 10
9.5
 20
247.6494020231018
 30
0.0
 40
2.5
 41
0.0
 71
     2
 72
     1
  1
 
  7
CONVERTER_11
 73
     1
 44
1.32052821128451
  0
DIMENSION
  5
188
330
6D
100
AcDbEntity
  8
1
100
AcDbDimension
  2
*D18
 10
-16.40000042915354
 20
244.4076308330345
 30
0.0
 11
8.7275772794167
 21
246.1201308330345
 31
0.0
 70
    32
  1
<>
 71
     5
 42
-1.0
 53
0.00013888888889
  3
ME10_DIM_11
100
AcDbAlignedDimension
 13
35.39999957084645
 23
250.1494022940118
 33
0.0
 14
-16.40000042915354
 24
250.1494022940118
 34
0.0
100
AcDbRotatedDimension
  0
DIMENSION
  5
193
330
6D
100
AcDbEntity
  8
1
100
AcDbDimension
  2
*D19
 10
-26.5891823978176
 20
250.1494022940118
 30
0.0
 11
-28.3016823978176
 21
258.255758864706
 31
0.0
 70
    32
  1
<>
 71
     5
 42
-1.0
 53
90.0
  3
ME10_DIM_12
100
AcDbAlignedDimension
 13
-16.40000042915354
 23
264.4494022940118
 33
0.0
 14
-16.40000042915354
 24
250.1494022940118
 34
0.0
 50
90.0
100
AcDbRotatedDimension
  0
DIMENSION
  5
19E
330
6D
100
AcDbEntity
  8
1
100
AcDbDimension
  2
*D20
 10
-21.67623275649295
 20
250.1494022940118
 30
0.0
 11
-23.30123275649295
 21
256.398424244205
 31
0.0
 70
    32
  1
<>
 71
     5
 42
-1.0
 53
90.0
  3
ME10_DIM_13
100
AcDbAlignedDimension
 13
-14.30000042915355
 23
263.1499256246228
 33
0.0
 14
-16.40000042915354
 24
250.1494022940118
 34
0.0
 50
90.0
100
AcDbRotatedDimension
  0
ENDBLK
  5
70
330
6D
100
AcDbEntity
  8
0
100
AcDbBlockEnd
  0
BLOCK
  5
72
330
71
100
AcDbEntity
  8
0
100
AcDbBlockBegin
  2
_rahmen
 70
     0
 10
261.8000024853473
 20
280.2999996756695
 30
0.0
  3
_rahmen
  1

  0
LINE
  5
19F
330
71
100
AcDbEntity
  8
1
  6
Continuous
 62
     6
100
AcDbLine
 10
193.4666691520139
 20
285.2999996756695
 30
0.0
 11
261.8000024853473
 21
285.299999675669
 31
0.0
  0
LINE
  5
1A0
330
71
100
AcDbEntity
  8
1
  6
Continuous
 62
     6
100
AcDbLine
 10
261.8000024853469
 20
293.7999996756689
 30
0.0
 11
261.8000024853473
 21
302.2999996756689
 31
0.0
  0
LINE
  5
1A1
330
71
100
AcDbEntity
  8
1
  6
Continuous
 62
     6
100
AcDbLine
 10
261.8000024853473
 20
302.2999996756689
 30
0.0
 11
261.8000024853463
 21
306.5499996756689
 31
0.0
  0
LINE
  5
1A2
330
71
100
AcDbEntity
  8
1
  6
Continuous
 62
     6
100
AcDbLine
 10
261.8000024853463
 20
306.5499996756689
 30
0.0
 11
261.8000024853473
 21
342.6999996756696
 31
0.0
  0
LINE
  5
1A3
330
71
100
AcDbEntity
  8
1
  6
Continuous
 62
     2
100
AcDbLine
 10
56.80000248534731
 20
280.2999996756695
 30
0.0
 11
-11.53333084798578
 21
280.2999996756695
 31
0.0
  0
LINE
  5
1A4
330
71
100
AcDbEntity
  8
1
  6
Continuous
 62
     2
100
AcDbLine
 10
193.4666691520139
 20
280.2999996756695
 30
0.0
 11
261.8000024853473
 21
280.2999996756695
 31
0.0
  0
LINE
  5
1A5
330
71
100
AcDbEntity
  8
1
  6
Continuous
 62
     2
100
AcDbLine
 10
193.4666691520139
 20
280.2999996756695
 30
0.0
 11
193.4666691520139
 21
285.2999996756695
 31
0.0
  0
LINE
  5
1A6
330
71
100
AcDbEntity
  8
1
  6
Continuous
 62
     2
100
AcDbLine
 10
125.1333358186807
 20
280.2999996756695
 30
0.0
 11
125.1333358186807
 21
285.2999996756666
 31
0.0
  0
LINE
  5
1A7
330
71
100
AcDbEntity
  8
1
  6
Continuous
 62
     2
100
AcDbLine
 10
56.80000248534731
 20
280.2999996756695
 30
0.0
 11
56.80000248534731
 21
285.2999996756695
 31
0.0
  0
LINE
  5
1A8
330
71
100
AcDbEntity
  8
1
  6
Continuous
 62
     2
100
AcDbLine
 10
266.8000024853448
 20
342.6999996756696
 30
0.0
 11
266.8000024853448
 21
400.0999996756697
 31
0.0
  0
LINE
  5
1A9
330
71
100
AcDbEntity
  8
1
  6
Continuous
 62
     2
100
AcDbLine
 10
266.8000024853448
 20
342.6999996756696
 30
0.0
 11
261.8000024853473
 21
342.6999996756696
 31
0.0
  0
LINE
  5
1AA
330
71
100
AcDbEntity
  8
1
  6
Continuous
 62
     2
100
AcDbLine
 10
-133.1999975146534
 20
280.2999996756695
 30
0.0
 11
-153.1999975146535
 21
280.2999996756695
 31
0.0
  0
LINE
  5
1AB
330
71
100
AcDbEntity
  8
1
  6
Continuous
 62
     2
100
AcDbLine
 10
-79.86666418131932
 20
280.2999996756695
 30
0.0
 11
-79.86666418131932
 21
285.2999996756695
 31
0.0
  0
LINE
  5
1AC
330
71
100
AcDbEntity
  8
1
  6
Continuous
 62
     2
100
AcDbLine
 10
-79.86666418131932
 20
280.2999996756695
 30
0.0
 11
-11.53333084798578
 21
280.2999996756695
 31
0.0
  0
LINE
  5
1AD
330
71
100
AcDbEntity
  8
1
  6
Continuous
 62
     6
100
AcDbLine
 10
-79.86666418131932
 20
285.2999996756695
 30
0.0
 11
-11.53333084798578
 21
285.2999996756695
 31
0.0
  0
LINE
  5
1AE
330
71
100
AcDbEntity
  8
1
  6
Continuous
 62
     6
100
AcDbLine
 10
-79.86666418131932
 20
285.2999996756695
 30
0.0
 11
-133.1999975146524
 21
285.2999996756695
 31
0.0
  0
LINE
  5
1AF
330
71
100
AcDbEntity
  8
1
  6
Continuous
 62
     2
100
AcDbLine
 10
-11.53333084798578
 20
280.2999996756695
 30
0.0
 11
-11.53333084798578
 21
285.2999996756695
 31
0.0
  0
LINE
  5
1B0
330
71
100
AcDbEntity
  8
1
  6
Continuous
 62
     2
100
AcDbLine
 10
-133.1999975146534
 20
280.2999996756695
 30
0.0
 11
-133.1999975146534
 21
284.2999996756695
 31
0.0
  0
LINE
  5
1B1
330
71
100
AcDbEntity
  8
1
  6
Continuous
 62
     2
100
AcDbLine
 10
-133.1999975146534
 20
280.2999996756695
 30
0.0
 11
-79.86666418131932
 21
280.2999996756695
 31
0.0
  0
LINE
  5
1B2
330
71
100
AcDbEntity
  8
1
  6
Continuous
 62
     2
100
AcDbLine
 10
76.80000248534449
 20
280.2999996756695
 30
0.0
 11
56.80000248534731
 21
280.2999996756695
 31
0.0
  0
LINE
  5
1B3
330
71
100
AcDbEntity
  8
1
  6
Continuous
 62
     2
100
AcDbLine
 10
76.80000248534449
 20
280.2999996756695
 30
0.0
 11
76.80000248534449
 21
284.2999996756695
 31
0.0
  0
LINE
  5
1B4
330
71
100
AcDbEntity
  8
1
  6
Continuous
 62
     2
100
AcDbLine
 10
76.80000248534449
 20
280.2999996756695
 30
0.0
 11
125.1333358186807
 21
280.2999996756695
 31
0.0
  0
LINE
  5
1B5
330
71
100
AcDbEntity
  8
1
  6
Continuous
 62
     2
100
AcDbLine
 10
125.1333358186807
 20
280.2999996756695
 30
0.0
 11
193.4666691520139
 21
280.2999996756695
 31
0.0
  0
LINE
  5
1B6
330
71
100
AcDbEntity
  8
1
  6
Continuous
 62
     2
100
AcDbLine
 10
266.8000024853448
 20
280.2999996756695
 30
0.0
 11
261.8000024853473
 21
280.2999996756695
 31
0.0
  0
LINE
  5
1B7
330
71
100
AcDbEntity
  8
1
  6
Continuous
 62
     2
100
AcDbLine
 10
266.8000024853448
 20
285.2999996756695
 30
0.0
 11
266.8000024853448
 21
280.2999996756695
 31
0.0
  0
LINE
  5
1B8
330
71
100
AcDbEntity
  8
1
  6
Continuous
 62
     2
100
AcDbLine
 10
266.8000024853448
 20
285.2999996756695
 30
0.0
 11
266.8000024853448
 21
342.6999996756696
 31
0.0
  0
LINE
  5
1B9
330
71
100
AcDbEntity
  8
1
  6
Continuous
 62
     2
100
AcDbLine
 10
266.8000024853448
 20
577.2999996756695
 30
0.0
 11
261.8000024853448
 21
577.2999996756695
 31
0.0
  0
LINE
  5
1BA
330
71
100
AcDbEntity
  8
1
  6
Continuous
 62
     6
100
AcDbLine
 10
261.8000024853448
 20
572.2999996756695
 30
0.0
 11
261.8000024853453
 21
514.8999996756694
 31
0.0
  0
LINE
  5
1BB
330
71
100
AcDbEntity
  8
1
  6
Continuous
 62
     2
100
AcDbLine
 10
266.8000024853448
 20
577.2999996756695
 30
0.0
 11
266.8000024853448
 21
572.2999996756695
 31
0.0
  0
LINE
  5
1BC
330
71
100
AcDbEntity
  8
1
  6
Continuous
 62
     2
100
AcDbLine
 10
261.8000024853448
 20
572.2999996756695
 30
0.0
 11
261.8000024853448
 21
577.2999996756695
 31
0.0
  0
LINE
  5
1BD
330
71
100
AcDbEntity
  8
1
  6
Continuous
 62
     2
100
AcDbLine
 10
261.8000024853448
 20
572.2999996756695
 30
0.0
 11
266.8000024853448
 21
572.2999996756695
 31
0.0
  0
LINE
  5
1BE
330
71
100
AcDbEntity
  8
1
  6
Continuous
 62
     2
100
AcDbLine
 10
266.8000024853448
 20
572.2999996756695
 30
0.0
 11
266.8000024853448
 21
514.8999996756694
 31
0.0
  0
LINE
  5
1BF
330
71
100
AcDbEntity
  8
1
  6
Continuous
 62
     2
100
AcDbLine
 10
261.8000024853453
 20
514.8999996756694
 30
0.0
 11
266.8000024853448
 21
514.8999996756694
 31
0.0
  0
LINE
  5
1C0
330
71
100
AcDbEntity
  8
1
  6
Continuous
 62
     6
100
AcDbLine
 10
261.8000024853453
 20
514.8999996756694
 30
0.0
 11
261.8000024853473
 21
457.4999996756695
 31
0.0
  0
LINE
  5
1C1
330
71
100
AcDbEntity
  8
1
  6
Continuous
 62
     2
100
AcDbLine
 10
266.8000024853448
 20
514.8999996756694
 30
0.0
 11
266.8000024853448
 21
457.4999996756695
 31
0.0
  0
LINE
  5
1C2
330
71
100
AcDbEntity
  8
1
  6
Continuous
 62
     2
100
AcDbLine
 10
261.8000024853473
 20
457.4999996756695
 30
0.0
 11
266.8000024853448
 21
457.4999996756695
 31
0.0
  0
LINE
  5
1C3
330
71
100
AcDbEntity
  8
1
  6
Continuous
 62
     6
100
AcDbLine
 10
261.8000024853473
 20
457.4999996756695
 30
0.0
 11
261.8000024853473
 21
400.0999996756697
 31
0.0
  0
LINE
  5
1C4
330
71
100
AcDbEntity
  8
1
  6
Continuous
 62
     2
100
AcDbLine
 10
266.8000024853448
 20
457.4999996756695
 30
0.0
 11
266.8000024853448
 21
400.0999996756697
 31
0.0
  0
LINE
  5
1C5
330
71
100
AcDbEntity
  8
1
  6
Continuous
 62
     2
100
AcDbLine
 10
261.8000024853473
 20
400.0999996756697
 30
0.0
 11
266.8000024853448
 21
400.0999996756697
 31
0.0
  0
LINE
  5
1C6
330
71
100
AcDbEntity
  8
1
  6
Continuous
 62
     6
100
AcDbLine
 10
261.8000024853473
 20
400.0999996756697
 30
0.0
 11
261.8000024853473
 21
342.6999996756696
 31
0.0
  0
LINE
  5
1C7
330
71
100
AcDbEntity
  8
1
  6
Continuous
 62
     6
100
AcDbLine
 10
-133.1999975146534
 20
572.2999996756697
 30
0.0
 11
-79.86666418131932
 21
572.2999996756697
 31
0.0
  0
LINE
  5
1C8
330
71
100
AcDbEntity
  8
1
  6
Continuous
 62
     2
100
AcDbLine
 10
261.8000024853448
 20
577.2999996756695
 30
0.0
 11
193.4666691520139
 21
577.2999996756695
 31
0.0
  0
LINE
  5
1C9
330
71
100
AcDbEntity
  8
1
  6
Continuous
 62
     2
100
AcDbLine
 10
193.4666691520139
 20
572.2999996756695
 30
0.0
 11
193.4666691520139
 21
577.2999996756695
 31
0.0
  0
LINE
  5
1CA
330
71
100
AcDbEntity
  8
1
  6
Continuous
 62
     6
100
AcDbLine
 10
193.4666691520139
 20
572.2999996756695
 30
0.0
 11
261.8000024853448
 21
572.2999996756695
 31
0.0
  0
LINE
  5
1CB
330
71
100
AcDbEntity
  8
1
  6
Continuous
 62
     2
100
AcDbLine
 10
193.4666691520139
 20
577.2999996756695
 30
0.0
 11
125.1333358186807
 21
577.2999996756695
 31
0.0
  0
LINE
  5
1CC
330
71
100
AcDbEntity
  8
1
  6
Continuous
 62
     2
100
AcDbLine
 10
125.1333358186807
 20
572.2999996756695
 30
0.0
 11
125.1333358186807
 21
577.2999996756695
 31
0.0
  0
LINE
  5
1CD
330
71
100
AcDbEntity
  8
1
  6
Continuous
 62
     6
100
AcDbLine
 10
125.1333358186807
 20
572.2999996756695
 30
0.0
 11
193.4666691520139
 21
572.2999996756695
 31
0.0
  0
LINE
  5
1CE
330
71
100
AcDbEntity
  8
1
  6
Continuous
 62
     2
100
AcDbLine
 10
125.1333358186807
 20
577.2999996756695
 30
0.0
 11
76.80000248534449
 21
577.2999996756695
 31
0.0
  0
LINE
  5
1CF
330
71
100
AcDbEntity
  8
1
  6
Continuous
 62
     2
100
AcDbLine
 10
56.80000248534731
 20
572.2999996756695
 30
0.0
 11
56.80000248534731
 21
577.2999996756695
 31
0.0
  0
LINE
  5
1D0
330
71
100
AcDbEntity
  8
1
  6
Continuous
 62
     6
100
AcDbLine
 10
56.80000248534731
 20
572.2999996756695
 30
0.0
 11
125.1333358186807
 21
572.2999996756695
 31
0.0
  0
LINE
  5
1D1
330
71
100
AcDbEntity
  8
1
  6
Continuous
 62
     2
100
AcDbLine
 10
56.80000248534731
 20
577.2999996756695
 30
0.0
 11
-11.53333084798578
 21
577.2999996756695
 31
0.0
  0
LINE
  5
1D2
330
71
100
AcDbEntity
  8
1
  6
Continuous
 62
     2
100
AcDbLine
 10
-11.53333084798578
 20
572.2999996756695
 30
0.0
 11
-11.53333084798578
 21
577.2999996756695
 31
0.0
  0
LINE
  5
1D3
330
71
100
AcDbEntity
  8
1
  6
Continuous
 62
     6
100
AcDbLine
 10
-11.53333084798578
 20
572.2999996756695
 30
0.0
 11
56.80000248534731
 21
572.2999996756695
 31
0.0
  0
LINE
  5
1D4
330
71
100
AcDbEntity
  8
1
  6
Continuous
 62
     2
100
AcDbLine
 10
-11.53333084798578
 20
577.2999996756695
 30
0.0
 11
-79.86666418131932
 21
577.2999996756695
 31
0.0
  0
LINE
  5
1D5
330
71
100
AcDbEntity
  8
1
  6
Continuous
 62
     2
100
AcDbLine
 10
-79.86666418131932
 20
572.2999996756697
 30
0.0
 11
-79.86666418131932
 21
577.2999996756695
 31
0.0
  0
LINE
  5
1D6
330
71
100
AcDbEntity
  8
1
  6
Continuous
 62
     6
100
AcDbLine
 10
-79.86666418131932
 20
572.2999996756697
 30
0.0
 11
-11.53333084798578
 21
572.2999996756695
 31
0.0
  0
LINE
  5
1D7
330
71
100
AcDbEntity
  8
1
  6
Continuous
 62
     2
100
AcDbLine
 10
-79.86666418131932
 20
577.2999996756695
 30
0.0
 11
-133.1999975146534
 21
577.2999996756695
 31
0.0
  0
LINE
  5
1D8
330
71
100
AcDbEntity
  8
1
  6
Continuous
 62
     2
100
AcDbLine
 10
-133.1999975146534
 20
577.2999996756695
 30
0.0
 11
-133.1999975146534
 21
573.2999996756697
 31
0.0
  0
LINE
  5
1D9
330
71
100
AcDbEntity
  8
1
  6
Continuous
 62
     2
100
AcDbLine
 10
-133.1999975146534
 20
577.2999996756695
 30
0.0
 11
-153.1999975146535
 21
577.2999996756695
 31
0.0
  0
LINE
  5
1DA
330
71
100
AcDbEntity
  8
1
  6
Continuous
 62
     2
100
AcDbLine
 10
76.80000248534449
 20
577.2999996756695
 30
0.0
 11
76.80000248534449
 21
573.2999996756697
 31
0.0
  0
LINE
  5
1DB
330
71
100
AcDbEntity
  8
1
  6
Continuous
 62
     2
100
AcDbLine
 10
76.80000248534449
 20
577.2999996756695
 30
0.0
 11
56.80000248534731
 21
577.2999996756695
 31
0.0
  0
LINE
  5
1DC
330
71
100
AcDbEntity
  8
1
  6
Continuous
 62
     2
100
AcDbLine
 10
-153.1999975146535
 20
577.2999996756695
 30
0.0
 11
-153.1999975146535
 21
428.7999996756695
 31
0.0
  0
LINE
  5
1DD
330
71
100
AcDbEntity
  8
1
  6
Continuous
 62
     2
100
AcDbLine
 10
-153.1999975146535
 20
428.7999996756695
 30
0.0
 11
-143.1999975146534
 21
428.7999996756695
 31
0.0
  0
LINE
  5
1DE
330
71
100
AcDbEntity
  8
1
  6
Continuous
 62
     2
100
AcDbLine
 10
-153.1999975146535
 20
428.7999996756695
 30
0.0
 11
-153.1999975146535
 21
280.2999996756695
 31
0.0
  0
LINE
  5
1DF
330
71
100
AcDbEntity
  8
1
  6
Continuous
 62
     6
100
AcDbLine
 10
-133.1999975146524
 20
285.2999996756695
 30
0.0
 11
-133.1999975146534
 21
572.2999996756697
 31
0.0
  0
LINE
  5
1E0
330
71
100
AcDbEntity
  8
1
  6
Continuous
 62
     6
100
AcDbLine
 10
261.8000024853473
 20
285.299999675669
 30
0.0
 11
261.8000024853469
 21
293.7999996756689
 31
0.0
  0
LINE
  5
1E1
330
71
100
AcDbEntity
  8
1
  6
Continuous
 62
     6
100
AcDbLine
 10
-11.53333084798578
 20
285.2999996756695
 30
0.0
 11
132.2551979585974
 21
285.2999996756664
 31
0.0
  0
LINE
  5
1E2
330
71
100
AcDbEntity
  8
1
  6
Continuous
 62
     2
100
AcDbLine
 10
125.1333358186807
 20
285.2999996756666
 30
0.0
 11
125.1333358186807
 21
285.2999996756695
 31
0.0
  0
LINE
  5
1E3
330
71
100
AcDbEntity
  8
1
  6
Continuous
 62
     6
100
AcDbLine
 10
261.8000024853491
 20
302.2999996756689
 30
0.0
 11
261.8000024853491
 21
310.7999996756689
 31
0.0
  0
LINE
  5
1E4
330
71
100
AcDbEntity
  8
1
  6
Continuous
 62
     7
100
AcDbLine
 10
196.5551979585973
 20
293.7999996756689
 30
0.0
 11
196.5551979585973
 21
302.2999996756689
 31
0.0
  0
LINE
  5
1E5
330
71
100
AcDbEntity
  8
1
  6
Continuous
 62
     6
100
AcDbLine
 10
168.6551979585973
 20
302.2999996756689
 30
0.0
 11
261.8000024853491
 21
302.2999996756689
 31
0.0
  0
LINE
  5
1E6
330
71
100
AcDbEntity
  8
1
  6
Continuous
 62
     7
100
AcDbLine
 10
132.2551979585974
 20
302.2999996756689
 30
0.0
 11
132.2551979585974
 21
310.7999996756689
 31
0.0
  0
LINE
  5
1E7
330
71
100
AcDbEntity
  8
1
  6
Continuous
 62
     7
100
AcDbLine
 10
168.6551979585973
 20
302.2999996756689
 30
0.0
 11
168.6551979585973
 21
310.7999996756689
 31
0.0
  0
LINE
  5
1E8
330
71
100
AcDbEntity
  8
1
  6
Continuous
 62
     7
100
AcDbLine
 10
226.3815942036703
 20
310.7999996756689
 30
0.0
 11
226.3815942036703
 21
302.2999996756689
 31
0.0
  0
LINE
  5
1E9
330
71
100
AcDbEntity
  8
1
  6
Continuous
 62
     7
100
AcDbLine
 10
252.8815942036699
 20
310.7999996756689
 30
0.0
 11
252.8815942036699
 21
302.2999996756689
 31
0.0
  0
LINE
  5
1EA
330
71
100
AcDbEntity
  8
1
  6
Continuous
 62
     7
100
AcDbLine
 10
261.8000024853486
 20
293.7999996756689
 30
0.0
 11
168.6551979585973
 21
293.7999996756689
 31
0.0
  0
LINE
  5
1EB
102
{ACAD_REACTORS
330
2D0
330
2D1
102
}
330
71
100
AcDbEntity
  8
0
  6
Continuous
 62
     2
100
AcDbLine
 10
145.9626269003648
 20
294.6002887913322
 30
0.0
 11
145.9626269003648
 21
295.4728057981355
 31
0.0
  0
LINE
  5
1EC
102
{ACAD_REACTORS
330
2D0
330
2D1
102
}
330
71
100
AcDbEntity
  8
0
  6
Continuous
 62
     2
100
AcDbLine
 10
145.9626269003648
 20
293.6405200838494
 30
0.0
 11
145.9626269003648
 21
292.7680030770461
 31
0.0
  0
LINE
  5
1ED
102
{ACAD_REACTORS
330
2D2
330
2D3
102
}
330
71
100
AcDbEntity
  8
0
  6
Continuous
 62
     2
100
AcDbLine
 10
161.2956710366552
 20
294.8620438933727
 30
0.0
 11
162.3993103362233
 21
294.8620438933727
 31
0.0
  0
LINE
  5
1EE
102
{ACAD_REACTORS
330
2D2
330
2D3
102
}
330
71
100
AcDbEntity
  8
0
  6
Continuous
 62
     2
100
AcDbLine
 10
162.0653283796166
 20
293.6405200838489
 30
0.0
 11
162.0653283796166
 21
292.7680030770456
 31
0.0
  0
LINE
  5
1EF
102
{ACAD_REACTORS
330
2DC
330
2DD
102
}
330
71
100
AcDbEntity
  8
0
  6
Continuous
 62
     2
100
AcDbLine
 10
160.2045717642368
 20
295.9526901518596
 30
0.0
 11
161.6025248111771
 21
297.5335491456345
 31
0.0
  0
LINE
  5
1F0
102
{ACAD_REACTORS
330
2DC
330
2DD
102
}
330
71
100
AcDbEntity
  8
0
  6
Continuous
 62
     2
100
AcDbLine
 10
160.2999951804096
 20
299.0064996756707
 30
0.0
 11
161.6025248111771
 21
297.5335491456345
 31
0.0
  0
LINE
  5
1F1
102
{ACAD_REACTORS
330
2DC
330
2DD
102
}
330
71
100
AcDbEntity
  8
0
  6
Continuous
 62
     2
100
AcDbLine
 10
162.9050544419435
 20
299.0064996756707
 30
0.0
 11
164.3077786596907
 21
299.0064996756707
 31
0.0
  0
LINE
  5
1F2
102
{ACAD_REACTORS
330
2DC
330
2DD
102
}
330
71
100
AcDbEntity
  8
0
  6
Continuous
 62
     2
100
AcDbLine
 10
161.6072959819849
 20
295.9526901518596
 30
0.0
 11
162.3038869200507
 21
296.7404219371533
 31
0.0
  0
LINE
  5
1F3
102
{ACAD_REACTORS
330
2DC
330
2DD
102
}
330
71
100
AcDbEntity
  8
0
  6
Continuous
 62
     2
100
AcDbLine
 10
161.6072959819849
 20
295.9526901518596
 30
0.0
 11
160.2045717642368
 21
295.9526901518596
 31
0.0
  0
LINE
  5
1F4
102
{ACAD_REACTORS
330
2DE
330
2DF
102
}
330
71
100
AcDbEntity
  8
0
  6
Continuous
 62
     2
100
AcDbLine
 10
160.0852924940199
 20
295.9526901518596
 30
0.0
 11
158.844788083767
 21
295.9526901518596
 31
0.0
  0
LINE
  5
1F5
102
{ACAD_REACTORS
330
2E0
330
2E1
102
}
330
71
100
AcDbEntity
  8
0
  6
Continuous
 62
     2
100
AcDbLine
 10
157.9768084756119
 20
293.8150234852097
 30
0.0
 11
157.6766432384217
 21
294.5828384511964
 31
0.0
  0
LINE
  5
1F6
102
{ACAD_REACTORS
330
2E0
330
2E1
102
}
330
71
100
AcDbEntity
  8
0
  6
Continuous
 62
     2
100
AcDbLine
 10
157.3764780012294
 20
293.8150234852097
 30
0.0
 11
157.9768084756119
 21
293.8150234852097
 31
0.0
  0
LINE
  5
1F7
102
{ACAD_REACTORS
330
2E0
330
2E1
102
}
330
71
100
AcDbEntity
  8
0
  6
Continuous
 62
     2
100
AcDbLine
 10
155.6584379863556
 20
292.5934996756853
 30
0.0
 11
156.8989423966085
 21
292.5934996756853
 31
0.0
  0
LINE
  5
1F8
102
{ACAD_REACTORS
330
2E0
330
2E1
102
}
330
71
100
AcDbEntity
  8
0
  6
Continuous
 62
     2
100
AcDbLine
 10
157.0563910332948
 20
295.6473091994964
 30
0.0
 11
158.2968954435476
 21
295.6473091994964
 31
0.0
  0
LINE
  5
1F9
102
{ACAD_REACTORS
330
2E0
330
2E1
102
}
330
71
100
AcDbEntity
  8
0
  6
Continuous
 62
     2
100
AcDbLine
 10
158.2968954435476
 20
295.6473091994964
 30
0.0
 11
159.6948484904879
 21
292.5934996756853
 31
0.0
  0
LINE
  5
1FA
102
{ACAD_REACTORS
330
2E0
330
2E1
102
}
330
71
100
AcDbEntity
  8
0
  6
Continuous
 62
     2
100
AcDbLine
 10
158.454344080234
 20
292.5934996756853
 30
0.0
 11
158.2428640267582
 21
293.1344602199031
 31
0.0
  0
LINE
  5
1FB
102
{ACAD_REACTORS
330
2E2
330
2E3
102
}
330
71
100
AcDbEntity
  8
0
  6
Continuous
 62
     2
100
AcDbLine
 10
154.312024884648
 20
292.5934996756853
 30
0.0
 11
155.5048175868144
 21
292.5934996756853
 31
0.0
  0
LINE
  5
1FC
102
{ACAD_REACTORS
330
2E2
330
2E3
102
}
330
71
100
AcDbEntity
  8
0
  6
Continuous
 62
     2
100
AcDbLine
 10
154.312024884648
 20
294.8620438933727
 30
0.0
 11
154.312024884648
 21
292.5934996756853
 31
0.0
  0
LINE
  5
1FD
102
{ACAD_REACTORS
330
2E2
330
2E3
102
}
330
71
100
AcDbEntity
  8
0
  6
Continuous
 62
     2
100
AcDbLine
 10
153.5009258471733
 20
295.6473091994964
 30
0.0
 11
153.5009258471733
 21
294.8620438933727
 31
0.0
  0
LINE
  5
1FE
102
{ACAD_REACTORS
330
2E4
330
2E5
102
}
330
71
100
AcDbEntity
  8
0
  6
Continuous
 62
     2
100
AcDbLine
 10
154.980139728746
 20
295.9526901518596
 30
0.0
 11
156.1729324309124
 21
295.9526901518596
 31
0.0
  0
LINE
  5
1FF
102
{ACAD_REACTORS
330
2E4
330
2E5
102
}
330
71
100
AcDbEntity
  8
0
  6
Continuous
 62
     2
100
AcDbLine
 10
157.4134368411665
 20
297.6977241654656
 30
0.0
 11
156.1729324309124
 21
299.0064996756707
 31
0.0
  0
LINE
  5
200
102
{ACAD_REACTORS
330
2E4
330
2E5
102
}
330
71
100
AcDbEntity
  8
0
  6
Continuous
 62
     2
100
AcDbLine
 10
158.6062295433331
 20
299.0064996756707
 30
0.0
 11
157.4134368411665
 21
299.0064996756707
 31
0.0
  0
LINE
  5
201
102
{ACAD_REACTORS
330
2E4
330
2E5
102
}
330
71
100
AcDbEntity
  8
0
  6
Continuous
 62
     2
100
AcDbLine
 10
158.6062295433331
 20
295.9526901518596
 30
0.0
 11
158.6062295433331
 21
299.0064996756707
 31
0.0
  0
LINE
  5
202
102
{ACAD_REACTORS
330
2E4
330
2E5
102
}
330
71
100
AcDbEntity
  8
0
  6
Continuous
 62
     2
100
AcDbLine
 10
157.4134368411665
 20
295.9526901518596
 30
0.0
 11
158.6062295433331
 21
295.9526901518596
 31
0.0
  0
LINE
  5
203
102
{ACAD_REACTORS
330
2E4
330
2E5
102
}
330
71
100
AcDbEntity
  8
0
  6
Continuous
 62
     2
100
AcDbLine
 10
156.1729324309124
 20
297.2614656620643
 30
0.0
 11
157.4134368411665
 21
295.9526901518596
 31
0.0
  0
LINE
  5
204
102
{ACAD_REACTORS
330
2E6
330
2E7
102
}
330
71
100
AcDbEntity
  8
0
  6
Continuous
 62
     2
100
AcDbLine
 10
152.1649980207468
 20
294.3385336892912
 30
0.0
 11
150.9244936104938
 21
295.6473091994964
 31
0.0
  0
LINE
  5
205
102
{ACAD_REACTORS
330
2E6
330
2E7
102
}
330
71
100
AcDbEntity
  8
0
  6
Continuous
 62
     2
100
AcDbLine
 10
152.1649980207468
 20
295.6473091994964
 30
0.0
 11
152.1649980207468
 21
294.3385336892912
 31
0.0
  0
LINE
  5
206
102
{ACAD_REACTORS
330
2E6
330
2E7
102
}
330
71
100
AcDbEntity
  8
0
  6
Continuous
 62
     2
100
AcDbLine
 10
153.3577907229132
 20
295.6473091994964
 30
0.0
 11
152.1649980207468
 21
295.6473091994964
 31
0.0
  0
LINE
  5
207
102
{ACAD_REACTORS
330
2E6
330
2E7
102
}
330
71
100
AcDbEntity
  8
0
  6
Continuous
 62
     2
100
AcDbLine
 10
153.3577907229132
 20
292.5934996756853
 30
0.0
 11
153.3577907229132
 21
295.6473091994964
 31
0.0
  0
LINE
  5
208
102
{ACAD_REACTORS
330
2E6
330
2E7
102
}
330
71
100
AcDbEntity
  8
0
  6
Continuous
 62
     2
100
AcDbLine
 10
150.9244936104938
 20
293.9022751858898
 30
0.0
 11
152.1649980207468
 21
292.5934996756853
 31
0.0
  0
LINE
  5
209
102
{ACAD_REACTORS
330
2E6
330
2E7
102
}
330
71
100
AcDbEntity
  8
0
  6
Continuous
 62
     2
100
AcDbLine
 10
150.9244936104938
 20
292.5934996756853
 30
0.0
 11
150.9244936104938
 21
293.9022751858898
 31
0.0
  0
LINE
  5
20A
102
{ACAD_REACTORS
330
2D6
330
2D7
102
}
330
71
100
AcDbEntity
  8
0
  6
Continuous
 62
     2
100
AcDbLine
 10
153.4056533618854
 20
298.3084860702278
 30
0.0
 11
154.741581188313
 21
298.3084860702278
 31
0.0
  0
LINE
  5
20B
102
{ACAD_REACTORS
330
2D6
330
2D7
102
}
330
71
100
AcDbEntity
  8
0
  6
Continuous
 62
     2
100
AcDbLine
 10
153.4056533618854
 20
296.650703757302
 30
0.0
 11
153.4056533618854
 21
297.1305881110437
 31
0.0
  0
LINE
  5
20C
102
{ACAD_REACTORS
330
2D6
330
2D7
102
}
330
71
100
AcDbEntity
  8
0
  6
Continuous
 62
     2
100
AcDbLine
 10
154.741581188313
 20
296.650703757302
 30
0.0
 11
153.4056533618854
 21
296.650703757302
 31
0.0
  0
LINE
  5
20D
102
{ACAD_REACTORS
330
2D6
330
2D7
102
}
330
71
100
AcDbEntity
  8
0
  6
Continuous
 62
     2
100
AcDbLine
 10
154.741581188313
 20
295.9526901518596
 30
0.0
 11
154.741581188313
 21
296.650703757302
 31
0.0
  0
LINE
  5
20E
102
{ACAD_REACTORS
330
2D6
330
2D7
102
}
330
71
100
AcDbEntity
  8
0
  6
Continuous
 62
     2
100
AcDbLine
 10
151.5912614645321
 20
295.9526901518596
 30
0.0
 11
154.741581188313
 21
295.9526901518596
 31
0.0
  0
LINE
  5
20F
102
{ACAD_REACTORS
330
2D6
330
2D7
102
}
330
71
100
AcDbEntity
  8
0
  6
Continuous
 62
     2
100
AcDbLine
 10
151.5912614645321
 20
299.0064996756707
 30
0.0
 11
154.741581188313
 21
299.0064996756707
 31
0.0
  0
LINE
  5
210
102
{ACAD_REACTORS
330
2D6
330
2D7
102
}
330
71
100
AcDbEntity
  8
0
  6
Continuous
 62
     2
100
AcDbLine
 10
154.741581188313
 20
298.3084860702278
 30
0.0
 11
154.741581188313
 21
299.0064996756707
 31
0.0
  0
LINE
  5
211
102
{ACAD_REACTORS
330
2E8
330
2E9
102
}
330
71
100
AcDbEntity
  8
0
  6
Continuous
 62
     2
100
AcDbLine
 10
148.729905969392
 20
297.9376663423361
 30
0.0
 11
148.729905969392
 21
299.0064996756707
 31
0.0
  0
LINE
  5
212
102
{ACAD_REACTORS
330
2E8
330
2E9
102
}
330
71
100
AcDbEntity
  8
0
  6
Continuous
 62
     2
100
AcDbLine
 10
148.729905969392
 20
299.0064996756707
 30
0.0
 11
149.9226986715585
 21
299.0064996756707
 31
0.0
  0
LINE
  5
213
102
{ACAD_REACTORS
330
2E8
330
2E9
102
}
330
71
100
AcDbEntity
  8
0
  6
Continuous
 62
     2
100
AcDbLine
 10
148.729905969392
 20
297.0869622607033
 30
0.0
 11
147.6802483914846
 21
297.0869622607033
 31
0.0
  0
LINE
  5
214
102
{ACAD_REACTORS
330
2E8
330
2E9
102
}
330
71
100
AcDbEntity
  8
0
  6
Continuous
 62
     2
100
AcDbLine
 10
147.6802483914846
 20
297.0869622607033
 30
0.0
 11
147.6802483914846
 21
295.9526901518596
 31
0.0
  0
LINE
  5
215
102
{ACAD_REACTORS
330
2E8
330
2E9
102
}
330
71
100
AcDbEntity
  8
0
  6
Continuous
 62
     2
100
AcDbLine
 10
146.487455689318
 20
299.0064996756707
 30
0.0
 11
146.487455689318
 21
295.9526901518596
 31
0.0
  0
LINE
  5
216
102
{ACAD_REACTORS
330
2DA
330
2DB
102
}
330
71
100
AcDbEntity
  8
0
  6
Continuous
 62
     2
100
AcDbLine
 10
144.5312756577643
 20
297.6376661808884
 30
0.0
 11
144.5312756577643
 21
298.3433938302307
 31
0.0
  0
LINE
  5
217
102
{ACAD_REACTORS
330
2DA
330
2DB
102
}
330
71
100
AcDbEntity
  8
0
  6
Continuous
 62
     2
100
AcDbLine
 10
143.2907712475103
 20
295.9526901518596
 30
0.0
 11
144.5312756577643
 21
295.9526901518596
 31
0.0
  0
LINE
  5
218
102
{ACAD_REACTORS
330
2DA
330
2DB
102
}
330
71
100
AcDbEntity
  8
0
  6
Continuous
 62
     2
100
AcDbLine
 10
144.5312756577643
 20
295.9526901518596
 30
0.0
 11
144.5312756577643
 21
296.8957683930033
 31
0.0
  0
LINE
  5
219
102
{ACAD_REACTORS
330
2D4
330
2D5
102
}
330
71
100
AcDbEntity
  8
0
  6
Continuous
 62
     2
100
AcDbLine
 10
138.9858253982988
 20
293.3060552312422
 30
0.0
 11
137.5099921372892
 21
293.3060552312422
 31
0.0
  0
LINE
  5
21A
102
{ACAD_REACTORS
330
2D4
330
2D5
102
}
330
71
100
AcDbEntity
  8
0
  6
Continuous
 62
     2
100
AcDbLine
 10
136.4918528451599
 20
298.5822550602687
 30
0.0
 11
136.4918528451599
 21
293.0177442910685
 31
0.0
  0
LINE
  5
21B
102
{ACAD_REACTORS
330
2D4
330
2D5
102
}
330
71
100
AcDbEntity
  8
0
  6
Continuous
 62
     2
100
AcDbLine
 10
136.9160974605427
 20
299.0064996756526
 30
0.0
 11
142.3894095512596
 21
299.0064996756526
 31
0.0
  0
LINE
  5
21C
102
{ACAD_REACTORS
330
2D4
330
2D5
102
}
330
71
100
AcDbEntity
  8
0
  6
Continuous
 62
     2
100
AcDbLine
 10
142.8136541666435
 20
298.5822550602687
 30
0.0
 11
142.8136541666435
 21
293.0177442910685
 31
0.0
  0
LINE
  5
21D
102
{ACAD_REACTORS
330
2D4
330
2D5
102
}
330
71
100
AcDbEntity
  8
0
  6
Continuous
 62
     2
100
AcDbLine
 10
142.3894095512596
 20
292.5934996756853
 30
0.0
 11
136.9160974605427
 21
292.5934996756853
 31
0.0
  0
LINE
  5
21E
102
{ACAD_REACTORS
330
2D4
330
2D5
102
}
330
71
100
AcDbEntity
  8
0
  6
Continuous
 62
     2
100
AcDbLine
 10
139.3015423213754
 20
293.6217721543189
 30
0.0
 11
139.3015423213754
 21
295.1525430858505
 31
0.0
  0
LINE
  5
21F
102
{ACAD_REACTORS
330
2D4
330
2D5
102
}
330
71
100
AcDbEntity
  8
0
  6
Continuous
 62
     2
100
AcDbLine
 10
139.3015423213754
 20
297.3742025779754
 30
0.0
 11
139.3015423213754
 21
297.978227197036
 31
0.0
  0
LINE
  5
220
102
{ACAD_REACTORS
330
2D4
330
2D5
102
}
330
71
100
AcDbEntity
  8
0
  6
Continuous
 62
     2
100
AcDbLine
 10
137.5099921372892
 20
298.2939441201121
 30
0.0
 11
138.9858253982988
 21
298.2939441201121
 31
0.0
  0
LINE
  5
221
102
{ACAD_REACTORS
330
2D4
330
2D5
102
}
330
71
100
AcDbEntity
  8
0
  6
Continuous
 62
     2
100
AcDbLine
 10
137.1942752142136
 20
297.978227197036
 30
0.0
 11
137.1942752142136
 21
293.6217721543189
 31
0.0
  0
LINE
  5
222
102
{ACAD_REACTORS
330
2DA
330
2DB
102
}
330
71
100
AcDbEntity
  8
0
  6
Continuous
 62
     2
100
AcDbLine
 10
144.5312756577643
 20
296.8957683930033
 30
0.0
 11
145.2900432455447
 21
296.8957683930033
 31
0.0
  0
LINE
  5
223
102
{ACAD_REACTORS
330
2DA
330
2DB
102
}
330
71
100
AcDbEntity
  8
0
  6
Continuous
 62
     2
100
AcDbLine
 10
143.2907712475103
 20
299.0064996756707
 30
0.0
 11
145.2900432455447
 21
299.0064996756707
 31
0.0
  0
LINE
  5
224
102
{ACAD_REACTORS
330
2DA
330
2DB
102
}
330
71
100
AcDbEntity
  8
0
  6
Continuous
 62
     2
100
AcDbLine
 10
143.2907712475103
 20
299.0064996756707
 30
0.0
 11
143.2907712475103
 21
295.9526901518596
 31
0.0
  0
LINE
  5
225
102
{ACAD_REACTORS
330
2DA
330
2DB
102
}
330
71
100
AcDbEntity
  8
0
  6
Continuous
 62
     2
100
AcDbLine
 10
144.5312756577643
 20
297.6376661808884
 30
0.0
 11
144.8485707193063
 21
297.6376661808884
 31
0.0
  0
LINE
  5
226
102
{ACAD_REACTORS
330
2DA
330
2DB
102
}
330
71
100
AcDbEntity
  8
0
  6
Continuous
 62
     2
100
AcDbLine
 10
144.5312756577643
 20
298.3433938302307
 30
0.0
 11
144.8485707193063
 21
298.3433938302307
 31
0.0
  0
LINE
  5
227
102
{ACAD_REACTORS
330
2E8
330
2E9
102
}
330
71
100
AcDbEntity
  8
0
  6
Continuous
 62
     2
100
AcDbLine
 10
147.6802483914846
 20
297.9376663423361
 30
0.0
 11
148.729905969392
 21
297.9376663423361
 31
0.0
  0
LINE
  5
228
102
{ACAD_REACTORS
330
2E8
330
2E9
102
}
330
71
100
AcDbEntity
  8
0
  6
Continuous
 62
     2
100
AcDbLine
 10
147.6802483914846
 20
299.0064996756707
 30
0.0
 11
147.6802483914846
 21
297.9376663423361
 31
0.0
  0
LINE
  5
229
102
{ACAD_REACTORS
330
2E8
330
2E9
102
}
330
71
100
AcDbEntity
  8
0
  6
Continuous
 62
     2
100
AcDbLine
 10
146.487455689318
 20
299.0064996756707
 30
0.0
 11
147.6802483914846
 21
299.0064996756707
 31
0.0
  0
LINE
  5
22A
102
{ACAD_REACTORS
330
2E8
330
2E9
102
}
330
71
100
AcDbEntity
  8
0
  6
Continuous
 62
     2
100
AcDbLine
 10
147.6802483914846
 20
295.9526901518596
 30
0.0
 11
146.487455689318
 21
295.9526901518596
 31
0.0
  0
LINE
  5
22B
102
{ACAD_REACTORS
330
2E8
330
2E9
102
}
330
71
100
AcDbEntity
  8
0
  6
Continuous
 62
     2
100
AcDbLine
 10
148.729905969392
 20
295.9526901518596
 30
0.0
 11
148.729905969392
 21
297.0869622607033
 31
0.0
  0
LINE
  5
22C
102
{ACAD_REACTORS
330
2E8
330
2E9
102
}
330
71
100
AcDbEntity
  8
0
  6
Continuous
 62
     2
100
AcDbLine
 10
149.9226986715585
 20
295.9526901518596
 30
0.0
 11
148.729905969392
 21
295.9526901518596
 31
0.0
  0
LINE
  5
22D
102
{ACAD_REACTORS
330
2E8
330
2E9
102
}
330
71
100
AcDbEntity
  8
0
  6
Continuous
 62
     2
100
AcDbLine
 10
149.9226986715585
 20
299.0064996756707
 30
0.0
 11
149.9226986715585
 21
295.9526901518596
 31
0.0
  0
LINE
  5
22E
102
{ACAD_REACTORS
330
2D6
330
2D7
102
}
330
71
100
AcDbEntity
  8
0
  6
Continuous
 62
     2
100
AcDbLine
 10
153.4056533618854
 20
297.1305881110437
 30
0.0
 11
154.741581188313
 21
297.1305881110437
 31
0.0
  0
LINE
  5
22F
102
{ACAD_REACTORS
330
2D6
330
2D7
102
}
330
71
100
AcDbEntity
  8
0
  6
Continuous
 62
     2
100
AcDbLine
 10
154.741581188313
 20
297.1305881110437
 30
0.0
 11
154.741581188313
 21
297.8286017164861
 31
0.0
  0
LINE
  5
230
102
{ACAD_REACTORS
330
2D6
330
2D7
102
}
330
71
100
AcDbEntity
  8
0
  6
Continuous
 62
     2
100
AcDbLine
 10
154.741581188313
 20
297.8286017164861
 30
0.0
 11
153.4056533618854
 21
297.8286017164861
 31
0.0
  0
LINE
  5
231
102
{ACAD_REACTORS
330
2D6
330
2D7
102
}
330
71
100
AcDbEntity
  8
0
  6
Continuous
 62
     2
100
AcDbLine
 10
153.4056533618854
 20
297.8286017164861
 30
0.0
 11
153.4056533618854
 21
298.3084860702278
 31
0.0
  0
LINE
  5
232
102
{ACAD_REACTORS
330
2E6
330
2E7
102
}
330
71
100
AcDbEntity
  8
0
  6
Continuous
 62
     2
100
AcDbLine
 10
149.7317009083263
 20
292.5934996756853
 30
0.0
 11
150.9244936104938
 21
292.5934996756853
 31
0.0
  0
LINE
  5
233
102
{ACAD_REACTORS
330
2E6
330
2E7
102
}
330
71
100
AcDbEntity
  8
0
  6
Continuous
 62
     2
100
AcDbLine
 10
152.1649980207468
 20
292.5934996756853
 30
0.0
 11
153.3577907229132
 21
292.5934996756853
 31
0.0
  0
LINE
  5
234
102
{ACAD_REACTORS
330
2E6
330
2E7
102
}
330
71
100
AcDbEntity
  8
0
  6
Continuous
 62
     2
100
AcDbLine
 10
150.9244936104938
 20
295.6473091994964
 30
0.0
 11
149.7317009083263
 21
295.6473091994964
 31
0.0
  0
LINE
  5
235
102
{ACAD_REACTORS
330
2E6
330
2E7
102
}
330
71
100
AcDbEntity
  8
0
  6
Continuous
 62
     2
100
AcDbLine
 10
149.7317009083263
 20
295.6473091994964
 30
0.0
 11
149.7317009083263
 21
292.5934996756853
 31
0.0
  0
LINE
  5
236
102
{ACAD_REACTORS
330
2E4
330
2E5
102
}
330
71
100
AcDbEntity
  8
0
  6
Continuous
 62
     2
100
AcDbLine
 10
157.4134368411665
 20
299.0064996756707
 30
0.0
 11
157.4134368411665
 21
297.6977241654656
 31
0.0
  0
LINE
  5
237
102
{ACAD_REACTORS
330
2E4
330
2E5
102
}
330
71
100
AcDbEntity
  8
0
  6
Continuous
 62
     2
100
AcDbLine
 10
156.1729324309124
 20
299.0064996756707
 30
0.0
 11
154.980139728746
 21
299.0064996756707
 31
0.0
  0
LINE
  5
238
102
{ACAD_REACTORS
330
2E4
330
2E5
102
}
330
71
100
AcDbEntity
  8
0
  6
Continuous
 62
     2
100
AcDbLine
 10
154.980139728746
 20
299.0064996756707
 30
0.0
 11
154.980139728746
 21
295.9526901518596
 31
0.0
  0
LINE
  5
239
102
{ACAD_REACTORS
330
2E4
330
2E5
102
}
330
71
100
AcDbEntity
  8
0
  6
Continuous
 62
     2
100
AcDbLine
 10
156.1729324309124
 20
295.9526901518596
 30
0.0
 11
156.1729324309124
 21
297.2614656620643
 31
0.0
  0
LINE
  5
23A
102
{ACAD_REACTORS
330
2E2
330
2E3
102
}
330
71
100
AcDbEntity
  8
0
  6
Continuous
 62
     2
100
AcDbLine
 10
155.5048175868144
 20
292.5934996756853
 30
0.0
 11
155.5048175868144
 21
294.8620438933727
 31
0.0
  0
LINE
  5
23B
102
{ACAD_REACTORS
330
2E2
330
2E3
102
}
330
71
100
AcDbEntity
  8
0
  6
Continuous
 62
     2
100
AcDbLine
 10
155.5048175868144
 20
294.8620438933727
 30
0.0
 11
156.315916624287
 21
294.8620438933727
 31
0.0
  0
LINE
  5
23C
102
{ACAD_REACTORS
330
2E2
330
2E3
102
}
330
71
100
AcDbEntity
  8
0
  6
Continuous
 62
     2
100
AcDbLine
 10
156.315916624287
 20
294.8620438933727
 30
0.0
 11
156.315916624287
 21
295.6473091994964
 31
0.0
  0
LINE
  5
23D
102
{ACAD_REACTORS
330
2E2
330
2E3
102
}
330
71
100
AcDbEntity
  8
0
  6
Continuous
 62
     2
100
AcDbLine
 10
156.315916624287
 20
295.6473091994964
 30
0.0
 11
153.5009258471733
 21
295.6473091994964
 31
0.0
  0
LINE
  5
23E
102
{ACAD_REACTORS
330
2E2
330
2E3
102
}
330
71
100
AcDbEntity
  8
0
  6
Continuous
 62
     2
100
AcDbLine
 10
153.5009258471733
 20
294.8620438933727
 30
0.0
 11
154.312024884648
 21
294.8620438933727
 31
0.0
  0
LINE
  5
23F
102
{ACAD_REACTORS
330
2E0
330
2E1
102
}
330
71
100
AcDbEntity
  8
0
  6
Continuous
 62
     2
100
AcDbLine
 10
157.1104224500843
 20
293.1344602199031
 30
0.0
 11
158.2428640267582
 21
293.1344602199031
 31
0.0
  0
LINE
  5
240
102
{ACAD_REACTORS
330
2E0
330
2E1
102
}
330
71
100
AcDbEntity
  8
0
  6
Continuous
 62
     2
100
AcDbLine
 10
159.6948484904879
 20
292.5934996756853
 30
0.0
 11
158.454344080234
 21
292.5934996756853
 31
0.0
  0
LINE
  5
241
102
{ACAD_REACTORS
330
2E0
330
2E1
102
}
330
71
100
AcDbEntity
  8
0
  6
Continuous
 62
     2
100
AcDbLine
 10
157.0563910332948
 20
295.6473091994964
 30
0.0
 11
155.6584379863556
 21
292.5934996756853
 31
0.0
  0
LINE
  5
242
102
{ACAD_REACTORS
330
2E0
330
2E1
102
}
330
71
100
AcDbEntity
  8
0
  6
Continuous
 62
     2
100
AcDbLine
 10
156.8989423966085
 20
292.5934996756853
 30
0.0
 11
157.1104224500843
 21
293.1344602199031
 31
0.0
  0
LINE
  5
243
102
{ACAD_REACTORS
330
2E0
330
2E1
102
}
330
71
100
AcDbEntity
  8
0
  6
Continuous
 62
     2
100
AcDbLine
 10
157.3764780012294
 20
293.8150234852097
 30
0.0
 11
157.6766432384217
 21
294.5828384511964
 31
0.0
  0
LINE
  5
244
102
{ACAD_REACTORS
330
2DE
330
2DF
102
}
330
71
100
AcDbEntity
  8
0
  6
Continuous
 62
     2
100
AcDbLine
 10
158.844788083767
 20
295.9526901518596
 30
0.0
 11
158.844788083767
 21
299.0064996756707
 31
0.0
  0
LINE
  5
245
102
{ACAD_REACTORS
330
2DE
330
2DF
102
}
330
71
100
AcDbEntity
  8
0
  6
Continuous
 62
     2
100
AcDbLine
 10
160.0852924940199
 20
299.0064996756707
 30
0.0
 11
160.0852924940199
 21
295.9526901518596
 31
0.0
  0
LINE
  5
246
102
{ACAD_REACTORS
330
2DE
330
2DF
102
}
330
71
100
AcDbEntity
  8
0
  6
Continuous
 62
     2
100
AcDbLine
 10
158.844788083767
 20
299.0064996756707
 30
0.0
 11
160.0852924940199
 21
299.0064996756707
 31
0.0
  0
LINE
  5
247
102
{ACAD_REACTORS
330
2DC
330
2DD
102
}
330
71
100
AcDbEntity
  8
0
  6
Continuous
 62
     2
100
AcDbLine
 10
162.3038869200507
 20
296.7404219371533
 30
0.0
 11
163.0004778581161
 21
295.9526901518596
 31
0.0
  0
LINE
  5
248
102
{ACAD_REACTORS
330
2DC
330
2DD
102
}
330
71
100
AcDbEntity
  8
0
  6
Continuous
 62
     2
100
AcDbLine
 10
163.0004778581161
 20
295.9526901518596
 30
0.0
 11
164.4032020758644
 21
295.9526901518596
 31
0.0
  0
LINE
  5
249
102
{ACAD_REACTORS
330
2DC
330
2DD
102
}
330
71
100
AcDbEntity
  8
0
  6
Continuous
 62
     2
100
AcDbLine
 10
163.0052490289241
 20
297.5335491456345
 30
0.0
 11
164.4032020758644
 21
295.9526901518596
 31
0.0
  0
LINE
  5
24A
102
{ACAD_REACTORS
330
2DC
330
2DD
102
}
330
71
100
AcDbEntity
  8
0
  6
Continuous
 62
     2
100
AcDbLine
 10
163.0052490289241
 20
297.5335491456345
 30
0.0
 11
164.3077786596907
 21
299.0064996756707
 31
0.0
  0
LINE
  5
24B
102
{ACAD_REACTORS
330
2DC
330
2DD
102
}
330
71
100
AcDbEntity
  8
0
  6
Continuous
 62
     2
100
AcDbLine
 10
162.3038869200507
 20
298.3266763541152
 30
0.0
 11
162.9050544419435
 21
299.0064996756707
 31
0.0
  0
LINE
  5
24C
102
{ACAD_REACTORS
330
2DC
330
2DD
102
}
330
71
100
AcDbEntity
  8
0
  6
Continuous
 62
     2
100
AcDbLine
 10
161.7027193981588
 20
299.0064996756707
 30
0.0
 11
162.3038869200507
 21
298.3266763541152
 31
0.0
  0
LINE
  5
24D
102
{ACAD_REACTORS
330
2DC
330
2DD
102
}
330
71
100
AcDbEntity
  8
0
  6
Continuous
 62
     2
100
AcDbLine
 10
161.7027193981588
 20
299.0064996756707
 30
0.0
 11
160.2999951804096
 21
299.0064996756707
 31
0.0
  0
LINE
  5
24E
102
{ACAD_REACTORS
330
2D2
330
2D3
102
}
330
71
100
AcDbEntity
  8
0
  6
Continuous
 62
     2
100
AcDbLine
 10
162.3993103362233
 20
292.5934996756853
 30
0.0
 11
163.592103038391
 21
292.5934996756853
 31
0.0
  0
LINE
  5
24F
102
{ACAD_REACTORS
330
2D2
330
2D3
102
}
330
71
100
AcDbEntity
  8
0
  6
Continuous
 62
     2
100
AcDbLine
 10
163.592103038391
 20
292.5934996756853
 30
0.0
 11
163.592103038391
 21
294.8620438933727
 31
0.0
  0
LINE
  5
250
102
{ACAD_REACTORS
330
2D2
330
2D3
102
}
330
71
100
AcDbEntity
  8
0
  6
Continuous
 62
     2
100
AcDbLine
 10
163.592103038391
 20
294.8620438933727
 30
0.0
 11
164.4032020758644
 21
294.8620438933727
 31
0.0
  0
LINE
  5
251
102
{ACAD_REACTORS
330
2D2
330
2D3
102
}
330
71
100
AcDbEntity
  8
0
  6
Continuous
 62
     2
100
AcDbLine
 10
164.4032020758644
 20
294.8620438933727
 30
0.0
 11
164.4032020758644
 21
295.6473091994964
 31
0.0
  0
LINE
  5
252
102
{ACAD_REACTORS
330
2D2
330
2D3
102
}
330
71
100
AcDbEntity
  8
0
  6
Continuous
 62
     2
100
AcDbLine
 10
161.0182565572358
 20
295.6473091994958
 30
0.0
 11
164.4032020758644
 21
295.6473091994964
 31
0.0
  0
LINE
  5
253
102
{ACAD_REACTORS
330
2D2
330
2D3
102
}
330
71
100
AcDbEntity
  8
0
  6
Continuous
 62
     2
100
AcDbLine
 10
162.3993103362233
 20
294.8620438933727
 30
0.0
 11
162.3993103362233
 21
292.5934996756853
 31
0.0
  0
LINE
  5
254
102
{ACAD_REACTORS
330
2D4
330
2D5
102
}
330
71
100
AcDbEntity
  8
0
  6
Continuous
 62
     2
100
AcDbLine
 10
139.7698239007442
 20
294.5723798252498
 30
0.0
 11
139.7698239007442
 21
295.1542312319449
 31
0.0
  0
LINE
  5
255
102
{ACAD_REACTORS
330
2D4
330
2D5
102
}
330
71
100
AcDbEntity
  8
0
  6
Continuous
 62
     2
100
AcDbLine
 10
139.7698239007442
 20
297.372514431881
 30
0.0
 11
139.7698239007442
 21
297.9780497203878
 31
0.0
  0
LINE
  5
256
330
71
100
AcDbEntity
  8
1
  6
Continuous
 62
     6
100
AcDbLine
 10
218.3000024853473
 20
285.299999675669
 30
0.0
 11
261.8000024853473
 21
285.299999675669
 31
0.0
  0
LINE
  5
257
330
71
100
AcDbEntity
  8
1
  6
Continuous
 62
     6
100
AcDbLine
 10
168.3000024853473
 20
285.299999675669
 30
0.0
 11
150.4551979585973
 21
285.299999675669
 31
0.0
  0
LINE
  5
258
330
71
100
AcDbEntity
  8
1
  6
Continuous
 62
     6
100
AcDbLine
 10
132.2551979585974
 20
302.2999996756689
 30
0.0
 11
168.6551979585973
 21
302.2999996756689
 31
0.0
  0
LINE
  5
259
330
71
100
AcDbEntity
  8
1
  6
Continuous
 62
     6
100
AcDbLine
 10
261.8000024853473
 20
285.299999675669
 30
0.0
 11
261.8000024853486
 21
293.7999996756689
 31
0.0
  0
LINE
  5
25A
330
71
100
AcDbEntity
  8
1
  6
Continuous
 62
     6
100
AcDbLine
 10
168.6551979585973
 20
285.2999996756689
 30
0.0
 11
218.3000024853473
 21
285.299999675669
 31
0.0
  0
LINE
  5
25B
330
71
100
AcDbEntity
  8
1
  6
Continuous
 62
     7
100
AcDbLine
 10
132.2551979585974
 20
302.2999996756689
 30
0.0
 11
132.2551979585974
 21
289.5499996756689
 31
0.0
  0
LINE
  5
25C
330
71
100
AcDbEntity
  8
1
  6
Continuous
 62
     7
100
AcDbLine
 10
168.6551979585973
 20
302.2999996756689
 30
0.0
 11
168.6551979585973
 21
289.549999675669
 31
0.0
  0
LINE
  5
25D
330
71
100
AcDbEntity
  8
1
  6
Continuous
 62
     6
100
AcDbLine
 10
168.6551979585973
 20
285.2999996756689
 30
0.0
 11
168.3000024853473
 21
285.299999675669
 31
0.0
  0
LINE
  5
25E
330
71
100
AcDbEntity
  8
1
  6
Continuous
 62
     6
100
AcDbLine
 10
261.8000024853491
 20
302.2999996756689
 30
0.0
 11
261.8000024853486
 21
293.7999996756689
 31
0.0
  0
LINE
  5
25F
330
71
100
AcDbEntity
  8
1
  6
Continuous
 62
     2
100
AcDbLine
 10
136.4918528451599
 20
307.6749996756688
 30
0.0
 11
141.4918528451599
 21
308.9249996756688
 31
0.0
  0
LINE
  5
260
330
71
100
AcDbEntity
  8
1
  6
Continuous
 62
     2
100
AcDbLine
 10
136.4918528451599
 20
305.1749996756688
 30
0.0
 11
136.4918528451599
 21
307.6749996756688
 31
0.0
  0
LINE
  5
261
330
71
100
AcDbEntity
  8
1
  6
Continuous
 62
     2
100
AcDbLine
 10
141.4918528451599
 20
303.9249996756688
 30
0.0
 11
136.4918528451599
 21
305.1749996756688
 31
0.0
  0
LINE
  5
262
330
71
100
AcDbEntity
  8
1
  6
Continuous
 62
     2
100
AcDbLine
 10
141.4918528451599
 20
308.9249996756688
 30
0.0
 11
141.4918528451599
 21
303.9249996756688
 31
0.0
  0
LINE
  5
263
330
71
100
AcDbEntity
  8
1
  6
Continuous
 62
     7
100
AcDbLine
 10
132.2551979585974
 20
289.5499996756689
 30
0.0
 11
150.4551979585973
 21
289.549999675669
 31
0.0
  0
LINE
  5
264
330
71
100
AcDbEntity
  8
1
  6
Continuous
 62
     7
100
AcDbLine
 10
132.2551979585974
 20
289.5499996756689
 30
0.0
 11
132.2551979585974
 21
285.2999996756689
 31
0.0
  0
LINE
  5
265
330
71
100
AcDbEntity
  8
1
  6
Continuous
 62
     7
100
AcDbLine
 10
168.6551979585973
 20
289.549999675669
 30
0.0
 11
168.6551979585973
 21
285.2999996756689
 31
0.0
  0
LINE
  5
266
330
71
100
AcDbEntity
  8
1
  6
Continuous
 62
     7
100
AcDbLine
 10
150.4551979585973
 20
289.549999675669
 30
0.0
 11
150.4551979585973
 21
285.299999675669
 31
0.0
  0
LINE
  5
267
330
71
100
AcDbEntity
  8
1
  6
Continuous
 62
     6
100
AcDbLine
 10
150.4551979585973
 20
285.299999675669
 30
0.0
 11
132.2551979585974
 21
285.2999996756689
 31
0.0
  0
LINE
  5
268
330
71
100
AcDbEntity
  8
1
  6
Continuous
 62
     7
100
AcDbLine
 10
150.4551979585973
 20
289.549999675669
 30
0.0
 11
168.6551979585973
 21
289.549999675669
 31
0.0
  0
LINE
  5
269
330
71
100
AcDbEntity
  8
1
  6
Continuous
 62
     6
100
AcDbLine
 10
132.2551979585974
 20
310.7999996756689
 30
0.0
 11
261.8000024853491
 21
310.7999996756689
 31
0.0
  0
LINE
  5
26A
330
71
100
AcDbEntity
  8
1
  6
PHANTOM
 62
     2
100
AcDbLine
 10
147.7418528451599
 20
306.4249996756688
 30
0.0
 11
142.2418528451599
 21
306.4249996756688
 31
0.0
  0
LINE
  5
26B
330
71
100
AcDbEntity
  8
1
  6
PHANTOM
 62
     2
100
AcDbLine
 10
144.9918528451599
 20
309.1749996756689
 30
0.0
 11
144.9918528451599
 21
303.6749996756689
 31
0.0
  0
LINE
  5
26C
330
71
100
AcDbEntity
  8
1
  6
DOT_CENTER
 62
     2
100
AcDbLine
 10
136.2418528451599
 20
306.4249996756688
 30
0.0
 11
141.7418528451599
 21
306.4249996756688
 31
0.0
  0
ARC
  5
26D
102
{ACAD_REACTORS
330
2D8
330
2D9
102
}
330
71
100
AcDbEntity
  8
0
  6
Continuous
 62
     2
100
AcDbCircle
 10
147.6468459575574
 20
294.1204044375905
 30
0.0
 40
0.7717997786795351
100
AcDbArc
 50
321.8795802028432
 51
38.1204197971668
  0
ARC
  5
26E
102
{ACAD_REACTORS
330
2D8
330
2D9
102
}
330
71
100
AcDbEntity
  8
0
  6
Continuous
 62
     2
100
AcDbCircle
 10
147.8465859939038
 20
293.9636732594706
 30
0.0
 40
0.5179085730138424
100
AcDbArc
 50
218.1204197971879
 51
321.8795802027908
  0
ARC
  5
26F
102
{ACAD_REACTORS
330
2D8
330
2D9
102
}
330
71
100
AcDbEntity
  8
0
  6
Continuous
 62
     2
100
AcDbCircle
 10
148.0463260302498
 20
294.1204044375905
 30
0.0
 40
0.771799778679551
100
AcDbArc
 50
141.879580202828
 51
218.120419797162
  0
ARC
  5
270
102
{ACAD_REACTORS
330
2D8
330
2D9
102
}
330
71
100
AcDbEntity
  8
0
  6
Continuous
 62
     2
100
AcDbCircle
 10
147.8465859939038
 20
294.277135615711
 30
0.0
 40
0.5179085730132806
100
AcDbArc
 50
38.12041979716469
 51
141.8795802028567
  0
ARC
  5
271
102
{ACAD_REACTORS
330
2D0
330
2D1
102
}
330
71
100
AcDbEntity
  8
0
  6
Continuous
 62
     2
100
AcDbCircle
 10
144.7845718583398
 20
292.7099380721824
 30
0.0
 40
2.227384008973465
100
AcDbArc
 50
58.06909105003707
 51
71.55192388186676
  0
ARC
  5
272
102
{ACAD_REACTORS
330
2D0
330
2D1
102
}
330
71
100
AcDbEntity
  8
0
  6
Continuous
 62
     2
100
AcDbCircle
 10
145.0462995592986
 20
294.3254758669296
 30
0.0
 40
0.5115800601948293
100
AcDbArc
 50
113.3722778881945
 51
151.4785267423156
  0
ARC
  5
273
102
{ACAD_REACTORS
330
2D0
330
2D1
102
}
330
71
100
AcDbEntity
  8
0
  6
Continuous
 62
     2
100
AcDbCircle
 10
145.423656817379
 20
294.1204044375905
 30
0.0
 40
0.9410597353333294
100
AcDbArc
 50
151.4785267422693
 51
208.5214732576972
  0
ARC
  5
274
102
{ACAD_REACTORS
330
2D0
330
2D1
102
}
330
71
100
AcDbEntity
  8
0
  6
Continuous
 62
     2
100
AcDbCircle
 10
144.626698983247
 20
297.433085382847
 30
0.0
 40
4.852596863498272
100
AcDbArc
 50
275.1581447696238
 51
285.9799912583526
  0
ARC
  5
275
102
{ACAD_REACTORS
330
2D0
330
2D1
102
}
330
71
100
AcDbEntity
  8
0
  6
Continuous
 62
     2
100
AcDbCircle
 10
144.9155550779829
 20
294.2331947996254
 30
0.0
 40
1.639695123939437
100
AcDbArc
 50
195.0618917770922
 51
275.1581447696363
  0
ARC
  5
276
102
{ACAD_REACTORS
330
2D0
330
2D1
102
}
330
71
100
AcDbEntity
  8
0
  6
Continuous
 62
     2
100
AcDbCircle
 10
144.4964272345201
 20
294.1204044375905
 30
0.0
 40
1.205656168390971
100
AcDbArc
 50
164.9381082228768
 51
195.0618917770945
  0
ARC
  5
277
102
{ACAD_REACTORS
330
2D0
330
2D1
102
}
330
71
100
AcDbEntity
  8
0
  6
Continuous
 62
     2
100
AcDbCircle
 10
144.9155550779829
 20
294.0076140755557
 30
0.0
 40
1.639695123940499
100
AcDbArc
 50
84.84185523036533
 51
164.9381082228905
  0
ARC
  5
278
102
{ACAD_REACTORS
330
2D4
330
2D5
102
}
330
71
100
AcDbEntity
  8
0
  6
Continuous
 62
     2
100
AcDbCircle
 10
140.085540823821
 20
295.1542312319449
 30
0.0
 40
0.3157169230765328
100
AcDbArc
 50
115.3740086783519
 51
180.0
  0
ARC
  5
279
102
{ACAD_REACTORS
330
2D4
330
2D5
102
}
330
71
100
AcDbEntity
  8
0
  6
Continuous
 62
     2
100
AcDbCircle
 10
140.085540823821
 20
297.372514431881
 30
0.0
 40
0.315716923076792
100
AcDbArc
 50
180.0
 51
244.6259913216349
  0
ARC
  5
27A
102
{ACAD_REACTORS
330
2D4
330
2D5
102
}
330
71
100
AcDbEntity
  8
0
  6
Continuous
 62
     2
100
AcDbCircle
 10
140.091156959131
 20
296.2752147728188
 30
0.0
 40
2.018561131933266
100
AcDbArc
 50
269.8110329575827
 51
90.18896704241737
  0
ARC
  5
27B
102
{ACAD_REACTORS
330
2D4
330
2D5
102
}
330
71
100
AcDbEntity
  8
0
  6
Continuous
 62
     2
100
AcDbCircle
 10
140.085540823821
 20
294.5723798252498
 30
0.0
 40
0.315716923076792
100
AcDbArc
 50
180.0
 51
269.8110329574335
  0
ARC
  5
27C
102
{ACAD_REACTORS
330
2D2
330
2D3
102
}
330
71
100
AcDbEntity
  8
0
  6
Continuous
 62
     2
100
AcDbCircle
 10
161.1490010385515
 20
294.3254758669296
 30
0.0
 40
0.5115800601944048
100
AcDbArc
 50
109.3371432194823
 51
151.4785267424182
  0
ARC
  5
27D
102
{ACAD_REACTORS
330
2D2
330
2D3
102
}
330
71
100
AcDbEntity
  8
0
  6
Continuous
 62
     2
100
AcDbCircle
 10
161.1490010385515
 20
293.915333008252
 30
0.0
 40
0.5115800601959967
100
AcDbArc
 50
208.5214732576881
 51
246.6277221118399
  0
ARC
  5
27E
102
{ACAD_REACTORS
330
2D2
330
2D3
102
}
330
71
100
AcDbEntity
  8
0
  6
Continuous
 62
     2
100
AcDbCircle
 10
160.5991287137741
 20
294.1204044375905
 30
0.0
 40
1.205656168392975
100
AcDbArc
 50
164.9381082229024
 51
195.0618917770897
  0
ARC
  5
27F
102
{ACAD_REACTORS
330
2D2
330
2D3
102
}
330
71
100
AcDbEntity
  8
0
  6
Continuous
 62
     2
100
AcDbCircle
 10
161.0182565572358
 20
294.0076140755557
 30
0.0
 40
1.639695123940101
100
AcDbArc
 50
90.0
 51
164.9381082228993
  0
ARC
  5
280
102
{ACAD_REACTORS
330
2D6
330
2D7
102
}
330
71
100
AcDbEntity
  8
0
  6
Continuous
 62
     2
100
AcDbCircle
 10
151.5912614645321
 20
297.4795949137649
 30
0.0
 40
1.526904761905769
100
AcDbArc
 50
90.0
 51
270.0
  0
ARC
  5
281
102
{ACAD_REACTORS
330
2DA
330
2DB
102
}
330
71
100
AcDbEntity
  8
0
  6
Continuous
 62
     2
100
AcDbCircle
 10
144.8485707193063
 20
297.9905300055595
 30
0.0
 40
0.3528638246710898
100
AcDbArc
 50
270.0
 51
90.0
  0
ARC
  5
282
102
{ACAD_REACTORS
330
2D4
330
2D5
102
}
330
71
100
AcDbEntity
  8
0
  6
Continuous
 62
     2
100
AcDbCircle
 10
137.5099921372892
 20
297.978227197036
 30
0.0
 40
0.3157169230760815
100
AcDbArc
 50
90.0
 51
180.0
  0
ARC
  5
283
102
{ACAD_REACTORS
330
2D4
330
2D5
102
}
330
71
100
AcDbEntity
  8
0
  6
Continuous
 62
     2
100
AcDbCircle
 10
139.5084098458738
 20
296.2633728319132
 30
0.0
 40
0.9118975235576555
100
AcDbArc
 50
115.1944106485211
 51
244.8055893514895
  0
ARC
  5
284
102
{ACAD_REACTORS
330
2D4
330
2D5
102
}
330
71
100
AcDbEntity
  8
0
  6
Continuous
 62
     2
100
AcDbCircle
 10
138.9858253982988
 20
295.1525430858505
 30
0.0
 40
0.315716923076593
100
AcDbArc
 50
0.0
 51
64.805589351446
  0
ARC
  5
285
102
{ACAD_REACTORS
330
2D4
330
2D5
102
}
330
71
100
AcDbEntity
  8
0
  6
Continuous
 62
     2
100
AcDbCircle
 10
136.9160974605427
 20
293.0177442910685
 30
0.0
 40
0.4242446153827757
100
AcDbArc
 50
180.0
 51
270.0
  0
ARC
  5
286
102
{ACAD_REACTORS
330
2D6
330
2D7
102
}
330
71
100
AcDbEntity
  8
0
  6
Continuous
 62
     2
100
AcDbCircle
 10
151.8075334746973
 20
297.6363260918854
 30
0.0
 40
0.5179085730133669
100
AcDbArc
 50
38.12041979714121
 51
141.8795802028666
  0
ARC
  5
287
102
{ACAD_REACTORS
330
2D6
330
2D7
102
}
330
71
100
AcDbEntity
  8
0
  6
Continuous
 62
     2
100
AcDbCircle
 10
152.0072735110435
 20
297.4795949137649
 30
0.0
 40
0.7717997786796245
100
AcDbArc
 50
141.8795802028484
 51
218.1204197971549
  0
ARC
  5
288
102
{ACAD_REACTORS
330
2D8
330
2D9
102
}
330
71
100
AcDbEntity
  8
0
  6
Continuous
 62
     2
100
AcDbCircle
 10
147.8465859939038
 20
294.6589794478939
 30
0.0
 40
2.065479772208637
100
AcDbArc
 50
242.4518518243384
 51
297.548148175686
  0
ARC
  5
289
102
{ACAD_REACTORS
330
2D8
330
2D9
102
}
330
71
100
AcDbEntity
  8
0
  6
Continuous
 62
     2
100
AcDbCircle
 10
147.8465859939038
 20
293.5818294272877
 30
0.0
 40
2.065479772208694
100
AcDbArc
 50
62.45185182430819
 51
117.5481481756674
  0
ARC
  5
28A
102
{ACAD_REACTORS
330
2D8
330
2D9
102
}
330
71
100
AcDbEntity
  8
0
  6
Continuous
 62
     2
100
AcDbCircle
 10
147.5656461020704
 20
294.1204044375905
 30
0.0
 40
1.458034083651616
100
AcDbArc
 50
117.5481481756598
 51
242.451851824337
  0
ARC
  5
28B
102
{ACAD_REACTORS
330
2D8
330
2D9
102
}
330
71
100
AcDbEntity
  8
0
  6
Continuous
 62
     2
100
AcDbCircle
 10
148.127525885737
 20
294.1204044375905
 30
0.0
 40
1.45803408365203
100
AcDbArc
 50
297.5481481757055
 51
62.45185182429758
  0
ARC
  5
28C
102
{ACAD_REACTORS
330
2D6
330
2D7
102
}
330
71
100
AcDbEntity
  8
0
  6
Continuous
 62
     2
100
AcDbCircle
 10
151.8075334746973
 20
297.3228637356444
 30
0.0
 40
0.5179085730134564
100
AcDbArc
 50
218.1204197971334
 51
321.8795802028588
  0
ARC
  5
28D
102
{ACAD_REACTORS
330
2D6
330
2D7
102
}
330
71
100
AcDbEntity
  8
0
  6
Continuous
 62
     2
100
AcDbCircle
 10
151.6077934383511
 20
297.4795949137649
 30
0.0
 40
0.7717997786795479
100
AcDbArc
 50
321.8795802028385
 51
38.12041979715814
  0
ARC
  5
28E
102
{ACAD_REACTORS
330
2D4
330
2D5
102
}
330
71
100
AcDbEntity
  8
0
  6
Continuous
 62
     2
100
AcDbCircle
 10
142.3894095512596
 20
293.0177442910685
 30
0.0
 40
0.424244615383202
100
AcDbArc
 50
270.0
 51
0.0
  0
ARC
  5
28F
102
{ACAD_REACTORS
330
2D4
330
2D5
102
}
330
71
100
AcDbEntity
  8
0
  6
Continuous
 62
     2
100
AcDbCircle
 10
142.3894095512596
 20
298.5822550602687
 30
0.0
 40
0.4242446153838841
100
AcDbArc
 50
0.0
 51
90.0
  0
ARC
  5
290
102
{ACAD_REACTORS
330
2D4
330
2D5
102
}
330
71
100
AcDbEntity
  8
0
  6
Continuous
 62
     2
100
AcDbCircle
 10
136.9160974605427
 20
298.5822550602687
 30
0.0
 40
0.4242446153838841
100
AcDbArc
 50
90.0
 51
180.0
  0
ARC
  5
291
102
{ACAD_REACTORS
330
2D4
330
2D5
102
}
330
71
100
AcDbEntity
  8
0
  6
Continuous
 62
     2
100
AcDbCircle
 10
138.9858253982988
 20
293.6217721543189
 30
0.0
 40
0.3157169230766499
100
AcDbArc
 50
270.0
 51
0.0
  0
ARC
  5
292
102
{ACAD_REACTORS
330
2D4
330
2D5
102
}
330
71
100
AcDbEntity
  8
0
  6
Continuous
 62
     2
100
AcDbCircle
 10
138.9858253982988
 20
297.3742025779754
 30
0.0
 40
0.3157169230760658
100
AcDbArc
 50
295.1944106485672
 51
0.0
  0
ARC
  5
293
102
{ACAD_REACTORS
330
2D4
330
2D5
102
}
330
71
100
AcDbEntity
  8
0
  6
Continuous
 62
     2
100
AcDbCircle
 10
138.9858253982988
 20
297.978227197036
 30
0.0
 40
0.315716923076593
100
AcDbArc
 50
0.0
 51
90.0
  0
ARC
  5
294
102
{ACAD_REACTORS
330
2D4
330
2D5
102
}
330
71
100
AcDbEntity
  8
0
  6
Continuous
 62
     2
100
AcDbCircle
 10
137.5099921372892
 20
293.6217721543189
 30
0.0
 40
0.3157169230755983
100
AcDbArc
 50
180.0
 51
270.0
  0
ARC
  5
295
102
{ACAD_REACTORS
330
2DA
330
2DB
102
}
330
71
100
AcDbEntity
  8
0
  6
Continuous
 62
     2
100
AcDbCircle
 10
145.2900432455447
 20
297.951134034337
 30
0.0
 40
1.055365641333651
100
AcDbArc
 50
270.0
 51
90.0
  0
ARC
  5
296
102
{ACAD_REACTORS
330
2D2
330
2D3
102
}
330
71
100
AcDbEntity
  8
0
  6
Continuous
 62
     2
100
AcDbCircle
 10
161.0182565572358
 20
294.2331947996254
 30
0.0
 40
1.639695123940488
100
AcDbArc
 50
195.0618917770988
 51
275.1581447696772
  0
ARC
  5
297
102
{ACAD_REACTORS
330
2D2
330
2D3
102
}
330
71
100
AcDbEntity
  8
0
  6
Continuous
 62
     2
100
AcDbCircle
 10
160.7294004624999
 20
297.433085382847
 30
0.0
 40
4.852596863498889
100
AcDbArc
 50
275.1581447696373
 51
285.9799912583383
  0
ARC
  5
298
102
{ACAD_REACTORS
330
2D2
330
2D3
102
}
330
71
100
AcDbEntity
  8
0
  6
Continuous
 62
     2
100
AcDbCircle
 10
160.8872733375927
 20
295.5308708029987
 30
0.0
 40
2.227384008972773
100
AcDbArc
 50
288.4480761181333
 51
301.9309089499394
  0
ARC
  5
299
102
{ACAD_REACTORS
330
2D2
330
2D3
102
}
330
71
100
AcDbEntity
  8
0
  6
Continuous
 62
     2
100
AcDbCircle
 10
161.3054410712547
 20
294.277325026962
 30
0.0
 40
0.9059297849852208
100
AcDbArc
 50
246.6277221118088
 51
288.4480761180772
  0
ARC
  5
29A
102
{ACAD_REACTORS
330
2D2
330
2D3
102
}
330
71
100
AcDbEntity
  8
0
  6
Continuous
 62
     2
100
AcDbCircle
 10
161.526358296633
 20
294.1204044375905
 30
0.0
 40
0.9410597353350352
100
AcDbArc
 50
151.4785267423573
 51
208.521473257667
  0
ARC
  5
29B
102
{ACAD_REACTORS
330
2D2
330
2D3
102
}
330
71
100
AcDbEntity
  8
0
  6
Continuous
 62
     2
100
AcDbCircle
 10
161.2956710366552
 20
293.9075208865466
 30
0.0
 40
0.9545230068260935
100
AcDbArc
 50
90.0
 51
109.3371432194281
  0
ARC
  5
29C
102
{ACAD_REACTORS
330
2D4
330
2D5
102
}
330
71
100
AcDbEntity
  8
0
  6
Continuous
 62
     2
100
AcDbCircle
 10
140.085540823821
 20
297.9780497203878
 30
0.0
 40
0.3157169230761851
100
AcDbArc
 50
90.1889670425665
 51
180.0
  0
ARC
  5
29D
102
{ACAD_REACTORS
330
2D4
330
2D5
102
}
330
71
100
AcDbEntity
  8
0
  6
Continuous
 62
     2
100
AcDbCircle
 10
139.5594981257331
 20
296.2633728319132
 30
0.0
 40
0.9118481501443819
100
AcDbArc
 50
295.3740086781787
 51
64.62599132181052
  0
ARC
  5
29E
102
{ACAD_REACTORS
330
2D0
330
2D1
102
}
330
71
100
AcDbEntity
  8
0
  6
Continuous
 62
     2
100
AcDbCircle
 10
144.7845718583398
 20
295.5308708029992
 30
0.0
 40
2.227384008972719
100
AcDbArc
 50
288.4480761181337
 51
301.9309089499637
  0
ARC
  5
29F
102
{ACAD_REACTORS
330
2D0
330
2D1
102
}
330
71
100
AcDbEntity
  8
0
  6
Continuous
 62
     2
100
AcDbCircle
 10
145.2027395920007
 20
294.277325026962
 30
0.0
 40
0.9059297849848262
100
AcDbArc
 50
246.6277221118665
 51
288.4480761181539
  0
ARC
  5
2A0
102
{ACAD_REACTORS
330
2D0
330
2D1
102
}
330
71
100
AcDbEntity
  8
0
  6
Continuous
 62
     2
100
AcDbCircle
 10
145.0462995592986
 20
293.915333008252
 30
0.0
 40
0.5115800601947491
100
AcDbArc
 50
208.5214732576844
 51
246.6277221118282
  0
ARC
  5
2A1
102
{ACAD_REACTORS
330
2D0
330
2D1
102
}
330
71
100
AcDbEntity
  8
0
  6
Continuous
 62
     2
100
AcDbCircle
 10
145.2027395920007
 20
293.963483848219
 30
0.0
 40
0.9059297849852959
100
AcDbArc
 50
71.55192388185858
 51
113.372277888132
  0
ARC
  5
2A2
102
{ACAD_REACTORS
330
2D0
330
2D1
102
}
330
71
100
AcDbEntity
  8
0
  6
Continuous
 62
     2
100
AcDbCircle
 10
144.626698983247
 20
290.8077234923347
 30
0.0
 40
4.852596863497986
100
AcDbArc
 50
74.0200087416471
 51
84.84185523037608
  0
CIRCLE
  5
2A3
102
{ACAD_REACTORS
330
2D4
330
2D5
102
}
330
71
100
AcDbEntity
  8
0
  6
Continuous
 62
     2
100
AcDbCircle
 10
139.5356831110603
 20
296.2633728319132
 30
0.0
 40
0.470978932778479
  0
CIRCLE
  5
2A4
330
71
100
AcDbEntity
  8
1
  6
Continuous
 62
     2
100
AcDbCircle
 10
144.9918528451599
 20
306.4249996756688
 30
0.0
 40
1.25
  0
CIRCLE
  5
2A5
330
71
100
AcDbEntity
  8
1
  6
Continuous
 62
     2
100
AcDbCircle
 10
144.9918528451599
 20
306.4249996756688
 30
0.0
 40
2.5
  0
TEXT
  5
2A6
330
71
100
AcDbEntity
  8
1
 62
     7
100
AcDbText
 10
226.4666691520139
 20
281.2999996756695
 30
0.0
 40
2.5
  1
6
 41
0.9
  7
CONVERTER_11
100
AcDbText
  0
TEXT
  5
2A7
330
71
100
AcDbEntity
  8
1
 62
     7
100
AcDbText
 10
158.1333358186805
 20
281.2999996756695
 30
0.0
 40
2.5
  1
5
 41
0.9
  7
CONVERTER_11
100
AcDbText
  0
TEXT
  5
2A8
330
71
100
AcDbEntity
  8
1
 62
     7
100
AcDbText
 10
89.8000024853473
 20
281.2999996756695
 30
0.0
 40
2.5
  1
4
 41
0.9
  7
CONVERTER_11
100
AcDbText
  0
TEXT
  5
2A9
330
71
100
AcDbEntity
  8
1
 62
     7
100
AcDbText
 10
21.46666915201422
 20
281.2999996756695
 30
0.0
 40
2.5
  1
3
 41
0.9
  7
CONVERTER_11
100
AcDbText
  0
TEXT
  5
2AA
330
71
100
AcDbEntity
  8
1
 62
     7
100
AcDbText
 10
262.8000024853473
 20
312.7999996756695
 30
0.0
 40
2.5
  1
E
 41
0.9
  7
CONVERTER_11
100
AcDbText
  0
TEXT
  5
2AB
330
71
100
AcDbEntity
  8
1
 62
     7
100
AcDbText
 10
-115.1999975146524
 20
281.2999996756695
 30
0.0
 40
2.5
  1
1
 41
0.9
  7
CONVERTER_11
100
AcDbText
  0
TEXT
  5
2AC
330
71
100
AcDbEntity
  8
1
 62
     7
100
AcDbText
 10
-46.86666418131932
 20
281.2999996756695
 30
0.0
 40
2.5
  1
2
 41
0.9
  7
CONVERTER_11
100
AcDbText
  0
TEXT
  5
2AD
330
71
100
AcDbEntity
  8
1
 62
     7
100
AcDbText
 10
262.8000024853473
 20
370.1999996756696
 30
0.0
 40
2.5
  1
D
 41
0.9
  7
CONVERTER_11
100
AcDbText
  0
TEXT
  5
2AE
330
71
100
AcDbEntity
  8
1
 62
     7
100
AcDbText
 10
262.8000024853473
 20
427.5999996756697
 30
0.0
 40
2.5
  1
C
 41
0.9
  7
CONVERTER_11
100
AcDbText
  0
TEXT
  5
2AF
330
71
100
AcDbEntity
  8
1
 62
     7
100
AcDbText
 10
262.8000024853473
 20
484.9999996756695
 30
0.0
 40
2.5
  1
B
 41
0.9
  7
CONVERTER_11
100
AcDbText
  0
TEXT
  5
2B0
330
71
100
AcDbEntity
  8
1
 62
     7
100
AcDbText
 10
262.8000024853473
 20
542.3999996756694
 30
0.0
 40
2.5
  1
A
 41
0.9
  7
CONVERTER_11
100
AcDbText
  0
TEXT
  5
2B1
330
71
100
AcDbEntity
  8
1
 62
     7
100
AcDbText
 10
226.4666691520139
 20
573.2999996756697
 30
0.0
 40
2.5
  1
6
 41
0.9
  7
CONVERTER_11
100
AcDbText
  0
TEXT
  5
2B2
330
71
100
AcDbEntity
  8
1
 62
     7
100
AcDbText
 10
158.1333358186807
 20
573.2999996756697
 30
0.0
 40
2.5
  1
5
 41
0.9
  7
CONVERTER_11
100
AcDbText
  0
TEXT
  5
2B3
330
71
100
AcDbEntity
  8
1
 62
     7
100
AcDbText
 10
89.8000024853473
 20
573.2999996756697
 30
0.0
 40
2.5
  1
4
 41
0.9
  7
CONVERTER_11
100
AcDbText
  0
TEXT
  5
2B4
330
71
100
AcDbEntity
  8
1
 62
     7
100
AcDbText
 10
21.46666915201422
 20
573.2999996756697
 30
0.0
 40
2.5
  1
3
 41
0.9
  7
CONVERTER_11
100
AcDbText
  0
TEXT
  5
2B5
330
71
100
AcDbEntity
  8
1
 62
     7
100
AcDbText
 10
-46.86666418131932
 20
573.2999996756697
 30
0.0
 40
2.5
  1
2
 41
0.9
  7
CONVERTER_11
100
AcDbText
  0
TEXT
  5
2B6
330
71
100
AcDbEntity
  8
1
 62
     7
100
AcDbText
 10
-115.1999975146524
 20
573.2999996756697
 30
0.0
 40
2.5
  1
1
 41
0.9
  7
CONVERTER_11
100
AcDbText
  0
TEXT
  5
2B7
330
71
100
AcDbEntity
  8
1
 62
     7
100
AcDbText
 10
187.6287456806111
 20
303.5999996756689
 30
0.0
 40
2.5
  1
/
 41
0.9
  7
CONVERTER_11
100
AcDbText
  0
TEXT
  5
2B9
330
71
100
AcDbEntity
  8
1
 62
     7
100
AcDbText
 10
189.7851101776531
 20
303.5999996756689
 30
0.0
 40
2.5
  1
01
 41
0.81
  7
CONVERTER_12
100
AcDbText
  0
TEXT
  5
2BA
330
71
100
AcDbEntity
  8
1
 62
     3
100
AcDbText
 10
227.3815942036703
 20
303.5999996756689
 30
0.0
 40
2.5
  1
29.01.2018
 41
0.81
  7
CONVERTER_12
100
AcDbText
  0
MTEXT
  5
2BB
330
71
100
AcDbEntity
  8
1
 62
     2
100
AcDbMText
 10
227.3815942036703
 20
309.7999996756689
 30
0.0
 40
1.8
 41
0.0
 71
     1
 72
     1
  1
date
  7
CONVERTER_11
 73
     1
 44
1.32052821128451
  0
MTEXT
  5
2BC
330
71
100
AcDbEntity
  8
1
 62
     2
100
AcDbMText
 10
197.5551979585973
 20
301.2999996756689
 30
0.0
 40
1.8
 41
0.0
 71
     1
 72
     1
  1
document-type
  7
CONVERTER_11
 73
     1
 44
1.20048019207683
  0
TEXT
  5
2BD
330
71
100
AcDbEntity
  8
1
 62
     3
100
AcDbText
 10
197.5551979585973
 20
295.0999996756689
 30
0.0
 40
2.5
  1
TECDOC 2D_Productdrawing
 41
0.81
  7
CONVERTER_12
100
AcDbText
  0
MTEXT
  5
2BF
330
71
100
AcDbEntity
  8
1
 62
     2
100
AcDbMText
 10
169.7551979585973
 20
309.7999996756689
 30
0.0
 40
1.8
 41
0.0
 71
     1
 72
     1
  1
document-No. / RI
  7
CONVERTER_13
 73
     1
 44
1.32052821128451
  0
TEXT
  5
2C0
330
71
100
AcDbEntity
  8
1
 62
     7
100
AcDbText
 10
169.7551979585973
 20
303.5999996756689
 30
0.0
 40
2.5
  1
00320972
 41
0.81
  7
CONVERTER_12
100
AcDbText
  0
MTEXT
  5
2C2
330
71
100
AcDbEntity
  8
1
 62
     3
100
AcDbMText
 10
257.3407983445096
 20
303.599999675669
 30
0.0
 40
2.5
 41
0.0
 71
     8
 72
     1
  1
2:1
  7
CONVERTER_14
 73
     1
 44
1.32052821128451
  0
MTEXT
  5
2C3
330
71
100
AcDbEntity
  8
1
 62
     2
100
AcDbMText
 10
253.9815942036701
 20
309.7999996756689
 30
0.0
 40
1.8
 41
0.0
 71
     1
 72
     1
  1
scale
  7
CONVERTER_11
 73
     1
 44
1.20048019207683
  0
MTEXT
  5
2C4
330
71
100
AcDbEntity
  8
1
 62
     2
100
AcDbMText
 10
169.7551979585973
 20
301.2999996756689
 30
0.0
 40
1.8
 41
0.0
 71
     1
 72
     1
  1
ident.-No.
  7
CONVERTER_11
 73
     1
 44
1.20048019207683
  0
TEXT
  5
2C5
330
71
100
AcDbEntity
  8
1
 62
     7
100
AcDbText
 10
170.1551979585971
 20
295.0999996756689
 30
0.0
 40
2.5
  1
2809212
 41
0.81
  7
CONVERTER_12
100
AcDbText
  0
MTEXT
  5
2C6
330
71
100
AcDbEntity
  8
1
 62
     2
100
AcDbMText
 10
97.84417468938778
 20
298.0499996756677
 30
0.0
 40
2.0
 41
0.0
 71
     5
 72
     1
  1
General Information\P- Simplified representation\P- Document excluded from change process\P- Linear dimensions [mm]
  7
CONVERTER_11
 73
     1
 44
1.20048019207683
  0
MTEXT
  5
2C7
330
71
100
AcDbEntity
  8
1
 62
     3
100
AcDbMText
 10
158.4551979585973
 20
306.4249996756689
 30
0.0
 40
2.5
 41
0.0
 71
     5
 72
     1
  1
DIN A3
  7
CONVERTER_11
 73
     1
 44
1.20048019207683
  0
MTEXT
  5
2C8
330
71
100
AcDbEntity
  8
1
 62
     2
100
AcDbMText
 10
169.6551979585973
 20
292.7999996756689
 30
0.0
 40
1.8
 41
0.0
 71
     1
 72
     1
  1
description
  7
CONVERTER_11
 73
     1
 44
1.20048019207683
  0
MTEXT
  5
2C9
330
71
100
AcDbEntity
  8
1
 62
     7
100
AcDbMText
 10
215.2276002219728
 20
288.5499996756691
 30
0.0
 40
3.0
 41
0.0
 71
     5
 72
     1
  1
MPB 18/1- 3
  7
CONVERTER_12
 73
     1
 44
1.20048019207683
  0
TEXT
  5
2CA
330
71
100
AcDbEntity
  8
1
 62
     2
100
AcDbText
 10
156.6905067684109
 20
286.5499996756689
 30
0.0
 40
1.8
  1
1
 41
0.9
  7
CONVERTER_11
100
AcDbText
  0
TEXT
  5
2CB
330
71
100
AcDbEntity
  8
1
 62
     2
100
AcDbText
 10
141.9014629289394
 20
286.500751021867
 30
0.0
 40
1.8
  1
1
 41
0.9
  7
CONVERTER_11
100
AcDbText
  0
TEXT
  5
2CC
330
71
100
AcDbEntity
  8
1
 62
     2
100
AcDbText
 10
133.2551979585974
 20
286.5409824606772
 30
0.0
 40
1.8
  1
page
 41
0.9
  7
CONVERTER_11
100
AcDbText
  0
TEXT
  5
2CD
330
71
100
AcDbEntity
  8
1
 62
     2
100
AcDbText
 10
151.4551979585972
 20
286.5409824606774
 30
0.0
 40
1.8
  1
of
 41
0.9
  7
CONVERTER_11
100
AcDbText
  0
MTEXT
  5
2CE
330
71
100
AcDbEntity
  8
1
 62
     3
100
AcDbMText
 10
-134.9315305143934
 20
458.2862837893232
 30
0.0
 40
1.8
 41
0.0
 71
     7
 72
     1
  3
Transfer or duplication of this document as well as the utilisation or\Pcommunication of its content are not permitted unless express consent\Pis granted. Violations give rise to claims for damages. All rights reserved\Pin case of patent, utility mo
  1
del or design patent registrations.
  7
CONVERTER_11
 11
0.0
 21
1.0
 31
0.0
 73
     1
 44
0.99639855942377
  0
MTEXT
  5
2CF
330
71
100
AcDbEntity
  8
1
 62
     3
100
AcDbMText
 10
-134.7773242032995
 20
285.3269137751701
 30
0.0
 40
1.8
 41
0.0
 71
     7
 72
     1
  3
Weitergabe sowie Vervielf\U+00e4ltigung dieses Dokuments, Verwertung und \PMitteilung seines Inhalts sind verboten, soweit nicht ausdr\U+00fccklich gestattet. \PZuwiderhandlungen verpflichten zu Schadenersatz. Alle Rechte f\U+00fcr den Fall\Pder Pat
  1
ent-, Gebrauchsmuster- oder Designeintragung vorbehalten.
  7
CONVERTER_11
 11
0.0
 21
1.0
 31
0.0
 73
     1
 44
0.99639855942377
  0
HATCH
  5
2D0
330
71
100
AcDbEntity
  8
1
  6
Continuous
 62
     2
100
AcDbHatch
 10
0.0
 20
0.0
 30
0.0
210
0.0
220
0.0
230
1.0
  2
CUSTOM0
 70
     0
 71
     1
 91
        1
 92
        1
 93
       14
 72
     2
 10
144.4964272345201
 20
294.1204044375905
 40
1.205656168390971
 50
164.9381082228768
 51
195.0618917770945
 73
     1
 72
     2
 10
144.9155550779829
 20
294.2331947996254
 40
1.639695123939437
 50
195.0618917770922
 51
275.1581447696363
 73
     1
 72
     2
 10
144.626698983247
 20
297.433085382847
 40
4.852596863498272
 50
275.1581447696238
 51
285.9799912583526
 73
     1
 72
     1
 10
145.9626269003648
 20
292.7680030770461
 11
145.9626269003648
 21
293.6405200838494
 72
     2
 10
144.7845718583398
 20
295.5308708029992
 40
2.227384008972719
 50
58.06909105003628
 51
71.55192388186632
 73
     0
 72
     2
 10
145.2027395920007
 20
294.277325026962
 40
0.9059297849848262
 50
71.55192388184605
 51
113.3722778881334
 73
     0
 72
     2
 10
145.0462995592986
 20
293.915333008252
 40
0.5115800601947491
 50
113.3722778881718
 51
151.4785267423156
 73
     0
 72
     2
 10
145.423656817379
 20
294.1204044375905
 40
0.9410597353333294
 50
151.4785267423028
 51
208.5214732577306
 73
     0
 72
     2
 10
145.0462995592986
 20
294.3254758669296
 40
0.5115800601948293
 50
208.5214732576844
 51
246.6277221118054
 73
     0
 72
     2
 10
145.2027395920007
 20
293.963483848219
 40
0.9059297849852959
 50
246.627722111868
 51
288.4480761181414
 73
     0
 72
     2
 10
144.7845718583398
 20
292.7099380721824
 40
2.227384008973465
 50
288.4480761181333
 51
301.9309089499629
 73
     0
 72
     1
 10
145.9626269003648
 20
294.6002887913322
 11
145.9626269003648
 21
295.4728057981355
 72
     2
 10
144.626698983247
 20
290.8077234923347
 40
4.852596863497986
 50
74.0200087416471
 51
84.84185523037608
 73
     1
 72
     2
 10
144.9155550779829
 20
294.0076140755557
 40
1.639695123940499
 50
84.84185523036533
 51
164.9381082228905
 73
     1
 97
       14
330
2A2
330
1EB
330
271
330
2A1
330
272
330
273
330
2A0
330
29F
330
29E
330
1EC
330
274
330
275
330
276
330
277
 75
     1
 76
     2
 52
45.0
 41
0.1
 77
     0
 78
     1
 53
45.0
 43
62.7811309658083
 44
-72.3161373035813
 45
-0.1414213562373095
 46
0.0
 79
     0
 98
        1
 10
0.0
 20
0.0
  0
HATCH
  5
2D1
330
71
100
AcDbEntity
  8
1
  6
Continuous
 62
     2
100
AcDbHatch
 10
0.0
 20
0.0
 30
0.0
210
0.0
220
0.0
230
1.0
  2
CUSTOM1
 70
     0
 71
     1
 91
        1
 92
        1
 93
       14
 72
     2
 10
144.4964272345201
 20
294.1204044375905
 40
1.205656168390971
 50
164.9381082228768
 51
195.0618917770945
 73
     1
 72
     2
 10
144.9155550779829
 20
294.2331947996254
 40
1.639695123939437
 50
195.0618917770922
 51
275.1581447696363
 73
     1
 72
     2
 10
144.626698983247
 20
297.433085382847
 40
4.852596863498272
 50
275.1581447696238
 51
285.9799912583526
 73
     1
 72
     1
 10
145.9626269003648
 20
292.7680030770461
 11
145.9626269003648
 21
293.6405200838494
 72
     2
 10
144.7845718583398
 20
295.5308708029992
 40
2.227384008972719
 50
58.06909105003628
 51
71.55192388186632
 73
     0
 72
     2
 10
145.2027395920007
 20
294.277325026962
 40
0.9059297849848262
 50
71.55192388184605
 51
113.3722778881334
 73
     0
 72
     2
 10
145.0462995592986
 20
293.915333008252
 40
0.5115800601947491
 50
113.3722778881718
 51
151.4785267423156
 73
     0
 72
     2
 10
145.423656817379
 20
294.1204044375905
 40
0.9410597353333294
 50
151.4785267423028
 51
208.5214732577306
 73
     0
 72
     2
 10
145.0462995592986
 20
294.3254758669296
 40
0.5115800601948293
 50
208.5214732576844
 51
246.6277221118054
 73
     0
 72
     2
 10
145.2027395920007
 20
293.963483848219
 40
0.9059297849852959
 50
246.627722111868
 51
288.4480761181414
 73
     0
 72
     2
 10
144.7845718583398
 20
292.7099380721824
 40
2.227384008973465
 50
288.4480761181333
 51
301.9309089499629
 73
     0
 72
     1
 10
145.9626269003648
 20
294.6002887913322
 11
145.9626269003648
 21
295.4728057981355
 72
     2
 10
144.626698983247
 20
290.8077234923347
 40
4.852596863497986
 50
74.0200087416471
 51
84.84185523037608
 73
     1
 72
     2
 10
144.9155550779829
 20
294.0076140755557
 40
1.639695123940499
 50
84.84185523036533
 51
164.9381082228905
 73
     1
 97
       14
330
2A2
330
1EB
330
271
330
2A1
330
272
330
273
330
2A0
330
29F
330
29E
330
1EC
330
274
330
275
330
276
330
277
 75
     1
 76
     2
 52
45.0
 41
0.1
 77
     0
 78
     1
 53
45.0
 43
62.7811309658083
 44
-72.3161373035813
 45
-0.1414213562373095
 46
0.0
 79
     0
 98
        1
 10
0.0
 20
0.0
  0
HATCH
  5
2D2
330
71
100
AcDbEntity
  8
1
  6
Continuous
 62
     2
100
AcDbHatch
 10
0.0
 20
0.0
 30
0.0
210
0.0
220
0.0
230
1.0
  2
CUSTOM2
 70
     0
 71
     1
 91
        1
 92
        1
 93
       18
 72
     2
 10
161.0182565572358
 20
294.0076140755557
 40
1.639695123940101
 50
90.0
 51
164.9381082228993
 73
     1
 72
     2
 10
160.5991287137741
 20
294.1204044375905
 40
1.205656168392975
 50
164.9381082229024
 51
195.0618917770897
 73
     1
 72
     2
 10
161.0182565572358
 20
294.2331947996254
 40
1.639695123940488
 50
195.0618917770988
 51
275.1581447696772
 73
     1
 72
     2
 10
160.7294004624999
 20
297.433085382847
 40
4.852596863498889
 50
275.1581447696373
 51
285.9799912583383
 73
     1
 72
     1
 10
162.0653283796166
 20
292.7680030770456
 11
162.0653283796166
 21
293.6405200838489
 72
     2
 10
160.8872733375927
 20
295.5308708029987
 40
2.227384008972773
 50
58.06909105006066
 51
71.55192388186677
 73
     0
 72
     2
 10
161.3054410712547
 20
294.277325026962
 40
0.9059297849852208
 50
71.55192388192279
 51
113.3722778881912
 73
     0
 72
     2
 10
161.1490010385515
 20
293.915333008252
 40
0.5115800601959967
 50
113.3722778881601
 51
151.4785267423119
 73
     0
 72
     2
 10
161.526358296633
 20
294.1204044375905
 40
0.9410597353350352
 50
151.478526742333
 51
208.5214732576427
 73
     0
 72
     2
 10
161.1490010385515
 20
294.3254758669296
 40
0.5115800601944048
 50
208.5214732575818
 51
250.6628567805177
 73
     0
 72
     2
 10
161.2956710366552
 20
293.9075208865466
 40
0.9545230068260935
 50
250.6628567805719
 51
270.0
 73
     0
 72
     1
 10
161.2956710366552
 20
294.8620438933727
 11
162.3993103362233
 21
294.8620438933727
 72
     1
 10
162.3993103362233
 20
294.8620438933727
 11
162.3993103362233
 21
292.5934996756853
 72
     1
 10
162.3993103362233
 20
292.5934996756853
 11
163.592103038391
 21
292.5934996756853
 72
     1
 10
163.592103038391
 20
292.5934996756853
 11
163.592103038391
 21
294.8620438933727
 72
     1
 10
163.592103038391
 20
294.8620438933727
 11
164.4032020758644
 21
294.8620438933727
 72
     1
 10
164.4032020758644
 20
294.8620438933727
 11
164.4032020758644
 21
295.6473091994964
 72
     1
 10
164.4032020758644
 20
295.6473091994964
 11
161.0182565572358
 21
295.6473091994958
 97
       18
330
251
330
250
330
24F
330
24E
330
253
330
1ED
330
29B
330
27C
330
29A
330
27D
330
299
330
298
330
1EE
330
297
330
296
330
27E
330
27F
330
252
 75
     1
 76
     2
 52
45.0
 41
0.1
 77
     0
 78
     1
 53
45.0
 43
62.7811309658083
 44
-72.3161373035813
 45
-0.1414213562373095
 46
0.0
 79
     0
 98
        1
 10
0.0
 20
0.0
  0
HATCH
  5
2D3
330
71
100
AcDbEntity
  8
1
  6
Continuous
 62
     2
100
AcDbHatch
 10
0.0
 20
0.0
 30
0.0
210
0.0
220
0.0
230
1.0
  2
CUSTOM3
 70
     0
 71
     1
 91
        1
 92
        1
 93
       18
 72
     2
 10
161.0182565572358
 20
294.0076140755557
 40
1.639695123940101
 50
90.0
 51
164.9381082228993
 73
     1
 72
     2
 10
160.5991287137741
 20
294.1204044375905
 40
1.205656168392975
 50
164.9381082229024
 51
195.0618917770897
 73
     1
 72
     2
 10
161.0182565572358
 20
294.2331947996254
 40
1.639695123940488
 50
195.0618917770988
 51
275.1581447696772
 73
     1
 72
     2
 10
160.7294004624999
 20
297.433085382847
 40
4.852596863498889
 50
275.1581447696373
 51
285.9799912583383
 73
     1
 72
     1
 10
162.0653283796166
 20
292.7680030770456
 11
162.0653283796166
 21
293.6405200838489
 72
     2
 10
160.8872733375927
 20
295.5308708029987
 40
2.227384008972773
 50
58.06909105006066
 51
71.55192388186677
 73
     0
 72
     2
 10
161.3054410712547
 20
294.277325026962
 40
0.9059297849852208
 50
71.55192388192279
 51
113.3722778881912
 73
     0
 72
     2
 10
161.1490010385515
 20
293.915333008252
 40
0.5115800601959967
 50
113.3722778881601
 51
151.4785267423119
 73
     0
 72
     2
 10
161.526358296633
 20
294.1204044375905
 40
0.9410597353350352
 50
151.478526742333
 51
208.5214732576427
 73
     0
 72
     2
 10
161.1490010385515
 20
294.3254758669296
 40
0.5115800601944048
 50
208.5214732575818
 51
250.6628567805177
 73
     0
 72
     2
 10
161.2956710366552
 20
293.9075208865466
 40
0.9545230068260935
 50
250.6628567805719
 51
270.0
 73
     0
 72
     1
 10
161.2956710366552
 20
294.8620438933727
 11
162.3993103362233
 21
294.8620438933727
 72
     1
 10
162.3993103362233
 20
294.8620438933727
 11
162.3993103362233
 21
292.5934996756853
 72
     1
 10
162.3993103362233
 20
292.5934996756853
 11
163.592103038391
 21
292.5934996756853
 72
     1
 10
163.592103038391
 20
292.5934996756853
 11
163.592103038391
 21
294.8620438933727
 72
     1
 10
163.592103038391
 20
294.8620438933727
 11
164.4032020758644
 21
294.8620438933727
 72
     1
 10
164.4032020758644
 20
294.8620438933727
 11
164.4032020758644
 21
295.6473091994964
 72
     1
 10
164.4032020758644
 20
295.6473091994964
 11
161.0182565572358
 21
295.6473091994958
 97
       18
330
251
330
250
330
24F
330
24E
330
253
330
1ED
330
29B
330
27C
330
29A
330
27D
330
299
330
298
330
1EE
330
297
330
296
330
27E
330
27F
330
252
 75
     1
 76
     2
 52
45.0
 41
0.1
 77
     0
 78
     1
 53
45.0
 43
62.7811309658083
 44
-72.3161373035813
 45
-0.1414213562373095
 46
0.0
 79
     0
 98
        1
 10
0.0
 20
0.0
  0
HATCH
  5
2D4
330
71
100
AcDbEntity
  8
1
  6
Continuous
 62
     2
100
AcDbHatch
 10
0.0
 20
0.0
 30
0.0
210
0.0
220
0.0
230
1.0
  2
CUSTOM4
 70
     0
 71
     1
 91
        4
 92
        1
 93
        8
 72
     2
 10
136.9160974605427
 20
298.5822550602687
 40
0.4242446153838841
 50
90.0
 51
180.0
 73
     1
 72
     1
 10
136.4918528451599
 20
298.5822550602687
 11
136.4918528451599
 21
293.0177442910685
 72
     2
 10
136.9160974605427
 20
293.0177442910685
 40
0.4242446153827757
 50
180.0
 51
270.0
 73
     1
 72
     1
 10
136.9160974605427
 20
292.5934996756853
 11
142.3894095512596
 21
292.5934996756853
 72
     2
 10
142.3894095512596
 20
293.0177442910685
 40
0.424244615383202
 50
270.0
 51
360.0
 73
     1
 72
     1
 10
142.8136541666435
 20
293.0177442910685
 11
142.8136541666435
 21
298.5822550602687
 72
     2
 10
142.3894095512596
 20
298.5822550602687
 40
0.4242446153838841
 50
0.0
 51
90.0
 73
     1
 72
     1
 10
142.3894095512596
 20
299.0064996756526
 11
136.9160974605427
 21
299.0064996756526
 97
        8
330
28F
330
21C
330
28E
330
21D
330
285
330
21A
330
290
330
21B
 92
       16
 93
       12
 72
     1
 10
137.5099921372892
 20
293.3060552312422
 11
138.9858253982988
 21
293.3060552312422
 72
     2
 10
138.9858253982988
 20
293.6217721543189
 40
0.3157169230766499
 50
270.0
 51
360.0
 73
     1
 72
     1
 10
139.3015423213754
 20
293.6217721543189
 11
139.3015423213754
 21
295.1525430858505
 72
     2
 10
138.9858253982988
 20
295.1525430858505
 40
0.315716923076593
 50
0.0
 51
64.805589351446
 73
     1
 72
     2
 10
139.5084098458738
 20
296.2633728319132
 40
0.9118975235576555
 50
115.1944106485105
 51
244.8055893514789
 73
     0
 72
     2
 10
138.9858253982988
 20
297.3742025779754
 40
0.3157169230760658
 50
295.1944106485672
 51
360.0
 73
     1
 72
     1
 10
139.3015423213754
 20
297.3742025779754
 11
139.3015423213754
 21
297.978227197036
 72
     2
 10
138.9858253982988
 20
297.978227197036
 40
0.315716923076593
 50
0.0
 51
90.0
 73
     1
 72
     1
 10
138.9858253982988
 20
298.2939441201121
 11
137.5099921372892
 21
298.2939441201121
 72
     2
 10
137.5099921372892
 20
297.978227197036
 40
0.3157169230760815
 50
90.0
 51
180.0
 73
     1
 72
     1
 10
137.1942752142136
 20
297.978227197036
 11
137.1942752142136
 21
293.6217721543189
 72
     2
 10
137.5099921372892
 20
293.6217721543189
 40
0.3157169230755983
 50
180.0
 51
270.0
 73
     1
 97
       12
330
221
330
282
330
220
330
293
330
21F
330
292
330
283
330
284
330
21E
330
291
330
219
330
294
 92
       16
 93
        8
 72
     2
 10
139.5594981257331
 20
296.2633728319132
 40
0.9118481501443819
 50
295.3740086781787
 51
424.6259913218105
 73
     1
 72
     2
 10
140.085540823821
 20
297.372514431881
 40
0.315716923076792
 50
115.3740086783651
 51
180.0
 73
     0
 72
     1
 10
139.7698239007442
 20
297.372514431881
 11
139.7698239007442
 21
297.9780497203878
 72
     2
 10
140.085540823821
 20
297.9780497203878
 40
0.3157169230761851
 50
180.0
 51
269.8110329574335
 73
     0
 72
     2
 10
140.091156959131
 20
296.2752147728188
 40
2.018561131933266
 50
269.8110329575827
 51
450.1889670424174
 73
     0
 72
     2
 10
140.085540823821
 20
294.5723798252498
 40
0.315716923076792
 50
90.18896704256652
 51
180.0
 73
     0
 72
     1
 10
139.7698239007442
 20
294.5723798252498
 11
139.7698239007442
 21
295.1542312319449
 72
     2
 10
140.085540823821
 20
295.1542312319449
 40
0.3157169230765328
 50
180.0
 51
244.6259913216482
 73
     0
 97
        8
330
29D
330
279
330
255
330
29C
330
27A
330
27B
330
254
330
278
 92
       16
 93
        1
 72
     2
 10
139.5356831110603
 20
296.2633728319132
 40
0.470978932778479
 50
0.0
 51
360.0
 73
     1
 97
        1
330
2A3
 75
     1
 76
     2
 52
45.0
 41
0.1
 77
     0
 78
     1
 53
45.0
 43
62.7811309658083
 44
-72.3161373035813
 45
-0.1414213562373095
 46
0.0
 79
     0
 98
        1
 10
0.0
 20
0.0
  0
HATCH
  5
2D5
330
71
100
AcDbEntity
  8
1
  6
Continuous
 62
     2
100
AcDbHatch
 10
0.0
 20
0.0
 30
0.0
210
0.0
220
0.0
230
1.0
  2
CUSTOM5
 70
     0
 71
     1
 91
        4
 92
        1
 93
        8
 72
     2
 10
136.9160974605427
 20
298.5822550602687
 40
0.4242446153838841
 50
90.0
 51
180.0
 73
     1
 72
     1
 10
136.4918528451599
 20
298.5822550602687
 11
136.4918528451599
 21
293.0177442910685
 72
     2
 10
136.9160974605427
 20
293.0177442910685
 40
0.4242446153827757
 50
180.0
 51
270.0
 73
     1
 72
     1
 10
136.9160974605427
 20
292.5934996756853
 11
142.3894095512596
 21
292.5934996756853
 72
     2
 10
142.3894095512596
 20
293.0177442910685
 40
0.424244615383202
 50
270.0
 51
360.0
 73
     1
 72
     1
 10
142.8136541666435
 20
293.0177442910685
 11
142.8136541666435
 21
298.5822550602687
 72
     2
 10
142.3894095512596
 20
298.5822550602687
 40
0.4242446153838841
 50
0.0
 51
90.0
 73
     1
 72
     1
 10
142.3894095512596
 20
299.0064996756526
 11
136.9160974605427
 21
299.0064996756526
 97
        8
330
28F
330
21C
330
28E
330
21D
330
285
330
21A
330
290
330
21B
 92
       16
 93
       12
 72
     1
 10
137.5099921372892
 20
293.3060552312422
 11
138.9858253982988
 21
293.3060552312422
 72
     2
 10
138.9858253982988
 20
293.6217721543189
 40
0.3157169230766499
 50
270.0
 51
360.0
 73
     1
 72
     1
 10
139.3015423213754
 20
293.6217721543189
 11
139.3015423213754
 21
295.1525430858505
 72
     2
 10
138.9858253982988
 20
295.1525430858505
 40
0.315716923076593
 50
0.0
 51
64.805589351446
 73
     1
 72
     2
 10
139.5084098458738
 20
296.2633728319132
 40
0.9118975235576555
 50
115.1944106485105
 51
244.8055893514789
 73
     0
 72
     2
 10
138.9858253982988
 20
297.3742025779754
 40
0.3157169230760658
 50
295.1944106485672
 51
360.0
 73
     1
 72
     1
 10
139.3015423213754
 20
297.3742025779754
 11
139.3015423213754
 21
297.978227197036
 72
     2
 10
138.9858253982988
 20
297.978227197036
 40
0.315716923076593
 50
0.0
 51
90.0
 73
     1
 72
     1
 10
138.9858253982988
 20
298.2939441201121
 11
137.5099921372892
 21
298.2939441201121
 72
     2
 10
137.5099921372892
 20
297.978227197036
 40
0.3157169230760815
 50
90.0
 51
180.0
 73
     1
 72
     1
 10
137.1942752142136
 20
297.978227197036
 11
137.1942752142136
 21
293.6217721543189
 72
     2
 10
137.5099921372892
 20
293.6217721543189
 40
0.3157169230755983
 50
180.0
 51
270.0
 73
     1
 97
       12
330
221
330
282
330
220
330
293
330
21F
330
292
330
283
330
284
330
21E
330
291
330
219
330
294
 92
       16
 93
        8
 72
     2
 10
139.5594981257331
 20
296.2633728319132
 40
0.9118481501443819
 50
295.3740086781787
 51
424.6259913218105
 73
     1
 72
     2
 10
140.085540823821
 20
297.372514431881
 40
0.315716923076792
 50
115.3740086783651
 51
180.0
 73
     0
 72
     1
 10
139.7698239007442
 20
297.372514431881
 11
139.7698239007442
 21
297.9780497203878
 72
     2
 10
140.085540823821
 20
297.9780497203878
 40
0.3157169230761851
 50
180.0
 51
269.8110329574335
 73
     0
 72
     2
 10
140.091156959131
 20
296.2752147728188
 40
2.018561131933266
 50
269.8110329575827
 51
450.1889670424174
 73
     0
 72
     2
 10
140.085540823821
 20
294.5723798252498
 40
0.315716923076792
 50
90.18896704256652
 51
180.0
 73
     0
 72
     1
 10
139.7698239007442
 20
294.5723798252498
 11
139.7698239007442
 21
295.1542312319449
 72
     2
 10
140.085540823821
 20
295.1542312319449
 40
0.3157169230765328
 50
180.0
 51
244.6259913216482
 73
     0
 97
        8
330
29D
330
279
330
255
330
29C
330
27A
330
27B
330
254
330
278
 92
       16
 93
        1
 72
     2
 10
139.5356831110603
 20
296.2633728319132
 40
0.470978932778479
 50
0.0
 51
360.0
 73
     1
 97
        1
330
2A3
 75
     1
 76
     2
 52
45.0
 41
0.1
 77
     0
 78
     1
 53
45.0
 43
62.7811309658083
 44
-72.3161373035813
 45
-0.1414213562373095
 46
0.0
 79
     0
 98
        1
 10
0.0
 20
0.0
  0
HATCH
  5
2D6
330
71
100
AcDbEntity
  8
1
  6
Continuous
 62
     2
100
AcDbHatch
 10
0.0
 20
0.0
 30
0.0
210
0.0
220
0.0
230
1.0
  2
CUSTOM6
 70
     0
 71
     1
 91
        2
 92
        1
 93
       12
 72
     2
 10
151.5912614645321
 20
297.4795949137649
 40
1.526904761905769
 50
90.0
 51
270.0
 73
     1
 72
     1
 10
151.5912614645321
 20
295.9526901518596
 11
154.741581188313
 21
295.9526901518596
 72
     1
 10
154.741581188313
 20
295.9526901518596
 11
154.741581188313
 21
296.650703757302
 72
     1
 10
154.741581188313
 20
296.650703757302
 11
153.4056533618854
 21
296.650703757302
 72
     1
 10
153.4056533618854
 20
296.650703757302
 11
153.4056533618854
 21
297.1305881110437
 72
     1
 10
153.4056533618854
 20
297.1305881110437
 11
154.741581188313
 21
297.1305881110437
 72
     1
 10
154.741581188313
 20
297.1305881110437
 11
154.741581188313
 21
297.8286017164861
 72
     1
 10
154.741581188313
 20
297.8286017164861
 11
153.4056533618854
 21
297.8286017164861
 72
     1
 10
153.4056533618854
 20
297.8286017164861
 11
153.4056533618854
 21
298.3084860702278
 72
     1
 10
153.4056533618854
 20
298.3084860702278
 11
154.741581188313
 21
298.3084860702278
 72
     1
 10
154.741581188313
 20
298.3084860702278
 11
154.741581188313
 21
299.0064996756707
 72
     1
 10
154.741581188313
 20
299.0064996756707
 11
151.5912614645321
 21
299.0064996756707
 97
       12
330
210
330
20A
330
231
330
230
330
22F
330
22E
330
20B
330
20C
330
20D
330
20E
330
280
330
20F
 92
       16
 93
        4
 72
     2
 10
152.0072735110435
 20
297.4795949137649
 40
0.7717997786796245
 50
141.8795802028484
 51
218.1204197971549
 73
     1
 72
     2
 10
151.8075334746973
 20
297.3228637356444
 40
0.5179085730134564
 50
218.1204197971334
 51
321.8795802028588
 73
     1
 72
     2
 10
151.6077934383511
 20
297.4795949137649
 40
0.7717997786795479
 50
321.8795802028385
 51
398.1204197971581
 73
     1
 72
     2
 10
151.8075334746973
 20
297.6363260918854
 40
0.5179085730133669
 50
38.12041979714121
 51
141.8795802028666
 73
     1
 97
        4
330
28D
330
28C
330
287
330
286
 75
     1
 76
     2
 52
45.0
 41
0.1
 77
     0
 78
     1
 53
45.0
 43
62.7811309658083
 44
-72.3161373035813
 45
-0.1414213562373095
 46
0.0
 79
     0
 98
        1
 10
0.0
 20
0.0
  0
HATCH
  5
2D7
330
71
100
AcDbEntity
  8
1
  6
Continuous
 62
     2
100
AcDbHatch
 10
0.0
 20
0.0
 30
0.0
210
0.0
220
0.0
230
1.0
  2
CUSTOM7
 70
     0
 71
     1
 91
        2
 92
        1
 93
       12
 72
     2
 10
151.5912614645321
 20
297.4795949137649
 40
1.526904761905769
 50
90.0
 51
270.0
 73
     1
 72
     1
 10
151.5912614645321
 20
295.9526901518596
 11
154.741581188313
 21
295.9526901518596
 72
     1
 10
154.741581188313
 20
295.9526901518596
 11
154.741581188313
 21
296.650703757302
 72
     1
 10
154.741581188313
 20
296.650703757302
 11
153.4056533618854
 21
296.650703757302
 72
     1
 10
153.4056533618854
 20
296.650703757302
 11
153.4056533618854
 21
297.1305881110437
 72
     1
 10
153.4056533618854
 20
297.1305881110437
 11
154.741581188313
 21
297.1305881110437
 72
     1
 10
154.741581188313
 20
297.1305881110437
 11
154.741581188313
 21
297.8286017164861
 72
     1
 10
154.741581188313
 20
297.8286017164861
 11
153.4056533618854
 21
297.8286017164861
 72
     1
 10
153.4056533618854
 20
297.8286017164861
 11
153.4056533618854
 21
298.3084860702278
 72
     1
 10
153.4056533618854
 20
298.3084860702278
 11
154.741581188313
 21
298.3084860702278
 72
     1
 10
154.741581188313
 20
298.3084860702278
 11
154.741581188313
 21
299.0064996756707
 72
     1
 10
154.741581188313
 20
299.0064996756707
 11
151.5912614645321
 21
299.0064996756707
 97
       12
330
210
330
20A
330
231
330
230
330
22F
330
22E
330
20B
330
20C
330
20D
330
20E
330
280
330
20F
 92
       16
 93
        4
 72
     2
 10
152.0072735110435
 20
297.4795949137649
 40
0.7717997786796245
 50
141.8795802028484
 51
218.1204197971549
 73
     1
 72
     2
 10
151.8075334746973
 20
297.3228637356444
 40
0.5179085730134564
 50
218.1204197971334
 51
321.8795802028588
 73
     1
 72
     2
 10
151.6077934383511
 20
297.4795949137649
 40
0.7717997786795479
 50
321.8795802028385
 51
398.1204197971581
 73
     1
 72
     2
 10
151.8075334746973
 20
297.6363260918854
 40
0.5179085730133669
 50
38.12041979714121
 51
141.8795802028666
 73
     1
 97
        4
330
28D
330
28C
330
287
330
286
 75
     1
 76
     2
 52
45.0
 41
0.1
 77
     0
 78
     1
 53
45.0
 43
62.7811309658083
 44
-72.3161373035813
 45
-0.1414213562373095
 46
0.0
 79
     0
 98
        1
 10
0.0
 20
0.0
  0
HATCH
  5
2D8
330
71
100
AcDbEntity
  8
1
  6
Continuous
 62
     2
100
AcDbHatch
 10
0.0
 20
0.0
 30
0.0
210
0.0
220
0.0
230
1.0
  2
CUSTOM8
 70
     0
 71
     1
 91
        2
 92
        1
 93
        4
 72
     2
 10
147.5656461020704
 20
294.1204044375905
 40
1.458034083651616
 50
117.5481481756598
 51
242.451851824337
 73
     1
 72
     2
 10
147.8465859939038
 20
294.6589794478939
 40
2.065479772208637
 50
242.4518518243384
 51
297.548148175686
 73
     1
 72
     2
 10
148.127525885737
 20
294.1204044375905
 40
1.45803408365203
 50
297.5481481757055
 51
422.4518518242976
 73
     1
 72
     2
 10
147.8465859939038
 20
293.5818294272877
 40
2.065479772208694
 50
62.45185182430819
 51
117.5481481756674
 73
     1
 97
        4
330
28B
330
288
330
28A
330
289
 92
       16
 93
        4
 72
     2
 10
147.8465859939038
 20
294.277135615711
 40
0.5179085730132806
 50
38.12041979716469
 51
141.8795802028567
 73
     1
 72
     2
 10
148.0463260302498
 20
294.1204044375905
 40
0.771799778679551
 50
141.879580202828
 51
218.120419797162
 73
     1
 72
     2
 10
147.8465859939038
 20
293.9636732594706
 40
0.5179085730138424
 50
218.1204197971879
 51
321.8795802027908
 73
     1
 72
     2
 10
147.6468459575574
 20
294.1204044375905
 40
0.7717997786795351
 50
321.8795802028432
 51
398.1204197971668
 73
     1
 97
        4
330
26E
330
26F
330
270
330
26D
 75
     1
 76
     2
 52
45.0
 41
0.1
 77
     0
 78
     1
 53
45.0
 43
62.7811309658083
 44
-72.3161373035813
 45
-0.1414213562373095
 46
0.0
 79
     0
 98
        1
 10
0.0
 20
0.0
  0
HATCH
  5
2D9
330
71
100
AcDbEntity
  8
1
  6
Continuous
 62
     2
100
AcDbHatch
 10
0.0
 20
0.0
 30
0.0
210
0.0
220
0.0
230
1.0
  2
CUSTOM9
 70
     0
 71
     1
 91
        2
 92
        1
 93
        4
 72
     2
 10
147.5656461020704
 20
294.1204044375905
 40
1.458034083651616
 50
117.5481481756598
 51
242.451851824337
 73
     1
 72
     2
 10
147.8465859939038
 20
294.6589794478939
 40
2.065479772208637
 50
242.4518518243384
 51
297.548148175686
 73
     1
 72
     2
 10
148.127525885737
 20
294.1204044375905
 40
1.45803408365203
 50
297.5481481757055
 51
422.4518518242976
 73
     1
 72
     2
 10
147.8465859939038
 20
293.5818294272877
 40
2.065479772208694
 50
62.45185182430819
 51
117.5481481756674
 73
     1
 97
        4
330
28B
330
288
330
28A
330
289
 92
       16
 93
        4
 72
     2
 10
147.8465859939038
 20
294.277135615711
 40
0.5179085730132806
 50
38.12041979716469
 51
141.8795802028567
 73
     1
 72
     2
 10
148.0463260302498
 20
294.1204044375905
 40
0.771799778679551
 50
141.879580202828
 51
218.120419797162
 73
     1
 72
     2
 10
147.8465859939038
 20
293.9636732594706
 40
0.5179085730138424
 50
218.1204197971879
 51
321.8795802027908
 73
     1
 72
     2
 10
147.6468459575574
 20
294.1204044375905
 40
0.7717997786795351
 50
321.8795802028432
 51
398.1204197971668
 73
     1
 97
        4
330
26E
330
26F
330
270
330
26D
 75
     1
 76
     2
 52
45.0
 41
0.1
 77
     0
 78
     1
 53
45.0
 43
62.7811309658083
 44
-72.3161373035813
 45
-0.1414213562373095
 46
0.0
 79
     0
 98
        1
 10
0.0
 20
0.0
  0
HATCH
  5
2DA
330
71
100
AcDbEntity
  8
1
  6
Continuous
 62
     2
100
AcDbHatch
 10
0.0
 20
0.0
 30
0.0
210
0.0
220
0.0
230
1.0
  2
CUSTOM10
 70
     0
 71
     1
 91
        2
 92
        1
 93
        6
 72
     1
 10
143.2907712475103
 20
299.0064996756707
 11
143.2907712475103
 21
295.9526901518596
 72
     1
 10
143.2907712475103
 20
295.9526901518596
 11
144.5312756577643
 21
295.9526901518596
 72
     1
 10
144.5312756577643
 20
295.9526901518596
 11
144.5312756577643
 21
296.8957683930033
 72
     1
 10
144.5312756577643
 20
296.8957683930033
 11
145.2900432455447
 21
296.8957683930033
 72
     2
 10
145.2900432455447
 20
297.951134034337
 40
1.055365641333651
 50
270.0
 51
450.0
 73
     1
 72
     1
 10
145.2900432455447
 20
299.0064996756707
 11
143.2907712475103
 21
299.0064996756707
 97
        6
330
295
330
222
330
218
330
217
330
224
330
223
 92
       16
 93
        4
 72
     1
 10
144.8485707193063
 20
298.3433938302307
 11
144.5312756577643
 21
298.3433938302307
 72
     1
 10
144.5312756577643
 20
298.3433938302307
 11
144.5312756577643
 21
297.6376661808884
 72
     1
 10
144.5312756577643
 20
297.6376661808884
 11
144.8485707193063
 21
297.6376661808884
 72
     2
 10
144.8485707193063
 20
297.9905300055595
 40
0.3528638246710898
 50
270.0
 51
450.0
 73
     1
 97
        4
330
225
330
216
330
226
330
281
 75
     1
 76
     2
 52
45.0
 41
0.1
 77
     0
 78
     1
 53
45.0
 43
62.7811309658083
 44
-72.3161373035813
 45
-0.1414213562373095
 46
0.0
 79
     0
 98
        1
 10
0.0
 20
0.0
  0
HATCH
  5
2DB
330
71
100
AcDbEntity
  8
1
  6
Continuous
 62
     2
100
AcDbHatch
 10
0.0
 20
0.0
 30
0.0
210
0.0
220
0.0
230
1.0
  2
CUSTOM11
 70
     0
 71
     1
 91
        2
 92
        1
 93
        6
 72
     1
 10
143.2907712475103
 20
299.0064996756707
 11
143.2907712475103
 21
295.9526901518596
 72
     1
 10
143.2907712475103
 20
295.9526901518596
 11
144.5312756577643
 21
295.9526901518596
 72
     1
 10
144.5312756577643
 20
295.9526901518596
 11
144.5312756577643
 21
296.8957683930033
 72
     1
 10
144.5312756577643
 20
296.8957683930033
 11
145.2900432455447
 21
296.8957683930033
 72
     2
 10
145.2900432455447
 20
297.951134034337
 40
1.055365641333651
 50
270.0
 51
450.0
 73
     1
 72
     1
 10
145.2900432455447
 20
299.0064996756707
 11
143.2907712475103
 21
299.0064996756707
 97
        6
330
295
330
222
330
218
330
217
330
224
330
223
 92
       16
 93
        4
 72
     1
 10
144.8485707193063
 20
298.3433938302307
 11
144.5312756577643
 21
298.3433938302307
 72
     1
 10
144.5312756577643
 20
298.3433938302307
 11
144.5312756577643
 21
297.6376661808884
 72
     1
 10
144.5312756577643
 20
297.6376661808884
 11
144.8485707193063
 21
297.6376661808884
 72
     2
 10
144.8485707193063
 20
297.9905300055595
 40
0.3528638246710898
 50
270.0
 51
450.0
 73
     1
 97
        4
330
225
330
216
330
226
330
281
 75
     1
 76
     2
 52
45.0
 41
0.1
 77
     0
 78
     1
 53
45.0
 43
62.7811309658083
 44
-72.3161373035813
 45
-0.1414213562373095
 46
0.0
 79
     0
 98
        1
 10
0.0
 20
0.0
  0
HATCH
  5
2DC
330
71
100
AcDbEntity
  8
1
  6
Continuous
 62
     2
100
AcDbHatch
 10
0.0
 20
0.0
 30
0.0
210
0.0
220
0.0
230
1.0
  2
CUSTOM12
 70
     0
 71
     1
 91
        1
 92
        1
 93
       12
 72
     1
 10
162.9050544419435
 20
299.0064996756707
 11
164.3077786596907
 21
299.0064996756707
 72
     1
 10
164.3077786596907
 20
299.0064996756707
 11
163.0052490289241
 21
297.5335491456345
 72
     1
 10
163.0052490289241
 20
297.5335491456345
 11
164.4032020758644
 21
295.9526901518596
 72
     1
 10
164.4032020758644
 20
295.9526901518596
 11
163.0004778581161
 21
295.9526901518596
 72
     1
 10
163.0004778581161
 20
295.9526901518596
 11
162.3038869200507
 21
296.7404219371533
 72
     1
 10
162.3038869200507
 20
296.7404219371533
 11
161.6072959819849
 21
295.9526901518596
 72
     1
 10
161.6072959819849
 20
295.9526901518596
 11
160.2045717642368
 21
295.9526901518596
 72
     1
 10
160.2045717642368
 20
295.9526901518596
 11
161.6025248111771
 21
297.5335491456345
 72
     1
 10
161.6025248111771
 20
297.5335491456345
 11
160.2999951804096
 21
299.0064996756707
 72
     1
 10
160.2999951804096
 20
299.0064996756707
 11
161.7027193981588
 21
299.0064996756707
 72
     1
 10
161.7027193981588
 20
299.0064996756707
 11
162.3038869200507
 21
298.3266763541152
 72
     1
 10
162.3038869200507
 20
298.3266763541152
 11
162.9050544419435
 21
299.0064996756707
 97
       12
330
1F1
330
24A
330
249
330
248
330
247
330
1F2
330
1F3
330
1EF
330
1F0
330
24D
330
24C
330
24B
 75
     1
 76
     2
 52
45.0
 41
0.1
 77
     0
 78
     1
 53
45.0
 43
62.7811309658083
 44
-72.3161373035813
 45
-0.1414213562373095
 46
0.0
 79
     0
 98
        1
 10
0.0
 20
0.0
  0
HATCH
  5
2DD
330
71
100
AcDbEntity
  8
1
  6
Continuous
 62
     2
100
AcDbHatch
 10
0.0
 20
0.0
 30
0.0
210
0.0
220
0.0
230
1.0
  2
CUSTOM13
 70
     0
 71
     1
 91
        1
 92
        1
 93
       12
 72
     1
 10
162.9050544419435
 20
299.0064996756707
 11
164.3077786596907
 21
299.0064996756707
 72
     1
 10
164.3077786596907
 20
299.0064996756707
 11
163.0052490289241
 21
297.5335491456345
 72
     1
 10
163.0052490289241
 20
297.5335491456345
 11
164.4032020758644
 21
295.9526901518596
 72
     1
 10
164.4032020758644
 20
295.9526901518596
 11
163.0004778581161
 21
295.9526901518596
 72
     1
 10
163.0004778581161
 20
295.9526901518596
 11
162.3038869200507
 21
296.7404219371533
 72
     1
 10
162.3038869200507
 20
296.7404219371533
 11
161.6072959819849
 21
295.9526901518596
 72
     1
 10
161.6072959819849
 20
295.9526901518596
 11
160.2045717642368
 21
295.9526901518596
 72
     1
 10
160.2045717642368
 20
295.9526901518596
 11
161.6025248111771
 21
297.5335491456345
 72
     1
 10
161.6025248111771
 20
297.5335491456345
 11
160.2999951804096
 21
299.0064996756707
 72
     1
 10
160.2999951804096
 20
299.0064996756707
 11
161.7027193981588
 21
299.0064996756707
 72
     1
 10
161.7027193981588
 20
299.0064996756707
 11
162.3038869200507
 21
298.3266763541152
 72
     1
 10
162.3038869200507
 20
298.3266763541152
 11
162.9050544419435
 21
299.0064996756707
 97
       12
330
1F1
330
24A
330
249
330
248
330
247
330
1F2
330
1F3
330
1EF
330
1F0
330
24D
330
24C
330
24B
 75
     1
 76
     2
 52
45.0
 41
0.1
 77
     0
 78
     1
 53
45.0
 43
62.7811309658083
 44
-72.3161373035813
 45
-0.1414213562373095
 46
0.0
 79
     0
 98
        1
 10
0.0
 20
0.0
  0
HATCH
  5
2DE
330
71
100
AcDbEntity
  8
1
  6
Continuous
 62
     2
100
AcDbHatch
 10
0.0
 20
0.0
 30
0.0
210
0.0
220
0.0
230
1.0
  2
CUSTOM14
 70
     0
 71
     1
 91
        1
 92
        1
 93
        4
 72
     1
 10
160.0852924940199
 20
299.0064996756707
 11
160.0852924940199
 21
295.9526901518596
 72
     1
 10
160.0852924940199
 20
295.9526901518596
 11
158.844788083767
 21
295.9526901518596
 72
     1
 10
158.844788083767
 20
295.9526901518596
 11
158.844788083767
 21
299.0064996756707
 72
     1
 10
158.844788083767
 20
299.0064996756707
 11
160.0852924940199
 21
299.0064996756707
 97
        4
330
245
330
1F4
330
244
330
246
 75
     1
 76
     2
 52
45.0
 41
0.1
 77
     0
 78
     1
 53
45.0
 43
62.7811309658083
 44
-72.3161373035813
 45
-0.1414213562373095
 46
0.0
 79
     0
 98
        1
 10
0.0
 20
0.0
  0
HATCH
  5
2DF
330
71
100
AcDbEntity
  8
1
  6
Continuous
 62
     2
100
AcDbHatch
 10
0.0
 20
0.0
 30
0.0
210
0.0
220
0.0
230
1.0
  2
CUSTOM15
 70
     0
 71
     1
 91
        1
 92
        1
 93
        4
 72
     1
 10
160.0852924940199
 20
299.0064996756707
 11
160.0852924940199
 21
295.9526901518596
 72
     1
 10
160.0852924940199
 20
295.9526901518596
 11
158.844788083767
 21
295.9526901518596
 72
     1
 10
158.844788083767
 20
295.9526901518596
 11
158.844788083767
 21
299.0064996756707
 72
     1
 10
158.844788083767
 20
299.0064996756707
 11
160.0852924940199
 21
299.0064996756707
 97
        4
330
245
330
1F4
330
244
330
246
 75
     1
 76
     2
 52
45.0
 41
0.1
 77
     0
 78
     1
 53
45.0
 43
62.7811309658083
 44
-72.3161373035813
 45
-0.1414213562373095
 46
0.0
 79
     0
 98
        1
 10
0.0
 20
0.0
  0
HATCH
  5
2E0
330
71
100
AcDbEntity
  8
1
  6
Continuous
 62
     2
100
AcDbHatch
 10
0.0
 20
0.0
 30
0.0
210
0.0
220
0.0
230
1.0
  2
CUSTOM16
 70
     0
 71
     1
 91
        2
 92
        1
 93
        8
 72
     1
 10
159.6948484904879
 20
292.5934996756853
 11
158.454344080234
 21
292.5934996756853
 72
     1
 10
158.454344080234
 20
292.5934996756853
 11
158.2428640267582
 21
293.1344602199031
 72
     1
 10
158.2428640267582
 20
293.1344602199031
 11
157.1104224500843
 21
293.1344602199031
 72
     1
 10
157.1104224500843
 20
293.1344602199031
 11
156.8989423966085
 21
292.5934996756853
 72
     1
 10
156.8989423966085
 20
292.5934996756853
 11
155.6584379863556
 21
292.5934996756853
 72
     1
 10
155.6584379863556
 20
292.5934996756853
 11
157.0563910332948
 21
295.6473091994964
 72
     1
 10
157.0563910332948
 20
295.6473091994964
 11
158.2968954435476
 21
295.6473091994964
 72
     1
 10
158.2968954435476
 20
295.6473091994964
 11
159.6948484904879
 21
292.5934996756853
 97
        8
330
240
330
1FA
330
23F
330
242
330
1F7
330
241
330
1F8
330
1F9
 92
       16
 93
        3
 72
     1
 10
157.3764780012294
 20
293.8150234852097
 11
157.9768084756119
 21
293.8150234852097
 72
     1
 10
157.9768084756119
 20
293.8150234852097
 11
157.6766432384217
 21
294.5828384511964
 72
     1
 10
157.6766432384217
 20
294.5828384511964
 11
157.3764780012294
 21
293.8150234852097
 97
        3
330
1F6
330
1F5
330
243
 75
     1
 76
     2
 52
45.0
 41
0.1
 77
     0
 78
     1
 53
45.0
 43
62.7811309658083
 44
-72.3161373035813
 45
-0.1414213562373095
 46
0.0
 79
     0
 98
        1
 10
0.0
 20
0.0
  0
HATCH
  5
2E1
330
71
100
AcDbEntity
  8
1
  6
Continuous
 62
     2
100
AcDbHatch
 10
0.0
 20
0.0
 30
0.0
210
0.0
220
0.0
230
1.0
  2
CUSTOM17
 70
     0
 71
     1
 91
        2
 92
        1
 93
        8
 72
     1
 10
159.6948484904879
 20
292.5934996756853
 11
158.454344080234
 21
292.5934996756853
 72
     1
 10
158.454344080234
 20
292.5934996756853
 11
158.2428640267582
 21
293.1344602199031
 72
     1
 10
158.2428640267582
 20
293.1344602199031
 11
157.1104224500843
 21
293.1344602199031
 72
     1
 10
157.1104224500843
 20
293.1344602199031
 11
156.8989423966085
 21
292.5934996756853
 72
     1
 10
156.8989423966085
 20
292.5934996756853
 11
155.6584379863556
 21
292.5934996756853
 72
     1
 10
155.6584379863556
 20
292.5934996756853
 11
157.0563910332948
 21
295.6473091994964
 72
     1
 10
157.0563910332948
 20
295.6473091994964
 11
158.2968954435476
 21
295.6473091994964
 72
     1
 10
158.2968954435476
 20
295.6473091994964
 11
159.6948484904879
 21
292.5934996756853
 97
        8
330
240
330
1FA
330
23F
330
242
330
1F7
330
241
330
1F8
330
1F9
 92
       16
 93
        3
 72
     1
 10
157.3764780012294
 20
293.8150234852097
 11
157.9768084756119
 21
293.8150234852097
 72
     1
 10
157.9768084756119
 20
293.8150234852097
 11
157.6766432384217
 21
294.5828384511964
 72
     1
 10
157.6766432384217
 20
294.5828384511964
 11
157.3764780012294
 21
293.8150234852097
 97
        3
330
1F6
330
1F5
330
243
 75
     1
 76
     2
 52
45.0
 41
0.1
 77
     0
 78
     1
 53
45.0
 43
62.7811309658083
 44
-72.3161373035813
 45
-0.1414213562373095
 46
0.0
 79
     0
 98
        1
 10
0.0
 20
0.0
  0
HATCH
  5
2E2
330
71
100
AcDbEntity
  8
1
  6
Continuous
 62
     2
100
AcDbHatch
 10
0.0
 20
0.0
 30
0.0
210
0.0
220
0.0
230
1.0
  2
CUSTOM18
 70
     0
 71
     1
 91
        1
 92
        1
 93
        8
 72
     1
 10
153.5009258471733
 20
295.6473091994964
 11
153.5009258471733
 21
294.8620438933727
 72
     1
 10
153.5009258471733
 20
294.8620438933727
 11
154.312024884648
 21
294.8620438933727
 72
     1
 10
154.312024884648
 20
294.8620438933727
 11
154.312024884648
 21
292.5934996756853
 72
     1
 10
154.312024884648
 20
292.5934996756853
 11
155.5048175868144
 21
292.5934996756853
 72
     1
 10
155.5048175868144
 20
292.5934996756853
 11
155.5048175868144
 21
294.8620438933727
 72
     1
 10
155.5048175868144
 20
294.8620438933727
 11
156.315916624287
 21
294.8620438933727
 72
     1
 10
156.315916624287
 20
294.8620438933727
 11
156.315916624287
 21
295.6473091994964
 72
     1
 10
156.315916624287
 20
295.6473091994964
 11
153.5009258471733
 21
295.6473091994964
 97
        8
330
23C
330
23B
330
23A
330
1FB
330
1FC
330
23E
330
1FD
330
23D
 75
     1
 76
     2
 52
45.0
 41
0.1
 77
     0
 78
     1
 53
45.0
 43
62.7811309658083
 44
-72.3161373035813
 45
-0.1414213562373095
 46
0.0
 79
     0
 98
        1
 10
0.0
 20
0.0
  0
HATCH
  5
2E3
330
71
100
AcDbEntity
  8
1
  6
Continuous
 62
     2
100
AcDbHatch
 10
0.0
 20
0.0
 30
0.0
210
0.0
220
0.0
230
1.0
  2
CUSTOM19
 70
     0
 71
     1
 91
        1
 92
        1
 93
        8
 72
     1
 10
153.5009258471733
 20
295.6473091994964
 11
153.5009258471733
 21
294.8620438933727
 72
     1
 10
153.5009258471733
 20
294.8620438933727
 11
154.312024884648
 21
294.8620438933727
 72
     1
 10
154.312024884648
 20
294.8620438933727
 11
154.312024884648
 21
292.5934996756853
 72
     1
 10
154.312024884648
 20
292.5934996756853
 11
155.5048175868144
 21
292.5934996756853
 72
     1
 10
155.5048175868144
 20
292.5934996756853
 11
155.5048175868144
 21
294.8620438933727
 72
     1
 10
155.5048175868144
 20
294.8620438933727
 11
156.315916624287
 21
294.8620438933727
 72
     1
 10
156.315916624287
 20
294.8620438933727
 11
156.315916624287
 21
295.6473091994964
 72
     1
 10
156.315916624287
 20
295.6473091994964
 11
153.5009258471733
 21
295.6473091994964
 97
        8
330
23C
330
23B
330
23A
330
1FB
330
1FC
330
23E
330
1FD
330
23D
 75
     1
 76
     2
 52
45.0
 41
0.1
 77
     0
 78
     1
 53
45.0
 43
62.7811309658083
 44
-72.3161373035813
 45
-0.1414213562373095
 46
0.0
 79
     0
 98
        1
 10
0.0
 20
0.0
  0
HATCH
  5
2E4
330
71
100
AcDbEntity
  8
1
  6
Continuous
 62
     2
100
AcDbHatch
 10
0.0
 20
0.0
 30
0.0
210
0.0
220
0.0
230
1.0
  2
CUSTOM20
 70
     0
 71
     1
 91
        1
 92
        1
 93
       10
 72
     1
 10
156.1729324309124
 20
299.0064996756707
 11
154.980139728746
 21
299.0064996756707
 72
     1
 10
154.980139728746
 20
299.0064996756707
 11
154.980139728746
 21
295.9526901518596
 72
     1
 10
154.980139728746
 20
295.9526901518596
 11
156.1729324309124
 21
295.9526901518596
 72
     1
 10
156.1729324309124
 20
295.9526901518596
 11
156.1729324309124
 21
297.2614656620643
 72
     1
 10
156.1729324309124
 20
297.2614656620643
 11
157.4134368411665
 21
295.9526901518596
 72
     1
 10
157.4134368411665
 20
295.9526901518596
 11
158.6062295433331
 21
295.9526901518596
 72
     1
 10
158.6062295433331
 20
295.9526901518596
 11
158.6062295433331
 21
299.0064996756707
 72
     1
 10
158.6062295433331
 20
299.0064996756707
 11
157.4134368411665
 21
299.0064996756707
 72
     1
 10
157.4134368411665
 20
299.0064996756707
 11
157.4134368411665
 21
297.6977241654656
 72
     1
 10
157.4134368411665
 20
297.6977241654656
 11
156.1729324309124
 21
299.0064996756707
 97
       10
330
236
330
200
330
201
330
202
330
203
330
239
330
1FE
330
238
330
237
330
1FF
 75
     1
 76
     2
 52
45.0
 41
0.1
 77
     0
 78
     1
 53
45.0
 43
62.7811309658083
 44
-72.3161373035813
 45
-0.1414213562373095
 46
0.0
 79
     0
 98
        1
 10
0.0
 20
0.0
  0
HATCH
  5
2E5
330
71
100
AcDbEntity
  8
1
  6
Continuous
 62
     2
100
AcDbHatch
 10
0.0
 20
0.0
 30
0.0
210
0.0
220
0.0
230
1.0
  2
CUSTOM21
 70
     0
 71
     1
 91
        1
 92
        1
 93
       10
 72
     1
 10
156.1729324309124
 20
299.0064996756707
 11
154.980139728746
 21
299.0064996756707
 72
     1
 10
154.980139728746
 20
299.0064996756707
 11
154.980139728746
 21
295.9526901518596
 72
     1
 10
154.980139728746
 20
295.9526901518596
 11
156.1729324309124
 21
295.9526901518596
 72
     1
 10
156.1729324309124
 20
295.9526901518596
 11
156.1729324309124
 21
297.2614656620643
 72
     1
 10
156.1729324309124
 20
297.2614656620643
 11
157.4134368411665
 21
295.9526901518596
 72
     1
 10
157.4134368411665
 20
295.9526901518596
 11
158.6062295433331
 21
295.9526901518596
 72
     1
 10
158.6062295433331
 20
295.9526901518596
 11
158.6062295433331
 21
299.0064996756707
 72
     1
 10
158.6062295433331
 20
299.0064996756707
 11
157.4134368411665
 21
299.0064996756707
 72
     1
 10
157.4134368411665
 20
299.0064996756707
 11
157.4134368411665
 21
297.6977241654656
 72
     1
 10
157.4134368411665
 20
297.6977241654656
 11
156.1729324309124
 21
299.0064996756707
 97
       10
330
236
330
200
330
201
330
202
330
203
330
239
330
1FE
330
238
330
237
330
1FF
 75
     1
 76
     2
 52
45.0
 41
0.1
 77
     0
 78
     1
 53
45.0
 43
62.7811309658083
 44
-72.3161373035813
 45
-0.1414213562373095
 46
0.0
 79
     0
 98
        1
 10
0.0
 20
0.0
  0
HATCH
  5
2E6
330
71
100
AcDbEntity
  8
1
  6
Continuous
 62
     2
100
AcDbHatch
 10
0.0
 20
0.0
 30
0.0
210
0.0
220
0.0
230
1.0
  2
CUSTOM22
 70
     0
 71
     1
 91
        1
 92
        1
 93
       10
 72
     1
 10
150.9244936104938
 20
295.6473091994964
 11
149.7317009083263
 21
295.6473091994964
 72
     1
 10
149.7317009083263
 20
295.6473091994964
 11
149.7317009083263
 21
292.5934996756853
 72
     1
 10
149.7317009083263
 20
292.5934996756853
 11
150.9244936104938
 21
292.5934996756853
 72
     1
 10
150.9244936104938
 20
292.5934996756853
 11
150.9244936104938
 21
293.9022751858898
 72
     1
 10
150.9244936104938
 20
293.9022751858898
 11
152.1649980207468
 21
292.5934996756853
 72
     1
 10
152.1649980207468
 20
292.5934996756853
 11
153.3577907229132
 21
292.5934996756853
 72
     1
 10
153.3577907229132
 20
292.5934996756853
 11
153.3577907229132
 21
295.6473091994964
 72
     1
 10
153.3577907229132
 20
295.6473091994964
 11
152.1649980207468
 21
295.6473091994964
 72
     1
 10
152.1649980207468
 20
295.6473091994964
 11
152.1649980207468
 21
294.3385336892912
 72
     1
 10
152.1649980207468
 20
294.3385336892912
 11
150.9244936104938
 21
295.6473091994964
 97
       10
330
205
330
206
330
207
330
233
330
208
330
209
330
232
330
235
330
234
330
204
 75
     1
 76
     2
 52
45.0
 41
0.1
 77
     0
 78
     1
 53
45.0
 43
62.7811309658083
 44
-72.3161373035813
 45
-0.1414213562373095
 46
0.0
 79
     0
 98
        1
 10
0.0
 20
0.0
  0
HATCH
  5
2E7
330
71
100
AcDbEntity
  8
1
  6
Continuous
 62
     2
100
AcDbHatch
 10
0.0
 20
0.0
 30
0.0
210
0.0
220
0.0
230
1.0
  2
CUSTOM23
 70
     0
 71
     1
 91
        1
 92
        1
 93
       10
 72
     1
 10
150.9244936104938
 20
295.6473091994964
 11
149.7317009083263
 21
295.6473091994964
 72
     1
 10
149.7317009083263
 20
295.6473091994964
 11
149.7317009083263
 21
292.5934996756853
 72
     1
 10
149.7317009083263
 20
292.5934996756853
 11
150.9244936104938
 21
292.5934996756853
 72
     1
 10
150.9244936104938
 20
292.5934996756853
 11
150.9244936104938
 21
293.9022751858898
 72
     1
 10
150.9244936104938
 20
293.9022751858898
 11
152.1649980207468
 21
292.5934996756853
 72
     1
 10
152.1649980207468
 20
292.5934996756853
 11
153.3577907229132
 21
292.5934996756853
 72
     1
 10
153.3577907229132
 20
292.5934996756853
 11
153.3577907229132
 21
295.6473091994964
 72
     1
 10
153.3577907229132
 20
295.6473091994964
 11
152.1649980207468
 21
295.6473091994964
 72
     1
 10
152.1649980207468
 20
295.6473091994964
 11
152.1649980207468
 21
294.3385336892912
 72
     1
 10
152.1649980207468
 20
294.3385336892912
 11
150.9244936104938
 21
295.6473091994964
 97
       10
330
205
330
206
330
207
330
233
330
208
330
209
330
232
330
235
330
234
330
204
 75
     1
 76
     2
 52
45.0
 41
0.1
 77
     0
 78
     1
 53
45.0
 43
62.7811309658083
 44
-72.3161373035813
 45
-0.1414213562373095
 46
0.0
 79
     0
 98
        1
 10
0.0
 20
0.0
  0
HATCH
  5
2E8
330
71
100
AcDbEntity
  8
1
  6
Continuous
 62
     2
100
AcDbHatch
 10
0.0
 20
0.0
 30
0.0
210
0.0
220
0.0
230
1.0
  2
CUSTOM24
 70
     0
 71
     1
 91
        1
 92
        1
 93
       12
 72
     1
 10
149.9226986715585
 20
299.0064996756707
 11
149.9226986715585
 21
295.9526901518596
 72
     1
 10
149.9226986715585
 20
295.9526901518596
 11
148.729905969392
 21
295.9526901518596
 72
     1
 10
148.729905969392
 20
295.9526901518596
 11
148.729905969392
 21
297.0869622607033
 72
     1
 10
148.729905969392
 20
297.0869622607033
 11
147.6802483914846
 21
297.0869622607033
 72
     1
 10
147.6802483914846
 20
297.0869622607033
 11
147.6802483914846
 21
295.9526901518596
 72
     1
 10
147.6802483914846
 20
295.9526901518596
 11
146.487455689318
 21
295.9526901518596
 72
     1
 10
146.487455689318
 20
295.9526901518596
 11
146.487455689318
 21
299.0064996756707
 72
     1
 10
146.487455689318
 20
299.0064996756707
 11
147.6802483914846
 21
299.0064996756707
 72
     1
 10
147.6802483914846
 20
299.0064996756707
 11
147.6802483914846
 21
297.9376663423361
 72
     1
 10
147.6802483914846
 20
297.9376663423361
 11
148.729905969392
 21
297.9376663423361
 72
     1
 10
148.729905969392
 20
297.9376663423361
 11
148.729905969392
 21
299.0064996756707
 72
     1
 10
148.729905969392
 20
299.0064996756707
 11
149.9226986715585
 21
299.0064996756707
 97
       12
330
22D
330
22C
330
22B
330
213
330
214
330
22A
330
215
330
229
330
228
330
227
330
211
330
212
 75
     1
 76
     2
 52
45.0
 41
0.1
 77
     0
 78
     1
 53
45.0
 43
62.7811309658083
 44
-72.3161373035813
 45
-0.1414213562373095
 46
0.0
 79
     0
 98
        1
 10
0.0
 20
0.0
  0
HATCH
  5
2E9
330
71
100
AcDbEntity
  8
1
  6
Continuous
 62
     2
100
AcDbHatch
 10
0.0
 20
0.0
 30
0.0
210
0.0
220
0.0
230
1.0
  2
CUSTOM25
 70
     0
 71
     1
 91
        1
 92
        1
 93
       12
 72
     1
 10
149.9226986715585
 20
299.0064996756707
 11
149.9226986715585
 21
295.9526901518596
 72
     1
 10
149.9226986715585
 20
295.9526901518596
 11
148.729905969392
 21
295.9526901518596
 72
     1
 10
148.729905969392
 20
295.9526901518596
 11
148.729905969392
 21
297.0869622607033
 72
     1
 10
148.729905969392
 20
297.0869622607033
 11
147.6802483914846
 21
297.0869622607033
 72
     1
 10
147.6802483914846
 20
297.0869622607033
 11
147.6802483914846
 21
295.9526901518596
 72
     1
 10
147.6802483914846
 20
295.9526901518596
 11
146.487455689318
 21
295.9526901518596
 72
     1
 10
146.487455689318
 20
295.9526901518596
 11
146.487455689318
 21
299.0064996756707
 72
     1
 10
146.487455689318
 20
299.0064996756707
 11
147.6802483914846
 21
299.0064996756707
 72
     1
 10
147.6802483914846
 20
299.0064996756707
 11
147.6802483914846
 21
297.9376663423361
 72
     1
 10
147.6802483914846
 20
297.9376663423361
 11
148.729905969392
 21
297.9376663423361
 72
     1
 10
148.729905969392
 20
297.9376663423361
 11
148.729905969392
 21
299.0064996756707
 72
     1
 10
148.729905969392
 20
299.0064996756707
 11
149.9226986715585
 21
299.0064996756707
 97
       12
330
22D
330
22C
330
22B
330
213
330
214
330
22A
330
215
330
229
330
228
330
227
330
211
330
212
 75
     1
 76
     2
 52
45.0
 41
0.1
 77
     0
 78
     1
 53
45.0
 43
62.7811309658083
 44
-72.3161373035813
 45
-0.1414213562373095
 46
0.0
 79
     0
 98
        1
 10
0.0
 20
0.0
  0
ENDBLK
  5
73
330
71
100
AcDbEntity
  8
0
100
AcDbBlockEnd
  0
BLOCK
  5
75
330
74
100
AcDbEntity
  8
0
100
AcDbBlockBegin
  2
_punkt
 70
     0
 10
261.8000024853473
 20
285.299999675669
 30
0.0
  3
_punkt
  1

  0
LINE
  5
2EA
330
74
100
AcDbEntity
  8
1
  6
Continuous
 62
     2
100
AcDbLine
 10
261.8000024853473
 20
285.299999675669
 30
0.0
 11
261.8000024853473
 21
280.2999996756695
 31
0.0
  0
LINE
  5
2EB
330
74
100
AcDbEntity
  8
1
  6
Continuous
 62
     2
100
AcDbLine
 10
261.8000024853473
 20
285.299999675669
 30
0.0
 11
266.8000024853449
 21
285.299999675669
 31
0.0
  0
ENDBLK
  5
76
330
74
100
AcDbEntity
  8
0
100
AcDbBlockEnd
  0
BLOCK
  5
7A
330
77
100
AcDbEntity
  8
0
100
AcDbBlockBegin
  2
A3I_CS
 70
     0
 10
261.8000024853473
 20
280.2999996756695
 30
0.0
  3
A3I_CS
  1

  0
INSERT
  5
78
330
77
100
AcDbEntity
  8
1
100
AcDbBlockReference
  2
_rahmen
 10
261.8000024853473
 20
280.2999996756695
 30
0.0
  0
INSERT
  5
79
330
77
100
AcDbEntity
  8
1
100
AcDbBlockReference
  2
_punkt
 10
261.8000024853473
 20
285.299999675669
 30
0.0
  0
ENDBLK
  5
7B
330
77
100
AcDbEntity
  8
0
100
AcDbBlockEnd
  0
BLOCK
  5
84
330
7C
100
AcDbEntity
  8
0
100
AcDbBlockBegin
  2
1
 70
     0
 10
0.0
 20
0.0
 30
0.0
  3
1
  1

  0
INSERT
  5
7D
330
7C
100
AcDbEntity
  8
0
100
AcDbBlockReference
  2
Allg1
 10
188.0000000001234
 20
388.000000000246
 30
0.0
 41
2.0
 42
2.0
 43
2.0
  0
INSERT
  5
7E
330
7C
100
AcDbEntity
  8
0
100
AcDbBlockReference
  2
Drfsicht1
 10
19.00000000000001
 20
399.00000000013
 30
0.0
 41
2.0
 42
2.0
 43
2.0
  0
INSERT
  5
7F
330
7C
100
AcDbEntity
  8
0
100
AcDbBlockReference
  2
Rckans1
 10
195.1976119043882
 20
514.5988051906128
 30
0.0
 41
2.0
 42
2.0
 43
2.0
  0
INSERT
  5
80
330
7C
100
AcDbEntity
  8
0
100
AcDbBlockReference
  2
SA_Links1
 10
111.0988049521942
 20
514.5988051906128
 30
0.0
 41
2.0
 42
2.0
 43
2.0
  0
INSERT
  5
81
330
7C
100
AcDbEntity
  8
0
100
AcDbBlockReference
  2
SA_Rechts1
 10
-97.09880495219448
 20
514.5988051906128
 30
0.0
 41
2.0
 42
2.0
 43
2.0
  0
INSERT
  5
82
330
7C
100
AcDbEntity
  8
0
100
AcDbBlockReference
  2
Vordans1
 10
18.9999999999999
 20
514.5988051906128
 30
0.0
 41
2.0
 42
2.0
 43
2.0
  0
INSERT
  5
83
330
7C
100
AcDbEntity
  8
0
100
AcDbBlockReference
  2
A3I_CS
 10
261.8000024853473
 20
280.2999996756695
 30
0.0
  0
ENDBLK
  5
85
330
7C
100
AcDbEntity
  8
0
100
AcDbBlockEnd
  0
BLOCK
  5
120
330
119
100
AcDbEntity
  8
0
100
AcDbBlockBegin
  2
*D17
 70
     1
 10
0.0
 20
0.0
 30
0.0
  3
*D17
  1

  0
LINE
  5
11A
330
119
100
AcDbEntity
  8
1
  6
Continuous
 62
     2
100
AcDbLine
 10
-21.40000042915349
 20
189.3505985801602
 30
0.0
 11
-21.40000042915349
 21
209.6494017840662
 31
0.0
  0
LINE
  5
11B
330
119
100
AcDbEntity
  8
1
  6
Continuous
 62
     2
100
AcDbLine
 10
-11.4000004291534
 20
189.3505985801602
 30
0.0
 11
-22.15000042915349
 21
189.3505985801602
 31
0.0
  0
LINE
  5
11C
330
119
100
AcDbEntity
  8
1
  6
Continuous
 62
     2
100
AcDbLine
 10
-16.40000042915349
 20
209.6494017840662
 30
0.0
 11
-22.15000042915349
 21
209.6494017840662
 31
0.0
  0
SOLID
  5
11D
330
119
100
AcDbEntity
  8
1
 62
     2
100
AcDbTrace
 10
-21.63039229993143
 20
191.1005985801602
 30
0.0
 11
-21.16960855837555
 21
191.1005985801602
 31
0.0
 12
-21.40000042915349
 22
189.3505985801602
 32
0.0
 13
-21.40000042915349
 23
189.3505985801602
 33
0.0
  0
SOLID
  5
11E
330
119
100
AcDbEntity
  8
1
 62
     2
100
AcDbTrace
 10
-21.16960855837555
 20
207.8994017840662
 30
0.0
 11
-21.63039229993143
 21
207.8994017840662
 31
0.0
 12
-21.40000042915349
 22
209.6494017840662
 32
0.0
 13
-21.40000042915349
 23
209.6494017840662
 33
0.0
  0
MTEXT
  5
11F
330
119
100
AcDbEntity
  8
1
 62
     3
100
AcDbMText
 10
-22.32500042915349
 20
197.6221357634545
 30
0.0
 40
1.75
 41
0.0
 71
     7
 72
     1
  1
20,3
  7
CONVERTER_11
 11
0.0
 21
1.0
 31
0.0
 73
     1
 44
0.60024009603842
  0
ENDBLK
  5
121
330
119
100
AcDbEntity
  8
0
100
AcDbBlockEnd
  0
BLOCK
  5
185
330
17E
100
AcDbEntity
  8
0
100
AcDbBlockBegin
  2
*D18
 70
     1
 10
0.0
 20
0.0
 30
0.0
  3
*D18
  1

  0
LINE
  5
17F
330
17E
100
AcDbEntity
  8
1
  6
Continuous
 62
     2
100
AcDbLine
 10
-16.40000042915354
 20
244.4076308330345
 30
0.0
 11
35.39999957084645
 21
244.4076308330345
 31
0.0
  0
LINE
  5
180
330
17E
100
AcDbEntity
  8
1
  6
Continuous
 62
     2
100
AcDbLine
 10
-16.40000042915354
 20
250.1494022940118
 30
0.0
 11
-16.40000042915354
 21
243.6576308330345
 31
0.0
  0
LINE
  5
181
330
17E
100
AcDbEntity
  8
1
  6
Continuous
 62
     2
100
AcDbLine
 10
35.39999957084645
 20
250.1494022940118
 30
0.0
 11
35.39999957084645
 21
243.6576308330345
 31
0.0
  0
SOLID
  5
182
330
17E
100
AcDbEntity
  8
1
 62
     2
100
AcDbTrace
 10
-14.65000042915354
 20
244.6380227038124
 30
0.0
 11
-14.65000042915354
 21
244.1772389622566
 31
0.0
 12
-16.40000042915354
 22
244.4076308330345
 32
0.0
 13
-16.40000042915354
 23
244.4076308330345
 33
0.0
  0
SOLID
  5
183
330
17E
100
AcDbEntity
  8
1
 62
     2
100
AcDbTrace
 10
33.64999957084645
 20
244.1772389622566
 30
0.0
 11
33.64999957084645
 21
244.6380227038124
 31
0.0
 12
35.39999957084645
 22
244.4076308330345
 32
0.0
 13
35.39999957084645
 23
244.4076308330345
 33
0.0
  0
MTEXT
  5
184
330
17E
100
AcDbEntity
  8
1
 62
     3
100
AcDbMText
 10
6.5838272794167
 20
245.3326308330345
 30
0.0
 40
1.75
 41
0.0
 71
     7
 72
     1
  1
51,8
  7
CONVERTER_11
 11
0.9999999999970619
 21
2.424068405545306E-6
 31
0.0
 73
     1
 44
0.60024009603842
  0
ENDBLK
  5
186
330
17E
100
AcDbEntity
  8
0
100
AcDbBlockEnd
  0
BLOCK
  5
190
330
189
100
AcDbEntity
  8
0
100
AcDbBlockBegin
  2
*D19
 70
     1
 10
0.0
 20
0.0
 30
0.0
  3
*D19
  1

  0
LINE
  5
18A
330
189
100
AcDbEntity
  8
1
  6
Continuous
 62
     2
100
AcDbLine
 10
-26.5891823978176
 20
250.1494022940118
 30
0.0
 11
-26.5891823978176
 21
264.4494022940118
 31
0.0
  0
LINE
  5
18B
330
189
100
AcDbEntity
  8
1
  6
Continuous
 62
     2
100
AcDbLine
 10
-16.40000042915355
 20
250.1494022940118
 30
0.0
 11
-27.3391823978176
 21
250.1494022940118
 31
0.0
  0
LINE
  5
18C
330
189
100
AcDbEntity
  8
1
  6
Continuous
 62
     2
100
AcDbLine
 10
-16.40000042915355
 20
264.4494022940118
 30
0.0
 11
-27.3391823978176
 21
264.4494022940118
 31
0.0
  0
SOLID
  5
18D
330
189
100
AcDbEntity
  8
1
 62
     2
100
AcDbTrace
 10
-26.81957426859555
 20
251.8994022940118
 30
0.0
 11
-26.35879052703966
 21
251.8994022940118
 31
0.0
 12
-26.5891823978176
 22
250.1494022940118
 32
0.0
 13
-26.5891823978176
 23
250.1494022940118
 33
0.0
  0
SOLID
  5
18E
330
189
100
AcDbEntity
  8
1
 62
     2
100
AcDbTrace
 10
-26.35879052703966
 20
262.6994022940118
 30
0.0
 11
-26.81957426859555
 21
262.6994022940118
 31
0.0
 12
-26.5891823978176
 22
264.4494022940118
 32
0.0
 13
-26.5891823978176
 23
264.4494022940118
 33
0.0
  0
MTEXT
  5
18F
330
189
100
AcDbEntity
  8
1
 62
     3
100
AcDbMText
 10
-27.5141823978176
 20
256.112008864706
 30
0.0
 40
1.75
 41
0.0
 71
     7
 72
     1
  1
14,3
  7
CONVERTER_11
 11
0.0
 21
1.0
 31
0.0
 73
     1
 44
0.60024009603842
  0
ENDBLK
  5
191
330
189
100
AcDbEntity
  8
0
100
AcDbBlockEnd
  0
BLOCK
  5
19B
330
194
100
AcDbEntity
  8
0
100
AcDbBlockBegin
  2
*D20
 70
     1
 10
0.0
 20
0.0
 30
0.0
  3
*D20
  1

  0
LINE
  5
195
330
194
100
AcDbEntity
  8
1
  6
Continuous
 62
     2
100
AcDbLine
 10
-21.67623275649295
 20
250.1494022940118
 30
0.0
 11
-21.67623275649295
 21
263.1499256246228
 31
0.0
  0
LINE
  5
196
330
194
100
AcDbEntity
  8
1
  6
Continuous
 62
     2
100
AcDbLine
 10
-16.40000042915354
 20
250.1494022940118
 30
0.0
 11
-22.42623275649295
 21
250.1494022940118
 31
0.0
  0
LINE
  5
197
330
194
100
AcDbEntity
  8
1
  6
Continuous
 62
     2
100
AcDbLine
 10
-14.30000042915355
 20
263.1499256246228
 30
0.0
 11
-22.42623275649295
 21
263.1499256246228
 31
0.0
  0
SOLID
  5
198
330
194
100
AcDbEntity
  8
1
 62
     2
100
AcDbTrace
 10
-21.90662462727089
 20
251.8994022940118
 30
0.0
 11
-21.44584088571501
 21
251.8994022940118
 31
0.0
 12
-21.67623275649295
 22
250.1494022940118
 32
0.0
 13
-21.67623275649295
 23
250.1494022940118
 33
0.0
  0
SOLID
  5
199
330
194
100
AcDbEntity
  8
1
 62
     2
100
AcDbTrace
 10
-21.44584088571501
 20
261.3999256246228
 30
0.0
 11
-21.90662462727089
 21
261.3999256246228
 31
0.0
 12
-21.67623275649295
 22
263.1499256246228
 32
0.0
 13
-21.67623275649295
 23
263.1499256246228
 33
0.0
  0
MTEXT
  5
19A
330
194
100
AcDbEntity
  8
1
 62
     3
100
AcDbMText
 10
-22.42623275649295
 20
255.348424244205
 30
0.0
 40
1.75
 41
0.0
 71
     7
 72
     1
  1
13
  7
CONVERTER_11
 11
0.0
 21
1.0
 31
0.0
 73
     1
 44
0.60024009603842
  0
ENDBLK
  5
19C
330
194
100
AcDbEntity
  8
0
100
AcDbBlockEnd
  0
ENDSEC
  0
SECTION
  2
ENTITIES
  0
INSERT
  5
86
330
1F
100
AcDbEntity
  8
1
100
AcDbBlockReference
  2
1
 10
0.0
 20
0.0
 30
0.0
  0
ENDSEC
  0
SECTION
  2
OBJECTS
  0
DICTIONARY
  5
C
330
0
100
AcDbDictionary
281
     1
  3
ACAD_GROUP
350
D
  3
ACAD_LAYOUT
350
1A
  3
ACAD_MATERIAL
350
3B
  3
ACAD_MLEADERSTYLE
350
313
  3
ACAD_MLINESTYLE
350
17
  3
ACAD_PLOTSETTINGS
350
19
  3
ACAD_PLOTSTYLENAME
350
E
  3
ACAD_TABLESTYLE
350
312
  3
ACAD_VISUALSTYLE
350
2A
  0
DICTIONARY
  5
D
102
{ACAD_REACTORS
330
C
102
}
330
C
100
AcDbDictionary
281
     1
  0
DICTIONARY
  5
1A
102
{ACAD_REACTORS
330
C
102
}
330
C
100
AcDbDictionary
281
     1
  3
Layout1
350
1E
  3
Layout2
350
26
  3
Model
350
22
  0
DICTIONARY
  5
3B
102
{ACAD_REACTORS
330
C
102
}
330
C
100
AcDbDictionary
281
     1
  3
ByBlock
350
3D
  3
ByLayer
350
3C
  3
Global
350
3E
  0
DICTIONARY
  5
313
102
{ACAD_REACTORS
330
C
102
}
330
C
100
AcDbDictionary
281
     1
  0
DICTIONARY
  5
17
102
{ACAD_REACTORS
330
C
102
}
330
C
100
AcDbDictionary
281
     1
  3
Standard
350
18
  0
DICTIONARY
  5
19
102
{ACAD_REACTORS
330
C
102
}
330
C
100
AcDbDictionary
281
     1
  0
ACDBDICTIONARYWDFLT
  5
E
102
{ACAD_REACTORS
330
C
102
}
330
C
100
AcDbDictionary
281
     1
  3
Normal
350
F
100
AcDbDictionaryWithDefault
340
F
  0
DICTIONARY
  5
312
102
{ACAD_REACTORS
330
C
102
}
330
C
100
AcDbDictionary
281
     1
  0
DICTIONARY
  5
2A
102
{ACAD_REACTORS
330
C
102
}
330
C
100
AcDbDictionary
281
     1
  3
2dWireframe
350
2F
  3
3D Hidden
350
31
  3
3dWireframe
350
30
  3
Basic
350
32
  3
Brighten
350
36
  3
ColorChange
350
3A
  3
Conceptual
350
34
  3
Dim
350
35
  3
Facepattern
350
39
  3
Flat
350
2B
  3
FlatWithEdges
350
2C
  3
Gouraud
350
2D
  3
GouraudWithEdges
350
2E
  3
Linepattern
350
38
  3
Realistic
350
33
  3
Thicken
350
37
  0
LAYOUT
  5
1E
102
{ACAD_REACTORS
330
1A
102
}
330
1A
100
AcDbPlotSettings
  1

  2
none_device
  4

  6

 40
0.0
 41
0.0
 42
0.0
 43
0.0
 44
0.0
 45
0.0
 46
0.0
 47
0.0
 48
0.0
 49
0.0
140
0.0
141
0.0
142
1.0
143
1.0
 70
   688
 72
     0
 73
     0
 74
     5
  7

 75
    16
 76
     0
 77
     2
 78
   300
147
1.0
148
0.0
149
0.0
100
AcDbLayout
  1
Layout1
 70
     1
 71
     1
 10
0.0
 20
0.0
 11
12.0
 21
9.0
 12
0.0
 22
0.0
 32
0.0
 14
1.00000000000000E+20
 24
1.00000000000000E+20
 34
1.00000000000000E+20
 15
-1.00000000000000E+20
 25
-1.00000000000000E+20
 35
-1.00000000000000E+20
146
0.0
 13
0.0
 23
0.0
 33
0.0
 16
1.0
 26
0.0
 36
0.0
 17
0.0
 27
1.0
 37
0.0
 76
     0
330
1B
  0
LAYOUT
  5
26
102
{ACAD_REACTORS
330
1A
102
}
330
1A
100
AcDbPlotSettings
  1

  2
none_device
  4

  6

 40
0.0
 41
0.0
 42
0.0
 43
0.0
 44
0.0
 45
0.0
 46
0.0
 47
0.0
 48
0.0
 49
0.0
140
0.0
141
0.0
142
1.0
143
1.0
 70
   688
 72
     0
 73
     0
 74
     5
  7

 75
    16
 76
     0
 77
     2
 78
   300
147
1.0
148
0.0
149
0.0
100
AcDbLayout
  1
Layout2
 70
     1
 71
     2
 10
0.0
 20
0.0
 11
0.0
 21
0.0
 12
0.0
 22
0.0
 32
0.0
 14
0.0
 24
0.0
 34
0.0
 15
0.0
 25
0.0
 35
0.0
146
0.0
 13
0.0
 23
0.0
 33
0.0
 16
1.0
 26
0.0
 36
0.0
 17
0.0
 27
1.0
 37
0.0
 76
     0
330
23
  0
LAYOUT
  5
22
102
{ACAD_REACTORS
330
1A
102
}
330
1A
100
AcDbPlotSettings
  1

  2
none_device
  4

  6

 40
0.0
 41
0.0
 42
0.0
 43
0.0
 44
0.0
 45
0.0
 46
0.0
 47
0.0
 48
0.0
 49
0.0
140
0.0
141
0.0
142
1.0
143
1.0
 70
  1712
 72
     0
 73
     0
 74
     0
  7

 75
     0
 76
     0
 77
     2
 78
   300
147
1.0
148
0.0
149
0.0
100
AcDbLayout
  1
Model
 70
     1
 71
     0
 10
0.0
 20
0.0
 11
12.0
 21
9.0
 12
0.0
 22
0.0
 32
0.0
 14
-153.1999975146535
 24
280.2999996756695
 34
0.0
 15
266.8000024853449
 25
577.2999996756695
 35
0.0
146
0.0
 13
0.0
 23
0.0
 33
0.0
 16
1.0
 26
0.0
 36
0.0
 17
0.0
 27
1.0
 37
0.0
 76
     0
330
1F
331
29
  0
MATERIAL
  5
3D
102
{ACAD_REACTORS
330
3B
102
}
102
{ACAD_XDICTIONARY
360
30E
102
}
330
3B
100
AcDbMaterial
  1
ByBlock
  0
MATERIAL
  5
3C
102
{ACAD_REACTORS
330
3B
102
}
102
{ACAD_XDICTIONARY
360
30C
102
}
330
3B
100
AcDbMaterial
  1
ByLayer
  0
MATERIAL
  5
3E
102
{ACAD_REACTORS
330
3B
102
}
102
{ACAD_XDICTIONARY
360
310
102
}
330
3B
100
AcDbMaterial
  1
Global
  0
MLINESTYLE
  5
18
102
{ACAD_REACTORS
330
17
102
}
330
17
100
AcDbMlineStyle
  2
Standard
 70
     0
  3

 62
   256
 51
90.0
 52
90.0
 71
     2
 49
0.5
 62
   256
  6
BYLAYER
 49
-0.5
 62
   256
  6
BYLAYER
  0
ACDBPLACEHOLDER
  5
F
102
{ACAD_REACTORS
330
E
102
}
330
E
  0
VISUALSTYLE
  5
2F
102
{ACAD_REACTORS
330
2A
102
}
102
{ACAD_XDICTIONARY
360
2F4
102
}
330
2A
100
AcDbVisualStyle
  2
2dWireframe
 70
     4
 71
     0
 72
     2
 73
     0
 90
        0
 40
-0.6
 41
-30.0
 62
     5
 63
     7
421
 16777215
 74
     1
 91
        4
 64
     7
 65
   257
 75
     1
175
     1
 42
1.0
 92
        0
 66
   257
 43
1.0
 76
     1
 77
     6
 78
     2
 67
     7
 79
     5
170
     0
171
     0
290
     0
174
     0
 93
        1
 44
0.0
173
     0
291
     0
 45
0.0
1001
ACAD
1000
AcDbSavedByObjectVersion
1070
     0
  0
VISUALSTYLE
  5
31
102
{ACAD_REACTORS
330
2A
102
}
102
{ACAD_XDICTIONARY
360
2F8
102
}
330
2A
100
AcDbVisualStyle
  2
3D Hidden
 70
     6
 71
     1
 72
     2
 73
     2
 90
        0
 40
-0.6
 41
-30.0
 62
     5
 63
     7
421
 16777215
 74
     2
 91
        2
 64
     7
 65
   257
 75
     2
175
     1
 42
40.0
 92
        0
 66
   257
 43
1.0
 76
     1
 77
     6
 78
     2
 67
     7
 79
     3
170
     0
171
     0
290
     0
174
     0
 93
        1
 44
0.0
173
     0
291
     0
 45
0.0
1001
ACAD
1000
AcDbSavedByObjectVersion
1070
     0
  0
VISUALSTYLE
  5
30
102
{ACAD_REACTORS
330
2A
102
}
102
{ACAD_XDICTIONARY
360
2F6
102
}
330
2A
100
AcDbVisualStyle
  2
3dWireframe
 70
     5
 71
     0
 72
     2
 73
     0
 90
        0
 40
-0.6
 41
-30.0
 62
     5
 63
     7
421
 16777215
 74
     1
 91
        4
 64
     7
 65
   257
 75
     1
175
     1
 42
1.0
 92
        0
 66
   257
 43
1.0
 76
     1
 77
     6
 78
     2
 67
     7
 79
     5
170
     0
171
     0
290
     0
174
     0
 93
        1
 44
0.0
173
     0
291
     0
 45
0.0
1001
ACAD
1000
AcDbSavedByObjectVersion
1070
     0
  0
VISUALSTYLE
  5
32
102
{ACAD_REACTORS
330
2A
102
}
102
{ACAD_XDICTIONARY
360
2FA
102
}
330
2A
100
AcDbVisualStyle
  2
Basic
 70
     7
 71
     1
 72
     0
 73
     1
 90
        0
 40
-0.6
 41
-30.0
 62
     5
 63
     7
421
 16777215
 74
     0
 91
        4
 64
     7
 65
   257
 75
     1
175
     1
 42
1.0
 92
        8
 66
     7
 43
1.0
 76
     1
 77
     6
 78
     2
 67
     7
 79
     5
170
     0
171
     0
290
     0
174
     0
 93
        1
 44
0.0
173
     0
291
     1
 45
0.0
1001
ACAD
1000
AcDbSavedByObjectVersion
1070
     0
  0
VISUALSTYLE
  5
36
102
{ACAD_REACTORS
330
2A
102
}
102
{ACAD_XDICTIONARY
360
302
102
}
330
2A
100
AcDbVisualStyle
  2
Brighten
 70
    12
 71
     2
 72
     2
 73
     0
 90
        0
 40
-0.6
 41
-30.0
 62
     5
 63
     7
421
 16777215
 74
     1
 91
        4
 64
     7
 65
   257
 75
     1
175
     1
 42
1.0
 92
        8
 66
     7
 43
1.0
 76
     1
 77
     6
 78
     2
 67
     7
 79
     5
170
     0
171
     0
290
     0
174
     0
 93
        1
 44
50.0
173
     0
291
     1
 45
0.0
1001
ACAD
1000
AcDbSavedByObjectVersion
1070
     0
  0
VISUALSTYLE
  5
3A
102
{ACAD_REACTORS
330
2A
102
}
102
{ACAD_XDICTIONARY
360
30A
102
}
330
2A
100
AcDbVisualStyle
  2
ColorChange
 70
    16
 71
     2
 72
     2
 73
     3
 90
        0
 40
-0.6
 41
-30.0
 62
     5
 63
     8
421
  8421504
 74
     1
 91
        4
 64
     7
 65
   257
 75
     1
175
     1
 42
1.0
 92
        8
 66
     8
424
  8421504
 43
1.0
 76
     1
 77
     6
 78
     2
 67
     7
 79
     5
170
     0
171
     0
290
     0
174
     0
 93
        1
 44
0.0
173
     0
291
     1
 45
0.0
1001
ACAD
1000
AcDbSavedByObjectVersion
1070
     0
  0
VISUALSTYLE
  5
34
102
{ACAD_REACTORS
330
2A
102
}
102
{ACAD_XDICTIONARY
360
2FE
102
}
330
2A
100
AcDbVisualStyle
  2
Conceptual
 70
     9
 71
     3
 72
     2
 73
     0
 90
        0
 40
-0.6
 41
-30.0
 62
     5
 63
     7
421
 16777215
 74
     2
 91
        2
 64
     7
 65
   257
 75
     1
175
     1
 42
40.0
 92
        8
 66
     7
 43
1.0
 76
     1
 77
     6
 78
     2
 67
     7
 79
     3
170
     0
171
     0
290
     0
174
     0
 93
        1
 44
0.0
173
     0
291
     0
 45
0.0
1001
ACAD
1000
AcDbSavedByObjectVersion
1070
     0
  0
VISUALSTYLE
  5
35
102
{ACAD_REACTORS
330
2A
102
}
102
{ACAD_XDICTIONARY
360
300
102
}
330
2A
100
AcDbVisualStyle
  2
Dim
 70
    11
 71
     2
 72
     2
 73
     0
 90
        0
 40
-0.6
 41
-30.0
 62
     5
 63
     7
421
 16777215
 74
     1
 91
        4
 64
     7
 65
   257
 75
     1
175
     1
 42
1.0
 92
        8
 66
     7
 43
1.0
 76
     1
 77
     6
 78
     2
 67
     7
 79
     5
170
     0
171
     0
290
     0
174
     0
 93
        1
 44
-50.0
173
     0
291
     1
 45
0.0
1001
ACAD
1000
AcDbSavedByObjectVersion
1070
     0
  0
VISUALSTYLE
  5
39
102
{ACAD_REACTORS
330
2A
102
}
102
{ACAD_XDICTIONARY
360
308
102
}
330
2A
100
AcDbVisualStyle
  2
Facepattern
 70
    15
 71
     2
 72
     2
 73
     0
 90
        0
 40
-0.6
 41
-30.0
 62
     5
 63
     7
421
 16777215
 74
     1
 91
        4
 64
     7
 65
   257
 75
     1
175
     1
 42
1.0
 92
        8
 66
     7
 43
1.0
 76
     1
 77
     6
 78
     2
 67
     7
 79
     5
170
     0
171
     0
290
     0
174
     0
 93
        1
 44
0.0
173
     0
291
     1
 45
0.0
1001
ACAD
1000
AcDbSavedByObjectVersion
1070
     0
  0
VISUALSTYLE
  5
2B
102
{ACAD_REACTORS
330
2A
102
}
102
{ACAD_XDICTIONARY
360
2EC
102
}
330
2A
100
AcDbVisualStyle
  2
Flat
 70
     0
 71
     2
 72
     1
 73
     1
 90
        2
 40
-0.6
 41
30.0
 62
     5
 63
     7
421
 16777215
 74
     0
 91
        4
 64
     7
 65
   257
 75
     1
175
     1
 42
1.0
 92
        8
 66
     7
 43
1.0
 76
     1
 77
     6
 78
     2
 67
     7
 79
     5
170
     0
171
     0
290
     0
174
     0
 93
       13
 44
0.0
173
     0
291
     1
 45
0.0
1001
ACAD
1000
AcDbSavedByObjectVersion
1070
     0
  0
VISUALSTYLE
  5
2C
102
{ACAD_REACTORS
330
2A
102
}
102
{ACAD_XDICTIONARY
360
2EE
102
}
330
2A
100
AcDbVisualStyle
  2
FlatWithEdges
 70
     1
 71
     2
 72
     1
 73
     1
 90
        2
 40
-0.6
 41
30.0
 62
     5
 63
     7
421
 16777215
 74
     1
 91
        4
 64
     7
 65
   257
 75
     1
175
     1
 42
1.0
 92
        0
 66
   257
 43
1.0
 76
     1
 77
     6
 78
     2
 67
     7
 79
     5
170
     0
171
     0
290
     0
174
     0
 93
       13
 44
0.0
173
     0
291
     1
 45
0.0
1001
ACAD
1000
AcDbSavedByObjectVersion
1070
     0
  0
VISUALSTYLE
  5
2D
102
{ACAD_REACTORS
330
2A
102
}
102
{ACAD_XDICTIONARY
360
2F0
102
}
330
2A
100
AcDbVisualStyle
  2
Gouraud
 70
     2
 71
     2
 72
     2
 73
     1
 90
        2
 40
-0.6
 41
30.0
 62
     5
 63
     7
421
 16777215
 74
     0
 91
        4
 64
     7
 65
   257
 75
     1
175
     1
 42
1.0
 92
        0
 66
     7
 43
1.0
 76
     1
 77
     6
 78
     2
 67
     7
 79
     5
170
     0
171
     0
290
     0
174
     0
 93
       13
 44
0.0
173
     0
291
     1
 45
0.0
1001
ACAD
1000
AcDbSavedByObjectVersion
1070
     0
  0
VISUALSTYLE
  5
2E
102
{ACAD_REACTORS
330
2A
102
}
102
{ACAD_XDICTIONARY
360
2F2
102
}
330
2A
100
AcDbVisualStyle
  2
GouraudWithEdges
 70
     3
 71
     2
 72
     2
 73
     1
 90
        2
 40
-0.6
 41
30.0
 62
     5
 63
     7
421
 16777215
 74
     1
 91
        4
 64
     7
 65
   257
 75
     1
175
     1
 42
1.0
 92
        0
 66
   257
 43
1.0
 76
     1
 77
     6
 78
     2
 67
     7
 79
     5
170
     0
171
     0
290
     0
174
     0
 93
       13
 44
0.0
173
     0
291
     1
 45
0.0
1001
ACAD
1000
AcDbSavedByObjectVersion
1070
     0
  0
VISUALSTYLE
  5
38
102
{ACAD_REACTORS
330
2A
102
}
102
{ACAD_XDICTIONARY
360
306
102
}
330
2A
100
AcDbVisualStyle
  2
Linepattern
 70
    14
 71
     2
 72
     2
 73
     0
 90
        0
 40
-0.6
 41
-30.0
 62
     5
 63
     7
421
 16777215
 74
     1
 91
        4
 64
     7
 65
   257
 75
     7
175
     7
 42
1.0
 92
        8
 66
     7
 43
1.0
 76
     1
 77
     6
 78
     2
 67
     7
 79
     5
170
     0
171
     0
290
     0
174
     0
 93
        1
 44
0.0
173
     0
291
     1
 45
0.0
1001
ACAD
1000
AcDbSavedByObjectVersion
1070
     0
  0
VISUALSTYLE
  5
33
102
{ACAD_REACTORS
330
2A
102
}
102
{ACAD_XDICTIONARY
360
2FC
102
}
330
2A
100
AcDbVisualStyle
  2
Realistic
 70
     8
 71
     2
 72
     2
 73
     0
 90
        0
 40
-0.6
 41
-30.0
 62
     5
 63
     7
421
 16777215
 74
     1
 91
        0
 64
     7
 65
   257
 75
     1
175
     1
 42
1.0
 92
        8
 66
     8
424
  7895160
 43
1.0
 76
     1
 77
     6
 78
     2
 67
     7
 79
     5
170
     0
171
     0
290
     0
174
     0
 93
       13
 44
0.0
173
     0
291
     0
 45
0.0
1001
ACAD
1000
AcDbSavedByObjectVersion
1070
     0
  0
VISUALSTYLE
  5
37
102
{ACAD_REACTORS
330
2A
102
}
102
{ACAD_XDICTIONARY
360
304
102
}
330
2A
100
AcDbVisualStyle
  2
Thicken
 70
    13
 71
     2
 72
     2
 73
     0
 90
        0
 40
-0.6
 41
-30.0
 62
     5
 63
     7
421
 16777215
 74
     1
 91
        4
 64
     7
 65
   257
 75
     1
175
     1
 42
1.0
 92
       12
 66
     7
 43
1.0
 76
     1
 77
     6
 78
     2
 67
     7
 79
     5
170
     0
171
     0
290
     0
174
     0
 93
        1
 44
0.0
173
     0
291
     1
 45
0.0
1001
ACAD
1000
AcDbSavedByObjectVersion
1070
     0
  0
DICTIONARY
  5
30E
330
3D
100
AcDbDictionary
280
     1
281
     1
  3
ACAD_XREC_ROUNDTRIP
360
30F
  0
DICTIONARY
  5
30C
330
3C
100
AcDbDictionary
280
     1
281
     1
  3
ACAD_XREC_ROUNDTRIP
360
30D
  0
DICTIONARY
  5
310
330
3E
100
AcDbDictionary
280
     1
281
     1
  3
ACAD_XREC_ROUNDTRIP
360
311
  0
DICTIONARY
  5
2F4
330
2F
100
AcDbDictionary
280
     1
281
     1
  3
ACAD_XREC_ROUNDTRIP
360
2F5
  0
DICTIONARY
  5
2F8
330
31
100
AcDbDictionary
280
     1
281
     1
  3
ACAD_XREC_ROUNDTRIP
360
2F9
  0
DICTIONARY
  5
2F6
330
30
100
AcDbDictionary
280
     1
281
     1
  3
ACAD_XREC_ROUNDTRIP
360
2F7
  0
DICTIONARY
  5
2FA
330
32
100
AcDbDictionary
280
     1
281
     1
  3
ACAD_XREC_ROUNDTRIP
360
2FB
  0
DICTIONARY
  5
302
330
36
100
AcDbDictionary
280
     1
281
     1
  3
ACAD_XREC_ROUNDTRIP
360
303
  0
DICTIONARY
  5
30A
330
3A
100
AcDbDictionary
280
     1
281
     1
  3
ACAD_XREC_ROUNDTRIP
360
30B
  0
DICTIONARY
  5
2FE
330
34
100
AcDbDictionary
280
     1
281
     1
  3
ACAD_XREC_ROUNDTRIP
360
2FF
  0
DICTIONARY
  5
300
330
35
100
AcDbDictionary
280
     1
281
     1
  3
ACAD_XREC_ROUNDTRIP
360
301
  0
DICTIONARY
  5
308
330
39
100
AcDbDictionary
280
     1
281
     1
  3
ACAD_XREC_ROUNDTRIP
360
309
  0
DICTIONARY
  5
2EC
330
2B
100
AcDbDictionary
280
     1
281
     1
  3
ACAD_XREC_ROUNDTRIP
360
2ED
  0
DICTIONARY
  5
2EE
330
2C
100
AcDbDictionary
280
     1
281
     1
  3
ACAD_XREC_ROUNDTRIP
360
2EF
  0
DICTIONARY
  5
2F0
330
2D
100
AcDbDictionary
280
     1
281
     1
  3
ACAD_XREC_ROUNDTRIP
360
2F1
  0
DICTIONARY
  5
2F2
330
2E
100
AcDbDictionary
280
     1
281
     1
  3
ACAD_XREC_ROUNDTRIP
360
2F3
  0
DICTIONARY
  5
306
330
38
100
AcDbDictionary
280
     1
281
     1
  3
ACAD_XREC_ROUNDTRIP
360
307
  0
DICTIONARY
  5
2FC
330
33
100
AcDbDictionary
280
     1
281
     1
  3
ACAD_XREC_ROUNDTRIP
360
2FD
  0
DICTIONARY
  5
304
330
37
100
AcDbDictionary
280
     1
281
     1
  3
ACAD_XREC_ROUNDTRIP
360
305
  0
XRECORD
  5
30F
102
{ACAD_REACTORS
330
30E
102
}
330
30E
100
AcDbXrecord
280
     1
102
MATERIAL
148
0.0
149
0.0
149
0.0
 93
        0
 94
      127
282
     0
 72
     1
 77
     1
171
     1
175
     1
179
     1
273
     0
  0
XRECORD
  5
30D
102
{ACAD_REACTORS
330
30C
102
}
330
30C
100
AcDbXrecord
280
     1
102
MATERIAL
148
0.0
149
0.0
149
0.0
 93
        0
 94
      127
282
     0
 72
     1
 77
     1
171
     1
175
     1
179
     1
273
     0
  0
XRECORD
  5
311
102
{ACAD_REACTORS
330
310
102
}
330
310
100
AcDbXrecord
280
     1
102
MATERIAL
148
0.0
149
0.0
149
0.0
 93
        0
 94
      127
282
     0
 72
     1
 77
     1
171
     1
175
     1
179
     1
273
     0
  0
XRECORD
  5
2F5
102
{ACAD_REACTORS
330
2F4
102
}
330
2F4
100
AcDbXrecord
280
     1
102
RTVSPropertyOp0
 70
     1
102
RTVSPropertyOp1
 70
     1
102
RTVSPropertyOp2
 70
     1
102
RTVSPropertyOp3
 70
     1
102
RTVSPropertyOp4
 70
     1
102
RTVSPropertyOp5
 70
     1
102
RTVSPropertyOp6
 70
     1
102
RTVSPropertyOp7
 70
     1
102
RTVSPropertyOp8
 70
     1
102
RTVSPropertyOp9
 70
     1
102
RTVSPropertyOp10
 70
     1
102
RTVSPropertyOp11
 70
     1
102
RTVSPropertyOp12
 70
     1
102
RTVSPropertyOp13
 70
     1
102
RTVSPropertyOp14
 70
     1
102
RTVSPropertyOp15
 70
     1
102
RTVSPropertyOp16
 70
     1
102
RTVSPropertyOp17
 70
     1
102
RTVSPropertyOp18
 70
     1
102
RTVSPropertyOp19
 70
     1
102
RTVSPropertyOp20
 70
     1
102
RTVSPropertyOp21
 70
     1
102
RTVSPropertyOp22
 70
     1
102
RTVSPropertyOp23
 70
     1
102
RTVSPropertyOp24
 70
     1
102
RTVSPropertyOp25
 70
     1
102
RTVSPropertyOp26
 70
     1
102
RTVSPropertyOp27
 70
     1
102
RTVSPropertyOp28
 70
     1
102
RTVSPropertyOp29
 70
     1
102
RTVSPropertyOp30
 70
     1
102
RTVSPropertyOp31
 70
     1
102
RTVSPropertyOp32
 70
     1
  0
XRECORD
  5
2F9
102
{ACAD_REACTORS
330
2F8
102
}
330
2F8
100
AcDbXrecord
280
     1
102
RTVSPropertyOp0
 70
     1
102
RTVSPropertyOp1
 70
     1
102
RTVSPropertyOp2
 70
     1
102
RTVSPropertyOp3
 70
     1
102
RTVSPropertyOp4
 70
     1
102
RTVSPropertyOp5
 70
     1
102
RTVSPropertyOp6
 70
     1
102
RTVSPropertyOp7
 70
     1
102
RTVSPropertyOp8
 70
     1
102
RTVSPropertyOp9
 70
     1
102
RTVSPropertyOp10
 70
     1
102
RTVSPropertyOp11
 70
     1
102
RTVSPropertyOp12
 70
     1
102
RTVSPropertyOp13
 70
     1
102
RTVSPropertyOp14
 70
     1
102
RTVSPropertyOp15
 70
     1
102
RTVSPropertyOp16
 70
     1
102
RTVSPropertyOp17
 70
     1
102
RTVSPropertyOp18
 70
     1
102
RTVSPropertyOp19
 70
     1
102
RTVSPropertyOp20
 70
     1
102
RTVSPropertyOp21
 70
     1
102
RTVSPropertyOp22
 70
     1
102
RTVSPropertyOp23
 70
     1
102
RTVSPropertyOp24
 70
     1
102
RTVSPropertyOp25
 70
     1
102
RTVSPropertyOp26
 70
     1
102
RTVSPropertyOp27
 70
     1
102
RTVSPropertyOp28
 70
     1
102
RTVSPropertyOp29
 70
     1
102
RTVSPropertyOp30
 70
     1
102
RTVSPropertyOp31
 70
     1
102
RTVSPropertyOp32
 70
     1
  0
XRECORD
  5
2F7
102
{ACAD_REACTORS
330
2F6
102
}
330
2F6
100
AcDbXrecord
280
     1
102
RTVSPropertyOp0
 70
     1
102
RTVSPropertyOp1
 70
     1
102
RTVSPropertyOp2
 70
     1
102
RTVSPropertyOp3
 70
     1
102
RTVSPropertyOp4
 70
     1
102
RTVSPropertyOp5
 70
     1
102
RTVSPropertyOp6
 70
     1
102
RTVSPropertyOp7
 70
     1
102
RTVSPropertyOp8
 70
     1
102
RTVSPropertyOp9
 70
     1
102
RTVSPropertyOp10
 70
     1
102
RTVSPropertyOp11
 70
     1
102
RTVSPropertyOp12
 70
     1
102
RTVSPropertyOp13
 70
     1
102
RTVSPropertyOp14
 70
     1
102
RTVSPropertyOp15
 70
     1
102
RTVSPropertyOp16
 70
     1
102
RTVSPropertyOp17
 70
     1
102
RTVSPropertyOp18
 70
     1
102
RTVSPropertyOp19
 70
     1
102
RTVSPropertyOp20
 70
     1
102
RTVSPropertyOp21
 70
     1
102
RTVSPropertyOp22
 70
     1
102
RTVSPropertyOp23
 70
     1
102
RTVSPropertyOp24
 70
     1
102
RTVSPropertyOp25
 70
     1
102
RTVSPropertyOp26
 70
     1
102
RTVSPropertyOp27
 70
     1
102
RTVSPropertyOp28
 70
     1
102
RTVSPropertyOp29
 70
     1
102
RTVSPropertyOp30
 70
     1
102
RTVSPropertyOp31
 70
     1
102
RTVSPropertyOp32
 70
     1
  0
XRECORD
  5
2FB
102
{ACAD_REACTORS
330
2FA
102
}
330
2FA
100
AcDbXrecord
280
     1
102
RTVSPropertyOp0
 70
     1
102
RTVSPropertyOp1
 70
     1
102
RTVSPropertyOp2
 70
     1
102
RTVSPropertyOp3
 70
     1
102
RTVSPropertyOp4
 70
     1
102
RTVSPropertyOp5
 70
     1
102
RTVSPropertyOp6
 70
     1
102
RTVSPropertyOp7
 70
     1
102
RTVSPropertyOp8
 70
     1
102
RTVSPropertyOp9
 70
     1
102
RTVSPropertyOp10
 70
     1
102
RTVSPropertyOp11
 70
     1
102
RTVSPropertyOp12
 70
     1
102
RTVSPropertyOp13
 70
     1
102
RTVSPropertyOp14
 70
     1
102
RTVSPropertyOp15
 70
     1
102
RTVSPropertyOp16
 70
     1
102
RTVSPropertyOp17
 70
     1
102
RTVSPropertyOp18
 70
     1
102
RTVSPropertyOp19
 70
     1
102
RTVSPropertyOp20
 70
     1
102
RTVSPropertyOp21
 70
     1
102
RTVSPropertyOp22
 70
     1
102
RTVSPropertyOp23
 70
     1
102
RTVSPropertyOp24
 70
     1
102
RTVSPropertyOp25
 70
     1
102
RTVSPropertyOp26
 70
     1
102
RTVSPropertyOp27
 70
     1
102
RTVSPropertyOp28
 70
     1
102
RTVSPropertyOp29
 70
     1
102
RTVSPropertyOp30
 70
     1
102
RTVSPropertyOp31
 70
     1
102
RTVSPropertyOp32
 70
     1
  0
XRECORD
  5
303
102
{ACAD_REACTORS
330
302
102
}
330
302
100
AcDbXrecord
280
     1
102
RTVSPropertyOp0
 70
     1
102
RTVSPropertyOp1
 70
     1
102
RTVSPropertyOp2
 70
     1
102
RTVSPropertyOp3
 70
     1
102
RTVSPropertyOp4
 70
     1
102
RTVSPropertyOp5
 70
     1
102
RTVSPropertyOp6
 70
     1
102
RTVSPropertyOp7
 70
     1
102
RTVSPropertyOp8
 70
     1
102
RTVSPropertyOp9
 70
     1
102
RTVSPropertyOp10
 70
     1
102
RTVSPropertyOp11
 70
     1
102
RTVSPropertyOp12
 70
     1
102
RTVSPropertyOp13
 70
     1
102
RTVSPropertyOp14
 70
     1
102
RTVSPropertyOp15
 70
     1
102
RTVSPropertyOp16
 70
     1
102
RTVSPropertyOp17
 70
     1
102
RTVSPropertyOp18
 70
     1
102
RTVSPropertyOp19
 70
     1
102
RTVSPropertyOp20
 70
     1
102
RTVSPropertyOp21
 70
     1
102
RTVSPropertyOp22
 70
     1
102
RTVSPropertyOp23
 70
     1
102
RTVSPropertyOp24
 70
     1
102
RTVSPropertyOp25
 70
     1
102
RTVSPropertyOp26
 70
     1
102
RTVSPropertyOp27
 70
     1
102
RTVSPropertyOp28
 70
     1
102
RTVSPropertyOp29
 70
     1
102
RTVSPropertyOp30
 70
     1
102
RTVSPropertyOp31
 70
     1
102
RTVSPropertyOp32
 70
     1
  0
XRECORD
  5
30B
102
{ACAD_REACTORS
330
30A
102
}
330
30A
100
AcDbXrecord
280
     1
102
RTVSPropertyOp0
 70
     1
102
RTVSPropertyOp1
 70
     1
102
RTVSPropertyOp2
 70
     1
102
RTVSPropertyOp3
 70
     1
102
RTVSPropertyOp4
 70
     1
102
RTVSPropertyOp5
 70
     1
102
RTVSPropertyOp6
 70
     1
102
RTVSPropertyOp7
 70
     1
102
RTVSPropertyOp8
 70
     1
102
RTVSPropertyOp9
 70
     1
102
RTVSPropertyOp10
 70
     1
102
RTVSPropertyOp11
 70
     1
102
RTVSPropertyOp12
 70
     1
102
RTVSPropertyOp13
 70
     1
102
RTVSPropertyOp14
 70
     1
102
RTVSPropertyOp15
 70
     1
102
RTVSPropertyOp16
 70
     1
102
RTVSPropertyOp17
 70
     1
102
RTVSPropertyOp18
 70
     1
102
RTVSPropertyOp19
 70
     1
102
RTVSPropertyOp20
 70
     1
102
RTVSPropertyOp21
 70
     1
102
RTVSPropertyOp22
 70
     1
102
RTVSPropertyOp23
 70
     1
102
RTVSPropertyOp24
 70
     1
102
RTVSPropertyOp25
 70
     1
102
RTVSPropertyOp26
 70
     1
102
RTVSPropertyOp27
 70
     1
102
RTVSPropertyOp28
 70
     1
102
RTVSPropertyOp29
 70
     1
102
RTVSPropertyOp30
 70
     1
102
RTVSPropertyOp31
 70
     1
102
RTVSPropertyOp32
 70
     1
  0
XRECORD
  5
2FF
102
{ACAD_REACTORS
330
2FE
102
}
330
2FE
100
AcDbXrecord
280
     1
102
RTVSPropertyOp0
 70
     1
102
RTVSPropertyOp1
 70
     1
102
RTVSPropertyOp2
 70
     1
102
RTVSPropertyOp3
 70
     1
102
RTVSPropertyOp4
 70
     1
102
RTVSPropertyOp5
 70
     1
102
RTVSPropertyOp6
 70
     1
102
RTVSPropertyOp7
 70
     1
102
RTVSPropertyOp8
 70
     1
102
RTVSPropertyOp9
 70
     1
102
RTVSPropertyOp10
 70
     1
102
RTVSPropertyOp11
 70
     1
102
RTVSPropertyOp12
 70
     1
102
RTVSPropertyOp13
 70
     1
102
RTVSPropertyOp14
 70
     1
102
RTVSPropertyOp15
 70
     1
102
RTVSPropertyOp16
 70
     1
102
RTVSPropertyOp17
 70
     1
102
RTVSPropertyOp18
 70
     1
102
RTVSPropertyOp19
 70
     1
102
RTVSPropertyOp20
 70
     1
102
RTVSPropertyOp21
 70
     1
102
RTVSPropertyOp22
 70
     1
102
RTVSPropertyOp23
 70
     1
102
RTVSPropertyOp24
 70
     1
102
RTVSPropertyOp25
 70
     1
102
RTVSPropertyOp26
 70
     1
102
RTVSPropertyOp27
 70
     1
102
RTVSPropertyOp28
 70
     1
102
RTVSPropertyOp29
 70
     1
102
RTVSPropertyOp30
 70
     1
102
RTVSPropertyOp31
 70
     1
102
RTVSPropertyOp32
 70
     1
  0
XRECORD
  5
301
102
{ACAD_REACTORS
330
300
102
}
330
300
100
AcDbXrecord
280
     1
102
RTVSPropertyOp0
 70
     1
102
RTVSPropertyOp1
 70
     1
102
RTVSPropertyOp2
 70
     1
102
RTVSPropertyOp3
 70
     1
102
RTVSPropertyOp4
 70
     1
102
RTVSPropertyOp5
 70
     1
102
RTVSPropertyOp6
 70
     1
102
RTVSPropertyOp7
 70
     1
102
RTVSPropertyOp8
 70
     1
102
RTVSPropertyOp9
 70
     1
102
RTVSPropertyOp10
 70
     1
102
RTVSPropertyOp11
 70
     1
102
RTVSPropertyOp12
 70
     1
102
RTVSPropertyOp13
 70
     1
102
RTVSPropertyOp14
 70
     1
102
RTVSPropertyOp15
 70
     1
102
RTVSPropertyOp16
 70
     1
102
RTVSPropertyOp17
 70
     1
102
RTVSPropertyOp18
 70
     1
102
RTVSPropertyOp19
 70
     1
102
RTVSPropertyOp20
 70
     1
102
RTVSPropertyOp21
 70
     1
102
RTVSPropertyOp22
 70
     1
102
RTVSPropertyOp23
 70
     1
102
RTVSPropertyOp24
 70
     1
102
RTVSPropertyOp25
 70
     1
102
RTVSPropertyOp26
 70
     1
102
RTVSPropertyOp27
 70
     1
102
RTVSPropertyOp28
 70
     1
102
RTVSPropertyOp29
 70
     1
102
RTVSPropertyOp30
 70
     1
102
RTVSPropertyOp31
 70
     1
102
RTVSPropertyOp32
 70
     1
  0
XRECORD
  5
309
102
{ACAD_REACTORS
330
308
102
}
330
308
100
AcDbXrecord
280
     1
102
RTVSPropertyOp0
 70
     1
102
RTVSPropertyOp1
 70
     1
102
RTVSPropertyOp2
 70
     1
102
RTVSPropertyOp3
 70
     1
102
RTVSPropertyOp4
 70
     1
102
RTVSPropertyOp5
 70
     1
102
RTVSPropertyOp6
 70
     1
102
RTVSPropertyOp7
 70
     1
102
RTVSPropertyOp8
 70
     1
102
RTVSPropertyOp9
 70
     1
102
RTVSPropertyOp10
 70
     1
102
RTVSPropertyOp11
 70
     1
102
RTVSPropertyOp12
 70
     1
102
RTVSPropertyOp13
 70
     1
102
RTVSPropertyOp14
 70
     1
102
RTVSPropertyOp15
 70
     1
102
RTVSPropertyOp16
 70
     1
102
RTVSPropertyOp17
 70
     1
102
RTVSPropertyOp18
 70
     1
102
RTVSPropertyOp19
 70
     1
102
RTVSPropertyOp20
 70
     1
102
RTVSPropertyOp21
 70
     1
102
RTVSPropertyOp22
 70
     1
102
RTVSPropertyOp23
 70
     1
102
RTVSPropertyOp24
 70
     1
102
RTVSPropertyOp25
 70
     1
102
RTVSPropertyOp26
 70
     1
102
RTVSPropertyOp27
 70
     1
102
RTVSPropertyOp28
 70
     1
102
RTVSPropertyOp29
 70
     1
102
RTVSPropertyOp30
 70
     1
102
RTVSPropertyOp31
 70
     1
102
RTVSPropertyOp32
 70
     1
  0
XRECORD
  5
2ED
102
{ACAD_REACTORS
330
2EC
102
}
330
2EC
100
AcDbXrecord
280
     1
102
RTVSPropertyOp0
 70
     1
102
RTVSPropertyOp1
 70
     1
102
RTVSPropertyOp2
 70
     1
102
RTVSPropertyOp3
 70
     1
102
RTVSPropertyOp4
 70
     1
102
RTVSPropertyOp5
 70
     1
102
RTVSPropertyOp6
 70
     1
102
RTVSPropertyOp7
 70
     1
102
RTVSPropertyOp8
 70
     1
102
RTVSPropertyOp9
 70
     1
102
RTVSPropertyOp10
 70
     1
102
RTVSPropertyOp11
 70
     1
102
RTVSPropertyOp12
 70
     1
102
RTVSPropertyOp13
 70
     1
102
RTVSPropertyOp14
 70
     1
102
RTVSPropertyOp15
 70
     1
102
RTVSPropertyOp16
 70
     1
102
RTVSPropertyOp17
 70
     1
102
RTVSPropertyOp18
 70
     1
102
RTVSPropertyOp19
 70
     1
102
RTVSPropertyOp20
 70
     1
102
RTVSPropertyOp21
 70
     1
102
RTVSPropertyOp22
 70
     1
102
RTVSPropertyOp23
 70
     1
102
RTVSPropertyOp24
 70
     1
102
RTVSPropertyOp25
 70
     1
102
RTVSPropertyOp26
 70
     1
102
RTVSPropertyOp27
 70
     1
102
RTVSPropertyOp28
 70
     1
102
RTVSPropertyOp29
 70
     1
102
RTVSPropertyOp30
 70
     1
102
RTVSPropertyOp31
 70
     1
102
RTVSPropertyOp32
 70
     1
  0
XRECORD
  5
2EF
102
{ACAD_REACTORS
330
2EE
102
}
330
2EE
100
AcDbXrecord
280
     1
102
RTVSPropertyOp0
 70
     1
102
RTVSPropertyOp1
 70
     1
102
RTVSPropertyOp2
 70
     1
102
RTVSPropertyOp3
 70
     1
102
RTVSPropertyOp4
 70
     1
102
RTVSPropertyOp5
 70
     1
102
RTVSPropertyOp6
 70
     1
102
RTVSPropertyOp7
 70
     1
102
RTVSPropertyOp8
 70
     1
102
RTVSPropertyOp9
 70
     1
102
RTVSPropertyOp10
 70
     1
102
RTVSPropertyOp11
 70
     1
102
RTVSPropertyOp12
 70
     1
102
RTVSPropertyOp13
 70
     1
102
RTVSPropertyOp14
 70
     1
102
RTVSPropertyOp15
 70
     1
102
RTVSPropertyOp16
 70
     1
102
RTVSPropertyOp17
 70
     1
102
RTVSPropertyOp18
 70
     1
102
RTVSPropertyOp19
 70
     1
102
RTVSPropertyOp20
 70
     1
102
RTVSPropertyOp21
 70
     1
102
RTVSPropertyOp22
 70
     1
102
RTVSPropertyOp23
 70
     1
102
RTVSPropertyOp24
 70
     1
102
RTVSPropertyOp25
 70
     1
102
RTVSPropertyOp26
 70
     1
102
RTVSPropertyOp27
 70
     1
102
RTVSPropertyOp28
 70
     1
102
RTVSPropertyOp29
 70
     1
102
RTVSPropertyOp30
 70
     1
102
RTVSPropertyOp31
 70
     1
102
RTVSPropertyOp32
 70
     1
  0
XRECORD
  5
2F1
102
{ACAD_REACTORS
330
2F0
102
}
330
2F0
100
AcDbXrecord
280
     1
102
RTVSPropertyOp0
 70
     1
102
RTVSPropertyOp1
 70
     1
102
RTVSPropertyOp2
 70
     1
102
RTVSPropertyOp3
 70
     1
102
RTVSPropertyOp4
 70
     1
102
RTVSPropertyOp5
 70
     1
102
RTVSPropertyOp6
 70
     1
102
RTVSPropertyOp7
 70
     1
102
RTVSPropertyOp8
 70
     1
102
RTVSPropertyOp9
 70
     1
102
RTVSPropertyOp10
 70
     1
102
RTVSPropertyOp11
 70
     1
102
RTVSPropertyOp12
 70
     1
102
RTVSPropertyOp13
 70
     1
102
RTVSPropertyOp14
 70
     1
102
RTVSPropertyOp15
 70
     1
102
RTVSPropertyOp16
 70
     1
102
RTVSPropertyOp17
 70
     1
102
RTVSPropertyOp18
 70
     1
102
RTVSPropertyOp19
 70
     1
102
RTVSPropertyOp20
 70
     1
102
RTVSPropertyOp21
 70
     1
102
RTVSPropertyOp22
 70
     1
102
RTVSPropertyOp23
 70
     1
102
RTVSPropertyOp24
 70
     1
102
RTVSPropertyOp25
 70
     1
102
RTVSPropertyOp26
 70
     1
102
RTVSPropertyOp27
 70
     1
102
RTVSPropertyOp28
 70
     1
102
RTVSPropertyOp29
 70
     1
102
RTVSPropertyOp30
 70
     1
102
RTVSPropertyOp31
 70
     1
102
RTVSPropertyOp32
 70
     1
  0
XRECORD
  5
2F3
102
{ACAD_REACTORS
330
2F2
102
}
330
2F2
100
AcDbXrecord
280
     1
102
RTVSPropertyOp0
 70
     1
102
RTVSPropertyOp1
 70
     1
102
RTVSPropertyOp2
 70
     1
102
RTVSPropertyOp3
 70
     1
102
RTVSPropertyOp4
 70
     1
102
RTVSPropertyOp5
 70
     1
102
RTVSPropertyOp6
 70
     1
102
RTVSPropertyOp7
 70
     1
102
RTVSPropertyOp8
 70
     1
102
RTVSPropertyOp9
 70
     1
102
RTVSPropertyOp10
 70
     1
102
RTVSPropertyOp11
 70
     1
102
RTVSPropertyOp12
 70
     1
102
RTVSPropertyOp13
 70
     1
102
RTVSPropertyOp14
 70
     1
102
RTVSPropertyOp15
 70
     1
102
RTVSPropertyOp16
 70
     1
102
RTVSPropertyOp17
 70
     1
102
RTVSPropertyOp18
 70
     1
102
RTVSPropertyOp19
 70
     1
102
RTVSPropertyOp20
 70
     1
102
RTVSPropertyOp21
 70
     1
102
RTVSPropertyOp22
 70
     1
102
RTVSPropertyOp23
 70
     1
102
RTVSPropertyOp24
 70
     1
102
RTVSPropertyOp25
 70
     1
102
RTVSPropertyOp26
 70
     1
102
RTVSPropertyOp27
 70
     1
102
RTVSPropertyOp28
 70
     1
102
RTVSPropertyOp29
 70
     1
102
RTVSPropertyOp30
 70
     1
102
RTVSPropertyOp31
 70
     1
102
RTVSPropertyOp32
 70
     1
  0
XRECORD
  5
307
102
{ACAD_REACTORS
330
306
102
}
330
306
100
AcDbXrecord
280
     1
102
RTVSPropertyOp0
 70
     1
102
RTVSPropertyOp1
 70
     1
102
RTVSPropertyOp2
 70
     1
102
RTVSPropertyOp3
 70
     1
102
RTVSPropertyOp4
 70
     1
102
RTVSPropertyOp5
 70
     1
102
RTVSPropertyOp6
 70
     1
102
RTVSPropertyOp7
 70
     1
102
RTVSPropertyOp8
 70
     1
102
RTVSPropertyOp9
 70
     1
102
RTVSPropertyOp10
 70
     1
102
RTVSPropertyOp11
 70
     1
102
RTVSPropertyOp12
 70
     1
102
RTVSPropertyOp13
 70
     1
102
RTVSPropertyOp14
 70
     1
102
RTVSPropertyOp15
 70
     1
102
RTVSPropertyOp16
 70
     1
102
RTVSPropertyOp17
 70
     1
102
RTVSPropertyOp18
 70
     1
102
RTVSPropertyOp19
 70
     1
102
RTVSPropertyOp20
 70
     1
102
RTVSPropertyOp21
 70
     1
102
RTVSPropertyOp22
 70
     1
102
RTVSPropertyOp23
 70
     1
102
RTVSPropertyOp24
 70
     1
102
RTVSPropertyOp25
 70
     1
102
RTVSPropertyOp26
 70
     1
102
RTVSPropertyOp27
 70
     1
102
RTVSPropertyOp28
 70
     1
102
RTVSPropertyOp29
 70
     1
102
RTVSPropertyOp30
 70
     1
102
RTVSPropertyOp31
 70
     1
102
RTVSPropertyOp32
 70
     1
  0
XRECORD
  5
2FD
102
{ACAD_REACTORS
330
2FC
102
}
330
2FC
100
AcDbXrecord
280
     1
102
RTVSPropertyOp0
 70
     1
102
RTVSPropertyOp1
 70
     1
102
RTVSPropertyOp2
 70
     1
102
RTVSPropertyOp3
 70
     1
102
RTVSPropertyOp4
 70
     1
102
RTVSPropertyOp5
 70
     1
102
RTVSPropertyOp6
 70
     1
102
RTVSPropertyOp7
 70
     1
102
RTVSPropertyOp8
 70
     1
102
RTVSPropertyOp9
 70
     1
102
RTVSPropertyOp10
 70
     1
102
RTVSPropertyOp11
 70
     1
102
RTVSPropertyOp12
 70
     1
102
RTVSPropertyOp13
 70
     1
102
RTVSPropertyOp14
 70
     1
102
RTVSPropertyOp15
 70
     1
102
RTVSPropertyOp16
 70
     1
102
RTVSPropertyOp17
 70
     1
102
RTVSPropertyOp18
 70
     1
102
RTVSPropertyOp19
 70
     1
102
RTVSPropertyOp20
 70
     1
102
RTVSPropertyOp21
 70
     1
102
RTVSPropertyOp22
 70
     1
102
RTVSPropertyOp23
 70
     1
102
RTVSPropertyOp24
 70
     1
102
RTVSPropertyOp25
 70
     1
102
RTVSPropertyOp26
 70
     1
102
RTVSPropertyOp27
 70
     1
102
RTVSPropertyOp28
 70
     1
102
RTVSPropertyOp29
 70
     1
102
RTVSPropertyOp30
 70
     1
102
RTVSPropertyOp31
 70
     1
102
RTVSPropertyOp32
 70
     1
  0
XRECORD
  5
305
102
{ACAD_REACTORS
330
304
102
}
330
304
100
AcDbXrecord
280
     1
102
RTVSPropertyOp0
 70
     1
102
RTVSPropertyOp1
 70
     1
102
RTVSPropertyOp2
 70
     1
102
RTVSPropertyOp3
 70
     1
102
RTVSPropertyOp4
 70
     1
102
RTVSPropertyOp5
 70
     1
102
RTVSPropertyOp6
 70
     1
102
RTVSPropertyOp7
 70
     1
102
RTVSPropertyOp8
 70
     1
102
RTVSPropertyOp9
 70
     1
102
RTVSPropertyOp10
 70
     1
102
RTVSPropertyOp11
 70
     1
102
RTVSPropertyOp12
 70
     1
102
RTVSPropertyOp13
 70
     1
102
RTVSPropertyOp14
 70
     1
102
RTVSPropertyOp15
 70
     1
102
RTVSPropertyOp16
 70
     1
102
RTVSPropertyOp17
 70
     1
102
RTVSPropertyOp18
 70
     1
102
RTVSPropertyOp19
 70
     1
102
RTVSPropertyOp20
 70
     1
102
RTVSPropertyOp21
 70
     1
102
RTVSPropertyOp22
 70
     1
102
RTVSPropertyOp23
 70
     1
102
RTVSPropertyOp24
 70
     1
102
RTVSPropertyOp25
 70
     1
102
RTVSPropertyOp26
 70
     1
102
RTVSPropertyOp27
 70
     1
102
RTVSPropertyOp28
 70
     1
102
RTVSPropertyOp29
 70
     1
102
RTVSPropertyOp30
 70
     1
102
RTVSPropertyOp31
 70
     1
102
RTVSPropertyOp32
 70
     1
  0
ENDSEC
  0
EOF
