  0
SECTION
  2
HEADER
  9
$ACADVER
  1
AC1018
  9
$ACADMAINTVER
 70
     0
  9
$DWGCODEPAGE
  3
ANSI_1252
  9
$INSBASE
 10
0.0
 20
0.0
 30
0.0
  9
$EXTMIN
 10
-93.99999937301999
 20
328.6124999705789
 30
0.0
  9
$EXTMAX
 10
203.0000006269781
 20
538.612499970579
 30
0.0
  9
$LIMMIN
 10
0.0
 20
0.0
  9
$LIMMAX
 10
12.0
 20
9.0
  9
$ORTHOMODE
 70
     0
  9
$REGENMODE
 70
     1
  9
$FILLMODE
 70
     1
  9
$QTEXTMODE
 70
     0
  9
$MIRRTEXT
 70
     1
  9
$LTSCALE
 40
1.0
  9
$ATTMODE
 70
     1
  9
$TEXTSIZE
 40
0.2
  9
$TRACEWID
 40
0.05
  9
$TEXTSTYLE
  7
Standard
  9
$CLAYER
  8
0
  9
$CELTYPE
  6
ByLayer
  9
$CECOLOR
 62
   256
  9
$CELTSCALE
 40
1.0
  9
$DISPSILH
 70
     0
  9
$DIMSCALE
 40
1.0
  9
$DIMASZ
 40
0.18
  9
$DIMEXO
 40
0.0625
  9
$DIMDLI
 40
0.38
  9
$DIMRND
 40
0.0
  9
$DIMDLE
 40
0.0
  9
$DIMEXE
 40
0.18
  9
$DIMTP
 40
0.0
  9
$DIMTM
 40
0.0
  9
$DIMTXT
 40
0.18
  9
$DIMCEN
 40
0.09
  9
$DIMTSZ
 40
0.0
  9
$DIMTOL
 70
     0
  9
$DIMLIM
 70
     0
  9
$DIMTIH
 70
     1
  9
$DIMTOH
 70
     1
  9
$DIMSE1
 70
     0
  9
$DIMSE2
 70
     0
  9
$DIMTAD
 70
     0
  9
$DIMZIN
 70
     0
  9
$DIMBLK
  1

  9
$DIMASO
 70
     1
  9
$DIMSHO
 70
     1
  9
$DIMPOST
  1

  9
$DIMAPOST
  1

  9
$DIMALT
 70
     0
  9
$DIMALTD
 70
     2
  9
$DIMALTF
 40
25.4
  9
$DIMLFAC
 40
1.0
  9
$DIMTOFL
 70
     0
  9
$DIMTVP
 40
0.0
  9
$DIMTIX
 70
     0
  9
$DIMSOXD
 70
     0
  9
$DIMSAH
 70
     0
  9
$DIMBLK1
  1

  9
$DIMBLK2
  1

  9
$DIMSTYLE
  2
Standard
  9
$DIMCLRD
 70
     0
  9
$DIMCLRE
 70
     0
  9
$DIMCLRT
 70
     0
  9
$DIMTFAC
 40
1.0
  9
$DIMGAP
 40
0.09
  9
$DIMJUST
 70
     0
  9
$DIMSD1
 70
     0
  9
$DIMSD2
 70
     0
  9
$DIMTOLJ
 70
     1
  9
$DIMTZIN
 70
     0
  9
$DIMALTZ
 70
     0
  9
$DIMALTTZ
 70
     0
  9
$DIMUPT
 70
     0
  9
$DIMDEC
 70
     4
  9
$DIMTDEC
 70
     4
  9
$DIMALTU
 70
     2
  9
$DIMALTTD
 70
     2
  9
$DIMTXSTY
  7
Standard
  9
$DIMAUNIT
 70
     0
  9
$DIMADEC
 70
     0
  9
$DIMALTRND
 40
0.0
  9
$DIMAZIN
 70
     0
  9
$DIMDSEP
 70
    46
  9
$DIMATFIT
 70
     3
  9
$DIMFRAC
 70
     0
  9
$DIMLDRBLK
  1

  9
$DIMLUNIT
 70
     2
  9
$DIMLWD
 70
    -2
  9
$DIMLWE
 70
    -2
  9
$DIMTMOVE
 70
     0
  9
$LUNITS
 70
     2
  9
$LUPREC
 70
     4
  9
$SKETCHINC
 40
0.1
  9
$FILLETRAD
 40
0.5
  9
$AUNITS
 70
     0
  9
$AUPREC
 70
     0
  9
$MENU
  1
.
  9
$ELEVATION
 40
0.0
  9
$PELEVATION
 40
0.0
  9
$THICKNESS
 40
0.0
  9
$LIMCHECK
 70
     0
  9
$CHAMFERA
 40
0.5
  9
$CHAMFERB
 40
0.5
  9
$CHAMFERC
 40
1.0
  9
$CHAMFERD
 40
0.0
  9
$SKPOLY
 70
     0
  9
$TDCREATE
 40
2458148.500511169
  9
$TDUCREATE
 40
2458148.458844502
  9
$TDUPDATE
 40
2458148.500511713
  9
$TDUUPDATE
 40
2458148.458845046
  9
$TDINDWG
 40
0.0000000116
  9
$TDUSRTIMER
 40
0.0000000116
  9
$USRTIMER
 70
     1
  9
$ANGBASE
 50
0.0
  9
$ANGDIR
 70
     0
  9
$PDMODE
 70
     0
  9
$PDSIZE
 40
0.0
  9
$PLINEWID
 40
0.0
  9
$SPLFRAME
 70
     0
  9
$SPLINETYPE
 70
     6
  9
$SPLINESEGS
 70
     8
  9
$HANDSEED
  5
2CD
  9
$SURFTAB1
 70
     6
  9
$SURFTAB2
 70
     6
  9
$SURFTYPE
 70
     6
  9
$SURFU
 70
     6
  9
$SURFV
 70
     6
  9
$UCSBASE
  2

  9
$UCSNAME
  2

  9
$UCSORG
 10
0.0
 20
0.0
 30
0.0
  9
$UCSXDIR
 10
1.0
 20
0.0
 30
0.0
  9
$UCSYDIR
 10
0.0
 20
1.0
 30
0.0
  9
$UCSORTHOREF
  2

  9
$UCSORTHOVIEW
 70
     0
  9
$UCSORGTOP
 10
0.0
 20
0.0
 30
0.0
  9
$UCSORGBOTTOM
 10
0.0
 20
0.0
 30
0.0
  9
$UCSORGLEFT
 10
0.0
 20
0.0
 30
0.0
  9
$UCSORGRIGHT
 10
0.0
 20
0.0
 30
0.0
  9
$UCSORGFRONT
 10
0.0
 20
0.0
 30
0.0
  9
$UCSORGBACK
 10
0.0
 20
0.0
 30
0.0
  9
$PUCSBASE
  2

  9
$PUCSNAME
  2

  9
$PUCSORG
 10
0.0
 20
0.0
 30
0.0
  9
$PUCSXDIR
 10
1.0
 20
0.0
 30
0.0
  9
$PUCSYDIR
 10
0.0
 20
1.0
 30
0.0
  9
$PUCSORTHOREF
  2

  9
$PUCSORTHOVIEW
 70
     0
  9
$PUCSORGTOP
 10
0.0
 20
0.0
 30
0.0
  9
$PUCSORGBOTTOM
 10
0.0
 20
0.0
 30
0.0
  9
$PUCSORGLEFT
 10
0.0
 20
0.0
 30
0.0
  9
$PUCSORGRIGHT
 10
0.0
 20
0.0
 30
0.0
  9
$PUCSORGFRONT
 10
0.0
 20
0.0
 30
0.0
  9
$PUCSORGBACK
 10
0.0
 20
0.0
 30
0.0
  9
$USERI1
 70
     0
  9
$USERI2
 70
     0
  9
$USERI3
 70
     0
  9
$USERI4
 70
     0
  9
$USERI5
 70
     0
  9
$USERR1
 40
18.1
  9
$USERR2
 40
0.0
  9
$USERR3
 40
0.0
  9
$USERR4
 40
0.0
  9
$USERR5
 40
0.0
  9
$WORLDVIEW
 70
     1
  9
$SHADEDGE
 70
     3
  9
$SHADEDIF
 70
    70
  9
$TILEMODE
 70
     1
  9
$MAXACTVP
 70
    64
  9
$PINSBASE
 10
0.0
 20
0.0
 30
0.0
  9
$PLIMCHECK
 70
     0
  9
$PEXTMIN
 10
1.00000000000000E+20
 20
1.00000000000000E+20
 30
1.00000000000000E+20
  9
$PEXTMAX
 10
-1.00000000000000E+20
 20
-1.00000000000000E+20
 30
-1.00000000000000E+20
  9
$PLIMMIN
 10
0.0
 20
0.0
  9
$PLIMMAX
 10
12.0
 20
9.0
  9
$UNITMODE
 70
     0
  9
$VISRETAIN
 70
     1
  9
$PLINEGEN
 70
     0
  9
$PSLTSCALE
 70
     1
  9
$TREEDEPTH
 70
  3020
  9
$CMLSTYLE
  2
Standard
  9
$CMLJUST
 70
     0
  9
$CMLSCALE
 40
1.0
  9
$PROXYGRAPHICS
 70
     1
  9
$MEASUREMENT
 70
     1
  9
$CELWEIGHT
370
    -1
  9
$ENDCAPS
280
     0
  9
$JOINSTYLE
280
     0
  9
$LWDISPLAY
290
     0
  9
$INSUNITS
 70
     4
  9
$HYPERLINKBASE
  1

  9
$STYLESHEET
  1

  9
$XEDIT
290
     1
  9
$CEPSNTYPE
380
     0
  9
$PSTYLEMODE
290
     1
  9
$FINGERPRINTGUID
  2
{8A74A2A9-A376-4D3D-936A-A4A2C815B50A}
  9
$VERSIONGUID
  2
{FAEB1C32-E019-11D5-929B-00C0DF256EC4}
  9
$EXTNAMES
290
     1
  9
$PSVPSCALE
 40
0.0
  9
$OLESTARTUP
290
     0
  9
$SORTENTS
280
   127
  9
$INDEXCTL
280
     0
  9
$HIDETEXT
280
     1
  9
$XCLIPFRAME
290
     0
  9
$HALOGAP
280
     0
  9
$OBSCOLOR
 70
   257
  9
$OBSLTYPE
280
     0
  9
$INTERSECTIONDISPLAY
280
     0
  9
$INTERSECTIONCOLOR
 70
   257
  9
$DIMASSOC
280
     2
  9
$PROJECTNAME
  1

  0
ENDSEC
  0
SECTION
  2
CLASSES
  0
CLASS
  1
ACDBDICTIONARYWDFLT
  2
AcDbDictionaryWithDefault
  3
ObjectDBX Classes
 90
        0
 91
        4
280
     0
281
     0
  0
CLASS
  1
VISUALSTYLE
  2
AcDbVisualStyle
  3
ObjectDBX Classes
 90
     4095
 91
        4
280
     0
281
     0
  0
CLASS
  1
MATERIAL
  2
AcDbMaterial
  3
ObjectDBX Classes
 90
     1153
 91
        4
280
     0
281
     0
  0
ENDSEC
  0
SECTION
  2
TABLES
  0
TABLE
  2
VPORT
  5
8
330
0
100
AcDbSymbolTable
 70
     1
  0
VPORT
  5
29
330
8
100
AcDbSymbolTableRecord
100
AcDbViewportTableRecord
  2
*Active
 70
     0
 10
0.0
 20
0.0
 11
1.0
 21
1.0
 12
54.50000062697906
 22
433.6124999705789
 13
0.0
 23
0.0
 14
0.5
 24
0.5
 15
0.5
 25
0.5
 16
0.0
 26
0.0
 36
1.0
 17
0.0
 27
0.0
 37
0.0
 40
231.0000000000002
 41
1.60267857142857
 42
50.0
 43
0.0
 44
0.0
 50
0.0
 51
0.0
 71
     0
 72
   100
 73
     1
 74
     3
 75
     0
 76
     0
 77
     0
 78
     0
281
     0
 65
     1
110
0.0
120
0.0
130
0.0
111
1.0
121
0.0
131
0.0
112
0.0
122
1.0
132
0.0
 79
     0
146
0.0
  0
ENDTAB
  0
TABLE
  2
LTYPE
  5
5
330
0
100
AcDbSymbolTable
 70
     8
  0
LTYPE
  5
14
330
5
100
AcDbSymbolTableRecord
100
AcDbLinetypeTableRecord
  2
ByBlock
 70
     0
  3

 72
    65
 73
     0
 40
0.0
  0
LTYPE
  5
15
330
5
100
AcDbSymbolTableRecord
100
AcDbLinetypeTableRecord
  2
ByLayer
 70
     0
  3

 72
    65
 73
     0
 40
0.0
  0
LTYPE
  5
16
330
5
100
AcDbSymbolTableRecord
100
AcDbLinetypeTableRecord
  2
Continuous
 70
     0
  3
Solid line
 72
    65
 73
     0
 40
0.0
  0
LTYPE
  5
3F
330
5
100
AcDbSymbolTableRecord
100
AcDbLinetypeTableRecord
  2
DASHED
 70
     0
  3
Dashed
 72
    65
 73
     2
 40
15.0
 49
7.0
 74
     0
 49
-8.0
 74
     0
  0
LTYPE
  5
40
330
5
100
AcDbSymbolTableRecord
100
AcDbLinetypeTableRecord
  2
DOTTED
 70
     0
  3
Dotted
 72
    65
 73
     2
 40
1.0
 49
0.0
 74
     0
 49
-1.0
 74
     0
  0
LTYPE
  5
41
330
5
100
AcDbSymbolTableRecord
100
AcDbLinetypeTableRecord
  2
DOT_CENTER
 70
     0
  3
Dot_Center
 72
    65
 73
     4
 40
14.0
 49
12.0
 74
     0
 49
-1.0
 74
     0
 49
0.0
 74
     0
 49
-1.0
 74
     0
  0
LTYPE
  5
42
330
5
100
AcDbSymbolTableRecord
100
AcDbLinetypeTableRecord
  2
LONG_DASHED
 70
     0
  3
Long_Dashed
 72
    65
 73
     2
 40
15.0
 49
10.0
 74
     0
 49
-5.0
 74
     0
  0
LTYPE
  5
43
330
5
100
AcDbSymbolTableRecord
100
AcDbLinetypeTableRecord
  2
DASH_CENTER
 70
     0
  3
Dash_Center
 72
    65
 73
     4
 40
14.0
 49
11.0
 74
     0
 49
-1.0
 74
     0
 49
1.0
 74
     0
 49
-1.0
 74
     0
  0
LTYPE
  5
44
330
5
100
AcDbSymbolTableRecord
100
AcDbLinetypeTableRecord
  2
PHANTOM
 70
     0
  3
Phantom
 72
    65
 73
     6
 40
13.0
 49
10.0
 74
     0
 49
-1.0
 74
     0
 49
0.0
 74
     0
 49
-1.0
 74
     0
 49
0.0
 74
     0
 49
-1.0
 74
     0
  0
LTYPE
  5
45
330
5
100
AcDbSymbolTableRecord
100
AcDbLinetypeTableRecord
  2
CENTER_DASH_DASH
 70
     0
  3
Center_Dash_Dash
 72
    65
 73
     6
 40
14.0
 49
9.0
 74
     0
 49
-1.0
 74
     0
 49
1.0
 74
     0
 49
-1.0
 74
     0
 49
1.0
 74
     0
 49
-1.0
 74
     0
  0
ENDTAB
  0
TABLE
  2
LAYER
  5
2
330
0
100
AcDbSymbolTable
 70
     2
  0
LAYER
  5
10
330
2
100
AcDbSymbolTableRecord
100
AcDbLayerTableRecord
  2
0
 70
     0
 62
     7
  6
Continuous
370
    -3
390
F
  0
LAYER
  5
46
330
2
100
AcDbSymbolTableRecord
100
AcDbLayerTableRecord
  2
1
 70
     0
 62
     7
  6
Continuous
370
    -3
390
F
  0
ENDTAB
  0
TABLE
  2
STYLE
  5
3
330
0
100
AcDbSymbolTable
 70
     5
  0
STYLE
  5
11
330
3
100
AcDbSymbolTableRecord
100
AcDbTextStyleTableRecord
  2
Standard
 70
     0
 40
0.0
 41
1.0
 50
0.0
 71
     0
 42
0.2
  3
txt
  4

  0
STYLE
  5
CC
330
3
100
AcDbSymbolTableRecord
100
AcDbTextStyleTableRecord
  2
CONVERTER_11
 70
     0
 40
0.0
 41
0.9
 50
0.0
 71
     0
 42
0.2
  3
txt.shx
  4

  0
STYLE
  5
268
330
3
100
AcDbSymbolTableRecord
100
AcDbTextStyleTableRecord
  2
CONVERTER_12
 70
     0
 40
0.0
 41
0.81
 50
0.0
 71
     0
 42
0.2
  3
txt.shx
  4

  0
STYLE
  5
27E
330
3
100
AcDbSymbolTableRecord
100
AcDbTextStyleTableRecord
  2
CONVERTER_13
 70
     0
 40
0.0
 41
0.72
 50
0.0
 71
     0
 42
0.2
  3
txt.shx
  4

  0
STYLE
  5
281
330
3
100
AcDbSymbolTableRecord
100
AcDbTextStyleTableRecord
  2
CONVERTER_14
 70
     0
 40
0.0
 41
0.855
 50
0.0
 71
     0
 42
0.2
  3
txt.shx
  4

  0
ENDTAB
  0
TABLE
  2
VIEW
  5
6
330
0
100
AcDbSymbolTable
 70
     0
  0
ENDTAB
  0
TABLE
  2
UCS
  5
7
330
0
100
AcDbSymbolTable
 70
     0
  0
ENDTAB
  0
TABLE
  2
APPID
  5
9
330
0
100
AcDbSymbolTable
 70
     1
  0
APPID
  5
12
330
9
100
AcDbSymbolTableRecord
100
AcDbRegAppTableRecord
  2
ACAD
 70
     0
  0
ENDTAB
  0
TABLE
  2
DIMSTYLE
  5
A
330
0
100
AcDbSymbolTable
 70
     5
100
AcDbDimStyleTable
  0
DIMSTYLE
105
27
330
A
100
AcDbSymbolTableRecord
100
AcDbDimStyleTableRecord
  2
Standard
 70
     0
178
     0
340
11
  0
DIMSTYLE
105
FC
102
{ACAD_REACTORS
330
FD
102
}
330
A
100
AcDbSymbolTableRecord
100
AcDbDimStyleTableRecord
  2
ME10_DIM_10
 70
     0
 41
1.75
 42
0.0
 44
0.75
 73
     0
 74
     0
 77
     1
 78
     8
140
1.75
147
0.75
172
     1
173
     1
174
     1
175
     1
176
     2
177
     2
271
     2
178
     3
271
     2
340
CC
  0
DIMSTYLE
105
154
102
{ACAD_REACTORS
330
155
102
}
330
A
100
AcDbSymbolTableRecord
100
AcDbDimStyleTableRecord
  2
ME10_DIM_11
 70
     0
 41
1.75
 42
0.0
 44
0.75
 73
     0
 74
     0
 77
     1
 78
     8
140
1.75
147
0.75
172
     1
173
     1
174
     1
175
     1
176
     2
177
     2
178
     3
340
CC
  0
DIMSTYLE
105
15F
102
{ACAD_REACTORS
330
160
102
}
330
A
100
AcDbSymbolTableRecord
100
AcDbDimStyleTableRecord
  2
ME10_DIM_12
 70
     0
 41
1.75
 42
0.0
 44
0.75
 73
     0
 74
     0
 77
     1
 78
     8
140
1.75
147
0.75
172
     1
173
     1
174
     1
175
     1
176
     2
177
     2
271
     2
178
     3
271
     2
340
CC
  0
DIMSTYLE
105
16A
102
{ACAD_REACTORS
330
16B
102
}
330
A
100
AcDbSymbolTableRecord
100
AcDbDimStyleTableRecord
  2
ME10_DIM_13
 70
     0
 41
1.75
 42
0.0
 44
0.75
 73
     0
 74
     0
 77
     1
 78
     8
140
1.75
147
0.75
172
     1
173
     1
174
     1
175
     1
176
     2
177
     2
178
     3
340
CC
  0
ENDTAB
  0
TABLE
  2
BLOCK_RECORD
  5
1
330
0
100
AcDbSymbolTable
 70
    21
  0
BLOCK_RECORD
  5
1F
330
1
100
AcDbSymbolTableRecord
100
AcDbBlockTableRecord
  2
*Model_Space
340
22
  0
BLOCK_RECORD
  5
1B
330
1
100
AcDbSymbolTableRecord
100
AcDbBlockTableRecord
  2
*Paper_Space
340
1E
  0
BLOCK_RECORD
  5
23
330
1
100
AcDbSymbolTableRecord
100
AcDbBlockTableRecord
  2
*Paper_Space0
340
26
  0
BLOCK_RECORD
  5
47
330
1
100
AcDbSymbolTableRecord
100
AcDbBlockTableRecord
  2
MPB_18_1_2-select__1
340
0
102
{BLKREFS
331
4B
102
}
  0
BLOCK_RECORD
  5
4A
330
1
100
AcDbSymbolTableRecord
100
AcDbBlockTableRecord
  2
Allg1
340
0
102
{BLKREFS
331
7D
102
}
  0
BLOCK_RECORD
  5
4E
330
1
100
AcDbSymbolTableRecord
100
AcDbBlockTableRecord
  2
MPB_18_1_2-select__2
340
0
102
{BLKREFS
331
52
102
}
  0
BLOCK_RECORD
  5
51
330
1
100
AcDbSymbolTableRecord
100
AcDbBlockTableRecord
  2
Drfsicht1
340
0
102
{BLKREFS
331
7E
102
}
  0
BLOCK_RECORD
  5
55
330
1
100
AcDbSymbolTableRecord
100
AcDbBlockTableRecord
  2
MPB_18_1_2-select__3
340
0
102
{BLKREFS
331
59
102
}
  0
BLOCK_RECORD
  5
58
330
1
100
AcDbSymbolTableRecord
100
AcDbBlockTableRecord
  2
Rckans1
340
0
102
{BLKREFS
331
7F
102
}
  0
BLOCK_RECORD
  5
5C
330
1
100
AcDbSymbolTableRecord
100
AcDbBlockTableRecord
  2
MPB_18_1_2-select__4
340
0
102
{BLKREFS
331
60
102
}
  0
BLOCK_RECORD
  5
5F
330
1
100
AcDbSymbolTableRecord
100
AcDbBlockTableRecord
  2
SA_Links1
340
0
102
{BLKREFS
331
80
102
}
  0
BLOCK_RECORD
  5
63
330
1
100
AcDbSymbolTableRecord
100
AcDbBlockTableRecord
  2
MPB_18_1_2-select__5
340
0
102
{BLKREFS
331
67
102
}
  0
BLOCK_RECORD
  5
66
330
1
100
AcDbSymbolTableRecord
100
AcDbBlockTableRecord
  2
SA_Rechts1
340
0
102
{BLKREFS
331
81
102
}
  0
BLOCK_RECORD
  5
6A
330
1
100
AcDbSymbolTableRecord
100
AcDbBlockTableRecord
  2
MPB_18_1_2-select__6
340
0
102
{BLKREFS
331
6E
102
}
  0
BLOCK_RECORD
  5
6D
330
1
100
AcDbSymbolTableRecord
100
AcDbBlockTableRecord
  2
Vordans1
340
0
102
{BLKREFS
331
82
102
}
  0
BLOCK_RECORD
  5
71
330
1
100
AcDbSymbolTableRecord
100
AcDbBlockTableRecord
  2
_rahmen
340
0
102
{BLKREFS
331
78
102
}
  0
BLOCK_RECORD
  5
74
330
1
100
AcDbSymbolTableRecord
100
AcDbBlockTableRecord
  2
_punkt
340
0
102
{BLKREFS
331
79
102
}
  0
BLOCK_RECORD
  5
77
330
1
100
AcDbSymbolTableRecord
100
AcDbBlockTableRecord
  2
A4I_CS
340
0
102
{BLKREFS
331
83
102
}
  0
BLOCK_RECORD
  5
7C
330
1
100
AcDbSymbolTableRecord
100
AcDbBlockTableRecord
  2
1
340
0
102
{BLKREFS
331
86
102
}
  0
BLOCK_RECORD
  5
F3
330
1
100
AcDbSymbolTableRecord
100
AcDbBlockTableRecord
  2
*D17
340
0
  0
BLOCK_RECORD
  5
14B
330
1
100
AcDbSymbolTableRecord
100
AcDbBlockTableRecord
  2
*D18
340
0
  0
BLOCK_RECORD
  5
156
330
1
100
AcDbSymbolTableRecord
100
AcDbBlockTableRecord
  2
*D19
340
0
  0
BLOCK_RECORD
  5
161
330
1
100
AcDbSymbolTableRecord
100
AcDbBlockTableRecord
  2
*D20
340
0
  0
ENDTAB
  0
ENDSEC
  0
SECTION
  2
BLOCKS
  0
BLOCK
  5
20
330
1F
100
AcDbEntity
  8
0
100
AcDbBlockBegin
  2
*Model_Space
 70
     0
 10
0.0
 20
0.0
 30
0.0
  3
*Model_Space
  1

  0
ENDBLK
  5
21
330
1F
100
AcDbEntity
  8
0
100
AcDbBlockEnd
  0
BLOCK
  5
1C
330
1B
100
AcDbEntity
 67
     1
  8
0
100
AcDbBlockBegin
  2
*Paper_Space
 70
     0
 10
0.0
 20
0.0
 30
0.0
  3
*Paper_Space
  1

  0
ENDBLK
  5
1D
330
1B
100
AcDbEntity
 67
     1
  8
0
100
AcDbBlockEnd
  0
BLOCK
  5
24
330
23
100
AcDbEntity
  8
0
100
AcDbBlockBegin
  2
*Paper_Space0
 70
     0
 10
0.0
 20
0.0
 30
0.0
  3
*Paper_Space0
  1

  0
ENDBLK
  5
25
330
23
100
AcDbEntity
  8
0
100
AcDbBlockEnd
  0
BLOCK
  5
48
330
47
100
AcDbEntity
  8
0
100
AcDbBlockBegin
  2
MPB_18_1_2-select__1
 70
     0
 10
51.02152089754731
 20
195.874276986119
 30
0.0
  3
MPB_18_1_2-select__1
  1

  0
LINE
  5
87
330
47
100
AcDbEntity
  8
0
  6
Continuous
 62
     7
100
AcDbLine
 10
86.39713288022331
 20
204.1247800129235
 30
0.0
 11
86.39713288022331
 21
195.874276986119
 31
0.0
  0
LINE
  5
88
330
47
100
AcDbEntity
  8
0
  6
Continuous
 62
     7
100
AcDbLine
 10
88.25147862968892
 20
198.3462129163403
 30
0.0
 11
86.88661907791241
 21
197.341434421417
 31
0.0
  0
LINE
  5
89
330
47
100
AcDbEntity
  8
0
  6
Continuous
 62
     7
100
AcDbLine
 10
86.39713288022331
 20
195.874276986119
 30
0.0
 11
88.79713288022391
 21
197.9527379552022
 31
0.0
  0
LINE
  5
8A
330
47
100
AcDbEntity
  8
0
  6
Continuous
 62
     7
100
AcDbLine
 10
66.43677308491023
 20
203.9468818015019
 30
0.0
 11
66.43677308491023
 21
202.6478436958252
 31
0.0
  0
LINE
  5
8B
330
47
100
AcDbEntity
  8
0
  6
Continuous
 62
     7
100
AcDbLine
 10
68.94824675588518
 20
203.2218818015018
 30
0.0
 11
68.94824675588518
 21
201.9228436958252
 31
0.0
  0
LINE
  5
8C
330
47
100
AcDbEntity
  8
0
  6
Continuous
 62
     7
100
AcDbLine
 10
66.43677308491023
 20
203.9468818015019
 30
0.0
 11
68.94824675588518
 21
203.2218818015018
 31
0.0
  0
LINE
  5
8D
330
47
100
AcDbEntity
  8
0
  6
Continuous
 62
     2
100
AcDbLine
 10
71.79824675588517
 20
205.6900542022875
 30
0.0
 11
71.79824675588517
 21
204.3910160966108
 31
0.0
  0
LINE
  5
8E
330
47
100
AcDbEntity
  8
0
  6
Continuous
 62
     7
100
AcDbLine
 10
68.94824675588518
 20
203.2218818015018
 30
0.0
 11
71.79824675588517
 21
205.6900542022875
 31
0.0
  0
LINE
  5
8F
330
47
100
AcDbEntity
  8
0
  6
Continuous
 62
     7
100
AcDbLine
 10
66.43677308491023
 20
202.6478436958252
 30
0.0
 11
68.94824675588518
 21
201.9228436958252
 31
0.0
  0
LINE
  5
90
330
47
100
AcDbEntity
  8
0
  6
Continuous
 62
     7
100
AcDbLine
 10
61.41382574296057
 20
204.0978436958252
 30
0.0
 11
61.41382574296057
 21
205.3968818015018
 31
0.0
  0
LINE
  5
91
330
47
100
AcDbEntity
  8
0
  6
Continuous
 62
     7
100
AcDbLine
 10
74.1443991785918
 20
200.4228436958252
 30
0.0
 11
74.14439917859181
 21
201.7218818015018
 31
0.0
  0
LINE
  5
92
330
47
100
AcDbEntity
  8
0
  6
Continuous
 62
     7
100
AcDbLine
 10
76.9943991785918
 20
204.1900542022875
 30
0.0
 11
74.14439917859181
 21
201.7218818015018
 31
0.0
  0
LINE
  5
93
330
47
100
AcDbEntity
  8
0
  6
Continuous
 62
     7
100
AcDbLine
 10
74.14439917859181
 20
201.7218818015018
 30
0.0
 11
76.82907793032349
 21
200.9468818015019
 31
0.0
  0
LINE
  5
94
330
47
100
AcDbEntity
  8
0
  6
Continuous
 62
     7
100
AcDbLine
 10
85.07847953227602
 20
205.0827927148157
 30
0.0
 11
83.59823224953071
 21
205.5101032983958
 31
0.0
  0
LINE
  5
95
330
47
100
AcDbEntity
  8
0
  6
Continuous
 62
     7
100
AcDbLine
 10
76.82907793032349
 20
199.6478436958252
 30
0.0
 11
76.82907793032349
 21
200.9468818015019
 31
0.0
  0
LINE
  5
96
330
47
100
AcDbEntity
  8
0
  6
Continuous
 62
     7
100
AcDbLine
 10
76.82907793032349
 20
199.6478436958252
 30
0.0
 11
85.0809729421537
 21
206.7941944054322
 31
0.0
  0
LINE
  5
97
330
47
100
AcDbEntity
  8
0
  6
Continuous
 62
     7
100
AcDbLine
 10
85.8290779303235
 20
208.7411104355618
 30
0.0
 11
85.8290779303235
 21
204.8661136212327
 31
0.0
  0
LINE
  5
98
330
47
100
AcDbEntity
  8
0
  6
Continuous
 62
     7
100
AcDbLine
 10
76.82907793032349
 20
200.9468818015019
 30
0.0
 11
85.8290779303235
 21
208.7411104355618
 31
0.0
  0
LINE
  5
99
330
47
100
AcDbEntity
  8
0
  6
Continuous
 62
     7
100
AcDbLine
 10
88.25147862968892
 20
198.3462129163403
 30
0.0
 11
86.88865615921482
 21
198.7396258764333
 31
0.0
  0
LINE
  5
9A
330
47
100
AcDbEntity
  8
0
  6
Continuous
 62
     7
100
AcDbLine
 10
74.1443991785918
 20
200.4228436958252
 30
0.0
 11
76.82907793032349
 21
199.6478436958252
 31
0.0
  0
LINE
  5
9B
330
47
100
AcDbEntity
  8
0
  6
Continuous
 62
     7
100
AcDbLine
 10
87.6921637885198
 20
208.7532602085922
 30
0.0
 11
88.25147862968892
 21
198.3462129163403
 31
0.0
  0
LINE
  5
9C
330
47
100
AcDbEntity
  8
0
  6
Continuous
 62
     7
100
AcDbLine
 10
68.94824675588518
 20
201.9228436958252
 30
0.0
 11
71.79824675588517
 21
204.3910160966108
 31
0.0
  0
LINE
  5
9D
330
47
100
AcDbEntity
  8
0
  6
Continuous
 62
     7
100
AcDbLine
 10
56.95226915155249
 20
204.374276986119
 30
0.0
 11
86.39713288022331
 21
195.874276986119
 31
0.0
  0
LINE
  5
9E
330
47
100
AcDbEntity
  8
0
  6
Continuous
 62
     7
100
AcDbLine
 10
88.79713288022391
 20
197.9527379552022
 30
0.0
 11
88.14608294618851
 21
209.7730754473137
 31
0.0
  0
LINE
  5
9F
330
47
100
AcDbEntity
  8
0
  6
Continuous
 62
     7
100
AcDbLine
 10
51.02152089754731
 20
208.3968818015018
 30
0.0
 11
51.02152089754731
 21
207.0978436958252
 31
0.0
  0
LINE
  5
A0
330
47
100
AcDbEntity
  8
0
  6
Continuous
 62
     7
100
AcDbLine
 10
51.02152089754731
 20
207.0978436958252
 30
0.0
 11
53.53299456852226
 21
206.3728436958251
 31
0.0
  0
LINE
  5
A1
330
47
100
AcDbEntity
  8
0
  6
Continuous
 62
     7
100
AcDbLine
 10
51.02152089754731
 20
208.3968818015018
 30
0.0
 11
53.53299456852226
 21
207.6718818015018
 31
0.0
  0
LINE
  5
A2
330
47
100
AcDbEntity
  8
0
  6
Continuous
 62
     2
100
AcDbLine
 10
56.38299456852226
 20
210.1400542022874
 30
0.0
 11
56.38299456852226
 21
208.8410160966108
 31
0.0
  0
LINE
  5
A3
330
47
100
AcDbEntity
  8
0
  6
Continuous
 62
     7
100
AcDbLine
 10
53.53299456852226
 20
206.3728436958251
 30
0.0
 11
56.38299456852226
 21
208.8410160966108
 31
0.0
  0
LINE
  5
A4
330
47
100
AcDbEntity
  8
0
  6
Continuous
 62
     7
100
AcDbLine
 10
53.53299456852226
 20
207.6718818015018
 30
0.0
 11
56.38299456852226
 21
210.1400542022874
 31
0.0
  0
LINE
  5
A5
330
47
100
AcDbEntity
  8
0
  6
Continuous
 62
     7
100
AcDbLine
 10
60.02152089754731
 20
216.1911104355618
 30
0.0
 11
51.02152089754731
 21
208.3968818015018
 31
0.0
  0
LINE
  5
A6
330
47
100
AcDbEntity
  8
0
  6
Continuous
 62
     7
100
AcDbLine
 10
87.6921637885198
 20
208.7532602085922
 30
0.0
 11
87.38833442308442
 21
208.4901362597095
 31
0.0
  0
LINE
  5
A7
330
47
100
AcDbEntity
  8
0
  6
Continuous
 62
     7
100
AcDbLine
 10
86.89713288022331
 20
204.5577927148157
 30
0.0
 11
86.88661907791241
 21
197.341434421417
 31
0.0
  0
LINE
  5
A8
330
47
100
AcDbEntity
  8
0
  6
Continuous
 62
     7
100
AcDbLine
 10
87.38833442308442
 20
209.1168459766245
 30
0.0
 11
88.14608294618851
 21
209.7730754473137
 31
0.0
  0
LINE
  5
A9
330
47
100
AcDbEntity
  8
0
  6
Continuous
 62
     7
100
AcDbLine
 10
70.41382574296057
 20
213.1911104355618
 30
0.0
 11
60.02152089754731
 21
216.1911104355618
 31
0.0
  0
LINE
  5
AA
330
47
100
AcDbEntity
  8
0
  6
Continuous
 62
     7
100
AcDbLine
 10
70.41382574296057
 20
213.1911104355618
 30
0.0
 11
70.41382574296057
 21
210.5930342242082
 31
0.0
  0
LINE
  5
AB
330
47
100
AcDbEntity
  8
0
  6
Continuous
 62
     7
100
AcDbLine
 10
86.89713288022331
 20
204.5577927148157
 30
0.0
 11
86.39713288022331
 21
204.1247800129235
 31
0.0
  0
LINE
  5
AC
330
47
100
AcDbEntity
  8
0
  6
Continuous
 62
     7
100
AcDbLine
 10
83.09823224953071
 20
205.0770905965036
 30
0.0
 11
86.39713288022331
 21
204.1247800129235
 31
0.0
  0
LINE
  5
AD
330
47
100
AcDbEntity
  8
0
  6
Continuous
 62
     7
100
AcDbLine
 10
58.72914699122887
 20
204.8728436958251
 30
0.0
 11
58.72914699122889
 21
206.1718818015018
 31
0.0
  0
LINE
  5
AE
330
47
100
AcDbEntity
  8
0
  6
Continuous
 62
     7
100
AcDbLine
 10
72.43677308491003
 20
209.1430342242083
 30
0.0
 11
69.66382574296057
 21
209.9435151713699
 31
0.0
  0
LINE
  5
AF
330
47
100
AcDbEntity
  8
0
  6
Continuous
 62
     7
100
AcDbLine
 10
73.18677308491002
 20
209.7925532770466
 30
0.0
 11
70.41382574296057
 21
210.5930342242082
 31
0.0
  0
LINE
  5
B0
330
47
100
AcDbEntity
  8
0
  6
Continuous
 62
     7
100
AcDbLine
 10
72.08092740411743
 20
208.834862824815
 30
0.0
 11
68.18298006216779
 21
209.9601032983958
 31
0.0
  0
LINE
  5
B1
330
47
100
AcDbEntity
  8
0
  6
Continuous
 62
     7
100
AcDbLine
 10
67.68298006216776
 20
209.5270905965035
 30
0.0
 11
71.58092740411738
 21
208.4018501229228
 31
0.0
  0
LINE
  5
B2
330
47
100
AcDbEntity
  8
0
  6
Continuous
 62
     7
100
AcDbLine
 10
61.57914699122888
 20
208.6400542022874
 30
0.0
 11
58.72914699122889
 21
206.1718818015018
 31
0.0
  0
LINE
  5
B3
330
47
100
AcDbEntity
  8
0
  6
Continuous
 62
     7
100
AcDbLine
 10
58.72914699122889
 20
206.1718818015018
 30
0.0
 11
61.41382574296057
 21
205.3968818015018
 31
0.0
  0
LINE
  5
B4
330
47
100
AcDbEntity
  8
0
  6
Continuous
 62
     7
100
AcDbLine
 10
69.66382574296057
 20
209.9435151713699
 30
0.0
 11
69.66572075479074
 21
211.2441944054322
 31
0.0
  0
LINE
  5
B5
330
47
100
AcDbEntity
  8
0
  6
Continuous
 62
     7
100
AcDbLine
 10
70.41382574296057
 20
210.5930342242082
 30
0.0
 11
69.66382574296057
 21
209.9435151713699
 31
0.0
  0
LINE
  5
B6
330
47
100
AcDbEntity
  8
0
  6
Continuous
 62
     7
100
AcDbLine
 10
85.07847953227602
 20
205.0827927148157
 30
0.0
 11
85.0809729421537
 21
206.7941944054322
 31
0.0
  0
LINE
  5
B7
330
47
100
AcDbEntity
  8
0
  6
Continuous
 62
     7
100
AcDbLine
 10
75.43677308491021
 20
211.7411104355618
 30
0.0
 11
85.8290779303235
 21
208.7411104355618
 31
0.0
  0
LINE
  5
B8
330
47
100
AcDbEntity
  8
0
  6
Continuous
 62
     7
100
AcDbLine
 10
85.07847953227602
 20
205.0827927148157
 30
0.0
 11
86.89713288022331
 21
204.5577927148157
 31
0.0
  0
LINE
  5
B9
330
47
100
AcDbEntity
  8
0
  6
Continuous
 62
     7
100
AcDbLine
 10
70.41382574296057
 20
213.1911104355618
 30
0.0
 11
61.41382574296057
 21
205.3968818015018
 31
0.0
  0
LINE
  5
BA
330
47
100
AcDbEntity
  8
0
  6
Continuous
 62
     7
100
AcDbLine
 10
87.38833442308442
 20
209.1168459766245
 30
0.0
 11
87.38833442308442
 21
208.4901362597095
 31
0.0
  0
LINE
  5
BB
330
47
100
AcDbEntity
  8
0
  6
Continuous
 62
     7
100
AcDbLine
 10
58.38075131421059
 20
214.7701622946354
 30
0.0
 11
58.26645225738888
 21
216.896899513546
 31
0.0
  0
LINE
  5
BC
330
47
100
AcDbEntity
  8
0
  6
Continuous
 62
     7
100
AcDbLine
 10
87.38833442308442
 20
209.1168459766245
 30
0.0
 11
57.94347069441353
 21
217.6168459766245
 31
0.0
  0
LINE
  5
BD
330
47
100
AcDbEntity
  8
0
  6
Continuous
 62
     7
100
AcDbLine
 10
57.94347069441353
 20
216.9901362597095
 30
0.0
 11
57.94347069441353
 21
217.6168459766245
 31
0.0
  0
LINE
  5
BE
330
47
100
AcDbEntity
  8
0
  6
Continuous
 62
     7
100
AcDbLine
 10
58.70121921751769
 20
218.2730754473137
 30
0.0
 11
88.14608294618851
 21
209.7730754473137
 31
0.0
  0
LINE
  5
BF
330
47
100
AcDbEntity
  8
0
  6
Continuous
 62
     7
100
AcDbLine
 10
56.95226915155249
 20
204.374276986119
 30
0.0
 11
56.95226915155249
 21
209.1960007065617
 31
0.0
  0
LINE
  5
C0
330
47
100
AcDbEntity
  8
0
  6
Continuous
 62
     7
100
AcDbLine
 10
58.72914699122887
 20
204.8728436958251
 30
0.0
 11
61.41382574296057
 21
204.0978436958252
 31
0.0
  0
LINE
  5
C1
330
47
100
AcDbEntity
  8
0
  6
Continuous
 62
     7
100
AcDbLine
 10
53.53299456852226
 20
207.6718818015018
 30
0.0
 11
53.53299456852226
 21
206.3728436958251
 31
0.0
  0
LINE
  5
C2
330
47
100
AcDbEntity
  8
0
  6
Continuous
 62
     7
100
AcDbLine
 10
61.41382574296057
 20
204.0978436958252
 30
0.0
 11
69.66572075479074
 21
211.2441944054322
 31
0.0
  0
LINE
  5
C3
330
47
100
AcDbEntity
  8
0
  6
Continuous
 62
     7
100
AcDbLine
 10
75.43677308491021
 20
211.7411104355618
 30
0.0
 11
66.43677308491023
 21
203.9468818015019
 31
0.0
  0
LINE
  5
C4
330
47
100
AcDbEntity
  8
0
  6
Continuous
 62
     7
100
AcDbLine
 10
58.70121921751769
 20
218.2730754473137
 30
0.0
 11
57.94347069441353
 21
217.6168459766245
 31
0.0
  0
LINE
  5
C5
330
47
100
AcDbEntity
  8
0
  6
Continuous
 62
     7
100
AcDbLine
 10
57.94347069441353
 20
216.9901362597095
 30
0.0
 11
87.38833442308442
 21
208.4901362597095
 31
0.0
  0
SPLINE
  5
C6
330
47
100
AcDbEntity
  8
0
  6
Continuous
 62
     7
100
AcDbSpline
210
0.0
220
0.0
230
1.0
 70
     8
 71
     3
 72
    17
 73
    13
 74
    11
 42
0.000000001
 43
0.0000000001
 44
0.00000001
 40
0.0
 40
0.0
 40
0.0
 40
0.0
 40
0.4014610005567019
 40
0.8712471548145204
 40
1.440286929418471
 40
2.105766036395329
 40
2.844663643742228
 40
3.622801011199058
 40
4.400938378432849
 40
5.139835984870694
 40
5.805315092454712
 40
6.374354872732318
 40
6.374354872732318
 40
6.374354872732318
 40
6.374354872732318
 10
77.39632296723849
 20
204.9400542022875
 30
0.0
 10
77.37346363027359
 20
205.0744756262901
 30
0.0
 10
77.32385448601855
 20
205.3661958207882
 30
0.0
 10
76.97988836498114
 20
205.7313819891808
 30
0.0
 10
76.49912495270385
 20
206.0338570789047
 30
0.0
 10
75.8770936126963
 20
206.2635094008349
 30
0.0
 10
75.16207475076395
 20
206.4076361299653
 30
0.0
 10
74.39643447058387
 20
206.4565120143428
 30
0.0
 10
73.63013646701218
 20
206.4083009200891
 30
0.0
 10
72.91693084400725
 20
206.2611090372196
 30
0.0
 10
72.28923190955085
 20
206.0413932159374
 30
0.0
 10
71.95315720330255
 20
205.800904980162
 30
0.0
 10
71.79824675588517
 20
205.6900542022875
 30
0.0
 11
77.39632296723849
 21
204.9400542022875
 31
0.0
 11
77.2940996735415
 21
205.3282826664372
 31
0.0
 11
76.99439917859182
 21
205.6900542022875
 31
0.0
 11
76.51764274524191
 21
206.0007140912892
 31
0.0
 11
75.8963229672385
 21
206.2390923079641
 31
0.0
 11
75.17277989553813
 21
206.388942555439
 31
0.0
 11
74.3963229672385
 21
206.4400542022875
 31
0.0
 11
73.6198660389389
 21
206.388942555439
 31
0.0
 11
72.89632296723849
 21
206.2390923079641
 31
0.0
 11
72.2750031892351
 21
206.0007140912892
 31
0.0
 11
71.79824675588517
 21
205.6900542022875
 31
0.0
  0
SPLINE
  5
C7
330
47
100
AcDbEntity
  8
0
  6
Continuous
 62
     7
100
AcDbSpline
210
0.0
220
0.0
230
1.0
 70
     8
 71
     3
 72
     9
 73
     5
 74
     3
 42
0.000000001
 43
0.0000000001
 44
0.00000001
 40
0.0
 40
0.0
 40
0.0
 40
0.0
 40
0.4697861522010746
 40
0.8712471595482725
 40
0.8712471595482725
 40
0.8712471595482725
 40
0.8712471595482725
 10
76.9943991785918
 20
204.1900542022875
 30
0.0
 10
77.11048283834627
 20
204.3023291787578
 30
0.0
 10
77.32576707081444
 20
204.5105500016501
 30
0.0
 10
77.3740669350358
 20
204.8045720892729
 30
0.0
 10
77.39632296723849
 20
204.9400542022875
 30
0.0
 11
76.9943991785918
 21
204.1900542022875
 31
0.0
 11
77.29409967354151
 21
204.5518257381377
 31
0.0
 11
77.39632296723849
 21
204.9400542022875
 31
0.0
  0
SPLINE
  5
C8
330
47
100
AcDbEntity
  8
0
  6
Continuous
 62
     7
100
AcDbSpline
210
0.0
220
0.0
230
1.0
 70
     8
 71
     3
 72
    17
 73
    13
 74
    11
 42
0.000000001
 43
0.0000000001
 44
0.00000001
 40
0.0
 40
0.0
 40
0.0
 40
0.0
 40
0.4402907597323895
 40
0.9502556701881215
 40
1.522077305629916
 40
2.140295052070109
 40
2.784861194584105
 40
3.43341832036034
 40
4.063274413136451
 40
4.653339186704312
 40
5.186256500830543
 40
5.651115466776508
 40
5.651115466776508
 40
5.651115466776508
 40
5.651115466776508
 10
77.10048642383649
 20
204.2905351494491
 30
0.0
 10
76.98965974459446
 20
204.3876355934268
 30
0.0
 10
76.75046852021309
 20
204.5972021982261
 30
0.0
 10
76.28786103483688
 20
204.8178983582559
 30
0.0
 10
75.7485489560348
 20
204.9935031356239
 30
0.0
 10
75.14540192130383
 20
205.1052521792444
 30
0.0
 10
74.50883470519364
 20
205.1515889112301
 30
0.0
 10
73.86708332075072
 20
205.1290641992296
 30
0.0
 10
73.24892275305857
 20
205.039989820081
 30
0.0
 10
72.68496947205122
 20
204.8850306641866
 30
0.0
 10
72.19132494199772
 20
204.6820936946874
 30
0.0
 10
71.92317599887546
 20
204.4835272267512
 30
0.0
 10
71.79824675588517
 20
204.3910160966108
 30
0.0
 11
77.10048642383649
 21
204.2905351494491
 31
0.0
 11
76.75735346138796
 21
204.5664259313835
 31
0.0
 11
76.30346150469109
 21
204.7989045410392
 31
0.0
 11
75.76010256830662
 21
204.9770647150366
 31
0.0
 11
75.15276696691717
 21
205.0925491202921
 31
0.0
 11
74.50994534360272
 21
205.139939743688
 31
0.0
 11
73.86179354765333
 21
205.1170139200847
 31
0.0
 11
73.23871739869303
 21
205.0248466309567
 31
0.0
 11
72.6699460242056
 21
204.8677620616097
 31
0.0
 11
72.18216180815595
 21
204.6531288379951
 31
0.0
 11
71.79824675588517
 21
204.3910160966108
 31
0.0
  0
SPLINE
  5
C9
330
47
100
AcDbEntity
  8
0
  6
Continuous
 62
     7
100
AcDbSpline
210
0.0
220
0.0
230
1.0
 70
     8
 71
     3
 72
     9
 73
     5
 74
     3
 42
0.000000001
 43
0.0000000001
 44
0.00000001
 40
0.0
 40
0.0
 40
0.0
 40
0.0
 40
0.4697861522011402
 40
0.8712471595482592
 40
0.8712471595482592
 40
0.8712471595482592
 40
0.8712471595482592
 10
61.57914699122888
 20
208.6400542022874
 30
0.0
 10
61.69523065098331
 20
208.7523291787576
 30
0.0
 10
61.91051488345147
 20
208.9605500016501
 30
0.0
 10
61.9588147476729
 20
209.2545720892728
 30
0.0
 10
61.98107077987558
 20
209.3900542022874
 30
0.0
 11
61.57914699122888
 21
208.6400542022874
 31
0.0
 11
61.87884748617859
 21
209.0018257381377
 31
0.0
 11
61.98107077987558
 21
209.3900542022874
 31
0.0
  0
SPLINE
  5
CA
330
47
100
AcDbEntity
  8
0
  6
Continuous
 62
     7
100
AcDbSpline
210
0.0
220
0.0
230
1.0
 70
     8
 71
     3
 72
    17
 73
    13
 74
    11
 42
0.000000001
 43
0.0000000001
 44
0.00000001
 40
0.0
 40
0.0
 40
0.0
 40
0.0
 40
0.4402907597323716
 40
0.950255670188123
 40
1.52207730562992
 40
2.140295052070099
 40
2.784861194584106
 40
3.433418320360349
 40
4.06327441313646
 40
4.653339186704314
 40
5.186256500830582
 40
5.651115466776496
 40
5.651115466776496
 40
5.651115466776496
 40
5.651115466776496
 10
61.68523423647356
 20
208.7405351494491
 30
0.0
 10
61.57440755723155
 20
208.8376355934269
 30
0.0
 10
61.33521633285014
 20
209.047202198226
 30
0.0
 10
60.87260884747397
 20
209.2678983582559
 30
0.0
 10
60.33329676867184
 20
209.4435031356238
 30
0.0
 10
59.73014973394095
 20
209.5552521792445
 30
0.0
 10
59.09358251783073
 20
209.60158891123
 30
0.0
 10
58.45183113338779
 20
209.5790641992297
 30
0.0
 10
57.83367056569567
 20
209.489989820081
 30
0.0
 10
57.26971728468827
 20
209.3350306641867
 30
0.0
 10
56.7760727546348
 20
209.1320936946872
 30
0.0
 10
56.50792381151253
 20
208.9335272267512
 30
0.0
 10
56.38299456852226
 20
208.8410160966108
 30
0.0
 11
61.68523423647356
 21
208.7405351494491
 31
0.0
 11
61.34210127402503
 21
209.0164259313834
 31
0.0
 11
60.88820931732816
 21
209.2489045410392
 31
0.0
 11
60.34485038094369
 21
209.4270647150366
 31
0.0
 11
59.73751477955425
 21
209.5425491202922
 31
0.0
 11
59.09469315623981
 21
209.589939743688
 31
0.0
 11
58.44654136029041
 21
209.5670139200847
 31
0.0
 11
57.8234652113301
 21
209.4748466309567
 31
0.0
 11
57.25469383684268
 21
209.3177620616097
 31
0.0
 11
56.76690962079302
 21
209.1031288379951
 31
0.0
 11
56.38299456852226
 21
208.8410160966108
 31
0.0
  0
SPLINE
  5
CB
330
47
100
AcDbEntity
  8
0
  6
Continuous
 62
     7
100
AcDbSpline
210
0.0
220
0.0
230
1.0
 70
     8
 71
     3
 72
    17
 73
    13
 74
    11
 42
0.000000001
 43
0.0000000001
 44
0.00000001
 40
0.0
 40
0.0
 40
0.0
 40
0.0
 40
0.4014610005568375
 40
0.8712471548146568
 40
1.440286929418614
 40
2.105766036395461
 40
2.844663643742344
 40
3.622801011199176
 40
4.40093837843297
 40
5.139835984870794
 40
5.805315092454831
 40
6.374354872732471
 40
6.374354872732471
 40
6.374354872732471
 40
6.374354872732471
 10
61.98107077987558
 20
209.3900542022874
 30
0.0
 10
61.95821144291068
 20
209.52447562629
 30
0.0
 10
61.90860229865571
 20
209.8161958207883
 30
0.0
 10
61.56463617761818
 20
210.1813819891807
 30
0.0
 10
61.08387276534091
 20
210.4838570789047
 30
0.0
 10
60.46184142533338
 20
210.713509400835
 30
0.0
 10
59.746822563401
 20
210.8576361299652
 30
0.0
 10
58.98118228322093
 20
210.9065120143428
 30
0.0
 10
58.21488427964923
 20
210.8583009200891
 30
0.0
 10
57.50167865664434
 20
210.7111090372196
 30
0.0
 10
56.87397972218788
 20
210.4913932159373
 30
0.0
 10
56.53790501593963
 20
210.2509049801619
 30
0.0
 10
56.38299456852226
 20
210.1400542022874
 30
0.0
 11
61.98107077987558
 21
209.3900542022874
 31
0.0
 11
61.87884748617859
 21
209.7782826664373
 31
0.0
 11
61.57914699122888
 21
210.1400542022874
 31
0.0
 11
61.10239055787898
 21
210.4507140912891
 31
0.0
 11
60.48107077987558
 21
210.6890923079641
 31
0.0
 11
59.7575277081752
 21
210.8389425554389
 31
0.0
 11
58.98107077987558
 21
210.8900542022874
 31
0.0
 11
58.20461385157596
 21
210.838942555439
 31
0.0
 11
57.48107077987557
 21
210.6890923079641
 31
0.0
 11
56.85975100187217
 21
210.4507140912892
 31
0.0
 11
56.38299456852226
 21
210.1400542022874
 31
0.0
  0
ENDBLK
  5
49
330
47
100
AcDbEntity
  8
0
100
AcDbBlockEnd
  0
BLOCK
  5
4C
330
4A
100
AcDbEntity
  8
0
100
AcDbBlockBegin
  2
Allg1
 70
     0
 10
69.00000000003197
 20
203.999999999998
 30
0.0
  3
Allg1
  1

  0
INSERT
  5
4B
330
4A
100
AcDbEntity
  8
0
100
AcDbBlockReference
  2
MPB_18_1_2-select__1
 10
51.02152089754731
 20
195.874276986119
 30
0.0
  0
MTEXT
  5
CD
330
4A
100
AcDbEntity
  8
1
 62
     6
100
AcDbMText
 10
69.00000000003206
 20
186.6630976766112
 30
0.0
 40
2.5
 41
0.0
 71
     2
 72
     1
  1
 
  7
CONVERTER_11
 73
     1
 44
1.32052821128451
  0
ENDBLK
  5
4D
330
4A
100
AcDbEntity
  8
0
100
AcDbBlockEnd
  0
BLOCK
  5
4F
330
4E
100
AcDbEntity
  8
0
100
AcDbBlockBegin
  2
MPB_18_1_2-select__2
 70
     0
 10
-5.49999985694888
 20
192.3505985801052
 30
0.0
  3
MPB_18_1_2-select__2
  1

  0
LINE
  5
CE
330
4E
100
AcDbEntity
  8
0
  6
Continuous
 62
     7
100
AcDbLine
 10
-5.49999985694888
 20
212.6494017840112
 30
0.0
 11
-5.49999985694888
 21
211.3473019159405
 31
0.0
  0
LINE
  5
CF
330
4E
100
AcDbEntity
  8
0
  6
Continuous
 62
     7
100
AcDbLine
 10
26.40000014305101
 20
208.8494017840101
 30
0.0
 11
26.40000014305101
 21
209.8318048697322
 31
0.0
  0
LINE
  5
D0
330
4E
100
AcDbEntity
  8
0
  6
Continuous
 62
     7
100
AcDbLine
 10
14.40000014305101
 20
209.8318048697322
 30
0.0
 11
14.40000014305101
 21
208.8505985801051
 31
0.0
  0
LINE
  5
D1
330
4E
100
AcDbEntity
  8
0
  6
Continuous
 62
     7
100
AcDbLine
 10
-5.49999985694888
 20
211.3473019159405
 30
0.0
 11
28.50000014305106
 21
211.3473019159405
 31
0.0
  0
LINE
  5
D2
330
4E
100
AcDbEntity
  8
0
  6
Continuous
 62
     7
100
AcDbLine
 10
-3.39999985694889
 20
209.8318048697322
 30
0.0
 11
-3.39999985694889
 21
208.8494017840101
 31
0.0
  0
LINE
  5
D3
330
4E
100
AcDbEntity
  8
0
  6
Continuous
 62
     7
100
AcDbLine
 10
28.50000014305106
 20
209.8318048697322
 30
0.0
 11
-5.49999985694888
 21
209.8318048697322
 31
0.0
  0
LINE
  5
D4
330
4E
100
AcDbEntity
  8
0
  6
Continuous
 62
     7
100
AcDbLine
 10
-5.49999985694888
 20
212.6494017840112
 30
0.0
 11
28.50000014305106
 21
212.6494017840112
 31
0.0
  0
LINE
  5
D5
330
4E
100
AcDbEntity
  8
0
  6
Continuous
 62
     7
100
AcDbLine
 10
23.3000001430511
 20
192.3505985801052
 30
0.0
 11
26.40000014305101
 21
192.3505985801052
 31
0.0
  0
LINE
  5
D6
330
4E
100
AcDbEntity
  8
0
  6
Continuous
 62
     7
100
AcDbLine
 10
28.50000014305106
 20
212.6494017840112
 30
0.0
 11
28.50000014305106
 21
211.3473019159405
 31
0.0
  0
LINE
  5
D7
330
4E
100
AcDbEntity
  8
0
  6
Continuous
 62
     7
100
AcDbLine
 10
28.50000014305106
 20
209.8318048697322
 30
0.0
 11
28.50000014305106
 21
208.8494017840101
 31
0.0
  0
LINE
  5
D8
330
4E
100
AcDbEntity
  8
0
  6
Continuous
 62
     7
100
AcDbLine
 10
28.50000014305106
 20
208.8494017840101
 30
0.0
 11
28.50000014305106
 21
207.8494017840101
 31
0.0
  0
LINE
  5
D9
330
4E
100
AcDbEntity
  8
0
  6
Continuous
 62
     7
100
AcDbLine
 10
28.50000014305106
 20
211.3473019159405
 30
0.0
 11
28.50000014305106
 21
209.8318048697322
 31
0.0
  0
LINE
  5
DA
330
4E
100
AcDbEntity
  8
0
  6
Continuous
 62
     7
100
AcDbLine
 10
23.3000001430511
 20
198.0505985801052
 30
0.0
 11
23.3000001430511
 21
192.3505985801052
 31
0.0
  0
LINE
  5
DB
330
4E
100
AcDbEntity
  8
0
  6
Continuous
 62
     7
100
AcDbLine
 10
26.40000014305101
 20
192.3505985801052
 30
0.0
 11
26.40000014305101
 21
208.8494017840101
 31
0.0
  0
LINE
  5
DC
330
4E
100
AcDbEntity
  8
0
  6
Continuous
 62
     7
100
AcDbLine
 10
-3.39999985694889
 20
192.3505985801052
 30
0.0
 11
-0.4999998569488
 21
192.3505985801052
 31
0.0
  0
LINE
  5
DD
330
4E
100
AcDbEntity
  8
0
  6
Continuous
 62
     7
100
AcDbLine
 10
-3.39999985694889
 20
208.8494017840101
 30
0.0
 11
-3.39999985694889
 21
192.3505985801052
 31
0.0
  0
LINE
  5
DE
330
4E
100
AcDbEntity
  8
0
  6
Continuous
 62
     7
100
AcDbLine
 10
-0.4999998569488
 20
192.3505985801052
 30
0.0
 11
-0.4999998569488
 21
198.0505985801052
 31
0.0
  0
LINE
  5
DF
330
4E
100
AcDbEntity
  8
0
  6
Continuous
 62
     7
100
AcDbLine
 10
8.60000014305111
 20
209.8318048697322
 30
0.0
 11
8.60000014305111
 21
208.8505985801051
 31
0.0
  0
LINE
  5
E0
330
4E
100
AcDbEntity
  8
0
  6
Continuous
 62
     7
100
AcDbLine
 10
5.5000001430512
 20
198.0505985801052
 30
0.0
 11
5.5000001430512
 21
192.3505985801052
 31
0.0
  0
LINE
  5
E1
330
4E
100
AcDbEntity
  8
0
  6
Continuous
 62
     7
100
AcDbLine
 10
5.5000001430512
 20
192.3505985801052
 30
0.0
 11
8.60000014305111
 21
192.3505985801052
 31
0.0
  0
LINE
  5
E2
330
4E
100
AcDbEntity
  8
0
  6
Continuous
 62
     7
100
AcDbLine
 10
8.60000014305111
 20
208.8505985801051
 30
0.0
 11
8.60000014305111
 21
192.3505985801052
 31
0.0
  0
LINE
  5
E3
330
4E
100
AcDbEntity
  8
0
  6
Continuous
 62
     7
100
AcDbLine
 10
14.40000014305101
 20
192.3505985801052
 30
0.0
 11
17.3000001430511
 21
192.3505985801052
 31
0.0
  0
LINE
  5
E4
330
4E
100
AcDbEntity
  8
0
  6
Continuous
 62
     7
100
AcDbLine
 10
14.40000014305101
 20
208.8505985801051
 30
0.0
 11
8.60000014305111
 21
208.8505985801051
 31
0.0
  0
LINE
  5
E5
330
4E
100
AcDbEntity
  8
0
  6
Continuous
 62
     7
100
AcDbLine
 10
14.40000014305101
 20
208.8505985801051
 30
0.0
 11
14.40000014305101
 21
192.3505985801052
 31
0.0
  0
LINE
  5
E6
330
4E
100
AcDbEntity
  8
0
  6
Continuous
 62
     7
100
AcDbLine
 10
17.3000001430511
 20
192.3505985801052
 30
0.0
 11
17.3000001430511
 21
198.0505985801052
 31
0.0
  0
LINE
  5
E7
330
4E
100
AcDbEntity
  8
0
  6
Continuous
 62
     7
100
AcDbLine
 10
14.40000014305101
 20
208.8494017840101
 30
0.0
 11
8.60000014305111
 21
208.8494017840101
 31
0.0
  0
LINE
  5
E8
330
4E
100
AcDbEntity
  8
0
  6
Continuous
 62
     7
100
AcDbLine
 10
26.40000014305101
 20
208.8494017840101
 30
0.0
 11
28.50000014305106
 21
208.8494017840101
 31
0.0
  0
LINE
  5
E9
330
4E
100
AcDbEntity
  8
0
  6
Continuous
 62
     7
100
AcDbLine
 10
-3.39999985694889
 20
208.8494017840101
 30
0.0
 11
-5.49999985694888
 21
208.8494017840101
 31
0.0
  0
LINE
  5
EA
330
4E
100
AcDbEntity
  8
0
  6
Continuous
 62
     7
100
AcDbLine
 10
-5.49999985694888
 20
208.8494017840101
 30
0.0
 11
-5.49999985694888
 21
209.8318048697322
 31
0.0
  0
LINE
  5
EB
330
4E
100
AcDbEntity
  8
0
  6
Continuous
 62
     7
100
AcDbLine
 10
-5.49999985694888
 20
207.8494017840101
 30
0.0
 11
-5.49999985694888
 21
208.8494017840101
 31
0.0
  0
LINE
  5
EC
330
4E
100
AcDbEntity
  8
0
  6
Continuous
 62
     7
100
AcDbLine
 10
-5.49999985694888
 20
209.8318048697322
 30
0.0
 11
-5.49999985694888
 21
211.3473019159405
 31
0.0
  0
LINE
  5
ED
330
4E
100
AcDbEntity
  8
0
  6
Continuous
 62
     7
100
AcDbLine
 10
26.40000014305102
 20
207.8494017840101
 30
0.0
 11
28.50000014305106
 21
207.8494017840101
 31
0.0
  0
LINE
  5
EE
330
4E
100
AcDbEntity
  8
0
  6
Continuous
 62
     7
100
AcDbLine
 10
8.60000014305112
 20
207.8494017840101
 30
0.0
 11
14.40000014305102
 21
207.8494017840101
 31
0.0
  0
LINE
  5
EF
330
4E
100
AcDbEntity
  8
0
  6
Continuous
 62
     7
100
AcDbLine
 10
-5.49999985694888
 20
207.8494017840101
 30
0.0
 11
-3.39999985694888
 21
207.8494017840101
 31
0.0
  0
ARC
  5
F0
330
4E
100
AcDbEntity
  8
0
  6
Continuous
 62
     7
100
AcDbCircle
 10
20.3000001430511
 20
198.0505985801052
 30
0.0
 40
3.0
100
AcDbArc
 50
0.0
 51
180.0
  0
ARC
  5
F1
330
4E
100
AcDbEntity
  8
0
  6
Continuous
 62
     7
100
AcDbCircle
 10
2.5000001430512
 20
198.0505985801052
 30
0.0
 40
3.0
100
AcDbArc
 50
0.0
 51
180.0
  0
ENDBLK
  5
50
330
4E
100
AcDbEntity
  8
0
100
AcDbBlockEnd
  0
BLOCK
  5
53
330
51
100
AcDbEntity
  8
0
100
AcDbBlockBegin
  2
Drfsicht1
 70
     0
 10
11.5
 20
202.50000000007
 30
0.0
  3
Drfsicht1
  1

  0
INSERT
  5
52
330
51
100
AcDbEntity
  8
0
100
AcDbBlockReference
  2
MPB_18_1_2-select__2
 10
-5.49999985694888
 20
192.3505985801052
 30
0.0
  0
MTEXT
  5
F2
330
51
100
AcDbEntity
  8
1
 62
     6
100
AcDbMText
 10
11.5
 20
189.8505973816618
 30
0.0
 40
2.5
 41
0.0
 71
     2
 72
     1
  1
 
  7
CONVERTER_11
 73
     1
 44
1.32052821128451
  0
DIMENSION
  5
FD
330
51
100
AcDbEntity
  8
1
100
AcDbDimension
  2
*D17
 10
-10.49999985694888
 20
192.3505985801052
 30
0.0
 11
-12.21249985694888
 21
202.2772898694595
 31
0.0
 70
    32
  1
<>
 71
     5
 42
-1.0
 53
90.0
  3
ME10_DIM_10
100
AcDbAlignedDimension
 13
-5.49999985694888
 23
212.6494017840112
 33
0.0
 14
-3.39999985694889
 24
192.3505985801052
 34
0.0
 50
90.0
100
AcDbRotatedDimension
  0
ENDBLK
  5
54
330
51
100
AcDbEntity
  8
0
100
AcDbBlockEnd
  0
BLOCK
  5
56
330
55
100
AcDbEntity
  8
0
100
AcDbBlockBegin
  2
MPB_18_1_2-select__3
 70
     0
 10
62.79880423693855
 20
235.1494022939668
 30
0.0
  3
MPB_18_1_2-select__3
  1

  0
LINE
  5
FE
330
55
100
AcDbEntity
  8
0
  6
Continuous
 62
     7
100
AcDbLine
 10
96.7988042369385
 20
249.4494022939678
 30
0.0
 11
62.79880423693855
 21
249.4494022939678
 31
0.0
  0
LINE
  5
FF
330
55
100
AcDbEntity
  8
0
  6
Continuous
 62
     7
100
AcDbLine
 10
96.7988042369385
 20
235.1494022939668
 30
0.0
 11
96.7988042369385
 21
249.4494022939678
 31
0.0
  0
LINE
  5
100
330
55
100
AcDbEntity
  8
0
  6
Continuous
 62
     7
100
AcDbLine
 10
62.79880423693855
 20
235.1494022939668
 30
0.0
 11
62.79880423693855
 21
249.4494022939678
 31
0.0
  0
LINE
  5
101
330
55
100
AcDbEntity
  8
0
  6
Continuous
 62
     7
100
AcDbLine
 10
96.7988042369385
 20
235.1494022939668
 30
0.0
 11
62.79880423693855
 21
235.1494022939668
 31
0.0
  0
ENDBLK
  5
57
330
55
100
AcDbEntity
  8
0
100
AcDbBlockEnd
  0
BLOCK
  5
5A
330
58
100
AcDbEntity
  8
0
100
AcDbBlockBegin
  2
Rckans1
 70
     0
 10
79.7988043799896
 20
242.2994025953764
 30
0.0
  3
Rckans1
  1

  0
INSERT
  5
59
330
58
100
AcDbEntity
  8
0
100
AcDbBlockReference
  2
MPB_18_1_2-select__3
 10
62.79880423693855
 20
235.1494022939668
 30
0.0
  0
MTEXT
  5
102
330
58
100
AcDbEntity
  8
1
 62
     6
100
AcDbMText
 10
79.79880437998963
 20
232.6494020231718
 30
0.0
 40
2.5
 41
0.0
 71
     2
 72
     1
  1
 
  7
CONVERTER_11
 73
     1
 44
1.32052821128451
  0
ENDBLK
  5
5B
330
58
100
AcDbEntity
  8
0
100
AcDbBlockEnd
  0
BLOCK
  5
5D
330
5C
100
AcDbEntity
  8
0
100
AcDbBlockBegin
  2
MPB_18_1_2-select__4
 70
     0
 10
37.00000040605357
 20
235.1494022939668
 30
0.0
  3
MPB_18_1_2-select__4
  1

  0
LINE
  5
103
330
5C
100
AcDbEntity
  8
0
  6
Continuous
 62
     7
100
AcDbLine
 10
39.81759732033257
 20
248.7257402464375
 30
0.0
 11
39.81759732033257
 21
249.4494022939668
 31
0.0
  0
LINE
  5
104
330
5C
100
AcDbEntity
  8
0
  6
Continuous
 62
     7
100
AcDbLine
 10
39.81759732033257
 20
248.7257402464375
 30
0.0
 11
39.20993858946174
 21
248.7257402464375
 31
0.0
  0
LINE
  5
105
330
5C
100
AcDbEntity
  8
0
  6
Continuous
 62
     7
100
AcDbLine
 10
39.29880360995966
 20
236.2399256245778
 30
0.0
 11
39.29880360995966
 21
248.1499256245779
 31
0.0
  0
LINE
  5
106
330
5C
100
AcDbEntity
  8
0
  6
Continuous
 62
     7
100
AcDbLine
 10
38.09130890712356
 20
236.1494022939668
 30
0.0
 11
39.20993858946174
 21
248.7257402464375
 31
0.0
  0
LINE
  5
107
330
5C
100
AcDbEntity
  8
0
  6
Continuous
 62
     7
100
AcDbLine
 10
39.29880360995966
 20
236.2399256245778
 30
0.0
 11
38.09130890712356
 21
236.1494022939668
 31
0.0
  0
LINE
  5
108
330
5C
100
AcDbEntity
  8
0
  6
Continuous
 62
     7
100
AcDbLine
 10
40.82102801067636
 20
236.3540435767035
 30
0.0
 11
39.29880360995966
 21
236.2399256245778
 31
0.0
  0
LINE
  5
109
330
5C
100
AcDbEntity
  8
0
  6
Continuous
 62
     7
100
AcDbLine
 10
38.30210027412424
 20
249.4494022939678
 30
0.0
 11
39.81759732033257
 21
249.4494022939668
 31
0.0
  0
LINE
  5
10A
330
5C
100
AcDbEntity
  8
0
  6
Continuous
 62
     7
100
AcDbLine
 10
41.80000040605466
 20
244.6762625809175
 30
0.0
 11
40.80000040605466
 21
244.6762625809175
 31
0.0
  0
LINE
  5
10B
330
5C
100
AcDbEntity
  8
0
  6
Continuous
 62
     7
100
AcDbLine
 10
41.80000040605466
 20
235.1494022939668
 30
0.0
 11
41.80000040605466
 21
244.6762625809175
 31
0.0
  0
LINE
  5
10C
330
5C
100
AcDbEntity
  8
0
  6
Continuous
 62
     7
100
AcDbLine
 10
37.00000040605357
 20
235.1494022939668
 30
0.0
 11
41.80000040605466
 21
235.1494022939668
 31
0.0
  0
LINE
  5
10D
330
5C
100
AcDbEntity
  8
0
  6
Continuous
 62
     7
100
AcDbLine
 10
40.79501358629931
 20
246.6499256245779
 30
0.0
 11
40.80000040605466
 21
244.6762625809175
 31
0.0
  0
LINE
  5
10E
330
5C
100
AcDbEntity
  8
0
  6
Continuous
 62
     7
100
AcDbLine
 10
40.80000040605466
 20
244.6762625809175
 30
0.0
 11
40.82102801067636
 21
236.3540435767035
 31
0.0
  0
LINE
  5
10F
330
5C
100
AcDbEntity
  8
0
  6
Continuous
 62
     7
100
AcDbLine
 10
39.29880360995966
 20
248.1499256245779
 30
0.0
 11
57.29880360995963
 21
248.1499256245779
 31
0.0
  0
LINE
  5
110
330
5C
100
AcDbEntity
  8
0
  6
Continuous
 62
     7
100
AcDbLine
 10
57.29880360995963
 20
248.1499256245779
 30
0.0
 11
57.29880360995963
 21
246.6499256245779
 31
0.0
  0
LINE
  5
111
330
5C
100
AcDbEntity
  8
0
  6
Continuous
 62
     7
100
AcDbLine
 10
40.79501358629931
 20
246.6499256245779
 30
0.0
 11
57.29880360995963
 21
246.6499256245779
 31
0.0
  0
LINE
  5
112
330
5C
100
AcDbEntity
  8
0
  6
Continuous
 62
     7
100
AcDbLine
 10
37.00000040605357
 20
235.1494022939668
 30
0.0
 11
38.30210027412424
 21
249.4494022939678
 31
0.0
  0
ENDBLK
  5
5E
330
5C
100
AcDbEntity
  8
0
100
AcDbBlockEnd
  0
BLOCK
  5
61
330
5F
100
AcDbEntity
  8
0
100
AcDbBlockBegin
  2
SA_Links1
 70
     0
 10
47.1494021899948
 20
242.2994025953764
 30
0.0
  3
SA_Links1
  1

  0
INSERT
  5
60
330
5F
100
AcDbEntity
  8
0
100
AcDbBlockReference
  2
MPB_18_1_2-select__4
 10
37.00000040605357
 20
235.1494022939668
 30
0.0
  0
MTEXT
  5
113
330
5F
100
AcDbEntity
  8
1
 62
     6
100
AcDbMText
 10
47.1494021899948
 20
232.6494020231718
 30
0.0
 40
2.5
 41
0.0
 71
     2
 72
     1
  1
 
  7
CONVERTER_11
 73
     1
 44
1.32052821128451
  0
ENDBLK
  5
62
330
5F
100
AcDbEntity
  8
0
100
AcDbBlockEnd
  0
BLOCK
  5
64
330
63
100
AcDbEntity
  8
0
100
AcDbBlockBegin
  2
MPB_18_1_2-select__5
 70
     0
 10
-42.29880360995945
 20
235.1494022939669
 30
0.0
  3
MPB_18_1_2-select__5
  1

  0
LINE
  5
114
330
63
100
AcDbEntity
  8
0
  6
Continuous
 62
     7
100
AcDbLine
 10
-24.29880360995948
 20
248.149925624578
 30
0.0
 11
-24.29880360995948
 21
236.2399256245779
 31
0.0
  0
LINE
  5
115
330
63
100
AcDbEntity
  8
0
  6
Continuous
 62
     7
100
AcDbLine
 10
-24.20993858946156
 20
248.7257402464375
 30
0.0
 11
-23.09130890712338
 21
236.1494022939669
 31
0.0
  0
LINE
  5
116
330
63
100
AcDbEntity
  8
0
  6
Continuous
 62
     7
100
AcDbLine
 10
-23.09130890712338
 20
236.1494022939669
 30
0.0
 11
-24.29880360995948
 21
236.2399256245779
 31
0.0
  0
LINE
  5
117
330
63
100
AcDbEntity
  8
0
  6
Continuous
 62
     7
100
AcDbLine
 10
-26.80000040605448
 20
235.1494022939669
 30
0.0
 11
-22.00000040605337
 21
235.1494022939669
 31
0.0
  0
LINE
  5
118
330
63
100
AcDbEntity
  8
0
  6
Continuous
 62
     7
100
AcDbLine
 10
-24.29880360995948
 20
236.2399256245779
 30
0.0
 11
-25.82102801067634
 21
236.3540435767035
 31
0.0
  0
LINE
  5
119
330
63
100
AcDbEntity
  8
0
  6
Continuous
 62
     7
100
AcDbLine
 10
-26.80000040605448
 20
244.6762625809176
 30
0.0
 11
-26.80000040605448
 21
235.1494022939669
 31
0.0
  0
LINE
  5
11A
330
63
100
AcDbEntity
  8
0
  6
Continuous
 62
     7
100
AcDbLine
 10
-25.80000040605448
 20
244.6762625809175
 30
0.0
 11
-26.80000040605448
 21
244.6762625809176
 31
0.0
  0
LINE
  5
11B
330
63
100
AcDbEntity
  8
0
  6
Continuous
 62
     7
100
AcDbLine
 10
-25.80000040605448
 20
244.6762625809175
 30
0.0
 11
-25.79501358629912
 21
246.6499256245779
 31
0.0
  0
LINE
  5
11C
330
63
100
AcDbEntity
  8
0
  6
Continuous
 62
     7
100
AcDbLine
 10
-25.80000040605448
 20
244.6762625809175
 30
0.0
 11
-25.82102801067634
 21
236.3540435767035
 31
0.0
  0
LINE
  5
11D
330
63
100
AcDbEntity
  8
0
  6
Continuous
 62
     7
100
AcDbLine
 10
-42.29880360995945
 20
246.649925624578
 30
0.0
 11
-25.79501358629912
 21
246.6499256245779
 31
0.0
  0
LINE
  5
11E
330
63
100
AcDbEntity
  8
0
  6
Continuous
 62
     7
100
AcDbLine
 10
-24.81759732033238
 20
249.4494022939669
 30
0.0
 11
-23.30210027412406
 21
249.4494022939678
 31
0.0
  0
LINE
  5
11F
330
63
100
AcDbEntity
  8
0
  6
Continuous
 62
     7
100
AcDbLine
 10
-24.20993858946156
 20
248.7257402464375
 30
0.0
 11
-24.81759732033238
 21
248.7257402464376
 31
0.0
  0
LINE
  5
120
330
63
100
AcDbEntity
  8
0
  6
Continuous
 62
     7
100
AcDbLine
 10
-24.81759732033238
 20
249.4494022939669
 30
0.0
 11
-24.81759732033238
 21
248.7257402464376
 31
0.0
  0
LINE
  5
121
330
63
100
AcDbEntity
  8
0
  6
Continuous
 62
     7
100
AcDbLine
 10
-42.29880360995945
 20
248.149925624578
 30
0.0
 11
-24.29880360995948
 21
248.149925624578
 31
0.0
  0
LINE
  5
122
330
63
100
AcDbEntity
  8
0
  6
Continuous
 62
     7
100
AcDbLine
 10
-42.29880360995945
 20
248.149925624578
 30
0.0
 11
-42.29880360995945
 21
246.649925624578
 31
0.0
  0
LINE
  5
123
330
63
100
AcDbEntity
  8
0
  6
Continuous
 62
     7
100
AcDbLine
 10
-22.00000040605337
 20
235.1494022939669
 30
0.0
 11
-23.30210027412406
 21
249.4494022939678
 31
0.0
  0
ENDBLK
  5
65
330
63
100
AcDbEntity
  8
0
100
AcDbBlockEnd
  0
BLOCK
  5
68
330
66
100
AcDbEntity
  8
0
100
AcDbBlockBegin
  2
SA_Rechts1
 70
     0
 10
-32.14940218999462
 20
242.2994025953765
 30
0.0
  3
SA_Rechts1
  1

  0
INSERT
  5
67
330
66
100
AcDbEntity
  8
0
100
AcDbBlockReference
  2
MPB_18_1_2-select__5
 10
-42.29880360995945
 20
235.1494022939669
 30
0.0
  0
MTEXT
  5
124
330
66
100
AcDbEntity
  8
1
 62
     6
100
AcDbMText
 10
-32.14940218999485
 20
232.6494020231718
 30
0.0
 40
2.5
 41
0.0
 71
     2
 72
     1
  1
 
  7
CONVERTER_11
 73
     1
 44
1.32052821128451
  0
ENDBLK
  5
69
330
66
100
AcDbEntity
  8
0
100
AcDbBlockEnd
  0
BLOCK
  5
6B
330
6A
100
AcDbEntity
  8
0
100
AcDbBlockBegin
  2
MPB_18_1_2-select__6
 70
     0
 10
-5.49999985694894
 20
235.1494022939669
 30
0.0
  3
MPB_18_1_2-select__6
  1

  0
LINE
  5
125
330
6A
100
AcDbEntity
  8
0
  6
Continuous
 62
     7
100
AcDbLine
 10
-3.39999985694895
 20
248.149925624578
 30
0.0
 11
-3.39999985694895
 21
246.6499256245779
 31
0.0
  0
LINE
  5
126
330
6A
100
AcDbEntity
  8
0
  6
Continuous
 62
     7
100
AcDbLine
 10
-0.49999985694886
 20
248.149925624578
 30
0.0
 11
-0.49999985694886
 21
246.649925624578
 31
0.0
  0
LINE
  5
127
330
6A
100
AcDbEntity
  8
0
  6
Continuous
 62
     7
100
AcDbLine
 10
-5.49999985694894
 20
248.7257402464375
 30
0.0
 11
-5.49999985694894
 21
249.4494022939669
 31
0.0
  0
LINE
  5
128
330
6A
100
AcDbEntity
  8
0
  6
Continuous
 62
     7
100
AcDbLine
 10
5.50000014305115
 20
248.149925624578
 30
0.0
 11
-0.49999985694886
 21
248.149925624578
 31
0.0
  0
LINE
  5
129
330
6A
100
AcDbEntity
  8
0
  6
Continuous
 62
     7
100
AcDbLine
 10
5.50000014305115
 20
248.149925624578
 30
0.0
 11
8.60000014305106
 21
248.149925624578
 31
0.0
  0
LINE
  5
12A
330
6A
100
AcDbEntity
  8
0
  6
Continuous
 62
     7
100
AcDbLine
 10
-3.39999985694895
 20
248.149925624578
 30
0.0
 11
-0.49999985694886
 21
248.149925624578
 31
0.0
  0
LINE
  5
12B
330
6A
100
AcDbEntity
  8
0
  6
Continuous
 62
     7
100
AcDbLine
 10
-5.49999985694894
 20
235.1494022939669
 30
0.0
 11
-5.49999985694894
 21
244.6762625809176
 31
0.0
  0
LINE
  5
12C
330
6A
100
AcDbEntity
  8
0
  6
Continuous
 62
     7
100
AcDbLine
 10
-5.49999985694894
 20
244.6762625809176
 30
0.0
 11
-5.49999985694894
 21
248.7257402464375
 31
0.0
  0
LINE
  5
12D
330
6A
100
AcDbEntity
  8
0
  6
Continuous
 62
     7
100
AcDbLine
 10
-3.39999985694895
 20
246.6499256245779
 30
0.0
 11
-0.49999985694886
 21
246.649925624578
 31
0.0
  0
LINE
  5
12E
330
6A
100
AcDbEntity
  8
0
  6
Continuous
 62
     7
100
AcDbLine
 10
5.50000014305115
 20
246.649925624578
 30
0.0
 11
8.60000014305106
 21
246.6499256245779
 31
0.0
  0
LINE
  5
12F
330
6A
100
AcDbEntity
  8
0
  6
Continuous
 62
     7
100
AcDbLine
 10
8.60000014305106
 20
245.1499256245777
 30
0.0
 11
8.60000014305106
 21
246.6499256245779
 31
0.0
  0
LINE
  5
130
330
6A
100
AcDbEntity
  8
0
  6
Continuous
 62
     7
100
AcDbLine
 10
5.50000014305115
 20
246.649925624578
 30
0.0
 11
-0.49999985694886
 21
246.649925624578
 31
0.0
  0
LINE
  5
131
330
6A
100
AcDbEntity
  8
0
  6
Continuous
 62
     7
100
AcDbLine
 10
-3.39999985694895
 20
244.6762625809175
 30
0.0
 11
26.40000014305095
 21
244.6762625809175
 31
0.0
  0
LINE
  5
132
330
6A
100
AcDbEntity
  8
0
  6
Continuous
 62
     7
100
AcDbLine
 10
28.500000143051
 20
244.6762625809176
 30
0.0
 11
28.500000143051
 21
235.1494022939669
 31
0.0
  0
LINE
  5
133
330
6A
100
AcDbEntity
  8
0
  6
Continuous
 62
     7
100
AcDbLine
 10
28.500000143051
 20
248.7257402464375
 30
0.0
 11
28.500000143051
 21
244.6762625809176
 31
0.0
  0
LINE
  5
134
330
6A
100
AcDbEntity
  8
0
  6
Continuous
 62
     7
100
AcDbLine
 10
14.40000014305095
 20
248.149925624578
 30
0.0
 11
17.30000014305104
 21
248.149925624578
 31
0.0
  0
LINE
  5
135
330
6A
100
AcDbEntity
  8
0
  6
Continuous
 62
     7
100
AcDbLine
 10
17.30000014305104
 20
248.149925624578
 30
0.0
 11
17.30000014305104
 21
246.649925624578
 31
0.0
  0
LINE
  5
136
330
6A
100
AcDbEntity
  8
0
  6
Continuous
 62
     7
100
AcDbLine
 10
14.40000014305095
 20
246.6499256245779
 30
0.0
 11
17.30000014305104
 21
246.649925624578
 31
0.0
  0
LINE
  5
137
330
6A
100
AcDbEntity
  8
0
  6
Continuous
 62
     7
100
AcDbLine
 10
14.40000014305095
 20
246.6499256245779
 30
0.0
 11
14.40000014305095
 21
245.1499256245777
 31
0.0
  0
LINE
  5
138
330
6A
100
AcDbEntity
  8
0
  6
Continuous
 62
     7
100
AcDbLine
 10
23.30000014305104
 20
246.649925624578
 30
0.0
 11
17.30000014305104
 21
246.649925624578
 31
0.0
  0
LINE
  5
139
330
6A
100
AcDbEntity
  8
0
  6
Continuous
 62
     7
100
AcDbLine
 10
23.30000014305104
 20
248.149925624578
 30
0.0
 11
17.30000014305104
 21
248.149925624578
 31
0.0
  0
LINE
  5
13A
330
6A
100
AcDbEntity
  8
0
  6
Continuous
 62
     7
100
AcDbLine
 10
-3.39999985694895
 20
246.6499256245779
 30
0.0
 11
-3.39999985694895
 21
244.6762625809175
 31
0.0
  0
LINE
  5
13B
330
6A
100
AcDbEntity
  8
0
  6
Continuous
 62
     7
100
AcDbLine
 10
-5.49999985694894
 20
244.6762625809176
 30
0.0
 11
-3.39999985694895
 21
244.6762625809175
 31
0.0
  0
LINE
  5
13C
330
6A
100
AcDbEntity
  8
0
  6
Continuous
 62
     7
100
AcDbLine
 10
-5.49999985694894
 20
235.1494022939669
 30
0.0
 11
28.500000143051
 21
235.1494022939669
 31
0.0
  0
LINE
  5
13D
330
6A
100
AcDbEntity
  8
0
  6
Continuous
 62
     7
100
AcDbLine
 10
23.30000014305104
 20
246.649925624578
 30
0.0
 11
23.30000014305104
 21
248.149925624578
 31
0.0
  0
LINE
  5
13E
330
6A
100
AcDbEntity
  8
0
  6
Continuous
 62
     7
100
AcDbLine
 10
26.40000014305095
 20
244.6762625809175
 30
0.0
 11
26.40000014305095
 21
246.6499256245779
 31
0.0
  0
LINE
  5
13F
330
6A
100
AcDbEntity
  8
0
  6
Continuous
 62
     7
100
AcDbLine
 10
23.30000014305104
 20
246.649925624578
 30
0.0
 11
26.40000014305095
 21
246.6499256245779
 31
0.0
  0
LINE
  5
140
330
6A
100
AcDbEntity
  8
0
  6
Continuous
 62
     7
100
AcDbLine
 10
23.30000014305104
 20
248.149925624578
 30
0.0
 11
26.40000014305095
 21
248.149925624578
 31
0.0
  0
LINE
  5
141
330
6A
100
AcDbEntity
  8
0
  6
Continuous
 62
     7
100
AcDbLine
 10
28.500000143051
 20
249.4494022939669
 30
0.0
 11
-5.49999985694894
 21
249.4494022939669
 31
0.0
  0
LINE
  5
142
330
6A
100
AcDbEntity
  8
0
  6
Continuous
 62
     7
100
AcDbLine
 10
28.500000143051
 20
249.4494022939669
 30
0.0
 11
28.500000143051
 21
248.7257402464375
 31
0.0
  0
LINE
  5
143
330
6A
100
AcDbEntity
  8
0
  6
Continuous
 62
     7
100
AcDbLine
 10
26.40000014305095
 20
246.6499256245779
 30
0.0
 11
26.40000014305095
 21
248.149925624578
 31
0.0
  0
LINE
  5
144
330
6A
100
AcDbEntity
  8
0
  6
Continuous
 62
     7
100
AcDbLine
 10
26.40000014305095
 20
244.6762625809175
 30
0.0
 11
28.500000143051
 21
244.6762625809176
 31
0.0
  0
LINE
  5
145
330
6A
100
AcDbEntity
  8
0
  6
Continuous
 62
     7
100
AcDbLine
 10
14.40000014305095
 20
248.149925624578
 30
0.0
 11
14.40000014305095
 21
246.6499256245779
 31
0.0
  0
LINE
  5
146
330
6A
100
AcDbEntity
  8
0
  6
Continuous
 62
     7
100
AcDbLine
 10
14.40000014305095
 20
245.1499256245777
 30
0.0
 11
8.60000014305106
 21
245.1499256245777
 31
0.0
  0
LINE
  5
147
330
6A
100
AcDbEntity
  8
0
  6
Continuous
 62
     7
100
AcDbLine
 10
8.60000014305106
 20
246.6499256245779
 30
0.0
 11
8.60000014305106
 21
248.149925624578
 31
0.0
  0
LINE
  5
148
330
6A
100
AcDbEntity
  8
0
  6
Continuous
 62
     7
100
AcDbLine
 10
5.50000014305115
 20
246.649925624578
 30
0.0
 11
5.50000014305115
 21
248.149925624578
 31
0.0
  0
LINE
  5
149
330
6A
100
AcDbEntity
  8
0
  6
Continuous
 62
     7
100
AcDbLine
 10
-5.49999985694894
 20
248.7257402464375
 30
0.0
 11
28.500000143051
 21
248.7257402464375
 31
0.0
  0
ENDBLK
  5
6C
330
6A
100
AcDbEntity
  8
0
100
AcDbBlockEnd
  0
BLOCK
  5
6F
330
6D
100
AcDbEntity
  8
0
100
AcDbBlockBegin
  2
Vordans1
 70
     0
 10
11.49999999999995
 20
242.2994025953765
 30
0.0
  3
Vordans1
  1

  0
INSERT
  5
6E
330
6D
100
AcDbEntity
  8
0
100
AcDbBlockReference
  2
MPB_18_1_2-select__6
 10
-5.49999985694894
 20
235.1494022939669
 30
0.0
  0
MTEXT
  5
14A
330
6D
100
AcDbEntity
  8
1
 62
     6
100
AcDbMText
 10
11.5
 20
232.6494020231718
 30
0.0
 40
2.5
 41
0.0
 71
     2
 72
     1
  1
 
  7
CONVERTER_11
 73
     1
 44
1.32052821128451
  0
DIMENSION
  5
155
330
6D
100
AcDbEntity
  8
1
100
AcDbDimension
  2
*D18
 10
-5.49999985694894
 20
229.269137695547
 30
0.0
 11
11.5
 21
230.894137695547
 31
0.0
 70
    32
  1
<>
 71
     5
 42
-1.0
 53
0.00013888888889
  3
ME10_DIM_11
100
AcDbAlignedDimension
 13
28.500000143051
 23
244.6762625809176
 33
0.0
 14
-5.49999985694894
 24
244.6762625809176
 34
0.0
100
AcDbRotatedDimension
  0
DIMENSION
  5
160
330
6D
100
AcDbEntity
  8
1
100
AcDbDimension
  2
*D19
 10
-10.49999985694894
 20
235.1494022939669
 30
0.0
 11
-12.12499985694894
 21
241.851701788373
 31
0.0
 70
    32
  1
<>
 71
     5
 42
-1.0
 53
90.0
  3
ME10_DIM_12
100
AcDbAlignedDimension
 13
-3.39999985694895
 23
248.149925624578
 33
0.0
 14
-5.49999985694894
 24
235.1494022939669
 34
0.0
 50
90.0
100
AcDbRotatedDimension
  0
DIMENSION
  5
16B
330
6D
100
AcDbEntity
  8
1
100
AcDbDimension
  2
*D20
 10
-14.11005403433661
 20
235.1494022939669
 30
0.0
 11
-15.82255403433661
 21
242.7937499852895
 31
0.0
 70
    32
  1
<>
 71
     5
 42
-1.0
 53
90.0
  3
ME10_DIM_13
100
AcDbAlignedDimension
 13
-5.49999985694894
 23
249.4494022939669
 33
0.0
 14
-5.49999985694894
 24
235.1494022939669
 34
0.0
 50
90.0
100
AcDbRotatedDimension
  0
ENDBLK
  5
70
330
6D
100
AcDbEntity
  8
0
100
AcDbBlockEnd
  0
BLOCK
  5
72
330
71
100
AcDbEntity
  8
0
100
AcDbBlockBegin
  2
_rahmen
 70
     0
 10
198.0000006269791
 20
328.6124999705789
 30
0.0
  3
_rahmen
  1

  0
LINE
  5
16C
330
71
100
AcDbEntity
  8
1
  6
Continuous
 62
     6
100
AcDbLine
 10
68.45519610022907
 20
359.1124999705791
 30
0.0
 11
198.0000006269808
 21
359.1124999705791
 31
0.0
  0
LINE
  5
16D
330
71
100
AcDbEntity
  8
1
  6
Continuous
 62
     7
100
AcDbLine
 10
86.65519610022909
 20
337.8624999705791
 30
0.0
 11
104.855196100229
 21
337.8624999705791
 31
0.0
  0
LINE
  5
16E
330
71
100
AcDbEntity
  8
1
  6
Continuous
 62
     6
100
AcDbLine
 10
86.65519610022909
 20
333.6124999705791
 30
0.0
 11
68.45519610022907
 21
333.6124999705789
 31
0.0
  0
LINE
  5
16F
330
71
100
AcDbEntity
  8
1
  6
Continuous
 62
     7
100
AcDbLine
 10
86.65519610022909
 20
337.8624999705791
 30
0.0
 11
86.65519610022909
 21
333.6124999705791
 31
0.0
  0
LINE
  5
170
330
71
100
AcDbEntity
  8
1
  6
Continuous
 62
     7
100
AcDbLine
 10
104.855196100229
 20
337.8624999705791
 30
0.0
 11
104.855196100229
 21
333.6124999705789
 31
0.0
  0
LINE
  5
171
330
71
100
AcDbEntity
  8
1
  6
Continuous
 62
     7
100
AcDbLine
 10
68.45519610022907
 20
337.8624999705789
 30
0.0
 11
68.45519610022907
 21
333.6124999705789
 31
0.0
  0
LINE
  5
172
330
71
100
AcDbEntity
  8
1
  6
Continuous
 62
     7
100
AcDbLine
 10
68.45519610022907
 20
337.8624999705789
 30
0.0
 11
86.65519610022909
 21
337.8624999705791
 31
0.0
  0
LINE
  5
173
330
71
100
AcDbEntity
  8
1
  6
Continuous
 62
     2
100
AcDbLine
 10
77.69185098679168
 20
357.2374999705789
 30
0.0
 11
77.69185098679168
 21
352.2374999705789
 31
0.0
  0
LINE
  5
174
330
71
100
AcDbEntity
  8
1
  6
Continuous
 62
     2
100
AcDbLine
 10
77.69185098679168
 20
352.2374999705789
 30
0.0
 11
72.69185098679168
 21
353.4874999705789
 31
0.0
  0
LINE
  5
175
330
71
100
AcDbEntity
  8
1
  6
Continuous
 62
     2
100
AcDbLine
 10
72.69185098679168
 20
353.4874999705789
 30
0.0
 11
72.69185098679168
 21
355.9874999705789
 31
0.0
  0
LINE
  5
176
330
71
100
AcDbEntity
  8
1
  6
Continuous
 62
     2
100
AcDbLine
 10
72.69185098679168
 20
355.9874999705789
 30
0.0
 11
77.69185098679168
 21
357.2374999705789
 31
0.0
  0
LINE
  5
177
330
71
100
AcDbEntity
  8
1
  6
Continuous
 62
     6
100
AcDbLine
 10
-53.99999937301914
 20
333.6124999705791
 30
0.0
 11
-88.99999937301902
 21
333.6124999705791
 31
0.0
  0
LINE
  5
178
330
71
100
AcDbEntity
  8
1
  6
Continuous
 62
     6
100
AcDbLine
 10
198.0000006269808
 20
350.6124999705791
 30
0.0
 11
198.0000006269804
 21
342.1124999705791
 31
0.0
  0
LINE
  5
179
330
71
100
AcDbEntity
  8
1
  6
Continuous
 62
     6
100
AcDbLine
 10
104.855196100229
 20
333.6124999705789
 30
0.0
 11
104.5000006269791
 21
333.6124999705791
 31
0.0
  0
LINE
  5
17A
330
71
100
AcDbEntity
  8
1
  6
Continuous
 62
     6
100
AcDbLine
 10
-47.79999937302114
 20
333.6124999705789
 30
0.0
 11
-53.99999937301914
 21
333.6124999705791
 31
0.0
  0
LINE
  5
17B
330
71
100
AcDbEntity
  8
1
  6
Continuous
 62
     7
100
AcDbLine
 10
104.855196100229
 20
350.6124999705791
 30
0.0
 11
104.855196100229
 21
337.8624999705791
 31
0.0
  0
LINE
  5
17C
330
71
100
AcDbEntity
  8
1
  6
Continuous
 62
     7
100
AcDbLine
 10
68.45519610022907
 20
350.6124999705791
 30
0.0
 11
68.45519610022907
 21
337.8624999705789
 31
0.0
  0
LINE
  5
17D
330
71
100
AcDbEntity
  8
1
  6
Continuous
 62
     6
100
AcDbLine
 10
54.5000006269791
 20
333.6124999705791
 30
0.0
 11
4.50000062697887
 21
333.6124999705791
 31
0.0
  0
LINE
  5
17E
330
71
100
AcDbEntity
  8
1
  6
Continuous
 62
     6
100
AcDbLine
 10
-47.79999937302114
 20
333.6124999705789
 30
0.0
 11
-45.4999993730209
 21
333.6124999705791
 31
0.0
  0
LINE
  5
17F
330
71
100
AcDbEntity
  8
1
  6
Continuous
 62
     6
100
AcDbLine
 10
104.855196100229
 20
333.6124999705789
 30
0.0
 11
154.5000006269791
 21
333.6124999705791
 31
0.0
  0
LINE
  5
180
330
71
100
AcDbEntity
  8
1
  6
Continuous
 62
     6
100
AcDbLine
 10
198.0000006269791
 20
333.6124999705791
 30
0.0
 11
198.0000006269804
 21
342.1124999705791
 31
0.0
  0
LINE
  5
181
330
71
100
AcDbEntity
  8
1
  6
Continuous
 62
     2
100
AcDbLine
 10
-93.99999937301999
 20
333.6124999705791
 30
0.0
 11
-93.99999937301999
 21
328.6124999705789
 31
0.0
  0
LINE
  5
182
330
71
100
AcDbEntity
  8
1
  6
Continuous
 62
     2
100
AcDbLine
 10
-88.99999937301902
 20
333.6124999705791
 30
0.0
 11
-93.99999937301999
 21
333.6124999705791
 31
0.0
  0
LINE
  5
183
330
71
100
AcDbEntity
  8
1
  6
Continuous
 62
     2
100
AcDbLine
 10
-88.99999937301902
 20
328.6124999705789
 30
0.0
 11
-45.4999993730209
 21
328.6124999705789
 31
0.0
  0
LINE
  5
184
330
71
100
AcDbEntity
  8
1
  6
Continuous
 62
     2
100
AcDbLine
 10
-88.99999937301902
 20
333.6124999705791
 30
0.0
 11
-88.99999937301902
 21
328.6124999705789
 31
0.0
  0
LINE
  5
185
330
71
100
AcDbEntity
  8
1
  6
Continuous
 62
     2
100
AcDbLine
 10
154.5000006269791
 20
328.6124999705789
 30
0.0
 11
104.5000006269791
 21
328.6124999705789
 31
0.0
  0
LINE
  5
186
330
71
100
AcDbEntity
  8
1
  6
Continuous
 62
     2
100
AcDbLine
 10
154.5000006269791
 20
328.6124999705789
 30
0.0
 11
154.5000006269791
 21
333.6124999705791
 31
0.0
  0
LINE
  5
187
330
71
100
AcDbEntity
  8
1
  6
Continuous
 62
     2
100
AcDbLine
 10
104.5000006269791
 20
328.6124999705789
 30
0.0
 11
104.5000006269791
 21
333.6124999705791
 31
0.0
  0
LINE
  5
188
330
71
100
AcDbEntity
  8
1
  6
Continuous
 62
     2
100
AcDbLine
 10
54.5000006269791
 20
328.6124999705789
 30
0.0
 11
104.5000006269791
 21
328.6124999705789
 31
0.0
  0
LINE
  5
189
330
71
100
AcDbEntity
  8
1
  6
Continuous
 62
     2
100
AcDbLine
 10
54.5000006269791
 20
328.6124999705789
 30
0.0
 11
54.5000006269791
 21
333.6124999705791
 31
0.0
  0
LINE
  5
18A
330
71
100
AcDbEntity
  8
1
  6
Continuous
 62
     2
100
AcDbLine
 10
4.50000062697887
 20
328.6124999705789
 30
0.0
 11
54.5000006269791
 21
328.6124999705789
 31
0.0
  0
LINE
  5
18B
330
71
100
AcDbEntity
  8
1
  6
Continuous
 62
     2
100
AcDbLine
 10
4.50000062697887
 20
328.6124999705789
 30
0.0
 11
4.50000062697887
 21
333.6124999705791
 31
0.0
  0
LINE
  5
18C
330
71
100
AcDbEntity
  8
1
  6
Continuous
 62
     2
100
AcDbLine
 10
-45.4999993730209
 20
328.6124999705789
 30
0.0
 11
4.50000062697887
 21
328.6124999705789
 31
0.0
  0
LINE
  5
18D
330
71
100
AcDbEntity
  8
1
  6
Continuous
 62
     2
100
AcDbLine
 10
-45.4999993730209
 20
328.6124999705789
 30
0.0
 11
-45.4999993730209
 21
333.6124999705791
 31
0.0
  0
LINE
  5
18E
330
71
100
AcDbEntity
  8
1
  6
Continuous
 62
     6
100
AcDbLine
 10
-88.9999993730192
 20
383.6124999705792
 30
0.0
 11
-88.99999937301902
 21
333.6124999705791
 31
0.0
  0
LINE
  5
18F
330
71
100
AcDbEntity
  8
1
  6
Continuous
 62
     2
100
AcDbLine
 10
-93.99999937301999
 20
383.6124999705792
 30
0.0
 11
-93.99999937301999
 21
333.6124999705791
 31
0.0
  0
LINE
  5
190
330
71
100
AcDbEntity
  8
1
  6
Continuous
 62
     2
100
AcDbLine
 10
-93.99999937301999
 20
383.6124999705792
 30
0.0
 11
-88.9999993730192
 21
383.6124999705792
 31
0.0
  0
LINE
  5
191
330
71
100
AcDbEntity
  8
1
  6
Continuous
 62
     6
100
AcDbLine
 10
-88.99999937301942
 20
433.6124999705789
 30
0.0
 11
-88.9999993730192
 21
383.6124999705792
 31
0.0
  0
LINE
  5
192
330
71
100
AcDbEntity
  8
1
  6
Continuous
 62
     2
100
AcDbLine
 10
-93.99999937301999
 20
433.6124999705789
 30
0.0
 11
-93.99999937301999
 21
383.6124999705792
 31
0.0
  0
LINE
  5
193
330
71
100
AcDbEntity
  8
1
  6
Continuous
 62
     2
100
AcDbLine
 10
-93.99999937301999
 20
433.6124999705789
 30
0.0
 11
-88.99999937301942
 21
433.6124999705789
 31
0.0
  0
LINE
  5
194
330
71
100
AcDbEntity
  8
1
  6
Continuous
 62
     6
100
AcDbLine
 10
-88.99999937301993
 20
483.6124999705791
 30
0.0
 11
-88.99999937301942
 21
433.6124999705789
 31
0.0
  0
LINE
  5
195
330
71
100
AcDbEntity
  8
1
  6
Continuous
 62
     2
100
AcDbLine
 10
-93.99999937301999
 20
483.6124999705791
 30
0.0
 11
-93.99999937301999
 21
433.6124999705789
 31
0.0
  0
LINE
  5
196
330
71
100
AcDbEntity
  8
1
  6
Continuous
 62
     2
100
AcDbLine
 10
-93.99999937301999
 20
483.6124999705791
 30
0.0
 11
-88.99999937301993
 21
483.6124999705791
 31
0.0
  0
LINE
  5
197
330
71
100
AcDbEntity
  8
1
  6
Continuous
 62
     6
100
AcDbLine
 10
-88.99999937301999
 20
518.612499970579
 30
0.0
 11
-88.99999937301993
 21
483.6124999705791
 31
0.0
  0
LINE
  5
198
330
71
100
AcDbEntity
  8
1
  6
Continuous
 62
     2
100
AcDbLine
 10
-93.99999937301999
 20
538.612499970579
 30
0.0
 11
-93.99999937301999
 21
483.6124999705791
 31
0.0
  0
LINE
  5
199
330
71
100
AcDbEntity
  8
1
  6
Continuous
 62
     2
100
AcDbLine
 10
-93.99999937301999
 20
328.6124999705789
 30
0.0
 11
-88.99999937301902
 21
328.6124999705789
 31
0.0
  0
LINE
  5
19A
330
71
100
AcDbEntity
  8
1
  6
Continuous
 62
     2
100
AcDbLine
 10
54.5000006269791
 20
538.612499970579
 30
0.0
 11
54.5000006269791
 21
529.4038081258777
 31
0.0
  0
LINE
  5
19B
330
71
100
AcDbEntity
  8
1
  6
Continuous
 62
     2
100
AcDbLine
 10
54.5000006269791
 20
538.612499970579
 30
0.0
 11
-93.99999937301999
 21
538.612499970579
 31
0.0
  0
LINE
  5
19C
330
71
100
AcDbEntity
  8
1
  6
Continuous
 62
     2
100
AcDbLine
 10
203.0000006269781
 20
333.6124999705791
 30
0.0
 11
203.0000006269781
 21
383.6124999705792
 31
0.0
  0
LINE
  5
19D
330
71
100
AcDbEntity
  8
1
  6
Continuous
 62
     2
100
AcDbLine
 10
203.0000006269781
 20
483.6124999705791
 30
0.0
 11
203.0000006269781
 21
538.612499970579
 31
0.0
  0
LINE
  5
19E
330
71
100
AcDbEntity
  8
1
  6
Continuous
 62
     6
100
AcDbLine
 10
198.0000006269783
 20
483.6124999705791
 30
0.0
 11
198.0000006269781
 21
518.612499970579
 31
0.0
  0
LINE
  5
19F
330
71
100
AcDbEntity
  8
1
  6
Continuous
 62
     2
100
AcDbLine
 10
198.0000006269783
 20
483.6124999705791
 30
0.0
 11
203.0000006269781
 21
483.6124999705791
 31
0.0
  0
LINE
  5
1A0
330
71
100
AcDbEntity
  8
1
  6
Continuous
 62
     2
100
AcDbLine
 10
203.0000006269781
 20
433.6124999705789
 30
0.0
 11
203.0000006269781
 21
483.6124999705791
 31
0.0
  0
LINE
  5
1A1
330
71
100
AcDbEntity
  8
1
  6
Continuous
 62
     6
100
AcDbLine
 10
198.0000006269795
 20
433.6124999705789
 30
0.0
 11
198.0000006269783
 21
483.6124999705791
 31
0.0
  0
LINE
  5
1A2
330
71
100
AcDbEntity
  8
1
  6
Continuous
 62
     2
100
AcDbLine
 10
198.0000006269795
 20
433.6124999705789
 30
0.0
 11
203.0000006269781
 21
433.6124999705789
 31
0.0
  0
LINE
  5
1A3
330
71
100
AcDbEntity
  8
1
  6
Continuous
 62
     2
100
AcDbLine
 10
203.0000006269781
 20
383.6124999705792
 30
0.0
 11
203.0000006269781
 21
433.6124999705789
 31
0.0
  0
LINE
  5
1A4
330
71
100
AcDbEntity
  8
1
  6
Continuous
 62
     6
100
AcDbLine
 10
198.00000062698
 20
383.6124999705792
 30
0.0
 11
198.0000006269795
 21
433.6124999705789
 31
0.0
  0
LINE
  5
1A5
330
71
100
AcDbEntity
  8
1
  6
Continuous
 62
     2
100
AcDbLine
 10
198.00000062698
 20
383.6124999705792
 30
0.0
 11
203.0000006269781
 21
383.6124999705792
 31
0.0
  0
LINE
  5
1A6
330
71
100
AcDbEntity
  8
1
  6
Continuous
 62
     6
100
AcDbLine
 10
198.0000006269781
 20
518.612499970579
 30
0.0
 11
-88.99999937301999
 21
518.612499970579
 31
0.0
  0
LINE
  5
1A7
330
71
100
AcDbEntity
  8
1
  6
Continuous
 62
     2
100
AcDbLine
 10
203.0000006269781
 20
538.612499970579
 30
0.0
 11
54.5000006269791
 21
538.612499970579
 31
0.0
  0
LINE
  5
1A8
330
71
100
AcDbEntity
  8
1
  6
Continuous
 62
     6
100
AcDbLine
 10
198.0000006269808
 20
350.6124999705791
 30
0.0
 11
198.00000062698
 21
383.6124999705792
 31
0.0
  0
LINE
  5
1A9
330
71
100
AcDbEntity
  8
1
  6
Continuous
 62
     2
100
AcDbLine
 10
198.0000006269791
 20
328.6124999705789
 30
0.0
 11
154.5000006269791
 21
328.6124999705789
 31
0.0
  0
LINE
  5
1AA
330
71
100
AcDbEntity
  8
1
  6
Continuous
 62
     2
100
AcDbLine
 10
203.0000006269781
 20
328.6124999705789
 30
0.0
 11
198.0000006269791
 21
328.6124999705789
 31
0.0
  0
LINE
  5
1AB
330
71
100
AcDbEntity
  8
1
  6
Continuous
 62
     2
100
AcDbLine
 10
203.0000006269781
 20
328.6124999705789
 30
0.0
 11
203.0000006269781
 21
333.6124999705791
 31
0.0
  0
LINE
  5
1AC
330
71
100
AcDbEntity
  8
1
  6
Continuous
 62
     6
100
AcDbLine
 10
68.45519610022907
 20
350.6124999705791
 30
0.0
 11
104.855196100229
 21
350.6124999705791
 31
0.0
  0
LINE
  5
1AD
330
71
100
AcDbEntity
  8
1
  6
Continuous
 62
     2
100
AcDbLine
 10
198.0000006269791
 20
333.6124999705791
 30
0.0
 11
198.0000006269791
 21
328.6124999705789
 31
0.0
  0
LINE
  5
1AE
330
71
100
AcDbEntity
  8
1
  6
Continuous
 62
     2
100
AcDbLine
 10
198.0000006269791
 20
333.6124999705791
 30
0.0
 11
203.0000006269781
 21
333.6124999705791
 31
0.0
  0
LINE
  5
1AF
330
71
100
AcDbEntity
  8
1
  6
Continuous
 62
     6
100
AcDbLine
 10
104.5000006269791
 20
333.6124999705791
 30
0.0
 11
86.65519610022909
 21
333.6124999705791
 31
0.0
  0
LINE
  5
1B0
330
71
100
AcDbEntity
  8
1
  6
Continuous
 62
     6
100
AcDbLine
 10
154.5000006269791
 20
333.6124999705791
 30
0.0
 11
198.0000006269791
 21
333.6124999705791
 31
0.0
  0
LINE
  5
1B1
330
71
100
AcDbEntity
  8
1
  6
Continuous
 62
     6
100
AcDbLine
 10
4.50000062697887
 20
333.6124999705791
 30
0.0
 11
-0.5448038997709
 21
333.6124999705791
 31
0.0
  0
LINE
  5
1B2
330
71
100
AcDbEntity
  8
1
  6
Continuous
 62
     6
100
AcDbLine
 10
54.5000006269791
 20
333.6124999705791
 30
0.0
 11
68.45519610022907
 21
333.6124999705789
 31
0.0
  0
LINE
  5
1B3
102
{ACAD_REACTORS
330
29D
330
29E
102
}
330
71
100
AcDbEntity
  8
0
  6
Continuous
 62
     2
100
AcDbLine
 10
75.96982204237588
 20
345.6850147267912
 30
0.0
 11
75.96982204237588
 21
346.290550015298
 31
0.0
  0
LINE
  5
1B4
102
{ACAD_REACTORS
330
29D
330
29E
102
}
330
71
100
AcDbEntity
  8
0
  6
Continuous
 62
     2
100
AcDbLine
 10
75.96982204237588
 20
342.8848801201599
 30
0.0
 11
75.96982204237588
 21
343.4667315268549
 31
0.0
  0
LINE
  5
1B5
102
{ACAD_REACTORS
330
29F
330
2A0
102
}
330
71
100
AcDbEntity
  8
0
  6
Continuous
 62
     2
100
AcDbLine
 10
98.59930847785509
 20
343.1745441882829
 30
0.0
 11
98.59930847785509
 21
340.9059999705954
 31
0.0
  0
LINE
  5
1B6
102
{ACAD_REACTORS
330
29F
330
2A0
102
}
330
71
100
AcDbEntity
  8
0
  6
Continuous
 62
     2
100
AcDbLine
 10
97.2182546988675
 20
343.9598094944059
 30
0.0
 11
100.6032002174962
 21
343.9598094944064
 31
0.0
  0
LINE
  5
1B7
102
{ACAD_REACTORS
330
29F
330
2A0
102
}
330
71
100
AcDbEntity
  8
0
  6
Continuous
 62
     2
100
AcDbLine
 10
100.6032002174962
 20
343.1745441882829
 30
0.0
 11
100.6032002174962
 21
343.9598094944064
 31
0.0
  0
LINE
  5
1B8
102
{ACAD_REACTORS
330
29F
330
2A0
102
}
330
71
100
AcDbEntity
  8
0
  6
Continuous
 62
     2
100
AcDbLine
 10
99.7921011800228
 20
343.1745441882829
 30
0.0
 11
100.6032002174962
 21
343.1745441882829
 31
0.0
  0
LINE
  5
1B9
102
{ACAD_REACTORS
330
29F
330
2A0
102
}
330
71
100
AcDbEntity
  8
0
  6
Continuous
 62
     2
100
AcDbLine
 10
99.7921011800228
 20
340.9059999705954
 30
0.0
 11
99.7921011800228
 21
343.1745441882829
 31
0.0
  0
LINE
  5
1BA
102
{ACAD_REACTORS
330
29F
330
2A0
102
}
330
71
100
AcDbEntity
  8
0
  6
Continuous
 62
     2
100
AcDbLine
 10
98.59930847785509
 20
340.9059999705954
 30
0.0
 11
99.7921011800228
 21
340.9059999705954
 31
0.0
  0
LINE
  5
1BB
102
{ACAD_REACTORS
330
295
330
296
102
}
330
71
100
AcDbEntity
  8
0
  6
Continuous
 62
     2
100
AcDbLine
 10
97.90271753979059
 20
347.3189999705809
 30
0.0
 11
96.49999332204129
 21
347.3189999705809
 31
0.0
  0
LINE
  5
1BC
102
{ACAD_REACTORS
330
295
330
296
102
}
330
71
100
AcDbEntity
  8
0
  6
Continuous
 62
     2
100
AcDbLine
 10
97.90271753979059
 20
347.3189999705809
 30
0.0
 11
98.50388506168238
 21
346.6391766490253
 31
0.0
  0
LINE
  5
1BD
102
{ACAD_REACTORS
330
295
330
296
102
}
330
71
100
AcDbEntity
  8
0
  6
Continuous
 62
     2
100
AcDbLine
 10
98.50388506168238
 20
346.6391766490253
 30
0.0
 11
99.10505258357517
 21
347.3189999705809
 31
0.0
  0
LINE
  5
1BE
102
{ACAD_REACTORS
330
295
330
296
102
}
330
71
100
AcDbEntity
  8
0
  6
Continuous
 62
     2
100
AcDbLine
 10
99.20524717055588
 20
345.8460494405447
 30
0.0
 11
100.5077768013224
 21
347.3189999705809
 31
0.0
  0
LINE
  5
1BF
102
{ACAD_REACTORS
330
295
330
296
102
}
330
71
100
AcDbEntity
  8
0
  6
Continuous
 62
     2
100
AcDbLine
 10
99.20524717055588
 20
345.8460494405447
 30
0.0
 11
100.6032002174962
 21
344.2651904467697
 31
0.0
  0
LINE
  5
1C0
102
{ACAD_REACTORS
330
295
330
296
102
}
330
71
100
AcDbEntity
  8
0
  6
Continuous
 62
     2
100
AcDbLine
 10
99.20047599974788
 20
344.2651904467697
 30
0.0
 11
100.6032002174962
 21
344.2651904467697
 31
0.0
  0
LINE
  5
1C1
102
{ACAD_REACTORS
330
295
330
296
102
}
330
71
100
AcDbEntity
  8
0
  6
Continuous
 62
     2
100
AcDbLine
 10
98.50388506168238
 20
345.0529222320633
 30
0.0
 11
99.20047599974788
 21
344.2651904467697
 31
0.0
  0
LINE
  5
1C2
102
{ACAD_REACTORS
330
293
330
294
102
}
330
71
100
AcDbEntity
  8
0
  6
Continuous
 62
     2
100
AcDbLine
 10
95.0447862253987
 20
347.3189999705809
 30
0.0
 11
96.28529063565159
 21
347.3189999705809
 31
0.0
  0
LINE
  5
1C3
102
{ACAD_REACTORS
330
293
330
294
102
}
330
71
100
AcDbEntity
  8
0
  6
Continuous
 62
     2
100
AcDbLine
 10
96.28529063565159
 20
347.3189999705809
 30
0.0
 11
96.28529063565159
 21
344.2651904467697
 31
0.0
  0
LINE
  5
1C4
102
{ACAD_REACTORS
330
293
330
294
102
}
330
71
100
AcDbEntity
  8
0
  6
Continuous
 62
     2
100
AcDbLine
 10
95.0447862253987
 20
344.2651904467697
 30
0.0
 11
95.0447862253987
 21
347.3189999705809
 31
0.0
  0
LINE
  5
1C5
102
{ACAD_REACTORS
330
291
330
292
102
}
330
71
100
AcDbEntity
  8
0
  6
Continuous
 62
     2
100
AcDbLine
 10
93.57647614286108
 20
342.1275237801199
 30
0.0
 11
93.87664138005348
 21
342.8953387461065
 31
0.0
  0
LINE
  5
1C6
102
{ACAD_REACTORS
330
291
330
292
102
}
330
71
100
AcDbEntity
  8
0
  6
Continuous
 62
     2
100
AcDbLine
 10
93.09894053824027
 20
340.9059999705954
 30
0.0
 11
93.31042059171608
 21
341.4469605148132
 31
0.0
  0
LINE
  5
1C7
102
{ACAD_REACTORS
330
291
330
292
102
}
330
71
100
AcDbEntity
  8
0
  6
Continuous
 62
     2
100
AcDbLine
 10
93.2563891749266
 20
343.9598094944064
 30
0.0
 11
91.85843612798729
 21
340.9059999705954
 31
0.0
  0
LINE
  5
1C8
102
{ACAD_REACTORS
330
291
330
292
102
}
330
71
100
AcDbEntity
  8
0
  6
Continuous
 62
     2
100
AcDbLine
 10
95.8948466321196
 20
340.9059999705954
 30
0.0
 11
94.65434222186568
 21
340.9059999705954
 31
0.0
  0
LINE
  5
1C9
102
{ACAD_REACTORS
330
291
330
292
102
}
330
71
100
AcDbEntity
  8
0
  6
Continuous
 62
     2
100
AcDbLine
 10
93.31042059171608
 20
341.4469605148132
 30
0.0
 11
94.4428621683899
 21
341.4469605148132
 31
0.0
  0
LINE
  5
1CA
102
{ACAD_REACTORS
330
28F
330
290
102
}
330
71
100
AcDbEntity
  8
0
  6
Continuous
 62
     2
100
AcDbLine
 10
89.70092398880507
 20
343.1745441882829
 30
0.0
 11
90.51202302627968
 21
343.1745441882829
 31
0.0
  0
LINE
  5
1CB
102
{ACAD_REACTORS
330
28F
330
290
102
}
330
71
100
AcDbEntity
  8
0
  6
Continuous
 62
     2
100
AcDbLine
 10
92.5159147659187
 20
343.9598094944064
 30
0.0
 11
89.70092398880507
 21
343.9598094944064
 31
0.0
  0
LINE
  5
1CC
102
{ACAD_REACTORS
330
28F
330
290
102
}
330
71
100
AcDbEntity
  8
0
  6
Continuous
 62
     2
100
AcDbLine
 10
92.5159147659187
 20
343.1745441882829
 30
0.0
 11
92.5159147659187
 21
343.9598094944064
 31
0.0
  0
LINE
  5
1CD
102
{ACAD_REACTORS
330
28F
330
290
102
}
330
71
100
AcDbEntity
  8
0
  6
Continuous
 62
     2
100
AcDbLine
 10
91.70481572844619
 20
343.1745441882829
 30
0.0
 11
92.5159147659187
 21
343.1745441882829
 31
0.0
  0
LINE
  5
1CE
102
{ACAD_REACTORS
330
28F
330
290
102
}
330
71
100
AcDbEntity
  8
0
  6
Continuous
 62
     2
100
AcDbLine
 10
91.70481572844619
 20
340.9059999705954
 30
0.0
 11
91.70481572844619
 21
343.1745441882829
 31
0.0
  0
LINE
  5
1CF
102
{ACAD_REACTORS
330
28D
330
28E
102
}
330
71
100
AcDbEntity
  8
0
  6
Continuous
 62
     2
100
AcDbLine
 10
92.37293057254419
 20
344.2651904467697
 30
0.0
 11
92.37293057254419
 21
345.5739659569744
 31
0.0
  0
LINE
  5
1D0
102
{ACAD_REACTORS
330
28D
330
28E
102
}
330
71
100
AcDbEntity
  8
0
  6
Continuous
 62
     2
100
AcDbLine
 10
91.18013787037768
 20
347.3189999705809
 30
0.0
 11
91.18013787037768
 21
344.2651904467697
 31
0.0
  0
LINE
  5
1D1
102
{ACAD_REACTORS
330
28D
330
28E
102
}
330
71
100
AcDbEntity
  8
0
  6
Continuous
 62
     2
100
AcDbLine
 10
92.37293057254419
 20
347.3189999705809
 30
0.0
 11
91.18013787037768
 21
347.3189999705809
 31
0.0
  0
LINE
  5
1D2
102
{ACAD_REACTORS
330
28D
330
28E
102
}
330
71
100
AcDbEntity
  8
0
  6
Continuous
 62
     2
100
AcDbLine
 10
93.6134349827982
 20
347.3189999705809
 30
0.0
 11
93.6134349827982
 21
346.0102244603756
 31
0.0
  0
LINE
  5
1D3
102
{ACAD_REACTORS
330
28B
330
28C
102
}
330
71
100
AcDbEntity
  8
0
  6
Continuous
 62
     2
100
AcDbLine
 10
85.93169904995798
 20
343.9598094944064
 30
0.0
 11
85.93169904995798
 21
340.9059999705954
 31
0.0
  0
LINE
  5
1D4
102
{ACAD_REACTORS
330
28B
330
28C
102
}
330
71
100
AcDbEntity
  8
0
  6
Continuous
 62
     2
100
AcDbLine
 10
87.12449175212558
 20
343.9598094944064
 30
0.0
 11
85.93169904995798
 21
343.9598094944064
 31
0.0
  0
LINE
  5
1D5
102
{ACAD_REACTORS
330
28B
330
28C
102
}
330
71
100
AcDbEntity
  8
0
  6
Continuous
 62
     2
100
AcDbLine
 10
88.36499616237847
 20
340.9059999705954
 30
0.0
 11
89.55778886454488
 21
340.9059999705954
 31
0.0
  0
LINE
  5
1D6
102
{ACAD_REACTORS
330
28B
330
28C
102
}
330
71
100
AcDbEntity
  8
0
  6
Continuous
 62
     2
100
AcDbLine
 10
85.93169904995798
 20
340.9059999705954
 30
0.0
 11
87.12449175212558
 21
340.9059999705954
 31
0.0
  0
LINE
  5
1D7
102
{ACAD_REACTORS
330
29B
330
29C
102
}
330
71
100
AcDbEntity
  8
0
  6
Continuous
 62
     2
100
AcDbLine
 10
89.6056515035171
 20
346.1411020113961
 30
0.0
 11
89.6056515035171
 21
346.6209863651379
 31
0.0
  0
LINE
  5
1D8
102
{ACAD_REACTORS
330
29B
330
29C
102
}
330
71
100
AcDbEntity
  8
0
  6
Continuous
 62
     2
100
AcDbLine
 10
90.94157932994477
 20
346.1411020113961
 30
0.0
 11
89.6056515035171
 21
346.1411020113961
 31
0.0
  0
LINE
  5
1D9
102
{ACAD_REACTORS
330
29B
330
29C
102
}
330
71
100
AcDbEntity
  8
0
  6
Continuous
 62
     2
100
AcDbLine
 10
90.94157932994477
 20
345.4430884059539
 30
0.0
 11
90.94157932994477
 21
346.1411020113961
 31
0.0
  0
LINE
  5
1DA
102
{ACAD_REACTORS
330
29B
330
29C
102
}
330
71
100
AcDbEntity
  8
0
  6
Continuous
 62
     2
100
AcDbLine
 10
89.6056515035171
 20
345.4430884059539
 30
0.0
 11
90.94157932994477
 21
345.4430884059539
 31
0.0
  0
LINE
  5
1DB
102
{ACAD_REACTORS
330
289
330
28A
102
}
330
71
100
AcDbEntity
  8
0
  6
Continuous
 62
     2
100
AcDbLine
 10
86.12269681319017
 20
347.3189999705809
 30
0.0
 11
86.12269681319017
 21
344.2651904467697
 31
0.0
  0
LINE
  5
1DC
102
{ACAD_REACTORS
330
289
330
28A
102
}
330
71
100
AcDbEntity
  8
0
  6
Continuous
 62
     2
100
AcDbLine
 10
86.12269681319017
 20
344.2651904467697
 30
0.0
 11
84.92990411102377
 21
344.2651904467697
 31
0.0
  0
LINE
  5
1DD
102
{ACAD_REACTORS
330
289
330
28A
102
}
330
71
100
AcDbEntity
  8
0
  6
Continuous
 62
     2
100
AcDbLine
 10
84.92990411102377
 20
344.2651904467697
 30
0.0
 11
84.92990411102377
 21
345.3994625556135
 31
0.0
  0
LINE
  5
1DE
102
{ACAD_REACTORS
330
289
330
28A
102
}
330
71
100
AcDbEntity
  8
0
  6
Continuous
 62
     2
100
AcDbLine
 10
83.88024653311629
 20
344.2651904467697
 30
0.0
 11
82.68745383094969
 21
344.2651904467697
 31
0.0
  0
LINE
  5
1DF
102
{ACAD_REACTORS
330
289
330
28A
102
}
330
71
100
AcDbEntity
  8
0
  6
Continuous
 62
     2
100
AcDbLine
 10
82.68745383094969
 20
347.3189999705809
 30
0.0
 11
83.88024653311629
 21
347.3189999705809
 31
0.0
  0
LINE
  5
1E0
102
{ACAD_REACTORS
330
289
330
28A
102
}
330
71
100
AcDbEntity
  8
0
  6
Continuous
 62
     2
100
AcDbLine
 10
83.88024653311629
 20
347.3189999705809
 30
0.0
 11
83.88024653311629
 21
346.2501666372463
 31
0.0
  0
LINE
  5
1E1
102
{ACAD_REACTORS
330
289
330
28A
102
}
330
71
100
AcDbEntity
  8
0
  6
Continuous
 62
     2
100
AcDbLine
 10
83.88024653311629
 20
346.2501666372463
 30
0.0
 11
84.92990411102377
 21
346.2501666372463
 31
0.0
  0
LINE
  5
1E2
102
{ACAD_REACTORS
330
297
330
298
102
}
330
71
100
AcDbEntity
  8
0
  6
Continuous
 62
     2
100
AcDbLine
 10
80.73127379939609
 20
346.6558941251408
 30
0.0
 11
81.04856886093799
 21
346.6558941251408
 31
0.0
  0
LINE
  5
1E3
102
{ACAD_REACTORS
330
297
330
298
102
}
330
71
100
AcDbEntity
  8
0
  6
Continuous
 62
     2
100
AcDbLine
 10
80.73127379939609
 20
345.9501664757985
 30
0.0
 11
81.04856886093799
 21
345.9501664757985
 31
0.0
  0
LINE
  5
1E4
102
{ACAD_REACTORS
330
297
330
298
102
}
330
71
100
AcDbEntity
  8
0
  6
Continuous
 62
     2
100
AcDbLine
 10
79.49076938914197
 20
347.3189999705809
 30
0.0
 11
79.49076938914197
 21
344.2651904467697
 31
0.0
  0
LINE
  5
1E5
102
{ACAD_REACTORS
330
297
330
298
102
}
330
71
100
AcDbEntity
  8
0
  6
Continuous
 62
     2
100
AcDbLine
 10
79.49076938914197
 20
347.3189999705809
 30
0.0
 11
81.49004138717638
 21
347.3189999705809
 31
0.0
  0
LINE
  5
1E6
102
{ACAD_REACTORS
330
297
330
298
102
}
330
71
100
AcDbEntity
  8
0
  6
Continuous
 62
     2
100
AcDbLine
 10
80.73127379939609
 20
345.2082686879135
 30
0.0
 11
81.49004138717638
 21
345.2082686879135
 31
0.0
  0
LINE
  5
1E7
102
{ACAD_REACTORS
330
29D
330
29E
102
}
330
71
100
AcDbEntity
  8
0
  6
Continuous
 62
     2
100
AcDbLine
 10
73.39427335584529
 20
346.2907274919461
 30
0.0
 11
73.39427335584529
 21
341.934272449229
 31
0.0
  0
LINE
  5
1E8
102
{ACAD_REACTORS
330
29D
330
29E
102
}
330
71
100
AcDbEntity
  8
0
  6
Continuous
 62
     2
100
AcDbLine
 10
73.70999027892097
 20
346.6064444150222
 30
0.0
 11
75.1858235399306
 21
346.6064444150222
 31
0.0
  0
LINE
  5
1E9
102
{ACAD_REACTORS
330
29D
330
29E
102
}
330
71
100
AcDbEntity
  8
0
  6
Continuous
 62
     2
100
AcDbLine
 10
75.50154046300719
 20
345.6867028728856
 30
0.0
 11
75.50154046300719
 21
346.2907274919461
 31
0.0
  0
LINE
  5
1EA
102
{ACAD_REACTORS
330
29D
330
29E
102
}
330
71
100
AcDbEntity
  8
0
  6
Continuous
 62
     2
100
AcDbLine
 10
75.50154046300719
 20
341.934272449229
 30
0.0
 11
75.50154046300719
 21
343.4650433807606
 31
0.0
  0
LINE
  5
1EB
102
{ACAD_REACTORS
330
29D
330
29E
102
}
330
71
100
AcDbEntity
  8
0
  6
Continuous
 62
     2
100
AcDbLine
 10
78.58940769289129
 20
340.9059999705954
 30
0.0
 11
73.11609560217448
 21
340.9059999705954
 31
0.0
  0
LINE
  5
1EC
102
{ACAD_REACTORS
330
29D
330
29E
102
}
330
71
100
AcDbEntity
  8
0
  6
Continuous
 62
     2
100
AcDbLine
 10
79.01365230827517
 20
346.8947553551789
 30
0.0
 11
79.01365230827517
 21
341.3302445859787
 31
0.0
  0
LINE
  5
1ED
102
{ACAD_REACTORS
330
29D
330
29E
102
}
330
71
100
AcDbEntity
  8
0
  6
Continuous
 62
     2
100
AcDbLine
 10
73.11609560217448
 20
347.3189999705627
 30
0.0
 11
78.58940769289129
 21
347.3189999705627
 31
0.0
  0
LINE
  5
1EE
102
{ACAD_REACTORS
330
29D
330
29E
102
}
330
71
100
AcDbEntity
  8
0
  6
Continuous
 62
     2
100
AcDbLine
 10
72.69185098679168
 20
346.8947553551789
 30
0.0
 11
72.69185098679168
 21
341.3302445859787
 31
0.0
  0
LINE
  5
1EF
102
{ACAD_REACTORS
330
29D
330
29E
102
}
330
71
100
AcDbEntity
  8
0
  6
Continuous
 62
     2
100
AcDbLine
 10
75.1858235399306
 20
341.6185555261523
 30
0.0
 11
73.70999027892097
 21
341.6185555261523
 31
0.0
  0
LINE
  5
1F0
102
{ACAD_REACTORS
330
297
330
298
102
}
330
71
100
AcDbEntity
  8
0
  6
Continuous
 62
     2
100
AcDbLine
 10
80.73127379939609
 20
344.2651904467697
 30
0.0
 11
80.73127379939609
 21
345.2082686879135
 31
0.0
  0
LINE
  5
1F1
102
{ACAD_REACTORS
330
297
330
298
102
}
330
71
100
AcDbEntity
  8
0
  6
Continuous
 62
     2
100
AcDbLine
 10
79.49076938914197
 20
344.2651904467697
 30
0.0
 11
80.73127379939609
 21
344.2651904467697
 31
0.0
  0
LINE
  5
1F2
102
{ACAD_REACTORS
330
297
330
298
102
}
330
71
100
AcDbEntity
  8
0
  6
Continuous
 62
     2
100
AcDbLine
 10
80.73127379939609
 20
345.9501664757985
 30
0.0
 11
80.73127379939609
 21
346.6558941251408
 31
0.0
  0
LINE
  5
1F3
102
{ACAD_REACTORS
330
289
330
28A
102
}
330
71
100
AcDbEntity
  8
0
  6
Continuous
 62
     2
100
AcDbLine
 10
82.68745383094969
 20
347.3189999705809
 30
0.0
 11
82.68745383094969
 21
344.2651904467697
 31
0.0
  0
LINE
  5
1F4
102
{ACAD_REACTORS
330
289
330
28A
102
}
330
71
100
AcDbEntity
  8
0
  6
Continuous
 62
     2
100
AcDbLine
 10
83.88024653311629
 20
345.3994625556135
 30
0.0
 11
83.88024653311629
 21
344.2651904467697
 31
0.0
  0
LINE
  5
1F5
102
{ACAD_REACTORS
330
289
330
28A
102
}
330
71
100
AcDbEntity
  8
0
  6
Continuous
 62
     2
100
AcDbLine
 10
84.92990411102377
 20
345.3994625556135
 30
0.0
 11
83.88024653311629
 21
345.3994625556135
 31
0.0
  0
LINE
  5
1F6
102
{ACAD_REACTORS
330
289
330
28A
102
}
330
71
100
AcDbEntity
  8
0
  6
Continuous
 62
     2
100
AcDbLine
 10
84.92990411102377
 20
347.3189999705809
 30
0.0
 11
86.12269681319017
 21
347.3189999705809
 31
0.0
  0
LINE
  5
1F7
102
{ACAD_REACTORS
330
289
330
28A
102
}
330
71
100
AcDbEntity
  8
0
  6
Continuous
 62
     2
100
AcDbLine
 10
84.92990411102377
 20
346.2501666372463
 30
0.0
 11
84.92990411102377
 21
347.3189999705809
 31
0.0
  0
LINE
  5
1F8
102
{ACAD_REACTORS
330
29B
330
29C
102
}
330
71
100
AcDbEntity
  8
0
  6
Continuous
 62
     2
100
AcDbLine
 10
90.94157932994477
 20
346.6209863651379
 30
0.0
 11
90.94157932994477
 21
347.3189999705809
 31
0.0
  0
LINE
  5
1F9
102
{ACAD_REACTORS
330
29B
330
29C
102
}
330
71
100
AcDbEntity
  8
0
  6
Continuous
 62
     2
100
AcDbLine
 10
87.79125960616378
 20
347.3189999705809
 30
0.0
 11
90.94157932994477
 21
347.3189999705809
 31
0.0
  0
LINE
  5
1FA
102
{ACAD_REACTORS
330
29B
330
29C
102
}
330
71
100
AcDbEntity
  8
0
  6
Continuous
 62
     2
100
AcDbLine
 10
87.79125960616378
 20
344.2651904467697
 30
0.0
 11
90.94157932994477
 21
344.2651904467697
 31
0.0
  0
LINE
  5
1FB
102
{ACAD_REACTORS
330
29B
330
29C
102
}
330
71
100
AcDbEntity
  8
0
  6
Continuous
 62
     2
100
AcDbLine
 10
90.94157932994477
 20
344.2651904467697
 30
0.0
 11
90.94157932994477
 21
344.9632040522122
 31
0.0
  0
LINE
  5
1FC
102
{ACAD_REACTORS
330
29B
330
29C
102
}
330
71
100
AcDbEntity
  8
0
  6
Continuous
 62
     2
100
AcDbLine
 10
90.94157932994477
 20
344.9632040522122
 30
0.0
 11
89.6056515035171
 21
344.9632040522122
 31
0.0
  0
LINE
  5
1FD
102
{ACAD_REACTORS
330
29B
330
29C
102
}
330
71
100
AcDbEntity
  8
0
  6
Continuous
 62
     2
100
AcDbLine
 10
89.6056515035171
 20
344.9632040522122
 30
0.0
 11
89.6056515035171
 21
345.4430884059539
 31
0.0
  0
LINE
  5
1FE
102
{ACAD_REACTORS
330
29B
330
29C
102
}
330
71
100
AcDbEntity
  8
0
  6
Continuous
 62
     2
100
AcDbLine
 10
89.6056515035171
 20
346.6209863651379
 30
0.0
 11
90.94157932994477
 21
346.6209863651379
 31
0.0
  0
LINE
  5
1FF
102
{ACAD_REACTORS
330
28B
330
28C
102
}
330
71
100
AcDbEntity
  8
0
  6
Continuous
 62
     2
100
AcDbLine
 10
87.12449175212558
 20
340.9059999705954
 30
0.0
 11
87.12449175212558
 21
342.2147754808
 31
0.0
  0
LINE
  5
200
102
{ACAD_REACTORS
330
28B
330
28C
102
}
330
71
100
AcDbEntity
  8
0
  6
Continuous
 62
     2
100
AcDbLine
 10
87.12449175212558
 20
342.2147754808
 30
0.0
 11
88.36499616237847
 21
340.9059999705954
 31
0.0
  0
LINE
  5
201
102
{ACAD_REACTORS
330
28B
330
28C
102
}
330
71
100
AcDbEntity
  8
0
  6
Continuous
 62
     2
100
AcDbLine
 10
89.55778886454488
 20
340.9059999705954
 30
0.0
 11
89.55778886454488
 21
343.9598094944064
 31
0.0
  0
LINE
  5
202
102
{ACAD_REACTORS
330
28B
330
28C
102
}
330
71
100
AcDbEntity
  8
0
  6
Continuous
 62
     2
100
AcDbLine
 10
89.55778886454488
 20
343.9598094944064
 30
0.0
 11
88.36499616237847
 21
343.9598094944064
 31
0.0
  0
LINE
  5
203
102
{ACAD_REACTORS
330
28B
330
28C
102
}
330
71
100
AcDbEntity
  8
0
  6
Continuous
 62
     2
100
AcDbLine
 10
88.36499616237847
 20
343.9598094944064
 30
0.0
 11
88.36499616237847
 21
342.6510339842014
 31
0.0
  0
LINE
  5
204
102
{ACAD_REACTORS
330
28B
330
28C
102
}
330
71
100
AcDbEntity
  8
0
  6
Continuous
 62
     2
100
AcDbLine
 10
88.36499616237847
 20
342.6510339842014
 30
0.0
 11
87.12449175212558
 21
343.9598094944064
 31
0.0
  0
LINE
  5
205
102
{ACAD_REACTORS
330
28D
330
28E
102
}
330
71
100
AcDbEntity
  8
0
  6
Continuous
 62
     2
100
AcDbLine
 10
92.37293057254419
 20
345.5739659569744
 30
0.0
 11
93.6134349827982
 21
344.2651904467697
 31
0.0
  0
LINE
  5
206
102
{ACAD_REACTORS
330
28D
330
28E
102
}
330
71
100
AcDbEntity
  8
0
  6
Continuous
 62
     2
100
AcDbLine
 10
93.6134349827982
 20
344.2651904467697
 30
0.0
 11
94.8062276849648
 21
344.2651904467697
 31
0.0
  0
LINE
  5
207
102
{ACAD_REACTORS
330
28D
330
28E
102
}
330
71
100
AcDbEntity
  8
0
  6
Continuous
 62
     2
100
AcDbLine
 10
94.8062276849648
 20
344.2651904467697
 30
0.0
 11
94.8062276849648
 21
347.3189999705809
 31
0.0
  0
LINE
  5
208
102
{ACAD_REACTORS
330
28D
330
28E
102
}
330
71
100
AcDbEntity
  8
0
  6
Continuous
 62
     2
100
AcDbLine
 10
94.8062276849648
 20
347.3189999705809
 30
0.0
 11
93.6134349827982
 21
347.3189999705809
 31
0.0
  0
LINE
  5
209
102
{ACAD_REACTORS
330
28D
330
28E
102
}
330
71
100
AcDbEntity
  8
0
  6
Continuous
 62
     2
100
AcDbLine
 10
93.6134349827982
 20
346.0102244603756
 30
0.0
 11
92.37293057254419
 21
347.3189999705809
 31
0.0
  0
LINE
  5
20A
102
{ACAD_REACTORS
330
28D
330
28E
102
}
330
71
100
AcDbEntity
  8
0
  6
Continuous
 62
     2
100
AcDbLine
 10
91.18013787037768
 20
344.2651904467697
 30
0.0
 11
92.37293057254419
 21
344.2651904467697
 31
0.0
  0
LINE
  5
20B
102
{ACAD_REACTORS
330
28F
330
290
102
}
330
71
100
AcDbEntity
  8
0
  6
Continuous
 62
     2
100
AcDbLine
 10
89.70092398880507
 20
343.9598094944064
 30
0.0
 11
89.70092398880507
 21
343.1745441882829
 31
0.0
  0
LINE
  5
20C
102
{ACAD_REACTORS
330
28F
330
290
102
}
330
71
100
AcDbEntity
  8
0
  6
Continuous
 62
     2
100
AcDbLine
 10
90.51202302627968
 20
343.1745441882829
 30
0.0
 11
90.51202302627968
 21
340.9059999705954
 31
0.0
  0
LINE
  5
20D
102
{ACAD_REACTORS
330
28F
330
290
102
}
330
71
100
AcDbEntity
  8
0
  6
Continuous
 62
     2
100
AcDbLine
 10
90.51202302627968
 20
340.9059999705954
 30
0.0
 11
91.70481572844619
 21
340.9059999705954
 31
0.0
  0
LINE
  5
20E
102
{ACAD_REACTORS
330
291
330
292
102
}
330
71
100
AcDbEntity
  8
0
  6
Continuous
 62
     2
100
AcDbLine
 10
94.65434222186568
 20
340.9059999705954
 30
0.0
 11
94.4428621683899
 21
341.4469605148132
 31
0.0
  0
LINE
  5
20F
102
{ACAD_REACTORS
330
291
330
292
102
}
330
71
100
AcDbEntity
  8
0
  6
Continuous
 62
     2
100
AcDbLine
 10
94.4968935851793
 20
343.9598094944064
 30
0.0
 11
95.8948466321196
 21
340.9059999705954
 31
0.0
  0
LINE
  5
210
102
{ACAD_REACTORS
330
291
330
292
102
}
330
71
100
AcDbEntity
  8
0
  6
Continuous
 62
     2
100
AcDbLine
 10
93.2563891749266
 20
343.9598094944064
 30
0.0
 11
94.4968935851793
 21
343.9598094944064
 31
0.0
  0
LINE
  5
211
102
{ACAD_REACTORS
330
291
330
292
102
}
330
71
100
AcDbEntity
  8
0
  6
Continuous
 62
     2
100
AcDbLine
 10
91.85843612798729
 20
340.9059999705954
 30
0.0
 11
93.09894053824027
 21
340.9059999705954
 31
0.0
  0
LINE
  5
212
102
{ACAD_REACTORS
330
291
330
292
102
}
330
71
100
AcDbEntity
  8
0
  6
Continuous
 62
     2
100
AcDbLine
 10
93.57647614286108
 20
342.1275237801199
 30
0.0
 11
94.17680661724359
 21
342.1275237801199
 31
0.0
  0
LINE
  5
213
102
{ACAD_REACTORS
330
291
330
292
102
}
330
71
100
AcDbEntity
  8
0
  6
Continuous
 62
     2
100
AcDbLine
 10
94.17680661724359
 20
342.1275237801199
 30
0.0
 11
93.87664138005348
 21
342.8953387461065
 31
0.0
  0
LINE
  5
214
102
{ACAD_REACTORS
330
293
330
294
102
}
330
71
100
AcDbEntity
  8
0
  6
Continuous
 62
     2
100
AcDbLine
 10
96.28529063565159
 20
344.2651904467697
 30
0.0
 11
95.0447862253987
 21
344.2651904467697
 31
0.0
  0
LINE
  5
215
102
{ACAD_REACTORS
330
295
330
296
102
}
330
71
100
AcDbEntity
  8
0
  6
Continuous
 62
     2
100
AcDbLine
 10
97.80729412361669
 20
344.2651904467697
 30
0.0
 11
96.40456990586847
 21
344.2651904467697
 31
0.0
  0
LINE
  5
216
102
{ACAD_REACTORS
330
295
330
296
102
}
330
71
100
AcDbEntity
  8
0
  6
Continuous
 62
     2
100
AcDbLine
 10
97.80729412361669
 20
344.2651904467697
 30
0.0
 11
98.50388506168238
 21
345.0529222320633
 31
0.0
  0
LINE
  5
217
102
{ACAD_REACTORS
330
295
330
296
102
}
330
71
100
AcDbEntity
  8
0
  6
Continuous
 62
     2
100
AcDbLine
 10
99.10505258357517
 20
347.3189999705809
 30
0.0
 11
100.5077768013224
 21
347.3189999705809
 31
0.0
  0
LINE
  5
218
102
{ACAD_REACTORS
330
295
330
296
102
}
330
71
100
AcDbEntity
  8
0
  6
Continuous
 62
     2
100
AcDbLine
 10
96.49999332204129
 20
347.3189999705809
 30
0.0
 11
97.80252295280877
 21
345.8460494405447
 31
0.0
  0
LINE
  5
219
102
{ACAD_REACTORS
330
295
330
296
102
}
330
71
100
AcDbEntity
  8
0
  6
Continuous
 62
     2
100
AcDbLine
 10
96.40456990586847
 20
344.2651904467697
 30
0.0
 11
97.80252295280877
 21
345.8460494405447
 31
0.0
  0
LINE
  5
21A
102
{ACAD_REACTORS
330
29F
330
2A0
102
}
330
71
100
AcDbEntity
  8
0
  6
Continuous
 62
     2
100
AcDbLine
 10
98.2653265212484
 20
341.953020378759
 30
0.0
 11
98.2653265212484
 21
341.0805033719556
 31
0.0
  0
LINE
  5
21B
102
{ACAD_REACTORS
330
29F
330
2A0
102
}
330
71
100
AcDbEntity
  8
0
  6
Continuous
 62
     2
100
AcDbLine
 10
97.49566917828699
 20
343.1745441882829
 30
0.0
 11
98.59930847785509
 21
343.1745441882829
 31
0.0
  0
LINE
  5
21C
102
{ACAD_REACTORS
330
2A1
330
2A2
102
}
330
71
100
AcDbEntity
  8
0
  6
Continuous
 62
     2
100
AcDbLine
 10
82.16262504199648
 20
341.9530203787595
 30
0.0
 11
82.16262504199648
 21
341.0805033719562
 31
0.0
  0
LINE
  5
21D
102
{ACAD_REACTORS
330
2A1
330
2A2
102
}
330
71
100
AcDbEntity
  8
0
  6
Continuous
 62
     2
100
AcDbLine
 10
82.16262504199648
 20
342.9127890862424
 30
0.0
 11
82.16262504199648
 21
343.7853060930456
 31
0.0
  0
LINE
  5
21E
330
71
100
AcDbEntity
  8
1
  6
Continuous
 62
     7
100
AcDbLine
 10
198.0000006269804
 20
342.1124999705791
 30
0.0
 11
104.855196100229
 21
342.1124999705791
 31
0.0
  0
LINE
  5
21F
330
71
100
AcDbEntity
  8
1
  6
Continuous
 62
     6
100
AcDbLine
 10
-0.5448038997709
 20
333.6124999705791
 30
0.0
 11
-45.4999993730209
 21
333.6124999705791
 31
0.0
  0
LINE
  5
220
330
71
100
AcDbEntity
  8
1
  6
Continuous
 62
     7
100
AcDbLine
 10
189.0815923453016
 20
359.1124999705791
 30
0.0
 11
189.0815923453016
 21
350.6124999705791
 31
0.0
  0
LINE
  5
221
330
71
100
AcDbEntity
  8
1
  6
Continuous
 62
     7
100
AcDbLine
 10
162.581592345302
 20
359.1124999705791
 30
0.0
 11
162.581592345302
 21
350.6124999705791
 31
0.0
  0
LINE
  5
222
330
71
100
AcDbEntity
  8
1
  6
Continuous
 62
     7
100
AcDbLine
 10
104.855196100229
 20
350.6124999705791
 30
0.0
 11
104.855196100229
 21
359.1124999705791
 31
0.0
  0
LINE
  5
223
330
71
100
AcDbEntity
  8
1
  6
Continuous
 62
     7
100
AcDbLine
 10
68.45519610022907
 20
350.6124999705791
 30
0.0
 11
68.45519610022907
 21
359.1124999705791
 31
0.0
  0
LINE
  5
224
330
71
100
AcDbEntity
  8
1
  6
Continuous
 62
     6
100
AcDbLine
 10
104.855196100229
 20
350.6124999705791
 30
0.0
 11
198.0000006269808
 21
350.6124999705791
 31
0.0
  0
LINE
  5
225
330
71
100
AcDbEntity
  8
1
  6
Continuous
 62
     7
100
AcDbLine
 10
132.7551961002291
 20
342.1124999705789
 30
0.0
 11
132.7551961002291
 21
350.6124999705791
 31
0.0
  0
LINE
  5
226
330
71
100
AcDbEntity
  8
1
  6
PHANTOM
 62
     2
100
AcDbLine
 10
83.94185098679168
 20
354.7374999705789
 30
0.0
 11
78.44185098679168
 21
354.7374999705789
 31
0.0
  0
LINE
  5
227
330
71
100
AcDbEntity
  8
1
  6
PHANTOM
 62
     2
100
AcDbLine
 10
81.19185098679168
 20
357.4874999705789
 30
0.0
 11
81.19185098679168
 21
351.9874999705789
 31
0.0
  0
LINE
  5
228
330
71
100
AcDbEntity
  8
1
  6
DOT_CENTER
 62
     2
100
AcDbLine
 10
72.44185098679168
 20
354.7374999705789
 30
0.0
 11
77.94185098679168
 21
354.7374999705789
 31
0.0
  0
ARC
  5
229
102
{ACAD_REACTORS
330
2A1
330
2A2
102
}
330
71
100
AcDbEntity
  8
0
  6
Continuous
 62
     2
100
AcDbCircle
 10
80.82669712487868
 20
339.1202237872448
 30
0.0
 40
4.852596863497986
100
AcDbArc
 50
74.0200087416471
 51
84.84185523037502
  0
ARC
  5
22A
102
{ACAD_REACTORS
330
2A1
330
2A2
102
}
330
71
100
AcDbEntity
  8
0
  6
Continuous
 62
     2
100
AcDbCircle
 10
81.40273773363239
 20
342.2759841431291
 30
0.0
 40
0.9059297849852149
100
AcDbArc
 50
71.55192388185121
 51
113.372277888129
  0
ARC
  5
22B
102
{ACAD_REACTORS
330
2A1
330
2A2
102
}
330
71
100
AcDbEntity
  8
0
  6
Continuous
 62
     2
100
AcDbCircle
 10
81.24629770093037
 20
342.2278333031621
 30
0.0
 40
0.5115800601948034
100
AcDbArc
 50
208.5214732576956
 51
246.6277221118223
  0
ARC
  5
22C
102
{ACAD_REACTORS
330
2A1
330
2A2
102
}
330
71
100
AcDbEntity
  8
0
  6
Continuous
 62
     2
100
AcDbCircle
 10
81.40273773363239
 20
342.5898253218721
 30
0.0
 40
0.905929784984867
100
AcDbArc
 50
246.6277221118696
 51
288.4480761181601
  0
ARC
  5
22D
102
{ACAD_REACTORS
330
2A1
330
2A2
102
}
330
71
100
AcDbEntity
  8
0
  6
Continuous
 62
     2
100
AcDbCircle
 10
80.9845699999716
 20
343.8433710979093
 30
0.0
 40
2.227384008972656
100
AcDbArc
 50
288.4480761181335
 51
301.9309089499604
  0
ARC
  5
22E
102
{ACAD_REACTORS
330
29D
330
29E
102
}
330
71
100
AcDbEntity
  8
0
  6
Continuous
 62
     2
100
AcDbCircle
 10
75.7594962673648
 20
344.5758731268234
 30
0.0
 40
0.9118481501444847
100
AcDbArc
 50
295.3740086781757
 51
64.62599132180748
  0
ARC
  5
22F
102
{ACAD_REACTORS
330
29D
330
29E
102
}
330
71
100
AcDbEntity
  8
0
  6
Continuous
 62
     2
100
AcDbCircle
 10
76.28553896545267
 20
346.290550015298
 30
0.0
 40
0.3157169230759573
100
AcDbArc
 50
90.188967042546
 51
180.0
  0
ARC
  5
230
102
{ACAD_REACTORS
330
29F
330
2A0
102
}
330
71
100
AcDbEntity
  8
0
  6
Continuous
 62
     2
100
AcDbCircle
 10
97.49566917828699
 20
342.2200211814568
 30
0.0
 40
0.9545230068260935
100
AcDbArc
 50
90.0
 51
109.3371432194309
  0
ARC
  5
231
102
{ACAD_REACTORS
330
29F
330
2A0
102
}
330
71
100
AcDbEntity
  8
0
  6
Continuous
 62
     2
100
AcDbCircle
 10
97.72635643826467
 20
342.4329047325007
 30
0.0
 40
0.941059735334906
100
AcDbArc
 50
151.4785267423609
 51
208.5214732576695
  0
ARC
  5
232
102
{ACAD_REACTORS
330
29F
330
2A0
102
}
330
71
100
AcDbEntity
  8
0
  6
Continuous
 62
     2
100
AcDbCircle
 10
97.50543921288639
 20
342.5898253218721
 30
0.0
 40
0.9059297849852278
100
AcDbArc
 50
246.6277221118168
 51
288.4480761180828
  0
ARC
  5
233
102
{ACAD_REACTORS
330
29F
330
2A0
102
}
330
71
100
AcDbEntity
  8
0
  6
Continuous
 62
     2
100
AcDbCircle
 10
97.08727147922448
 20
343.8433710979087
 30
0.0
 40
2.227384008972665
100
AcDbArc
 50
288.4480761181342
 51
301.9309089499409
  0
ARC
  5
234
102
{ACAD_REACTORS
330
29F
330
2A0
102
}
330
71
100
AcDbEntity
  8
0
  6
Continuous
 62
     2
100
AcDbCircle
 10
96.92939860413168
 20
345.7455856777571
 30
0.0
 40
4.852596863498825
100
AcDbArc
 50
275.1581447696364
 51
285.9799912583384
  0
ARC
  5
235
102
{ACAD_REACTORS
330
29F
330
2A0
102
}
330
71
100
AcDbEntity
  8
0
  6
Continuous
 62
     2
100
AcDbCircle
 10
97.2182546988675
 20
342.5456950945355
 30
0.0
 40
1.639695123940448
100
AcDbArc
 50
195.0618917771012
 51
275.1581447696762
  0
ARC
  5
236
102
{ACAD_REACTORS
330
297
330
298
102
}
330
71
100
AcDbEntity
  8
0
  6
Continuous
 62
     2
100
AcDbCircle
 10
81.49004138717638
 20
346.2636343292472
 30
0.0
 40
1.055365641333708
100
AcDbArc
 50
270.0
 51
90.0
  0
ARC
  5
237
102
{ACAD_REACTORS
330
29D
330
29E
102
}
330
71
100
AcDbEntity
  8
0
  6
Continuous
 62
     2
100
AcDbCircle
 10
73.70999027892097
 20
341.934272449229
 30
0.0
 40
0.3157169230756836
100
AcDbArc
 50
180.0
 51
270.0
  0
ARC
  5
238
102
{ACAD_REACTORS
330
29D
330
29E
102
}
330
71
100
AcDbEntity
  8
0
  6
Continuous
 62
     2
100
AcDbCircle
 10
75.1858235399306
 20
346.2907274919461
 30
0.0
 40
0.315716923076593
100
AcDbArc
 50
0.0
 51
90.0
  0
ARC
  5
239
102
{ACAD_REACTORS
330
29D
330
29E
102
}
330
71
100
AcDbEntity
  8
0
  6
Continuous
 62
     2
100
AcDbCircle
 10
75.1858235399306
 20
345.6867028728856
 30
0.0
 40
0.3157169230762231
100
AcDbArc
 50
295.1944106485309
 51
0.0
  0
ARC
  5
23A
102
{ACAD_REACTORS
330
29D
330
29E
102
}
330
71
100
AcDbEntity
  8
0
  6
Continuous
 62
     2
100
AcDbCircle
 10
75.1858235399306
 20
341.934272449229
 30
0.0
 40
0.3157169230767067
100
AcDbArc
 50
270.0
 51
0.0
  0
ARC
  5
23B
102
{ACAD_REACTORS
330
29D
330
29E
102
}
330
71
100
AcDbEntity
  8
0
  6
Continuous
 62
     2
100
AcDbCircle
 10
73.11609560217448
 20
346.8947553551789
 30
0.0
 40
0.4242446153837705
100
AcDbArc
 50
90.0
 51
180.0
  0
ARC
  5
23C
102
{ACAD_REACTORS
330
29D
330
29E
102
}
330
71
100
AcDbEntity
  8
0
  6
Continuous
 62
     2
100
AcDbCircle
 10
78.58940769289129
 20
346.8947553551789
 30
0.0
 40
0.4242446153838841
100
AcDbArc
 50
0.0
 51
90.0
  0
ARC
  5
23D
102
{ACAD_REACTORS
330
29D
330
29E
102
}
330
71
100
AcDbEntity
  8
0
  6
Continuous
 62
     2
100
AcDbCircle
 10
78.58940769289129
 20
341.3302445859787
 30
0.0
 40
0.4242446153832589
100
AcDbArc
 50
270.0
 51
0.0
  0
ARC
  5
23E
102
{ACAD_REACTORS
330
29B
330
29C
102
}
330
71
100
AcDbEntity
  8
0
  6
Continuous
 62
     2
100
AcDbCircle
 10
87.80779157998279
 20
345.7920952086749
 30
0.0
 40
0.7717997786796023
100
AcDbArc
 50
321.8795802028471
 51
38.12041979716621
  0
ARC
  5
23F
102
{ACAD_REACTORS
330
29B
330
29C
102
}
330
71
100
AcDbEntity
  8
0
  6
Continuous
 62
     2
100
AcDbCircle
 10
88.00753161632898
 20
345.6353640305546
 30
0.0
 40
0.5179085730135072
100
AcDbArc
 50
218.120419797161
 51
321.8795802028467
  0
ARC
  5
240
102
{ACAD_REACTORS
330
299
330
29A
102
}
330
71
100
AcDbEntity
  8
0
  6
Continuous
 62
     2
100
AcDbCircle
 10
84.32752402736878
 20
342.4329047325007
 30
0.0
 40
1.458034083651977
100
AcDbArc
 50
297.5481481757016
 51
62.45185182429739
  0
ARC
  5
241
102
{ACAD_REACTORS
330
299
330
29A
102
}
330
71
100
AcDbEntity
  8
0
  6
Continuous
 62
     2
100
AcDbCircle
 10
83.76564424370218
 20
342.4329047325007
 30
0.0
 40
1.458034083651415
100
AcDbArc
 50
117.548148175664
 51
242.451851824337
  0
ARC
  5
242
102
{ACAD_REACTORS
330
299
330
29A
102
}
330
71
100
AcDbEntity
  8
0
  6
Continuous
 62
     2
100
AcDbCircle
 10
84.04658413553548
 20
341.8943297221979
 30
0.0
 40
2.065479772208492
100
AcDbArc
 50
62.45185182430527
 51
117.5481481756675
  0
ARC
  5
243
102
{ACAD_REACTORS
330
299
330
29A
102
}
330
71
100
AcDbEntity
  8
0
  6
Continuous
 62
     2
100
AcDbCircle
 10
84.04658413553548
 20
342.9714797428039
 30
0.0
 40
2.065479772208433
100
AcDbArc
 50
242.4518518243391
 51
297.5481481756882
  0
ARC
  5
244
102
{ACAD_REACTORS
330
29B
330
29C
102
}
330
71
100
AcDbEntity
  8
0
  6
Continuous
 62
     2
100
AcDbCircle
 10
88.20727165267527
 20
345.7920952086749
 30
0.0
 40
0.7717997786797426
100
AcDbArc
 50
141.8795802028338
 51
218.1204197971529
  0
ARC
  5
245
102
{ACAD_REACTORS
330
29B
330
29C
102
}
330
71
100
AcDbEntity
  8
0
  6
Continuous
 62
     2
100
AcDbCircle
 10
88.00753161632898
 20
345.9488263867954
 30
0.0
 40
0.5179085730135616
100
AcDbArc
 50
38.12041979714829
 51
141.879580202844
  0
ARC
  5
246
102
{ACAD_REACTORS
330
29D
330
29E
102
}
330
71
100
AcDbEntity
  8
0
  6
Continuous
 62
     2
100
AcDbCircle
 10
73.11609560217448
 20
341.3302445859787
 30
0.0
 40
0.4242446153828041
100
AcDbArc
 50
180.0
 51
270.0
  0
ARC
  5
247
102
{ACAD_REACTORS
330
29D
330
29E
102
}
330
71
100
AcDbEntity
  8
0
  6
Continuous
 62
     2
100
AcDbCircle
 10
75.1858235399306
 20
343.4650433807606
 30
0.0
 40
0.315716923076593
100
AcDbArc
 50
0.0
 51
64.8055893514515
  0
ARC
  5
248
102
{ACAD_REACTORS
330
29D
330
29E
102
}
330
71
100
AcDbEntity
  8
0
  6
Continuous
 62
     2
100
AcDbCircle
 10
75.70840798750558
 20
344.5758731268234
 30
0.0
 40
0.911897523557486
100
AcDbArc
 50
115.194410648532
 51
244.8055893514907
  0
ARC
  5
249
102
{ACAD_REACTORS
330
29D
330
29E
102
}
330
71
100
AcDbEntity
  8
0
  6
Continuous
 62
     2
100
AcDbCircle
 10
73.70999027892097
 20
346.2907274919461
 30
0.0
 40
0.3157169230761383
100
AcDbArc
 50
90.0
 51
180.0
  0
ARC
  5
24A
102
{ACAD_REACTORS
330
297
330
298
102
}
330
71
100
AcDbEntity
  8
0
  6
Continuous
 62
     2
100
AcDbCircle
 10
81.04856886093799
 20
346.3030303004697
 30
0.0
 40
0.3528638246712035
100
AcDbArc
 50
270.0
 51
90.0
  0
ARC
  5
24B
102
{ACAD_REACTORS
330
29B
330
29C
102
}
330
71
100
AcDbEntity
  8
0
  6
Continuous
 62
     2
100
AcDbCircle
 10
87.79125960616378
 20
345.7920952086749
 30
0.0
 40
1.526904761905996
100
AcDbArc
 50
90.0
 51
270.0
  0
ARC
  5
24C
102
{ACAD_REACTORS
330
29F
330
2A0
102
}
330
71
100
AcDbEntity
  8
0
  6
Continuous
 62
     2
100
AcDbCircle
 10
97.2182546988675
 20
342.3201143704657
 30
0.0
 40
1.639695123940157
100
AcDbArc
 50
90.0
 51
164.9381082228969
  0
ARC
  5
24D
102
{ACAD_REACTORS
330
29F
330
2A0
102
}
330
71
100
AcDbEntity
  8
0
  6
Continuous
 62
     2
100
AcDbCircle
 10
96.79912685540589
 20
342.4329047325007
 30
0.0
 40
1.205656168392973
100
AcDbArc
 50
164.938108222908
 51
195.0618917770946
  0
ARC
  5
24E
102
{ACAD_REACTORS
330
29F
330
2A0
102
}
330
71
100
AcDbEntity
  8
0
  6
Continuous
 62
     2
100
AcDbCircle
 10
97.34899918018328
 20
342.2278333031621
 30
0.0
 40
0.5115800601959674
100
AcDbArc
 50
208.5214732576754
 51
246.6277221118399
  0
ARC
  5
24F
102
{ACAD_REACTORS
330
29F
330
2A0
102
}
330
71
100
AcDbEntity
  8
0
  6
Continuous
 62
     2
100
AcDbCircle
 10
97.34899918018328
 20
342.6379761618397
 30
0.0
 40
0.511580060194468
100
AcDbArc
 50
109.3371432194832
 51
151.4785267424197
  0
ARC
  5
250
102
{ACAD_REACTORS
330
29D
330
29E
102
}
330
71
100
AcDbEntity
  8
0
  6
Continuous
 62
     2
100
AcDbCircle
 10
76.28553896545267
 20
342.8848801201599
 30
0.0
 40
0.315716923076792
100
AcDbArc
 50
180.0
 51
269.8110329574542
  0
ARC
  5
251
102
{ACAD_REACTORS
330
29D
330
29E
102
}
330
71
100
AcDbEntity
  8
0
  6
Continuous
 62
     2
100
AcDbCircle
 10
76.2911551007627
 20
344.5877150677288
 30
0.0
 40
2.018561131933266
100
AcDbArc
 50
269.8110329575858
 51
90.18896704241416
  0
ARC
  5
252
102
{ACAD_REACTORS
330
29D
330
29E
102
}
330
71
100
AcDbEntity
  8
0
  6
Continuous
 62
     2
100
AcDbCircle
 10
76.28553896545267
 20
345.6850147267912
 30
0.0
 40
0.315716923076792
100
AcDbArc
 50
180.0
 51
244.6259913216482
  0
ARC
  5
253
102
{ACAD_REACTORS
330
29D
330
29E
102
}
330
71
100
AcDbEntity
  8
0
  6
Continuous
 62
     2
100
AcDbCircle
 10
76.28553896545267
 20
343.4667315268549
 30
0.0
 40
0.3157169230765842
100
AcDbArc
 50
115.3740086783474
 51
180.0
  0
ARC
  5
254
102
{ACAD_REACTORS
330
2A1
330
2A2
102
}
330
71
100
AcDbEntity
  8
0
  6
Continuous
 62
     2
100
AcDbCircle
 10
81.11555321961458
 20
342.3201143704657
 30
0.0
 40
1.639695123940563
100
AcDbArc
 50
84.84185523036254
 51
164.9381082228884
  0
ARC
  5
255
102
{ACAD_REACTORS
330
2A1
330
2A2
102
}
330
71
100
AcDbEntity
  8
0
  6
Continuous
 62
     2
100
AcDbCircle
 10
80.69642537615178
 20
342.4329047325007
 30
0.0
 40
1.205656168390914
100
AcDbArc
 50
164.9381082228817
 51
195.0618917770948
  0
ARC
  5
256
102
{ACAD_REACTORS
330
2A1
330
2A2
102
}
330
71
100
AcDbEntity
  8
0
  6
Continuous
 62
     2
100
AcDbCircle
 10
81.11555321961458
 20
342.5456950945355
 30
0.0
 40
1.639695123939395
100
AcDbArc
 50
195.0618917770906
 51
275.1581447696393
  0
ARC
  5
257
102
{ACAD_REACTORS
330
2A1
330
2A2
102
}
330
71
100
AcDbEntity
  8
0
  6
Continuous
 62
     2
100
AcDbCircle
 10
80.82669712487868
 20
345.7455856777571
 30
0.0
 40
4.852596863498223
100
AcDbArc
 50
275.1581447696248
 51
285.9799912583526
  0
ARC
  5
258
102
{ACAD_REACTORS
330
2A1
330
2A2
102
}
330
71
100
AcDbEntity
  8
0
  6
Continuous
 62
     2
100
AcDbCircle
 10
81.62365495901068
 20
342.4329047325007
 30
0.0
 40
0.9410597353332545
100
AcDbArc
 50
151.4785267422669
 51
208.5214732577118
  0
ARC
  5
259
102
{ACAD_REACTORS
330
2A1
330
2A2
102
}
330
71
100
AcDbEntity
  8
0
  6
Continuous
 62
     2
100
AcDbCircle
 10
81.24629770093037
 20
342.6379761618397
 30
0.0
 40
0.511580060194904
100
AcDbArc
 50
113.3722778881979
 51
151.4785267423044
  0
ARC
  5
25A
102
{ACAD_REACTORS
330
2A1
330
2A2
102
}
330
71
100
AcDbEntity
  8
0
  6
Continuous
 62
     2
100
AcDbCircle
 10
80.9845699999716
 20
341.0224383670925
 30
0.0
 40
2.227384008973501
100
AcDbArc
 50
58.06909105004111
 51
71.55192388186653
  0
ARC
  5
25B
102
{ACAD_REACTORS
330
299
330
29A
102
}
330
71
100
AcDbEntity
  8
0
  6
Continuous
 62
     2
100
AcDbCircle
 10
84.04658413553548
 20
342.5896359106212
 30
0.0
 40
0.5179085730132297
100
AcDbArc
 50
38.12041979713714
 51
141.8795802028687
  0
ARC
  5
25C
102
{ACAD_REACTORS
330
299
330
29A
102
}
330
71
100
AcDbEntity
  8
0
  6
Continuous
 62
     2
100
AcDbCircle
 10
84.24632417188158
 20
342.4329047325007
 30
0.0
 40
0.7717997786794106
100
AcDbArc
 50
141.8795802028413
 51
218.1204197971753
  0
ARC
  5
25D
102
{ACAD_REACTORS
330
299
330
29A
102
}
330
71
100
AcDbEntity
  8
0
  6
Continuous
 62
     2
100
AcDbCircle
 10
84.04658413553548
 20
342.2761735543807
 30
0.0
 40
0.5179085730138231
100
AcDbArc
 50
218.1204197972055
 51
321.8795802027886
  0
ARC
  5
25E
102
{ACAD_REACTORS
330
299
330
29A
102
}
330
71
100
AcDbEntity
  8
0
  6
Continuous
 62
     2
100
AcDbCircle
 10
83.84684409918907
 20
342.4329047325007
 30
0.0
 40
0.7717997786797649
100
AcDbArc
 50
321.8795802028351
 51
38.12041979714831
  0
CIRCLE
  5
25F
330
71
100
AcDbEntity
  8
1
  6
Continuous
 62
     2
100
AcDbCircle
 10
81.19185098679168
 20
354.7374999705789
 30
0.0
 40
2.5
  0
CIRCLE
  5
260
330
71
100
AcDbEntity
  8
1
  6
Continuous
 62
     2
100
AcDbCircle
 10
81.19185098679168
 20
354.7374999705789
 30
0.0
 40
1.249999999999915
  0
CIRCLE
  5
261
102
{ACAD_REACTORS
330
29D
330
29E
102
}
330
71
100
AcDbEntity
  8
0
  6
Continuous
 62
     2
100
AcDbCircle
 10
75.73568125269199
 20
344.5758731268234
 30
0.0
 40
0.4709789327785074
  0
MTEXT
  5
262
330
71
100
AcDbEntity
  8
1
 62
     3
100
AcDbMText
 10
-88.99493158694912
 20
520.4038081258778
 30
0.0
 40
1.8
 41
0.0
 71
     7
 72
     1
  3
Weitergabe sowie Vervielf\U+00e4ltigung dieses Dokuments, Verwertung und \PMitteilung seines Inhalts sind verboten, soweit nicht ausdr\U+00fccklich gestattet. \PZuwiderhandlungen verpflichten zu Schadenersatz. Alle Rechte f\U+00fcr den Fall\Pder Pat
  1
ent-, Gebrauchsmuster- oder Designeintragung vorbehalten.
  7
CONVERTER_11
 73
     1
 44
0.99639855942377
  0
MTEXT
  5
263
330
71
100
AcDbEntity
  8
1
 62
     3
100
AcDbMText
 10
93.85817825183898
 20
520.4038081258778
 30
0.0
 40
1.8
 41
0.0
 71
     7
 72
     1
  3
Transfer or duplication of this document as well as the utilisation or\Pcommunication of its content are not permitted unless express consent\Pis granted. Violations give rise to claims for damages. All rights reserved\Pin case of patent, utility mo
  1
del or design patent registrations.
  7
CONVERTER_11
 73
     1
 44
0.99639855942377
  0
TEXT
  5
264
330
71
100
AcDbEntity
  8
1
 62
     2
100
AcDbText
 10
87.65519610022889
 20
334.8534827555874
 30
0.0
 40
1.8
  1
of
 41
0.9
  7
CONVERTER_11
100
AcDbText
  0
TEXT
  5
265
330
71
100
AcDbEntity
  8
1
 62
     2
100
AcDbText
 10
69.45519610022907
 20
334.8534827555874
 30
0.0
 40
1.8
  1
page
 41
0.9
  7
CONVERTER_11
100
AcDbText
  0
TEXT
  5
266
330
71
100
AcDbEntity
  8
1
 62
     2
100
AcDbText
 10
78.10146107057108
 20
334.813251316777
 30
0.0
 40
1.8
  1
1
 41
0.9
  7
CONVERTER_11
100
AcDbText
  0
TEXT
  5
267
330
71
100
AcDbEntity
  8
1
 62
     2
100
AcDbText
 10
92.89050491004258
 20
334.8624999705789
 30
0.0
 40
1.8
  1
1
 41
0.9
  7
CONVERTER_11
100
AcDbText
  0
MTEXT
  5
269
330
71
100
AcDbEntity
  8
1
 62
     7
100
AcDbMText
 10
151.4275983636046
 20
336.8624999705793
 30
0.0
 40
3.0
 41
0.0
 71
     5
 72
     1
  1
MPB 18/1- 2
  7
CONVERTER_12
 73
     1
 44
1.20048019207683
  0
MTEXT
  5
26A
330
71
100
AcDbEntity
  8
1
 62
     2
100
AcDbMText
 10
105.855196100229
 20
341.1124999705791
 30
0.0
 40
1.8
 41
0.0
 71
     1
 72
     1
  1
description
  7
CONVERTER_11
 73
     1
 44
1.20048019207683
  0
MTEXT
  5
26B
330
71
100
AcDbEntity
  8
1
 62
     3
100
AcDbMText
 10
94.65519610022898
 20
354.7374999705791
 30
0.0
 40
2.5
 41
0.0
 71
     5
 72
     1
  1
DIN A4
  7
CONVERTER_11
 73
     1
 44
1.20048019207683
  0
MTEXT
  5
26C
330
71
100
AcDbEntity
  8
1
 62
     7
100
AcDbMText
 10
-91.49999937301999
 20
356.1124999705791
 30
0.0
 40
3.5
 41
0.0
 71
     5
 72
     1
  1
D
  7
CONVERTER_11
 73
     1
 44
1.20048019207683
  0
MTEXT
  5
26D
330
71
100
AcDbEntity
  8
1
 62
     7
100
AcDbMText
 10
-91.49999937301999
 20
408.6124999705791
 30
0.0
 40
3.5
 41
0.0
 71
     5
 72
     1
  1
C
  7
CONVERTER_11
 73
     1
 44
1.20048019207683
  0
MTEXT
  5
26E
330
71
100
AcDbEntity
  8
1
 62
     7
100
AcDbMText
 10
-91.49999937301999
 20
458.6124999705791
 30
0.0
 40
3.5
 41
0.0
 71
     5
 72
     1
  1
B
  7
CONVERTER_11
 73
     1
 44
1.20048019207683
  0
MTEXT
  5
26F
330
71
100
AcDbEntity
  8
1
 62
     7
100
AcDbMText
 10
-91.49999937301999
 20
511.1124999705791
 30
0.0
 40
3.5
 41
0.0
 71
     5
 72
     1
  1
A
  7
CONVERTER_11
 73
     1
 44
1.20048019207683
  0
MTEXT
  5
270
330
71
100
AcDbEntity
  8
1
 62
     7
100
AcDbMText
 10
178.7500006269783
 20
331.1124999705789
 30
0.0
 40
3.5
 41
0.0
 71
     5
 72
     1
  1
6
  7
CONVERTER_11
 73
     1
 44
1.20048019207683
  0
MTEXT
  5
271
330
71
100
AcDbEntity
  8
1
 62
     7
100
AcDbMText
 10
129.5000006269791
 20
331.1124999705789
 30
0.0
 40
3.5
 41
0.0
 71
     5
 72
     1
  1
5
  7
CONVERTER_11
 73
     1
 44
1.20048019207683
  0
MTEXT
  5
272
330
71
100
AcDbEntity
  8
1
 62
     7
100
AcDbMText
 10
79.50000062697899
 20
331.1124999705789
 30
0.0
 40
3.5
 41
0.0
 71
     5
 72
     1
  1
4
  7
CONVERTER_11
 73
     1
 44
1.20048019207683
  0
MTEXT
  5
273
330
71
100
AcDbEntity
  8
1
 62
     7
100
AcDbMText
 10
29.5000006269791
 20
331.1124999705789
 30
0.0
 40
3.5
 41
0.0
 71
     5
 72
     1
  1
3
  7
CONVERTER_11
 73
     1
 44
1.20048019207683
  0
MTEXT
  5
274
330
71
100
AcDbEntity
  8
1
 62
     7
100
AcDbMText
 10
-20.4999993730209
 20
331.1124999705789
 30
0.0
 40
3.5
 41
0.0
 71
     5
 72
     1
  1
2
  7
CONVERTER_11
 73
     1
 44
1.20048019207683
  0
MTEXT
  5
275
330
71
100
AcDbEntity
  8
1
 62
     7
100
AcDbMText
 10
-69.7499993730205
 20
331.1124999705789
 30
0.0
 40
3.5
 41
0.0
 71
     5
 72
     1
  1
1
  7
CONVERTER_11
 73
     1
 44
1.20048019207683
  0
MTEXT
  5
276
330
71
100
AcDbEntity
  8
1
 62
     7
100
AcDbMText
 10
200.5000006269781
 20
356.1124999705791
 30
0.0
 40
3.5
 41
0.0
 71
     5
 72
     1
  1
D
  7
CONVERTER_11
 73
     1
 44
1.20048019207683
  0
MTEXT
  5
277
330
71
100
AcDbEntity
  8
1
 62
     7
100
AcDbMText
 10
200.5000006269781
 20
458.612499970581
 30
0.0
 40
3.5
 41
0.0
 71
     5
 72
     1
  1
B
  7
CONVERTER_11
 73
     1
 44
1.20048019207683
  0
MTEXT
  5
278
330
71
100
AcDbEntity
  8
1
 62
     7
100
AcDbMText
 10
200.5000006269781
 20
511.1124999705791
 30
0.0
 40
3.5
 41
0.0
 71
     5
 72
     1
  1
A
  7
CONVERTER_11
 73
     1
 44
1.20048019207683
  0
MTEXT
  5
279
330
71
100
AcDbEntity
  8
1
 62
     7
100
AcDbMText
 10
200.5000006269781
 20
408.612499970581
 30
0.0
 40
3.5
 41
0.0
 71
     5
 72
     1
  1
C
  7
CONVERTER_11
 73
     1
 44
1.20048019207683
  0
MTEXT
  5
27A
330
71
100
AcDbEntity
  8
1
 62
     2
100
AcDbMText
 10
34.01718137518157
 20
346.3624999705789
 30
0.0
 40
2.0
 41
0.0
 71
     5
 72
     1
  1
General Information\P- Simplified representation\P- Document excluded from change process\P- Linear dimensions [mm]
  7
CONVERTER_11
 73
     1
 44
1.20048019207683
  0
TEXT
  5
27B
330
71
100
AcDbEntity
  8
1
 62
     7
100
AcDbText
 10
106.3551961002288
 20
343.412499970579
 30
0.0
 40
2.5
  1
2809209
 41
0.81
  7
CONVERTER_12
100
AcDbText
  0
MTEXT
  5
27C
330
71
100
AcDbEntity
  8
1
 62
     2
100
AcDbMText
 10
105.9551961002291
 20
349.6124999705791
 30
0.0
 40
1.8
 41
0.0
 71
     1
 72
     1
  1
ident.-No.
  7
CONVERTER_11
 73
     1
 44
1.20048019207683
  0
MTEXT
  5
27D
330
71
100
AcDbEntity
  8
1
 62
     2
100
AcDbMText
 10
190.1815923453018
 20
358.1124999705791
 30
0.0
 40
1.8
 41
0.0
 71
     1
 72
     1
  1
scale
  7
CONVERTER_11
 73
     1
 44
1.20048019207683
  0
MTEXT
  5
27F
330
71
100
AcDbEntity
  8
1
 62
     3
100
AcDbMText
 10
193.5407964861414
 20
351.9124999705791
 30
0.0
 40
2.5
 41
0.0
 71
     8
 72
     1
  1
2:1
  7
CONVERTER_13
 73
     1
 44
1.32052821128451
  0
TEXT
  5
280
330
71
100
AcDbEntity
  8
1
 62
     7
100
AcDbText
 10
105.9551961002291
 20
351.912499970579
 30
0.0
 40
2.5
  1
00320967
 41
0.81
  7
CONVERTER_12
100
AcDbText
  0
MTEXT
  5
282
330
71
100
AcDbEntity
  8
1
 62
     2
100
AcDbMText
 10
105.9551961002291
 20
358.1124999705791
 30
0.0
 40
1.8
 41
0.0
 71
     1
 72
     1
  1
document-No. / RI
  7
CONVERTER_14
 73
     1
 44
1.32052821128451
  0
TEXT
  5
283
330
71
100
AcDbEntity
  8
1
 62
     3
100
AcDbText
 10
133.7551961002291
 20
343.412499970579
 30
0.0
 40
2.5
  1
TECDOC 2D_Productdrawing
 41
0.81
  7
CONVERTER_12
100
AcDbText
  0
MTEXT
  5
284
330
71
100
AcDbEntity
  8
1
 62
     2
100
AcDbMText
 10
133.7551961002291
 20
349.6124999705789
 30
0.0
 40
1.8
 41
0.0
 71
     1
 72
     1
  1
document-type
  7
CONVERTER_11
 73
     1
 44
1.20048019207683
  0
MTEXT
  5
285
330
71
100
AcDbEntity
  8
1
 62
     2
100
AcDbMText
 10
163.581592345302
 20
358.1124999705789
 30
0.0
 40
1.8
 41
0.0
 71
     1
 72
     1
  1
date
  7
CONVERTER_11
 73
     1
 44
1.32052821128451
  0
TEXT
  5
286
330
71
100
AcDbEntity
  8
1
 62
     3
100
AcDbText
 10
163.581592345302
 20
351.912499970579
 30
0.0
 40
2.5
  1
29.01.2018
 41
0.81
  7
CONVERTER_12
100
AcDbText
  0
TEXT
  5
287
330
71
100
AcDbEntity
  8
1
 62
     7
100
AcDbText
 10
125.9851083192849
 20
351.912499970579
 30
0.0
 40
2.5
  1
01
 41
0.81
  7
CONVERTER_12
100
AcDbText
  0
TEXT
  5
288
330
71
100
AcDbEntity
  8
1
 62
     7
100
AcDbText
 10
123.8287438222429
 20
351.912499970579
 30
0.0
 40
2.5
  1
/
 41
0.9
  7
CONVERTER_11
100
AcDbText
  0
HATCH
  5
289
330
71
100
AcDbEntity
  8
1
  6
Continuous
 62
     2
100
AcDbHatch
 10
0.0
 20
0.0
 30
0.0
210
0.0
220
0.0
230
1.0
  2
_USER
 70
     0
 71
     1
 91
        1
 92
        1
 93
       12
 72
     1
 10
86.12269681319017
 20
344.2651904467697
 11
84.92990411102377
 21
344.2651904467697
 72
     1
 10
84.92990411102377
 20
344.2651904467697
 11
84.92990411102377
 21
345.3994625556135
 72
     1
 10
84.92990411102377
 20
345.3994625556135
 11
83.88024653311629
 21
345.3994625556135
 72
     1
 10
83.88024653311629
 20
345.3994625556135
 11
83.88024653311629
 21
344.2651904467697
 72
     1
 10
83.88024653311629
 20
344.2651904467697
 11
82.68745383094969
 21
344.2651904467697
 72
     1
 10
82.68745383094969
 20
344.2651904467697
 11
82.68745383094969
 21
347.3189999705809
 72
     1
 10
82.68745383094969
 20
347.3189999705809
 11
83.88024653311629
 21
347.3189999705809
 72
     1
 10
83.88024653311629
 20
347.3189999705809
 11
83.88024653311629
 21
346.2501666372463
 72
     1
 10
83.88024653311629
 20
346.2501666372463
 11
84.92990411102377
 21
346.2501666372463
 72
     1
 10
84.92990411102377
 20
346.2501666372463
 11
84.92990411102377
 21
347.3189999705809
 72
     1
 10
84.92990411102377
 20
347.3189999705809
 11
86.12269681319017
 21
347.3189999705809
 72
     1
 10
86.12269681319017
 20
347.3189999705809
 11
86.12269681319017
 21
344.2651904467697
 97
       12
330
1F6
330
1F7
330
1E1
330
1E0
330
1DF
330
1F3
330
1DE
330
1F4
330
1F5
330
1DD
330
1DC
330
1DB
 75
     1
 76
     0
 52
45.0
 41
0.1
 77
     0
 78
     1
 53
45.0
 43
0.0
 44
0.0
 45
-0.0707106781186548
 46
0.0707106781186548
 79
     0
 98
        1
 10
0.0
 20
0.0
  0
HATCH
  5
28A
330
71
100
AcDbEntity
  8
1
  6
Continuous
 62
     2
100
AcDbHatch
 10
0.0
 20
0.0
 30
0.0
210
0.0
220
0.0
230
1.0
  2
_USER
 70
     0
 71
     1
 91
        1
 92
        1
 93
       12
 72
     1
 10
86.12269681319017
 20
344.2651904467697
 11
84.92990411102377
 21
344.2651904467697
 72
     1
 10
84.92990411102377
 20
344.2651904467697
 11
84.92990411102377
 21
345.3994625556135
 72
     1
 10
84.92990411102377
 20
345.3994625556135
 11
83.88024653311629
 21
345.3994625556135
 72
     1
 10
83.88024653311629
 20
345.3994625556135
 11
83.88024653311629
 21
344.2651904467697
 72
     1
 10
83.88024653311629
 20
344.2651904467697
 11
82.68745383094969
 21
344.2651904467697
 72
     1
 10
82.68745383094969
 20
344.2651904467697
 11
82.68745383094969
 21
347.3189999705809
 72
     1
 10
82.68745383094969
 20
347.3189999705809
 11
83.88024653311629
 21
347.3189999705809
 72
     1
 10
83.88024653311629
 20
347.3189999705809
 11
83.88024653311629
 21
346.2501666372463
 72
     1
 10
83.88024653311629
 20
346.2501666372463
 11
84.92990411102377
 21
346.2501666372463
 72
     1
 10
84.92990411102377
 20
346.2501666372463
 11
84.92990411102377
 21
347.3189999705809
 72
     1
 10
84.92990411102377
 20
347.3189999705809
 11
86.12269681319017
 21
347.3189999705809
 72
     1
 10
86.12269681319017
 20
347.3189999705809
 11
86.12269681319017
 21
344.2651904467697
 97
       12
330
1F6
330
1F7
330
1E1
330
1E0
330
1DF
330
1F3
330
1DE
330
1F4
330
1F5
330
1DD
330
1DC
330
1DB
 75
     1
 76
     0
 52
45.0
 41
0.1
 77
     0
 78
     1
 53
45.0
 43
0.0
 44
0.0
 45
-0.0707106781186548
 46
0.0707106781186548
 79
     0
 98
        1
 10
0.0
 20
0.0
  0
HATCH
  5
28B
330
71
100
AcDbEntity
  8
1
  6
Continuous
 62
     2
100
AcDbHatch
 10
0.0
 20
0.0
 30
0.0
210
0.0
220
0.0
230
1.0
  2
_USER
 70
     0
 71
     1
 91
        1
 92
        1
 93
       10
 72
     1
 10
88.36499616237847
 20
342.6510339842014
 11
87.12449175212558
 21
343.9598094944064
 72
     1
 10
87.12449175212558
 20
343.9598094944064
 11
85.93169904995798
 21
343.9598094944064
 72
     1
 10
85.93169904995798
 20
343.9598094944064
 11
85.93169904995798
 21
340.9059999705954
 72
     1
 10
85.93169904995798
 20
340.9059999705954
 11
87.12449175212558
 21
340.9059999705954
 72
     1
 10
87.12449175212558
 20
340.9059999705954
 11
87.12449175212558
 21
342.2147754808
 72
     1
 10
87.12449175212558
 20
342.2147754808
 11
88.36499616237847
 21
340.9059999705954
 72
     1
 10
88.36499616237847
 20
340.9059999705954
 11
89.55778886454488
 21
340.9059999705954
 72
     1
 10
89.55778886454488
 20
340.9059999705954
 11
89.55778886454488
 21
343.9598094944064
 72
     1
 10
89.55778886454488
 20
343.9598094944064
 11
88.36499616237847
 21
343.9598094944064
 72
     1
 10
88.36499616237847
 20
343.9598094944064
 11
88.36499616237847
 21
342.6510339842014
 97
       10
330
204
330
1D4
330
1D3
330
1D6
330
1FF
330
200
330
1D5
330
201
330
202
330
203
 75
     1
 76
     0
 52
45.0
 41
0.1
 77
     0
 78
     1
 53
45.0
 43
0.0
 44
0.0
 45
-0.0707106781186548
 46
0.0707106781186548
 79
     0
 98
        1
 10
0.0
 20
0.0
  0
HATCH
  5
28C
330
71
100
AcDbEntity
  8
1
  6
Continuous
 62
     2
100
AcDbHatch
 10
0.0
 20
0.0
 30
0.0
210
0.0
220
0.0
230
1.0
  2
_USER
 70
     0
 71
     1
 91
        1
 92
        1
 93
       10
 72
     1
 10
88.36499616237847
 20
342.6510339842014
 11
87.12449175212558
 21
343.9598094944064
 72
     1
 10
87.12449175212558
 20
343.9598094944064
 11
85.93169904995798
 21
343.9598094944064
 72
     1
 10
85.93169904995798
 20
343.9598094944064
 11
85.93169904995798
 21
340.9059999705954
 72
     1
 10
85.93169904995798
 20
340.9059999705954
 11
87.12449175212558
 21
340.9059999705954
 72
     1
 10
87.12449175212558
 20
340.9059999705954
 11
87.12449175212558
 21
342.2147754808
 72
     1
 10
87.12449175212558
 20
342.2147754808
 11
88.36499616237847
 21
340.9059999705954
 72
     1
 10
88.36499616237847
 20
340.9059999705954
 11
89.55778886454488
 21
340.9059999705954
 72
     1
 10
89.55778886454488
 20
340.9059999705954
 11
89.55778886454488
 21
343.9598094944064
 72
     1
 10
89.55778886454488
 20
343.9598094944064
 11
88.36499616237847
 21
343.9598094944064
 72
     1
 10
88.36499616237847
 20
343.9598094944064
 11
88.36499616237847
 21
342.6510339842014
 97
       10
330
204
330
1D4
330
1D3
330
1D6
330
1FF
330
200
330
1D5
330
201
330
202
330
203
 75
     1
 76
     0
 52
45.0
 41
0.1
 77
     0
 78
     1
 53
45.0
 43
0.0
 44
0.0
 45
-0.0707106781186548
 46
0.0707106781186548
 79
     0
 98
        1
 10
0.0
 20
0.0
  0
HATCH
  5
28D
330
71
100
AcDbEntity
  8
1
  6
Continuous
 62
     2
100
AcDbHatch
 10
0.0
 20
0.0
 30
0.0
210
0.0
220
0.0
230
1.0
  2
_USER
 70
     0
 71
     1
 91
        1
 92
        1
 93
       10
 72
     1
 10
93.6134349827982
 20
346.0102244603756
 11
92.37293057254419
 21
347.3189999705809
 72
     1
 10
92.37293057254419
 20
347.3189999705809
 11
91.18013787037768
 21
347.3189999705809
 72
     1
 10
91.18013787037768
 20
347.3189999705809
 11
91.18013787037768
 21
344.2651904467697
 72
     1
 10
91.18013787037768
 20
344.2651904467697
 11
92.37293057254419
 21
344.2651904467697
 72
     1
 10
92.37293057254419
 20
344.2651904467697
 11
92.37293057254419
 21
345.5739659569744
 72
     1
 10
92.37293057254419
 20
345.5739659569744
 11
93.6134349827982
 21
344.2651904467697
 72
     1
 10
93.6134349827982
 20
344.2651904467697
 11
94.8062276849648
 21
344.2651904467697
 72
     1
 10
94.8062276849648
 20
344.2651904467697
 11
94.8062276849648
 21
347.3189999705809
 72
     1
 10
94.8062276849648
 20
347.3189999705809
 11
93.6134349827982
 21
347.3189999705809
 72
     1
 10
93.6134349827982
 20
347.3189999705809
 11
93.6134349827982
 21
346.0102244603756
 97
       10
330
209
330
1D1
330
1D0
330
20A
330
1CF
330
205
330
206
330
207
330
208
330
1D2
 75
     1
 76
     0
 52
45.0
 41
0.1
 77
     0
 78
     1
 53
45.0
 43
0.0
 44
0.0
 45
-0.0707106781186548
 46
0.0707106781186548
 79
     0
 98
        1
 10
0.0
 20
0.0
  0
HATCH
  5
28E
330
71
100
AcDbEntity
  8
1
  6
Continuous
 62
     2
100
AcDbHatch
 10
0.0
 20
0.0
 30
0.0
210
0.0
220
0.0
230
1.0
  2
_USER
 70
     0
 71
     1
 91
        1
 92
        1
 93
       10
 72
     1
 10
93.6134349827982
 20
346.0102244603756
 11
92.37293057254419
 21
347.3189999705809
 72
     1
 10
92.37293057254419
 20
347.3189999705809
 11
91.18013787037768
 21
347.3189999705809
 72
     1
 10
91.18013787037768
 20
347.3189999705809
 11
91.18013787037768
 21
344.2651904467697
 72
     1
 10
91.18013787037768
 20
344.2651904467697
 11
92.37293057254419
 21
344.2651904467697
 72
     1
 10
92.37293057254419
 20
344.2651904467697
 11
92.37293057254419
 21
345.5739659569744
 72
     1
 10
92.37293057254419
 20
345.5739659569744
 11
93.6134349827982
 21
344.2651904467697
 72
     1
 10
93.6134349827982
 20
344.2651904467697
 11
94.8062276849648
 21
344.2651904467697
 72
     1
 10
94.8062276849648
 20
344.2651904467697
 11
94.8062276849648
 21
347.3189999705809
 72
     1
 10
94.8062276849648
 20
347.3189999705809
 11
93.6134349827982
 21
347.3189999705809
 72
     1
 10
93.6134349827982
 20
347.3189999705809
 11
93.6134349827982
 21
346.0102244603756
 97
       10
330
209
330
1D1
330
1D0
330
20A
330
1CF
330
205
330
206
330
207
330
208
330
1D2
 75
     1
 76
     0
 52
45.0
 41
0.1
 77
     0
 78
     1
 53
45.0
 43
0.0
 44
0.0
 45
-0.0707106781186548
 46
0.0707106781186548
 79
     0
 98
        1
 10
0.0
 20
0.0
  0
HATCH
  5
28F
330
71
100
AcDbEntity
  8
1
  6
Continuous
 62
     2
100
AcDbHatch
 10
0.0
 20
0.0
 30
0.0
210
0.0
220
0.0
230
1.0
  2
_USER
 70
     0
 71
     1
 91
        1
 92
        1
 93
        8
 72
     1
 10
92.5159147659187
 20
343.9598094944064
 11
89.70092398880507
 21
343.9598094944064
 72
     1
 10
89.70092398880507
 20
343.9598094944064
 11
89.70092398880507
 21
343.1745441882829
 72
     1
 10
89.70092398880507
 20
343.1745441882829
 11
90.51202302627968
 21
343.1745441882829
 72
     1
 10
90.51202302627968
 20
343.1745441882829
 11
90.51202302627968
 21
340.9059999705954
 72
     1
 10
90.51202302627968
 20
340.9059999705954
 11
91.70481572844619
 21
340.9059999705954
 72
     1
 10
91.70481572844619
 20
340.9059999705954
 11
91.70481572844619
 21
343.1745441882829
 72
     1
 10
91.70481572844619
 20
343.1745441882829
 11
92.5159147659187
 21
343.1745441882829
 72
     1
 10
92.5159147659187
 20
343.1745441882829
 11
92.5159147659187
 21
343.9598094944064
 97
        8
330
1CB
330
20B
330
1CA
330
20C
330
20D
330
1CE
330
1CD
330
1CC
 75
     1
 76
     0
 52
45.0
 41
0.1
 77
     0
 78
     1
 53
45.0
 43
0.0
 44
0.0
 45
-0.0707106781186548
 46
0.0707106781186548
 79
     0
 98
        1
 10
0.0
 20
0.0
  0
HATCH
  5
290
330
71
100
AcDbEntity
  8
1
  6
Continuous
 62
     2
100
AcDbHatch
 10
0.0
 20
0.0
 30
0.0
210
0.0
220
0.0
230
1.0
  2
_USER
 70
     0
 71
     1
 91
        1
 92
        1
 93
        8
 72
     1
 10
92.5159147659187
 20
343.9598094944064
 11
89.70092398880507
 21
343.9598094944064
 72
     1
 10
89.70092398880507
 20
343.9598094944064
 11
89.70092398880507
 21
343.1745441882829
 72
     1
 10
89.70092398880507
 20
343.1745441882829
 11
90.51202302627968
 21
343.1745441882829
 72
     1
 10
90.51202302627968
 20
343.1745441882829
 11
90.51202302627968
 21
340.9059999705954
 72
     1
 10
90.51202302627968
 20
340.9059999705954
 11
91.70481572844619
 21
340.9059999705954
 72
     1
 10
91.70481572844619
 20
340.9059999705954
 11
91.70481572844619
 21
343.1745441882829
 72
     1
 10
91.70481572844619
 20
343.1745441882829
 11
92.5159147659187
 21
343.1745441882829
 72
     1
 10
92.5159147659187
 20
343.1745441882829
 11
92.5159147659187
 21
343.9598094944064
 97
        8
330
1CB
330
20B
330
1CA
330
20C
330
20D
330
1CE
330
1CD
330
1CC
 75
     1
 76
     0
 52
45.0
 41
0.1
 77
     0
 78
     1
 53
45.0
 43
0.0
 44
0.0
 45
-0.0707106781186548
 46
0.0707106781186548
 79
     0
 98
        1
 10
0.0
 20
0.0
  0
HATCH
  5
291
330
71
100
AcDbEntity
  8
1
  6
Continuous
 62
     2
100
AcDbHatch
 10
0.0
 20
0.0
 30
0.0
210
0.0
220
0.0
230
1.0
  2
_USER
 70
     0
 71
     1
 91
        2
 92
        1
 93
        8
 72
     1
 10
94.65434222186568
 20
340.9059999705954
 11
94.4428621683899
 21
341.4469605148132
 72
     1
 10
94.4428621683899
 20
341.4469605148132
 11
93.31042059171608
 21
341.4469605148132
 72
     1
 10
93.31042059171608
 20
341.4469605148132
 11
93.09894053824027
 21
340.9059999705954
 72
     1
 10
93.09894053824027
 20
340.9059999705954
 11
91.85843612798729
 21
340.9059999705954
 72
     1
 10
91.85843612798729
 20
340.9059999705954
 11
93.2563891749266
 21
343.9598094944064
 72
     1
 10
93.2563891749266
 20
343.9598094944064
 11
94.4968935851793
 21
343.9598094944064
 72
     1
 10
94.4968935851793
 20
343.9598094944064
 11
95.8948466321196
 21
340.9059999705954
 72
     1
 10
95.8948466321196
 20
340.9059999705954
 11
94.65434222186568
 21
340.9059999705954
 97
        8
330
20F
330
210
330
1C7
330
211
330
1C6
330
1C9
330
20E
330
1C8
 92
       16
 93
        3
 72
     1
 10
93.57647614286108
 20
342.1275237801199
 11
93.87664138005348
 21
342.8953387461065
 72
     1
 10
93.87664138005348
 20
342.8953387461065
 11
94.17680661724359
 21
342.1275237801199
 72
     1
 10
94.17680661724359
 20
342.1275237801199
 11
93.57647614286108
 21
342.1275237801199
 97
        3
330
1C5
330
213
330
212
 75
     1
 76
     0
 52
45.0
 41
0.1
 77
     0
 78
     1
 53
45.0
 43
0.0
 44
0.0
 45
-0.0707106781186548
 46
0.0707106781186548
 79
     0
 98
        1
 10
0.0
 20
0.0
  0
HATCH
  5
292
330
71
100
AcDbEntity
  8
1
  6
Continuous
 62
     2
100
AcDbHatch
 10
0.0
 20
0.0
 30
0.0
210
0.0
220
0.0
230
1.0
  2
_USER
 70
     0
 71
     1
 91
        2
 92
        1
 93
        8
 72
     1
 10
94.65434222186568
 20
340.9059999705954
 11
94.4428621683899
 21
341.4469605148132
 72
     1
 10
94.4428621683899
 20
341.4469605148132
 11
93.31042059171608
 21
341.4469605148132
 72
     1
 10
93.31042059171608
 20
341.4469605148132
 11
93.09894053824027
 21
340.9059999705954
 72
     1
 10
93.09894053824027
 20
340.9059999705954
 11
91.85843612798729
 21
340.9059999705954
 72
     1
 10
91.85843612798729
 20
340.9059999705954
 11
93.2563891749266
 21
343.9598094944064
 72
     1
 10
93.2563891749266
 20
343.9598094944064
 11
94.4968935851793
 21
343.9598094944064
 72
     1
 10
94.4968935851793
 20
343.9598094944064
 11
95.8948466321196
 21
340.9059999705954
 72
     1
 10
95.8948466321196
 20
340.9059999705954
 11
94.65434222186568
 21
340.9059999705954
 97
        8
330
20F
330
210
330
1C7
330
211
330
1C6
330
1C9
330
20E
330
1C8
 92
       16
 93
        3
 72
     1
 10
93.57647614286108
 20
342.1275237801199
 11
93.87664138005348
 21
342.8953387461065
 72
     1
 10
93.87664138005348
 20
342.8953387461065
 11
94.17680661724359
 21
342.1275237801199
 72
     1
 10
94.17680661724359
 20
342.1275237801199
 11
93.57647614286108
 21
342.1275237801199
 97
        3
330
1C5
330
213
330
212
 75
     1
 76
     0
 52
45.0
 41
0.1
 77
     0
 78
     1
 53
45.0
 43
0.0
 44
0.0
 45
-0.0707106781186548
 46
0.0707106781186548
 79
     0
 98
        1
 10
0.0
 20
0.0
  0
HATCH
  5
293
330
71
100
AcDbEntity
  8
1
  6
Continuous
 62
     2
100
AcDbHatch
 10
0.0
 20
0.0
 30
0.0
210
0.0
220
0.0
230
1.0
  2
_USER
 70
     0
 71
     1
 91
        1
 92
        1
 93
        4
 72
     1
 10
96.28529063565159
 20
344.2651904467697
 11
95.0447862253987
 21
344.2651904467697
 72
     1
 10
95.0447862253987
 20
344.2651904467697
 11
95.0447862253987
 21
347.3189999705809
 72
     1
 10
95.0447862253987
 20
347.3189999705809
 11
96.28529063565159
 21
347.3189999705809
 72
     1
 10
96.28529063565159
 20
347.3189999705809
 11
96.28529063565159
 21
344.2651904467697
 97
        4
330
1C2
330
1C4
330
214
330
1C3
 75
     1
 76
     0
 52
45.0
 41
0.1
 77
     0
 78
     1
 53
45.0
 43
0.0
 44
0.0
 45
-0.0707106781186548
 46
0.0707106781186548
 79
     0
 98
        1
 10
0.0
 20
0.0
  0
HATCH
  5
294
330
71
100
AcDbEntity
  8
1
  6
Continuous
 62
     2
100
AcDbHatch
 10
0.0
 20
0.0
 30
0.0
210
0.0
220
0.0
230
1.0
  2
_USER
 70
     0
 71
     1
 91
        1
 92
        1
 93
        4
 72
     1
 10
96.28529063565159
 20
344.2651904467697
 11
95.0447862253987
 21
344.2651904467697
 72
     1
 10
95.0447862253987
 20
344.2651904467697
 11
95.0447862253987
 21
347.3189999705809
 72
     1
 10
95.0447862253987
 20
347.3189999705809
 11
96.28529063565159
 21
347.3189999705809
 72
     1
 10
96.28529063565159
 20
347.3189999705809
 11
96.28529063565159
 21
344.2651904467697
 97
        4
330
1C2
330
1C4
330
214
330
1C3
 75
     1
 76
     0
 52
45.0
 41
0.1
 77
     0
 78
     1
 53
45.0
 43
0.0
 44
0.0
 45
-0.0707106781186548
 46
0.0707106781186548
 79
     0
 98
        1
 10
0.0
 20
0.0
  0
HATCH
  5
295
330
71
100
AcDbEntity
  8
1
  6
Continuous
 62
     2
100
AcDbHatch
 10
0.0
 20
0.0
 30
0.0
210
0.0
220
0.0
230
1.0
  2
_USER
 70
     0
 71
     1
 91
        1
 92
        1
 93
       12
 72
     1
 10
100.5077768013224
 20
347.3189999705809
 11
99.20524717055588
 21
345.8460494405447
 72
     1
 10
99.20524717055588
 20
345.8460494405447
 11
100.6032002174962
 21
344.2651904467697
 72
     1
 10
100.6032002174962
 20
344.2651904467697
 11
99.20047599974788
 21
344.2651904467697
 72
     1
 10
99.20047599974788
 20
344.2651904467697
 11
98.50388506168238
 21
345.0529222320633
 72
     1
 10
98.50388506168238
 20
345.0529222320633
 11
97.80729412361669
 21
344.2651904467697
 72
     1
 10
97.80729412361669
 20
344.2651904467697
 11
96.40456990586847
 21
344.2651904467697
 72
     1
 10
96.40456990586847
 20
344.2651904467697
 11
97.80252295280877
 21
345.8460494405447
 72
     1
 10
97.80252295280877
 20
345.8460494405447
 11
96.49999332204129
 21
347.3189999705809
 72
     1
 10
96.49999332204129
 20
347.3189999705809
 11
97.90271753979059
 21
347.3189999705809
 72
     1
 10
97.90271753979059
 20
347.3189999705809
 11
98.50388506168238
 21
346.6391766490253
 72
     1
 10
98.50388506168238
 20
346.6391766490253
 11
99.10505258357517
 21
347.3189999705809
 72
     1
 10
99.10505258357517
 20
347.3189999705809
 11
100.5077768013224
 21
347.3189999705809
 97
       12
330
1BD
330
1BC
330
1BB
330
218
330
219
330
215
330
216
330
1C1
330
1C0
330
1BF
330
1BE
330
217
 75
     1
 76
     0
 52
45.0
 41
0.1
 77
     0
 78
     1
 53
45.0
 43
0.0
 44
0.0
 45
-0.0707106781186548
 46
0.0707106781186548
 79
     0
 98
        1
 10
0.0
 20
0.0
  0
HATCH
  5
296
330
71
100
AcDbEntity
  8
1
  6
Continuous
 62
     2
100
AcDbHatch
 10
0.0
 20
0.0
 30
0.0
210
0.0
220
0.0
230
1.0
  2
_USER
 70
     0
 71
     1
 91
        1
 92
        1
 93
       12
 72
     1
 10
100.5077768013224
 20
347.3189999705809
 11
99.20524717055588
 21
345.8460494405447
 72
     1
 10
99.20524717055588
 20
345.8460494405447
 11
100.6032002174962
 21
344.2651904467697
 72
     1
 10
100.6032002174962
 20
344.2651904467697
 11
99.20047599974788
 21
344.2651904467697
 72
     1
 10
99.20047599974788
 20
344.2651904467697
 11
98.50388506168238
 21
345.0529222320633
 72
     1
 10
98.50388506168238
 20
345.0529222320633
 11
97.80729412361669
 21
344.2651904467697
 72
     1
 10
97.80729412361669
 20
344.2651904467697
 11
96.40456990586847
 21
344.2651904467697
 72
     1
 10
96.40456990586847
 20
344.2651904467697
 11
97.80252295280877
 21
345.8460494405447
 72
     1
 10
97.80252295280877
 20
345.8460494405447
 11
96.49999332204129
 21
347.3189999705809
 72
     1
 10
96.49999332204129
 20
347.3189999705809
 11
97.90271753979059
 21
347.3189999705809
 72
     1
 10
97.90271753979059
 20
347.3189999705809
 11
98.50388506168238
 21
346.6391766490253
 72
     1
 10
98.50388506168238
 20
346.6391766490253
 11
99.10505258357517
 21
347.3189999705809
 72
     1
 10
99.10505258357517
 20
347.3189999705809
 11
100.5077768013224
 21
347.3189999705809
 97
       12
330
1BD
330
1BC
330
1BB
330
218
330
219
330
215
330
216
330
1C1
330
1C0
330
1BF
330
1BE
330
217
 75
     1
 76
     0
 52
45.0
 41
0.1
 77
     0
 78
     1
 53
45.0
 43
0.0
 44
0.0
 45
-0.0707106781186548
 46
0.0707106781186548
 79
     0
 98
        1
 10
0.0
 20
0.0
  0
HATCH
  5
297
330
71
100
AcDbEntity
  8
1
  6
Continuous
 62
     2
100
AcDbHatch
 10
0.0
 20
0.0
 30
0.0
210
0.0
220
0.0
230
1.0
  2
_USER
 70
     0
 71
     1
 91
        2
 92
        1
 93
        6
 72
     1
 10
81.49004138717638
 20
345.2082686879135
 11
80.73127379939609
 21
345.2082686879135
 72
     1
 10
80.73127379939609
 20
345.2082686879135
 11
80.73127379939609
 21
344.2651904467697
 72
     1
 10
80.73127379939609
 20
344.2651904467697
 11
79.49076938914197
 21
344.2651904467697
 72
     1
 10
79.49076938914197
 20
344.2651904467697
 11
79.49076938914197
 21
347.3189999705809
 72
     1
 10
79.49076938914197
 20
347.3189999705809
 11
81.49004138717638
 21
347.3189999705809
 72
     2
 10
81.49004138717638
 20
346.2636343292472
 40
1.055365641333708
 50
270.0
 51
450.0
 73
     0
 97
        6
330
1E5
330
1E4
330
1F1
330
1F0
330
1E6
330
236
 92
       16
 93
        4
 72
     2
 10
81.04856886093799
 20
346.3030303004697
 40
0.3528638246712035
 50
270.0
 51
450.0
 73
     1
 72
     1
 10
81.04856886093799
 20
346.6558941251408
 11
80.73127379939609
 21
346.6558941251408
 72
     1
 10
80.73127379939609
 20
346.6558941251408
 11
80.73127379939609
 21
345.9501664757985
 72
     1
 10
80.73127379939609
 20
345.9501664757985
 11
81.04856886093799
 21
345.9501664757985
 97
        4
330
24A
330
1E2
330
1F2
330
1E3
 75
     1
 76
     0
 52
45.0
 41
0.1
 77
     0
 78
     1
 53
45.0
 43
0.0
 44
0.0
 45
-0.0707106781186548
 46
0.0707106781186548
 79
     0
 98
        1
 10
0.0
 20
0.0
  0
HATCH
  5
298
330
71
100
AcDbEntity
  8
1
  6
Continuous
 62
     2
100
AcDbHatch
 10
0.0
 20
0.0
 30
0.0
210
0.0
220
0.0
230
1.0
  2
_USER
 70
     0
 71
     1
 91
        2
 92
        1
 93
        6
 72
     1
 10
81.49004138717638
 20
345.2082686879135
 11
80.73127379939609
 21
345.2082686879135
 72
     1
 10
80.73127379939609
 20
345.2082686879135
 11
80.73127379939609
 21
344.2651904467697
 72
     1
 10
80.73127379939609
 20
344.2651904467697
 11
79.49076938914197
 21
344.2651904467697
 72
     1
 10
79.49076938914197
 20
344.2651904467697
 11
79.49076938914197
 21
347.3189999705809
 72
     1
 10
79.49076938914197
 20
347.3189999705809
 11
81.49004138717638
 21
347.3189999705809
 72
     2
 10
81.49004138717638
 20
346.2636343292472
 40
1.055365641333708
 50
270.0
 51
450.0
 73
     0
 97
        6
330
1E5
330
1E4
330
1F1
330
1F0
330
1E6
330
236
 92
       16
 93
        4
 72
     2
 10
81.04856886093799
 20
346.3030303004697
 40
0.3528638246712035
 50
270.0
 51
450.0
 73
     1
 72
     1
 10
81.04856886093799
 20
346.6558941251408
 11
80.73127379939609
 21
346.6558941251408
 72
     1
 10
80.73127379939609
 20
346.6558941251408
 11
80.73127379939609
 21
345.9501664757985
 72
     1
 10
80.73127379939609
 20
345.9501664757985
 11
81.04856886093799
 21
345.9501664757985
 97
        4
330
24A
330
1E2
330
1F2
330
1E3
 75
     1
 76
     0
 52
45.0
 41
0.1
 77
     0
 78
     1
 53
45.0
 43
0.0
 44
0.0
 45
-0.0707106781186548
 46
0.0707106781186548
 79
     0
 98
        1
 10
0.0
 20
0.0
  0
HATCH
  5
299
330
71
100
AcDbEntity
  8
1
  6
Continuous
 62
     2
100
AcDbHatch
 10
0.0
 20
0.0
 30
0.0
210
0.0
220
0.0
230
1.0
  2
_USER
 70
     0
 71
     1
 91
        2
 92
        1
 93
        4
 72
     2
 10
84.04658413553548
 20
341.8943297221979
 40
2.065479772208492
 50
62.45185182430527
 51
117.5481481756675
 73
     1
 72
     2
 10
83.76564424370218
 20
342.4329047325007
 40
1.458034083651415
 50
117.548148175664
 51
242.451851824337
 73
     1
 72
     2
 10
84.04658413553548
 20
342.9714797428039
 40
2.065479772208433
 50
242.4518518243391
 51
297.5481481756882
 73
     1
 72
     2
 10
84.32752402736878
 20
342.4329047325007
 40
1.458034083651977
 50
297.5481481757016
 51
422.4518518242974
 73
     1
 97
        4
330
242
330
241
330
243
330
240
 92
       16
 93
        4
 72
     2
 10
83.84684409918907
 20
342.4329047325007
 40
0.7717997786797649
 50
321.8795802028351
 51
398.1204197971483
 73
     1
 72
     2
 10
84.04658413553548
 20
342.5896359106212
 40
0.5179085730132297
 50
38.12041979713714
 51
141.8795802028687
 73
     1
 72
     2
 10
84.24632417188158
 20
342.4329047325007
 40
0.7717997786794106
 50
141.8795802028413
 51
218.1204197971753
 73
     1
 72
     2
 10
84.04658413553548
 20
342.2761735543807
 40
0.5179085730138231
 50
218.1204197972055
 51
321.8795802027886
 73
     1
 97
        4
330
25E
330
25B
330
25C
330
25D
 75
     1
 76
     0
 52
45.0
 41
0.1
 77
     0
 78
     1
 53
45.0
 43
0.0
 44
0.0
 45
-0.0707106781186548
 46
0.0707106781186548
 79
     0
 98
        1
 10
0.0
 20
0.0
  0
HATCH
  5
29A
330
71
100
AcDbEntity
  8
1
  6
Continuous
 62
     2
100
AcDbHatch
 10
0.0
 20
0.0
 30
0.0
210
0.0
220
0.0
230
1.0
  2
_USER
 70
     0
 71
     1
 91
        2
 92
        1
 93
        4
 72
     2
 10
84.04658413553548
 20
341.8943297221979
 40
2.065479772208492
 50
62.45185182430527
 51
117.5481481756675
 73
     1
 72
     2
 10
83.76564424370218
 20
342.4329047325007
 40
1.458034083651415
 50
117.548148175664
 51
242.451851824337
 73
     1
 72
     2
 10
84.04658413553548
 20
342.9714797428039
 40
2.065479772208433
 50
242.4518518243391
 51
297.5481481756882
 73
     1
 72
     2
 10
84.32752402736878
 20
342.4329047325007
 40
1.458034083651977
 50
297.5481481757016
 51
422.4518518242974
 73
     1
 97
        4
330
242
330
241
330
243
330
240
 92
       16
 93
        4
 72
     2
 10
83.84684409918907
 20
342.4329047325007
 40
0.7717997786797649
 50
321.8795802028351
 51
398.1204197971483
 73
     1
 72
     2
 10
84.04658413553548
 20
342.5896359106212
 40
0.5179085730132297
 50
38.12041979713714
 51
141.8795802028687
 73
     1
 72
     2
 10
84.24632417188158
 20
342.4329047325007
 40
0.7717997786794106
 50
141.8795802028413
 51
218.1204197971753
 73
     1
 72
     2
 10
84.04658413553548
 20
342.2761735543807
 40
0.5179085730138231
 50
218.1204197972055
 51
321.8795802027886
 73
     1
 97
        4
330
25E
330
25B
330
25C
330
25D
 75
     1
 76
     0
 52
45.0
 41
0.1
 77
     0
 78
     1
 53
45.0
 43
0.0
 44
0.0
 45
-0.0707106781186548
 46
0.0707106781186548
 79
     0
 98
        1
 10
0.0
 20
0.0
  0
HATCH
  5
29B
330
71
100
AcDbEntity
  8
1
  6
Continuous
 62
     2
100
AcDbHatch
 10
0.0
 20
0.0
 30
0.0
210
0.0
220
0.0
230
1.0
  2
_USER
 70
     0
 71
     1
 91
        2
 92
        1
 93
       12
 72
     1
 10
90.94157932994477
 20
346.6209863651379
 11
89.6056515035171
 21
346.6209863651379
 72
     1
 10
89.6056515035171
 20
346.6209863651379
 11
89.6056515035171
 21
346.1411020113961
 72
     1
 10
89.6056515035171
 20
346.1411020113961
 11
90.94157932994477
 21
346.1411020113961
 72
     1
 10
90.94157932994477
 20
346.1411020113961
 11
90.94157932994477
 21
345.4430884059539
 72
     1
 10
90.94157932994477
 20
345.4430884059539
 11
89.6056515035171
 21
345.4430884059539
 72
     1
 10
89.6056515035171
 20
345.4430884059539
 11
89.6056515035171
 21
344.9632040522122
 72
     1
 10
89.6056515035171
 20
344.9632040522122
 11
90.94157932994477
 21
344.9632040522122
 72
     1
 10
90.94157932994477
 20
344.9632040522122
 11
90.94157932994477
 21
344.2651904467697
 72
     1
 10
90.94157932994477
 20
344.2651904467697
 11
87.79125960616378
 21
344.2651904467697
 72
     2
 10
87.79125960616378
 20
345.7920952086749
 40
1.526904761905996
 50
90.0
 51
270.0
 73
     0
 72
     1
 10
87.79125960616378
 20
347.3189999705809
 11
90.94157932994477
 21
347.3189999705809
 72
     1
 10
90.94157932994477
 20
347.3189999705809
 11
90.94157932994477
 21
346.6209863651379
 97
       12
330
1F9
330
24B
330
1FA
330
1FB
330
1FC
330
1FD
330
1DA
330
1D9
330
1D8
330
1D7
330
1FE
330
1F8
 92
       16
 93
        4
 72
     2
 10
88.00753161632898
 20
345.9488263867954
 40
0.5179085730135616
 50
38.12041979714829
 51
141.879580202844
 73
     1
 72
     2
 10
88.20727165267527
 20
345.7920952086749
 40
0.7717997786797426
 50
141.8795802028338
 51
218.1204197971529
 73
     1
 72
     2
 10
88.00753161632898
 20
345.6353640305546
 40
0.5179085730135072
 50
218.120419797161
 51
321.8795802028467
 73
     1
 72
     2
 10
87.80779157998279
 20
345.7920952086749
 40
0.7717997786796023
 50
321.8795802028471
 51
398.1204197971662
 73
     1
 97
        4
330
245
330
244
330
23F
330
23E
 75
     1
 76
     0
 52
45.0
 41
0.1
 77
     0
 78
     1
 53
45.0
 43
0.0
 44
0.0
 45
-0.0707106781186548
 46
0.0707106781186548
 79
     0
 98
        1
 10
0.0
 20
0.0
  0
HATCH
  5
29C
330
71
100
AcDbEntity
  8
1
  6
Continuous
 62
     2
100
AcDbHatch
 10
0.0
 20
0.0
 30
0.0
210
0.0
220
0.0
230
1.0
  2
_USER
 70
     0
 71
     1
 91
        2
 92
        1
 93
       12
 72
     1
 10
90.94157932994477
 20
346.6209863651379
 11
89.6056515035171
 21
346.6209863651379
 72
     1
 10
89.6056515035171
 20
346.6209863651379
 11
89.6056515035171
 21
346.1411020113961
 72
     1
 10
89.6056515035171
 20
346.1411020113961
 11
90.94157932994477
 21
346.1411020113961
 72
     1
 10
90.94157932994477
 20
346.1411020113961
 11
90.94157932994477
 21
345.4430884059539
 72
     1
 10
90.94157932994477
 20
345.4430884059539
 11
89.6056515035171
 21
345.4430884059539
 72
     1
 10
89.6056515035171
 20
345.4430884059539
 11
89.6056515035171
 21
344.9632040522122
 72
     1
 10
89.6056515035171
 20
344.9632040522122
 11
90.94157932994477
 21
344.9632040522122
 72
     1
 10
90.94157932994477
 20
344.9632040522122
 11
90.94157932994477
 21
344.2651904467697
 72
     1
 10
90.94157932994477
 20
344.2651904467697
 11
87.79125960616378
 21
344.2651904467697
 72
     2
 10
87.79125960616378
 20
345.7920952086749
 40
1.526904761905996
 50
90.0
 51
270.0
 73
     0
 72
     1
 10
87.79125960616378
 20
347.3189999705809
 11
90.94157932994477
 21
347.3189999705809
 72
     1
 10
90.94157932994477
 20
347.3189999705809
 11
90.94157932994477
 21
346.6209863651379
 97
       12
330
1F9
330
24B
330
1FA
330
1FB
330
1FC
330
1FD
330
1DA
330
1D9
330
1D8
330
1D7
330
1FE
330
1F8
 92
       16
 93
        4
 72
     2
 10
88.00753161632898
 20
345.9488263867954
 40
0.5179085730135616
 50
38.12041979714829
 51
141.879580202844
 73
     1
 72
     2
 10
88.20727165267527
 20
345.7920952086749
 40
0.7717997786797426
 50
141.8795802028338
 51
218.1204197971529
 73
     1
 72
     2
 10
88.00753161632898
 20
345.6353640305546
 40
0.5179085730135072
 50
218.120419797161
 51
321.8795802028467
 73
     1
 72
     2
 10
87.80779157998279
 20
345.7920952086749
 40
0.7717997786796023
 50
321.8795802028471
 51
398.1204197971662
 73
     1
 97
        4
330
245
330
244
330
23F
330
23E
 75
     1
 76
     0
 52
45.0
 41
0.1
 77
     0
 78
     1
 53
45.0
 43
0.0
 44
0.0
 45
-0.0707106781186548
 46
0.0707106781186548
 79
     0
 98
        1
 10
0.0
 20
0.0
  0
HATCH
  5
29D
330
71
100
AcDbEntity
  8
1
  6
Continuous
 62
     2
100
AcDbHatch
 10
0.0
 20
0.0
 30
0.0
210
0.0
220
0.0
230
1.0
  2
_USER
 70
     0
 71
     1
 91
        4
 92
        1
 93
        8
 72
     1
 10
79.01365230827517
 20
346.8947553551789
 11
79.01365230827517
 21
341.3302445859787
 72
     2
 10
78.58940769289129
 20
341.3302445859787
 40
0.4242446153832589
 50
0.0
 51
90.0
 73
     0
 72
     1
 10
78.58940769289129
 20
340.9059999705954
 11
73.11609560217448
 21
340.9059999705954
 72
     2
 10
73.11609560217448
 20
341.3302445859787
 40
0.4242446153828041
 50
90.0
 51
180.0
 73
     0
 72
     1
 10
72.69185098679168
 20
341.3302445859787
 11
72.69185098679168
 21
346.8947553551789
 72
     2
 10
73.11609560217448
 20
346.8947553551789
 40
0.4242446153837705
 50
180.0
 51
270.0
 73
     0
 72
     1
 10
73.11609560217448
 20
347.3189999705627
 11
78.58940769289129
 21
347.3189999705627
 72
     2
 10
78.58940769289129
 20
346.8947553551789
 40
0.4242446153838841
 50
270.0
 51
360.0
 73
     0
 97
        8
330
1ED
330
23B
330
1EE
330
246
330
1EB
330
23D
330
1EC
330
23C
 92
       16
 93
        1
 72
     2
 10
75.73568125269199
 20
344.5758731268234
 40
0.4709789327785074
 50
0.0
 51
360.0
 73
     1
 97
        1
330
261
 92
       16
 93
        8
 72
     2
 10
76.28553896545267
 20
343.4667315268549
 40
0.3157169230765842
 50
115.3740086783474
 51
180.0
 73
     1
 72
     1
 10
75.96982204237588
 20
343.4667315268549
 11
75.96982204237588
 21
342.8848801201599
 72
     2
 10
76.28553896545267
 20
342.8848801201599
 40
0.315716923076792
 50
180.0
 51
269.8110329574542
 73
     1
 72
     2
 10
76.2911551007627
 20
344.5877150677288
 40
2.018561131933266
 50
269.8110329575858
 51
450.1889670424142
 73
     1
 72
     2
 10
76.28553896545267
 20
346.290550015298
 40
0.3157169230759573
 50
90.188967042546
 51
180.0
 73
     1
 72
     1
 10
75.96982204237588
 20
346.290550015298
 11
75.96982204237588
 21
345.6850147267912
 72
     2
 10
76.28553896545267
 20
345.6850147267912
 40
0.315716923076792
 50
180.0
 51
244.6259913216482
 73
     1
 72
     2
 10
75.7594962673648
 20
344.5758731268234
 40
0.9118481501444847
 50
295.3740086781925
 51
424.6259913218244
 73
     0
 97
        8
330
253
330
1B4
330
250
330
251
330
22F
330
1B3
330
252
330
22E
 92
       16
 93
       12
 72
     2
 10
73.70999027892097
 20
341.934272449229
 40
0.3157169230756836
 50
180.0
 51
270.0
 73
     1
 72
     1
 10
73.70999027892097
 20
341.6185555261523
 11
75.1858235399306
 21
341.6185555261523
 72
     2
 10
75.1858235399306
 20
341.934272449229
 40
0.3157169230767067
 50
270.0
 51
360.0
 73
     1
 72
     1
 10
75.50154046300719
 20
341.934272449229
 11
75.50154046300719
 21
343.4650433807606
 72
     2
 10
75.1858235399306
 20
343.4650433807606
 40
0.315716923076593
 50
0.0
 51
64.8055893514515
 73
     1
 72
     2
 10
75.70840798750558
 20
344.5758731268234
 40
0.911897523557486
 50
115.1944106485092
 51
244.805589351468
 73
     0
 72
     2
 10
75.1858235399306
 20
345.6867028728856
 40
0.3157169230762231
 50
295.1944106485309
 51
360.0
 73
     1
 72
     1
 10
75.50154046300719
 20
345.6867028728856
 11
75.50154046300719
 21
346.2907274919461
 72
     2
 10
75.1858235399306
 20
346.2907274919461
 40
0.315716923076593
 50
0.0
 51
90.0
 73
     1
 72
     1
 10
75.1858235399306
 20
346.6064444150222
 11
73.70999027892097
 21
346.6064444150222
 72
     2
 10
73.70999027892097
 20
346.2907274919461
 40
0.3157169230761383
 50
90.0
 51
180.0
 73
     1
 72
     1
 10
73.39427335584529
 20
346.2907274919461
 11
73.39427335584529
 21
341.934272449229
 97
       12
330
237
330
1EF
330
23A
330
1EA
330
247
330
248
330
239
330
1E9
330
238
330
1E8
330
249
330
1E7
 75
     1
 76
     0
 52
45.0
 41
0.1
 77
     0
 78
     1
 53
45.0
 43
0.0
 44
0.0
 45
-0.0707106781186548
 46
0.0707106781186548
 79
     0
 98
        1
 10
0.0
 20
0.0
  0
HATCH
  5
29E
330
71
100
AcDbEntity
  8
1
  6
Continuous
 62
     2
100
AcDbHatch
 10
0.0
 20
0.0
 30
0.0
210
0.0
220
0.0
230
1.0
  2
_USER
 70
     0
 71
     1
 91
        4
 92
        1
 93
        8
 72
     1
 10
79.01365230827517
 20
346.8947553551789
 11
79.01365230827517
 21
341.3302445859787
 72
     2
 10
78.58940769289129
 20
341.3302445859787
 40
0.4242446153832589
 50
0.0
 51
90.0
 73
     0
 72
     1
 10
78.58940769289129
 20
340.9059999705954
 11
73.11609560217448
 21
340.9059999705954
 72
     2
 10
73.11609560217448
 20
341.3302445859787
 40
0.4242446153828041
 50
90.0
 51
180.0
 73
     0
 72
     1
 10
72.69185098679168
 20
341.3302445859787
 11
72.69185098679168
 21
346.8947553551789
 72
     2
 10
73.11609560217448
 20
346.8947553551789
 40
0.4242446153837705
 50
180.0
 51
270.0
 73
     0
 72
     1
 10
73.11609560217448
 20
347.3189999705627
 11
78.58940769289129
 21
347.3189999705627
 72
     2
 10
78.58940769289129
 20
346.8947553551789
 40
0.4242446153838841
 50
270.0
 51
360.0
 73
     0
 97
        8
330
1ED
330
23B
330
1EE
330
246
330
1EB
330
23D
330
1EC
330
23C
 92
       16
 93
        1
 72
     2
 10
75.73568125269199
 20
344.5758731268234
 40
0.4709789327785074
 50
0.0
 51
360.0
 73
     1
 97
        1
330
261
 92
       16
 93
        8
 72
     2
 10
76.28553896545267
 20
343.4667315268549
 40
0.3157169230765842
 50
115.3740086783474
 51
180.0
 73
     1
 72
     1
 10
75.96982204237588
 20
343.4667315268549
 11
75.96982204237588
 21
342.8848801201599
 72
     2
 10
76.28553896545267
 20
342.8848801201599
 40
0.315716923076792
 50
180.0
 51
269.8110329574542
 73
     1
 72
     2
 10
76.2911551007627
 20
344.5877150677288
 40
2.018561131933266
 50
269.8110329575858
 51
450.1889670424142
 73
     1
 72
     2
 10
76.28553896545267
 20
346.290550015298
 40
0.3157169230759573
 50
90.188967042546
 51
180.0
 73
     1
 72
     1
 10
75.96982204237588
 20
346.290550015298
 11
75.96982204237588
 21
345.6850147267912
 72
     2
 10
76.28553896545267
 20
345.6850147267912
 40
0.315716923076792
 50
180.0
 51
244.6259913216482
 73
     1
 72
     2
 10
75.7594962673648
 20
344.5758731268234
 40
0.9118481501444847
 50
295.3740086781925
 51
424.6259913218244
 73
     0
 97
        8
330
253
330
1B4
330
250
330
251
330
22F
330
1B3
330
252
330
22E
 92
       16
 93
       12
 72
     2
 10
73.70999027892097
 20
341.934272449229
 40
0.3157169230756836
 50
180.0
 51
270.0
 73
     1
 72
     1
 10
73.70999027892097
 20
341.6185555261523
 11
75.1858235399306
 21
341.6185555261523
 72
     2
 10
75.1858235399306
 20
341.934272449229
 40
0.3157169230767067
 50
270.0
 51
360.0
 73
     1
 72
     1
 10
75.50154046300719
 20
341.934272449229
 11
75.50154046300719
 21
343.4650433807606
 72
     2
 10
75.1858235399306
 20
343.4650433807606
 40
0.315716923076593
 50
0.0
 51
64.8055893514515
 73
     1
 72
     2
 10
75.70840798750558
 20
344.5758731268234
 40
0.911897523557486
 50
115.1944106485092
 51
244.805589351468
 73
     0
 72
     2
 10
75.1858235399306
 20
345.6867028728856
 40
0.3157169230762231
 50
295.1944106485309
 51
360.0
 73
     1
 72
     1
 10
75.50154046300719
 20
345.6867028728856
 11
75.50154046300719
 21
346.2907274919461
 72
     2
 10
75.1858235399306
 20
346.2907274919461
 40
0.315716923076593
 50
0.0
 51
90.0
 73
     1
 72
     1
 10
75.1858235399306
 20
346.6064444150222
 11
73.70999027892097
 21
346.6064444150222
 72
     2
 10
73.70999027892097
 20
346.2907274919461
 40
0.3157169230761383
 50
90.0
 51
180.0
 73
     1
 72
     1
 10
73.39427335584529
 20
346.2907274919461
 11
73.39427335584529
 21
341.934272449229
 97
       12
330
237
330
1EF
330
23A
330
1EA
330
247
330
248
330
239
330
1E9
330
238
330
1E8
330
249
330
1E7
 75
     1
 76
     0
 52
45.0
 41
0.1
 77
     0
 78
     1
 53
45.0
 43
0.0
 44
0.0
 45
-0.0707106781186548
 46
0.0707106781186548
 79
     0
 98
        1
 10
0.0
 20
0.0
  0
HATCH
  5
29F
330
71
100
AcDbEntity
  8
1
  6
Continuous
 62
     2
100
AcDbHatch
 10
0.0
 20
0.0
 30
0.0
210
0.0
220
0.0
230
1.0
  2
_USER
 70
     0
 71
     1
 91
        1
 92
        1
 93
       18
 72
     1
 10
100.6032002174962
 20
343.1745441882829
 11
99.7921011800228
 21
343.1745441882829
 72
     1
 10
99.7921011800228
 20
343.1745441882829
 11
99.7921011800228
 21
340.9059999705954
 72
     1
 10
99.7921011800228
 20
340.9059999705954
 11
98.59930847785509
 21
340.9059999705954
 72
     1
 10
98.59930847785509
 20
340.9059999705954
 11
98.59930847785509
 21
343.1745441882829
 72
     1
 10
98.59930847785509
 20
343.1745441882829
 11
97.49566917828699
 21
343.1745441882829
 72
     2
 10
97.49566917828699
 20
342.2200211814568
 40
0.9545230068260935
 50
90.0
 51
109.3371432194309
 73
     1
 72
     2
 10
97.34899918018328
 20
342.6379761618397
 40
0.511580060194468
 50
109.3371432194832
 51
151.4785267424197
 73
     1
 72
     2
 10
97.72635643826467
 20
342.4329047325007
 40
0.941059735334906
 50
151.4785267423609
 51
208.5214732576695
 73
     1
 72
     2
 10
97.34899918018328
 20
342.2278333031621
 40
0.5115800601959674
 50
208.5214732576754
 51
246.6277221118399
 73
     1
 72
     2
 10
97.50543921288639
 20
342.5898253218721
 40
0.9059297849852278
 50
246.6277221118168
 51
288.4480761180828
 73
     1
 72
     2
 10
97.08727147922448
 20
343.8433710979087
 40
2.227384008972665
 50
288.4480761181342
 51
301.9309089499409
 73
     1
 72
     1
 10
98.2653265212484
 20
341.953020378759
 11
98.2653265212484
 21
341.0805033719556
 72
     2
 10
96.92939860413168
 20
345.7455856777571
 40
4.852596863498825
 50
74.0200087416616
 51
84.84185523036365
 73
     0
 72
     2
 10
97.2182546988675
 20
342.5456950945355
 40
1.639695123940448
 50
84.8418552303238
 51
164.9381082228988
 73
     0
 72
     2
 10
96.79912685540589
 20
342.4329047325007
 40
1.205656168392973
 50
164.9381082229054
 51
195.061891777092
 73
     0
 72
     2
 10
97.2182546988675
 20
342.3201143704657
 40
1.639695123940157
 50
195.0618917771031
 51
270.0
 73
     0
 72
     1
 10
97.2182546988675
 20
343.9598094944059
 11
100.6032002174962
 21
343.9598094944064
 72
     1
 10
100.6032002174962
 20
343.9598094944064
 11
100.6032002174962
 21
343.1745441882829
 97
       18
330
1B6
330
24C
330
24D
330
235
330
234
330
21A
330
233
330
232
330
24E
330
231
330
24F
330
230
330
21B
330
1B5
330
1BA
330
1B9
330
1B8
330
1B7
 75
     1
 76
     0
 52
45.0
 41
0.1
 77
     0
 78
     1
 53
45.0
 43
0.0
 44
0.0
 45
-0.0707106781186548
 46
0.0707106781186548
 79
     0
 98
        1
 10
0.0
 20
0.0
  0
HATCH
  5
2A0
330
71
100
AcDbEntity
  8
1
  6
Continuous
 62
     2
100
AcDbHatch
 10
0.0
 20
0.0
 30
0.0
210
0.0
220
0.0
230
1.0
  2
_USER
 70
     0
 71
     1
 91
        1
 92
        1
 93
       18
 72
     1
 10
100.6032002174962
 20
343.1745441882829
 11
99.7921011800228
 21
343.1745441882829
 72
     1
 10
99.7921011800228
 20
343.1745441882829
 11
99.7921011800228
 21
340.9059999705954
 72
     1
 10
99.7921011800228
 20
340.9059999705954
 11
98.59930847785509
 21
340.9059999705954
 72
     1
 10
98.59930847785509
 20
340.9059999705954
 11
98.59930847785509
 21
343.1745441882829
 72
     1
 10
98.59930847785509
 20
343.1745441882829
 11
97.49566917828699
 21
343.1745441882829
 72
     2
 10
97.49566917828699
 20
342.2200211814568
 40
0.9545230068260935
 50
90.0
 51
109.3371432194309
 73
     1
 72
     2
 10
97.34899918018328
 20
342.6379761618397
 40
0.511580060194468
 50
109.3371432194832
 51
151.4785267424197
 73
     1
 72
     2
 10
97.72635643826467
 20
342.4329047325007
 40
0.941059735334906
 50
151.4785267423609
 51
208.5214732576695
 73
     1
 72
     2
 10
97.34899918018328
 20
342.2278333031621
 40
0.5115800601959674
 50
208.5214732576754
 51
246.6277221118399
 73
     1
 72
     2
 10
97.50543921288639
 20
342.5898253218721
 40
0.9059297849852278
 50
246.6277221118168
 51
288.4480761180828
 73
     1
 72
     2
 10
97.08727147922448
 20
343.8433710979087
 40
2.227384008972665
 50
288.4480761181342
 51
301.9309089499409
 73
     1
 72
     1
 10
98.2653265212484
 20
341.953020378759
 11
98.2653265212484
 21
341.0805033719556
 72
     2
 10
96.92939860413168
 20
345.7455856777571
 40
4.852596863498825
 50
74.0200087416616
 51
84.84185523036365
 73
     0
 72
     2
 10
97.2182546988675
 20
342.5456950945355
 40
1.639695123940448
 50
84.8418552303238
 51
164.9381082228988
 73
     0
 72
     2
 10
96.79912685540589
 20
342.4329047325007
 40
1.205656168392973
 50
164.9381082229054
 51
195.061891777092
 73
     0
 72
     2
 10
97.2182546988675
 20
342.3201143704657
 40
1.639695123940157
 50
195.0618917771031
 51
270.0
 73
     0
 72
     1
 10
97.2182546988675
 20
343.9598094944059
 11
100.6032002174962
 21
343.9598094944064
 72
     1
 10
100.6032002174962
 20
343.9598094944064
 11
100.6032002174962
 21
343.1745441882829
 97
       18
330
1B6
330
24C
330
24D
330
235
330
234
330
21A
330
233
330
232
330
24E
330
231
330
24F
330
230
330
21B
330
1B5
330
1BA
330
1B9
330
1B8
330
1B7
 75
     1
 76
     0
 52
45.0
 41
0.1
 77
     0
 78
     1
 53
45.0
 43
0.0
 44
0.0
 45
-0.0707106781186548
 46
0.0707106781186548
 79
     0
 98
        1
 10
0.0
 20
0.0
  0
HATCH
  5
2A1
330
71
100
AcDbEntity
  8
1
  6
Continuous
 62
     2
100
AcDbHatch
 10
0.0
 20
0.0
 30
0.0
210
0.0
220
0.0
230
1.0
  2
_USER
 70
     0
 71
     1
 91
        1
 92
        1
 93
       14
 72
     2
 10
81.11555321961458
 20
342.3201143704657
 40
1.639695123940563
 50
84.84185523036254
 51
164.9381082228884
 73
     1
 72
     2
 10
80.69642537615178
 20
342.4329047325007
 40
1.205656168390914
 50
164.9381082228817
 51
195.0618917770948
 73
     1
 72
     2
 10
81.11555321961458
 20
342.5456950945355
 40
1.639695123939395
 50
195.0618917770906
 51
275.1581447696393
 73
     1
 72
     2
 10
80.82669712487868
 20
345.7455856777571
 40
4.852596863498223
 50
275.1581447696248
 51
285.9799912583526
 73
     1
 72
     1
 10
82.16262504199648
 20
341.0805033719562
 11
82.16262504199648
 21
341.9530203787595
 72
     2
 10
80.9845699999716
 20
343.8433710979093
 40
2.227384008972656
 50
58.06909105003953
 51
71.55192388186651
 73
     0
 72
     2
 10
81.40273773363239
 20
342.5898253218721
 40
0.905929784984867
 50
71.55192388183985
 51
113.3722778881304
 73
     0
 72
     2
 10
81.24629770093037
 20
342.2278333031621
 40
0.5115800601948034
 50
113.3722778881777
 51
151.4785267423044
 73
     0
 72
     2
 10
81.62365495901068
 20
342.4329047325007
 40
0.9410597353332545
 50
151.4785267422882
 51
208.5214732577331
 73
     0
 72
     2
 10
81.24629770093037
 20
342.6379761618397
 40
0.511580060194904
 50
208.5214732576956
 51
246.6277221118021
 73
     0
 72
     2
 10
81.40273773363239
 20
342.2759841431291
 40
0.9059297849852149
 50
246.627722111871
 51
288.4480761181488
 73
     0
 72
     2
 10
80.9845699999716
 20
341.0224383670925
 40
2.227384008973501
 50
288.4480761181335
 51
301.9309089499589
 73
     0
 72
     1
 10
82.16262504199648
 20
342.9127890862424
 11
82.16262504199648
 21
343.7853060930456
 72
     2
 10
80.82669712487868
 20
339.1202237872448
 40
4.852596863497986
 50
74.0200087416471
 51
84.84185523037502
 73
     1
 97
       14
330
254
330
255
330
256
330
257
330
21C
330
22D
330
22C
330
22B
330
258
330
259
330
22A
330
25A
330
21D
330
229
 75
     1
 76
     0
 52
45.0
 41
0.1
 77
     0
 78
     1
 53
45.0
 43
0.0
 44
0.0
 45
-0.0707106781186548
 46
0.0707106781186548
 79
     0
 98
        1
 10
0.0
 20
0.0
  0
HATCH
  5
2A2
330
71
100
AcDbEntity
  8
1
  6
Continuous
 62
     2
100
AcDbHatch
 10
0.0
 20
0.0
 30
0.0
210
0.0
220
0.0
230
1.0
  2
_USER
 70
     0
 71
     1
 91
        1
 92
        1
 93
       14
 72
     2
 10
81.11555321961458
 20
342.3201143704657
 40
1.639695123940563
 50
84.84185523036254
 51
164.9381082228884
 73
     1
 72
     2
 10
80.69642537615178
 20
342.4329047325007
 40
1.205656168390914
 50
164.9381082228817
 51
195.0618917770948
 73
     1
 72
     2
 10
81.11555321961458
 20
342.5456950945355
 40
1.639695123939395
 50
195.0618917770906
 51
275.1581447696393
 73
     1
 72
     2
 10
80.82669712487868
 20
345.7455856777571
 40
4.852596863498223
 50
275.1581447696248
 51
285.9799912583526
 73
     1
 72
     1
 10
82.16262504199648
 20
341.0805033719562
 11
82.16262504199648
 21
341.9530203787595
 72
     2
 10
80.9845699999716
 20
343.8433710979093
 40
2.227384008972656
 50
58.06909105003953
 51
71.55192388186651
 73
     0
 72
     2
 10
81.40273773363239
 20
342.5898253218721
 40
0.905929784984867
 50
71.55192388183985
 51
113.3722778881304
 73
     0
 72
     2
 10
81.24629770093037
 20
342.2278333031621
 40
0.5115800601948034
 50
113.3722778881777
 51
151.4785267423044
 73
     0
 72
     2
 10
81.62365495901068
 20
342.4329047325007
 40
0.9410597353332545
 50
151.4785267422882
 51
208.5214732577331
 73
     0
 72
     2
 10
81.24629770093037
 20
342.6379761618397
 40
0.511580060194904
 50
208.5214732576956
 51
246.6277221118021
 73
     0
 72
     2
 10
81.40273773363239
 20
342.2759841431291
 40
0.9059297849852149
 50
246.627722111871
 51
288.4480761181488
 73
     0
 72
     2
 10
80.9845699999716
 20
341.0224383670925
 40
2.227384008973501
 50
288.4480761181335
 51
301.9309089499589
 73
     0
 72
     1
 10
82.16262504199648
 20
342.9127890862424
 11
82.16262504199648
 21
343.7853060930456
 72
     2
 10
80.82669712487868
 20
339.1202237872448
 40
4.852596863497986
 50
74.0200087416471
 51
84.84185523037502
 73
     1
 97
       14
330
254
330
255
330
256
330
257
330
21C
330
22D
330
22C
330
22B
330
258
330
259
330
22A
330
25A
330
21D
330
229
 75
     1
 76
     0
 52
45.0
 41
0.1
 77
     0
 78
     1
 53
45.0
 43
0.0
 44
0.0
 45
-0.0707106781186548
 46
0.0707106781186548
 79
     0
 98
        1
 10
0.0
 20
0.0
  0
ENDBLK
  5
73
330
71
100
AcDbEntity
  8
0
100
AcDbBlockEnd
  0
BLOCK
  5
75
330
74
100
AcDbEntity
  8
0
100
AcDbBlockBegin
  2
_punkt
 70
     0
 10
198.0000006269791
 20
333.6124999705791
 30
0.0
  3
_punkt
  1

  0
LINE
  5
2A3
330
74
100
AcDbEntity
  8
1
  6
Continuous
 62
     2
100
AcDbLine
 10
198.0000006269791
 20
333.6124999705791
 30
0.0
 11
203.0000006269781
 21
333.6124999705791
 31
0.0
  0
LINE
  5
2A4
330
74
100
AcDbEntity
  8
1
  6
Continuous
 62
     2
100
AcDbLine
 10
198.0000006269791
 20
333.6124999705791
 30
0.0
 11
198.0000006269791
 21
328.6124999705789
 31
0.0
  0
ENDBLK
  5
76
330
74
100
AcDbEntity
  8
0
100
AcDbBlockEnd
  0
BLOCK
  5
7A
330
77
100
AcDbEntity
  8
0
100
AcDbBlockBegin
  2
A4I_CS
 70
     0
 10
198.0000006269791
 20
328.6124999705789
 30
0.0
  3
A4I_CS
  1

  0
INSERT
  5
78
330
77
100
AcDbEntity
  8
1
100
AcDbBlockReference
  2
_rahmen
 10
198.0000006269791
 20
328.6124999705789
 30
0.0
  0
INSERT
  5
79
330
77
100
AcDbEntity
  8
1
100
AcDbBlockReference
  2
_punkt
 10
198.0000006269791
 20
333.6124999705791
 30
0.0
  0
ENDBLK
  5
7B
330
77
100
AcDbEntity
  8
0
100
AcDbBlockEnd
  0
BLOCK
  5
84
330
7C
100
AcDbEntity
  8
0
100
AcDbBlockBegin
  2
1
 70
     0
 10
0.0
 20
0.0
 30
0.0
  3
1
  1

  0
INSERT
  5
7D
330
7C
100
AcDbEntity
  8
0
100
AcDbBlockReference
  2
Allg1
 10
138.0000000000639
 20
407.999999999996
 30
0.0
 41
2.0
 42
2.0
 43
2.0
  0
INSERT
  5
7E
330
7C
100
AcDbEntity
  8
0
100
AcDbBlockReference
  2
Drfsicht1
 10
23.0
 20
405.00000000014
 30
0.0
 41
2.0
 42
2.0
 43
2.0
  0
INSERT
  5
7F
330
7C
100
AcDbEntity
  8
0
100
AcDbBlockReference
  2
Rckans1
 10
159.5976087599792
 20
484.5988051907528
 30
0.0
 41
2.0
 42
2.0
 43
2.0
  0
INSERT
  5
80
330
7C
100
AcDbEntity
  8
0
100
AcDbBlockReference
  2
SA_Links1
 10
94.2988043799896
 20
484.5988051907528
 30
0.0
 41
2.0
 42
2.0
 43
2.0
  0
INSERT
  5
81
330
7C
100
AcDbEntity
  8
0
100
AcDbBlockReference
  2
SA_Rechts1
 10
-64.29880437998924
 20
484.598805190753
 30
0.0
 41
2.0
 42
2.0
 43
2.0
  0
INSERT
  5
82
330
7C
100
AcDbEntity
  8
0
100
AcDbBlockReference
  2
Vordans1
 10
22.9999999999999
 20
484.598805190753
 30
0.0
 41
2.0
 42
2.0
 43
2.0
  0
INSERT
  5
83
330
7C
100
AcDbEntity
  8
0
100
AcDbBlockReference
  2
A4I_CS
 10
198.0000006269791
 20
328.6124999705789
 30
0.0
  0
ENDBLK
  5
85
330
7C
100
AcDbEntity
  8
0
100
AcDbBlockEnd
  0
BLOCK
  5
FA
330
F3
100
AcDbEntity
  8
0
100
AcDbBlockBegin
  2
*D17
 70
     1
 10
0.0
 20
0.0
 30
0.0
  3
*D17
  1

  0
LINE
  5
F4
330
F3
100
AcDbEntity
  8
1
  6
Continuous
 62
     2
100
AcDbLine
 10
-10.49999985694888
 20
192.3505985801052
 30
0.0
 11
-10.49999985694888
 21
212.6494017840112
 31
0.0
  0
LINE
  5
F5
330
F3
100
AcDbEntity
  8
1
  6
Continuous
 62
     2
100
AcDbLine
 10
-3.39999985694889
 20
192.3505985801052
 30
0.0
 11
-11.24999985694888
 21
192.3505985801052
 31
0.0
  0
LINE
  5
F6
330
F3
100
AcDbEntity
  8
1
  6
Continuous
 62
     2
100
AcDbLine
 10
-5.49999985694888
 20
212.6494017840112
 30
0.0
 11
-11.24999985694888
 21
212.6494017840112
 31
0.0
  0
SOLID
  5
F7
330
F3
100
AcDbEntity
  8
1
 62
     2
100
AcDbTrace
 10
-10.73039172772682
 20
194.1005985801052
 30
0.0
 11
-10.26960798617094
 21
194.1005985801052
 31
0.0
 12
-10.49999985694888
 22
192.3505985801052
 32
0.0
 13
-10.49999985694888
 23
192.3505985801052
 33
0.0
  0
SOLID
  5
F8
330
F3
100
AcDbEntity
  8
1
 62
     2
100
AcDbTrace
 10
-10.26960798617094
 20
210.8994017840112
 30
0.0
 11
-10.73039172772682
 21
210.8994017840112
 31
0.0
 12
-10.49999985694888
 22
212.6494017840112
 32
0.0
 13
-10.49999985694888
 23
212.6494017840112
 33
0.0
  0
MTEXT
  5
F9
330
F3
100
AcDbEntity
  8
1
 62
     3
100
AcDbMText
 10
-11.42499985694888
 20
199.8710398694595
 30
0.0
 40
1.75
 41
0.0
 71
     7
 72
     1
  1
20,3
  7
CONVERTER_11
 11
0.0
 21
1.0
 31
0.0
 73
     1
 44
0.60024009603842
  0
ENDBLK
  5
FB
330
F3
100
AcDbEntity
  8
0
100
AcDbBlockEnd
  0
BLOCK
  5
152
330
14B
100
AcDbEntity
  8
0
100
AcDbBlockBegin
  2
*D18
 70
     1
 10
0.0
 20
0.0
 30
0.0
  3
*D18
  1

  0
LINE
  5
14C
330
14B
100
AcDbEntity
  8
1
  6
Continuous
 62
     2
100
AcDbLine
 10
-5.49999985694894
 20
229.269137695547
 30
0.0
 11
28.50000014305101
 21
229.269137695547
 31
0.0
  0
LINE
  5
14D
330
14B
100
AcDbEntity
  8
1
  6
Continuous
 62
     2
100
AcDbLine
 10
-5.49999985694893
 20
244.6762625809176
 30
0.0
 11
-5.49999985694893
 21
228.519137695547
 31
0.0
  0
LINE
  5
14E
330
14B
100
AcDbEntity
  8
1
  6
Continuous
 62
     2
100
AcDbLine
 10
28.50000014305101
 20
244.6762625809176
 30
0.0
 11
28.50000014305101
 21
228.519137695547
 31
0.0
  0
SOLID
  5
14F
330
14B
100
AcDbEntity
  8
1
 62
     2
100
AcDbTrace
 10
-3.74999985694894
 20
229.4995295663249
 30
0.0
 11
-3.74999985694894
 21
229.0387458247691
 31
0.0
 12
-5.49999985694894
 22
229.269137695547
 32
0.0
 13
-5.49999985694894
 23
229.269137695547
 33
0.0
  0
SOLID
  5
150
330
14B
100
AcDbEntity
  8
1
 62
     2
100
AcDbTrace
 10
26.75000014305101
 20
229.0387458247691
 30
0.0
 11
26.75000014305101
 21
229.4995295663249
 31
0.0
 12
28.50000014305101
 22
229.269137695547
 32
0.0
 13
28.50000014305101
 23
229.269137695547
 33
0.0
  0
MTEXT
  5
151
330
14B
100
AcDbEntity
  8
1
 62
     3
100
AcDbMText
 10
10.1875
 20
230.019137695547
 30
0.0
 40
1.75
 41
0.0
 71
     7
 72
     1
  1
34
  7
CONVERTER_11
 11
0.9999999999970619
 21
2.424068405545306E-6
 31
0.0
 73
     1
 44
0.60024009603842
  0
ENDBLK
  5
153
330
14B
100
AcDbEntity
  8
0
100
AcDbBlockEnd
  0
BLOCK
  5
15D
330
156
100
AcDbEntity
  8
0
100
AcDbBlockBegin
  2
*D19
 70
     1
 10
0.0
 20
0.0
 30
0.0
  3
*D19
  1

  0
LINE
  5
157
330
156
100
AcDbEntity
  8
1
  6
Continuous
 62
     2
100
AcDbLine
 10
-10.49999985694894
 20
235.1494022939669
 30
0.0
 11
-10.49999985694894
 21
248.149925624578
 31
0.0
  0
LINE
  5
158
330
156
100
AcDbEntity
  8
1
  6
Continuous
 62
     2
100
AcDbLine
 10
-5.49999985694894
 20
235.1494022939669
 30
0.0
 11
-11.24999985694894
 21
235.1494022939669
 31
0.0
  0
LINE
  5
159
330
156
100
AcDbEntity
  8
1
  6
Continuous
 62
     2
100
AcDbLine
 10
-3.39999985694895
 20
248.149925624578
 30
0.0
 11
-11.24999985694894
 21
248.149925624578
 31
0.0
  0
SOLID
  5
15A
330
156
100
AcDbEntity
  8
1
 62
     2
100
AcDbTrace
 10
-10.73039172772688
 20
236.8994022939669
 30
0.0
 11
-10.269607986171
 21
236.8994022939669
 31
0.0
 12
-10.49999985694894
 22
235.1494022939669
 32
0.0
 13
-10.49999985694894
 23
235.1494022939669
 33
0.0
  0
SOLID
  5
15B
330
156
100
AcDbEntity
  8
1
 62
     2
100
AcDbTrace
 10
-10.269607986171
 20
246.399925624578
 30
0.0
 11
-10.73039172772688
 21
246.399925624578
 31
0.0
 12
-10.49999985694894
 22
248.149925624578
 32
0.0
 13
-10.49999985694894
 23
248.149925624578
 33
0.0
  0
MTEXT
  5
15C
330
156
100
AcDbEntity
  8
1
 62
     3
100
AcDbMText
 10
-11.24999985694894
 20
240.801701788373
 30
0.0
 40
1.75
 41
0.0
 71
     7
 72
     1
  1
13
  7
CONVERTER_11
 11
0.0
 21
1.0
 31
0.0
 73
     1
 44
0.60024009603842
  0
ENDBLK
  5
15E
330
156
100
AcDbEntity
  8
0
100
AcDbBlockEnd
  0
BLOCK
  5
168
330
161
100
AcDbEntity
  8
0
100
AcDbBlockBegin
  2
*D20
 70
     1
 10
0.0
 20
0.0
 30
0.0
  3
*D20
  1

  0
LINE
  5
162
330
161
100
AcDbEntity
  8
1
  6
Continuous
 62
     2
100
AcDbLine
 10
-14.11005403433661
 20
235.1494022939669
 30
0.0
 11
-14.11005403433661
 21
249.4494022939669
 31
0.0
  0
LINE
  5
163
330
161
100
AcDbEntity
  8
1
  6
Continuous
 62
     2
100
AcDbLine
 10
-5.49999985694894
 20
235.1494022939669
 30
0.0
 11
-14.86005403433661
 21
235.1494022939669
 31
0.0
  0
LINE
  5
164
330
161
100
AcDbEntity
  8
1
  6
Continuous
 62
     2
100
AcDbLine
 10
-5.49999985694894
 20
249.4494022939669
 30
0.0
 11
-14.86005403433661
 21
249.4494022939669
 31
0.0
  0
SOLID
  5
165
330
161
100
AcDbEntity
  8
1
 62
     2
100
AcDbTrace
 10
-14.34044590511455
 20
236.8994022939669
 30
0.0
 11
-13.87966216355867
 21
236.8994022939669
 31
0.0
 12
-14.11005403433661
 22
235.1494022939669
 32
0.0
 13
-14.11005403433661
 23
235.1494022939669
 33
0.0
  0
SOLID
  5
166
330
161
100
AcDbEntity
  8
1
 62
     2
100
AcDbTrace
 10
-13.87966216355867
 20
247.6994022939669
 30
0.0
 11
-14.34044590511455
 21
247.6994022939669
 31
0.0
 12
-14.11005403433661
 22
249.4494022939669
 32
0.0
 13
-14.11005403433661
 23
249.4494022939669
 33
0.0
  0
MTEXT
  5
167
330
161
100
AcDbEntity
  8
1
 62
     3
100
AcDbMText
 10
-15.03505403433661
 20
240.6499999852895
 30
0.0
 40
1.75
 41
0.0
 71
     7
 72
     1
  1
14,3
  7
CONVERTER_11
 11
0.0
 21
1.0
 31
0.0
 73
     1
 44
0.60024009603842
  0
ENDBLK
  5
169
330
161
100
AcDbEntity
  8
0
100
AcDbBlockEnd
  0
ENDSEC
  0
SECTION
  2
ENTITIES
  0
INSERT
  5
86
330
1F
100
AcDbEntity
  8
1
100
AcDbBlockReference
  2
1
 10
0.0
 20
0.0
 30
0.0
  0
ENDSEC
  0
SECTION
  2
OBJECTS
  0
DICTIONARY
  5
C
330
0
100
AcDbDictionary
281
     1
  3
ACAD_GROUP
350
D
  3
ACAD_LAYOUT
350
1A
  3
ACAD_MATERIAL
350
3B
  3
ACAD_MLEADERSTYLE
350
2CC
  3
ACAD_MLINESTYLE
350
17
  3
ACAD_PLOTSETTINGS
350
19
  3
ACAD_PLOTSTYLENAME
350
E
  3
ACAD_TABLESTYLE
350
2CB
  3
ACAD_VISUALSTYLE
350
2A
  0
DICTIONARY
  5
D
102
{ACAD_REACTORS
330
C
102
}
330
C
100
AcDbDictionary
281
     1
  0
DICTIONARY
  5
1A
102
{ACAD_REACTORS
330
C
102
}
330
C
100
AcDbDictionary
281
     1
  3
Layout1
350
1E
  3
Layout2
350
26
  3
Model
350
22
  0
DICTIONARY
  5
3B
102
{ACAD_REACTORS
330
C
102
}
330
C
100
AcDbDictionary
281
     1
  3
ByBlock
350
3D
  3
ByLayer
350
3C
  3
Global
350
3E
  0
DICTIONARY
  5
2CC
102
{ACAD_REACTORS
330
C
102
}
330
C
100
AcDbDictionary
281
     1
  0
DICTIONARY
  5
17
102
{ACAD_REACTORS
330
C
102
}
330
C
100
AcDbDictionary
281
     1
  3
Standard
350
18
  0
DICTIONARY
  5
19
102
{ACAD_REACTORS
330
C
102
}
330
C
100
AcDbDictionary
281
     1
  0
ACDBDICTIONARYWDFLT
  5
E
102
{ACAD_REACTORS
330
C
102
}
330
C
100
AcDbDictionary
281
     1
  3
Normal
350
F
100
AcDbDictionaryWithDefault
340
F
  0
DICTIONARY
  5
2CB
102
{ACAD_REACTORS
330
C
102
}
330
C
100
AcDbDictionary
281
     1
  0
DICTIONARY
  5
2A
102
{ACAD_REACTORS
330
C
102
}
330
C
100
AcDbDictionary
281
     1
  3
2dWireframe
350
2F
  3
3D Hidden
350
31
  3
3dWireframe
350
30
  3
Basic
350
32
  3
Brighten
350
36
  3
ColorChange
350
3A
  3
Conceptual
350
34
  3
Dim
350
35
  3
Facepattern
350
39
  3
Flat
350
2B
  3
FlatWithEdges
350
2C
  3
Gouraud
350
2D
  3
GouraudWithEdges
350
2E
  3
Linepattern
350
38
  3
Realistic
350
33
  3
Thicken
350
37
  0
LAYOUT
  5
1E
102
{ACAD_REACTORS
330
1A
102
}
330
1A
100
AcDbPlotSettings
  1

  2
none_device
  4

  6

 40
0.0
 41
0.0
 42
0.0
 43
0.0
 44
0.0
 45
0.0
 46
0.0
 47
0.0
 48
0.0
 49
0.0
140
0.0
141
0.0
142
1.0
143
1.0
 70
   688
 72
     0
 73
     0
 74
     5
  7

 75
    16
 76
     0
 77
     2
 78
   300
147
1.0
148
0.0
149
0.0
100
AcDbLayout
  1
Layout1
 70
     1
 71
     1
 10
0.0
 20
0.0
 11
12.0
 21
9.0
 12
0.0
 22
0.0
 32
0.0
 14
1.00000000000000E+20
 24
1.00000000000000E+20
 34
1.00000000000000E+20
 15
-1.00000000000000E+20
 25
-1.00000000000000E+20
 35
-1.00000000000000E+20
146
0.0
 13
0.0
 23
0.0
 33
0.0
 16
1.0
 26
0.0
 36
0.0
 17
0.0
 27
1.0
 37
0.0
 76
     0
330
1B
  0
LAYOUT
  5
26
102
{ACAD_REACTORS
330
1A
102
}
330
1A
100
AcDbPlotSettings
  1

  2
none_device
  4

  6

 40
0.0
 41
0.0
 42
0.0
 43
0.0
 44
0.0
 45
0.0
 46
0.0
 47
0.0
 48
0.0
 49
0.0
140
0.0
141
0.0
142
1.0
143
1.0
 70
   688
 72
     0
 73
     0
 74
     5
  7

 75
    16
 76
     0
 77
     2
 78
   300
147
1.0
148
0.0
149
0.0
100
AcDbLayout
  1
Layout2
 70
     1
 71
     2
 10
0.0
 20
0.0
 11
0.0
 21
0.0
 12
0.0
 22
0.0
 32
0.0
 14
0.0
 24
0.0
 34
0.0
 15
0.0
 25
0.0
 35
0.0
146
0.0
 13
0.0
 23
0.0
 33
0.0
 16
1.0
 26
0.0
 36
0.0
 17
0.0
 27
1.0
 37
0.0
 76
     0
330
23
  0
LAYOUT
  5
22
102
{ACAD_REACTORS
330
1A
102
}
330
1A
100
AcDbPlotSettings
  1

  2
none_device
  4

  6

 40
0.0
 41
0.0
 42
0.0
 43
0.0
 44
0.0
 45
0.0
 46
0.0
 47
0.0
 48
0.0
 49
0.0
140
0.0
141
0.0
142
1.0
143
1.0
 70
  1712
 72
     0
 73
     0
 74
     0
  7

 75
     0
 76
     0
 77
     2
 78
   300
147
1.0
148
0.0
149
0.0
100
AcDbLayout
  1
Model
 70
     1
 71
     0
 10
0.0
 20
0.0
 11
12.0
 21
9.0
 12
0.0
 22
0.0
 32
0.0
 14
-93.99999937301999
 24
328.6124999705789
 34
0.0
 15
203.0000006269781
 25
538.612499970579
 35
0.0
146
0.0
 13
0.0
 23
0.0
 33
0.0
 16
1.0
 26
0.0
 36
0.0
 17
0.0
 27
1.0
 37
0.0
 76
     0
330
1F
331
29
  0
MATERIAL
  5
3D
102
{ACAD_REACTORS
330
3B
102
}
102
{ACAD_XDICTIONARY
360
2C7
102
}
330
3B
100
AcDbMaterial
  1
ByBlock
  0
MATERIAL
  5
3C
102
{ACAD_REACTORS
330
3B
102
}
102
{ACAD_XDICTIONARY
360
2C5
102
}
330
3B
100
AcDbMaterial
  1
ByLayer
  0
MATERIAL
  5
3E
102
{ACAD_REACTORS
330
3B
102
}
102
{ACAD_XDICTIONARY
360
2C9
102
}
330
3B
100
AcDbMaterial
  1
Global
  0
MLINESTYLE
  5
18
102
{ACAD_REACTORS
330
17
102
}
330
17
100
AcDbMlineStyle
  2
Standard
 70
     0
  3

 62
   256
 51
90.0
 52
90.0
 71
     2
 49
0.5
 62
   256
  6
BYLAYER
 49
-0.5
 62
   256
  6
BYLAYER
  0
ACDBPLACEHOLDER
  5
F
102
{ACAD_REACTORS
330
E
102
}
330
E
  0
VISUALSTYLE
  5
2F
102
{ACAD_REACTORS
330
2A
102
}
102
{ACAD_XDICTIONARY
360
2AD
102
}
330
2A
100
AcDbVisualStyle
  2
2dWireframe
 70
     4
 71
     0
 72
     2
 73
     0
 90
        0
 40
-0.6
 41
-30.0
 62
     5
 63
     7
421
 16777215
 74
     1
 91
        4
 64
     7
 65
   257
 75
     1
175
     1
 42
1.0
 92
        0
 66
   257
 43
1.0
 76
     1
 77
     6
 78
     2
 67
     7
 79
     5
170
     0
171
     0
290
     0
174
     0
 93
        1
 44
0.0
173
     0
291
     0
 45
0.0
1001
ACAD
1000
AcDbSavedByObjectVersion
1070
     0
  0
VISUALSTYLE
  5
31
102
{ACAD_REACTORS
330
2A
102
}
102
{ACAD_XDICTIONARY
360
2B1
102
}
330
2A
100
AcDbVisualStyle
  2
3D Hidden
 70
     6
 71
     1
 72
     2
 73
     2
 90
        0
 40
-0.6
 41
-30.0
 62
     5
 63
     7
421
 16777215
 74
     2
 91
        2
 64
     7
 65
   257
 75
     2
175
     1
 42
40.0
 92
        0
 66
   257
 43
1.0
 76
     1
 77
     6
 78
     2
 67
     7
 79
     3
170
     0
171
     0
290
     0
174
     0
 93
        1
 44
0.0
173
     0
291
     0
 45
0.0
1001
ACAD
1000
AcDbSavedByObjectVersion
1070
     0
  0
VISUALSTYLE
  5
30
102
{ACAD_REACTORS
330
2A
102
}
102
{ACAD_XDICTIONARY
360
2AF
102
}
330
2A
100
AcDbVisualStyle
  2
3dWireframe
 70
     5
 71
     0
 72
     2
 73
     0
 90
        0
 40
-0.6
 41
-30.0
 62
     5
 63
     7
421
 16777215
 74
     1
 91
        4
 64
     7
 65
   257
 75
     1
175
     1
 42
1.0
 92
        0
 66
   257
 43
1.0
 76
     1
 77
     6
 78
     2
 67
     7
 79
     5
170
     0
171
     0
290
     0
174
     0
 93
        1
 44
0.0
173
     0
291
     0
 45
0.0
1001
ACAD
1000
AcDbSavedByObjectVersion
1070
     0
  0
VISUALSTYLE
  5
32
102
{ACAD_REACTORS
330
2A
102
}
102
{ACAD_XDICTIONARY
360
2B3
102
}
330
2A
100
AcDbVisualStyle
  2
Basic
 70
     7
 71
     1
 72
     0
 73
     1
 90
        0
 40
-0.6
 41
-30.0
 62
     5
 63
     7
421
 16777215
 74
     0
 91
        4
 64
     7
 65
   257
 75
     1
175
     1
 42
1.0
 92
        8
 66
     7
 43
1.0
 76
     1
 77
     6
 78
     2
 67
     7
 79
     5
170
     0
171
     0
290
     0
174
     0
 93
        1
 44
0.0
173
     0
291
     1
 45
0.0
1001
ACAD
1000
AcDbSavedByObjectVersion
1070
     0
  0
VISUALSTYLE
  5
36
102
{ACAD_REACTORS
330
2A
102
}
102
{ACAD_XDICTIONARY
360
2BB
102
}
330
2A
100
AcDbVisualStyle
  2
Brighten
 70
    12
 71
     2
 72
     2
 73
     0
 90
        0
 40
-0.6
 41
-30.0
 62
     5
 63
     7
421
 16777215
 74
     1
 91
        4
 64
     7
 65
   257
 75
     1
175
     1
 42
1.0
 92
        8
 66
     7
 43
1.0
 76
     1
 77
     6
 78
     2
 67
     7
 79
     5
170
     0
171
     0
290
     0
174
     0
 93
        1
 44
50.0
173
     0
291
     1
 45
0.0
1001
ACAD
1000
AcDbSavedByObjectVersion
1070
     0
  0
VISUALSTYLE
  5
3A
102
{ACAD_REACTORS
330
2A
102
}
102
{ACAD_XDICTIONARY
360
2C3
102
}
330
2A
100
AcDbVisualStyle
  2
ColorChange
 70
    16
 71
     2
 72
     2
 73
     3
 90
        0
 40
-0.6
 41
-30.0
 62
     5
 63
     8
421
  8421504
 74
     1
 91
        4
 64
     7
 65
   257
 75
     1
175
     1
 42
1.0
 92
        8
 66
     8
424
  8421504
 43
1.0
 76
     1
 77
     6
 78
     2
 67
     7
 79
     5
170
     0
171
     0
290
     0
174
     0
 93
        1
 44
0.0
173
     0
291
     1
 45
0.0
1001
ACAD
1000
AcDbSavedByObjectVersion
1070
     0
  0
VISUALSTYLE
  5
34
102
{ACAD_REACTORS
330
2A
102
}
102
{ACAD_XDICTIONARY
360
2B7
102
}
330
2A
100
AcDbVisualStyle
  2
Conceptual
 70
     9
 71
     3
 72
     2
 73
     0
 90
        0
 40
-0.6
 41
-30.0
 62
     5
 63
     7
421
 16777215
 74
     2
 91
        2
 64
     7
 65
   257
 75
     1
175
     1
 42
40.0
 92
        8
 66
     7
 43
1.0
 76
     1
 77
     6
 78
     2
 67
     7
 79
     3
170
     0
171
     0
290
     0
174
     0
 93
        1
 44
0.0
173
     0
291
     0
 45
0.0
1001
ACAD
1000
AcDbSavedByObjectVersion
1070
     0
  0
VISUALSTYLE
  5
35
102
{ACAD_REACTORS
330
2A
102
}
102
{ACAD_XDICTIONARY
360
2B9
102
}
330
2A
100
AcDbVisualStyle
  2
Dim
 70
    11
 71
     2
 72
     2
 73
     0
 90
        0
 40
-0.6
 41
-30.0
 62
     5
 63
     7
421
 16777215
 74
     1
 91
        4
 64
     7
 65
   257
 75
     1
175
     1
 42
1.0
 92
        8
 66
     7
 43
1.0
 76
     1
 77
     6
 78
     2
 67
     7
 79
     5
170
     0
171
     0
290
     0
174
     0
 93
        1
 44
-50.0
173
     0
291
     1
 45
0.0
1001
ACAD
1000
AcDbSavedByObjectVersion
1070
     0
  0
VISUALSTYLE
  5
39
102
{ACAD_REACTORS
330
2A
102
}
102
{ACAD_XDICTIONARY
360
2C1
102
}
330
2A
100
AcDbVisualStyle
  2
Facepattern
 70
    15
 71
     2
 72
     2
 73
     0
 90
        0
 40
-0.6
 41
-30.0
 62
     5
 63
     7
421
 16777215
 74
     1
 91
        4
 64
     7
 65
   257
 75
     1
175
     1
 42
1.0
 92
        8
 66
     7
 43
1.0
 76
     1
 77
     6
 78
     2
 67
     7
 79
     5
170
     0
171
     0
290
     0
174
     0
 93
        1
 44
0.0
173
     0
291
     1
 45
0.0
1001
ACAD
1000
AcDbSavedByObjectVersion
1070
     0
  0
VISUALSTYLE
  5
2B
102
{ACAD_REACTORS
330
2A
102
}
102
{ACAD_XDICTIONARY
360
2A5
102
}
330
2A
100
AcDbVisualStyle
  2
Flat
 70
     0
 71
     2
 72
     1
 73
     1
 90
        2
 40
-0.6
 41
30.0
 62
     5
 63
     7
421
 16777215
 74
     0
 91
        4
 64
     7
 65
   257
 75
     1
175
     1
 42
1.0
 92
        8
 66
     7
 43
1.0
 76
     1
 77
     6
 78
     2
 67
     7
 79
     5
170
     0
171
     0
290
     0
174
     0
 93
       13
 44
0.0
173
     0
291
     1
 45
0.0
1001
ACAD
1000
AcDbSavedByObjectVersion
1070
     0
  0
VISUALSTYLE
  5
2C
102
{ACAD_REACTORS
330
2A
102
}
102
{ACAD_XDICTIONARY
360
2A7
102
}
330
2A
100
AcDbVisualStyle
  2
FlatWithEdges
 70
     1
 71
     2
 72
     1
 73
     1
 90
        2
 40
-0.6
 41
30.0
 62
     5
 63
     7
421
 16777215
 74
     1
 91
        4
 64
     7
 65
   257
 75
     1
175
     1
 42
1.0
 92
        0
 66
   257
 43
1.0
 76
     1
 77
     6
 78
     2
 67
     7
 79
     5
170
     0
171
     0
290
     0
174
     0
 93
       13
 44
0.0
173
     0
291
     1
 45
0.0
1001
ACAD
1000
AcDbSavedByObjectVersion
1070
     0
  0
VISUALSTYLE
  5
2D
102
{ACAD_REACTORS
330
2A
102
}
102
{ACAD_XDICTIONARY
360
2A9
102
}
330
2A
100
AcDbVisualStyle
  2
Gouraud
 70
     2
 71
     2
 72
     2
 73
     1
 90
        2
 40
-0.6
 41
30.0
 62
     5
 63
     7
421
 16777215
 74
     0
 91
        4
 64
     7
 65
   257
 75
     1
175
     1
 42
1.0
 92
        0
 66
     7
 43
1.0
 76
     1
 77
     6
 78
     2
 67
     7
 79
     5
170
     0
171
     0
290
     0
174
     0
 93
       13
 44
0.0
173
     0
291
     1
 45
0.0
1001
ACAD
1000
AcDbSavedByObjectVersion
1070
     0
  0
VISUALSTYLE
  5
2E
102
{ACAD_REACTORS
330
2A
102
}
102
{ACAD_XDICTIONARY
360
2AB
102
}
330
2A
100
AcDbVisualStyle
  2
GouraudWithEdges
 70
     3
 71
     2
 72
     2
 73
     1
 90
        2
 40
-0.6
 41
30.0
 62
     5
 63
     7
421
 16777215
 74
     1
 91
        4
 64
     7
 65
   257
 75
     1
175
     1
 42
1.0
 92
        0
 66
   257
 43
1.0
 76
     1
 77
     6
 78
     2
 67
     7
 79
     5
170
     0
171
     0
290
     0
174
     0
 93
       13
 44
0.0
173
     0
291
     1
 45
0.0
1001
ACAD
1000
AcDbSavedByObjectVersion
1070
     0
  0
VISUALSTYLE
  5
38
102
{ACAD_REACTORS
330
2A
102
}
102
{ACAD_XDICTIONARY
360
2BF
102
}
330
2A
100
AcDbVisualStyle
  2
Linepattern
 70
    14
 71
     2
 72
     2
 73
     0
 90
        0
 40
-0.6
 41
-30.0
 62
     5
 63
     7
421
 16777215
 74
     1
 91
        4
 64
     7
 65
   257
 75
     7
175
     7
 42
1.0
 92
        8
 66
     7
 43
1.0
 76
     1
 77
     6
 78
     2
 67
     7
 79
     5
170
     0
171
     0
290
     0
174
     0
 93
        1
 44
0.0
173
     0
291
     1
 45
0.0
1001
ACAD
1000
AcDbSavedByObjectVersion
1070
     0
  0
VISUALSTYLE
  5
33
102
{ACAD_REACTORS
330
2A
102
}
102
{ACAD_XDICTIONARY
360
2B5
102
}
330
2A
100
AcDbVisualStyle
  2
Realistic
 70
     8
 71
     2
 72
     2
 73
     0
 90
        0
 40
-0.6
 41
-30.0
 62
     5
 63
     7
421
 16777215
 74
     1
 91
        0
 64
     7
 65
   257
 75
     1
175
     1
 42
1.0
 92
        8
 66
     8
424
  7895160
 43
1.0
 76
     1
 77
     6
 78
     2
 67
     7
 79
     5
170
     0
171
     0
290
     0
174
     0
 93
       13
 44
0.0
173
     0
291
     0
 45
0.0
1001
ACAD
1000
AcDbSavedByObjectVersion
1070
     0
  0
VISUALSTYLE
  5
37
102
{ACAD_REACTORS
330
2A
102
}
102
{ACAD_XDICTIONARY
360
2BD
102
}
330
2A
100
AcDbVisualStyle
  2
Thicken
 70
    13
 71
     2
 72
     2
 73
     0
 90
        0
 40
-0.6
 41
-30.0
 62
     5
 63
     7
421
 16777215
 74
     1
 91
        4
 64
     7
 65
   257
 75
     1
175
     1
 42
1.0
 92
       12
 66
     7
 43
1.0
 76
     1
 77
     6
 78
     2
 67
     7
 79
     5
170
     0
171
     0
290
     0
174
     0
 93
        1
 44
0.0
173
     0
291
     1
 45
0.0
1001
ACAD
1000
AcDbSavedByObjectVersion
1070
     0
  0
DICTIONARY
  5
2C7
330
3D
100
AcDbDictionary
280
     1
281
     1
  3
ACAD_XREC_ROUNDTRIP
360
2C8
  0
DICTIONARY
  5
2C5
330
3C
100
AcDbDictionary
280
     1
281
     1
  3
ACAD_XREC_ROUNDTRIP
360
2C6
  0
DICTIONARY
  5
2C9
330
3E
100
AcDbDictionary
280
     1
281
     1
  3
ACAD_XREC_ROUNDTRIP
360
2CA
  0
DICTIONARY
  5
2AD
330
2F
100
AcDbDictionary
280
     1
281
     1
  3
ACAD_XREC_ROUNDTRIP
360
2AE
  0
DICTIONARY
  5
2B1
330
31
100
AcDbDictionary
280
     1
281
     1
  3
ACAD_XREC_ROUNDTRIP
360
2B2
  0
DICTIONARY
  5
2AF
330
30
100
AcDbDictionary
280
     1
281
     1
  3
ACAD_XREC_ROUNDTRIP
360
2B0
  0
DICTIONARY
  5
2B3
330
32
100
AcDbDictionary
280
     1
281
     1
  3
ACAD_XREC_ROUNDTRIP
360
2B4
  0
DICTIONARY
  5
2BB
330
36
100
AcDbDictionary
280
     1
281
     1
  3
ACAD_XREC_ROUNDTRIP
360
2BC
  0
DICTIONARY
  5
2C3
330
3A
100
AcDbDictionary
280
     1
281
     1
  3
ACAD_XREC_ROUNDTRIP
360
2C4
  0
DICTIONARY
  5
2B7
330
34
100
AcDbDictionary
280
     1
281
     1
  3
ACAD_XREC_ROUNDTRIP
360
2B8
  0
DICTIONARY
  5
2B9
330
35
100
AcDbDictionary
280
     1
281
     1
  3
ACAD_XREC_ROUNDTRIP
360
2BA
  0
DICTIONARY
  5
2C1
330
39
100
AcDbDictionary
280
     1
281
     1
  3
ACAD_XREC_ROUNDTRIP
360
2C2
  0
DICTIONARY
  5
2A5
330
2B
100
AcDbDictionary
280
     1
281
     1
  3
ACAD_XREC_ROUNDTRIP
360
2A6
  0
DICTIONARY
  5
2A7
330
2C
100
AcDbDictionary
280
     1
281
     1
  3
ACAD_XREC_ROUNDTRIP
360
2A8
  0
DICTIONARY
  5
2A9
330
2D
100
AcDbDictionary
280
     1
281
     1
  3
ACAD_XREC_ROUNDTRIP
360
2AA
  0
DICTIONARY
  5
2AB
330
2E
100
AcDbDictionary
280
     1
281
     1
  3
ACAD_XREC_ROUNDTRIP
360
2AC
  0
DICTIONARY
  5
2BF
330
38
100
AcDbDictionary
280
     1
281
     1
  3
ACAD_XREC_ROUNDTRIP
360
2C0
  0
DICTIONARY
  5
2B5
330
33
100
AcDbDictionary
280
     1
281
     1
  3
ACAD_XREC_ROUNDTRIP
360
2B6
  0
DICTIONARY
  5
2BD
330
37
100
AcDbDictionary
280
     1
281
     1
  3
ACAD_XREC_ROUNDTRIP
360
2BE
  0
XRECORD
  5
2C8
102
{ACAD_REACTORS
330
2C7
102
}
330
2C7
100
AcDbXrecord
280
     1
102
MATERIAL
148
0.0
149
0.0
149
0.0
 93
        0
 94
      127
282
     0
 72
     1
 77
     1
171
     1
175
     1
179
     1
273
     0
  0
XRECORD
  5
2C6
102
{ACAD_REACTORS
330
2C5
102
}
330
2C5
100
AcDbXrecord
280
     1
102
MATERIAL
148
0.0
149
0.0
149
0.0
 93
        0
 94
      127
282
     0
 72
     1
 77
     1
171
     1
175
     1
179
     1
273
     0
  0
XRECORD
  5
2CA
102
{ACAD_REACTORS
330
2C9
102
}
330
2C9
100
AcDbXrecord
280
     1
102
MATERIAL
148
0.0
149
0.0
149
0.0
 93
        0
 94
      127
282
     0
 72
     1
 77
     1
171
     1
175
     1
179
     1
273
     0
  0
XRECORD
  5
2AE
102
{ACAD_REACTORS
330
2AD
102
}
330
2AD
100
AcDbXrecord
280
     1
102
RTVSPropertyOp0
 70
     1
102
RTVSPropertyOp1
 70
     1
102
RTVSPropertyOp2
 70
     1
102
RTVSPropertyOp3
 70
     1
102
RTVSPropertyOp4
 70
     1
102
RTVSPropertyOp5
 70
     1
102
RTVSPropertyOp6
 70
     1
102
RTVSPropertyOp7
 70
     1
102
RTVSPropertyOp8
 70
     1
102
RTVSPropertyOp9
 70
     1
102
RTVSPropertyOp10
 70
     1
102
RTVSPropertyOp11
 70
     1
102
RTVSPropertyOp12
 70
     1
102
RTVSPropertyOp13
 70
     1
102
RTVSPropertyOp14
 70
     1
102
RTVSPropertyOp15
 70
     1
102
RTVSPropertyOp16
 70
     1
102
RTVSPropertyOp17
 70
     1
102
RTVSPropertyOp18
 70
     1
102
RTVSPropertyOp19
 70
     1
102
RTVSPropertyOp20
 70
     1
102
RTVSPropertyOp21
 70
     1
102
RTVSPropertyOp22
 70
     1
102
RTVSPropertyOp23
 70
     1
102
RTVSPropertyOp24
 70
     1
102
RTVSPropertyOp25
 70
     1
102
RTVSPropertyOp26
 70
     1
102
RTVSPropertyOp27
 70
     1
102
RTVSPropertyOp28
 70
     1
102
RTVSPropertyOp29
 70
     1
102
RTVSPropertyOp30
 70
     1
102
RTVSPropertyOp31
 70
     1
102
RTVSPropertyOp32
 70
     1
  0
XRECORD
  5
2B2
102
{ACAD_REACTORS
330
2B1
102
}
330
2B1
100
AcDbXrecord
280
     1
102
RTVSPropertyOp0
 70
     1
102
RTVSPropertyOp1
 70
     1
102
RTVSPropertyOp2
 70
     1
102
RTVSPropertyOp3
 70
     1
102
RTVSPropertyOp4
 70
     1
102
RTVSPropertyOp5
 70
     1
102
RTVSPropertyOp6
 70
     1
102
RTVSPropertyOp7
 70
     1
102
RTVSPropertyOp8
 70
     1
102
RTVSPropertyOp9
 70
     1
102
RTVSPropertyOp10
 70
     1
102
RTVSPropertyOp11
 70
     1
102
RTVSPropertyOp12
 70
     1
102
RTVSPropertyOp13
 70
     1
102
RTVSPropertyOp14
 70
     1
102
RTVSPropertyOp15
 70
     1
102
RTVSPropertyOp16
 70
     1
102
RTVSPropertyOp17
 70
     1
102
RTVSPropertyOp18
 70
     1
102
RTVSPropertyOp19
 70
     1
102
RTVSPropertyOp20
 70
     1
102
RTVSPropertyOp21
 70
     1
102
RTVSPropertyOp22
 70
     1
102
RTVSPropertyOp23
 70
     1
102
RTVSPropertyOp24
 70
     1
102
RTVSPropertyOp25
 70
     1
102
RTVSPropertyOp26
 70
     1
102
RTVSPropertyOp27
 70
     1
102
RTVSPropertyOp28
 70
     1
102
RTVSPropertyOp29
 70
     1
102
RTVSPropertyOp30
 70
     1
102
RTVSPropertyOp31
 70
     1
102
RTVSPropertyOp32
 70
     1
  0
XRECORD
  5
2B0
102
{ACAD_REACTORS
330
2AF
102
}
330
2AF
100
AcDbXrecord
280
     1
102
RTVSPropertyOp0
 70
     1
102
RTVSPropertyOp1
 70
     1
102
RTVSPropertyOp2
 70
     1
102
RTVSPropertyOp3
 70
     1
102
RTVSPropertyOp4
 70
     1
102
RTVSPropertyOp5
 70
     1
102
RTVSPropertyOp6
 70
     1
102
RTVSPropertyOp7
 70
     1
102
RTVSPropertyOp8
 70
     1
102
RTVSPropertyOp9
 70
     1
102
RTVSPropertyOp10
 70
     1
102
RTVSPropertyOp11
 70
     1
102
RTVSPropertyOp12
 70
     1
102
RTVSPropertyOp13
 70
     1
102
RTVSPropertyOp14
 70
     1
102
RTVSPropertyOp15
 70
     1
102
RTVSPropertyOp16
 70
     1
102
RTVSPropertyOp17
 70
     1
102
RTVSPropertyOp18
 70
     1
102
RTVSPropertyOp19
 70
     1
102
RTVSPropertyOp20
 70
     1
102
RTVSPropertyOp21
 70
     1
102
RTVSPropertyOp22
 70
     1
102
RTVSPropertyOp23
 70
     1
102
RTVSPropertyOp24
 70
     1
102
RTVSPropertyOp25
 70
     1
102
RTVSPropertyOp26
 70
     1
102
RTVSPropertyOp27
 70
     1
102
RTVSPropertyOp28
 70
     1
102
RTVSPropertyOp29
 70
     1
102
RTVSPropertyOp30
 70
     1
102
RTVSPropertyOp31
 70
     1
102
RTVSPropertyOp32
 70
     1
  0
XRECORD
  5
2B4
102
{ACAD_REACTORS
330
2B3
102
}
330
2B3
100
AcDbXrecord
280
     1
102
RTVSPropertyOp0
 70
     1
102
RTVSPropertyOp1
 70
     1
102
RTVSPropertyOp2
 70
     1
102
RTVSPropertyOp3
 70
     1
102
RTVSPropertyOp4
 70
     1
102
RTVSPropertyOp5
 70
     1
102
RTVSPropertyOp6
 70
     1
102
RTVSPropertyOp7
 70
     1
102
RTVSPropertyOp8
 70
     1
102
RTVSPropertyOp9
 70
     1
102
RTVSPropertyOp10
 70
     1
102
RTVSPropertyOp11
 70
     1
102
RTVSPropertyOp12
 70
     1
102
RTVSPropertyOp13
 70
     1
102
RTVSPropertyOp14
 70
     1
102
RTVSPropertyOp15
 70
     1
102
RTVSPropertyOp16
 70
     1
102
RTVSPropertyOp17
 70
     1
102
RTVSPropertyOp18
 70
     1
102
RTVSPropertyOp19
 70
     1
102
RTVSPropertyOp20
 70
     1
102
RTVSPropertyOp21
 70
     1
102
RTVSPropertyOp22
 70
     1
102
RTVSPropertyOp23
 70
     1
102
RTVSPropertyOp24
 70
     1
102
RTVSPropertyOp25
 70
     1
102
RTVSPropertyOp26
 70
     1
102
RTVSPropertyOp27
 70
     1
102
RTVSPropertyOp28
 70
     1
102
RTVSPropertyOp29
 70
     1
102
RTVSPropertyOp30
 70
     1
102
RTVSPropertyOp31
 70
     1
102
RTVSPropertyOp32
 70
     1
  0
XRECORD
  5
2BC
102
{ACAD_REACTORS
330
2BB
102
}
330
2BB
100
AcDbXrecord
280
     1
102
RTVSPropertyOp0
 70
     1
102
RTVSPropertyOp1
 70
     1
102
RTVSPropertyOp2
 70
     1
102
RTVSPropertyOp3
 70
     1
102
RTVSPropertyOp4
 70
     1
102
RTVSPropertyOp5
 70
     1
102
RTVSPropertyOp6
 70
     1
102
RTVSPropertyOp7
 70
     1
102
RTVSPropertyOp8
 70
     1
102
RTVSPropertyOp9
 70
     1
102
RTVSPropertyOp10
 70
     1
102
RTVSPropertyOp11
 70
     1
102
RTVSPropertyOp12
 70
     1
102
RTVSPropertyOp13
 70
     1
102
RTVSPropertyOp14
 70
     1
102
RTVSPropertyOp15
 70
     1
102
RTVSPropertyOp16
 70
     1
102
RTVSPropertyOp17
 70
     1
102
RTVSPropertyOp18
 70
     1
102
RTVSPropertyOp19
 70
     1
102
RTVSPropertyOp20
 70
     1
102
RTVSPropertyOp21
 70
     1
102
RTVSPropertyOp22
 70
     1
102
RTVSPropertyOp23
 70
     1
102
RTVSPropertyOp24
 70
     1
102
RTVSPropertyOp25
 70
     1
102
RTVSPropertyOp26
 70
     1
102
RTVSPropertyOp27
 70
     1
102
RTVSPropertyOp28
 70
     1
102
RTVSPropertyOp29
 70
     1
102
RTVSPropertyOp30
 70
     1
102
RTVSPropertyOp31
 70
     1
102
RTVSPropertyOp32
 70
     1
  0
XRECORD
  5
2C4
102
{ACAD_REACTORS
330
2C3
102
}
330
2C3
100
AcDbXrecord
280
     1
102
RTVSPropertyOp0
 70
     1
102
RTVSPropertyOp1
 70
     1
102
RTVSPropertyOp2
 70
     1
102
RTVSPropertyOp3
 70
     1
102
RTVSPropertyOp4
 70
     1
102
RTVSPropertyOp5
 70
     1
102
RTVSPropertyOp6
 70
     1
102
RTVSPropertyOp7
 70
     1
102
RTVSPropertyOp8
 70
     1
102
RTVSPropertyOp9
 70
     1
102
RTVSPropertyOp10
 70
     1
102
RTVSPropertyOp11
 70
     1
102
RTVSPropertyOp12
 70
     1
102
RTVSPropertyOp13
 70
     1
102
RTVSPropertyOp14
 70
     1
102
RTVSPropertyOp15
 70
     1
102
RTVSPropertyOp16
 70
     1
102
RTVSPropertyOp17
 70
     1
102
RTVSPropertyOp18
 70
     1
102
RTVSPropertyOp19
 70
     1
102
RTVSPropertyOp20
 70
     1
102
RTVSPropertyOp21
 70
     1
102
RTVSPropertyOp22
 70
     1
102
RTVSPropertyOp23
 70
     1
102
RTVSPropertyOp24
 70
     1
102
RTVSPropertyOp25
 70
     1
102
RTVSPropertyOp26
 70
     1
102
RTVSPropertyOp27
 70
     1
102
RTVSPropertyOp28
 70
     1
102
RTVSPropertyOp29
 70
     1
102
RTVSPropertyOp30
 70
     1
102
RTVSPropertyOp31
 70
     1
102
RTVSPropertyOp32
 70
     1
  0
XRECORD
  5
2B8
102
{ACAD_REACTORS
330
2B7
102
}
330
2B7
100
AcDbXrecord
280
     1
102
RTVSPropertyOp0
 70
     1
102
RTVSPropertyOp1
 70
     1
102
RTVSPropertyOp2
 70
     1
102
RTVSPropertyOp3
 70
     1
102
RTVSPropertyOp4
 70
     1
102
RTVSPropertyOp5
 70
     1
102
RTVSPropertyOp6
 70
     1
102
RTVSPropertyOp7
 70
     1
102
RTVSPropertyOp8
 70
     1
102
RTVSPropertyOp9
 70
     1
102
RTVSPropertyOp10
 70
     1
102
RTVSPropertyOp11
 70
     1
102
RTVSPropertyOp12
 70
     1
102
RTVSPropertyOp13
 70
     1
102
RTVSPropertyOp14
 70
     1
102
RTVSPropertyOp15
 70
     1
102
RTVSPropertyOp16
 70
     1
102
RTVSPropertyOp17
 70
     1
102
RTVSPropertyOp18
 70
     1
102
RTVSPropertyOp19
 70
     1
102
RTVSPropertyOp20
 70
     1
102
RTVSPropertyOp21
 70
     1
102
RTVSPropertyOp22
 70
     1
102
RTVSPropertyOp23
 70
     1
102
RTVSPropertyOp24
 70
     1
102
RTVSPropertyOp25
 70
     1
102
RTVSPropertyOp26
 70
     1
102
RTVSPropertyOp27
 70
     1
102
RTVSPropertyOp28
 70
     1
102
RTVSPropertyOp29
 70
     1
102
RTVSPropertyOp30
 70
     1
102
RTVSPropertyOp31
 70
     1
102
RTVSPropertyOp32
 70
     1
  0
XRECORD
  5
2BA
102
{ACAD_REACTORS
330
2B9
102
}
330
2B9
100
AcDbXrecord
280
     1
102
RTVSPropertyOp0
 70
     1
102
RTVSPropertyOp1
 70
     1
102
RTVSPropertyOp2
 70
     1
102
RTVSPropertyOp3
 70
     1
102
RTVSPropertyOp4
 70
     1
102
RTVSPropertyOp5
 70
     1
102
RTVSPropertyOp6
 70
     1
102
RTVSPropertyOp7
 70
     1
102
RTVSPropertyOp8
 70
     1
102
RTVSPropertyOp9
 70
     1
102
RTVSPropertyOp10
 70
     1
102
RTVSPropertyOp11
 70
     1
102
RTVSPropertyOp12
 70
     1
102
RTVSPropertyOp13
 70
     1
102
RTVSPropertyOp14
 70
     1
102
RTVSPropertyOp15
 70
     1
102
RTVSPropertyOp16
 70
     1
102
RTVSPropertyOp17
 70
     1
102
RTVSPropertyOp18
 70
     1
102
RTVSPropertyOp19
 70
     1
102
RTVSPropertyOp20
 70
     1
102
RTVSPropertyOp21
 70
     1
102
RTVSPropertyOp22
 70
     1
102
RTVSPropertyOp23
 70
     1
102
RTVSPropertyOp24
 70
     1
102
RTVSPropertyOp25
 70
     1
102
RTVSPropertyOp26
 70
     1
102
RTVSPropertyOp27
 70
     1
102
RTVSPropertyOp28
 70
     1
102
RTVSPropertyOp29
 70
     1
102
RTVSPropertyOp30
 70
     1
102
RTVSPropertyOp31
 70
     1
102
RTVSPropertyOp32
 70
     1
  0
XRECORD
  5
2C2
102
{ACAD_REACTORS
330
2C1
102
}
330
2C1
100
AcDbXrecord
280
     1
102
RTVSPropertyOp0
 70
     1
102
RTVSPropertyOp1
 70
     1
102
RTVSPropertyOp2
 70
     1
102
RTVSPropertyOp3
 70
     1
102
RTVSPropertyOp4
 70
     1
102
RTVSPropertyOp5
 70
     1
102
RTVSPropertyOp6
 70
     1
102
RTVSPropertyOp7
 70
     1
102
RTVSPropertyOp8
 70
     1
102
RTVSPropertyOp9
 70
     1
102
RTVSPropertyOp10
 70
     1
102
RTVSPropertyOp11
 70
     1
102
RTVSPropertyOp12
 70
     1
102
RTVSPropertyOp13
 70
     1
102
RTVSPropertyOp14
 70
     1
102
RTVSPropertyOp15
 70
     1
102
RTVSPropertyOp16
 70
     1
102
RTVSPropertyOp17
 70
     1
102
RTVSPropertyOp18
 70
     1
102
RTVSPropertyOp19
 70
     1
102
RTVSPropertyOp20
 70
     1
102
RTVSPropertyOp21
 70
     1
102
RTVSPropertyOp22
 70
     1
102
RTVSPropertyOp23
 70
     1
102
RTVSPropertyOp24
 70
     1
102
RTVSPropertyOp25
 70
     1
102
RTVSPropertyOp26
 70
     1
102
RTVSPropertyOp27
 70
     1
102
RTVSPropertyOp28
 70
     1
102
RTVSPropertyOp29
 70
     1
102
RTVSPropertyOp30
 70
     1
102
RTVSPropertyOp31
 70
     1
102
RTVSPropertyOp32
 70
     1
  0
XRECORD
  5
2A6
102
{ACAD_REACTORS
330
2A5
102
}
330
2A5
100
AcDbXrecord
280
     1
102
RTVSPropertyOp0
 70
     1
102
RTVSPropertyOp1
 70
     1
102
RTVSPropertyOp2
 70
     1
102
RTVSPropertyOp3
 70
     1
102
RTVSPropertyOp4
 70
     1
102
RTVSPropertyOp5
 70
     1
102
RTVSPropertyOp6
 70
     1
102
RTVSPropertyOp7
 70
     1
102
RTVSPropertyOp8
 70
     1
102
RTVSPropertyOp9
 70
     1
102
RTVSPropertyOp10
 70
     1
102
RTVSPropertyOp11
 70
     1
102
RTVSPropertyOp12
 70
     1
102
RTVSPropertyOp13
 70
     1
102
RTVSPropertyOp14
 70
     1
102
RTVSPropertyOp15
 70
     1
102
RTVSPropertyOp16
 70
     1
102
RTVSPropertyOp17
 70
     1
102
RTVSPropertyOp18
 70
     1
102
RTVSPropertyOp19
 70
     1
102
RTVSPropertyOp20
 70
     1
102
RTVSPropertyOp21
 70
     1
102
RTVSPropertyOp22
 70
     1
102
RTVSPropertyOp23
 70
     1
102
RTVSPropertyOp24
 70
     1
102
RTVSPropertyOp25
 70
     1
102
RTVSPropertyOp26
 70
     1
102
RTVSPropertyOp27
 70
     1
102
RTVSPropertyOp28
 70
     1
102
RTVSPropertyOp29
 70
     1
102
RTVSPropertyOp30
 70
     1
102
RTVSPropertyOp31
 70
     1
102
RTVSPropertyOp32
 70
     1
  0
XRECORD
  5
2A8
102
{ACAD_REACTORS
330
2A7
102
}
330
2A7
100
AcDbXrecord
280
     1
102
RTVSPropertyOp0
 70
     1
102
RTVSPropertyOp1
 70
     1
102
RTVSPropertyOp2
 70
     1
102
RTVSPropertyOp3
 70
     1
102
RTVSPropertyOp4
 70
     1
102
RTVSPropertyOp5
 70
     1
102
RTVSPropertyOp6
 70
     1
102
RTVSPropertyOp7
 70
     1
102
RTVSPropertyOp8
 70
     1
102
RTVSPropertyOp9
 70
     1
102
RTVSPropertyOp10
 70
     1
102
RTVSPropertyOp11
 70
     1
102
RTVSPropertyOp12
 70
     1
102
RTVSPropertyOp13
 70
     1
102
RTVSPropertyOp14
 70
     1
102
RTVSPropertyOp15
 70
     1
102
RTVSPropertyOp16
 70
     1
102
RTVSPropertyOp17
 70
     1
102
RTVSPropertyOp18
 70
     1
102
RTVSPropertyOp19
 70
     1
102
RTVSPropertyOp20
 70
     1
102
RTVSPropertyOp21
 70
     1
102
RTVSPropertyOp22
 70
     1
102
RTVSPropertyOp23
 70
     1
102
RTVSPropertyOp24
 70
     1
102
RTVSPropertyOp25
 70
     1
102
RTVSPropertyOp26
 70
     1
102
RTVSPropertyOp27
 70
     1
102
RTVSPropertyOp28
 70
     1
102
RTVSPropertyOp29
 70
     1
102
RTVSPropertyOp30
 70
     1
102
RTVSPropertyOp31
 70
     1
102
RTVSPropertyOp32
 70
     1
  0
XRECORD
  5
2AA
102
{ACAD_REACTORS
330
2A9
102
}
330
2A9
100
AcDbXrecord
280
     1
102
RTVSPropertyOp0
 70
     1
102
RTVSPropertyOp1
 70
     1
102
RTVSPropertyOp2
 70
     1
102
RTVSPropertyOp3
 70
     1
102
RTVSPropertyOp4
 70
     1
102
RTVSPropertyOp5
 70
     1
102
RTVSPropertyOp6
 70
     1
102
RTVSPropertyOp7
 70
     1
102
RTVSPropertyOp8
 70
     1
102
RTVSPropertyOp9
 70
     1
102
RTVSPropertyOp10
 70
     1
102
RTVSPropertyOp11
 70
     1
102
RTVSPropertyOp12
 70
     1
102
RTVSPropertyOp13
 70
     1
102
RTVSPropertyOp14
 70
     1
102
RTVSPropertyOp15
 70
     1
102
RTVSPropertyOp16
 70
     1
102
RTVSPropertyOp17
 70
     1
102
RTVSPropertyOp18
 70
     1
102
RTVSPropertyOp19
 70
     1
102
RTVSPropertyOp20
 70
     1
102
RTVSPropertyOp21
 70
     1
102
RTVSPropertyOp22
 70
     1
102
RTVSPropertyOp23
 70
     1
102
RTVSPropertyOp24
 70
     1
102
RTVSPropertyOp25
 70
     1
102
RTVSPropertyOp26
 70
     1
102
RTVSPropertyOp27
 70
     1
102
RTVSPropertyOp28
 70
     1
102
RTVSPropertyOp29
 70
     1
102
RTVSPropertyOp30
 70
     1
102
RTVSPropertyOp31
 70
     1
102
RTVSPropertyOp32
 70
     1
  0
XRECORD
  5
2AC
102
{ACAD_REACTORS
330
2AB
102
}
330
2AB
100
AcDbXrecord
280
     1
102
RTVSPropertyOp0
 70
     1
102
RTVSPropertyOp1
 70
     1
102
RTVSPropertyOp2
 70
     1
102
RTVSPropertyOp3
 70
     1
102
RTVSPropertyOp4
 70
     1
102
RTVSPropertyOp5
 70
     1
102
RTVSPropertyOp6
 70
     1
102
RTVSPropertyOp7
 70
     1
102
RTVSPropertyOp8
 70
     1
102
RTVSPropertyOp9
 70
     1
102
RTVSPropertyOp10
 70
     1
102
RTVSPropertyOp11
 70
     1
102
RTVSPropertyOp12
 70
     1
102
RTVSPropertyOp13
 70
     1
102
RTVSPropertyOp14
 70
     1
102
RTVSPropertyOp15
 70
     1
102
RTVSPropertyOp16
 70
     1
102
RTVSPropertyOp17
 70
     1
102
RTVSPropertyOp18
 70
     1
102
RTVSPropertyOp19
 70
     1
102
RTVSPropertyOp20
 70
     1
102
RTVSPropertyOp21
 70
     1
102
RTVSPropertyOp22
 70
     1
102
RTVSPropertyOp23
 70
     1
102
RTVSPropertyOp24
 70
     1
102
RTVSPropertyOp25
 70
     1
102
RTVSPropertyOp26
 70
     1
102
RTVSPropertyOp27
 70
     1
102
RTVSPropertyOp28
 70
     1
102
RTVSPropertyOp29
 70
     1
102
RTVSPropertyOp30
 70
     1
102
RTVSPropertyOp31
 70
     1
102
RTVSPropertyOp32
 70
     1
  0
XRECORD
  5
2C0
102
{ACAD_REACTORS
330
2BF
102
}
330
2BF
100
AcDbXrecord
280
     1
102
RTVSPropertyOp0
 70
     1
102
RTVSPropertyOp1
 70
     1
102
RTVSPropertyOp2
 70
     1
102
RTVSPropertyOp3
 70
     1
102
RTVSPropertyOp4
 70
     1
102
RTVSPropertyOp5
 70
     1
102
RTVSPropertyOp6
 70
     1
102
RTVSPropertyOp7
 70
     1
102
RTVSPropertyOp8
 70
     1
102
RTVSPropertyOp9
 70
     1
102
RTVSPropertyOp10
 70
     1
102
RTVSPropertyOp11
 70
     1
102
RTVSPropertyOp12
 70
     1
102
RTVSPropertyOp13
 70
     1
102
RTVSPropertyOp14
 70
     1
102
RTVSPropertyOp15
 70
     1
102
RTVSPropertyOp16
 70
     1
102
RTVSPropertyOp17
 70
     1
102
RTVSPropertyOp18
 70
     1
102
RTVSPropertyOp19
 70
     1
102
RTVSPropertyOp20
 70
     1
102
RTVSPropertyOp21
 70
     1
102
RTVSPropertyOp22
 70
     1
102
RTVSPropertyOp23
 70
     1
102
RTVSPropertyOp24
 70
     1
102
RTVSPropertyOp25
 70
     1
102
RTVSPropertyOp26
 70
     1
102
RTVSPropertyOp27
 70
     1
102
RTVSPropertyOp28
 70
     1
102
RTVSPropertyOp29
 70
     1
102
RTVSPropertyOp30
 70
     1
102
RTVSPropertyOp31
 70
     1
102
RTVSPropertyOp32
 70
     1
  0
XRECORD
  5
2B6
102
{ACAD_REACTORS
330
2B5
102
}
330
2B5
100
AcDbXrecord
280
     1
102
RTVSPropertyOp0
 70
     1
102
RTVSPropertyOp1
 70
     1
102
RTVSPropertyOp2
 70
     1
102
RTVSPropertyOp3
 70
     1
102
RTVSPropertyOp4
 70
     1
102
RTVSPropertyOp5
 70
     1
102
RTVSPropertyOp6
 70
     1
102
RTVSPropertyOp7
 70
     1
102
RTVSPropertyOp8
 70
     1
102
RTVSPropertyOp9
 70
     1
102
RTVSPropertyOp10
 70
     1
102
RTVSPropertyOp11
 70
     1
102
RTVSPropertyOp12
 70
     1
102
RTVSPropertyOp13
 70
     1
102
RTVSPropertyOp14
 70
     1
102
RTVSPropertyOp15
 70
     1
102
RTVSPropertyOp16
 70
     1
102
RTVSPropertyOp17
 70
     1
102
RTVSPropertyOp18
 70
     1
102
RTVSPropertyOp19
 70
     1
102
RTVSPropertyOp20
 70
     1
102
RTVSPropertyOp21
 70
     1
102
RTVSPropertyOp22
 70
     1
102
RTVSPropertyOp23
 70
     1
102
RTVSPropertyOp24
 70
     1
102
RTVSPropertyOp25
 70
     1
102
RTVSPropertyOp26
 70
     1
102
RTVSPropertyOp27
 70
     1
102
RTVSPropertyOp28
 70
     1
102
RTVSPropertyOp29
 70
     1
102
RTVSPropertyOp30
 70
     1
102
RTVSPropertyOp31
 70
     1
102
RTVSPropertyOp32
 70
     1
  0
XRECORD
  5
2BE
102
{ACAD_REACTORS
330
2BD
102
}
330
2BD
100
AcDbXrecord
280
     1
102
RTVSPropertyOp0
 70
     1
102
RTVSPropertyOp1
 70
     1
102
RTVSPropertyOp2
 70
     1
102
RTVSPropertyOp3
 70
     1
102
RTVSPropertyOp4
 70
     1
102
RTVSPropertyOp5
 70
     1
102
RTVSPropertyOp6
 70
     1
102
RTVSPropertyOp7
 70
     1
102
RTVSPropertyOp8
 70
     1
102
RTVSPropertyOp9
 70
     1
102
RTVSPropertyOp10
 70
     1
102
RTVSPropertyOp11
 70
     1
102
RTVSPropertyOp12
 70
     1
102
RTVSPropertyOp13
 70
     1
102
RTVSPropertyOp14
 70
     1
102
RTVSPropertyOp15
 70
     1
102
RTVSPropertyOp16
 70
     1
102
RTVSPropertyOp17
 70
     1
102
RTVSPropertyOp18
 70
     1
102
RTVSPropertyOp19
 70
     1
102
RTVSPropertyOp20
 70
     1
102
RTVSPropertyOp21
 70
     1
102
RTVSPropertyOp22
 70
     1
102
RTVSPropertyOp23
 70
     1
102
RTVSPropertyOp24
 70
     1
102
RTVSPropertyOp25
 70
     1
102
RTVSPropertyOp26
 70
     1
102
RTVSPropertyOp27
 70
     1
102
RTVSPropertyOp28
 70
     1
102
RTVSPropertyOp29
 70
     1
102
RTVSPropertyOp30
 70
     1
102
RTVSPropertyOp31
 70
     1
102
RTVSPropertyOp32
 70
     1
  0
ENDSEC
  0
EOF
