  0
SECTION
  2
HEADER
  9
$ACADVER
  1
AC1018
  9
$ACADMAINTVER
 70
     0
  9
$DWGCODEPAGE
  3
ANSI_1252
  9
$INSBASE
 10
0.0
 20
0.0
 30
0.0
  9
$EXTMIN
 10
-90.99999814279988
 20
324.9110460971912
 30
0.0
  9
$EXTMAX
 10
206.0000018571982
 20
534.9110460971913
 30
0.0
  9
$LIMMIN
 10
0.0
 20
0.0
  9
$LIMMAX
 10
12.0
 20
9.0
  9
$ORTHOMODE
 70
     0
  9
$REGENMODE
 70
     1
  9
$FILLMODE
 70
     1
  9
$QTEXTMODE
 70
     0
  9
$MIRRTEXT
 70
     1
  9
$LTSCALE
 40
1.0
  9
$ATTMODE
 70
     1
  9
$TEXTSIZE
 40
0.2
  9
$TRACEWID
 40
0.05
  9
$TEXTSTYLE
  7
Standard
  9
$CLAYER
  8
0
  9
$CELTYPE
  6
ByLayer
  9
$CECOLOR
 62
   256
  9
$CELTSCALE
 40
1.0
  9
$DISPSILH
 70
     0
  9
$DIMSCALE
 40
1.0
  9
$DIMASZ
 40
0.18
  9
$DIMEXO
 40
0.0625
  9
$DIMDLI
 40
0.38
  9
$DIMRND
 40
0.0
  9
$DIMDLE
 40
0.0
  9
$DIMEXE
 40
0.18
  9
$DIMTP
 40
0.0
  9
$DIMTM
 40
0.0
  9
$DIMTXT
 40
0.18
  9
$DIMCEN
 40
0.09
  9
$DIMTSZ
 40
0.0
  9
$DIMTOL
 70
     0
  9
$DIMLIM
 70
     0
  9
$DIMTIH
 70
     1
  9
$DIMTOH
 70
     1
  9
$DIMSE1
 70
     0
  9
$DIMSE2
 70
     0
  9
$DIMTAD
 70
     0
  9
$DIMZIN
 70
     0
  9
$DIMBLK
  1

  9
$DIMASO
 70
     1
  9
$DIMSHO
 70
     1
  9
$DIMPOST
  1

  9
$DIMAPOST
  1

  9
$DIMALT
 70
     0
  9
$DIMALTD
 70
     2
  9
$DIMALTF
 40
25.4
  9
$DIMLFAC
 40
1.0
  9
$DIMTOFL
 70
     0
  9
$DIMTVP
 40
0.0
  9
$DIMTIX
 70
     0
  9
$DIMSOXD
 70
     0
  9
$DIMSAH
 70
     0
  9
$DIMBLK1
  1

  9
$DIMBLK2
  1

  9
$DIMSTYLE
  2
Standard
  9
$DIMCLRD
 70
     0
  9
$DIMCLRE
 70
     0
  9
$DIMCLRT
 70
     0
  9
$DIMTFAC
 40
1.0
  9
$DIMGAP
 40
0.09
  9
$DIMJUST
 70
     0
  9
$DIMSD1
 70
     0
  9
$DIMSD2
 70
     0
  9
$DIMTOLJ
 70
     1
  9
$DIMTZIN
 70
     0
  9
$DIMALTZ
 70
     0
  9
$DIMALTTZ
 70
     0
  9
$DIMUPT
 70
     0
  9
$DIMDEC
 70
     4
  9
$DIMTDEC
 70
     4
  9
$DIMALTU
 70
     2
  9
$DIMALTTD
 70
     2
  9
$DIMTXSTY
  7
Standard
  9
$DIMAUNIT
 70
     0
  9
$DIMADEC
 70
     0
  9
$DIMALTRND
 40
0.0
  9
$DIMAZIN
 70
     0
  9
$DIMDSEP
 70
    46
  9
$DIMATFIT
 70
     3
  9
$DIMFRAC
 70
     0
  9
$DIMLDRBLK
  1

  9
$DIMLUNIT
 70
     2
  9
$DIMLWD
 70
    -2
  9
$DIMLWE
 70
    -2
  9
$DIMTMOVE
 70
     0
  9
$LUNITS
 70
     2
  9
$LUPREC
 70
     4
  9
$SKETCHINC
 40
0.1
  9
$FILLETRAD
 40
0.5
  9
$AUNITS
 70
     0
  9
$AUPREC
 70
     0
  9
$MENU
  1
.
  9
$ELEVATION
 40
0.0
  9
$PELEVATION
 40
0.0
  9
$THICKNESS
 40
0.0
  9
$LIMCHECK
 70
     0
  9
$CHAMFERA
 40
0.5
  9
$CHAMFERB
 40
0.5
  9
$CHAMFERC
 40
1.0
  9
$CHAMFERD
 40
0.0
  9
$SKPOLY
 70
     0
  9
$TDCREATE
 40
2458135.320843345
  9
$TDUCREATE
 40
2458135.279176678
  9
$TDUPDATE
 40
2458135.320843704
  9
$TDUUPDATE
 40
2458135.279177037
  9
$TDINDWG
 40
0.0000000116
  9
$TDUSRTIMER
 40
0.0000000116
  9
$USRTIMER
 70
     1
  9
$ANGBASE
 50
0.0
  9
$ANGDIR
 70
     0
  9
$PDMODE
 70
     0
  9
$PDSIZE
 40
0.0
  9
$PLINEWID
 40
0.0
  9
$SPLFRAME
 70
     0
  9
$SPLINETYPE
 70
     6
  9
$SPLINESEGS
 70
     8
  9
$HANDSEED
  5
29E
  9
$SURFTAB1
 70
     6
  9
$SURFTAB2
 70
     6
  9
$SURFTYPE
 70
     6
  9
$SURFU
 70
     6
  9
$SURFV
 70
     6
  9
$UCSBASE
  2

  9
$UCSNAME
  2

  9
$UCSORG
 10
0.0
 20
0.0
 30
0.0
  9
$UCSXDIR
 10
1.0
 20
0.0
 30
0.0
  9
$UCSYDIR
 10
0.0
 20
1.0
 30
0.0
  9
$UCSORTHOREF
  2

  9
$UCSORTHOVIEW
 70
     0
  9
$UCSORGTOP
 10
0.0
 20
0.0
 30
0.0
  9
$UCSORGBOTTOM
 10
0.0
 20
0.0
 30
0.0
  9
$UCSORGLEFT
 10
0.0
 20
0.0
 30
0.0
  9
$UCSORGRIGHT
 10
0.0
 20
0.0
 30
0.0
  9
$UCSORGFRONT
 10
0.0
 20
0.0
 30
0.0
  9
$UCSORGBACK
 10
0.0
 20
0.0
 30
0.0
  9
$PUCSBASE
  2

  9
$PUCSNAME
  2

  9
$PUCSORG
 10
0.0
 20
0.0
 30
0.0
  9
$PUCSXDIR
 10
1.0
 20
0.0
 30
0.0
  9
$PUCSYDIR
 10
0.0
 20
1.0
 30
0.0
  9
$PUCSORTHOREF
  2

  9
$PUCSORTHOVIEW
 70
     0
  9
$PUCSORGTOP
 10
0.0
 20
0.0
 30
0.0
  9
$PUCSORGBOTTOM
 10
0.0
 20
0.0
 30
0.0
  9
$PUCSORGLEFT
 10
0.0
 20
0.0
 30
0.0
  9
$PUCSORGRIGHT
 10
0.0
 20
0.0
 30
0.0
  9
$PUCSORGFRONT
 10
0.0
 20
0.0
 30
0.0
  9
$PUCSORGBACK
 10
0.0
 20
0.0
 30
0.0
  9
$USERI1
 70
     0
  9
$USERI2
 70
     0
  9
$USERI3
 70
     0
  9
$USERI4
 70
     0
  9
$USERI5
 70
     0
  9
$USERR1
 40
18.1
  9
$USERR2
 40
0.0
  9
$USERR3
 40
0.0
  9
$USERR4
 40
0.0
  9
$USERR5
 40
0.0
  9
$WORLDVIEW
 70
     1
  9
$SHADEDGE
 70
     3
  9
$SHADEDIF
 70
    70
  9
$TILEMODE
 70
     1
  9
$MAXACTVP
 70
    64
  9
$PINSBASE
 10
0.0
 20
0.0
 30
0.0
  9
$PLIMCHECK
 70
     0
  9
$PEXTMIN
 10
1.00000000000000E+20
 20
1.00000000000000E+20
 30
1.00000000000000E+20
  9
$PEXTMAX
 10
-1.00000000000000E+20
 20
-1.00000000000000E+20
 30
-1.00000000000000E+20
  9
$PLIMMIN
 10
0.0
 20
0.0
  9
$PLIMMAX
 10
12.0
 20
9.0
  9
$UNITMODE
 70
     0
  9
$VISRETAIN
 70
     1
  9
$PLINEGEN
 70
     0
  9
$PSLTSCALE
 70
     1
  9
$TREEDEPTH
 70
  3020
  9
$CMLSTYLE
  2
Standard
  9
$CMLJUST
 70
     0
  9
$CMLSCALE
 40
1.0
  9
$PROXYGRAPHICS
 70
     1
  9
$MEASUREMENT
 70
     1
  9
$CELWEIGHT
370
    -1
  9
$ENDCAPS
280
     0
  9
$JOINSTYLE
280
     0
  9
$LWDISPLAY
290
     0
  9
$INSUNITS
 70
     4
  9
$HYPERLINKBASE
  1

  9
$STYLESHEET
  1

  9
$XEDIT
290
     1
  9
$CEPSNTYPE
380
     0
  9
$PSTYLEMODE
290
     1
  9
$FINGERPRINTGUID
  2
{4CAD15D4-D0F0-4A10-B04F-9D994E87573A}
  9
$VERSIONGUID
  2
{FAEB1C32-E019-11D5-929B-00C0DF256EC4}
  9
$EXTNAMES
290
     1
  9
$PSVPSCALE
 40
0.0
  9
$OLESTARTUP
290
     0
  9
$SORTENTS
280
   127
  9
$INDEXCTL
280
     0
  9
$HIDETEXT
280
     1
  9
$XCLIPFRAME
290
     0
  9
$HALOGAP
280
     0
  9
$OBSCOLOR
 70
   257
  9
$OBSLTYPE
280
     0
  9
$INTERSECTIONDISPLAY
280
     0
  9
$INTERSECTIONCOLOR
 70
   257
  9
$DIMASSOC
280
     2
  9
$PROJECTNAME
  1

  0
ENDSEC
  0
SECTION
  2
CLASSES
  0
CLASS
  1
ACDBDICTIONARYWDFLT
  2
AcDbDictionaryWithDefault
  3
ObjectDBX Classes
 90
        0
 91
        4
280
     0
281
     0
  0
CLASS
  1
VISUALSTYLE
  2
AcDbVisualStyle
  3
ObjectDBX Classes
 90
     4095
 91
        4
280
     0
281
     0
  0
CLASS
  1
MATERIAL
  2
AcDbMaterial
  3
ObjectDBX Classes
 90
     1153
 91
        4
280
     0
281
     0
  0
ENDSEC
  0
SECTION
  2
TABLES
  0
TABLE
  2
VPORT
  5
8
330
0
100
AcDbSymbolTable
 70
     1
  0
VPORT
  5
29
330
8
100
AcDbSymbolTableRecord
100
AcDbViewportTableRecord
  2
*Active
 70
     0
 10
0.0
 20
0.0
 11
1.0
 21
1.0
 12
57.50000185719917
 22
429.9110460971913
 13
0.0
 23
0.0
 14
0.5
 24
0.5
 15
0.5
 25
0.5
 16
0.0
 26
0.0
 36
1.0
 17
0.0
 27
0.0
 37
0.0
 40
231.0000000000001
 41
1.60267857142857
 42
50.0
 43
0.0
 44
0.0
 50
0.0
 51
0.0
 71
     0
 72
   100
 73
     1
 74
     3
 75
     0
 76
     0
 77
     0
 78
     0
281
     0
 65
     1
110
0.0
120
0.0
130
0.0
111
1.0
121
0.0
131
0.0
112
0.0
122
1.0
132
0.0
 79
     0
146
0.0
  0
ENDTAB
  0
TABLE
  2
LTYPE
  5
5
330
0
100
AcDbSymbolTable
 70
     8
  0
LTYPE
  5
14
330
5
100
AcDbSymbolTableRecord
100
AcDbLinetypeTableRecord
  2
ByBlock
 70
     0
  3

 72
    65
 73
     0
 40
0.0
  0
LTYPE
  5
15
330
5
100
AcDbSymbolTableRecord
100
AcDbLinetypeTableRecord
  2
ByLayer
 70
     0
  3

 72
    65
 73
     0
 40
0.0
  0
LTYPE
  5
16
330
5
100
AcDbSymbolTableRecord
100
AcDbLinetypeTableRecord
  2
Continuous
 70
     0
  3
Solid line
 72
    65
 73
     0
 40
0.0
  0
LTYPE
  5
3F
330
5
100
AcDbSymbolTableRecord
100
AcDbLinetypeTableRecord
  2
DASHED
 70
     0
  3
Dashed
 72
    65
 73
     2
 40
15.0
 49
7.0
 74
     0
 49
-8.0
 74
     0
  0
LTYPE
  5
40
330
5
100
AcDbSymbolTableRecord
100
AcDbLinetypeTableRecord
  2
DOTTED
 70
     0
  3
Dotted
 72
    65
 73
     2
 40
1.0
 49
0.0
 74
     0
 49
-1.0
 74
     0
  0
LTYPE
  5
41
330
5
100
AcDbSymbolTableRecord
100
AcDbLinetypeTableRecord
  2
DOT_CENTER
 70
     0
  3
Dot_Center
 72
    65
 73
     4
 40
14.0
 49
12.0
 74
     0
 49
-1.0
 74
     0
 49
0.0
 74
     0
 49
-1.0
 74
     0
  0
LTYPE
  5
42
330
5
100
AcDbSymbolTableRecord
100
AcDbLinetypeTableRecord
  2
LONG_DASHED
 70
     0
  3
Long_Dashed
 72
    65
 73
     2
 40
15.0
 49
10.0
 74
     0
 49
-5.0
 74
     0
  0
LTYPE
  5
43
330
5
100
AcDbSymbolTableRecord
100
AcDbLinetypeTableRecord
  2
DASH_CENTER
 70
     0
  3
Dash_Center
 72
    65
 73
     4
 40
14.0
 49
11.0
 74
     0
 49
-1.0
 74
     0
 49
1.0
 74
     0
 49
-1.0
 74
     0
  0
LTYPE
  5
44
330
5
100
AcDbSymbolTableRecord
100
AcDbLinetypeTableRecord
  2
PHANTOM
 70
     0
  3
Phantom
 72
    65
 73
     6
 40
13.0
 49
10.0
 74
     0
 49
-1.0
 74
     0
 49
0.0
 74
     0
 49
-1.0
 74
     0
 49
0.0
 74
     0
 49
-1.0
 74
     0
  0
LTYPE
  5
45
330
5
100
AcDbSymbolTableRecord
100
AcDbLinetypeTableRecord
  2
CENTER_DASH_DASH
 70
     0
  3
Center_Dash_Dash
 72
    65
 73
     6
 40
14.0
 49
9.0
 74
     0
 49
-1.0
 74
     0
 49
1.0
 74
     0
 49
-1.0
 74
     0
 49
1.0
 74
     0
 49
-1.0
 74
     0
  0
ENDTAB
  0
TABLE
  2
LAYER
  5
2
330
0
100
AcDbSymbolTable
 70
     2
  0
LAYER
  5
10
330
2
100
AcDbSymbolTableRecord
100
AcDbLayerTableRecord
  2
0
 70
     0
 62
     7
  6
Continuous
370
    -3
390
F
  0
LAYER
  5
46
330
2
100
AcDbSymbolTableRecord
100
AcDbLayerTableRecord
  2
1
 70
     0
 62
     7
  6
Continuous
370
    -3
390
F
  0
ENDTAB
  0
TABLE
  2
STYLE
  5
3
330
0
100
AcDbSymbolTable
 70
     5
  0
STYLE
  5
11
330
3
100
AcDbSymbolTableRecord
100
AcDbTextStyleTableRecord
  2
Standard
 70
     0
 40
0.0
 41
1.0
 50
0.0
 71
     0
 42
0.2
  3
txt
  4

  0
STYLE
  5
17D
330
3
100
AcDbSymbolTableRecord
100
AcDbTextStyleTableRecord
  2
CONVERTER_11
 70
     0
 40
0.0
 41
0.9
 50
0.0
 71
     0
 42
0.2
  3
txt.shx
  4

  0
STYLE
  5
184
330
3
100
AcDbSymbolTableRecord
100
AcDbTextStyleTableRecord
  2
CONVERTER_12
 70
     0
 40
0.0
 41
0.81
 50
0.0
 71
     0
 42
0.2
  3
txt.shx
  4

  0
STYLE
  5
19A
330
3
100
AcDbSymbolTableRecord
100
AcDbTextStyleTableRecord
  2
CONVERTER_13
 70
     0
 40
0.0
 41
0.72
 50
0.0
 71
     0
 42
0.2
  3
txt.shx
  4

  0
STYLE
  5
19D
330
3
100
AcDbSymbolTableRecord
100
AcDbTextStyleTableRecord
  2
CONVERTER_14
 70
     0
 40
0.0
 41
0.855
 50
0.0
 71
     0
 42
0.2
  3
txt.shx
  4

  0
ENDTAB
  0
TABLE
  2
VIEW
  5
6
330
0
100
AcDbSymbolTable
 70
     0
  0
ENDTAB
  0
TABLE
  2
UCS
  5
7
330
0
100
AcDbSymbolTable
 70
     0
  0
ENDTAB
  0
TABLE
  2
APPID
  5
9
330
0
100
AcDbSymbolTable
 70
     1
  0
APPID
  5
12
330
9
100
AcDbSymbolTableRecord
100
AcDbRegAppTableRecord
  2
ACAD
 70
     0
  0
ENDTAB
  0
TABLE
  2
DIMSTYLE
  5
A
330
0
100
AcDbSymbolTable
 70
     4
100
AcDbDimStyleTable
  0
DIMSTYLE
105
27
330
A
100
AcDbSymbolTableRecord
100
AcDbDimStyleTableRecord
  2
Standard
 70
     0
178
     0
340
11
  0
DIMSTYLE
105
216
102
{ACAD_REACTORS
330
217
102
}
330
A
100
AcDbSymbolTableRecord
100
AcDbDimStyleTableRecord
  2
ME10_DIM_10
 70
     0
 41
3.5
 42
0.0
 44
1.5
 73
     0
 74
     0
 77
     1
 78
     8
140
3.5
147
1.5
172
     1
173
     1
174
     1
175
     1
176
     2
177
     2
178
     3
340
17D
  0
DIMSTYLE
105
269
102
{ACAD_REACTORS
330
26A
102
}
330
A
100
AcDbSymbolTableRecord
100
AcDbDimStyleTableRecord
  2
ME10_DIM_11
 70
     0
 41
3.5
 42
0.0
 44
1.5
 73
     0
 74
     0
 77
     1
 78
     8
140
3.5
147
1.5
172
     1
173
     1
174
     1
175
     1
176
     2
177
     2
178
     3
340
17D
  0
DIMSTYLE
105
274
102
{ACAD_REACTORS
330
275
102
}
330
A
100
AcDbSymbolTableRecord
100
AcDbDimStyleTableRecord
  2
ME10_DIM_12
 70
     0
 41
3.5
 42
0.0
 44
1.5
 73
     0
 74
     0
 77
     1
 78
     8
140
3.5
147
1.5
172
     1
173
     1
174
     1
175
     1
176
     2
177
     2
178
     3
340
17D
  0
ENDTAB
  0
TABLE
  2
BLOCK_RECORD
  5
1
330
0
100
AcDbSymbolTable
 70
    20
  0
BLOCK_RECORD
  5
1F
330
1
100
AcDbSymbolTableRecord
100
AcDbBlockTableRecord
  2
*Model_Space
340
22
  0
BLOCK_RECORD
  5
1B
330
1
100
AcDbSymbolTableRecord
100
AcDbBlockTableRecord
  2
*Paper_Space
340
1E
  0
BLOCK_RECORD
  5
23
330
1
100
AcDbSymbolTableRecord
100
AcDbBlockTableRecord
  2
*Paper_Space0
340
26
  0
BLOCK_RECORD
  5
47
330
1
100
AcDbSymbolTableRecord
100
AcDbBlockTableRecord
  2
_rahmen
340
0
102
{BLKREFS
331
4E
102
}
  0
BLOCK_RECORD
  5
4A
330
1
100
AcDbSymbolTableRecord
100
AcDbBlockTableRecord
  2
_punkt
340
0
102
{BLKREFS
331
4F
102
}
  0
BLOCK_RECORD
  5
4D
330
1
100
AcDbSymbolTableRecord
100
AcDbBlockTableRecord
  2
A4I_CS
340
0
102
{BLKREFS
331
7D
102
}
  0
BLOCK_RECORD
  5
52
330
1
100
AcDbSymbolTableRecord
100
AcDbBlockTableRecord
  2
ATP_UKKB_3-select__1
340
0
102
{BLKREFS
331
56
102
}
  0
BLOCK_RECORD
  5
55
330
1
100
AcDbSymbolTableRecord
100
AcDbBlockTableRecord
  2
AllgSicht1
340
0
102
{BLKREFS
331
7E
102
}
  0
BLOCK_RECORD
  5
59
330
1
100
AcDbSymbolTableRecord
100
AcDbBlockTableRecord
  2
ATP_UKKB_3-select__2
340
0
102
{BLKREFS
331
5D
102
}
  0
BLOCK_RECORD
  5
5C
330
1
100
AcDbSymbolTableRecord
100
AcDbBlockTableRecord
  2
Drfsicht1
340
0
102
{BLKREFS
331
7F
102
}
  0
BLOCK_RECORD
  5
60
330
1
100
AcDbSymbolTableRecord
100
AcDbBlockTableRecord
  2
ATP_UKKB_3-select__3
340
0
102
{BLKREFS
331
64
102
}
  0
BLOCK_RECORD
  5
63
330
1
100
AcDbSymbolTableRecord
100
AcDbBlockTableRecord
  2
Rckans1
340
0
102
{BLKREFS
331
80
102
}
  0
BLOCK_RECORD
  5
67
330
1
100
AcDbSymbolTableRecord
100
AcDbBlockTableRecord
  2
ATP_UKKB_3-select__4
340
0
102
{BLKREFS
331
6B
102
}
  0
BLOCK_RECORD
  5
6A
330
1
100
AcDbSymbolTableRecord
100
AcDbBlockTableRecord
  2
SA_Links1
340
0
102
{BLKREFS
331
81
102
}
  0
BLOCK_RECORD
  5
6E
330
1
100
AcDbSymbolTableRecord
100
AcDbBlockTableRecord
  2
ATP_UKKB_3-select__5
340
0
102
{BLKREFS
331
72
102
}
  0
BLOCK_RECORD
  5
71
330
1
100
AcDbSymbolTableRecord
100
AcDbBlockTableRecord
  2
SA_Rechts1
340
0
102
{BLKREFS
331
82
102
}
  0
BLOCK_RECORD
  5
75
330
1
100
AcDbSymbolTableRecord
100
AcDbBlockTableRecord
  2
ATP_UKKB_3-select__6
340
0
102
{BLKREFS
331
79
102
}
  0
BLOCK_RECORD
  5
78
330
1
100
AcDbSymbolTableRecord
100
AcDbBlockTableRecord
  2
Vordans1
340
0
102
{BLKREFS
331
83
102
}
  0
BLOCK_RECORD
  5
7C
330
1
100
AcDbSymbolTableRecord
100
AcDbBlockTableRecord
  2
1
340
0
102
{BLKREFS
331
86
102
}
  0
BLOCK_RECORD
  5
20B
330
1
100
AcDbSymbolTableRecord
100
AcDbBlockTableRecord
  2
*D17
340
0
  0
BLOCK_RECORD
  5
260
330
1
100
AcDbSymbolTableRecord
100
AcDbBlockTableRecord
  2
*D18
340
0
  0
BLOCK_RECORD
  5
26B
330
1
100
AcDbSymbolTableRecord
100
AcDbBlockTableRecord
  2
*D19
340
0
  0
ENDTAB
  0
ENDSEC
  0
SECTION
  2
BLOCKS
  0
BLOCK
  5
20
330
1F
100
AcDbEntity
  8
0
100
AcDbBlockBegin
  2
*Model_Space
 70
     0
 10
0.0
 20
0.0
 30
0.0
  3
*Model_Space
  1

  0
ENDBLK
  5
21
330
1F
100
AcDbEntity
  8
0
100
AcDbBlockEnd
  0
BLOCK
  5
1C
330
1B
100
AcDbEntity
 67
     1
  8
0
100
AcDbBlockBegin
  2
*Paper_Space
 70
     0
 10
0.0
 20
0.0
 30
0.0
  3
*Paper_Space
  1

  0
ENDBLK
  5
1D
330
1B
100
AcDbEntity
 67
     1
  8
0
100
AcDbBlockEnd
  0
BLOCK
  5
24
330
23
100
AcDbEntity
  8
0
100
AcDbBlockBegin
  2
*Paper_Space0
 70
     0
 10
0.0
 20
0.0
 30
0.0
  3
*Paper_Space0
  1

  0
ENDBLK
  5
25
330
23
100
AcDbEntity
  8
0
100
AcDbBlockEnd
  0
BLOCK
  5
48
330
47
100
AcDbEntity
  8
0
100
AcDbBlockBegin
  2
_rahmen
 70
     0
 10
201.0000018571992
 20
324.9110460971912
 30
0.0
  3
_rahmen
  1

  0
LINE
  5
87
330
47
100
AcDbEntity
  8
1
  6
Continuous
 62
     6
100
AcDbLine
 10
71.45519733044918
 20
355.4110460971913
 30
0.0
 11
201.0000018572009
 21
355.4110460971913
 31
0.0
  0
LINE
  5
88
330
47
100
AcDbEntity
  8
1
  6
Continuous
 62
     7
100
AcDbLine
 10
89.6551973304492
 20
334.1610460971913
 30
0.0
 11
107.8551973304491
 21
334.1610460971913
 31
0.0
  0
LINE
  5
89
330
47
100
AcDbEntity
  8
1
  6
Continuous
 62
     6
100
AcDbLine
 10
89.6551973304492
 20
329.9110460971913
 30
0.0
 11
71.45519733044918
 21
329.9110460971912
 31
0.0
  0
LINE
  5
8A
330
47
100
AcDbEntity
  8
1
  6
Continuous
 62
     7
100
AcDbLine
 10
89.6551973304492
 20
334.1610460971913
 30
0.0
 11
89.6551973304492
 21
329.9110460971913
 31
0.0
  0
LINE
  5
8B
330
47
100
AcDbEntity
  8
1
  6
Continuous
 62
     7
100
AcDbLine
 10
107.8551973304491
 20
334.1610460971913
 30
0.0
 11
107.8551973304491
 21
329.9110460971912
 31
0.0
  0
LINE
  5
8C
330
47
100
AcDbEntity
  8
1
  6
Continuous
 62
     7
100
AcDbLine
 10
71.45519733044918
 20
334.1610460971912
 30
0.0
 11
71.45519733044918
 21
329.9110460971912
 31
0.0
  0
LINE
  5
8D
330
47
100
AcDbEntity
  8
1
  6
Continuous
 62
     7
100
AcDbLine
 10
71.45519733044918
 20
334.1610460971912
 30
0.0
 11
89.6551973304492
 21
334.1610460971913
 31
0.0
  0
LINE
  5
8E
330
47
100
AcDbEntity
  8
1
  6
Continuous
 62
     2
100
AcDbLine
 10
80.69185221701179
 20
353.5360460971912
 30
0.0
 11
80.69185221701179
 21
348.5360460971912
 31
0.0
  0
LINE
  5
8F
330
47
100
AcDbEntity
  8
1
  6
Continuous
 62
     2
100
AcDbLine
 10
80.69185221701179
 20
348.5360460971912
 30
0.0
 11
75.69185221701179
 21
349.7860460971912
 31
0.0
  0
LINE
  5
90
330
47
100
AcDbEntity
  8
1
  6
Continuous
 62
     2
100
AcDbLine
 10
75.69185221701179
 20
349.7860460971912
 30
0.0
 11
75.69185221701179
 21
352.2860460971912
 31
0.0
  0
LINE
  5
91
330
47
100
AcDbEntity
  8
1
  6
Continuous
 62
     2
100
AcDbLine
 10
75.69185221701179
 20
352.2860460971912
 30
0.0
 11
80.69185221701179
 21
353.5360460971912
 31
0.0
  0
LINE
  5
92
330
47
100
AcDbEntity
  8
1
  6
Continuous
 62
     6
100
AcDbLine
 10
-50.99999814279903
 20
329.9110460971913
 30
0.0
 11
-85.99999814279892
 21
329.9110460971913
 31
0.0
  0
LINE
  5
93
330
47
100
AcDbEntity
  8
1
  6
Continuous
 62
     6
100
AcDbLine
 10
201.0000018572009
 20
346.9110460971913
 30
0.0
 11
201.0000018572005
 21
338.4110460971913
 31
0.0
  0
LINE
  5
94
330
47
100
AcDbEntity
  8
1
  6
Continuous
 62
     6
100
AcDbLine
 10
107.8551973304491
 20
329.9110460971912
 30
0.0
 11
107.5000018571992
 21
329.9110460971913
 31
0.0
  0
LINE
  5
95
330
47
100
AcDbEntity
  8
1
  6
Continuous
 62
     6
100
AcDbLine
 10
-44.79999814280103
 20
329.9110460971912
 30
0.0
 11
-50.99999814279903
 21
329.9110460971913
 31
0.0
  0
LINE
  5
96
330
47
100
AcDbEntity
  8
1
  6
Continuous
 62
     7
100
AcDbLine
 10
107.8551973304491
 20
346.9110460971913
 30
0.0
 11
107.8551973304491
 21
334.1610460971913
 31
0.0
  0
LINE
  5
97
330
47
100
AcDbEntity
  8
1
  6
Continuous
 62
     7
100
AcDbLine
 10
71.45519733044918
 20
346.9110460971913
 30
0.0
 11
71.45519733044918
 21
334.1610460971912
 31
0.0
  0
LINE
  5
98
330
47
100
AcDbEntity
  8
1
  6
Continuous
 62
     6
100
AcDbLine
 10
57.50000185719921
 20
329.9110460971913
 30
0.0
 11
7.50000185719898
 21
329.9110460971913
 31
0.0
  0
LINE
  5
99
330
47
100
AcDbEntity
  8
1
  6
Continuous
 62
     6
100
AcDbLine
 10
-44.79999814280103
 20
329.9110460971912
 30
0.0
 11
-42.49999814280079
 21
329.9110460971913
 31
0.0
  0
LINE
  5
9A
330
47
100
AcDbEntity
  8
1
  6
Continuous
 62
     6
100
AcDbLine
 10
107.8551973304491
 20
329.9110460971912
 30
0.0
 11
157.5000018571992
 21
329.9110460971913
 31
0.0
  0
LINE
  5
9B
330
47
100
AcDbEntity
  8
1
  6
Continuous
 62
     6
100
AcDbLine
 10
201.0000018571992
 20
329.9110460971913
 30
0.0
 11
201.0000018572005
 21
338.4110460971913
 31
0.0
  0
LINE
  5
9C
330
47
100
AcDbEntity
  8
1
  6
Continuous
 62
     2
100
AcDbLine
 10
-90.99999814279988
 20
329.9110460971913
 30
0.0
 11
-90.99999814279988
 21
324.9110460971912
 31
0.0
  0
LINE
  5
9D
330
47
100
AcDbEntity
  8
1
  6
Continuous
 62
     2
100
AcDbLine
 10
-85.99999814279892
 20
329.9110460971913
 30
0.0
 11
-90.99999814279988
 21
329.9110460971913
 31
0.0
  0
LINE
  5
9E
330
47
100
AcDbEntity
  8
1
  6
Continuous
 62
     2
100
AcDbLine
 10
-85.99999814279892
 20
324.9110460971912
 30
0.0
 11
-42.49999814280079
 21
324.9110460971912
 31
0.0
  0
LINE
  5
9F
330
47
100
AcDbEntity
  8
1
  6
Continuous
 62
     2
100
AcDbLine
 10
-85.99999814279892
 20
329.9110460971913
 30
0.0
 11
-85.99999814279892
 21
324.9110460971912
 31
0.0
  0
LINE
  5
A0
330
47
100
AcDbEntity
  8
1
  6
Continuous
 62
     2
100
AcDbLine
 10
157.5000018571992
 20
324.9110460971912
 30
0.0
 11
107.5000018571992
 21
324.9110460971912
 31
0.0
  0
LINE
  5
A1
330
47
100
AcDbEntity
  8
1
  6
Continuous
 62
     2
100
AcDbLine
 10
157.5000018571992
 20
324.9110460971912
 30
0.0
 11
157.5000018571992
 21
329.9110460971913
 31
0.0
  0
LINE
  5
A2
330
47
100
AcDbEntity
  8
1
  6
Continuous
 62
     2
100
AcDbLine
 10
107.5000018571992
 20
324.9110460971912
 30
0.0
 11
107.5000018571992
 21
329.9110460971913
 31
0.0
  0
LINE
  5
A3
330
47
100
AcDbEntity
  8
1
  6
Continuous
 62
     2
100
AcDbLine
 10
57.50000185719921
 20
324.9110460971912
 30
0.0
 11
107.5000018571992
 21
324.9110460971912
 31
0.0
  0
LINE
  5
A4
330
47
100
AcDbEntity
  8
1
  6
Continuous
 62
     2
100
AcDbLine
 10
57.50000185719921
 20
324.9110460971912
 30
0.0
 11
57.50000185719921
 21
329.9110460971913
 31
0.0
  0
LINE
  5
A5
330
47
100
AcDbEntity
  8
1
  6
Continuous
 62
     2
100
AcDbLine
 10
7.50000185719898
 20
324.9110460971912
 30
0.0
 11
57.50000185719921
 21
324.9110460971912
 31
0.0
  0
LINE
  5
A6
330
47
100
AcDbEntity
  8
1
  6
Continuous
 62
     2
100
AcDbLine
 10
7.50000185719898
 20
324.9110460971912
 30
0.0
 11
7.50000185719898
 21
329.9110460971913
 31
0.0
  0
LINE
  5
A7
330
47
100
AcDbEntity
  8
1
  6
Continuous
 62
     2
100
AcDbLine
 10
-42.49999814280079
 20
324.9110460971912
 30
0.0
 11
7.50000185719898
 21
324.9110460971912
 31
0.0
  0
LINE
  5
A8
330
47
100
AcDbEntity
  8
1
  6
Continuous
 62
     2
100
AcDbLine
 10
-42.49999814280079
 20
324.9110460971912
 30
0.0
 11
-42.49999814280079
 21
329.9110460971913
 31
0.0
  0
LINE
  5
A9
330
47
100
AcDbEntity
  8
1
  6
Continuous
 62
     6
100
AcDbLine
 10
-85.99999814279909
 20
379.9110460971914
 30
0.0
 11
-85.99999814279892
 21
329.9110460971913
 31
0.0
  0
LINE
  5
AA
330
47
100
AcDbEntity
  8
1
  6
Continuous
 62
     2
100
AcDbLine
 10
-90.99999814279988
 20
379.9110460971914
 30
0.0
 11
-90.99999814279988
 21
329.9110460971913
 31
0.0
  0
LINE
  5
AB
330
47
100
AcDbEntity
  8
1
  6
Continuous
 62
     2
100
AcDbLine
 10
-90.99999814279988
 20
379.9110460971914
 30
0.0
 11
-85.99999814279909
 21
379.9110460971914
 31
0.0
  0
LINE
  5
AC
330
47
100
AcDbEntity
  8
1
  6
Continuous
 62
     6
100
AcDbLine
 10
-85.99999814279931
 20
429.9110460971912
 30
0.0
 11
-85.99999814279909
 21
379.9110460971914
 31
0.0
  0
LINE
  5
AD
330
47
100
AcDbEntity
  8
1
  6
Continuous
 62
     2
100
AcDbLine
 10
-90.99999814279988
 20
429.9110460971912
 30
0.0
 11
-90.99999814279988
 21
379.9110460971914
 31
0.0
  0
LINE
  5
AE
330
47
100
AcDbEntity
  8
1
  6
Continuous
 62
     2
100
AcDbLine
 10
-90.99999814279988
 20
429.9110460971912
 30
0.0
 11
-85.99999814279931
 21
429.9110460971912
 31
0.0
  0
LINE
  5
AF
330
47
100
AcDbEntity
  8
1
  6
Continuous
 62
     6
100
AcDbLine
 10
-85.99999814279983
 20
479.9110460971913
 30
0.0
 11
-85.99999814279931
 21
429.9110460971912
 31
0.0
  0
LINE
  5
B0
330
47
100
AcDbEntity
  8
1
  6
Continuous
 62
     2
100
AcDbLine
 10
-90.99999814279988
 20
479.9110460971913
 30
0.0
 11
-90.99999814279988
 21
429.9110460971912
 31
0.0
  0
LINE
  5
B1
330
47
100
AcDbEntity
  8
1
  6
Continuous
 62
     2
100
AcDbLine
 10
-90.99999814279988
 20
479.9110460971913
 30
0.0
 11
-85.99999814279983
 21
479.9110460971913
 31
0.0
  0
LINE
  5
B2
330
47
100
AcDbEntity
  8
1
  6
Continuous
 62
     6
100
AcDbLine
 10
-85.99999814279988
 20
514.9110460971913
 30
0.0
 11
-85.99999814279983
 21
479.9110460971913
 31
0.0
  0
LINE
  5
B3
330
47
100
AcDbEntity
  8
1
  6
Continuous
 62
     2
100
AcDbLine
 10
-90.99999814279988
 20
534.9110460971913
 30
0.0
 11
-90.99999814279988
 21
479.9110460971913
 31
0.0
  0
LINE
  5
B4
330
47
100
AcDbEntity
  8
1
  6
Continuous
 62
     2
100
AcDbLine
 10
-90.99999814279988
 20
324.9110460971912
 30
0.0
 11
-85.99999814279892
 21
324.9110460971912
 31
0.0
  0
LINE
  5
B5
330
47
100
AcDbEntity
  8
1
  6
Continuous
 62
     2
100
AcDbLine
 10
57.50000185719921
 20
534.9110460971913
 30
0.0
 11
57.50000185719921
 21
525.70235425249
 31
0.0
  0
LINE
  5
B6
330
47
100
AcDbEntity
  8
1
  6
Continuous
 62
     2
100
AcDbLine
 10
57.50000185719921
 20
534.9110460971913
 30
0.0
 11
-90.99999814279988
 21
534.9110460971913
 31
0.0
  0
LINE
  5
B7
330
47
100
AcDbEntity
  8
1
  6
Continuous
 62
     2
100
AcDbLine
 10
206.0000018571982
 20
329.9110460971913
 30
0.0
 11
206.0000018571982
 21
379.9110460971914
 31
0.0
  0
LINE
  5
B8
330
47
100
AcDbEntity
  8
1
  6
Continuous
 62
     2
100
AcDbLine
 10
206.0000018571982
 20
479.9110460971913
 30
0.0
 11
206.0000018571982
 21
534.9110460971913
 31
0.0
  0
LINE
  5
B9
330
47
100
AcDbEntity
  8
1
  6
Continuous
 62
     6
100
AcDbLine
 10
201.0000018571984
 20
479.9110460971913
 30
0.0
 11
201.0000018571982
 21
514.9110460971913
 31
0.0
  0
LINE
  5
BA
330
47
100
AcDbEntity
  8
1
  6
Continuous
 62
     2
100
AcDbLine
 10
201.0000018571984
 20
479.9110460971913
 30
0.0
 11
206.0000018571982
 21
479.9110460971913
 31
0.0
  0
LINE
  5
BB
330
47
100
AcDbEntity
  8
1
  6
Continuous
 62
     2
100
AcDbLine
 10
206.0000018571982
 20
429.9110460971912
 30
0.0
 11
206.0000018571982
 21
479.9110460971913
 31
0.0
  0
LINE
  5
BC
330
47
100
AcDbEntity
  8
1
  6
Continuous
 62
     6
100
AcDbLine
 10
201.0000018571996
 20
429.9110460971912
 30
0.0
 11
201.0000018571984
 21
479.9110460971913
 31
0.0
  0
LINE
  5
BD
330
47
100
AcDbEntity
  8
1
  6
Continuous
 62
     2
100
AcDbLine
 10
201.0000018571996
 20
429.9110460971912
 30
0.0
 11
206.0000018571982
 21
429.9110460971912
 31
0.0
  0
LINE
  5
BE
330
47
100
AcDbEntity
  8
1
  6
Continuous
 62
     2
100
AcDbLine
 10
206.0000018571982
 20
379.9110460971914
 30
0.0
 11
206.0000018571982
 21
429.9110460971912
 31
0.0
  0
LINE
  5
BF
330
47
100
AcDbEntity
  8
1
  6
Continuous
 62
     6
100
AcDbLine
 10
201.0000018572001
 20
379.9110460971914
 30
0.0
 11
201.0000018571996
 21
429.9110460971912
 31
0.0
  0
LINE
  5
C0
330
47
100
AcDbEntity
  8
1
  6
Continuous
 62
     2
100
AcDbLine
 10
201.0000018572001
 20
379.9110460971914
 30
0.0
 11
206.0000018571982
 21
379.9110460971914
 31
0.0
  0
LINE
  5
C1
330
47
100
AcDbEntity
  8
1
  6
Continuous
 62
     6
100
AcDbLine
 10
201.0000018571982
 20
514.9110460971913
 30
0.0
 11
-85.99999814279988
 21
514.9110460971913
 31
0.0
  0
LINE
  5
C2
330
47
100
AcDbEntity
  8
1
  6
Continuous
 62
     2
100
AcDbLine
 10
206.0000018571982
 20
534.9110460971913
 30
0.0
 11
57.50000185719921
 21
534.9110460971913
 31
0.0
  0
LINE
  5
C3
330
47
100
AcDbEntity
  8
1
  6
Continuous
 62
     6
100
AcDbLine
 10
201.0000018572009
 20
346.9110460971913
 30
0.0
 11
201.0000018572001
 21
379.9110460971914
 31
0.0
  0
LINE
  5
C4
330
47
100
AcDbEntity
  8
1
  6
Continuous
 62
     2
100
AcDbLine
 10
201.0000018571992
 20
324.9110460971912
 30
0.0
 11
157.5000018571992
 21
324.9110460971912
 31
0.0
  0
LINE
  5
C5
330
47
100
AcDbEntity
  8
1
  6
Continuous
 62
     2
100
AcDbLine
 10
206.0000018571982
 20
324.9110460971912
 30
0.0
 11
201.0000018571992
 21
324.9110460971912
 31
0.0
  0
LINE
  5
C6
330
47
100
AcDbEntity
  8
1
  6
Continuous
 62
     2
100
AcDbLine
 10
206.0000018571982
 20
324.9110460971912
 30
0.0
 11
206.0000018571982
 21
329.9110460971913
 31
0.0
  0
LINE
  5
C7
330
47
100
AcDbEntity
  8
1
  6
Continuous
 62
     6
100
AcDbLine
 10
71.45519733044918
 20
346.9110460971913
 30
0.0
 11
107.8551973304491
 21
346.9110460971913
 31
0.0
  0
LINE
  5
C8
330
47
100
AcDbEntity
  8
1
  6
Continuous
 62
     2
100
AcDbLine
 10
201.0000018571992
 20
329.9110460971913
 30
0.0
 11
201.0000018571992
 21
324.9110460971912
 31
0.0
  0
LINE
  5
C9
330
47
100
AcDbEntity
  8
1
  6
Continuous
 62
     2
100
AcDbLine
 10
201.0000018571992
 20
329.9110460971913
 30
0.0
 11
206.0000018571982
 21
329.9110460971913
 31
0.0
  0
LINE
  5
CA
330
47
100
AcDbEntity
  8
1
  6
Continuous
 62
     6
100
AcDbLine
 10
107.5000018571992
 20
329.9110460971913
 30
0.0
 11
89.6551973304492
 21
329.9110460971913
 31
0.0
  0
LINE
  5
CB
330
47
100
AcDbEntity
  8
1
  6
Continuous
 62
     6
100
AcDbLine
 10
157.5000018571992
 20
329.9110460971913
 30
0.0
 11
201.0000018571992
 21
329.9110460971913
 31
0.0
  0
LINE
  5
CC
330
47
100
AcDbEntity
  8
1
  6
Continuous
 62
     6
100
AcDbLine
 10
7.50000185719898
 20
329.9110460971913
 30
0.0
 11
2.45519733044921
 21
329.9110460971913
 31
0.0
  0
LINE
  5
CD
330
47
100
AcDbEntity
  8
1
  6
Continuous
 62
     6
100
AcDbLine
 10
57.50000185719921
 20
329.9110460971913
 30
0.0
 11
71.45519733044918
 21
329.9110460971912
 31
0.0
  0
LINE
  5
CE
102
{ACAD_REACTORS
330
1B9
330
1BA
102
}
330
47
100
AcDbEntity
  8
0
  6
Continuous
 62
     2
100
AcDbLine
 10
78.96982327259599
 20
341.9835608534034
 30
0.0
 11
78.96982327259599
 21
342.5890961419102
 31
0.0
  0
LINE
  5
CF
102
{ACAD_REACTORS
330
1B9
330
1BA
102
}
330
47
100
AcDbEntity
  8
0
  6
Continuous
 62
     2
100
AcDbLine
 10
78.96982327259599
 20
339.1834262467721
 30
0.0
 11
78.96982327259599
 21
339.7652776534671
 31
0.0
  0
LINE
  5
D0
102
{ACAD_REACTORS
330
1BB
330
1BC
102
}
330
47
100
AcDbEntity
  8
0
  6
Continuous
 62
     2
100
AcDbLine
 10
101.5993097080752
 20
339.4730903148951
 30
0.0
 11
101.5993097080752
 21
337.2045460972076
 31
0.0
  0
LINE
  5
D1
102
{ACAD_REACTORS
330
1BB
330
1BC
102
}
330
47
100
AcDbEntity
  8
0
  6
Continuous
 62
     2
100
AcDbLine
 10
100.2182559290876
 20
340.2583556210182
 30
0.0
 11
103.6032014477163
 21
340.2583556210187
 31
0.0
  0
LINE
  5
D2
102
{ACAD_REACTORS
330
1BB
330
1BC
102
}
330
47
100
AcDbEntity
  8
0
  6
Continuous
 62
     2
100
AcDbLine
 10
103.6032014477163
 20
339.4730903148951
 30
0.0
 11
103.6032014477163
 21
340.2583556210187
 31
0.0
  0
LINE
  5
D3
102
{ACAD_REACTORS
330
1BB
330
1BC
102
}
330
47
100
AcDbEntity
  8
0
  6
Continuous
 62
     2
100
AcDbLine
 10
102.7921024102429
 20
339.4730903148951
 30
0.0
 11
103.6032014477163
 21
339.4730903148951
 31
0.0
  0
LINE
  5
D4
102
{ACAD_REACTORS
330
1BB
330
1BC
102
}
330
47
100
AcDbEntity
  8
0
  6
Continuous
 62
     2
100
AcDbLine
 10
102.7921024102429
 20
337.2045460972076
 30
0.0
 11
102.7921024102429
 21
339.4730903148951
 31
0.0
  0
LINE
  5
D5
102
{ACAD_REACTORS
330
1BB
330
1BC
102
}
330
47
100
AcDbEntity
  8
0
  6
Continuous
 62
     2
100
AcDbLine
 10
101.5993097080752
 20
337.2045460972076
 30
0.0
 11
102.7921024102429
 21
337.2045460972076
 31
0.0
  0
LINE
  5
D6
102
{ACAD_REACTORS
330
1B1
330
1B2
102
}
330
47
100
AcDbEntity
  8
0
  6
Continuous
 62
     2
100
AcDbLine
 10
100.9027187700107
 20
343.6175460971931
 30
0.0
 11
99.4999945522614
 21
343.6175460971931
 31
0.0
  0
LINE
  5
D7
102
{ACAD_REACTORS
330
1B1
330
1B2
102
}
330
47
100
AcDbEntity
  8
0
  6
Continuous
 62
     2
100
AcDbLine
 10
100.9027187700107
 20
343.6175460971931
 30
0.0
 11
101.5038862919025
 21
342.9377227756376
 31
0.0
  0
LINE
  5
D8
102
{ACAD_REACTORS
330
1B1
330
1B2
102
}
330
47
100
AcDbEntity
  8
0
  6
Continuous
 62
     2
100
AcDbLine
 10
101.5038862919025
 20
342.9377227756376
 30
0.0
 11
102.1050538137953
 21
343.6175460971931
 31
0.0
  0
LINE
  5
D9
102
{ACAD_REACTORS
330
1B1
330
1B2
102
}
330
47
100
AcDbEntity
  8
0
  6
Continuous
 62
     2
100
AcDbLine
 10
102.205248400776
 20
342.1445955671569
 30
0.0
 11
103.5077780315425
 21
343.6175460971931
 31
0.0
  0
LINE
  5
DA
102
{ACAD_REACTORS
330
1B1
330
1B2
102
}
330
47
100
AcDbEntity
  8
0
  6
Continuous
 62
     2
100
AcDbLine
 10
102.205248400776
 20
342.1445955671569
 30
0.0
 11
103.6032014477163
 21
340.5637365733819
 31
0.0
  0
LINE
  5
DB
102
{ACAD_REACTORS
330
1B1
330
1B2
102
}
330
47
100
AcDbEntity
  8
0
  6
Continuous
 62
     2
100
AcDbLine
 10
102.200477229968
 20
340.5637365733819
 30
0.0
 11
103.6032014477163
 21
340.5637365733819
 31
0.0
  0
LINE
  5
DC
102
{ACAD_REACTORS
330
1B1
330
1B2
102
}
330
47
100
AcDbEntity
  8
0
  6
Continuous
 62
     2
100
AcDbLine
 10
101.5038862919025
 20
341.3514683586756
 30
0.0
 11
102.200477229968
 21
340.5637365733819
 31
0.0
  0
LINE
  5
DD
102
{ACAD_REACTORS
330
1AF
330
1B0
102
}
330
47
100
AcDbEntity
  8
0
  6
Continuous
 62
     2
100
AcDbLine
 10
98.0447874556188
 20
343.6175460971931
 30
0.0
 11
99.2852918658717
 21
343.6175460971931
 31
0.0
  0
LINE
  5
DE
102
{ACAD_REACTORS
330
1AF
330
1B0
102
}
330
47
100
AcDbEntity
  8
0
  6
Continuous
 62
     2
100
AcDbLine
 10
99.2852918658717
 20
343.6175460971931
 30
0.0
 11
99.2852918658717
 21
340.5637365733819
 31
0.0
  0
LINE
  5
DF
102
{ACAD_REACTORS
330
1AF
330
1B0
102
}
330
47
100
AcDbEntity
  8
0
  6
Continuous
 62
     2
100
AcDbLine
 10
98.0447874556188
 20
340.5637365733819
 30
0.0
 11
98.0447874556188
 21
343.6175460971931
 31
0.0
  0
LINE
  5
E0
102
{ACAD_REACTORS
330
1AD
330
1AE
102
}
330
47
100
AcDbEntity
  8
0
  6
Continuous
 62
     2
100
AcDbLine
 10
96.57647737308119
 20
338.4260699067321
 30
0.0
 11
96.87664261027359
 21
339.1938848727187
 31
0.0
  0
LINE
  5
E1
102
{ACAD_REACTORS
330
1AD
330
1AE
102
}
330
47
100
AcDbEntity
  8
0
  6
Continuous
 62
     2
100
AcDbLine
 10
96.09894176846038
 20
337.2045460972076
 30
0.0
 11
96.31042182193619
 21
337.7455066414254
 31
0.0
  0
LINE
  5
E2
102
{ACAD_REACTORS
330
1AD
330
1AE
102
}
330
47
100
AcDbEntity
  8
0
  6
Continuous
 62
     2
100
AcDbLine
 10
96.2563904051467
 20
340.2583556210187
 30
0.0
 11
94.8584373582074
 21
337.2045460972076
 31
0.0
  0
LINE
  5
E3
102
{ACAD_REACTORS
330
1AD
330
1AE
102
}
330
47
100
AcDbEntity
  8
0
  6
Continuous
 62
     2
100
AcDbLine
 10
98.8948478623397
 20
337.2045460972076
 30
0.0
 11
97.65434345208578
 21
337.2045460972076
 31
0.0
  0
LINE
  5
E4
102
{ACAD_REACTORS
330
1AD
330
1AE
102
}
330
47
100
AcDbEntity
  8
0
  6
Continuous
 62
     2
100
AcDbLine
 10
96.31042182193619
 20
337.7455066414254
 30
0.0
 11
97.44286339861
 21
337.7455066414254
 31
0.0
  0
LINE
  5
E5
102
{ACAD_REACTORS
330
1AB
330
1AC
102
}
330
47
100
AcDbEntity
  8
0
  6
Continuous
 62
     2
100
AcDbLine
 10
92.70092521902518
 20
339.4730903148951
 30
0.0
 11
93.51202425649979
 21
339.4730903148951
 31
0.0
  0
LINE
  5
E6
102
{ACAD_REACTORS
330
1AB
330
1AC
102
}
330
47
100
AcDbEntity
  8
0
  6
Continuous
 62
     2
100
AcDbLine
 10
95.5159159961388
 20
340.2583556210187
 30
0.0
 11
92.70092521902518
 21
340.2583556210187
 31
0.0
  0
LINE
  5
E7
102
{ACAD_REACTORS
330
1AB
330
1AC
102
}
330
47
100
AcDbEntity
  8
0
  6
Continuous
 62
     2
100
AcDbLine
 10
95.5159159961388
 20
339.4730903148951
 30
0.0
 11
95.5159159961388
 21
340.2583556210187
 31
0.0
  0
LINE
  5
E8
102
{ACAD_REACTORS
330
1AB
330
1AC
102
}
330
47
100
AcDbEntity
  8
0
  6
Continuous
 62
     2
100
AcDbLine
 10
94.7048169586663
 20
339.4730903148951
 30
0.0
 11
95.5159159961388
 21
339.4730903148951
 31
0.0
  0
LINE
  5
E9
102
{ACAD_REACTORS
330
1AB
330
1AC
102
}
330
47
100
AcDbEntity
  8
0
  6
Continuous
 62
     2
100
AcDbLine
 10
94.7048169586663
 20
337.2045460972076
 30
0.0
 11
94.7048169586663
 21
339.4730903148951
 31
0.0
  0
LINE
  5
EA
102
{ACAD_REACTORS
330
1A9
330
1AA
102
}
330
47
100
AcDbEntity
  8
0
  6
Continuous
 62
     2
100
AcDbLine
 10
95.3729318027643
 20
340.5637365733819
 30
0.0
 11
95.3729318027643
 21
341.8725120835866
 31
0.0
  0
LINE
  5
EB
102
{ACAD_REACTORS
330
1A9
330
1AA
102
}
330
47
100
AcDbEntity
  8
0
  6
Continuous
 62
     2
100
AcDbLine
 10
94.18013910059778
 20
343.6175460971931
 30
0.0
 11
94.18013910059778
 21
340.5637365733819
 31
0.0
  0
LINE
  5
EC
102
{ACAD_REACTORS
330
1A9
330
1AA
102
}
330
47
100
AcDbEntity
  8
0
  6
Continuous
 62
     2
100
AcDbLine
 10
95.3729318027643
 20
343.6175460971931
 30
0.0
 11
94.18013910059778
 21
343.6175460971931
 31
0.0
  0
LINE
  5
ED
102
{ACAD_REACTORS
330
1A9
330
1AA
102
}
330
47
100
AcDbEntity
  8
0
  6
Continuous
 62
     2
100
AcDbLine
 10
96.6134362130183
 20
343.6175460971931
 30
0.0
 11
96.6134362130183
 21
342.3087705869879
 31
0.0
  0
LINE
  5
EE
102
{ACAD_REACTORS
330
1A7
330
1A8
102
}
330
47
100
AcDbEntity
  8
0
  6
Continuous
 62
     2
100
AcDbLine
 10
88.93170028017809
 20
340.2583556210187
 30
0.0
 11
88.93170028017809
 21
337.2045460972076
 31
0.0
  0
LINE
  5
EF
102
{ACAD_REACTORS
330
1A7
330
1A8
102
}
330
47
100
AcDbEntity
  8
0
  6
Continuous
 62
     2
100
AcDbLine
 10
90.12449298234569
 20
340.2583556210187
 30
0.0
 11
88.93170028017809
 21
340.2583556210187
 31
0.0
  0
LINE
  5
F0
102
{ACAD_REACTORS
330
1A7
330
1A8
102
}
330
47
100
AcDbEntity
  8
0
  6
Continuous
 62
     2
100
AcDbLine
 10
91.36499739259858
 20
337.2045460972076
 30
0.0
 11
92.55779009476498
 21
337.2045460972076
 31
0.0
  0
LINE
  5
F1
102
{ACAD_REACTORS
330
1A7
330
1A8
102
}
330
47
100
AcDbEntity
  8
0
  6
Continuous
 62
     2
100
AcDbLine
 10
88.93170028017809
 20
337.2045460972076
 30
0.0
 11
90.12449298234569
 21
337.2045460972076
 31
0.0
  0
LINE
  5
F2
102
{ACAD_REACTORS
330
1B7
330
1B8
102
}
330
47
100
AcDbEntity
  8
0
  6
Continuous
 62
     2
100
AcDbLine
 10
92.6056527337372
 20
342.4396481380084
 30
0.0
 11
92.6056527337372
 21
342.9195324917501
 31
0.0
  0
LINE
  5
F3
102
{ACAD_REACTORS
330
1B7
330
1B8
102
}
330
47
100
AcDbEntity
  8
0
  6
Continuous
 62
     2
100
AcDbLine
 10
93.94158056016488
 20
342.4396481380084
 30
0.0
 11
92.6056527337372
 21
342.4396481380084
 31
0.0
  0
LINE
  5
F4
102
{ACAD_REACTORS
330
1B7
330
1B8
102
}
330
47
100
AcDbEntity
  8
0
  6
Continuous
 62
     2
100
AcDbLine
 10
93.94158056016488
 20
341.7416345325661
 30
0.0
 11
93.94158056016488
 21
342.4396481380084
 31
0.0
  0
LINE
  5
F5
102
{ACAD_REACTORS
330
1B7
330
1B8
102
}
330
47
100
AcDbEntity
  8
0
  6
Continuous
 62
     2
100
AcDbLine
 10
92.6056527337372
 20
341.7416345325661
 30
0.0
 11
93.94158056016488
 21
341.7416345325661
 31
0.0
  0
LINE
  5
F6
102
{ACAD_REACTORS
330
1A5
330
1A6
102
}
330
47
100
AcDbEntity
  8
0
  6
Continuous
 62
     2
100
AcDbLine
 10
89.12269804341028
 20
343.6175460971931
 30
0.0
 11
89.12269804341028
 21
340.5637365733819
 31
0.0
  0
LINE
  5
F7
102
{ACAD_REACTORS
330
1A5
330
1A6
102
}
330
47
100
AcDbEntity
  8
0
  6
Continuous
 62
     2
100
AcDbLine
 10
89.12269804341028
 20
340.5637365733819
 30
0.0
 11
87.92990534124388
 21
340.5637365733819
 31
0.0
  0
LINE
  5
F8
102
{ACAD_REACTORS
330
1A5
330
1A6
102
}
330
47
100
AcDbEntity
  8
0
  6
Continuous
 62
     2
100
AcDbLine
 10
87.92990534124388
 20
340.5637365733819
 30
0.0
 11
87.92990534124388
 21
341.6980086822257
 31
0.0
  0
LINE
  5
F9
102
{ACAD_REACTORS
330
1A5
330
1A6
102
}
330
47
100
AcDbEntity
  8
0
  6
Continuous
 62
     2
100
AcDbLine
 10
86.8802477633364
 20
340.5637365733819
 30
0.0
 11
85.6874550611698
 21
340.5637365733819
 31
0.0
  0
LINE
  5
FA
102
{ACAD_REACTORS
330
1A5
330
1A6
102
}
330
47
100
AcDbEntity
  8
0
  6
Continuous
 62
     2
100
AcDbLine
 10
85.6874550611698
 20
343.6175460971931
 30
0.0
 11
86.8802477633364
 21
343.6175460971931
 31
0.0
  0
LINE
  5
FB
102
{ACAD_REACTORS
330
1A5
330
1A6
102
}
330
47
100
AcDbEntity
  8
0
  6
Continuous
 62
     2
100
AcDbLine
 10
86.8802477633364
 20
343.6175460971931
 30
0.0
 11
86.8802477633364
 21
342.5487127638585
 31
0.0
  0
LINE
  5
FC
102
{ACAD_REACTORS
330
1A5
330
1A6
102
}
330
47
100
AcDbEntity
  8
0
  6
Continuous
 62
     2
100
AcDbLine
 10
86.8802477633364
 20
342.5487127638585
 30
0.0
 11
87.92990534124388
 21
342.5487127638585
 31
0.0
  0
LINE
  5
FD
102
{ACAD_REACTORS
330
1B3
330
1B4
102
}
330
47
100
AcDbEntity
  8
0
  6
Continuous
 62
     2
100
AcDbLine
 10
83.7312750296162
 20
342.954440251753
 30
0.0
 11
84.0485700911581
 21
342.954440251753
 31
0.0
  0
LINE
  5
FE
102
{ACAD_REACTORS
330
1B3
330
1B4
102
}
330
47
100
AcDbEntity
  8
0
  6
Continuous
 62
     2
100
AcDbLine
 10
83.7312750296162
 20
342.2487126024108
 30
0.0
 11
84.0485700911581
 21
342.2487126024108
 31
0.0
  0
LINE
  5
FF
102
{ACAD_REACTORS
330
1B3
330
1B4
102
}
330
47
100
AcDbEntity
  8
0
  6
Continuous
 62
     2
100
AcDbLine
 10
82.49077061936208
 20
343.6175460971931
 30
0.0
 11
82.49077061936208
 21
340.5637365733819
 31
0.0
  0
LINE
  5
100
102
{ACAD_REACTORS
330
1B3
330
1B4
102
}
330
47
100
AcDbEntity
  8
0
  6
Continuous
 62
     2
100
AcDbLine
 10
82.49077061936208
 20
343.6175460971931
 30
0.0
 11
84.49004261739648
 21
343.6175460971931
 31
0.0
  0
LINE
  5
101
102
{ACAD_REACTORS
330
1B3
330
1B4
102
}
330
47
100
AcDbEntity
  8
0
  6
Continuous
 62
     2
100
AcDbLine
 10
83.7312750296162
 20
341.5068148145257
 30
0.0
 11
84.49004261739648
 21
341.5068148145257
 31
0.0
  0
LINE
  5
102
102
{ACAD_REACTORS
330
1B9
330
1BA
102
}
330
47
100
AcDbEntity
  8
0
  6
Continuous
 62
     2
100
AcDbLine
 10
76.3942745860654
 20
342.5892736185583
 30
0.0
 11
76.3942745860654
 21
338.2328185758412
 31
0.0
  0
LINE
  5
103
102
{ACAD_REACTORS
330
1B9
330
1BA
102
}
330
47
100
AcDbEntity
  8
0
  6
Continuous
 62
     2
100
AcDbLine
 10
76.70999150914108
 20
342.9049905416345
 30
0.0
 11
78.1858247701507
 21
342.9049905416345
 31
0.0
  0
LINE
  5
104
102
{ACAD_REACTORS
330
1B9
330
1BA
102
}
330
47
100
AcDbEntity
  8
0
  6
Continuous
 62
     2
100
AcDbLine
 10
78.5015416932273
 20
341.9852489994978
 30
0.0
 11
78.5015416932273
 21
342.5892736185583
 31
0.0
  0
LINE
  5
105
102
{ACAD_REACTORS
330
1B9
330
1BA
102
}
330
47
100
AcDbEntity
  8
0
  6
Continuous
 62
     2
100
AcDbLine
 10
78.5015416932273
 20
338.2328185758412
 30
0.0
 11
78.5015416932273
 21
339.7635895073728
 31
0.0
  0
LINE
  5
106
102
{ACAD_REACTORS
330
1B9
330
1BA
102
}
330
47
100
AcDbEntity
  8
0
  6
Continuous
 62
     2
100
AcDbLine
 10
81.58940892311139
 20
337.2045460972076
 30
0.0
 11
76.11609683239459
 21
337.2045460972076
 31
0.0
  0
LINE
  5
107
102
{ACAD_REACTORS
330
1B9
330
1BA
102
}
330
47
100
AcDbEntity
  8
0
  6
Continuous
 62
     2
100
AcDbLine
 10
82.01365353849528
 20
343.1933014817911
 30
0.0
 11
82.01365353849528
 21
337.6287907125909
 31
0.0
  0
LINE
  5
108
102
{ACAD_REACTORS
330
1B9
330
1BA
102
}
330
47
100
AcDbEntity
  8
0
  6
Continuous
 62
     2
100
AcDbLine
 10
76.11609683239459
 20
343.6175460971749
 30
0.0
 11
81.58940892311139
 21
343.6175460971749
 31
0.0
  0
LINE
  5
109
102
{ACAD_REACTORS
330
1B9
330
1BA
102
}
330
47
100
AcDbEntity
  8
0
  6
Continuous
 62
     2
100
AcDbLine
 10
75.69185221701179
 20
343.1933014817911
 30
0.0
 11
75.69185221701179
 21
337.6287907125909
 31
0.0
  0
LINE
  5
10A
102
{ACAD_REACTORS
330
1B9
330
1BA
102
}
330
47
100
AcDbEntity
  8
0
  6
Continuous
 62
     2
100
AcDbLine
 10
78.1858247701507
 20
337.9171016527645
 30
0.0
 11
76.70999150914108
 21
337.9171016527645
 31
0.0
  0
LINE
  5
10B
102
{ACAD_REACTORS
330
1B3
330
1B4
102
}
330
47
100
AcDbEntity
  8
0
  6
Continuous
 62
     2
100
AcDbLine
 10
83.7312750296162
 20
340.5637365733819
 30
0.0
 11
83.7312750296162
 21
341.5068148145257
 31
0.0
  0
LINE
  5
10C
102
{ACAD_REACTORS
330
1B3
330
1B4
102
}
330
47
100
AcDbEntity
  8
0
  6
Continuous
 62
     2
100
AcDbLine
 10
82.49077061936208
 20
340.5637365733819
 30
0.0
 11
83.7312750296162
 21
340.5637365733819
 31
0.0
  0
LINE
  5
10D
102
{ACAD_REACTORS
330
1B3
330
1B4
102
}
330
47
100
AcDbEntity
  8
0
  6
Continuous
 62
     2
100
AcDbLine
 10
83.7312750296162
 20
342.2487126024108
 30
0.0
 11
83.7312750296162
 21
342.954440251753
 31
0.0
  0
LINE
  5
10E
102
{ACAD_REACTORS
330
1A5
330
1A6
102
}
330
47
100
AcDbEntity
  8
0
  6
Continuous
 62
     2
100
AcDbLine
 10
85.6874550611698
 20
343.6175460971931
 30
0.0
 11
85.6874550611698
 21
340.5637365733819
 31
0.0
  0
LINE
  5
10F
102
{ACAD_REACTORS
330
1A5
330
1A6
102
}
330
47
100
AcDbEntity
  8
0
  6
Continuous
 62
     2
100
AcDbLine
 10
86.8802477633364
 20
341.6980086822257
 30
0.0
 11
86.8802477633364
 21
340.5637365733819
 31
0.0
  0
LINE
  5
110
102
{ACAD_REACTORS
330
1A5
330
1A6
102
}
330
47
100
AcDbEntity
  8
0
  6
Continuous
 62
     2
100
AcDbLine
 10
87.92990534124388
 20
341.6980086822257
 30
0.0
 11
86.8802477633364
 21
341.6980086822257
 31
0.0
  0
LINE
  5
111
102
{ACAD_REACTORS
330
1A5
330
1A6
102
}
330
47
100
AcDbEntity
  8
0
  6
Continuous
 62
     2
100
AcDbLine
 10
87.92990534124388
 20
343.6175460971931
 30
0.0
 11
89.12269804341028
 21
343.6175460971931
 31
0.0
  0
LINE
  5
112
102
{ACAD_REACTORS
330
1A5
330
1A6
102
}
330
47
100
AcDbEntity
  8
0
  6
Continuous
 62
     2
100
AcDbLine
 10
87.92990534124388
 20
342.5487127638585
 30
0.0
 11
87.92990534124388
 21
343.6175460971931
 31
0.0
  0
LINE
  5
113
102
{ACAD_REACTORS
330
1B7
330
1B8
102
}
330
47
100
AcDbEntity
  8
0
  6
Continuous
 62
     2
100
AcDbLine
 10
93.94158056016488
 20
342.9195324917501
 30
0.0
 11
93.94158056016488
 21
343.6175460971931
 31
0.0
  0
LINE
  5
114
102
{ACAD_REACTORS
330
1B7
330
1B8
102
}
330
47
100
AcDbEntity
  8
0
  6
Continuous
 62
     2
100
AcDbLine
 10
90.79126083638388
 20
343.6175460971931
 30
0.0
 11
93.94158056016488
 21
343.6175460971931
 31
0.0
  0
LINE
  5
115
102
{ACAD_REACTORS
330
1B7
330
1B8
102
}
330
47
100
AcDbEntity
  8
0
  6
Continuous
 62
     2
100
AcDbLine
 10
90.79126083638388
 20
340.5637365733819
 30
0.0
 11
93.94158056016488
 21
340.5637365733819
 31
0.0
  0
LINE
  5
116
102
{ACAD_REACTORS
330
1B7
330
1B8
102
}
330
47
100
AcDbEntity
  8
0
  6
Continuous
 62
     2
100
AcDbLine
 10
93.94158056016488
 20
340.5637365733819
 30
0.0
 11
93.94158056016488
 21
341.2617501788244
 31
0.0
  0
LINE
  5
117
102
{ACAD_REACTORS
330
1B7
330
1B8
102
}
330
47
100
AcDbEntity
  8
0
  6
Continuous
 62
     2
100
AcDbLine
 10
93.94158056016488
 20
341.2617501788244
 30
0.0
 11
92.6056527337372
 21
341.2617501788244
 31
0.0
  0
LINE
  5
118
102
{ACAD_REACTORS
330
1B7
330
1B8
102
}
330
47
100
AcDbEntity
  8
0
  6
Continuous
 62
     2
100
AcDbLine
 10
92.6056527337372
 20
341.2617501788244
 30
0.0
 11
92.6056527337372
 21
341.7416345325661
 31
0.0
  0
LINE
  5
119
102
{ACAD_REACTORS
330
1B7
330
1B8
102
}
330
47
100
AcDbEntity
  8
0
  6
Continuous
 62
     2
100
AcDbLine
 10
92.6056527337372
 20
342.9195324917501
 30
0.0
 11
93.94158056016488
 21
342.9195324917501
 31
0.0
  0
LINE
  5
11A
102
{ACAD_REACTORS
330
1A7
330
1A8
102
}
330
47
100
AcDbEntity
  8
0
  6
Continuous
 62
     2
100
AcDbLine
 10
90.12449298234569
 20
337.2045460972076
 30
0.0
 11
90.12449298234569
 21
338.5133216074122
 31
0.0
  0
LINE
  5
11B
102
{ACAD_REACTORS
330
1A7
330
1A8
102
}
330
47
100
AcDbEntity
  8
0
  6
Continuous
 62
     2
100
AcDbLine
 10
90.12449298234569
 20
338.5133216074122
 30
0.0
 11
91.36499739259858
 21
337.2045460972076
 31
0.0
  0
LINE
  5
11C
102
{ACAD_REACTORS
330
1A7
330
1A8
102
}
330
47
100
AcDbEntity
  8
0
  6
Continuous
 62
     2
100
AcDbLine
 10
92.55779009476498
 20
337.2045460972076
 30
0.0
 11
92.55779009476498
 21
340.2583556210187
 31
0.0
  0
LINE
  5
11D
102
{ACAD_REACTORS
330
1A7
330
1A8
102
}
330
47
100
AcDbEntity
  8
0
  6
Continuous
 62
     2
100
AcDbLine
 10
92.55779009476498
 20
340.2583556210187
 30
0.0
 11
91.36499739259858
 21
340.2583556210187
 31
0.0
  0
LINE
  5
11E
102
{ACAD_REACTORS
330
1A7
330
1A8
102
}
330
47
100
AcDbEntity
  8
0
  6
Continuous
 62
     2
100
AcDbLine
 10
91.36499739259858
 20
340.2583556210187
 30
0.0
 11
91.36499739259858
 21
338.9495801108136
 31
0.0
  0
LINE
  5
11F
102
{ACAD_REACTORS
330
1A7
330
1A8
102
}
330
47
100
AcDbEntity
  8
0
  6
Continuous
 62
     2
100
AcDbLine
 10
91.36499739259858
 20
338.9495801108136
 30
0.0
 11
90.12449298234569
 21
340.2583556210187
 31
0.0
  0
LINE
  5
120
102
{ACAD_REACTORS
330
1A9
330
1AA
102
}
330
47
100
AcDbEntity
  8
0
  6
Continuous
 62
     2
100
AcDbLine
 10
95.3729318027643
 20
341.8725120835866
 30
0.0
 11
96.6134362130183
 21
340.5637365733819
 31
0.0
  0
LINE
  5
121
102
{ACAD_REACTORS
330
1A9
330
1AA
102
}
330
47
100
AcDbEntity
  8
0
  6
Continuous
 62
     2
100
AcDbLine
 10
96.6134362130183
 20
340.5637365733819
 30
0.0
 11
97.8062289151849
 21
340.5637365733819
 31
0.0
  0
LINE
  5
122
102
{ACAD_REACTORS
330
1A9
330
1AA
102
}
330
47
100
AcDbEntity
  8
0
  6
Continuous
 62
     2
100
AcDbLine
 10
97.8062289151849
 20
340.5637365733819
 30
0.0
 11
97.8062289151849
 21
343.6175460971931
 31
0.0
  0
LINE
  5
123
102
{ACAD_REACTORS
330
1A9
330
1AA
102
}
330
47
100
AcDbEntity
  8
0
  6
Continuous
 62
     2
100
AcDbLine
 10
97.8062289151849
 20
343.6175460971931
 30
0.0
 11
96.6134362130183
 21
343.6175460971931
 31
0.0
  0
LINE
  5
124
102
{ACAD_REACTORS
330
1A9
330
1AA
102
}
330
47
100
AcDbEntity
  8
0
  6
Continuous
 62
     2
100
AcDbLine
 10
96.6134362130183
 20
342.3087705869879
 30
0.0
 11
95.3729318027643
 21
343.6175460971931
 31
0.0
  0
LINE
  5
125
102
{ACAD_REACTORS
330
1A9
330
1AA
102
}
330
47
100
AcDbEntity
  8
0
  6
Continuous
 62
     2
100
AcDbLine
 10
94.18013910059778
 20
340.5637365733819
 30
0.0
 11
95.3729318027643
 21
340.5637365733819
 31
0.0
  0
LINE
  5
126
102
{ACAD_REACTORS
330
1AB
330
1AC
102
}
330
47
100
AcDbEntity
  8
0
  6
Continuous
 62
     2
100
AcDbLine
 10
92.70092521902518
 20
340.2583556210187
 30
0.0
 11
92.70092521902518
 21
339.4730903148951
 31
0.0
  0
LINE
  5
127
102
{ACAD_REACTORS
330
1AB
330
1AC
102
}
330
47
100
AcDbEntity
  8
0
  6
Continuous
 62
     2
100
AcDbLine
 10
93.51202425649979
 20
339.4730903148951
 30
0.0
 11
93.51202425649979
 21
337.2045460972076
 31
0.0
  0
LINE
  5
128
102
{ACAD_REACTORS
330
1AB
330
1AC
102
}
330
47
100
AcDbEntity
  8
0
  6
Continuous
 62
     2
100
AcDbLine
 10
93.51202425649979
 20
337.2045460972076
 30
0.0
 11
94.7048169586663
 21
337.2045460972076
 31
0.0
  0
LINE
  5
129
102
{ACAD_REACTORS
330
1AD
330
1AE
102
}
330
47
100
AcDbEntity
  8
0
  6
Continuous
 62
     2
100
AcDbLine
 10
97.65434345208578
 20
337.2045460972076
 30
0.0
 11
97.44286339861
 21
337.7455066414254
 31
0.0
  0
LINE
  5
12A
102
{ACAD_REACTORS
330
1AD
330
1AE
102
}
330
47
100
AcDbEntity
  8
0
  6
Continuous
 62
     2
100
AcDbLine
 10
97.4968948153994
 20
340.2583556210187
 30
0.0
 11
98.8948478623397
 21
337.2045460972076
 31
0.0
  0
LINE
  5
12B
102
{ACAD_REACTORS
330
1AD
330
1AE
102
}
330
47
100
AcDbEntity
  8
0
  6
Continuous
 62
     2
100
AcDbLine
 10
96.2563904051467
 20
340.2583556210187
 30
0.0
 11
97.4968948153994
 21
340.2583556210187
 31
0.0
  0
LINE
  5
12C
102
{ACAD_REACTORS
330
1AD
330
1AE
102
}
330
47
100
AcDbEntity
  8
0
  6
Continuous
 62
     2
100
AcDbLine
 10
94.8584373582074
 20
337.2045460972076
 30
0.0
 11
96.09894176846038
 21
337.2045460972076
 31
0.0
  0
LINE
  5
12D
102
{ACAD_REACTORS
330
1AD
330
1AE
102
}
330
47
100
AcDbEntity
  8
0
  6
Continuous
 62
     2
100
AcDbLine
 10
96.57647737308119
 20
338.4260699067321
 30
0.0
 11
97.17680784746369
 21
338.4260699067321
 31
0.0
  0
LINE
  5
12E
102
{ACAD_REACTORS
330
1AD
330
1AE
102
}
330
47
100
AcDbEntity
  8
0
  6
Continuous
 62
     2
100
AcDbLine
 10
97.17680784746369
 20
338.4260699067321
 30
0.0
 11
96.87664261027359
 21
339.1938848727187
 31
0.0
  0
LINE
  5
12F
102
{ACAD_REACTORS
330
1AF
330
1B0
102
}
330
47
100
AcDbEntity
  8
0
  6
Continuous
 62
     2
100
AcDbLine
 10
99.2852918658717
 20
340.5637365733819
 30
0.0
 11
98.0447874556188
 21
340.5637365733819
 31
0.0
  0
LINE
  5
130
102
{ACAD_REACTORS
330
1B1
330
1B2
102
}
330
47
100
AcDbEntity
  8
0
  6
Continuous
 62
     2
100
AcDbLine
 10
100.8072953538368
 20
340.5637365733819
 30
0.0
 11
99.40457113608858
 21
340.5637365733819
 31
0.0
  0
LINE
  5
131
102
{ACAD_REACTORS
330
1B1
330
1B2
102
}
330
47
100
AcDbEntity
  8
0
  6
Continuous
 62
     2
100
AcDbLine
 10
100.8072953538368
 20
340.5637365733819
 30
0.0
 11
101.5038862919025
 21
341.3514683586756
 31
0.0
  0
LINE
  5
132
102
{ACAD_REACTORS
330
1B1
330
1B2
102
}
330
47
100
AcDbEntity
  8
0
  6
Continuous
 62
     2
100
AcDbLine
 10
102.1050538137953
 20
343.6175460971931
 30
0.0
 11
103.5077780315425
 21
343.6175460971931
 31
0.0
  0
LINE
  5
133
102
{ACAD_REACTORS
330
1B1
330
1B2
102
}
330
47
100
AcDbEntity
  8
0
  6
Continuous
 62
     2
100
AcDbLine
 10
99.4999945522614
 20
343.6175460971931
 30
0.0
 11
100.8025241830289
 21
342.1445955671569
 31
0.0
  0
LINE
  5
134
102
{ACAD_REACTORS
330
1B1
330
1B2
102
}
330
47
100
AcDbEntity
  8
0
  6
Continuous
 62
     2
100
AcDbLine
 10
99.40457113608858
 20
340.5637365733819
 30
0.0
 11
100.8025241830289
 21
342.1445955671569
 31
0.0
  0
LINE
  5
135
102
{ACAD_REACTORS
330
1BB
330
1BC
102
}
330
47
100
AcDbEntity
  8
0
  6
Continuous
 62
     2
100
AcDbLine
 10
101.2653277514685
 20
338.2515665053712
 30
0.0
 11
101.2653277514685
 21
337.3790494985678
 31
0.0
  0
LINE
  5
136
102
{ACAD_REACTORS
330
1BB
330
1BC
102
}
330
47
100
AcDbEntity
  8
0
  6
Continuous
 62
     2
100
AcDbLine
 10
100.4956704085071
 20
339.4730903148951
 30
0.0
 11
101.5993097080752
 21
339.4730903148951
 31
0.0
  0
LINE
  5
137
102
{ACAD_REACTORS
330
1BD
330
1BE
102
}
330
47
100
AcDbEntity
  8
0
  6
Continuous
 62
     2
100
AcDbLine
 10
85.16262627221658
 20
338.2515665053717
 30
0.0
 11
85.16262627221658
 21
337.3790494985685
 31
0.0
  0
LINE
  5
138
102
{ACAD_REACTORS
330
1BD
330
1BE
102
}
330
47
100
AcDbEntity
  8
0
  6
Continuous
 62
     2
100
AcDbLine
 10
85.16262627221658
 20
339.2113352128546
 30
0.0
 11
85.16262627221658
 21
340.0838522196578
 31
0.0
  0
LINE
  5
139
330
47
100
AcDbEntity
  8
1
  6
Continuous
 62
     7
100
AcDbLine
 10
201.0000018572005
 20
338.4110460971913
 30
0.0
 11
107.8551973304491
 21
338.4110460971913
 31
0.0
  0
LINE
  5
13A
330
47
100
AcDbEntity
  8
1
  6
Continuous
 62
     6
100
AcDbLine
 10
2.45519733044921
 20
329.9110460971913
 30
0.0
 11
-42.49999814280079
 21
329.9110460971913
 31
0.0
  0
LINE
  5
13B
330
47
100
AcDbEntity
  8
1
  6
Continuous
 62
     7
100
AcDbLine
 10
192.0815935755217
 20
355.4110460971913
 30
0.0
 11
192.0815935755217
 21
346.9110460971913
 31
0.0
  0
LINE
  5
13C
330
47
100
AcDbEntity
  8
1
  6
Continuous
 62
     7
100
AcDbLine
 10
165.5815935755221
 20
355.4110460971913
 30
0.0
 11
165.5815935755221
 21
346.9110460971913
 31
0.0
  0
LINE
  5
13D
330
47
100
AcDbEntity
  8
1
  6
Continuous
 62
     7
100
AcDbLine
 10
107.8551973304491
 20
346.9110460971913
 30
0.0
 11
107.8551973304491
 21
355.4110460971913
 31
0.0
  0
LINE
  5
13E
330
47
100
AcDbEntity
  8
1
  6
Continuous
 62
     7
100
AcDbLine
 10
71.45519733044918
 20
346.9110460971913
 30
0.0
 11
71.45519733044918
 21
355.4110460971913
 31
0.0
  0
LINE
  5
13F
330
47
100
AcDbEntity
  8
1
  6
Continuous
 62
     6
100
AcDbLine
 10
107.8551973304491
 20
346.9110460971913
 30
0.0
 11
201.0000018572009
 21
346.9110460971913
 31
0.0
  0
LINE
  5
140
330
47
100
AcDbEntity
  8
1
  6
Continuous
 62
     7
100
AcDbLine
 10
135.7551973304492
 20
338.4110460971912
 30
0.0
 11
135.7551973304492
 21
346.9110460971913
 31
0.0
  0
LINE
  5
141
330
47
100
AcDbEntity
  8
1
  6
PHANTOM
 62
     2
100
AcDbLine
 10
86.94185221701179
 20
351.0360460971912
 30
0.0
 11
81.44185221701179
 21
351.0360460971912
 31
0.0
  0
LINE
  5
142
330
47
100
AcDbEntity
  8
1
  6
PHANTOM
 62
     2
100
AcDbLine
 10
84.19185221701179
 20
353.7860460971912
 30
0.0
 11
84.19185221701179
 21
348.2860460971912
 31
0.0
  0
LINE
  5
143
330
47
100
AcDbEntity
  8
1
  6
DOT_CENTER
 62
     2
100
AcDbLine
 10
75.44185221701179
 20
351.0360460971912
 30
0.0
 11
80.94185221701179
 21
351.0360460971912
 31
0.0
  0
ARC
  5
144
102
{ACAD_REACTORS
330
1BD
330
1BE
102
}
330
47
100
AcDbEntity
  8
0
  6
Continuous
 62
     2
100
AcDbCircle
 10
83.82669835509878
 20
335.418769913857
 30
0.0
 40
4.852596863497986
100
AcDbArc
 50
74.0200087416471
 51
84.84185523037509
  0
ARC
  5
145
102
{ACAD_REACTORS
330
1BD
330
1BE
102
}
330
47
100
AcDbEntity
  8
0
  6
Continuous
 62
     2
100
AcDbCircle
 10
84.4027389638525
 20
338.5745302697413
 30
0.0
 40
0.9059297849853768
100
AcDbArc
 50
71.55192388185462
 51
113.372277888129
  0
ARC
  5
146
102
{ACAD_REACTORS
330
1BD
330
1BE
102
}
330
47
100
AcDbEntity
  8
0
  6
Continuous
 62
     2
100
AcDbCircle
 10
84.24629893115048
 20
338.5263794297744
 30
0.0
 40
0.5115800601948034
100
AcDbArc
 50
208.5214732576956
 51
246.6277221118274
  0
ARC
  5
147
102
{ACAD_REACTORS
330
1BD
330
1BE
102
}
330
47
100
AcDbEntity
  8
0
  6
Continuous
 62
     2
100
AcDbCircle
 10
84.4027389638525
 20
338.8883714484844
 30
0.0
 40
0.9059297849849192
100
AcDbArc
 50
246.627722111871
 51
288.4480761181579
  0
ARC
  5
148
102
{ACAD_REACTORS
330
1BD
330
1BE
102
}
330
47
100
AcDbEntity
  8
0
  6
Continuous
 62
     2
100
AcDbCircle
 10
83.9845712301917
 20
340.1419172245215
 30
0.0
 40
2.227384008972656
100
AcDbArc
 50
288.4480761181335
 51
301.9309089499612
  0
ARC
  5
149
102
{ACAD_REACTORS
330
1B9
330
1BA
102
}
330
47
100
AcDbEntity
  8
0
  6
Continuous
 62
     2
100
AcDbCircle
 10
78.7594974975849
 20
340.8744192534356
 30
0.0
 40
0.9118481501444333
100
AcDbArc
 50
295.3740086781772
 51
64.625991321809
  0
ARC
  5
14A
102
{ACAD_REACTORS
330
1B9
330
1BA
102
}
330
47
100
AcDbEntity
  8
0
  6
Continuous
 62
     2
100
AcDbCircle
 10
79.28554019567278
 20
342.5890961419102
 30
0.0
 40
0.3157169230760711
100
AcDbArc
 50
90.18896704254594
 51
180.0
  0
ARC
  5
14B
102
{ACAD_REACTORS
330
1BB
330
1BC
102
}
330
47
100
AcDbEntity
  8
0
  6
Continuous
 62
     2
100
AcDbCircle
 10
100.4956704085071
 20
338.518567308069
 30
0.0
 40
0.9545230068260935
100
AcDbArc
 50
90.0
 51
109.3371432194312
  0
ARC
  5
14C
102
{ACAD_REACTORS
330
1BB
330
1BC
102
}
330
47
100
AcDbEntity
  8
0
  6
Continuous
 62
     2
100
AcDbCircle
 10
100.7263576684848
 20
338.7314508591129
 30
0.0
 40
0.9410597353348914
100
AcDbArc
 50
151.4785267423644
 51
208.5214732576691
  0
ARC
  5
14D
102
{ACAD_REACTORS
330
1BB
330
1BC
102
}
330
47
100
AcDbEntity
  8
0
  6
Continuous
 62
     2
100
AcDbCircle
 10
100.5054404431065
 20
338.8883714484844
 30
0.0
 40
0.9059297849852744
100
AcDbArc
 50
246.6277221118191
 51
288.4480761180826
  0
ARC
  5
14E
102
{ACAD_REACTORS
330
1BB
330
1BC
102
}
330
47
100
AcDbEntity
  8
0
  6
Continuous
 62
     2
100
AcDbCircle
 10
100.0872727094446
 20
340.141917224521
 30
0.0
 40
2.227384008972773
100
AcDbArc
 50
288.4480761181333
 51
301.930908949939
  0
ARC
  5
14F
102
{ACAD_REACTORS
330
1BB
330
1BC
102
}
330
47
100
AcDbEntity
  8
0
  6
Continuous
 62
     2
100
AcDbCircle
 10
99.92939983435178
 20
342.0441318043693
 30
0.0
 40
4.852596863498825
100
AcDbArc
 50
275.1581447696364
 51
285.9799912583384
  0
ARC
  5
150
102
{ACAD_REACTORS
330
1BB
330
1BC
102
}
330
47
100
AcDbEntity
  8
0
  6
Continuous
 62
     2
100
AcDbCircle
 10
100.2182559290876
 20
338.8442412211477
 30
0.0
 40
1.639695123940448
100
AcDbArc
 50
195.0618917771012
 51
275.1581447696762
  0
ARC
  5
151
102
{ACAD_REACTORS
330
1B3
330
1B4
102
}
330
47
100
AcDbEntity
  8
0
  6
Continuous
 62
     2
100
AcDbCircle
 10
84.49004261739648
 20
342.5621804558594
 30
0.0
 40
1.055365641333708
100
AcDbArc
 50
270.0
 51
90.0
  0
ARC
  5
152
102
{ACAD_REACTORS
330
1B9
330
1BA
102
}
330
47
100
AcDbEntity
  8
0
  6
Continuous
 62
     2
100
AcDbCircle
 10
76.70999150914108
 20
338.2328185758412
 30
0.0
 40
0.3157169230756836
100
AcDbArc
 50
180.0
 51
270.0
  0
ARC
  5
153
102
{ACAD_REACTORS
330
1B9
330
1BA
102
}
330
47
100
AcDbEntity
  8
0
  6
Continuous
 62
     2
100
AcDbCircle
 10
78.1858247701507
 20
342.5892736185583
 30
0.0
 40
0.315716923076593
100
AcDbArc
 50
0.0
 51
90.0
  0
ARC
  5
154
102
{ACAD_REACTORS
330
1B9
330
1BA
102
}
330
47
100
AcDbEntity
  8
0
  6
Continuous
 62
     2
100
AcDbCircle
 10
78.1858247701507
 20
341.9852489994978
 30
0.0
 40
0.3157169230761203
100
AcDbArc
 50
295.1944106485397
 51
0.0
  0
ARC
  5
155
102
{ACAD_REACTORS
330
1B9
330
1BA
102
}
330
47
100
AcDbEntity
  8
0
  6
Continuous
 62
     2
100
AcDbCircle
 10
78.1858247701507
 20
338.2328185758412
 30
0.0
 40
0.3157169230767067
100
AcDbArc
 50
270.0
 51
0.0
  0
ARC
  5
156
102
{ACAD_REACTORS
330
1B9
330
1BA
102
}
330
47
100
AcDbEntity
  8
0
  6
Continuous
 62
     2
100
AcDbCircle
 10
76.11609683239459
 20
343.1933014817911
 30
0.0
 40
0.4242446153838273
100
AcDbArc
 50
90.0
 51
180.0
  0
ARC
  5
157
102
{ACAD_REACTORS
330
1B9
330
1BA
102
}
330
47
100
AcDbEntity
  8
0
  6
Continuous
 62
     2
100
AcDbCircle
 10
81.58940892311139
 20
343.1933014817911
 30
0.0
 40
0.4242446153838841
100
AcDbArc
 50
0.0
 51
90.0
  0
ARC
  5
158
102
{ACAD_REACTORS
330
1B9
330
1BA
102
}
330
47
100
AcDbEntity
  8
0
  6
Continuous
 62
     2
100
AcDbCircle
 10
81.58940892311139
 20
337.6287907125909
 30
0.0
 40
0.4242446153833157
100
AcDbArc
 50
270.0
 51
0.0
  0
ARC
  5
159
102
{ACAD_REACTORS
330
1B7
330
1B8
102
}
330
47
100
AcDbEntity
  8
0
  6
Continuous
 62
     2
100
AcDbCircle
 10
90.8077928102029
 20
342.0906413352872
 30
0.0
 40
0.7717997786797075
100
AcDbArc
 50
321.8795802028371
 51
38.12041979715956
  0
ARC
  5
15A
102
{ACAD_REACTORS
330
1B7
330
1B8
102
}
330
47
100
AcDbEntity
  8
0
  6
Continuous
 62
     2
100
AcDbCircle
 10
91.00753284654908
 20
341.9339101571668
 30
0.0
 40
0.5179085730135072
100
AcDbArc
 50
218.120419797161
 51
321.8795802028467
  0
ARC
  5
15B
102
{ACAD_REACTORS
330
1B5
330
1B6
102
}
330
47
100
AcDbEntity
  8
0
  6
Continuous
 62
     2
100
AcDbCircle
 10
87.32752525758889
 20
338.7314508591129
 30
0.0
 40
1.458034083651977
100
AcDbArc
 50
297.5481481757016
 51
62.45185182429947
  0
ARC
  5
15C
102
{ACAD_REACTORS
330
1B5
330
1B6
102
}
330
47
100
AcDbEntity
  8
0
  6
Continuous
 62
     2
100
AcDbCircle
 10
86.76564547392229
 20
338.7314508591129
 30
0.0
 40
1.458034083651515
100
AcDbArc
 50
117.5481481756619
 51
242.451851824337
  0
ARC
  5
15D
102
{ACAD_REACTORS
330
1B5
330
1B6
102
}
330
47
100
AcDbEntity
  8
0
  6
Continuous
 62
     2
100
AcDbCircle
 10
87.04658536575559
 20
338.1928758488101
 30
0.0
 40
2.065479772208593
100
AcDbArc
 50
62.45185182430674
 51
117.548148175666
  0
ARC
  5
15E
102
{ACAD_REACTORS
330
1B5
330
1B6
102
}
330
47
100
AcDbEntity
  8
0
  6
Continuous
 62
     2
100
AcDbCircle
 10
87.04658536575559
 20
339.2700258694161
 30
0.0
 40
2.065479772208382
100
AcDbArc
 50
242.4518518243383
 51
297.5481481756889
  0
ARC
  5
15F
102
{ACAD_REACTORS
330
1B7
330
1B8
102
}
330
47
100
AcDbEntity
  8
0
  6
Continuous
 62
     2
100
AcDbCircle
 10
91.20727288289538
 20
342.0906413352872
 30
0.0
 40
0.7717997786796724
100
AcDbArc
 50
141.8795802028404
 51
218.1204197971629
  0
ARC
  5
160
102
{ACAD_REACTORS
330
1B7
330
1B8
102
}
330
47
100
AcDbEntity
  8
0
  6
Continuous
 62
     2
100
AcDbCircle
 10
91.00753284654908
 20
342.2473725134076
 30
0.0
 40
0.5179085730135967
100
AcDbArc
 50
38.12041979715324
 51
141.879580202839
  0
ARC
  5
161
102
{ACAD_REACTORS
330
1B9
330
1BA
102
}
330
47
100
AcDbEntity
  8
0
  6
Continuous
 62
     2
100
AcDbCircle
 10
76.11609683239459
 20
337.6287907125909
 30
0.0
 40
0.4242446153828041
100
AcDbArc
 50
180.0
 51
270.0
  0
ARC
  5
162
102
{ACAD_REACTORS
330
1B9
330
1BA
102
}
330
47
100
AcDbEntity
  8
0
  6
Continuous
 62
     2
100
AcDbCircle
 10
78.1858247701507
 20
339.7635895073728
 30
0.0
 40
0.315716923076593
100
AcDbArc
 50
0.0
 51
64.80558935146468
  0
ARC
  5
163
102
{ACAD_REACTORS
330
1B9
330
1BA
102
}
330
47
100
AcDbEntity
  8
0
  6
Continuous
 62
     2
100
AcDbCircle
 10
78.70840921772569
 20
340.8744192534356
 30
0.0
 40
0.9118975235576403
100
AcDbArc
 50
115.1944106485275
 51
244.8055893514862
  0
ARC
  5
164
102
{ACAD_REACTORS
330
1B9
330
1BA
102
}
330
47
100
AcDbEntity
  8
0
  6
Continuous
 62
     2
100
AcDbCircle
 10
76.70999150914108
 20
342.5892736185583
 30
0.0
 40
0.3157169230761951
100
AcDbArc
 50
90.0
 51
180.0
  0
ARC
  5
165
102
{ACAD_REACTORS
330
1B3
330
1B4
102
}
330
47
100
AcDbEntity
  8
0
  6
Continuous
 62
     2
100
AcDbCircle
 10
84.0485700911581
 20
342.6015764270819
 30
0.0
 40
0.3528638246710898
100
AcDbArc
 50
270.0
 51
90.0
  0
ARC
  5
166
102
{ACAD_REACTORS
330
1B7
330
1B8
102
}
330
47
100
AcDbEntity
  8
0
  6
Continuous
 62
     2
100
AcDbCircle
 10
90.79126083638388
 20
342.0906413352872
 30
0.0
 40
1.526904761905882
100
AcDbArc
 50
90.0
 51
270.0
  0
ARC
  5
167
102
{ACAD_REACTORS
330
1BB
330
1BC
102
}
330
47
100
AcDbEntity
  8
0
  6
Continuous
 62
     2
100
AcDbCircle
 10
100.2182559290876
 20
338.6186604970779
 30
0.0
 40
1.639695123940328
100
AcDbArc
 50
90.0
 51
164.9381082228911
  0
ARC
  5
168
102
{ACAD_REACTORS
330
1BB
330
1BC
102
}
330
47
100
AcDbEntity
  8
0
  6
Continuous
 62
     2
100
AcDbCircle
 10
99.799128085626
 20
338.7314508591129
 30
0.0
 40
1.205656168393002
100
AcDbArc
 50
164.9381082229028
 51
195.0618917770972
  0
ARC
  5
169
102
{ACAD_REACTORS
330
1BB
330
1BC
102
}
330
47
100
AcDbEntity
  8
0
  6
Continuous
 62
     2
100
AcDbCircle
 10
100.3490004104034
 20
338.5263794297744
 30
0.0
 40
0.5115800601960341
100
AcDbArc
 50
208.5214732576858
 51
246.6277221118449
  0
ARC
  5
16A
102
{ACAD_REACTORS
330
1BB
330
1BC
102
}
330
47
100
AcDbEntity
  8
0
  6
Continuous
 62
     2
100
AcDbCircle
 10
100.3490004104034
 20
338.9365222884519
 30
0.0
 40
0.5115800601944143
100
AcDbArc
 50
109.3371432194853
 51
151.478526742426
  0
ARC
  5
16B
102
{ACAD_REACTORS
330
1B9
330
1BA
102
}
330
47
100
AcDbEntity
  8
0
  6
Continuous
 62
     2
100
AcDbCircle
 10
79.28554019567278
 20
339.1834262467721
 30
0.0
 40
0.315716923076792
100
AcDbArc
 50
180.0
 51
269.8110329574542
  0
ARC
  5
16C
102
{ACAD_REACTORS
330
1B9
330
1BA
102
}
330
47
100
AcDbEntity
  8
0
  6
Continuous
 62
     2
100
AcDbCircle
 10
79.2911563309828
 20
340.8862611943411
 30
0.0
 40
2.01856113193338
100
AcDbArc
 50
269.8110329575858
 51
90.18896704241416
  0
ARC
  5
16D
102
{ACAD_REACTORS
330
1B9
330
1BA
102
}
330
47
100
AcDbEntity
  8
0
  6
Continuous
 62
     2
100
AcDbCircle
 10
79.28554019567278
 20
341.9835608534034
 30
0.0
 40
0.315716923076792
100
AcDbArc
 50
180.0
 51
244.6259913216437
  0
ARC
  5
16E
102
{ACAD_REACTORS
330
1B9
330
1BA
102
}
330
47
100
AcDbEntity
  8
0
  6
Continuous
 62
     2
100
AcDbCircle
 10
79.28554019567278
 20
339.7652776534671
 30
0.0
 40
0.3157169230766355
100
AcDbArc
 50
115.374008678343
 51
180.0
  0
ARC
  5
16F
102
{ACAD_REACTORS
330
1BD
330
1BE
102
}
330
47
100
AcDbEntity
  8
0
  6
Continuous
 62
     2
100
AcDbCircle
 10
84.11555444983469
 20
338.6186604970779
 30
0.0
 40
1.63969512394062
100
AcDbArc
 50
84.84185523036271
 51
164.9381082228826
  0
ARC
  5
170
102
{ACAD_REACTORS
330
1BD
330
1BE
102
}
330
47
100
AcDbEntity
  8
0
  6
Continuous
 62
     2
100
AcDbCircle
 10
83.69642660637189
 20
338.7314508591129
 30
0.0
 40
1.205656168390944
100
AcDbArc
 50
164.9381082228765
 51
195.0618917770948
  0
ARC
  5
171
102
{ACAD_REACTORS
330
1BD
330
1BE
102
}
330
47
100
AcDbEntity
  8
0
  6
Continuous
 62
     2
100
AcDbCircle
 10
84.11555444983469
 20
338.8442412211477
 30
0.0
 40
1.63969512393938
100
AcDbArc
 50
195.0618917770886
 51
275.1581447696396
  0
ARC
  5
172
102
{ACAD_REACTORS
330
1BD
330
1BE
102
}
330
47
100
AcDbEntity
  8
0
  6
Continuous
 62
     2
100
AcDbCircle
 10
83.82669835509878
 20
342.0441318043693
 30
0.0
 40
4.85259686349811
100
AcDbArc
 50
275.158144769625
 51
285.979991258353
  0
ARC
  5
173
102
{ACAD_REACTORS
330
1BD
330
1BE
102
}
330
47
100
AcDbEntity
  8
0
  6
Continuous
 62
     2
100
AcDbCircle
 10
84.62365618923079
 20
338.7314508591129
 30
0.0
 40
0.9410597353332545
100
AcDbArc
 50
151.4785267422669
 51
208.5214732577057
  0
ARC
  5
174
102
{ACAD_REACTORS
330
1BD
330
1BE
102
}
330
47
100
AcDbEntity
  8
0
  6
Continuous
 62
     2
100
AcDbCircle
 10
84.24629893115048
 20
338.9365222884519
 30
0.0
 40
0.5115800601948517
100
AcDbArc
 50
113.3722778882004
 51
151.4785267423044
  0
ARC
  5
175
102
{ACAD_REACTORS
330
1BD
330
1BE
102
}
330
47
100
AcDbEntity
  8
0
  6
Continuous
 62
     2
100
AcDbCircle
 10
83.9845712301917
 20
337.3209844937047
 30
0.0
 40
2.227384008973453
100
AcDbArc
 50
58.06909105004033
 51
71.55192388186745
  0
ARC
  5
176
102
{ACAD_REACTORS
330
1B5
330
1B6
102
}
330
47
100
AcDbEntity
  8
0
  6
Continuous
 62
     2
100
AcDbCircle
 10
87.04658536575559
 20
338.8881820372334
 30
0.0
 40
0.5179085730133349
100
AcDbArc
 50
38.12041979715197
 51
141.8795802028538
  0
ARC
  5
177
102
{ACAD_REACTORS
330
1B5
330
1B6
102
}
330
47
100
AcDbEntity
  8
0
  6
Continuous
 62
     2
100
AcDbCircle
 10
87.24632540210169
 20
338.7314508591129
 30
0.0
 40
0.7717997786794808
100
AcDbArc
 50
141.8795802028346
 51
218.1204197971687
  0
ARC
  5
178
102
{ACAD_REACTORS
330
1B5
330
1B6
102
}
330
47
100
AcDbEntity
  8
0
  6
Continuous
 62
     2
100
AcDbCircle
 10
87.04658536575559
 20
338.5747196809929
 30
0.0
 40
0.5179085730137529
100
AcDbArc
 50
218.1204197971956
 51
321.8795802027985
  0
ARC
  5
179
102
{ACAD_REACTORS
330
1B5
330
1B6
102
}
330
47
100
AcDbEntity
  8
0
  6
Continuous
 62
     2
100
AcDbCircle
 10
86.84684532940918
 20
338.7314508591129
 30
0.0
 40
0.7717997786796947
100
AcDbArc
 50
321.8795802028417
 51
38.12041979715494
  0
CIRCLE
  5
17A
330
47
100
AcDbEntity
  8
1
  6
Continuous
 62
     2
100
AcDbCircle
 10
84.19185221701179
 20
351.0360460971912
 30
0.0
 40
2.5
  0
CIRCLE
  5
17B
330
47
100
AcDbEntity
  8
1
  6
Continuous
 62
     2
100
AcDbCircle
 10
84.19185221701179
 20
351.0360460971912
 30
0.0
 40
1.249999999999915
  0
CIRCLE
  5
17C
102
{ACAD_REACTORS
330
1B9
330
1BA
102
}
330
47
100
AcDbEntity
  8
0
  6
Continuous
 62
     2
100
AcDbCircle
 10
78.7356824829121
 20
340.8744192534356
 30
0.0
 40
0.4709789327785074
  0
MTEXT
  5
17E
330
47
100
AcDbEntity
  8
1
 62
     3
100
AcDbMText
 10
-85.99493035672901
 20
516.7023542524901
 30
0.0
 40
1.8
 41
0.0
 71
     7
 72
     1
  3
Weitergabe sowie Vervielf\U+00e4ltigung dieses Dokuments, Verwertung und \PMitteilung seines Inhalts sind verboten, soweit nicht ausdr\U+00fccklich gestattet. \PZuwiderhandlungen verpflichten zu Schadenersatz. Alle Rechte f\U+00fcr den Fall\Pder Pat
  1
ent-, Gebrauchsmuster- oder Designeintragung vorbehalten.
  7
CONVERTER_11
 73
     1
 44
0.99639855942377
  0
MTEXT
  5
17F
330
47
100
AcDbEntity
  8
1
 62
     3
100
AcDbMText
 10
96.85817948205909
 20
516.7023542524901
 30
0.0
 40
1.8
 41
0.0
 71
     7
 72
     1
  3
Transfer or duplication of this document as well as the utilisation or\Pcommunication of its content are not permitted unless express consent\Pis granted. Violations give rise to claims for damages. All rights reserved\Pin case of patent, utility mo
  1
del or design patent registrations.
  7
CONVERTER_11
 73
     1
 44
0.99639855942377
  0
TEXT
  5
180
330
47
100
AcDbEntity
  8
1
 62
     2
100
AcDbText
 10
90.655197330449
 20
331.1520288821997
 30
0.0
 40
1.8
  1
of
 41
0.9
  7
CONVERTER_11
100
AcDbText
  0
TEXT
  5
181
330
47
100
AcDbEntity
  8
1
 62
     2
100
AcDbText
 10
72.45519733044918
 20
331.1520288821996
 30
0.0
 40
1.8
  1
page
 41
0.9
  7
CONVERTER_11
100
AcDbText
  0
TEXT
  5
182
330
47
100
AcDbEntity
  8
1
 62
     2
100
AcDbText
 10
81.10146230079118
 20
331.1117974433893
 30
0.0
 40
1.8
  1
1
 41
0.9
  7
CONVERTER_11
100
AcDbText
  0
TEXT
  5
183
330
47
100
AcDbEntity
  8
1
 62
     2
100
AcDbText
 10
95.89050614026269
 20
331.1610460971912
 30
0.0
 40
1.8
  1
1
 41
0.9
  7
CONVERTER_11
100
AcDbText
  0
MTEXT
  5
185
330
47
100
AcDbEntity
  8
1
 62
     7
100
AcDbMText
 10
154.4275995938247
 20
333.1610460971915
 30
0.0
 40
3.0
 41
0.0
 71
     5
 72
     1
  1
ATP-UKKB  3
  7
CONVERTER_12
 73
     1
 44
1.20048019207683
  0
MTEXT
  5
186
330
47
100
AcDbEntity
  8
1
 62
     2
100
AcDbMText
 10
108.8551973304491
 20
337.4110460971913
 30
0.0
 40
1.8
 41
0.0
 71
     1
 72
     1
  1
description
  7
CONVERTER_11
 73
     1
 44
1.20048019207683
  0
MTEXT
  5
187
330
47
100
AcDbEntity
  8
1
 62
     3
100
AcDbMText
 10
97.65519733044908
 20
351.0360460971913
 30
0.0
 40
2.5
 41
0.0
 71
     5
 72
     1
  1
DIN A4
  7
CONVERTER_11
 73
     1
 44
1.20048019207683
  0
MTEXT
  5
188
330
47
100
AcDbEntity
  8
1
 62
     7
100
AcDbMText
 10
-88.49999814279988
 20
352.4110460971913
 30
0.0
 40
3.5
 41
0.0
 71
     5
 72
     1
  1
D
  7
CONVERTER_11
 73
     1
 44
1.20048019207683
  0
MTEXT
  5
189
330
47
100
AcDbEntity
  8
1
 62
     7
100
AcDbMText
 10
-88.49999814279988
 20
404.9110460971913
 30
0.0
 40
3.5
 41
0.0
 71
     5
 72
     1
  1
C
  7
CONVERTER_11
 73
     1
 44
1.20048019207683
  0
MTEXT
  5
18A
330
47
100
AcDbEntity
  8
1
 62
     7
100
AcDbMText
 10
-88.49999814279988
 20
454.9110460971913
 30
0.0
 40
3.5
 41
0.0
 71
     5
 72
     1
  1
B
  7
CONVERTER_11
 73
     1
 44
1.20048019207683
  0
MTEXT
  5
18B
330
47
100
AcDbEntity
  8
1
 62
     7
100
AcDbMText
 10
-88.49999814279988
 20
507.4110460971913
 30
0.0
 40
3.5
 41
0.0
 71
     5
 72
     1
  1
A
  7
CONVERTER_11
 73
     1
 44
1.20048019207683
  0
MTEXT
  5
18C
330
47
100
AcDbEntity
  8
1
 62
     7
100
AcDbMText
 10
181.7500018571984
 20
327.4110460971912
 30
0.0
 40
3.5
 41
0.0
 71
     5
 72
     1
  1
6
  7
CONVERTER_11
 73
     1
 44
1.20048019207683
  0
MTEXT
  5
18D
330
47
100
AcDbEntity
  8
1
 62
     7
100
AcDbMText
 10
132.5000018571992
 20
327.4110460971912
 30
0.0
 40
3.5
 41
0.0
 71
     5
 72
     1
  1
5
  7
CONVERTER_11
 73
     1
 44
1.20048019207683
  0
MTEXT
  5
18E
330
47
100
AcDbEntity
  8
1
 62
     7
100
AcDbMText
 10
82.5000018571991
 20
327.4110460971912
 30
0.0
 40
3.5
 41
0.0
 71
     5
 72
     1
  1
4
  7
CONVERTER_11
 73
     1
 44
1.20048019207683
  0
MTEXT
  5
18F
330
47
100
AcDbEntity
  8
1
 62
     7
100
AcDbMText
 10
32.50000185719921
 20
327.4110460971912
 30
0.0
 40
3.5
 41
0.0
 71
     5
 72
     1
  1
3
  7
CONVERTER_11
 73
     1
 44
1.20048019207683
  0
MTEXT
  5
190
330
47
100
AcDbEntity
  8
1
 62
     7
100
AcDbMText
 10
-17.49999814280079
 20
327.4110460971912
 30
0.0
 40
3.5
 41
0.0
 71
     5
 72
     1
  1
2
  7
CONVERTER_11
 73
     1
 44
1.20048019207683
  0
MTEXT
  5
191
330
47
100
AcDbEntity
  8
1
 62
     7
100
AcDbMText
 10
-66.7499981428004
 20
327.4110460971912
 30
0.0
 40
3.5
 41
0.0
 71
     5
 72
     1
  1
1
  7
CONVERTER_11
 73
     1
 44
1.20048019207683
  0
MTEXT
  5
192
330
47
100
AcDbEntity
  8
1
 62
     7
100
AcDbMText
 10
203.5000018571982
 20
352.4110460971913
 30
0.0
 40
3.5
 41
0.0
 71
     5
 72
     1
  1
D
  7
CONVERTER_11
 73
     1
 44
1.20048019207683
  0
MTEXT
  5
193
330
47
100
AcDbEntity
  8
1
 62
     7
100
AcDbMText
 10
203.5000018571982
 20
454.9110460971932
 30
0.0
 40
3.5
 41
0.0
 71
     5
 72
     1
  1
B
  7
CONVERTER_11
 73
     1
 44
1.20048019207683
  0
MTEXT
  5
194
330
47
100
AcDbEntity
  8
1
 62
     7
100
AcDbMText
 10
203.5000018571982
 20
507.4110460971913
 30
0.0
 40
3.5
 41
0.0
 71
     5
 72
     1
  1
A
  7
CONVERTER_11
 73
     1
 44
1.20048019207683
  0
MTEXT
  5
195
330
47
100
AcDbEntity
  8
1
 62
     7
100
AcDbMText
 10
203.5000018571982
 20
404.9110460971932
 30
0.0
 40
3.5
 41
0.0
 71
     5
 72
     1
  1
C
  7
CONVERTER_11
 73
     1
 44
1.20048019207683
  0
MTEXT
  5
196
330
47
100
AcDbEntity
  8
1
 62
     2
100
AcDbMText
 10
37.01718260540167
 20
342.6610460971912
 30
0.0
 40
2.0
 41
0.0
 71
     5
 72
     1
  1
General Information\P- Simplified representation\P- Document excluded from change process\P- Linear dimensions [mm]
  7
CONVERTER_11
 73
     1
 44
1.20048019207683
  0
TEXT
  5
197
330
47
100
AcDbEntity
  8
1
 62
     7
100
AcDbText
 10
109.3551973304489
 20
339.7110460971912
 30
0.0
 40
2.5
  1
2771065
 41
0.81
  7
CONVERTER_12
100
AcDbText
  0
MTEXT
  5
198
330
47
100
AcDbEntity
  8
1
 62
     2
100
AcDbMText
 10
108.9551973304492
 20
345.9110460971913
 30
0.0
 40
1.8
 41
0.0
 71
     1
 72
     1
  1
ident.-No.
  7
CONVERTER_11
 73
     1
 44
1.20048019207683
  0
MTEXT
  5
199
330
47
100
AcDbEntity
  8
1
 62
     2
100
AcDbMText
 10
193.1815935755219
 20
354.4110460971913
 30
0.0
 40
1.8
 41
0.0
 71
     1
 72
     1
  1
scale
  7
CONVERTER_11
 73
     1
 44
1.20048019207683
  0
MTEXT
  5
19B
330
47
100
AcDbEntity
  8
1
 62
     3
100
AcDbMText
 10
196.5407977163615
 20
348.2110460971913
 30
0.0
 40
2.5
 41
0.0
 71
     8
 72
     1
  1
1:1
  7
CONVERTER_13
 73
     1
 44
1.32052821128451
  0
TEXT
  5
19C
330
47
100
AcDbEntity
  8
1
 62
     7
100
AcDbText
 10
108.9551973304492
 20
348.2110460971912
 30
0.0
 40
2.5
  1
00345784
 41
0.81
  7
CONVERTER_12
100
AcDbText
  0
MTEXT
  5
19E
330
47
100
AcDbEntity
  8
1
 62
     2
100
AcDbMText
 10
108.9551973304492
 20
354.4110460971913
 30
0.0
 40
1.8
 41
0.0
 71
     1
 72
     1
  1
document-No. / RI
  7
CONVERTER_14
 73
     1
 44
1.32052821128451
  0
TEXT
  5
19F
330
47
100
AcDbEntity
  8
1
 62
     3
100
AcDbText
 10
136.7551973304492
 20
339.7110460971912
 30
0.0
 40
2.5
  1
TECDOC 2D_Productdrawing
 41
0.81
  7
CONVERTER_12
100
AcDbText
  0
MTEXT
  5
1A0
330
47
100
AcDbEntity
  8
1
 62
     2
100
AcDbMText
 10
136.7551973304492
 20
345.9110460971912
 30
0.0
 40
1.8
 41
0.0
 71
     1
 72
     1
  1
document-type
  7
CONVERTER_11
 73
     1
 44
1.20048019207683
  0
MTEXT
  5
1A1
330
47
100
AcDbEntity
  8
1
 62
     2
100
AcDbMText
 10
166.5815935755221
 20
354.4110460971912
 30
0.0
 40
1.8
 41
0.0
 71
     1
 72
     1
  1
date
  7
CONVERTER_11
 73
     1
 44
1.32052821128451
  0
TEXT
  5
1A2
330
47
100
AcDbEntity
  8
1
 62
     3
100
AcDbText
 10
166.5815935755221
 20
348.2110460971912
 30
0.0
 40
2.5
  1
16.01.2018
 41
0.81
  7
CONVERTER_12
100
AcDbText
  0
TEXT
  5
1A3
330
47
100
AcDbEntity
  8
1
 62
     7
100
AcDbText
 10
128.985109549505
 20
348.2110460971912
 30
0.0
 40
2.5
  1
02
 41
0.81
  7
CONVERTER_12
100
AcDbText
  0
TEXT
  5
1A4
330
47
100
AcDbEntity
  8
1
 62
     7
100
AcDbText
 10
126.828745052463
 20
348.2110460971912
 30
0.0
 40
2.5
  1
/
 41
0.9
  7
CONVERTER_11
100
AcDbText
  0
HATCH
  5
1A5
330
47
100
AcDbEntity
  8
1
  6
Continuous
 62
     2
100
AcDbHatch
 10
0.0
 20
0.0
 30
0.0
210
0.0
220
0.0
230
1.0
  2
_USER
 70
     0
 71
     1
 91
        1
 92
        1
 93
       12
 72
     1
 10
89.12269804341028
 20
340.5637365733819
 11
87.92990534124388
 21
340.5637365733819
 72
     1
 10
87.92990534124388
 20
340.5637365733819
 11
87.92990534124388
 21
341.6980086822257
 72
     1
 10
87.92990534124388
 20
341.6980086822257
 11
86.8802477633364
 21
341.6980086822257
 72
     1
 10
86.8802477633364
 20
341.6980086822257
 11
86.8802477633364
 21
340.5637365733819
 72
     1
 10
86.8802477633364
 20
340.5637365733819
 11
85.6874550611698
 21
340.5637365733819
 72
     1
 10
85.6874550611698
 20
340.5637365733819
 11
85.6874550611698
 21
343.6175460971931
 72
     1
 10
85.6874550611698
 20
343.6175460971931
 11
86.8802477633364
 21
343.6175460971931
 72
     1
 10
86.8802477633364
 20
343.6175460971931
 11
86.8802477633364
 21
342.5487127638585
 72
     1
 10
86.8802477633364
 20
342.5487127638585
 11
87.92990534124388
 21
342.5487127638585
 72
     1
 10
87.92990534124388
 20
342.5487127638585
 11
87.92990534124388
 21
343.6175460971931
 72
     1
 10
87.92990534124388
 20
343.6175460971931
 11
89.12269804341028
 21
343.6175460971931
 72
     1
 10
89.12269804341028
 20
343.6175460971931
 11
89.12269804341028
 21
340.5637365733819
 97
       12
330
111
330
112
330
FC
330
FB
330
FA
330
10E
330
F9
330
10F
330
110
330
F8
330
F7
330
F6
 75
     1
 76
     0
 52
45.0
 41
0.1
 77
     0
 78
     1
 53
45.0
 43
0.0
 44
0.0
 45
-0.0707106781186548
 46
0.0707106781186548
 79
     0
 98
        1
 10
0.0
 20
0.0
  0
HATCH
  5
1A6
330
47
100
AcDbEntity
  8
1
  6
Continuous
 62
     2
100
AcDbHatch
 10
0.0
 20
0.0
 30
0.0
210
0.0
220
0.0
230
1.0
  2
_USER
 70
     0
 71
     1
 91
        1
 92
        1
 93
       12
 72
     1
 10
89.12269804341028
 20
340.5637365733819
 11
87.92990534124388
 21
340.5637365733819
 72
     1
 10
87.92990534124388
 20
340.5637365733819
 11
87.92990534124388
 21
341.6980086822257
 72
     1
 10
87.92990534124388
 20
341.6980086822257
 11
86.8802477633364
 21
341.6980086822257
 72
     1
 10
86.8802477633364
 20
341.6980086822257
 11
86.8802477633364
 21
340.5637365733819
 72
     1
 10
86.8802477633364
 20
340.5637365733819
 11
85.6874550611698
 21
340.5637365733819
 72
     1
 10
85.6874550611698
 20
340.5637365733819
 11
85.6874550611698
 21
343.6175460971931
 72
     1
 10
85.6874550611698
 20
343.6175460971931
 11
86.8802477633364
 21
343.6175460971931
 72
     1
 10
86.8802477633364
 20
343.6175460971931
 11
86.8802477633364
 21
342.5487127638585
 72
     1
 10
86.8802477633364
 20
342.5487127638585
 11
87.92990534124388
 21
342.5487127638585
 72
     1
 10
87.92990534124388
 20
342.5487127638585
 11
87.92990534124388
 21
343.6175460971931
 72
     1
 10
87.92990534124388
 20
343.6175460971931
 11
89.12269804341028
 21
343.6175460971931
 72
     1
 10
89.12269804341028
 20
343.6175460971931
 11
89.12269804341028
 21
340.5637365733819
 97
       12
330
111
330
112
330
FC
330
FB
330
FA
330
10E
330
F9
330
10F
330
110
330
F8
330
F7
330
F6
 75
     1
 76
     0
 52
45.0
 41
0.1
 77
     0
 78
     1
 53
45.0
 43
0.0
 44
0.0
 45
-0.0707106781186548
 46
0.0707106781186548
 79
     0
 98
        1
 10
0.0
 20
0.0
  0
HATCH
  5
1A7
330
47
100
AcDbEntity
  8
1
  6
Continuous
 62
     2
100
AcDbHatch
 10
0.0
 20
0.0
 30
0.0
210
0.0
220
0.0
230
1.0
  2
_USER
 70
     0
 71
     1
 91
        1
 92
        1
 93
       10
 72
     1
 10
91.36499739259858
 20
338.9495801108136
 11
90.12449298234569
 21
340.2583556210187
 72
     1
 10
90.12449298234569
 20
340.2583556210187
 11
88.93170028017809
 21
340.2583556210187
 72
     1
 10
88.93170028017809
 20
340.2583556210187
 11
88.93170028017809
 21
337.2045460972076
 72
     1
 10
88.93170028017809
 20
337.2045460972076
 11
90.12449298234569
 21
337.2045460972076
 72
     1
 10
90.12449298234569
 20
337.2045460972076
 11
90.12449298234569
 21
338.5133216074122
 72
     1
 10
90.12449298234569
 20
338.5133216074122
 11
91.36499739259858
 21
337.2045460972076
 72
     1
 10
91.36499739259858
 20
337.2045460972076
 11
92.55779009476498
 21
337.2045460972076
 72
     1
 10
92.55779009476498
 20
337.2045460972076
 11
92.55779009476498
 21
340.2583556210187
 72
     1
 10
92.55779009476498
 20
340.2583556210187
 11
91.36499739259858
 21
340.2583556210187
 72
     1
 10
91.36499739259858
 20
340.2583556210187
 11
91.36499739259858
 21
338.9495801108136
 97
       10
330
11F
330
EF
330
EE
330
F1
330
11A
330
11B
330
F0
330
11C
330
11D
330
11E
 75
     1
 76
     0
 52
45.0
 41
0.1
 77
     0
 78
     1
 53
45.0
 43
0.0
 44
0.0
 45
-0.0707106781186548
 46
0.0707106781186548
 79
     0
 98
        1
 10
0.0
 20
0.0
  0
HATCH
  5
1A8
330
47
100
AcDbEntity
  8
1
  6
Continuous
 62
     2
100
AcDbHatch
 10
0.0
 20
0.0
 30
0.0
210
0.0
220
0.0
230
1.0
  2
_USER
 70
     0
 71
     1
 91
        1
 92
        1
 93
       10
 72
     1
 10
91.36499739259858
 20
338.9495801108136
 11
90.12449298234569
 21
340.2583556210187
 72
     1
 10
90.12449298234569
 20
340.2583556210187
 11
88.93170028017809
 21
340.2583556210187
 72
     1
 10
88.93170028017809
 20
340.2583556210187
 11
88.93170028017809
 21
337.2045460972076
 72
     1
 10
88.93170028017809
 20
337.2045460972076
 11
90.12449298234569
 21
337.2045460972076
 72
     1
 10
90.12449298234569
 20
337.2045460972076
 11
90.12449298234569
 21
338.5133216074122
 72
     1
 10
90.12449298234569
 20
338.5133216074122
 11
91.36499739259858
 21
337.2045460972076
 72
     1
 10
91.36499739259858
 20
337.2045460972076
 11
92.55779009476498
 21
337.2045460972076
 72
     1
 10
92.55779009476498
 20
337.2045460972076
 11
92.55779009476498
 21
340.2583556210187
 72
     1
 10
92.55779009476498
 20
340.2583556210187
 11
91.36499739259858
 21
340.2583556210187
 72
     1
 10
91.36499739259858
 20
340.2583556210187
 11
91.36499739259858
 21
338.9495801108136
 97
       10
330
11F
330
EF
330
EE
330
F1
330
11A
330
11B
330
F0
330
11C
330
11D
330
11E
 75
     1
 76
     0
 52
45.0
 41
0.1
 77
     0
 78
     1
 53
45.0
 43
0.0
 44
0.0
 45
-0.0707106781186548
 46
0.0707106781186548
 79
     0
 98
        1
 10
0.0
 20
0.0
  0
HATCH
  5
1A9
330
47
100
AcDbEntity
  8
1
  6
Continuous
 62
     2
100
AcDbHatch
 10
0.0
 20
0.0
 30
0.0
210
0.0
220
0.0
230
1.0
  2
_USER
 70
     0
 71
     1
 91
        1
 92
        1
 93
       10
 72
     1
 10
96.6134362130183
 20
342.3087705869879
 11
95.3729318027643
 21
343.6175460971931
 72
     1
 10
95.3729318027643
 20
343.6175460971931
 11
94.18013910059778
 21
343.6175460971931
 72
     1
 10
94.18013910059778
 20
343.6175460971931
 11
94.18013910059778
 21
340.5637365733819
 72
     1
 10
94.18013910059778
 20
340.5637365733819
 11
95.3729318027643
 21
340.5637365733819
 72
     1
 10
95.3729318027643
 20
340.5637365733819
 11
95.3729318027643
 21
341.8725120835866
 72
     1
 10
95.3729318027643
 20
341.8725120835866
 11
96.6134362130183
 21
340.5637365733819
 72
     1
 10
96.6134362130183
 20
340.5637365733819
 11
97.8062289151849
 21
340.5637365733819
 72
     1
 10
97.8062289151849
 20
340.5637365733819
 11
97.8062289151849
 21
343.6175460971931
 72
     1
 10
97.8062289151849
 20
343.6175460971931
 11
96.6134362130183
 21
343.6175460971931
 72
     1
 10
96.6134362130183
 20
343.6175460971931
 11
96.6134362130183
 21
342.3087705869879
 97
       10
330
124
330
EC
330
EB
330
125
330
EA
330
120
330
121
330
122
330
123
330
ED
 75
     1
 76
     0
 52
45.0
 41
0.1
 77
     0
 78
     1
 53
45.0
 43
0.0
 44
0.0
 45
-0.0707106781186548
 46
0.0707106781186548
 79
     0
 98
        1
 10
0.0
 20
0.0
  0
HATCH
  5
1AA
330
47
100
AcDbEntity
  8
1
  6
Continuous
 62
     2
100
AcDbHatch
 10
0.0
 20
0.0
 30
0.0
210
0.0
220
0.0
230
1.0
  2
_USER
 70
     0
 71
     1
 91
        1
 92
        1
 93
       10
 72
     1
 10
96.6134362130183
 20
342.3087705869879
 11
95.3729318027643
 21
343.6175460971931
 72
     1
 10
95.3729318027643
 20
343.6175460971931
 11
94.18013910059778
 21
343.6175460971931
 72
     1
 10
94.18013910059778
 20
343.6175460971931
 11
94.18013910059778
 21
340.5637365733819
 72
     1
 10
94.18013910059778
 20
340.5637365733819
 11
95.3729318027643
 21
340.5637365733819
 72
     1
 10
95.3729318027643
 20
340.5637365733819
 11
95.3729318027643
 21
341.8725120835866
 72
     1
 10
95.3729318027643
 20
341.8725120835866
 11
96.6134362130183
 21
340.5637365733819
 72
     1
 10
96.6134362130183
 20
340.5637365733819
 11
97.8062289151849
 21
340.5637365733819
 72
     1
 10
97.8062289151849
 20
340.5637365733819
 11
97.8062289151849
 21
343.6175460971931
 72
     1
 10
97.8062289151849
 20
343.6175460971931
 11
96.6134362130183
 21
343.6175460971931
 72
     1
 10
96.6134362130183
 20
343.6175460971931
 11
96.6134362130183
 21
342.3087705869879
 97
       10
330
124
330
EC
330
EB
330
125
330
EA
330
120
330
121
330
122
330
123
330
ED
 75
     1
 76
     0
 52
45.0
 41
0.1
 77
     0
 78
     1
 53
45.0
 43
0.0
 44
0.0
 45
-0.0707106781186548
 46
0.0707106781186548
 79
     0
 98
        1
 10
0.0
 20
0.0
  0
HATCH
  5
1AB
330
47
100
AcDbEntity
  8
1
  6
Continuous
 62
     2
100
AcDbHatch
 10
0.0
 20
0.0
 30
0.0
210
0.0
220
0.0
230
1.0
  2
_USER
 70
     0
 71
     1
 91
        1
 92
        1
 93
        8
 72
     1
 10
95.5159159961388
 20
340.2583556210187
 11
92.70092521902518
 21
340.2583556210187
 72
     1
 10
92.70092521902518
 20
340.2583556210187
 11
92.70092521902518
 21
339.4730903148951
 72
     1
 10
92.70092521902518
 20
339.4730903148951
 11
93.51202425649979
 21
339.4730903148951
 72
     1
 10
93.51202425649979
 20
339.4730903148951
 11
93.51202425649979
 21
337.2045460972076
 72
     1
 10
93.51202425649979
 20
337.2045460972076
 11
94.7048169586663
 21
337.2045460972076
 72
     1
 10
94.7048169586663
 20
337.2045460972076
 11
94.7048169586663
 21
339.4730903148951
 72
     1
 10
94.7048169586663
 20
339.4730903148951
 11
95.5159159961388
 21
339.4730903148951
 72
     1
 10
95.5159159961388
 20
339.4730903148951
 11
95.5159159961388
 21
340.2583556210187
 97
        8
330
E6
330
126
330
E5
330
127
330
128
330
E9
330
E8
330
E7
 75
     1
 76
     0
 52
45.0
 41
0.1
 77
     0
 78
     1
 53
45.0
 43
0.0
 44
0.0
 45
-0.0707106781186548
 46
0.0707106781186548
 79
     0
 98
        1
 10
0.0
 20
0.0
  0
HATCH
  5
1AC
330
47
100
AcDbEntity
  8
1
  6
Continuous
 62
     2
100
AcDbHatch
 10
0.0
 20
0.0
 30
0.0
210
0.0
220
0.0
230
1.0
  2
_USER
 70
     0
 71
     1
 91
        1
 92
        1
 93
        8
 72
     1
 10
95.5159159961388
 20
340.2583556210187
 11
92.70092521902518
 21
340.2583556210187
 72
     1
 10
92.70092521902518
 20
340.2583556210187
 11
92.70092521902518
 21
339.4730903148951
 72
     1
 10
92.70092521902518
 20
339.4730903148951
 11
93.51202425649979
 21
339.4730903148951
 72
     1
 10
93.51202425649979
 20
339.4730903148951
 11
93.51202425649979
 21
337.2045460972076
 72
     1
 10
93.51202425649979
 20
337.2045460972076
 11
94.7048169586663
 21
337.2045460972076
 72
     1
 10
94.7048169586663
 20
337.2045460972076
 11
94.7048169586663
 21
339.4730903148951
 72
     1
 10
94.7048169586663
 20
339.4730903148951
 11
95.5159159961388
 21
339.4730903148951
 72
     1
 10
95.5159159961388
 20
339.4730903148951
 11
95.5159159961388
 21
340.2583556210187
 97
        8
330
E6
330
126
330
E5
330
127
330
128
330
E9
330
E8
330
E7
 75
     1
 76
     0
 52
45.0
 41
0.1
 77
     0
 78
     1
 53
45.0
 43
0.0
 44
0.0
 45
-0.0707106781186548
 46
0.0707106781186548
 79
     0
 98
        1
 10
0.0
 20
0.0
  0
HATCH
  5
1AD
330
47
100
AcDbEntity
  8
1
  6
Continuous
 62
     2
100
AcDbHatch
 10
0.0
 20
0.0
 30
0.0
210
0.0
220
0.0
230
1.0
  2
_USER
 70
     0
 71
     1
 91
        2
 92
        1
 93
        8
 72
     1
 10
97.65434345208578
 20
337.2045460972076
 11
97.44286339861
 21
337.7455066414254
 72
     1
 10
97.44286339861
 20
337.7455066414254
 11
96.31042182193619
 21
337.7455066414254
 72
     1
 10
96.31042182193619
 20
337.7455066414254
 11
96.09894176846038
 21
337.2045460972076
 72
     1
 10
96.09894176846038
 20
337.2045460972076
 11
94.8584373582074
 21
337.2045460972076
 72
     1
 10
94.8584373582074
 20
337.2045460972076
 11
96.2563904051467
 21
340.2583556210187
 72
     1
 10
96.2563904051467
 20
340.2583556210187
 11
97.4968948153994
 21
340.2583556210187
 72
     1
 10
97.4968948153994
 20
340.2583556210187
 11
98.8948478623397
 21
337.2045460972076
 72
     1
 10
98.8948478623397
 20
337.2045460972076
 11
97.65434345208578
 21
337.2045460972076
 97
        8
330
12A
330
12B
330
E2
330
12C
330
E1
330
E4
330
129
330
E3
 92
       16
 93
        3
 72
     1
 10
96.57647737308119
 20
338.4260699067321
 11
96.87664261027359
 21
339.1938848727187
 72
     1
 10
96.87664261027359
 20
339.1938848727187
 11
97.17680784746369
 21
338.4260699067321
 72
     1
 10
97.17680784746369
 20
338.4260699067321
 11
96.57647737308119
 21
338.4260699067321
 97
        3
330
E0
330
12E
330
12D
 75
     1
 76
     0
 52
45.0
 41
0.1
 77
     0
 78
     1
 53
45.0
 43
0.0
 44
0.0
 45
-0.0707106781186548
 46
0.0707106781186548
 79
     0
 98
        1
 10
0.0
 20
0.0
  0
HATCH
  5
1AE
330
47
100
AcDbEntity
  8
1
  6
Continuous
 62
     2
100
AcDbHatch
 10
0.0
 20
0.0
 30
0.0
210
0.0
220
0.0
230
1.0
  2
_USER
 70
     0
 71
     1
 91
        2
 92
        1
 93
        8
 72
     1
 10
97.65434345208578
 20
337.2045460972076
 11
97.44286339861
 21
337.7455066414254
 72
     1
 10
97.44286339861
 20
337.7455066414254
 11
96.31042182193619
 21
337.7455066414254
 72
     1
 10
96.31042182193619
 20
337.7455066414254
 11
96.09894176846038
 21
337.2045460972076
 72
     1
 10
96.09894176846038
 20
337.2045460972076
 11
94.8584373582074
 21
337.2045460972076
 72
     1
 10
94.8584373582074
 20
337.2045460972076
 11
96.2563904051467
 21
340.2583556210187
 72
     1
 10
96.2563904051467
 20
340.2583556210187
 11
97.4968948153994
 21
340.2583556210187
 72
     1
 10
97.4968948153994
 20
340.2583556210187
 11
98.8948478623397
 21
337.2045460972076
 72
     1
 10
98.8948478623397
 20
337.2045460972076
 11
97.65434345208578
 21
337.2045460972076
 97
        8
330
12A
330
12B
330
E2
330
12C
330
E1
330
E4
330
129
330
E3
 92
       16
 93
        3
 72
     1
 10
96.57647737308119
 20
338.4260699067321
 11
96.87664261027359
 21
339.1938848727187
 72
     1
 10
96.87664261027359
 20
339.1938848727187
 11
97.17680784746369
 21
338.4260699067321
 72
     1
 10
97.17680784746369
 20
338.4260699067321
 11
96.57647737308119
 21
338.4260699067321
 97
        3
330
E0
330
12E
330
12D
 75
     1
 76
     0
 52
45.0
 41
0.1
 77
     0
 78
     1
 53
45.0
 43
0.0
 44
0.0
 45
-0.0707106781186548
 46
0.0707106781186548
 79
     0
 98
        1
 10
0.0
 20
0.0
  0
HATCH
  5
1AF
330
47
100
AcDbEntity
  8
1
  6
Continuous
 62
     2
100
AcDbHatch
 10
0.0
 20
0.0
 30
0.0
210
0.0
220
0.0
230
1.0
  2
_USER
 70
     0
 71
     1
 91
        1
 92
        1
 93
        4
 72
     1
 10
99.2852918658717
 20
340.5637365733819
 11
98.0447874556188
 21
340.5637365733819
 72
     1
 10
98.0447874556188
 20
340.5637365733819
 11
98.0447874556188
 21
343.6175460971931
 72
     1
 10
98.0447874556188
 20
343.6175460971931
 11
99.2852918658717
 21
343.6175460971931
 72
     1
 10
99.2852918658717
 20
343.6175460971931
 11
99.2852918658717
 21
340.5637365733819
 97
        4
330
DD
330
DF
330
12F
330
DE
 75
     1
 76
     0
 52
45.0
 41
0.1
 77
     0
 78
     1
 53
45.0
 43
0.0
 44
0.0
 45
-0.0707106781186548
 46
0.0707106781186548
 79
     0
 98
        1
 10
0.0
 20
0.0
  0
HATCH
  5
1B0
330
47
100
AcDbEntity
  8
1
  6
Continuous
 62
     2
100
AcDbHatch
 10
0.0
 20
0.0
 30
0.0
210
0.0
220
0.0
230
1.0
  2
_USER
 70
     0
 71
     1
 91
        1
 92
        1
 93
        4
 72
     1
 10
99.2852918658717
 20
340.5637365733819
 11
98.0447874556188
 21
340.5637365733819
 72
     1
 10
98.0447874556188
 20
340.5637365733819
 11
98.0447874556188
 21
343.6175460971931
 72
     1
 10
98.0447874556188
 20
343.6175460971931
 11
99.2852918658717
 21
343.6175460971931
 72
     1
 10
99.2852918658717
 20
343.6175460971931
 11
99.2852918658717
 21
340.5637365733819
 97
        4
330
DD
330
DF
330
12F
330
DE
 75
     1
 76
     0
 52
45.0
 41
0.1
 77
     0
 78
     1
 53
45.0
 43
0.0
 44
0.0
 45
-0.0707106781186548
 46
0.0707106781186548
 79
     0
 98
        1
 10
0.0
 20
0.0
  0
HATCH
  5
1B1
330
47
100
AcDbEntity
  8
1
  6
Continuous
 62
     2
100
AcDbHatch
 10
0.0
 20
0.0
 30
0.0
210
0.0
220
0.0
230
1.0
  2
_USER
 70
     0
 71
     1
 91
        1
 92
        1
 93
       12
 72
     1
 10
103.5077780315425
 20
343.6175460971931
 11
102.205248400776
 21
342.1445955671569
 72
     1
 10
102.205248400776
 20
342.1445955671569
 11
103.6032014477163
 21
340.5637365733819
 72
     1
 10
103.6032014477163
 20
340.5637365733819
 11
102.200477229968
 21
340.5637365733819
 72
     1
 10
102.200477229968
 20
340.5637365733819
 11
101.5038862919025
 21
341.3514683586756
 72
     1
 10
101.5038862919025
 20
341.3514683586756
 11
100.8072953538368
 21
340.5637365733819
 72
     1
 10
100.8072953538368
 20
340.5637365733819
 11
99.40457113608858
 21
340.5637365733819
 72
     1
 10
99.40457113608858
 20
340.5637365733819
 11
100.8025241830289
 21
342.1445955671569
 72
     1
 10
100.8025241830289
 20
342.1445955671569
 11
99.4999945522614
 21
343.6175460971931
 72
     1
 10
99.4999945522614
 20
343.6175460971931
 11
100.9027187700107
 21
343.6175460971931
 72
     1
 10
100.9027187700107
 20
343.6175460971931
 11
101.5038862919025
 21
342.9377227756376
 72
     1
 10
101.5038862919025
 20
342.9377227756376
 11
102.1050538137953
 21
343.6175460971931
 72
     1
 10
102.1050538137953
 20
343.6175460971931
 11
103.5077780315425
 21
343.6175460971931
 97
       12
330
D8
330
D7
330
D6
330
133
330
134
330
130
330
131
330
DC
330
DB
330
DA
330
D9
330
132
 75
     1
 76
     0
 52
45.0
 41
0.1
 77
     0
 78
     1
 53
45.0
 43
0.0
 44
0.0
 45
-0.0707106781186548
 46
0.0707106781186548
 79
     0
 98
        1
 10
0.0
 20
0.0
  0
HATCH
  5
1B2
330
47
100
AcDbEntity
  8
1
  6
Continuous
 62
     2
100
AcDbHatch
 10
0.0
 20
0.0
 30
0.0
210
0.0
220
0.0
230
1.0
  2
_USER
 70
     0
 71
     1
 91
        1
 92
        1
 93
       12
 72
     1
 10
103.5077780315425
 20
343.6175460971931
 11
102.205248400776
 21
342.1445955671569
 72
     1
 10
102.205248400776
 20
342.1445955671569
 11
103.6032014477163
 21
340.5637365733819
 72
     1
 10
103.6032014477163
 20
340.5637365733819
 11
102.200477229968
 21
340.5637365733819
 72
     1
 10
102.200477229968
 20
340.5637365733819
 11
101.5038862919025
 21
341.3514683586756
 72
     1
 10
101.5038862919025
 20
341.3514683586756
 11
100.8072953538368
 21
340.5637365733819
 72
     1
 10
100.8072953538368
 20
340.5637365733819
 11
99.40457113608858
 21
340.5637365733819
 72
     1
 10
99.40457113608858
 20
340.5637365733819
 11
100.8025241830289
 21
342.1445955671569
 72
     1
 10
100.8025241830289
 20
342.1445955671569
 11
99.4999945522614
 21
343.6175460971931
 72
     1
 10
99.4999945522614
 20
343.6175460971931
 11
100.9027187700107
 21
343.6175460971931
 72
     1
 10
100.9027187700107
 20
343.6175460971931
 11
101.5038862919025
 21
342.9377227756376
 72
     1
 10
101.5038862919025
 20
342.9377227756376
 11
102.1050538137953
 21
343.6175460971931
 72
     1
 10
102.1050538137953
 20
343.6175460971931
 11
103.5077780315425
 21
343.6175460971931
 97
       12
330
D8
330
D7
330
D6
330
133
330
134
330
130
330
131
330
DC
330
DB
330
DA
330
D9
330
132
 75
     1
 76
     0
 52
45.0
 41
0.1
 77
     0
 78
     1
 53
45.0
 43
0.0
 44
0.0
 45
-0.0707106781186548
 46
0.0707106781186548
 79
     0
 98
        1
 10
0.0
 20
0.0
  0
HATCH
  5
1B3
330
47
100
AcDbEntity
  8
1
  6
Continuous
 62
     2
100
AcDbHatch
 10
0.0
 20
0.0
 30
0.0
210
0.0
220
0.0
230
1.0
  2
_USER
 70
     0
 71
     1
 91
        2
 92
        1
 93
        6
 72
     1
 10
84.49004261739648
 20
341.5068148145257
 11
83.7312750296162
 21
341.5068148145257
 72
     1
 10
83.7312750296162
 20
341.5068148145257
 11
83.7312750296162
 21
340.5637365733819
 72
     1
 10
83.7312750296162
 20
340.5637365733819
 11
82.49077061936208
 21
340.5637365733819
 72
     1
 10
82.49077061936208
 20
340.5637365733819
 11
82.49077061936208
 21
343.6175460971931
 72
     1
 10
82.49077061936208
 20
343.6175460971931
 11
84.49004261739648
 21
343.6175460971931
 72
     2
 10
84.49004261739648
 20
342.5621804558594
 40
1.055365641333708
 50
270.0
 51
450.0
 73
     0
 97
        6
330
100
330
FF
330
10C
330
10B
330
101
330
151
 92
       16
 93
        4
 72
     2
 10
84.0485700911581
 20
342.6015764270819
 40
0.3528638246710898
 50
270.0
 51
450.0
 73
     1
 72
     1
 10
84.0485700911581
 20
342.954440251753
 11
83.7312750296162
 21
342.954440251753
 72
     1
 10
83.7312750296162
 20
342.954440251753
 11
83.7312750296162
 21
342.2487126024108
 72
     1
 10
83.7312750296162
 20
342.2487126024108
 11
84.0485700911581
 21
342.2487126024108
 97
        4
330
165
330
FD
330
10D
330
FE
 75
     1
 76
     0
 52
45.0
 41
0.1
 77
     0
 78
     1
 53
45.0
 43
0.0
 44
0.0
 45
-0.0707106781186548
 46
0.0707106781186548
 79
     0
 98
        1
 10
0.0
 20
0.0
  0
HATCH
  5
1B4
330
47
100
AcDbEntity
  8
1
  6
Continuous
 62
     2
100
AcDbHatch
 10
0.0
 20
0.0
 30
0.0
210
0.0
220
0.0
230
1.0
  2
_USER
 70
     0
 71
     1
 91
        2
 92
        1
 93
        6
 72
     1
 10
84.49004261739648
 20
341.5068148145257
 11
83.7312750296162
 21
341.5068148145257
 72
     1
 10
83.7312750296162
 20
341.5068148145257
 11
83.7312750296162
 21
340.5637365733819
 72
     1
 10
83.7312750296162
 20
340.5637365733819
 11
82.49077061936208
 21
340.5637365733819
 72
     1
 10
82.49077061936208
 20
340.5637365733819
 11
82.49077061936208
 21
343.6175460971931
 72
     1
 10
82.49077061936208
 20
343.6175460971931
 11
84.49004261739648
 21
343.6175460971931
 72
     2
 10
84.49004261739648
 20
342.5621804558594
 40
1.055365641333708
 50
270.0
 51
450.0
 73
     0
 97
        6
330
100
330
FF
330
10C
330
10B
330
101
330
151
 92
       16
 93
        4
 72
     2
 10
84.0485700911581
 20
342.6015764270819
 40
0.3528638246710898
 50
270.0
 51
450.0
 73
     1
 72
     1
 10
84.0485700911581
 20
342.954440251753
 11
83.7312750296162
 21
342.954440251753
 72
     1
 10
83.7312750296162
 20
342.954440251753
 11
83.7312750296162
 21
342.2487126024108
 72
     1
 10
83.7312750296162
 20
342.2487126024108
 11
84.0485700911581
 21
342.2487126024108
 97
        4
330
165
330
FD
330
10D
330
FE
 75
     1
 76
     0
 52
45.0
 41
0.1
 77
     0
 78
     1
 53
45.0
 43
0.0
 44
0.0
 45
-0.0707106781186548
 46
0.0707106781186548
 79
     0
 98
        1
 10
0.0
 20
0.0
  0
HATCH
  5
1B5
330
47
100
AcDbEntity
  8
1
  6
Continuous
 62
     2
100
AcDbHatch
 10
0.0
 20
0.0
 30
0.0
210
0.0
220
0.0
230
1.0
  2
_USER
 70
     0
 71
     1
 91
        2
 92
        1
 93
        4
 72
     2
 10
87.04658536575559
 20
338.1928758488101
 40
2.065479772208593
 50
62.45185182430674
 51
117.548148175666
 73
     1
 72
     2
 10
86.76564547392229
 20
338.7314508591129
 40
1.458034083651515
 50
117.5481481756619
 51
242.451851824337
 73
     1
 72
     2
 10
87.04658536575559
 20
339.2700258694161
 40
2.065479772208382
 50
242.4518518243383
 51
297.5481481756889
 73
     1
 72
     2
 10
87.32752525758889
 20
338.7314508591129
 40
1.458034083651977
 50
297.5481481757016
 51
422.4518518242994
 73
     1
 97
        4
330
15D
330
15C
330
15E
330
15B
 92
       16
 93
        4
 72
     2
 10
86.84684532940918
 20
338.7314508591129
 40
0.7717997786796947
 50
321.8795802028417
 51
398.120419797155
 73
     1
 72
     2
 10
87.04658536575559
 20
338.8881820372334
 40
0.5179085730133349
 50
38.12041979715197
 51
141.8795802028538
 73
     1
 72
     2
 10
87.24632540210169
 20
338.7314508591129
 40
0.7717997786794808
 50
141.8795802028346
 51
218.1204197971687
 73
     1
 72
     2
 10
87.04658536575559
 20
338.5747196809929
 40
0.5179085730137529
 50
218.1204197971956
 51
321.8795802027985
 73
     1
 97
        4
330
179
330
176
330
177
330
178
 75
     1
 76
     0
 52
45.0
 41
0.1
 77
     0
 78
     1
 53
45.0
 43
0.0
 44
0.0
 45
-0.0707106781186548
 46
0.0707106781186548
 79
     0
 98
        1
 10
0.0
 20
0.0
  0
HATCH
  5
1B6
330
47
100
AcDbEntity
  8
1
  6
Continuous
 62
     2
100
AcDbHatch
 10
0.0
 20
0.0
 30
0.0
210
0.0
220
0.0
230
1.0
  2
_USER
 70
     0
 71
     1
 91
        2
 92
        1
 93
        4
 72
     2
 10
87.04658536575559
 20
338.1928758488101
 40
2.065479772208593
 50
62.45185182430674
 51
117.548148175666
 73
     1
 72
     2
 10
86.76564547392229
 20
338.7314508591129
 40
1.458034083651515
 50
117.5481481756619
 51
242.451851824337
 73
     1
 72
     2
 10
87.04658536575559
 20
339.2700258694161
 40
2.065479772208382
 50
242.4518518243383
 51
297.5481481756889
 73
     1
 72
     2
 10
87.32752525758889
 20
338.7314508591129
 40
1.458034083651977
 50
297.5481481757016
 51
422.4518518242994
 73
     1
 97
        4
330
15D
330
15C
330
15E
330
15B
 92
       16
 93
        4
 72
     2
 10
86.84684532940918
 20
338.7314508591129
 40
0.7717997786796947
 50
321.8795802028417
 51
398.120419797155
 73
     1
 72
     2
 10
87.04658536575559
 20
338.8881820372334
 40
0.5179085730133349
 50
38.12041979715197
 51
141.8795802028538
 73
     1
 72
     2
 10
87.24632540210169
 20
338.7314508591129
 40
0.7717997786794808
 50
141.8795802028346
 51
218.1204197971687
 73
     1
 72
     2
 10
87.04658536575559
 20
338.5747196809929
 40
0.5179085730137529
 50
218.1204197971956
 51
321.8795802027985
 73
     1
 97
        4
330
179
330
176
330
177
330
178
 75
     1
 76
     0
 52
45.0
 41
0.1
 77
     0
 78
     1
 53
45.0
 43
0.0
 44
0.0
 45
-0.0707106781186548
 46
0.0707106781186548
 79
     0
 98
        1
 10
0.0
 20
0.0
  0
HATCH
  5
1B7
330
47
100
AcDbEntity
  8
1
  6
Continuous
 62
     2
100
AcDbHatch
 10
0.0
 20
0.0
 30
0.0
210
0.0
220
0.0
230
1.0
  2
_USER
 70
     0
 71
     1
 91
        2
 92
        1
 93
       12
 72
     1
 10
93.94158056016488
 20
342.9195324917501
 11
92.6056527337372
 21
342.9195324917501
 72
     1
 10
92.6056527337372
 20
342.9195324917501
 11
92.6056527337372
 21
342.4396481380084
 72
     1
 10
92.6056527337372
 20
342.4396481380084
 11
93.94158056016488
 21
342.4396481380084
 72
     1
 10
93.94158056016488
 20
342.4396481380084
 11
93.94158056016488
 21
341.7416345325661
 72
     1
 10
93.94158056016488
 20
341.7416345325661
 11
92.6056527337372
 21
341.7416345325661
 72
     1
 10
92.6056527337372
 20
341.7416345325661
 11
92.6056527337372
 21
341.2617501788244
 72
     1
 10
92.6056527337372
 20
341.2617501788244
 11
93.94158056016488
 21
341.2617501788244
 72
     1
 10
93.94158056016488
 20
341.2617501788244
 11
93.94158056016488
 21
340.5637365733819
 72
     1
 10
93.94158056016488
 20
340.5637365733819
 11
90.79126083638388
 21
340.5637365733819
 72
     2
 10
90.79126083638388
 20
342.0906413352872
 40
1.526904761905882
 50
90.0
 51
270.0
 73
     0
 72
     1
 10
90.79126083638388
 20
343.6175460971931
 11
93.94158056016488
 21
343.6175460971931
 72
     1
 10
93.94158056016488
 20
343.6175460971931
 11
93.94158056016488
 21
342.9195324917501
 97
       12
330
114
330
166
330
115
330
116
330
117
330
118
330
F5
330
F4
330
F3
330
F2
330
119
330
113
 92
       16
 93
        4
 72
     2
 10
91.00753284654908
 20
342.2473725134076
 40
0.5179085730135967
 50
38.12041979715324
 51
141.879580202839
 73
     1
 72
     2
 10
91.20727288289538
 20
342.0906413352872
 40
0.7717997786796724
 50
141.8795802028404
 51
218.1204197971629
 73
     1
 72
     2
 10
91.00753284654908
 20
341.9339101571668
 40
0.5179085730135072
 50
218.120419797161
 51
321.8795802028467
 73
     1
 72
     2
 10
90.8077928102029
 20
342.0906413352872
 40
0.7717997786797075
 50
321.8795802028371
 51
398.1204197971595
 73
     1
 97
        4
330
160
330
15F
330
15A
330
159
 75
     1
 76
     0
 52
45.0
 41
0.1
 77
     0
 78
     1
 53
45.0
 43
0.0
 44
0.0
 45
-0.0707106781186548
 46
0.0707106781186548
 79
     0
 98
        1
 10
0.0
 20
0.0
  0
HATCH
  5
1B8
330
47
100
AcDbEntity
  8
1
  6
Continuous
 62
     2
100
AcDbHatch
 10
0.0
 20
0.0
 30
0.0
210
0.0
220
0.0
230
1.0
  2
_USER
 70
     0
 71
     1
 91
        2
 92
        1
 93
       12
 72
     1
 10
93.94158056016488
 20
342.9195324917501
 11
92.6056527337372
 21
342.9195324917501
 72
     1
 10
92.6056527337372
 20
342.9195324917501
 11
92.6056527337372
 21
342.4396481380084
 72
     1
 10
92.6056527337372
 20
342.4396481380084
 11
93.94158056016488
 21
342.4396481380084
 72
     1
 10
93.94158056016488
 20
342.4396481380084
 11
93.94158056016488
 21
341.7416345325661
 72
     1
 10
93.94158056016488
 20
341.7416345325661
 11
92.6056527337372
 21
341.7416345325661
 72
     1
 10
92.6056527337372
 20
341.7416345325661
 11
92.6056527337372
 21
341.2617501788244
 72
     1
 10
92.6056527337372
 20
341.2617501788244
 11
93.94158056016488
 21
341.2617501788244
 72
     1
 10
93.94158056016488
 20
341.2617501788244
 11
93.94158056016488
 21
340.5637365733819
 72
     1
 10
93.94158056016488
 20
340.5637365733819
 11
90.79126083638388
 21
340.5637365733819
 72
     2
 10
90.79126083638388
 20
342.0906413352872
 40
1.526904761905882
 50
90.0
 51
270.0
 73
     0
 72
     1
 10
90.79126083638388
 20
343.6175460971931
 11
93.94158056016488
 21
343.6175460971931
 72
     1
 10
93.94158056016488
 20
343.6175460971931
 11
93.94158056016488
 21
342.9195324917501
 97
       12
330
114
330
166
330
115
330
116
330
117
330
118
330
F5
330
F4
330
F3
330
F2
330
119
330
113
 92
       16
 93
        4
 72
     2
 10
91.00753284654908
 20
342.2473725134076
 40
0.5179085730135967
 50
38.12041979715324
 51
141.879580202839
 73
     1
 72
     2
 10
91.20727288289538
 20
342.0906413352872
 40
0.7717997786796724
 50
141.8795802028404
 51
218.1204197971629
 73
     1
 72
     2
 10
91.00753284654908
 20
341.9339101571668
 40
0.5179085730135072
 50
218.120419797161
 51
321.8795802028467
 73
     1
 72
     2
 10
90.8077928102029
 20
342.0906413352872
 40
0.7717997786797075
 50
321.8795802028371
 51
398.1204197971595
 73
     1
 97
        4
330
160
330
15F
330
15A
330
159
 75
     1
 76
     0
 52
45.0
 41
0.1
 77
     0
 78
     1
 53
45.0
 43
0.0
 44
0.0
 45
-0.0707106781186548
 46
0.0707106781186548
 79
     0
 98
        1
 10
0.0
 20
0.0
  0
HATCH
  5
1B9
330
47
100
AcDbEntity
  8
1
  6
Continuous
 62
     2
100
AcDbHatch
 10
0.0
 20
0.0
 30
0.0
210
0.0
220
0.0
230
1.0
  2
_USER
 70
     0
 71
     1
 91
        4
 92
        1
 93
        8
 72
     1
 10
82.01365353849528
 20
343.1933014817911
 11
82.01365353849528
 21
337.6287907125909
 72
     2
 10
81.58940892311139
 20
337.6287907125909
 40
0.4242446153833157
 50
0.0
 51
90.0
 73
     0
 72
     1
 10
81.58940892311139
 20
337.2045460972076
 11
76.11609683239459
 21
337.2045460972076
 72
     2
 10
76.11609683239459
 20
337.6287907125909
 40
0.4242446153828041
 50
90.0
 51
180.0
 73
     0
 72
     1
 10
75.69185221701179
 20
337.6287907125909
 11
75.69185221701179
 21
343.1933014817911
 72
     2
 10
76.11609683239459
 20
343.1933014817911
 40
0.4242446153838273
 50
180.0
 51
270.0
 73
     0
 72
     1
 10
76.11609683239459
 20
343.6175460971749
 11
81.58940892311139
 21
343.6175460971749
 72
     2
 10
81.58940892311139
 20
343.1933014817911
 40
0.4242446153838841
 50
270.0
 51
360.0
 73
     0
 97
        8
330
108
330
156
330
109
330
161
330
106
330
158
330
107
330
157
 92
       16
 93
        1
 72
     2
 10
78.7356824829121
 20
340.8744192534356
 40
0.4709789327785074
 50
0.0
 51
360.0
 73
     1
 97
        1
330
17C
 92
       16
 93
        8
 72
     2
 10
79.28554019567278
 20
339.7652776534671
 40
0.3157169230766355
 50
115.374008678343
 51
180.0
 73
     1
 72
     1
 10
78.96982327259599
 20
339.7652776534671
 11
78.96982327259599
 21
339.1834262467721
 72
     2
 10
79.28554019567278
 20
339.1834262467721
 40
0.315716923076792
 50
180.0
 51
269.8110329574542
 73
     1
 72
     2
 10
79.2911563309828
 20
340.8862611943411
 40
2.01856113193338
 50
269.8110329575858
 51
450.1889670424142
 73
     1
 72
     2
 10
79.28554019567278
 20
342.5890961419102
 40
0.3157169230760711
 50
90.18896704254594
 51
180.0
 73
     1
 72
     1
 10
78.96982327259599
 20
342.5890961419102
 11
78.96982327259599
 21
341.9835608534034
 72
     2
 10
79.28554019567278
 20
341.9835608534034
 40
0.315716923076792
 50
180.0
 51
244.6259913216437
 73
     1
 72
     2
 10
78.7594974975849
 20
340.8744192534356
 40
0.9118481501444333
 50
295.374008678191
 51
424.6259913218228
 73
     0
 97
        8
330
16E
330
CF
330
16B
330
16C
330
14A
330
CE
330
16D
330
149
 92
       16
 93
       12
 72
     2
 10
76.70999150914108
 20
338.2328185758412
 40
0.3157169230756836
 50
180.0
 51
270.0
 73
     1
 72
     1
 10
76.70999150914108
 20
337.9171016527645
 11
78.1858247701507
 21
337.9171016527645
 72
     2
 10
78.1858247701507
 20
338.2328185758412
 40
0.3157169230767067
 50
270.0
 51
360.0
 73
     1
 72
     1
 10
78.5015416932273
 20
338.2328185758412
 11
78.5015416932273
 21
339.7635895073728
 72
     2
 10
78.1858247701507
 20
339.7635895073728
 40
0.315716923076593
 50
0.0
 51
64.80558935146468
 73
     1
 72
     2
 10
78.70840921772569
 20
340.8744192534356
 40
0.9118975235576403
 50
115.1944106485138
 51
244.8055893514725
 73
     0
 72
     2
 10
78.1858247701507
 20
341.9852489994978
 40
0.3157169230761203
 50
295.1944106485397
 51
360.0
 73
     1
 72
     1
 10
78.5015416932273
 20
341.9852489994978
 11
78.5015416932273
 21
342.5892736185583
 72
     2
 10
78.1858247701507
 20
342.5892736185583
 40
0.315716923076593
 50
0.0
 51
90.0
 73
     1
 72
     1
 10
78.1858247701507
 20
342.9049905416345
 11
76.70999150914108
 21
342.9049905416345
 72
     2
 10
76.70999150914108
 20
342.5892736185583
 40
0.3157169230761951
 50
90.0
 51
180.0
 73
     1
 72
     1
 10
76.3942745860654
 20
342.5892736185583
 11
76.3942745860654
 21
338.2328185758412
 97
       12
330
152
330
10A
330
155
330
105
330
162
330
163
330
154
330
104
330
153
330
103
330
164
330
102
 75
     1
 76
     0
 52
45.0
 41
0.1
 77
     0
 78
     1
 53
45.0
 43
0.0
 44
0.0
 45
-0.0707106781186548
 46
0.0707106781186548
 79
     0
 98
        1
 10
0.0
 20
0.0
  0
HATCH
  5
1BA
330
47
100
AcDbEntity
  8
1
  6
Continuous
 62
     2
100
AcDbHatch
 10
0.0
 20
0.0
 30
0.0
210
0.0
220
0.0
230
1.0
  2
_USER
 70
     0
 71
     1
 91
        4
 92
        1
 93
        8
 72
     1
 10
82.01365353849528
 20
343.1933014817911
 11
82.01365353849528
 21
337.6287907125909
 72
     2
 10
81.58940892311139
 20
337.6287907125909
 40
0.4242446153833157
 50
0.0
 51
90.0
 73
     0
 72
     1
 10
81.58940892311139
 20
337.2045460972076
 11
76.11609683239459
 21
337.2045460972076
 72
     2
 10
76.11609683239459
 20
337.6287907125909
 40
0.4242446153828041
 50
90.0
 51
180.0
 73
     0
 72
     1
 10
75.69185221701179
 20
337.6287907125909
 11
75.69185221701179
 21
343.1933014817911
 72
     2
 10
76.11609683239459
 20
343.1933014817911
 40
0.4242446153838273
 50
180.0
 51
270.0
 73
     0
 72
     1
 10
76.11609683239459
 20
343.6175460971749
 11
81.58940892311139
 21
343.6175460971749
 72
     2
 10
81.58940892311139
 20
343.1933014817911
 40
0.4242446153838841
 50
270.0
 51
360.0
 73
     0
 97
        8
330
108
330
156
330
109
330
161
330
106
330
158
330
107
330
157
 92
       16
 93
        1
 72
     2
 10
78.7356824829121
 20
340.8744192534356
 40
0.4709789327785074
 50
0.0
 51
360.0
 73
     1
 97
        1
330
17C
 92
       16
 93
        8
 72
     2
 10
79.28554019567278
 20
339.7652776534671
 40
0.3157169230766355
 50
115.374008678343
 51
180.0
 73
     1
 72
     1
 10
78.96982327259599
 20
339.7652776534671
 11
78.96982327259599
 21
339.1834262467721
 72
     2
 10
79.28554019567278
 20
339.1834262467721
 40
0.315716923076792
 50
180.0
 51
269.8110329574542
 73
     1
 72
     2
 10
79.2911563309828
 20
340.8862611943411
 40
2.01856113193338
 50
269.8110329575858
 51
450.1889670424142
 73
     1
 72
     2
 10
79.28554019567278
 20
342.5890961419102
 40
0.3157169230760711
 50
90.18896704254594
 51
180.0
 73
     1
 72
     1
 10
78.96982327259599
 20
342.5890961419102
 11
78.96982327259599
 21
341.9835608534034
 72
     2
 10
79.28554019567278
 20
341.9835608534034
 40
0.315716923076792
 50
180.0
 51
244.6259913216437
 73
     1
 72
     2
 10
78.7594974975849
 20
340.8744192534356
 40
0.9118481501444333
 50
295.374008678191
 51
424.6259913218228
 73
     0
 97
        8
330
16E
330
CF
330
16B
330
16C
330
14A
330
CE
330
16D
330
149
 92
       16
 93
       12
 72
     2
 10
76.70999150914108
 20
338.2328185758412
 40
0.3157169230756836
 50
180.0
 51
270.0
 73
     1
 72
     1
 10
76.70999150914108
 20
337.9171016527645
 11
78.1858247701507
 21
337.9171016527645
 72
     2
 10
78.1858247701507
 20
338.2328185758412
 40
0.3157169230767067
 50
270.0
 51
360.0
 73
     1
 72
     1
 10
78.5015416932273
 20
338.2328185758412
 11
78.5015416932273
 21
339.7635895073728
 72
     2
 10
78.1858247701507
 20
339.7635895073728
 40
0.315716923076593
 50
0.0
 51
64.80558935146468
 73
     1
 72
     2
 10
78.70840921772569
 20
340.8744192534356
 40
0.9118975235576403
 50
115.1944106485138
 51
244.8055893514725
 73
     0
 72
     2
 10
78.1858247701507
 20
341.9852489994978
 40
0.3157169230761203
 50
295.1944106485397
 51
360.0
 73
     1
 72
     1
 10
78.5015416932273
 20
341.9852489994978
 11
78.5015416932273
 21
342.5892736185583
 72
     2
 10
78.1858247701507
 20
342.5892736185583
 40
0.315716923076593
 50
0.0
 51
90.0
 73
     1
 72
     1
 10
78.1858247701507
 20
342.9049905416345
 11
76.70999150914108
 21
342.9049905416345
 72
     2
 10
76.70999150914108
 20
342.5892736185583
 40
0.3157169230761951
 50
90.0
 51
180.0
 73
     1
 72
     1
 10
76.3942745860654
 20
342.5892736185583
 11
76.3942745860654
 21
338.2328185758412
 97
       12
330
152
330
10A
330
155
330
105
330
162
330
163
330
154
330
104
330
153
330
103
330
164
330
102
 75
     1
 76
     0
 52
45.0
 41
0.1
 77
     0
 78
     1
 53
45.0
 43
0.0
 44
0.0
 45
-0.0707106781186548
 46
0.0707106781186548
 79
     0
 98
        1
 10
0.0
 20
0.0
  0
HATCH
  5
1BB
330
47
100
AcDbEntity
  8
1
  6
Continuous
 62
     2
100
AcDbHatch
 10
0.0
 20
0.0
 30
0.0
210
0.0
220
0.0
230
1.0
  2
_USER
 70
     0
 71
     1
 91
        1
 92
        1
 93
       18
 72
     1
 10
103.6032014477163
 20
339.4730903148951
 11
102.7921024102429
 21
339.4730903148951
 72
     1
 10
102.7921024102429
 20
339.4730903148951
 11
102.7921024102429
 21
337.2045460972076
 72
     1
 10
102.7921024102429
 20
337.2045460972076
 11
101.5993097080752
 21
337.2045460972076
 72
     1
 10
101.5993097080752
 20
337.2045460972076
 11
101.5993097080752
 21
339.4730903148951
 72
     1
 10
101.5993097080752
 20
339.4730903148951
 11
100.4956704085071
 21
339.4730903148951
 72
     2
 10
100.4956704085071
 20
338.518567308069
 40
0.9545230068260935
 50
90.0
 51
109.3371432194312
 73
     1
 72
     2
 10
100.3490004104034
 20
338.9365222884519
 40
0.5115800601944143
 50
109.3371432194853
 51
151.478526742426
 73
     1
 72
     2
 10
100.7263576684848
 20
338.7314508591129
 40
0.9410597353348914
 50
151.4785267423644
 51
208.5214732576691
 73
     1
 72
     2
 10
100.3490004104034
 20
338.5263794297744
 40
0.5115800601960341
 50
208.5214732576858
 51
246.6277221118449
 73
     1
 72
     2
 10
100.5054404431065
 20
338.8883714484844
 40
0.9059297849852744
 50
246.6277221118191
 51
288.4480761180826
 73
     1
 72
     2
 10
100.0872727094446
 20
340.141917224521
 40
2.227384008972773
 50
288.4480761181333
 51
301.930908949939
 73
     1
 72
     1
 10
101.2653277514685
 20
338.2515665053712
 11
101.2653277514685
 21
337.3790494985678
 72
     2
 10
99.92939983435178
 20
342.0441318043693
 40
4.852596863498825
 50
74.0200087416616
 51
84.84185523036365
 73
     0
 72
     2
 10
100.2182559290876
 20
338.8442412211477
 40
1.639695123940448
 50
84.8418552303238
 51
164.9381082228988
 73
     0
 72
     2
 10
99.799128085626
 20
338.7314508591129
 40
1.205656168393002
 50
164.9381082229028
 51
195.0618917770972
 73
     0
 72
     2
 10
100.2182559290876
 20
338.6186604970779
 40
1.639695123940328
 50
195.0618917771089
 51
270.0
 73
     0
 72
     1
 10
100.2182559290876
 20
340.2583556210182
 11
103.6032014477163
 21
340.2583556210187
 72
     1
 10
103.6032014477163
 20
340.2583556210187
 11
103.6032014477163
 21
339.4730903148951
 97
       18
330
D1
330
167
330
168
330
150
330
14F
330
135
330
14E
330
14D
330
169
330
14C
330
16A
330
14B
330
136
330
D0
330
D5
330
D4
330
D3
330
D2
 75
     1
 76
     0
 52
45.0
 41
0.1
 77
     0
 78
     1
 53
45.0
 43
0.0
 44
0.0
 45
-0.0707106781186548
 46
0.0707106781186548
 79
     0
 98
        1
 10
0.0
 20
0.0
  0
HATCH
  5
1BC
330
47
100
AcDbEntity
  8
1
  6
Continuous
 62
     2
100
AcDbHatch
 10
0.0
 20
0.0
 30
0.0
210
0.0
220
0.0
230
1.0
  2
_USER
 70
     0
 71
     1
 91
        1
 92
        1
 93
       18
 72
     1
 10
103.6032014477163
 20
339.4730903148951
 11
102.7921024102429
 21
339.4730903148951
 72
     1
 10
102.7921024102429
 20
339.4730903148951
 11
102.7921024102429
 21
337.2045460972076
 72
     1
 10
102.7921024102429
 20
337.2045460972076
 11
101.5993097080752
 21
337.2045460972076
 72
     1
 10
101.5993097080752
 20
337.2045460972076
 11
101.5993097080752
 21
339.4730903148951
 72
     1
 10
101.5993097080752
 20
339.4730903148951
 11
100.4956704085071
 21
339.4730903148951
 72
     2
 10
100.4956704085071
 20
338.518567308069
 40
0.9545230068260935
 50
90.0
 51
109.3371432194312
 73
     1
 72
     2
 10
100.3490004104034
 20
338.9365222884519
 40
0.5115800601944143
 50
109.3371432194853
 51
151.478526742426
 73
     1
 72
     2
 10
100.7263576684848
 20
338.7314508591129
 40
0.9410597353348914
 50
151.4785267423644
 51
208.5214732576691
 73
     1
 72
     2
 10
100.3490004104034
 20
338.5263794297744
 40
0.5115800601960341
 50
208.5214732576858
 51
246.6277221118449
 73
     1
 72
     2
 10
100.5054404431065
 20
338.8883714484844
 40
0.9059297849852744
 50
246.6277221118191
 51
288.4480761180826
 73
     1
 72
     2
 10
100.0872727094446
 20
340.141917224521
 40
2.227384008972773
 50
288.4480761181333
 51
301.930908949939
 73
     1
 72
     1
 10
101.2653277514685
 20
338.2515665053712
 11
101.2653277514685
 21
337.3790494985678
 72
     2
 10
99.92939983435178
 20
342.0441318043693
 40
4.852596863498825
 50
74.0200087416616
 51
84.84185523036365
 73
     0
 72
     2
 10
100.2182559290876
 20
338.8442412211477
 40
1.639695123940448
 50
84.8418552303238
 51
164.9381082228988
 73
     0
 72
     2
 10
99.799128085626
 20
338.7314508591129
 40
1.205656168393002
 50
164.9381082229028
 51
195.0618917770972
 73
     0
 72
     2
 10
100.2182559290876
 20
338.6186604970779
 40
1.639695123940328
 50
195.0618917771089
 51
270.0
 73
     0
 72
     1
 10
100.2182559290876
 20
340.2583556210182
 11
103.6032014477163
 21
340.2583556210187
 72
     1
 10
103.6032014477163
 20
340.2583556210187
 11
103.6032014477163
 21
339.4730903148951
 97
       18
330
D1
330
167
330
168
330
150
330
14F
330
135
330
14E
330
14D
330
169
330
14C
330
16A
330
14B
330
136
330
D0
330
D5
330
D4
330
D3
330
D2
 75
     1
 76
     0
 52
45.0
 41
0.1
 77
     0
 78
     1
 53
45.0
 43
0.0
 44
0.0
 45
-0.0707106781186548
 46
0.0707106781186548
 79
     0
 98
        1
 10
0.0
 20
0.0
  0
HATCH
  5
1BD
330
47
100
AcDbEntity
  8
1
  6
Continuous
 62
     2
100
AcDbHatch
 10
0.0
 20
0.0
 30
0.0
210
0.0
220
0.0
230
1.0
  2
_USER
 70
     0
 71
     1
 91
        1
 92
        1
 93
       14
 72
     2
 10
84.11555444983469
 20
338.6186604970779
 40
1.63969512394062
 50
84.84185523036271
 51
164.9381082228826
 73
     1
 72
     2
 10
83.69642660637189
 20
338.7314508591129
 40
1.205656168390944
 50
164.9381082228765
 51
195.0618917770948
 73
     1
 72
     2
 10
84.11555444983469
 20
338.8442412211477
 40
1.63969512393938
 50
195.0618917770886
 51
275.1581447696396
 73
     1
 72
     2
 10
83.82669835509878
 20
342.0441318043693
 40
4.85259686349811
 50
275.158144769625
 51
285.979991258353
 73
     1
 72
     1
 10
85.16262627221658
 20
337.3790494985685
 11
85.16262627221658
 21
338.2515665053717
 72
     2
 10
83.9845712301917
 20
340.1419172245215
 40
2.227384008972656
 50
58.06909105003877
 51
71.55192388186651
 73
     0
 72
     2
 10
84.4027389638525
 20
338.8883714484844
 40
0.9059297849849192
 50
71.55192388184209
 51
113.372277888129
 73
     0
 72
     2
 10
84.24629893115048
 20
338.5263794297744
 40
0.5115800601948034
 50
113.3722778881726
 51
151.4785267423044
 73
     0
 72
     2
 10
84.62365618923079
 20
338.7314508591129
 40
0.9410597353332545
 50
151.4785267422943
 51
208.5214732577331
 73
     0
 72
     2
 10
84.24629893115048
 20
338.9365222884519
 40
0.5115800601948517
 50
208.5214732576956
 51
246.6277221117996
 73
     0
 72
     2
 10
84.4027389638525
 20
338.5745302697413
 40
0.9059297849853768
 50
246.627722111871
 51
288.4480761181454
 73
     0
 72
     2
 10
83.9845712301917
 20
337.3209844937047
 40
2.227384008973453
 50
288.4480761181326
 51
301.9309089499596
 73
     0
 72
     1
 10
85.16262627221658
 20
339.2113352128546
 11
85.16262627221658
 21
340.0838522196578
 72
     2
 10
83.82669835509878
 20
335.418769913857
 40
4.852596863497986
 50
74.0200087416471
 51
84.84185523037509
 73
     1
 97
       14
330
16F
330
170
330
171
330
172
330
137
330
148
330
147
330
146
330
173
330
174
330
145
330
175
330
138
330
144
 75
     1
 76
     0
 52
45.0
 41
0.1
 77
     0
 78
     1
 53
45.0
 43
0.0
 44
0.0
 45
-0.0707106781186548
 46
0.0707106781186548
 79
     0
 98
        1
 10
0.0
 20
0.0
  0
HATCH
  5
1BE
330
47
100
AcDbEntity
  8
1
  6
Continuous
 62
     2
100
AcDbHatch
 10
0.0
 20
0.0
 30
0.0
210
0.0
220
0.0
230
1.0
  2
_USER
 70
     0
 71
     1
 91
        1
 92
        1
 93
       14
 72
     2
 10
84.11555444983469
 20
338.6186604970779
 40
1.63969512394062
 50
84.84185523036271
 51
164.9381082228826
 73
     1
 72
     2
 10
83.69642660637189
 20
338.7314508591129
 40
1.205656168390944
 50
164.9381082228765
 51
195.0618917770948
 73
     1
 72
     2
 10
84.11555444983469
 20
338.8442412211477
 40
1.63969512393938
 50
195.0618917770886
 51
275.1581447696396
 73
     1
 72
     2
 10
83.82669835509878
 20
342.0441318043693
 40
4.85259686349811
 50
275.158144769625
 51
285.979991258353
 73
     1
 72
     1
 10
85.16262627221658
 20
337.3790494985685
 11
85.16262627221658
 21
338.2515665053717
 72
     2
 10
83.9845712301917
 20
340.1419172245215
 40
2.227384008972656
 50
58.06909105003877
 51
71.55192388186651
 73
     0
 72
     2
 10
84.4027389638525
 20
338.8883714484844
 40
0.9059297849849192
 50
71.55192388184209
 51
113.372277888129
 73
     0
 72
     2
 10
84.24629893115048
 20
338.5263794297744
 40
0.5115800601948034
 50
113.3722778881726
 51
151.4785267423044
 73
     0
 72
     2
 10
84.62365618923079
 20
338.7314508591129
 40
0.9410597353332545
 50
151.4785267422943
 51
208.5214732577331
 73
     0
 72
     2
 10
84.24629893115048
 20
338.9365222884519
 40
0.5115800601948517
 50
208.5214732576956
 51
246.6277221117996
 73
     0
 72
     2
 10
84.4027389638525
 20
338.5745302697413
 40
0.9059297849853768
 50
246.627722111871
 51
288.4480761181454
 73
     0
 72
     2
 10
83.9845712301917
 20
337.3209844937047
 40
2.227384008973453
 50
288.4480761181326
 51
301.9309089499596
 73
     0
 72
     1
 10
85.16262627221658
 20
339.2113352128546
 11
85.16262627221658
 21
340.0838522196578
 72
     2
 10
83.82669835509878
 20
335.418769913857
 40
4.852596863497986
 50
74.0200087416471
 51
84.84185523037509
 73
     1
 97
       14
330
16F
330
170
330
171
330
172
330
137
330
148
330
147
330
146
330
173
330
174
330
145
330
175
330
138
330
144
 75
     1
 76
     0
 52
45.0
 41
0.1
 77
     0
 78
     1
 53
45.0
 43
0.0
 44
0.0
 45
-0.0707106781186548
 46
0.0707106781186548
 79
     0
 98
        1
 10
0.0
 20
0.0
  0
ENDBLK
  5
49
330
47
100
AcDbEntity
  8
0
100
AcDbBlockEnd
  0
BLOCK
  5
4B
330
4A
100
AcDbEntity
  8
0
100
AcDbBlockBegin
  2
_punkt
 70
     0
 10
201.0000018571992
 20
329.9110460971913
 30
0.0
  3
_punkt
  1

  0
LINE
  5
1BF
330
4A
100
AcDbEntity
  8
1
  6
Continuous
 62
     2
100
AcDbLine
 10
201.0000018571992
 20
329.9110460971913
 30
0.0
 11
206.0000018571982
 21
329.9110460971913
 31
0.0
  0
LINE
  5
1C0
330
4A
100
AcDbEntity
  8
1
  6
Continuous
 62
     2
100
AcDbLine
 10
201.0000018571992
 20
329.9110460971913
 30
0.0
 11
201.0000018571992
 21
324.9110460971912
 31
0.0
  0
ENDBLK
  5
4C
330
4A
100
AcDbEntity
  8
0
100
AcDbBlockEnd
  0
BLOCK
  5
50
330
4D
100
AcDbEntity
  8
0
100
AcDbBlockBegin
  2
A4I_CS
 70
     0
 10
201.0000018571992
 20
324.9110460971912
 30
0.0
  3
A4I_CS
  1

  0
INSERT
  5
4E
330
4D
100
AcDbEntity
  8
1
100
AcDbBlockReference
  2
_rahmen
 10
201.0000018571992
 20
324.9110460971912
 30
0.0
  0
INSERT
  5
4F
330
4D
100
AcDbEntity
  8
1
100
AcDbBlockReference
  2
_punkt
 10
201.0000018571992
 20
329.9110460971913
 30
0.0
  0
ENDBLK
  5
51
330
4D
100
AcDbEntity
  8
0
100
AcDbBlockEnd
  0
BLOCK
  5
53
330
52
100
AcDbEntity
  8
0
100
AcDbBlockBegin
  2
ATP_UKKB_3-select__1
 70
     0
 10
111.3490508680182
 20
363.2720994299701
 30
0.0
  3
ATP_UKKB_3-select__1
  1

  0
LINE
  5
1C1
330
52
100
AcDbEntity
  8
0
  6
Continuous
 62
     7
100
AcDbLine
 10
111.3490508680182
 20
400.2086329094435
 30
0.0
 11
118.2772540982937
 21
405.1368361397189
 31
0.0
  0
LINE
  5
1C2
330
52
100
AcDbEntity
  8
0
  6
Continuous
 62
     7
100
AcDbLine
 10
119.5522540982937
 20
406.241018529544
 30
0.0
 11
118.2772540982937
 21
405.1368361397189
 31
0.0
  0
LINE
  5
1C3
330
52
100
AcDbEntity
  8
0
  6
Continuous
 62
     7
100
AcDbLine
 10
118.2772540982937
 20
405.1368361397189
 30
0.0
 11
123.9064192228926
 21
403.5118361397189
 31
0.0
  0
LINE
  5
1C4
330
52
100
AcDbEntity
  8
0
  6
Continuous
 62
     7
100
AcDbLine
 10
123.9064192228926
 20
400.0477345245811
 30
0.0
 11
124.7724446266769
 21
399.7977345245812
 31
0.0
  0
LINE
  5
1C5
330
52
100
AcDbEntity
  8
0
  6
Continuous
 62
     7
100
AcDbLine
 10
123.9064192228926
 20
400.0477345245811
 30
0.0
 11
125.1405054232853
 21
401.116484524581
 31
0.0
  0
LINE
  5
1C6
330
52
100
AcDbEntity
  8
0
  6
Continuous
 62
     7
100
AcDbLine
 10
123.9064192228926
 20
403.5118361397189
 30
0.0
 11
123.9064192228926
 21
400.0477345245811
 31
0.0
  0
LINE
  5
1C7
330
52
100
AcDbEntity
  8
0
  6
Continuous
 62
     7
100
AcDbLine
 10
125.1814192228926
 20
401.2630773530736
 30
0.0
 11
125.1814192228926
 21
404.616018529544
 31
0.0
  0
LINE
  5
1C8
330
52
100
AcDbEntity
  8
0
  6
Continuous
 62
     7
100
AcDbLine
 10
126.0474446266769
 20
404.366018529544
 30
0.0
 11
126.0474446266769
 21
420.6105487070084
 31
0.0
  0
LINE
  5
1C9
330
52
100
AcDbEntity
  8
0
  6
Continuous
 62
     7
100
AcDbLine
 10
124.7724446266769
 20
399.7977345245812
 30
0.0
 11
126.0474446266769
 21
404.366018529544
 31
0.0
  0
LINE
  5
1CA
330
52
100
AcDbEntity
  8
0
  6
Continuous
 62
     7
100
AcDbLine
 10
126.0474446266769
 20
420.6105487070084
 30
0.0
 11
128.6455208380302
 21
426.9987044317239
 31
0.0
  0
LINE
  5
1CB
330
52
100
AcDbEntity
  8
0
  6
Continuous
 62
     7
100
AcDbLine
 10
123.9064192228926
 20
403.5118361397189
 30
0.0
 11
125.1814192228926
 21
404.616018529544
 31
0.0
  0
LINE
  5
1CC
330
52
100
AcDbEntity
  8
0
  6
Continuous
 62
     7
100
AcDbLine
 10
129.9205208380302
 20
428.102886821549
 30
0.0
 11
128.6455208380302
 21
426.9987044317239
 31
0.0
  0
LINE
  5
1CD
330
52
100
AcDbEntity
  8
0
  6
Continuous
 62
     7
100
AcDbLine
 10
125.1814192228926
 20
404.616018529544
 30
0.0
 11
119.5522540982937
 21
406.241018529544
 31
0.0
  0
LINE
  5
1CE
330
52
100
AcDbEntity
  8
0
  6
Continuous
 62
     7
100
AcDbLine
 10
119.5522540982937
 20
406.241018529544
 30
0.0
 11
112.6240508680182
 21
401.3128152992686
 31
0.0
  0
LINE
  5
1CF
330
52
100
AcDbEntity
  8
0
  6
Continuous
 62
     7
100
AcDbLine
 10
112.6240508680182
 20
401.3128152992686
 30
0.0
 11
111.3490508680182
 21
400.2086329094435
 31
0.0
  0
LINE
  5
1D0
330
52
100
AcDbEntity
  8
0
  6
Continuous
 62
     7
100
AcDbLine
 10
152.0282067402102
 20
420.2487044317238
 30
0.0
 11
153.3032067402102
 21
421.352886821549
 31
0.0
  0
LINE
  5
1D1
330
52
100
AcDbEntity
  8
0
  6
Continuous
 62
     7
100
AcDbLine
 10
128.6455208380302
 20
426.9987044317239
 30
0.0
 11
152.0282067402102
 21
420.2487044317238
 31
0.0
  0
LINE
  5
1D2
330
52
100
AcDbEntity
  8
0
  6
Continuous
 62
     7
100
AcDbLine
 10
153.3032067402102
 20
421.352886821549
 30
0.0
 11
129.9205208380302
 21
428.102886821549
 31
0.0
  0
LINE
  5
1D3
330
52
100
AcDbEntity
  8
0
  6
Continuous
 62
     7
100
AcDbLine
 10
154.217308355348
 20
394.6506757010517
 30
0.0
 11
153.3512829515636
 21
391.5477345245811
 31
0.0
  0
LINE
  5
1D4
330
52
100
AcDbEntity
  8
0
  6
Continuous
 62
     7
100
AcDbLine
 10
124.7724446266769
 20
399.7977345245812
 30
0.0
 11
153.3512829515636
 21
391.5477345245811
 31
0.0
  0
LINE
  5
1D5
330
52
100
AcDbEntity
  8
0
  6
Continuous
 62
     7
100
AcDbLine
 10
111.3490508680182
 20
382.0220994299701
 30
0.0
 11
111.3490508680182
 21
400.2086329094435
 31
0.0
  0
LINE
  5
1D6
330
52
100
AcDbEntity
  8
0
  6
Continuous
 62
     7
100
AcDbLine
 10
155.9012829515635
 20
413.4647310968336
 30
0.0
 11
154.6262829515635
 21
412.3605487070084
 31
0.0
  0
LINE
  5
1D7
330
52
100
AcDbEntity
  8
0
  6
Continuous
 62
     7
100
AcDbLine
 10
152.0282067402102
 20
420.2487044317238
 30
0.0
 11
154.6262829515635
 21
412.3605487070084
 31
0.0
  0
LINE
  5
1D8
330
52
100
AcDbEntity
  8
0
  6
Continuous
 62
     7
100
AcDbLine
 10
155.9012829515635
 20
413.4647310968336
 30
0.0
 11
153.3032067402102
 21
421.352886821549
 31
0.0
  0
LINE
  5
1D9
330
52
100
AcDbEntity
  8
0
  6
Continuous
 62
     7
100
AcDbLine
 10
155.6860463827591
 20
395.8100911784051
 30
0.0
 11
155.9012829515635
 21
396.4407780559632
 31
0.0
  0
LINE
  5
1DA
330
52
100
AcDbEntity
  8
0
  6
Continuous
 62
     7
100
AcDbLine
 10
154.6262829515635
 20
396.116018529544
 30
0.0
 11
154.2582221549552
 21
394.7972685295441
 31
0.0
  0
LINE
  5
1DB
330
52
100
AcDbEntity
  8
0
  6
Continuous
 62
     7
100
AcDbLine
 10
154.217308355348
 20
391.2977345245811
 30
0.0
 11
154.217308355348
 21
394.7618361397189
 31
0.0
  0
LINE
  5
1DC
330
52
100
AcDbEntity
  8
0
  6
Continuous
 62
     7
100
AcDbLine
 10
153.3512829515636
 20
391.5477345245811
 30
0.0
 11
154.217308355348
 21
391.2977345245811
 31
0.0
  0
LINE
  5
1DD
330
52
100
AcDbEntity
  8
0
  6
Continuous
 62
     7
100
AcDbLine
 10
153.3512829515636
 20
391.5477345245811
 30
0.0
 11
154.217308355348
 21
392.2977345245811
 31
0.0
  0
LINE
  5
1DE
330
52
100
AcDbEntity
  8
0
  6
Continuous
 62
     7
100
AcDbLine
 10
155.492308355348
 20
395.866018529544
 30
0.0
 11
154.217308355348
 21
394.7618361397189
 31
0.0
  0
LINE
  5
1DF
330
52
100
AcDbEntity
  8
0
  6
Continuous
 62
     7
100
AcDbLine
 10
154.6262829515635
 20
396.116018529544
 30
0.0
 11
126.0474446266769
 21
404.366018529544
 31
0.0
  0
LINE
  5
1E0
330
52
100
AcDbEntity
  8
0
  6
Continuous
 62
     7
100
AcDbLine
 10
169.3727529215757
 20
390.3868361397189
 30
0.0
 11
170.6477529215756
 21
391.491018529544
 31
0.0
  0
LINE
  5
1E1
330
52
100
AcDbEntity
  8
0
  6
Continuous
 62
     7
100
AcDbLine
 10
176.3009561518511
 20
381.4586329094434
 30
0.0
 11
177.5759561518511
 21
382.5628152992686
 31
0.0
  0
LINE
  5
1E2
330
52
100
AcDbEntity
  8
0
  6
Continuous
 62
     7
100
AcDbLine
 10
177.5759561518511
 20
382.5628152992686
 30
0.0
 11
170.6477529215756
 21
391.491018529544
 31
0.0
  0
LINE
  5
1E3
330
52
100
AcDbEntity
  8
0
  6
Continuous
 62
     7
100
AcDbLine
 10
169.3727529215757
 20
390.3868361397189
 30
0.0
 11
176.3009561518511
 21
381.4586329094434
 31
0.0
  0
LINE
  5
1E4
330
52
100
AcDbEntity
  8
0
  6
Continuous
 62
     7
100
AcDbLine
 10
154.217308355348
 20
394.7618361397189
 30
0.0
 11
169.3727529215757
 21
390.3868361397189
 31
0.0
  0
LINE
  5
1E5
330
52
100
AcDbEntity
  8
0
  6
Continuous
 62
     7
100
AcDbLine
 10
170.6477529215756
 20
391.491018529544
 30
0.0
 11
155.492308355348
 21
395.866018529544
 31
0.0
  0
LINE
  5
1E6
330
52
100
AcDbEntity
  8
0
  6
Continuous
 62
     7
100
AcDbLine
 10
155.9012829515635
 20
396.4407780559632
 30
0.0
 11
155.9012829515635
 21
413.4647310968336
 31
0.0
  0
LINE
  5
1E7
330
52
100
AcDbEntity
  8
0
  6
Continuous
 62
     7
100
AcDbLine
 10
154.6262829515635
 20
412.3605487070084
 30
0.0
 11
154.6262829515635
 21
396.116018529544
 31
0.0
  0
LINE
  5
1E8
330
52
100
AcDbEntity
  8
0
  6
Continuous
 62
     7
100
AcDbLine
 10
176.3009561518511
 20
363.2720994299701
 30
0.0
 11
176.3009561518511
 21
381.4586329094434
 31
0.0
  0
LINE
  5
1E9
330
52
100
AcDbEntity
  8
0
  6
Continuous
 62
     7
100
AcDbLine
 10
176.3009561518511
 20
363.2720994299701
 30
0.0
 11
177.5759561518511
 21
364.3762818197953
 31
0.0
  0
LINE
  5
1EA
330
52
100
AcDbEntity
  8
0
  6
Continuous
 62
     7
100
AcDbLine
 10
177.5759561518511
 20
382.5628152992686
 30
0.0
 11
177.5759561518511
 21
364.3762818197953
 31
0.0
  0
LINE
  5
1EB
330
52
100
AcDbEntity
  8
0
  6
Continuous
 62
     7
100
AcDbLine
 10
176.3009561518511
 20
363.2720994299701
 30
0.0
 11
111.3490508680182
 21
382.0220994299701
 31
0.0
  0
ENDBLK
  5
54
330
52
100
AcDbEntity
  8
0
100
AcDbBlockEnd
  0
BLOCK
  5
57
330
55
100
AcDbEntity
  8
0
100
AcDbBlockBegin
  2
AllgSicht1
 70
     0
 10
145.1000026786092
 20
397.999998437758
 30
0.0
  3
AllgSicht1
  1

  0
INSERT
  5
56
330
55
100
AcDbEntity
  8
0
100
AcDbBlockReference
  2
ATP_UKKB_3-select__1
 10
111.3490508680182
 20
363.2720994299701
 30
0.0
  0
ENDBLK
  5
58
330
55
100
AcDbEntity
  8
0
100
AcDbBlockEnd
  0
BLOCK
  5
5A
330
59
100
AcDbEntity
  8
0
100
AcDbBlockBegin
  2
ATP_UKKB_3-select__2
 70
     0
 10
-23.49999999998003
 20
399.4500030198437
 30
0.0
  3
ATP_UKKB_3-select__2
  1

  0
LINE
  5
1EC
330
59
100
AcDbEntity
  8
0
  6
Continuous
 62
     7
100
AcDbLine
 10
-23.49999999998003
 20
402.0000030198438
 30
0.0
 11
-23.49999999998003
 21
399.4500030198437
 31
0.0
  0
LINE
  5
1ED
330
59
100
AcDbEntity
  8
0
  6
Continuous
 62
     7
100
AcDbLine
 10
-8.99999999998014
 20
399.4500030198437
 30
0.0
 11
-8.99999999998014
 21
402.0000030198438
 31
0.0
  0
LINE
  5
1EE
330
59
100
AcDbEntity
  8
0
  6
Continuous
 62
     7
100
AcDbLine
 10
-15.49999999998012
 20
402.0000030198438
 30
0.0
 11
-15.49999999998012
 21
399.4500030198437
 31
0.0
  0
LINE
  5
1EF
330
59
100
AcDbEntity
  8
0
  6
Continuous
 62
     7
100
AcDbLine
 10
-7.99999999998014
 20
402.0000030198438
 30
0.0
 11
-7.99999999998014
 21
404.5500030198438
 31
0.0
  0
LINE
  5
1F0
330
59
100
AcDbEntity
  8
0
  6
Continuous
 62
     7
100
AcDbLine
 10
-7.99999999998014
 20
399.4500030198437
 30
0.0
 11
-7.99999999998014
 21
402.0000030198438
 31
0.0
  0
LINE
  5
1F1
330
59
100
AcDbEntity
  8
0
  6
Continuous
 62
     7
100
AcDbLine
 10
-4.99999999998017
 20
404.5500030198438
 30
0.0
 11
-4.99999999998017
 21
402.0000030198438
 31
0.0
  0
LINE
  5
1F2
330
59
100
AcDbEntity
  8
0
  6
Continuous
 62
     7
100
AcDbLine
 10
-15.49999999998012
 20
399.4500030198437
 30
0.0
 11
-8.99999999998014
 21
399.4500030198437
 31
0.0
  0
LINE
  5
1F3
330
59
100
AcDbEntity
  8
0
  6
Continuous
 62
     7
100
AcDbLine
 10
-23.49999999998003
 20
399.4500030198437
 30
0.0
 11
-15.49999999998012
 21
399.4500030198437
 31
0.0
  0
LINE
  5
1F4
330
59
100
AcDbEntity
  8
0
  6
Continuous
 62
     7
100
AcDbLine
 10
-7.99999999998014
 20
402.0000030198438
 30
0.0
 11
-4.99999999998017
 21
402.0000030198438
 31
0.0
  0
LINE
  5
1F5
330
59
100
AcDbEntity
  8
0
  6
Continuous
 62
     7
100
AcDbLine
 10
-7.99999999998014
 20
402.0000030198438
 30
0.0
 11
-8.99999999998014
 21
402.0000030198438
 31
0.0
  0
LINE
  5
1F6
330
59
100
AcDbEntity
  8
0
  6
Continuous
 62
     7
100
AcDbLine
 10
22.00000000002
 20
402.0000030198438
 30
0.0
 11
25.00000000002
 21
402.0000030198438
 31
0.0
  0
LINE
  5
1F7
330
59
100
AcDbEntity
  8
0
  6
Continuous
 62
     7
100
AcDbLine
 10
26.00000000002
 20
402.0000030198438
 30
0.0
 11
25.00000000002
 21
402.0000030198438
 31
0.0
  0
LINE
  5
1F8
330
59
100
AcDbEntity
  8
0
  6
Continuous
 62
     7
100
AcDbLine
 10
-4.99999999998017
 20
402.0000030198438
 30
0.0
 11
22.00000000002
 21
402.0000030198438
 31
0.0
  0
LINE
  5
1F9
330
59
100
AcDbEntity
  8
0
  6
Continuous
 62
     7
100
AcDbLine
 10
-8.99999999998014
 20
402.0000030198438
 30
0.0
 11
-15.49999999998012
 21
402.0000030198438
 31
0.0
  0
LINE
  5
1FA
330
59
100
AcDbEntity
  8
0
  6
Continuous
 62
     7
100
AcDbLine
 10
-15.49999999998012
 20
402.0000030198438
 30
0.0
 11
-23.49999999998003
 21
402.0000030198438
 31
0.0
  0
LINE
  5
1FB
330
59
100
AcDbEntity
  8
0
  6
Continuous
 62
     7
100
AcDbLine
 10
25.00000000002
 20
404.5500030198438
 30
0.0
 11
25.00000000002
 21
402.0000030198438
 31
0.0
  0
LINE
  5
1FC
330
59
100
AcDbEntity
  8
0
  6
Continuous
 62
     7
100
AcDbLine
 10
25.00000000002
 20
402.0000030198438
 30
0.0
 11
25.00000000002
 21
399.4500030198437
 31
0.0
  0
LINE
  5
1FD
330
59
100
AcDbEntity
  8
0
  6
Continuous
 62
     7
100
AcDbLine
 10
26.00000000002
 20
402.0000030198438
 30
0.0
 11
26.00000000002
 21
399.4500030198437
 31
0.0
  0
LINE
  5
1FE
330
59
100
AcDbEntity
  8
0
  6
Continuous
 62
     7
100
AcDbLine
 10
51.50000000001995
 20
399.4500030198437
 30
0.0
 11
51.50000000001995
 21
402.0000030198438
 31
0.0
  0
LINE
  5
1FF
330
59
100
AcDbEntity
  8
0
  6
Continuous
 62
     7
100
AcDbLine
 10
22.00000000002
 20
402.0000030198438
 30
0.0
 11
22.00000000002
 21
404.5500030198438
 31
0.0
  0
LINE
  5
200
330
59
100
AcDbEntity
  8
0
  6
Continuous
 62
     7
100
AcDbLine
 10
43.50000000002
 20
399.4500030198437
 30
0.0
 11
43.50000000002
 21
402.0000030198438
 31
0.0
  0
LINE
  5
201
330
59
100
AcDbEntity
  8
0
  6
Continuous
 62
     7
100
AcDbLine
 10
25.00000000002
 20
404.5500030198438
 30
0.0
 11
22.00000000002
 21
404.5500030198438
 31
0.0
  0
LINE
  5
202
330
59
100
AcDbEntity
  8
0
  6
Continuous
 62
     7
100
AcDbLine
 10
22.00000000002
 20
404.5500030198438
 30
0.0
 11
-4.99999999998017
 21
404.5500030198438
 31
0.0
  0
LINE
  5
203
330
59
100
AcDbEntity
  8
0
  6
Continuous
 62
     7
100
AcDbLine
 10
-4.99999999998017
 20
404.5500030198438
 30
0.0
 11
-7.99999999998014
 21
404.5500030198438
 31
0.0
  0
LINE
  5
204
330
59
100
AcDbEntity
  8
0
  6
Continuous
 62
     7
100
AcDbLine
 10
-8.99999999998014
 20
399.4500030198437
 30
0.0
 11
-7.99999999998014
 21
399.4500030198437
 31
0.0
  0
LINE
  5
205
330
59
100
AcDbEntity
  8
0
  6
Continuous
 62
     7
100
AcDbLine
 10
43.50000000002
 20
399.4500030198437
 30
0.0
 11
51.50000000001995
 21
399.4500030198437
 31
0.0
  0
LINE
  5
206
330
59
100
AcDbEntity
  8
0
  6
Continuous
 62
     7
100
AcDbLine
 10
25.00000000002
 20
399.4500030198437
 30
0.0
 11
26.00000000002
 21
399.4500030198437
 31
0.0
  0
LINE
  5
207
330
59
100
AcDbEntity
  8
0
  6
Continuous
 62
     7
100
AcDbLine
 10
26.00000000002
 20
399.4500030198437
 30
0.0
 11
43.50000000002
 21
399.4500030198437
 31
0.0
  0
LINE
  5
208
330
59
100
AcDbEntity
  8
0
  6
Continuous
 62
     7
100
AcDbLine
 10
51.50000000001995
 20
402.0000030198438
 30
0.0
 11
43.50000000002
 21
402.0000030198438
 31
0.0
  0
LINE
  5
209
330
59
100
AcDbEntity
  8
0
  6
Continuous
 62
     7
100
AcDbLine
 10
43.50000000002
 20
402.0000030198438
 30
0.0
 11
26.00000000002
 21
402.0000030198438
 31
0.0
  0
LINE
  5
20A
330
59
100
AcDbEntity
  8
0
  6
Continuous
 62
     7
100
AcDbLine
 10
-7.99999999998014
 20
399.4500030198437
 30
0.0
 11
25.00000000002
 21
399.4500030198437
 31
0.0
  0
ENDBLK
  5
5B
330
59
100
AcDbEntity
  8
0
100
AcDbBlockEnd
  0
BLOCK
  5
5E
330
5C
100
AcDbEntity
  8
0
100
AcDbBlockBegin
  2
Drfsicht1
 70
     0
 10
14.00000000001
 20
402.00000135721
 30
0.0
  3
Drfsicht1
  1

  0
INSERT
  5
5D
330
5C
100
AcDbEntity
  8
0
100
AcDbBlockReference
  2
ATP_UKKB_3-select__2
 10
-23.49999999998003
 20
399.4500030198437
 30
0.0
  0
DIMENSION
  5
217
330
5C
100
AcDbEntity
  8
1
100
AcDbDimension
  2
*D17
 10
-33.49999999998003
 20
404.5500030198438
 30
0.0
 11
-36.92499999998003
 21
412.220408089034
 31
0.0
 70
    32
  1
<>
 71
     5
 42
-1.0
 53
90.0
  3
ME10_DIM_10
100
AcDbAlignedDimension
 13
-23.49999999998003
 23
399.4500030198437
 33
0.0
 14
-7.99999999998014
 24
404.5500030198438
 34
0.0
 50
90.0
100
AcDbRotatedDimension
  0
ENDBLK
  5
5F
330
5C
100
AcDbEntity
  8
0
100
AcDbBlockEnd
  0
BLOCK
  5
61
330
60
100
AcDbEntity
  8
0
100
AcDbBlockBegin
  2
ATP_UKKB_3-select__3
 70
     0
 10
107.6000033891293
 20
440.549992764412
 30
0.0
  3
ATP_UKKB_3-select__3
  1

  0
LINE
  5
218
330
60
100
AcDbEntity
  8
0
  6
Continuous
 62
     7
100
AcDbLine
 10
168.1000033891293
 20
469.549992764412
 30
0.0
 11
174.6000033891293
 21
469.549992764412
 31
0.0
  0
LINE
  5
219
330
60
100
AcDbEntity
  8
0
  6
Continuous
 62
     7
100
AcDbLine
 10
168.1000033891293
 20
465.549992764412
 30
0.0
 11
168.1000033891293
 21
469.549992764412
 31
0.0
  0
LINE
  5
21A
330
60
100
AcDbEntity
  8
0
  6
Continuous
 62
     7
100
AcDbLine
 10
167.1000033891293
 20
468.649992764412
 30
0.0
 11
167.1000033891293
 21
465.6110211032968
 31
0.0
  0
LINE
  5
21B
330
60
100
AcDbEntity
  8
0
  6
Continuous
 62
     7
100
AcDbLine
 10
167.1000033891293
 20
465.6110211032968
 30
0.0
 11
167.1000033891293
 21
465.5499927644121
 31
0.0
  0
LINE
  5
21C
330
60
100
AcDbEntity
  8
0
  6
Continuous
 62
     7
100
AcDbLine
 10
174.6000033891293
 20
469.549992764412
 30
0.0
 11
182.6000033891292
 21
461.5499927644121
 31
0.0
  0
LINE
  5
21D
330
60
100
AcDbEntity
  8
0
  6
Continuous
 62
     7
100
AcDbLine
 10
134.1000033891292
 20
465.6110211032968
 30
0.0
 11
134.1000033891292
 21
468.649992764412
 31
0.0
  0
LINE
  5
21E
330
60
100
AcDbEntity
  8
0
  6
Continuous
 62
     7
100
AcDbLine
 10
134.1000033891292
 20
465.5499927644121
 30
0.0
 11
134.1000033891292
 21
465.6110211032968
 31
0.0
  0
LINE
  5
21F
330
60
100
AcDbEntity
  8
0
  6
Continuous
 62
     7
100
AcDbLine
 10
133.1000033891292
 20
469.549992764412
 30
0.0
 11
133.1000033891292
 21
465.549992764412
 31
0.0
  0
LINE
  5
220
330
60
100
AcDbEntity
  8
0
  6
Continuous
 62
     7
100
AcDbLine
 10
107.6000033891293
 20
461.5499927644121
 30
0.0
 11
107.6000033891293
 21
440.549992764412
 31
0.0
  0
LINE
  5
221
330
60
100
AcDbEntity
  8
0
  6
Continuous
 62
     7
100
AcDbLine
 10
167.1000033891293
 20
465.6110211032968
 30
0.0
 11
134.1000033891292
 21
465.6110211032968
 31
0.0
  0
LINE
  5
222
330
60
100
AcDbEntity
  8
0
  6
Continuous
 62
     7
100
AcDbLine
 10
182.6000033891292
 20
461.5499927644121
 30
0.0
 11
182.6000033891293
 21
440.549992764412
 31
0.0
  0
LINE
  5
223
330
60
100
AcDbEntity
  8
0
  6
Continuous
 62
     7
100
AcDbLine
 10
167.1000033891293
 20
465.5499927644121
 30
0.0
 11
168.1000033891293
 21
465.549992764412
 31
0.0
  0
LINE
  5
224
330
60
100
AcDbEntity
  8
0
  6
Continuous
 62
     7
100
AcDbLine
 10
133.1000033891292
 20
465.549992764412
 30
0.0
 11
134.1000033891292
 21
465.5499927644121
 31
0.0
  0
LINE
  5
225
330
60
100
AcDbEntity
  8
0
  6
Continuous
 62
     7
100
AcDbLine
 10
107.6000033891293
 20
440.549992764412
 30
0.0
 11
182.6000033891293
 21
440.549992764412
 31
0.0
  0
LINE
  5
226
330
60
100
AcDbEntity
  8
0
  6
Continuous
 62
     7
100
AcDbLine
 10
167.1000033891293
 20
488.3075605060481
 30
0.0
 11
167.1000033891293
 21
468.649992764412
 31
0.0
  0
LINE
  5
227
330
60
100
AcDbEntity
  8
0
  6
Continuous
 62
     7
100
AcDbLine
 10
164.1000033891294
 20
496.549992764412
 30
0.0
 11
167.1000033891293
 21
488.3075605060481
 31
0.0
  0
LINE
  5
228
330
60
100
AcDbEntity
  8
0
  6
Continuous
 62
     7
100
AcDbLine
 10
134.1000033891292
 20
468.649992764412
 30
0.0
 11
134.1000033891292
 21
488.3075605060482
 31
0.0
  0
LINE
  5
229
330
60
100
AcDbEntity
  8
0
  6
Continuous
 62
     7
100
AcDbLine
 10
134.1000033891292
 20
488.3075605060482
 30
0.0
 11
137.1000033891292
 21
496.549992764412
 31
0.0
  0
LINE
  5
22A
330
60
100
AcDbEntity
  8
0
  6
Continuous
 62
     7
100
AcDbLine
 10
137.1000033891292
 20
496.549992764412
 30
0.0
 11
164.1000033891294
 21
496.549992764412
 31
0.0
  0
LINE
  5
22B
330
60
100
AcDbEntity
  8
0
  6
Continuous
 62
     7
100
AcDbLine
 10
167.1000033891293
 20
468.649992764412
 30
0.0
 11
134.1000033891292
 21
468.649992764412
 31
0.0
  0
LINE
  5
22C
330
60
100
AcDbEntity
  8
0
  6
Continuous
 62
     7
100
AcDbLine
 10
115.6000033891292
 20
469.549992764412
 30
0.0
 11
133.1000033891292
 21
469.549992764412
 31
0.0
  0
LINE
  5
22D
330
60
100
AcDbEntity
  8
0
  6
Continuous
 62
     7
100
AcDbLine
 10
107.6000033891293
 20
461.5499927644121
 30
0.0
 11
115.6000033891292
 21
469.549992764412
 31
0.0
  0
ENDBLK
  5
62
330
60
100
AcDbEntity
  8
0
100
AcDbBlockEnd
  0
BLOCK
  5
65
330
63
100
AcDbEntity
  8
0
100
AcDbBlockBegin
  2
Rckans1
 70
     0
 10
145.1000033891392
 20
468.5499997294935
 30
0.0
  3
Rckans1
  1

  0
INSERT
  5
64
330
63
100
AcDbEntity
  8
0
100
AcDbBlockReference
  2
ATP_UKKB_3-select__3
 10
107.6000033891293
 20
440.549992764412
 30
0.0
  0
ENDBLK
  5
66
330
63
100
AcDbEntity
  8
0
100
AcDbBlockEnd
  0
BLOCK
  5
68
330
67
100
AcDbEntity
  8
0
100
AcDbBlockBegin
  2
ATP_UKKB_3-select__4
 70
     0
 10
75.49999967473238
 20
440.5499927644122
 30
0.0
  3
ATP_UKKB_3-select__4
  1

  0
LINE
  5
22E
330
67
100
AcDbEntity
  8
0
  6
Continuous
 62
     7
100
AcDbLine
 10
78.04999967473248
 20
465.611021103297
 30
0.0
 11
78.04999967473248
 21
461.5499927644123
 31
0.0
  0
LINE
  5
22F
330
67
100
AcDbEntity
  8
0
  6
Continuous
 62
     7
100
AcDbLine
 10
75.49999967473238
 20
468.6499927644122
 30
0.0
 11
78.04999967473248
 21
465.611021103297
 31
0.0
  0
LINE
  5
230
330
67
100
AcDbEntity
  8
0
  6
Continuous
 62
     7
100
AcDbLine
 10
78.04999967473248
 20
469.5499927644122
 30
0.0
 11
80.59999967473237
 21
469.5499927644122
 31
0.0
  0
LINE
  5
231
330
67
100
AcDbEntity
  8
0
  6
Continuous
 62
     7
100
AcDbLine
 10
78.04999967473248
 20
488.3075605060483
 30
0.0
 11
78.04999967473248
 21
496.5499927644122
 31
0.0
  0
LINE
  5
232
330
67
100
AcDbEntity
  8
0
  6
Continuous
 62
     7
100
AcDbLine
 10
80.59999967473237
 20
461.5499927644123
 30
0.0
 11
80.59999967473237
 21
469.5499927644122
 31
0.0
  0
LINE
  5
233
330
67
100
AcDbEntity
  8
0
  6
Continuous
 62
     7
100
AcDbLine
 10
80.59999967473237
 20
440.5499927644122
 30
0.0
 11
80.59999967473237
 21
461.5499927644123
 31
0.0
  0
LINE
  5
234
330
67
100
AcDbEntity
  8
0
  6
Continuous
 62
     7
100
AcDbLine
 10
78.04999967473248
 20
469.5499927644122
 30
0.0
 11
78.04999967473248
 21
488.3075605060483
 31
0.0
  0
LINE
  5
235
330
67
100
AcDbEntity
  8
0
  6
Continuous
 62
     7
100
AcDbLine
 10
78.04999967473248
 20
469.5499927644122
 30
0.0
 11
78.04999967473248
 21
465.611021103297
 31
0.0
  0
LINE
  5
236
330
67
100
AcDbEntity
  8
0
  6
Continuous
 62
     7
100
AcDbLine
 10
75.49999967473238
 20
496.5499927644122
 30
0.0
 11
78.04999967473248
 21
496.5499927644122
 31
0.0
  0
LINE
  5
237
330
67
100
AcDbEntity
  8
0
  6
Continuous
 62
     7
100
AcDbLine
 10
78.04999967473248
 20
488.3075605060483
 30
0.0
 11
75.49999967473238
 21
488.3075605060483
 31
0.0
  0
LINE
  5
238
330
67
100
AcDbEntity
  8
0
  6
Continuous
 62
     7
100
AcDbLine
 10
78.04999967473248
 20
461.5499927644123
 30
0.0
 11
78.04999967473248
 21
440.5499927644122
 31
0.0
  0
LINE
  5
239
330
67
100
AcDbEntity
  8
0
  6
Continuous
 62
     7
100
AcDbLine
 10
75.49999967473238
 20
488.3075605060483
 30
0.0
 11
75.49999967473238
 21
468.6499927644122
 31
0.0
  0
LINE
  5
23A
330
67
100
AcDbEntity
  8
0
  6
Continuous
 62
     7
100
AcDbLine
 10
75.49999967473238
 20
496.5499927644122
 30
0.0
 11
75.49999967473238
 21
488.3075605060483
 31
0.0
  0
LINE
  5
23B
330
67
100
AcDbEntity
  8
0
  6
Continuous
 62
     7
100
AcDbLine
 10
80.59999967473237
 20
440.5499927644122
 30
0.0
 11
78.04999967473248
 21
440.5499927644122
 31
0.0
  0
LINE
  5
23C
330
67
100
AcDbEntity
  8
0
  6
Continuous
 62
     7
100
AcDbLine
 10
78.04999967473248
 20
461.5499927644123
 30
0.0
 11
80.59999967473237
 21
461.5499927644123
 31
0.0
  0
ENDBLK
  5
69
330
67
100
AcDbEntity
  8
0
100
AcDbBlockEnd
  0
BLOCK
  5
6C
330
6A
100
AcDbEntity
  8
0
100
AcDbBlockBegin
  2
SA_Links1
 70
     0
 10
78.05000133736615
 20
468.5499997294937
 30
0.0
  3
SA_Links1
  1

  0
INSERT
  5
6B
330
6A
100
AcDbEntity
  8
0
100
AcDbBlockReference
  2
ATP_UKKB_3-select__4
 10
75.49999967473238
 20
440.5499927644122
 30
0.0
  0
ENDBLK
  5
6D
330
6A
100
AcDbEntity
  8
0
100
AcDbBlockEnd
  0
BLOCK
  5
6F
330
6E
100
AcDbEntity
  8
0
100
AcDbBlockBegin
  2
ATP_UKKB_3-select__5
 70
     0
 10
-65.5999996747309
 20
440.549992764412
 30
0.0
  3
ATP_UKKB_3-select__5
  1

  0
LINE
  5
23D
330
6E
100
AcDbEntity
  8
0
  6
Continuous
 62
     7
100
AcDbLine
 10
-63.04999967473091
 20
465.6110211032968
 30
0.0
 11
-60.4999996747309
 21
468.649992764412
 31
0.0
  0
LINE
  5
23E
330
6E
100
AcDbEntity
  8
0
  6
Continuous
 62
     7
100
AcDbLine
 10
-63.04999967473091
 20
496.549992764412
 30
0.0
 11
-63.04999967473091
 21
488.3075605060482
 31
0.0
  0
LINE
  5
23F
330
6E
100
AcDbEntity
  8
0
  6
Continuous
 62
     7
100
AcDbLine
 10
-63.04999967473091
 20
465.6110211032968
 30
0.0
 11
-63.04999967473091
 21
469.549992764412
 31
0.0
  0
LINE
  5
240
330
6E
100
AcDbEntity
  8
0
  6
Continuous
 62
     7
100
AcDbLine
 10
-63.04999967473091
 20
461.5499927644121
 30
0.0
 11
-63.04999967473091
 21
465.6110211032968
 31
0.0
  0
LINE
  5
241
330
6E
100
AcDbEntity
  8
0
  6
Continuous
 62
     7
100
AcDbLine
 10
-63.04999967473091
 20
488.3075605060482
 30
0.0
 11
-63.04999967473091
 21
469.549992764412
 31
0.0
  0
LINE
  5
242
330
6E
100
AcDbEntity
  8
0
  6
Continuous
 62
     7
100
AcDbLine
 10
-60.4999996747309
 20
488.3075605060482
 30
0.0
 11
-63.04999967473091
 21
488.3075605060482
 31
0.0
  0
LINE
  5
243
330
6E
100
AcDbEntity
  8
0
  6
Continuous
 62
     7
100
AcDbLine
 10
-65.5999996747309
 20
469.5499927644121
 30
0.0
 11
-65.5999996747309
 21
461.5499927644121
 31
0.0
  0
LINE
  5
244
330
6E
100
AcDbEntity
  8
0
  6
Continuous
 62
     7
100
AcDbLine
 10
-65.5999996747309
 20
440.549992764412
 30
0.0
 11
-65.5999996747309
 21
461.5499927644121
 31
0.0
  0
LINE
  5
245
330
6E
100
AcDbEntity
  8
0
  6
Continuous
 62
     7
100
AcDbLine
 10
-63.04999967473091
 20
496.549992764412
 30
0.0
 11
-60.4999996747309
 21
496.549992764412
 31
0.0
  0
LINE
  5
246
330
6E
100
AcDbEntity
  8
0
  6
Continuous
 62
     7
100
AcDbLine
 10
-65.5999996747309
 20
469.5499927644121
 30
0.0
 11
-63.04999967473091
 21
469.549992764412
 31
0.0
  0
LINE
  5
247
330
6E
100
AcDbEntity
  8
0
  6
Continuous
 62
     7
100
AcDbLine
 10
-60.4999996747309
 20
488.3075605060482
 30
0.0
 11
-60.4999996747309
 21
496.549992764412
 31
0.0
  0
LINE
  5
248
330
6E
100
AcDbEntity
  8
0
  6
Continuous
 62
     7
100
AcDbLine
 10
-60.4999996747309
 20
468.649992764412
 30
0.0
 11
-60.4999996747309
 21
488.3075605060482
 31
0.0
  0
LINE
  5
249
330
6E
100
AcDbEntity
  8
0
  6
Continuous
 62
     7
100
AcDbLine
 10
-63.04999967473091
 20
461.5499927644121
 30
0.0
 11
-63.04999967473091
 21
440.549992764412
 31
0.0
  0
LINE
  5
24A
330
6E
100
AcDbEntity
  8
0
  6
Continuous
 62
     7
100
AcDbLine
 10
-65.5999996747309
 20
461.5499927644121
 30
0.0
 11
-63.04999967473091
 21
461.5499927644121
 31
0.0
  0
LINE
  5
24B
330
6E
100
AcDbEntity
  8
0
  6
Continuous
 62
     7
100
AcDbLine
 10
-65.5999996747309
 20
440.549992764412
 30
0.0
 11
-63.04999967473091
 21
440.549992764412
 31
0.0
  0
ENDBLK
  5
70
330
6E
100
AcDbEntity
  8
0
100
AcDbBlockEnd
  0
BLOCK
  5
73
330
71
100
AcDbEntity
  8
0
100
AcDbBlockBegin
  2
SA_Rechts1
 70
     0
 10
-63.05000133736465
 20
468.5499997294935
 30
0.0
  3
SA_Rechts1
  1

  0
INSERT
  5
72
330
71
100
AcDbEntity
  8
0
100
AcDbBlockReference
  2
ATP_UKKB_3-select__5
 10
-65.5999996747309
 20
440.549992764412
 30
0.0
  0
ENDBLK
  5
74
330
71
100
AcDbEntity
  8
0
100
AcDbBlockEnd
  0
BLOCK
  5
76
330
75
100
AcDbEntity
  8
0
100
AcDbBlockBegin
  2
ATP_UKKB_3-select__6
 70
     0
 10
-23.49999999998018
 20
440.549992764412
 30
0.0
  3
ATP_UKKB_3-select__6
  1

  0
LINE
  5
24C
330
75
100
AcDbEntity
  8
0
  6
Continuous
 62
     7
100
AcDbLine
 10
25.00000000001992
 20
469.549992764412
 30
0.0
 11
25.00000000001982
 21
465.549992764412
 31
0.0
  0
LINE
  5
24D
330
75
100
AcDbEntity
  8
0
  6
Continuous
 62
     7
100
AcDbLine
 10
25.00000000001982
 20
488.3075605060482
 30
0.0
 11
25.00000000001992
 21
469.549992764412
 31
0.0
  0
LINE
  5
24E
330
75
100
AcDbEntity
  8
0
  6
Continuous
 62
     7
100
AcDbLine
 10
26.00000000001982
 20
465.549992764412
 30
0.0
 11
26.00000000001992
 21
469.549992764412
 31
0.0
  0
LINE
  5
24F
330
75
100
AcDbEntity
  8
0
  6
Continuous
 62
     7
100
AcDbLine
 10
25.00000000001982
 20
465.549992764412
 30
0.0
 11
26.00000000001982
 21
465.549992764412
 31
0.0
  0
LINE
  5
250
330
75
100
AcDbEntity
  8
0
  6
Continuous
 62
     7
100
AcDbLine
 10
51.50000000001982
 20
440.549992764412
 30
0.0
 11
51.50000000001982
 21
461.5499927644121
 31
0.0
  0
LINE
  5
251
330
75
100
AcDbEntity
  8
0
  6
Continuous
 62
     7
100
AcDbLine
 10
-8.99999999998026
 20
465.549992764412
 30
0.0
 11
-7.99999999998026
 21
465.549992764412
 31
0.0
  0
LINE
  5
252
330
75
100
AcDbEntity
  8
0
  6
Continuous
 62
     7
100
AcDbLine
 10
-23.49999999998018
 20
440.549992764412
 30
0.0
 11
-23.49999999998017
 21
461.5499927644121
 31
0.0
  0
LINE
  5
253
330
75
100
AcDbEntity
  8
0
  6
Continuous
 62
     7
100
AcDbLine
 10
51.50000000001982
 20
440.549992764412
 30
0.0
 11
-23.49999999998018
 21
440.549992764412
 31
0.0
  0
LINE
  5
254
330
75
100
AcDbEntity
  8
0
  6
Continuous
 62
     7
100
AcDbLine
 10
-8.99999999998026
 20
469.549992764412
 30
0.0
 11
-8.99999999998026
 21
465.549992764412
 31
0.0
  0
LINE
  5
255
330
75
100
AcDbEntity
  8
0
  6
Continuous
 62
     7
100
AcDbLine
 10
-7.99999999998026
 20
488.3075605060481
 30
0.0
 11
-4.99999999998029
 21
496.549992764412
 31
0.0
  0
LINE
  5
256
330
75
100
AcDbEntity
  8
0
  6
Continuous
 62
     7
100
AcDbLine
 10
22.00000000001988
 20
496.549992764412
 30
0.0
 11
25.00000000001982
 21
488.3075605060482
 31
0.0
  0
LINE
  5
257
330
75
100
AcDbEntity
  8
0
  6
Continuous
 62
     7
100
AcDbLine
 10
-4.99999999998029
 20
496.549992764412
 30
0.0
 11
22.00000000001988
 21
496.549992764412
 31
0.0
  0
LINE
  5
258
330
75
100
AcDbEntity
  8
0
  6
Continuous
 62
     7
100
AcDbLine
 10
-7.99999999998026
 20
465.549992764412
 30
0.0
 11
25.00000000001982
 21
465.549992764412
 31
0.0
  0
LINE
  5
259
330
75
100
AcDbEntity
  8
0
  6
Continuous
 62
     7
100
AcDbLine
 10
25.00000000001992
 20
469.549992764412
 30
0.0
 11
-7.99999999998026
 21
469.549992764412
 31
0.0
  0
LINE
  5
25A
330
75
100
AcDbEntity
  8
0
  6
Continuous
 62
     7
100
AcDbLine
 10
26.00000000001992
 20
469.549992764412
 30
0.0
 11
43.50000000001982
 21
469.549992764412
 31
0.0
  0
LINE
  5
25B
330
75
100
AcDbEntity
  8
0
  6
Continuous
 62
     7
100
AcDbLine
 10
-15.49999999998023
 20
469.549992764412
 30
0.0
 11
-8.99999999998026
 21
469.549992764412
 31
0.0
  0
LINE
  5
25C
330
75
100
AcDbEntity
  8
0
  6
Continuous
 62
     7
100
AcDbLine
 10
-23.49999999998017
 20
461.5499927644121
 30
0.0
 11
-15.49999999998023
 21
469.549992764412
 31
0.0
  0
LINE
  5
25D
330
75
100
AcDbEntity
  8
0
  6
Continuous
 62
     7
100
AcDbLine
 10
-7.99999999998026
 20
465.549992764412
 30
0.0
 11
-7.99999999998026
 21
469.549992764412
 31
0.0
  0
LINE
  5
25E
330
75
100
AcDbEntity
  8
0
  6
Continuous
 62
     7
100
AcDbLine
 10
-7.99999999998026
 20
469.549992764412
 30
0.0
 11
-7.99999999998026
 21
488.3075605060481
 31
0.0
  0
LINE
  5
25F
330
75
100
AcDbEntity
  8
0
  6
Continuous
 62
     7
100
AcDbLine
 10
43.50000000001982
 20
469.549992764412
 30
0.0
 11
51.50000000001982
 21
461.5499927644121
 31
0.0
  0
ENDBLK
  5
77
330
75
100
AcDbEntity
  8
0
100
AcDbBlockEnd
  0
BLOCK
  5
7A
330
78
100
AcDbEntity
  8
0
100
AcDbBlockBegin
  2
Vordans1
 70
     0
 10
14.00000000000988
 20
468.5499997294934
 30
0.0
  3
Vordans1
  1

  0
INSERT
  5
79
330
78
100
AcDbEntity
  8
0
100
AcDbBlockReference
  2
ATP_UKKB_3-select__6
 10
-23.49999999998018
 20
440.549992764412
 30
0.0
  0
DIMENSION
  5
26A
330
78
100
AcDbEntity
  8
1
100
AcDbDimension
  2
*D18
 10
-23.49999999998018
 20
430.549992764412
 30
0.0
 11
14.00000000001982
 21
433.799992764412
 31
0.0
 70
    33
  1
<>
 71
     5
 42
-1.0
 53
0.00013888888889
  3
ME10_DIM_11
100
AcDbAlignedDimension
 13
51.50000000001982
 23
440.549992764412
 33
0.0
 14
-23.49999999998018
 24
440.549992764412
 34
0.0
  0
DIMENSION
  5
275
330
78
100
AcDbEntity
  8
1
100
AcDbDimension
  2
*D19
 10
-33.49999999998018
 20
440.549992764412
 30
0.0
 11
-36.74999999998018
 21
468.10781228247
 31
0.0
 70
    32
  1
<>
 71
     5
 42
-1.0
 53
90.0
  3
ME10_DIM_12
100
AcDbAlignedDimension
 13
-4.99999999998029
 23
496.549992764412
 33
0.0
 14
-23.49999999998018
 24
440.549992764412
 34
0.0
 50
90.0
100
AcDbRotatedDimension
  0
ENDBLK
  5
7B
330
78
100
AcDbEntity
  8
0
100
AcDbBlockEnd
  0
BLOCK
  5
84
330
7C
100
AcDbEntity
  8
0
100
AcDbBlockBegin
  2
1
 70
     0
 10
0.0
 20
0.0
 30
0.0
  3
1
  1

  0
INSERT
  5
7D
330
7C
100
AcDbEntity
  8
0
100
AcDbBlockReference
  2
A4I_CS
 10
201.0000018571992
 20
324.9110460971912
 30
0.0
  0
INSERT
  5
7E
330
7C
100
AcDbEntity
  8
0
100
AcDbBlockReference
  2
AllgSicht1
 10
145.1000026786092
 20
397.999998437758
 30
0.0
  0
INSERT
  5
7F
330
7C
100
AcDbEntity
  8
0
100
AcDbBlockReference
  2
Drfsicht1
 10
14.00000000001
 20
402.00000135721
 30
0.0
  0
INSERT
  5
80
330
7C
100
AcDbEntity
  8
0
100
AcDbBlockReference
  2
Rckans1
 10
145.1000033891392
 20
468.5499997294935
 30
0.0
  0
INSERT
  5
81
330
7C
100
AcDbEntity
  8
0
100
AcDbBlockReference
  2
SA_Links1
 10
78.05000133736615
 20
468.5499997294937
 30
0.0
  0
INSERT
  5
82
330
7C
100
AcDbEntity
  8
0
100
AcDbBlockReference
  2
SA_Rechts1
 10
-63.05000133736465
 20
468.5499997294935
 30
0.0
  0
INSERT
  5
83
330
7C
100
AcDbEntity
  8
0
100
AcDbBlockReference
  2
Vordans1
 10
14.00000000000988
 20
468.5499997294934
 30
0.0
  0
ENDBLK
  5
85
330
7C
100
AcDbEntity
  8
0
100
AcDbBlockEnd
  0
BLOCK
  5
214
330
20B
100
AcDbEntity
  8
0
100
AcDbBlockBegin
  2
*D17
 70
     1
 10
0.0
 20
0.0
 30
0.0
  3
*D17
  1

  0
LINE
  5
20C
330
20B
100
AcDbEntity
  8
1
  6
Continuous
 62
     2
100
AcDbLine
 10
-33.49999999998003
 20
414.932908089034
 30
0.0
 11
-33.49999999998003
 21
404.5500030198438
 31
0.0
  0
LINE
  5
20D
330
20B
100
AcDbEntity
  8
1
  6
Continuous
 62
     2
100
AcDbLine
 10
-33.49999999998003
 20
404.5500030198438
 30
0.0
 11
-33.49999999998003
 21
399.4500030198437
 31
0.0
  0
LINE
  5
20E
330
20B
100
AcDbEntity
  8
1
  6
Continuous
 62
     2
100
AcDbLine
 10
-33.49999999998003
 20
399.4500030198437
 30
0.0
 11
-33.49999999998003
 21
392.4500030198437
 31
0.0
  0
LINE
  5
20F
330
20B
100
AcDbEntity
  8
1
  6
Continuous
 62
     2
100
AcDbLine
 10
-7.99999999998014
 20
404.5500030198438
 30
0.0
 11
-34.99999999998003
 21
404.5500030198438
 31
0.0
  0
LINE
  5
210
330
20B
100
AcDbEntity
  8
1
  6
Continuous
 62
     2
100
AcDbLine
 10
-23.49999999998003
 20
399.4500030198437
 30
0.0
 11
-34.99999999998003
 21
399.4500030198437
 31
0.0
  0
SOLID
  5
211
330
20B
100
AcDbEntity
  8
1
 62
     2
100
AcDbTrace
 10
-33.96078374153592
 20
408.0500030198438
 30
0.0
 11
-33.03921625842415
 21
408.0500030198438
 31
0.0
 12
-33.49999999998003
 22
404.5500030198438
 32
0.0
 13
-33.49999999998003
 23
404.5500030198438
 33
0.0
  0
SOLID
  5
212
330
20B
100
AcDbEntity
  8
1
 62
     2
100
AcDbTrace
 10
-33.03921625842415
 20
395.9500030198437
 30
0.0
 11
-33.96078374153592
 21
395.9500030198437
 31
0.0
 12
-33.49999999998003
 22
399.4500030198437
 32
0.0
 13
-33.49999999998003
 23
399.4500030198437
 33
0.0
  0
MTEXT
  5
213
330
20B
100
AcDbEntity
  8
1
 62
     3
100
AcDbMText
 10
-35.34999999998003
 20
409.507908089034
 30
0.0
 40
3.5
 41
0.0
 71
     7
 72
     1
  1
5,1
  7
CONVERTER_11
 11
0.0
 21
1.0
 31
0.0
 73
     1
 44
0.60024009603842
  0
ENDBLK
  5
215
330
20B
100
AcDbEntity
  8
0
100
AcDbBlockEnd
  0
BLOCK
  5
267
330
260
100
AcDbEntity
  8
0
100
AcDbBlockBegin
  2
*D18
 70
     1
 10
0.0
 20
0.0
 30
0.0
  3
*D18
  1

  0
LINE
  5
261
330
260
100
AcDbEntity
  8
1
  6
Continuous
 62
     2
100
AcDbLine
 10
-23.49999999998018
 20
430.549992764412
 30
0.0
 11
51.50000000001982
 21
430.549992764412
 31
0.0
  0
LINE
  5
262
330
260
100
AcDbEntity
  8
1
  6
Continuous
 62
     2
100
AcDbLine
 10
-23.49999999998018
 20
440.549992764412
 30
0.0
 11
-23.49999999998018
 21
429.049992764412
 31
0.0
  0
LINE
  5
263
330
260
100
AcDbEntity
  8
1
  6
Continuous
 62
     2
100
AcDbLine
 10
51.50000000001982
 20
440.549992764412
 30
0.0
 11
51.50000000001982
 21
429.049992764412
 31
0.0
  0
SOLID
  5
264
330
260
100
AcDbEntity
  8
1
 62
     2
100
AcDbTrace
 10
-19.99999999998018
 20
431.0107765059679
 30
0.0
 11
-19.99999999998018
 21
430.0892090228562
 31
0.0
 12
-23.49999999998018
 22
430.549992764412
 32
0.0
 13
-23.49999999998018
 23
430.549992764412
 33
0.0
  0
SOLID
  5
265
330
260
100
AcDbEntity
  8
1
 62
     2
100
AcDbTrace
 10
48.00000000001982
 20
430.0892090228562
 30
0.0
 11
48.00000000001982
 21
431.0107765059679
 31
0.0
 12
51.50000000001982
 22
430.549992764412
 32
0.0
 13
51.50000000001982
 23
430.549992764412
 33
0.0
  0
MTEXT
  5
266
330
260
100
AcDbEntity
  8
1
 62
     3
100
AcDbMText
 10
11.37500000001982
 20
432.049992764412
 30
0.0
 40
3.5
 41
0.0
 71
     7
 72
     1
  1
75
  7
CONVERTER_11
 11
0.9999999999970619
 21
2.424068405545306E-6
 31
0.0
 73
     1
 44
0.60024009603842
  0
ENDBLK
  5
268
330
260
100
AcDbEntity
  8
0
100
AcDbBlockEnd
  0
BLOCK
  5
272
330
26B
100
AcDbEntity
  8
0
100
AcDbBlockBegin
  2
*D19
 70
     1
 10
0.0
 20
0.0
 30
0.0
  3
*D19
  1

  0
LINE
  5
26C
330
26B
100
AcDbEntity
  8
1
  6
Continuous
 62
     2
100
AcDbLine
 10
-33.49999999998018
 20
440.549992764412
 30
0.0
 11
-33.49999999998018
 21
496.549992764412
 31
0.0
  0
LINE
  5
26D
330
26B
100
AcDbEntity
  8
1
  6
Continuous
 62
     2
100
AcDbLine
 10
-23.49999999998018
 20
440.549992764412
 30
0.0
 11
-34.99999999998018
 21
440.549992764412
 31
0.0
  0
LINE
  5
26E
330
26B
100
AcDbEntity
  8
1
  6
Continuous
 62
     2
100
AcDbLine
 10
-4.99999999998029
 20
496.549992764412
 30
0.0
 11
-34.99999999998018
 21
496.549992764412
 31
0.0
  0
SOLID
  5
26F
330
26B
100
AcDbEntity
  8
1
 62
     2
100
AcDbTrace
 10
-33.96078374153607
 20
444.049992764412
 30
0.0
 11
-33.0392162584243
 21
444.049992764412
 31
0.0
 12
-33.49999999998018
 22
440.549992764412
 32
0.0
 13
-33.49999999998018
 23
440.549992764412
 33
0.0
  0
SOLID
  5
270
330
26B
100
AcDbEntity
  8
1
 62
     2
100
AcDbTrace
 10
-33.0392162584243
 20
493.049992764412
 30
0.0
 11
-33.96078374153607
 21
493.049992764412
 31
0.0
 12
-33.49999999998018
 22
496.549992764412
 32
0.0
 13
-33.49999999998018
 23
496.549992764412
 33
0.0
  0
MTEXT
  5
271
330
26B
100
AcDbEntity
  8
1
 62
     3
100
AcDbMText
 10
-34.99999999998018
 20
465.48281228247
 30
0.0
 40
3.5
 41
0.0
 71
     7
 72
     1
  1
56
  7
CONVERTER_11
 11
0.0
 21
1.0
 31
0.0
 73
     1
 44
0.60024009603842
  0
ENDBLK
  5
273
330
26B
100
AcDbEntity
  8
0
100
AcDbBlockEnd
  0
ENDSEC
  0
SECTION
  2
ENTITIES
  0
INSERT
  5
86
330
1F
100
AcDbEntity
  8
1
100
AcDbBlockReference
  2
1
 10
0.0
 20
0.0
 30
0.0
  0
ENDSEC
  0
SECTION
  2
OBJECTS
  0
DICTIONARY
  5
C
330
0
100
AcDbDictionary
281
     1
  3
ACAD_GROUP
350
D
  3
ACAD_LAYOUT
350
1A
  3
ACAD_MATERIAL
350
3B
  3
ACAD_MLEADERSTYLE
350
29D
  3
ACAD_MLINESTYLE
350
17
  3
ACAD_PLOTSETTINGS
350
19
  3
ACAD_PLOTSTYLENAME
350
E
  3
ACAD_TABLESTYLE
350
29C
  3
ACAD_VISUALSTYLE
350
2A
  0
DICTIONARY
  5
D
102
{ACAD_REACTORS
330
C
102
}
330
C
100
AcDbDictionary
281
     1
  0
DICTIONARY
  5
1A
102
{ACAD_REACTORS
330
C
102
}
330
C
100
AcDbDictionary
281
     1
  3
Layout1
350
1E
  3
Layout2
350
26
  3
Model
350
22
  0
DICTIONARY
  5
3B
102
{ACAD_REACTORS
330
C
102
}
330
C
100
AcDbDictionary
281
     1
  3
ByBlock
350
3D
  3
ByLayer
350
3C
  3
Global
350
3E
  0
DICTIONARY
  5
29D
102
{ACAD_REACTORS
330
C
102
}
330
C
100
AcDbDictionary
281
     1
  0
DICTIONARY
  5
17
102
{ACAD_REACTORS
330
C
102
}
330
C
100
AcDbDictionary
281
     1
  3
Standard
350
18
  0
DICTIONARY
  5
19
102
{ACAD_REACTORS
330
C
102
}
330
C
100
AcDbDictionary
281
     1
  0
ACDBDICTIONARYWDFLT
  5
E
102
{ACAD_REACTORS
330
C
102
}
330
C
100
AcDbDictionary
281
     1
  3
Normal
350
F
100
AcDbDictionaryWithDefault
340
F
  0
DICTIONARY
  5
29C
102
{ACAD_REACTORS
330
C
102
}
330
C
100
AcDbDictionary
281
     1
  0
DICTIONARY
  5
2A
102
{ACAD_REACTORS
330
C
102
}
330
C
100
AcDbDictionary
281
     1
  3
2dWireframe
350
2F
  3
3D Hidden
350
31
  3
3dWireframe
350
30
  3
Basic
350
32
  3
Brighten
350
36
  3
ColorChange
350
3A
  3
Conceptual
350
34
  3
Dim
350
35
  3
Facepattern
350
39
  3
Flat
350
2B
  3
FlatWithEdges
350
2C
  3
Gouraud
350
2D
  3
GouraudWithEdges
350
2E
  3
Linepattern
350
38
  3
Realistic
350
33
  3
Thicken
350
37
  0
LAYOUT
  5
1E
102
{ACAD_REACTORS
330
1A
102
}
330
1A
100
AcDbPlotSettings
  1

  2
none_device
  4

  6

 40
0.0
 41
0.0
 42
0.0
 43
0.0
 44
0.0
 45
0.0
 46
0.0
 47
0.0
 48
0.0
 49
0.0
140
0.0
141
0.0
142
1.0
143
1.0
 70
   688
 72
     0
 73
     0
 74
     5
  7

 75
    16
 76
     0
 77
     2
 78
   300
147
1.0
148
0.0
149
0.0
100
AcDbLayout
  1
Layout1
 70
     1
 71
     1
 10
0.0
 20
0.0
 11
12.0
 21
9.0
 12
0.0
 22
0.0
 32
0.0
 14
1.00000000000000E+20
 24
1.00000000000000E+20
 34
1.00000000000000E+20
 15
-1.00000000000000E+20
 25
-1.00000000000000E+20
 35
-1.00000000000000E+20
146
0.0
 13
0.0
 23
0.0
 33
0.0
 16
1.0
 26
0.0
 36
0.0
 17
0.0
 27
1.0
 37
0.0
 76
     0
330
1B
  0
LAYOUT
  5
26
102
{ACAD_REACTORS
330
1A
102
}
330
1A
100
AcDbPlotSettings
  1

  2
none_device
  4

  6

 40
0.0
 41
0.0
 42
0.0
 43
0.0
 44
0.0
 45
0.0
 46
0.0
 47
0.0
 48
0.0
 49
0.0
140
0.0
141
0.0
142
1.0
143
1.0
 70
   688
 72
     0
 73
     0
 74
     5
  7

 75
    16
 76
     0
 77
     2
 78
   300
147
1.0
148
0.0
149
0.0
100
AcDbLayout
  1
Layout2
 70
     1
 71
     2
 10
0.0
 20
0.0
 11
0.0
 21
0.0
 12
0.0
 22
0.0
 32
0.0
 14
0.0
 24
0.0
 34
0.0
 15
0.0
 25
0.0
 35
0.0
146
0.0
 13
0.0
 23
0.0
 33
0.0
 16
1.0
 26
0.0
 36
0.0
 17
0.0
 27
1.0
 37
0.0
 76
     0
330
23
  0
LAYOUT
  5
22
102
{ACAD_REACTORS
330
1A
102
}
330
1A
100
AcDbPlotSettings
  1

  2
none_device
  4

  6

 40
0.0
 41
0.0
 42
0.0
 43
0.0
 44
0.0
 45
0.0
 46
0.0
 47
0.0
 48
0.0
 49
0.0
140
0.0
141
0.0
142
1.0
143
1.0
 70
  1712
 72
     0
 73
     0
 74
     0
  7

 75
     0
 76
     0
 77
     2
 78
   300
147
1.0
148
0.0
149
0.0
100
AcDbLayout
  1
Model
 70
     1
 71
     0
 10
0.0
 20
0.0
 11
12.0
 21
9.0
 12
0.0
 22
0.0
 32
0.0
 14
-90.99999814279988
 24
324.9110460971912
 34
0.0
 15
206.0000018571982
 25
534.9110460971913
 35
0.0
146
0.0
 13
0.0
 23
0.0
 33
0.0
 16
1.0
 26
0.0
 36
0.0
 17
0.0
 27
1.0
 37
0.0
 76
     0
330
1F
331
29
  0
MATERIAL
  5
3D
102
{ACAD_REACTORS
330
3B
102
}
102
{ACAD_XDICTIONARY
360
298
102
}
330
3B
100
AcDbMaterial
  1
ByBlock
  0
MATERIAL
  5
3C
102
{ACAD_REACTORS
330
3B
102
}
102
{ACAD_XDICTIONARY
360
296
102
}
330
3B
100
AcDbMaterial
  1
ByLayer
  0
MATERIAL
  5
3E
102
{ACAD_REACTORS
330
3B
102
}
102
{ACAD_XDICTIONARY
360
29A
102
}
330
3B
100
AcDbMaterial
  1
Global
  0
MLINESTYLE
  5
18
102
{ACAD_REACTORS
330
17
102
}
330
17
100
AcDbMlineStyle
  2
Standard
 70
     0
  3

 62
   256
 51
90.0
 52
90.0
 71
     2
 49
0.5
 62
   256
  6
BYLAYER
 49
-0.5
 62
   256
  6
BYLAYER
  0
ACDBPLACEHOLDER
  5
F
102
{ACAD_REACTORS
330
E
102
}
330
E
  0
VISUALSTYLE
  5
2F
102
{ACAD_REACTORS
330
2A
102
}
102
{ACAD_XDICTIONARY
360
27E
102
}
330
2A
100
AcDbVisualStyle
  2
2dWireframe
 70
     4
 71
     0
 72
     2
 73
     0
 90
        0
 40
-0.6
 41
-30.0
 62
     5
 63
     7
421
 16777215
 74
     1
 91
        4
 64
     7
 65
   257
 75
     1
175
     1
 42
1.0
 92
        0
 66
   257
 43
1.0
 76
     1
 77
     6
 78
     2
 67
     7
 79
     5
170
     0
171
     0
290
     0
174
     0
 93
        1
 44
0.0
173
     0
291
     0
 45
0.0
1001
ACAD
1000
AcDbSavedByObjectVersion
1070
     0
  0
VISUALSTYLE
  5
31
102
{ACAD_REACTORS
330
2A
102
}
102
{ACAD_XDICTIONARY
360
282
102
}
330
2A
100
AcDbVisualStyle
  2
3D Hidden
 70
     6
 71
     1
 72
     2
 73
     2
 90
        0
 40
-0.6
 41
-30.0
 62
     5
 63
     7
421
 16777215
 74
     2
 91
        2
 64
     7
 65
   257
 75
     2
175
     1
 42
40.0
 92
        0
 66
   257
 43
1.0
 76
     1
 77
     6
 78
     2
 67
     7
 79
     3
170
     0
171
     0
290
     0
174
     0
 93
        1
 44
0.0
173
     0
291
     0
 45
0.0
1001
ACAD
1000
AcDbSavedByObjectVersion
1070
     0
  0
VISUALSTYLE
  5
30
102
{ACAD_REACTORS
330
2A
102
}
102
{ACAD_XDICTIONARY
360
280
102
}
330
2A
100
AcDbVisualStyle
  2
3dWireframe
 70
     5
 71
     0
 72
     2
 73
     0
 90
        0
 40
-0.6
 41
-30.0
 62
     5
 63
     7
421
 16777215
 74
     1
 91
        4
 64
     7
 65
   257
 75
     1
175
     1
 42
1.0
 92
        0
 66
   257
 43
1.0
 76
     1
 77
     6
 78
     2
 67
     7
 79
     5
170
     0
171
     0
290
     0
174
     0
 93
        1
 44
0.0
173
     0
291
     0
 45
0.0
1001
ACAD
1000
AcDbSavedByObjectVersion
1070
     0
  0
VISUALSTYLE
  5
32
102
{ACAD_REACTORS
330
2A
102
}
102
{ACAD_XDICTIONARY
360
284
102
}
330
2A
100
AcDbVisualStyle
  2
Basic
 70
     7
 71
     1
 72
     0
 73
     1
 90
        0
 40
-0.6
 41
-30.0
 62
     5
 63
     7
421
 16777215
 74
     0
 91
        4
 64
     7
 65
   257
 75
     1
175
     1
 42
1.0
 92
        8
 66
     7
 43
1.0
 76
     1
 77
     6
 78
     2
 67
     7
 79
     5
170
     0
171
     0
290
     0
174
     0
 93
        1
 44
0.0
173
     0
291
     1
 45
0.0
1001
ACAD
1000
AcDbSavedByObjectVersion
1070
     0
  0
VISUALSTYLE
  5
36
102
{ACAD_REACTORS
330
2A
102
}
102
{ACAD_XDICTIONARY
360
28C
102
}
330
2A
100
AcDbVisualStyle
  2
Brighten
 70
    12
 71
     2
 72
     2
 73
     0
 90
        0
 40
-0.6
 41
-30.0
 62
     5
 63
     7
421
 16777215
 74
     1
 91
        4
 64
     7
 65
   257
 75
     1
175
     1
 42
1.0
 92
        8
 66
     7
 43
1.0
 76
     1
 77
     6
 78
     2
 67
     7
 79
     5
170
     0
171
     0
290
     0
174
     0
 93
        1
 44
50.0
173
     0
291
     1
 45
0.0
1001
ACAD
1000
AcDbSavedByObjectVersion
1070
     0
  0
VISUALSTYLE
  5
3A
102
{ACAD_REACTORS
330
2A
102
}
102
{ACAD_XDICTIONARY
360
294
102
}
330
2A
100
AcDbVisualStyle
  2
ColorChange
 70
    16
 71
     2
 72
     2
 73
     3
 90
        0
 40
-0.6
 41
-30.0
 62
     5
 63
     8
421
  8421504
 74
     1
 91
        4
 64
     7
 65
   257
 75
     1
175
     1
 42
1.0
 92
        8
 66
     8
424
  8421504
 43
1.0
 76
     1
 77
     6
 78
     2
 67
     7
 79
     5
170
     0
171
     0
290
     0
174
     0
 93
        1
 44
0.0
173
     0
291
     1
 45
0.0
1001
ACAD
1000
AcDbSavedByObjectVersion
1070
     0
  0
VISUALSTYLE
  5
34
102
{ACAD_REACTORS
330
2A
102
}
102
{ACAD_XDICTIONARY
360
288
102
}
330
2A
100
AcDbVisualStyle
  2
Conceptual
 70
     9
 71
     3
 72
     2
 73
     0
 90
        0
 40
-0.6
 41
-30.0
 62
     5
 63
     7
421
 16777215
 74
     2
 91
        2
 64
     7
 65
   257
 75
     1
175
     1
 42
40.0
 92
        8
 66
     7
 43
1.0
 76
     1
 77
     6
 78
     2
 67
     7
 79
     3
170
     0
171
     0
290
     0
174
     0
 93
        1
 44
0.0
173
     0
291
     0
 45
0.0
1001
ACAD
1000
AcDbSavedByObjectVersion
1070
     0
  0
VISUALSTYLE
  5
35
102
{ACAD_REACTORS
330
2A
102
}
102
{ACAD_XDICTIONARY
360
28A
102
}
330
2A
100
AcDbVisualStyle
  2
Dim
 70
    11
 71
     2
 72
     2
 73
     0
 90
        0
 40
-0.6
 41
-30.0
 62
     5
 63
     7
421
 16777215
 74
     1
 91
        4
 64
     7
 65
   257
 75
     1
175
     1
 42
1.0
 92
        8
 66
     7
 43
1.0
 76
     1
 77
     6
 78
     2
 67
     7
 79
     5
170
     0
171
     0
290
     0
174
     0
 93
        1
 44
-50.0
173
     0
291
     1
 45
0.0
1001
ACAD
1000
AcDbSavedByObjectVersion
1070
     0
  0
VISUALSTYLE
  5
39
102
{ACAD_REACTORS
330
2A
102
}
102
{ACAD_XDICTIONARY
360
292
102
}
330
2A
100
AcDbVisualStyle
  2
Facepattern
 70
    15
 71
     2
 72
     2
 73
     0
 90
        0
 40
-0.6
 41
-30.0
 62
     5
 63
     7
421
 16777215
 74
     1
 91
        4
 64
     7
 65
   257
 75
     1
175
     1
 42
1.0
 92
        8
 66
     7
 43
1.0
 76
     1
 77
     6
 78
     2
 67
     7
 79
     5
170
     0
171
     0
290
     0
174
     0
 93
        1
 44
0.0
173
     0
291
     1
 45
0.0
1001
ACAD
1000
AcDbSavedByObjectVersion
1070
     0
  0
VISUALSTYLE
  5
2B
102
{ACAD_REACTORS
330
2A
102
}
102
{ACAD_XDICTIONARY
360
276
102
}
330
2A
100
AcDbVisualStyle
  2
Flat
 70
     0
 71
     2
 72
     1
 73
     1
 90
        2
 40
-0.6
 41
30.0
 62
     5
 63
     7
421
 16777215
 74
     0
 91
        4
 64
     7
 65
   257
 75
     1
175
     1
 42
1.0
 92
        8
 66
     7
 43
1.0
 76
     1
 77
     6
 78
     2
 67
     7
 79
     5
170
     0
171
     0
290
     0
174
     0
 93
       13
 44
0.0
173
     0
291
     1
 45
0.0
1001
ACAD
1000
AcDbSavedByObjectVersion
1070
     0
  0
VISUALSTYLE
  5
2C
102
{ACAD_REACTORS
330
2A
102
}
102
{ACAD_XDICTIONARY
360
278
102
}
330
2A
100
AcDbVisualStyle
  2
FlatWithEdges
 70
     1
 71
     2
 72
     1
 73
     1
 90
        2
 40
-0.6
 41
30.0
 62
     5
 63
     7
421
 16777215
 74
     1
 91
        4
 64
     7
 65
   257
 75
     1
175
     1
 42
1.0
 92
        0
 66
   257
 43
1.0
 76
     1
 77
     6
 78
     2
 67
     7
 79
     5
170
     0
171
     0
290
     0
174
     0
 93
       13
 44
0.0
173
     0
291
     1
 45
0.0
1001
ACAD
1000
AcDbSavedByObjectVersion
1070
     0
  0
VISUALSTYLE
  5
2D
102
{ACAD_REACTORS
330
2A
102
}
102
{ACAD_XDICTIONARY
360
27A
102
}
330
2A
100
AcDbVisualStyle
  2
Gouraud
 70
     2
 71
     2
 72
     2
 73
     1
 90
        2
 40
-0.6
 41
30.0
 62
     5
 63
     7
421
 16777215
 74
     0
 91
        4
 64
     7
 65
   257
 75
     1
175
     1
 42
1.0
 92
        0
 66
     7
 43
1.0
 76
     1
 77
     6
 78
     2
 67
     7
 79
     5
170
     0
171
     0
290
     0
174
     0
 93
       13
 44
0.0
173
     0
291
     1
 45
0.0
1001
ACAD
1000
AcDbSavedByObjectVersion
1070
     0
  0
VISUALSTYLE
  5
2E
102
{ACAD_REACTORS
330
2A
102
}
102
{ACAD_XDICTIONARY
360
27C
102
}
330
2A
100
AcDbVisualStyle
  2
GouraudWithEdges
 70
     3
 71
     2
 72
     2
 73
     1
 90
        2
 40
-0.6
 41
30.0
 62
     5
 63
     7
421
 16777215
 74
     1
 91
        4
 64
     7
 65
   257
 75
     1
175
     1
 42
1.0
 92
        0
 66
   257
 43
1.0
 76
     1
 77
     6
 78
     2
 67
     7
 79
     5
170
     0
171
     0
290
     0
174
     0
 93
       13
 44
0.0
173
     0
291
     1
 45
0.0
1001
ACAD
1000
AcDbSavedByObjectVersion
1070
     0
  0
VISUALSTYLE
  5
38
102
{ACAD_REACTORS
330
2A
102
}
102
{ACAD_XDICTIONARY
360
290
102
}
330
2A
100
AcDbVisualStyle
  2
Linepattern
 70
    14
 71
     2
 72
     2
 73
     0
 90
        0
 40
-0.6
 41
-30.0
 62
     5
 63
     7
421
 16777215
 74
     1
 91
        4
 64
     7
 65
   257
 75
     7
175
     7
 42
1.0
 92
        8
 66
     7
 43
1.0
 76
     1
 77
     6
 78
     2
 67
     7
 79
     5
170
     0
171
     0
290
     0
174
     0
 93
        1
 44
0.0
173
     0
291
     1
 45
0.0
1001
ACAD
1000
AcDbSavedByObjectVersion
1070
     0
  0
VISUALSTYLE
  5
33
102
{ACAD_REACTORS
330
2A
102
}
102
{ACAD_XDICTIONARY
360
286
102
}
330
2A
100
AcDbVisualStyle
  2
Realistic
 70
     8
 71
     2
 72
     2
 73
     0
 90
        0
 40
-0.6
 41
-30.0
 62
     5
 63
     7
421
 16777215
 74
     1
 91
        0
 64
     7
 65
   257
 75
     1
175
     1
 42
1.0
 92
        8
 66
     8
424
  7895160
 43
1.0
 76
     1
 77
     6
 78
     2
 67
     7
 79
     5
170
     0
171
     0
290
     0
174
     0
 93
       13
 44
0.0
173
     0
291
     0
 45
0.0
1001
ACAD
1000
AcDbSavedByObjectVersion
1070
     0
  0
VISUALSTYLE
  5
37
102
{ACAD_REACTORS
330
2A
102
}
102
{ACAD_XDICTIONARY
360
28E
102
}
330
2A
100
AcDbVisualStyle
  2
Thicken
 70
    13
 71
     2
 72
     2
 73
     0
 90
        0
 40
-0.6
 41
-30.0
 62
     5
 63
     7
421
 16777215
 74
     1
 91
        4
 64
     7
 65
   257
 75
     1
175
     1
 42
1.0
 92
       12
 66
     7
 43
1.0
 76
     1
 77
     6
 78
     2
 67
     7
 79
     5
170
     0
171
     0
290
     0
174
     0
 93
        1
 44
0.0
173
     0
291
     1
 45
0.0
1001
ACAD
1000
AcDbSavedByObjectVersion
1070
     0
  0
DICTIONARY
  5
298
330
3D
100
AcDbDictionary
280
     1
281
     1
  3
ACAD_XREC_ROUNDTRIP
360
299
  0
DICTIONARY
  5
296
330
3C
100
AcDbDictionary
280
     1
281
     1
  3
ACAD_XREC_ROUNDTRIP
360
297
  0
DICTIONARY
  5
29A
330
3E
100
AcDbDictionary
280
     1
281
     1
  3
ACAD_XREC_ROUNDTRIP
360
29B
  0
DICTIONARY
  5
27E
330
2F
100
AcDbDictionary
280
     1
281
     1
  3
ACAD_XREC_ROUNDTRIP
360
27F
  0
DICTIONARY
  5
282
330
31
100
AcDbDictionary
280
     1
281
     1
  3
ACAD_XREC_ROUNDTRIP
360
283
  0
DICTIONARY
  5
280
330
30
100
AcDbDictionary
280
     1
281
     1
  3
ACAD_XREC_ROUNDTRIP
360
281
  0
DICTIONARY
  5
284
330
32
100
AcDbDictionary
280
     1
281
     1
  3
ACAD_XREC_ROUNDTRIP
360
285
  0
DICTIONARY
  5
28C
330
36
100
AcDbDictionary
280
     1
281
     1
  3
ACAD_XREC_ROUNDTRIP
360
28D
  0
DICTIONARY
  5
294
330
3A
100
AcDbDictionary
280
     1
281
     1
  3
ACAD_XREC_ROUNDTRIP
360
295
  0
DICTIONARY
  5
288
330
34
100
AcDbDictionary
280
     1
281
     1
  3
ACAD_XREC_ROUNDTRIP
360
289
  0
DICTIONARY
  5
28A
330
35
100
AcDbDictionary
280
     1
281
     1
  3
ACAD_XREC_ROUNDTRIP
360
28B
  0
DICTIONARY
  5
292
330
39
100
AcDbDictionary
280
     1
281
     1
  3
ACAD_XREC_ROUNDTRIP
360
293
  0
DICTIONARY
  5
276
330
2B
100
AcDbDictionary
280
     1
281
     1
  3
ACAD_XREC_ROUNDTRIP
360
277
  0
DICTIONARY
  5
278
330
2C
100
AcDbDictionary
280
     1
281
     1
  3
ACAD_XREC_ROUNDTRIP
360
279
  0
DICTIONARY
  5
27A
330
2D
100
AcDbDictionary
280
     1
281
     1
  3
ACAD_XREC_ROUNDTRIP
360
27B
  0
DICTIONARY
  5
27C
330
2E
100
AcDbDictionary
280
     1
281
     1
  3
ACAD_XREC_ROUNDTRIP
360
27D
  0
DICTIONARY
  5
290
330
38
100
AcDbDictionary
280
     1
281
     1
  3
ACAD_XREC_ROUNDTRIP
360
291
  0
DICTIONARY
  5
286
330
33
100
AcDbDictionary
280
     1
281
     1
  3
ACAD_XREC_ROUNDTRIP
360
287
  0
DICTIONARY
  5
28E
330
37
100
AcDbDictionary
280
     1
281
     1
  3
ACAD_XREC_ROUNDTRIP
360
28F
  0
XRECORD
  5
299
102
{ACAD_REACTORS
330
298
102
}
330
298
100
AcDbXrecord
280
     1
102
MATERIAL
148
0.0
149
0.0
149
0.0
 93
        0
 94
      127
282
     0
 72
     1
 77
     1
171
     1
175
     1
179
     1
273
     0
  0
XRECORD
  5
297
102
{ACAD_REACTORS
330
296
102
}
330
296
100
AcDbXrecord
280
     1
102
MATERIAL
148
0.0
149
0.0
149
0.0
 93
        0
 94
      127
282
     0
 72
     1
 77
     1
171
     1
175
     1
179
     1
273
     0
  0
XRECORD
  5
29B
102
{ACAD_REACTORS
330
29A
102
}
330
29A
100
AcDbXrecord
280
     1
102
MATERIAL
148
0.0
149
0.0
149
0.0
 93
        0
 94
      127
282
     0
 72
     1
 77
     1
171
     1
175
     1
179
     1
273
     0
  0
XRECORD
  5
27F
102
{ACAD_REACTORS
330
27E
102
}
330
27E
100
AcDbXrecord
280
     1
102
RTVSPropertyOp0
 70
     1
102
RTVSPropertyOp1
 70
     1
102
RTVSPropertyOp2
 70
     1
102
RTVSPropertyOp3
 70
     1
102
RTVSPropertyOp4
 70
     1
102
RTVSPropertyOp5
 70
     1
102
RTVSPropertyOp6
 70
     1
102
RTVSPropertyOp7
 70
     1
102
RTVSPropertyOp8
 70
     1
102
RTVSPropertyOp9
 70
     1
102
RTVSPropertyOp10
 70
     1
102
RTVSPropertyOp11
 70
     1
102
RTVSPropertyOp12
 70
     1
102
RTVSPropertyOp13
 70
     1
102
RTVSPropertyOp14
 70
     1
102
RTVSPropertyOp15
 70
     1
102
RTVSPropertyOp16
 70
     1
102
RTVSPropertyOp17
 70
     1
102
RTVSPropertyOp18
 70
     1
102
RTVSPropertyOp19
 70
     1
102
RTVSPropertyOp20
 70
     1
102
RTVSPropertyOp21
 70
     1
102
RTVSPropertyOp22
 70
     1
102
RTVSPropertyOp23
 70
     1
102
RTVSPropertyOp24
 70
     1
102
RTVSPropertyOp25
 70
     1
102
RTVSPropertyOp26
 70
     1
102
RTVSPropertyOp27
 70
     1
102
RTVSPropertyOp28
 70
     1
102
RTVSPropertyOp29
 70
     1
102
RTVSPropertyOp30
 70
     1
102
RTVSPropertyOp31
 70
     1
102
RTVSPropertyOp32
 70
     1
  0
XRECORD
  5
283
102
{ACAD_REACTORS
330
282
102
}
330
282
100
AcDbXrecord
280
     1
102
RTVSPropertyOp0
 70
     1
102
RTVSPropertyOp1
 70
     1
102
RTVSPropertyOp2
 70
     1
102
RTVSPropertyOp3
 70
     1
102
RTVSPropertyOp4
 70
     1
102
RTVSPropertyOp5
 70
     1
102
RTVSPropertyOp6
 70
     1
102
RTVSPropertyOp7
 70
     1
102
RTVSPropertyOp8
 70
     1
102
RTVSPropertyOp9
 70
     1
102
RTVSPropertyOp10
 70
     1
102
RTVSPropertyOp11
 70
     1
102
RTVSPropertyOp12
 70
     1
102
RTVSPropertyOp13
 70
     1
102
RTVSPropertyOp14
 70
     1
102
RTVSPropertyOp15
 70
     1
102
RTVSPropertyOp16
 70
     1
102
RTVSPropertyOp17
 70
     1
102
RTVSPropertyOp18
 70
     1
102
RTVSPropertyOp19
 70
     1
102
RTVSPropertyOp20
 70
     1
102
RTVSPropertyOp21
 70
     1
102
RTVSPropertyOp22
 70
     1
102
RTVSPropertyOp23
 70
     1
102
RTVSPropertyOp24
 70
     1
102
RTVSPropertyOp25
 70
     1
102
RTVSPropertyOp26
 70
     1
102
RTVSPropertyOp27
 70
     1
102
RTVSPropertyOp28
 70
     1
102
RTVSPropertyOp29
 70
     1
102
RTVSPropertyOp30
 70
     1
102
RTVSPropertyOp31
 70
     1
102
RTVSPropertyOp32
 70
     1
  0
XRECORD
  5
281
102
{ACAD_REACTORS
330
280
102
}
330
280
100
AcDbXrecord
280
     1
102
RTVSPropertyOp0
 70
     1
102
RTVSPropertyOp1
 70
     1
102
RTVSPropertyOp2
 70
     1
102
RTVSPropertyOp3
 70
     1
102
RTVSPropertyOp4
 70
     1
102
RTVSPropertyOp5
 70
     1
102
RTVSPropertyOp6
 70
     1
102
RTVSPropertyOp7
 70
     1
102
RTVSPropertyOp8
 70
     1
102
RTVSPropertyOp9
 70
     1
102
RTVSPropertyOp10
 70
     1
102
RTVSPropertyOp11
 70
     1
102
RTVSPropertyOp12
 70
     1
102
RTVSPropertyOp13
 70
     1
102
RTVSPropertyOp14
 70
     1
102
RTVSPropertyOp15
 70
     1
102
RTVSPropertyOp16
 70
     1
102
RTVSPropertyOp17
 70
     1
102
RTVSPropertyOp18
 70
     1
102
RTVSPropertyOp19
 70
     1
102
RTVSPropertyOp20
 70
     1
102
RTVSPropertyOp21
 70
     1
102
RTVSPropertyOp22
 70
     1
102
RTVSPropertyOp23
 70
     1
102
RTVSPropertyOp24
 70
     1
102
RTVSPropertyOp25
 70
     1
102
RTVSPropertyOp26
 70
     1
102
RTVSPropertyOp27
 70
     1
102
RTVSPropertyOp28
 70
     1
102
RTVSPropertyOp29
 70
     1
102
RTVSPropertyOp30
 70
     1
102
RTVSPropertyOp31
 70
     1
102
RTVSPropertyOp32
 70
     1
  0
XRECORD
  5
285
102
{ACAD_REACTORS
330
284
102
}
330
284
100
AcDbXrecord
280
     1
102
RTVSPropertyOp0
 70
     1
102
RTVSPropertyOp1
 70
     1
102
RTVSPropertyOp2
 70
     1
102
RTVSPropertyOp3
 70
     1
102
RTVSPropertyOp4
 70
     1
102
RTVSPropertyOp5
 70
     1
102
RTVSPropertyOp6
 70
     1
102
RTVSPropertyOp7
 70
     1
102
RTVSPropertyOp8
 70
     1
102
RTVSPropertyOp9
 70
     1
102
RTVSPropertyOp10
 70
     1
102
RTVSPropertyOp11
 70
     1
102
RTVSPropertyOp12
 70
     1
102
RTVSPropertyOp13
 70
     1
102
RTVSPropertyOp14
 70
     1
102
RTVSPropertyOp15
 70
     1
102
RTVSPropertyOp16
 70
     1
102
RTVSPropertyOp17
 70
     1
102
RTVSPropertyOp18
 70
     1
102
RTVSPropertyOp19
 70
     1
102
RTVSPropertyOp20
 70
     1
102
RTVSPropertyOp21
 70
     1
102
RTVSPropertyOp22
 70
     1
102
RTVSPropertyOp23
 70
     1
102
RTVSPropertyOp24
 70
     1
102
RTVSPropertyOp25
 70
     1
102
RTVSPropertyOp26
 70
     1
102
RTVSPropertyOp27
 70
     1
102
RTVSPropertyOp28
 70
     1
102
RTVSPropertyOp29
 70
     1
102
RTVSPropertyOp30
 70
     1
102
RTVSPropertyOp31
 70
     1
102
RTVSPropertyOp32
 70
     1
  0
XRECORD
  5
28D
102
{ACAD_REACTORS
330
28C
102
}
330
28C
100
AcDbXrecord
280
     1
102
RTVSPropertyOp0
 70
     1
102
RTVSPropertyOp1
 70
     1
102
RTVSPropertyOp2
 70
     1
102
RTVSPropertyOp3
 70
     1
102
RTVSPropertyOp4
 70
     1
102
RTVSPropertyOp5
 70
     1
102
RTVSPropertyOp6
 70
     1
102
RTVSPropertyOp7
 70
     1
102
RTVSPropertyOp8
 70
     1
102
RTVSPropertyOp9
 70
     1
102
RTVSPropertyOp10
 70
     1
102
RTVSPropertyOp11
 70
     1
102
RTVSPropertyOp12
 70
     1
102
RTVSPropertyOp13
 70
     1
102
RTVSPropertyOp14
 70
     1
102
RTVSPropertyOp15
 70
     1
102
RTVSPropertyOp16
 70
     1
102
RTVSPropertyOp17
 70
     1
102
RTVSPropertyOp18
 70
     1
102
RTVSPropertyOp19
 70
     1
102
RTVSPropertyOp20
 70
     1
102
RTVSPropertyOp21
 70
     1
102
RTVSPropertyOp22
 70
     1
102
RTVSPropertyOp23
 70
     1
102
RTVSPropertyOp24
 70
     1
102
RTVSPropertyOp25
 70
     1
102
RTVSPropertyOp26
 70
     1
102
RTVSPropertyOp27
 70
     1
102
RTVSPropertyOp28
 70
     1
102
RTVSPropertyOp29
 70
     1
102
RTVSPropertyOp30
 70
     1
102
RTVSPropertyOp31
 70
     1
102
RTVSPropertyOp32
 70
     1
  0
XRECORD
  5
295
102
{ACAD_REACTORS
330
294
102
}
330
294
100
AcDbXrecord
280
     1
102
RTVSPropertyOp0
 70
     1
102
RTVSPropertyOp1
 70
     1
102
RTVSPropertyOp2
 70
     1
102
RTVSPropertyOp3
 70
     1
102
RTVSPropertyOp4
 70
     1
102
RTVSPropertyOp5
 70
     1
102
RTVSPropertyOp6
 70
     1
102
RTVSPropertyOp7
 70
     1
102
RTVSPropertyOp8
 70
     1
102
RTVSPropertyOp9
 70
     1
102
RTVSPropertyOp10
 70
     1
102
RTVSPropertyOp11
 70
     1
102
RTVSPropertyOp12
 70
     1
102
RTVSPropertyOp13
 70
     1
102
RTVSPropertyOp14
 70
     1
102
RTVSPropertyOp15
 70
     1
102
RTVSPropertyOp16
 70
     1
102
RTVSPropertyOp17
 70
     1
102
RTVSPropertyOp18
 70
     1
102
RTVSPropertyOp19
 70
     1
102
RTVSPropertyOp20
 70
     1
102
RTVSPropertyOp21
 70
     1
102
RTVSPropertyOp22
 70
     1
102
RTVSPropertyOp23
 70
     1
102
RTVSPropertyOp24
 70
     1
102
RTVSPropertyOp25
 70
     1
102
RTVSPropertyOp26
 70
     1
102
RTVSPropertyOp27
 70
     1
102
RTVSPropertyOp28
 70
     1
102
RTVSPropertyOp29
 70
     1
102
RTVSPropertyOp30
 70
     1
102
RTVSPropertyOp31
 70
     1
102
RTVSPropertyOp32
 70
     1
  0
XRECORD
  5
289
102
{ACAD_REACTORS
330
288
102
}
330
288
100
AcDbXrecord
280
     1
102
RTVSPropertyOp0
 70
     1
102
RTVSPropertyOp1
 70
     1
102
RTVSPropertyOp2
 70
     1
102
RTVSPropertyOp3
 70
     1
102
RTVSPropertyOp4
 70
     1
102
RTVSPropertyOp5
 70
     1
102
RTVSPropertyOp6
 70
     1
102
RTVSPropertyOp7
 70
     1
102
RTVSPropertyOp8
 70
     1
102
RTVSPropertyOp9
 70
     1
102
RTVSPropertyOp10
 70
     1
102
RTVSPropertyOp11
 70
     1
102
RTVSPropertyOp12
 70
     1
102
RTVSPropertyOp13
 70
     1
102
RTVSPropertyOp14
 70
     1
102
RTVSPropertyOp15
 70
     1
102
RTVSPropertyOp16
 70
     1
102
RTVSPropertyOp17
 70
     1
102
RTVSPropertyOp18
 70
     1
102
RTVSPropertyOp19
 70
     1
102
RTVSPropertyOp20
 70
     1
102
RTVSPropertyOp21
 70
     1
102
RTVSPropertyOp22
 70
     1
102
RTVSPropertyOp23
 70
     1
102
RTVSPropertyOp24
 70
     1
102
RTVSPropertyOp25
 70
     1
102
RTVSPropertyOp26
 70
     1
102
RTVSPropertyOp27
 70
     1
102
RTVSPropertyOp28
 70
     1
102
RTVSPropertyOp29
 70
     1
102
RTVSPropertyOp30
 70
     1
102
RTVSPropertyOp31
 70
     1
102
RTVSPropertyOp32
 70
     1
  0
XRECORD
  5
28B
102
{ACAD_REACTORS
330
28A
102
}
330
28A
100
AcDbXrecord
280
     1
102
RTVSPropertyOp0
 70
     1
102
RTVSPropertyOp1
 70
     1
102
RTVSPropertyOp2
 70
     1
102
RTVSPropertyOp3
 70
     1
102
RTVSPropertyOp4
 70
     1
102
RTVSPropertyOp5
 70
     1
102
RTVSPropertyOp6
 70
     1
102
RTVSPropertyOp7
 70
     1
102
RTVSPropertyOp8
 70
     1
102
RTVSPropertyOp9
 70
     1
102
RTVSPropertyOp10
 70
     1
102
RTVSPropertyOp11
 70
     1
102
RTVSPropertyOp12
 70
     1
102
RTVSPropertyOp13
 70
     1
102
RTVSPropertyOp14
 70
     1
102
RTVSPropertyOp15
 70
     1
102
RTVSPropertyOp16
 70
     1
102
RTVSPropertyOp17
 70
     1
102
RTVSPropertyOp18
 70
     1
102
RTVSPropertyOp19
 70
     1
102
RTVSPropertyOp20
 70
     1
102
RTVSPropertyOp21
 70
     1
102
RTVSPropertyOp22
 70
     1
102
RTVSPropertyOp23
 70
     1
102
RTVSPropertyOp24
 70
     1
102
RTVSPropertyOp25
 70
     1
102
RTVSPropertyOp26
 70
     1
102
RTVSPropertyOp27
 70
     1
102
RTVSPropertyOp28
 70
     1
102
RTVSPropertyOp29
 70
     1
102
RTVSPropertyOp30
 70
     1
102
RTVSPropertyOp31
 70
     1
102
RTVSPropertyOp32
 70
     1
  0
XRECORD
  5
293
102
{ACAD_REACTORS
330
292
102
}
330
292
100
AcDbXrecord
280
     1
102
RTVSPropertyOp0
 70
     1
102
RTVSPropertyOp1
 70
     1
102
RTVSPropertyOp2
 70
     1
102
RTVSPropertyOp3
 70
     1
102
RTVSPropertyOp4
 70
     1
102
RTVSPropertyOp5
 70
     1
102
RTVSPropertyOp6
 70
     1
102
RTVSPropertyOp7
 70
     1
102
RTVSPropertyOp8
 70
     1
102
RTVSPropertyOp9
 70
     1
102
RTVSPropertyOp10
 70
     1
102
RTVSPropertyOp11
 70
     1
102
RTVSPropertyOp12
 70
     1
102
RTVSPropertyOp13
 70
     1
102
RTVSPropertyOp14
 70
     1
102
RTVSPropertyOp15
 70
     1
102
RTVSPropertyOp16
 70
     1
102
RTVSPropertyOp17
 70
     1
102
RTVSPropertyOp18
 70
     1
102
RTVSPropertyOp19
 70
     1
102
RTVSPropertyOp20
 70
     1
102
RTVSPropertyOp21
 70
     1
102
RTVSPropertyOp22
 70
     1
102
RTVSPropertyOp23
 70
     1
102
RTVSPropertyOp24
 70
     1
102
RTVSPropertyOp25
 70
     1
102
RTVSPropertyOp26
 70
     1
102
RTVSPropertyOp27
 70
     1
102
RTVSPropertyOp28
 70
     1
102
RTVSPropertyOp29
 70
     1
102
RTVSPropertyOp30
 70
     1
102
RTVSPropertyOp31
 70
     1
102
RTVSPropertyOp32
 70
     1
  0
XRECORD
  5
277
102
{ACAD_REACTORS
330
276
102
}
330
276
100
AcDbXrecord
280
     1
102
RTVSPropertyOp0
 70
     1
102
RTVSPropertyOp1
 70
     1
102
RTVSPropertyOp2
 70
     1
102
RTVSPropertyOp3
 70
     1
102
RTVSPropertyOp4
 70
     1
102
RTVSPropertyOp5
 70
     1
102
RTVSPropertyOp6
 70
     1
102
RTVSPropertyOp7
 70
     1
102
RTVSPropertyOp8
 70
     1
102
RTVSPropertyOp9
 70
     1
102
RTVSPropertyOp10
 70
     1
102
RTVSPropertyOp11
 70
     1
102
RTVSPropertyOp12
 70
     1
102
RTVSPropertyOp13
 70
     1
102
RTVSPropertyOp14
 70
     1
102
RTVSPropertyOp15
 70
     1
102
RTVSPropertyOp16
 70
     1
102
RTVSPropertyOp17
 70
     1
102
RTVSPropertyOp18
 70
     1
102
RTVSPropertyOp19
 70
     1
102
RTVSPropertyOp20
 70
     1
102
RTVSPropertyOp21
 70
     1
102
RTVSPropertyOp22
 70
     1
102
RTVSPropertyOp23
 70
     1
102
RTVSPropertyOp24
 70
     1
102
RTVSPropertyOp25
 70
     1
102
RTVSPropertyOp26
 70
     1
102
RTVSPropertyOp27
 70
     1
102
RTVSPropertyOp28
 70
     1
102
RTVSPropertyOp29
 70
     1
102
RTVSPropertyOp30
 70
     1
102
RTVSPropertyOp31
 70
     1
102
RTVSPropertyOp32
 70
     1
  0
XRECORD
  5
279
102
{ACAD_REACTORS
330
278
102
}
330
278
100
AcDbXrecord
280
     1
102
RTVSPropertyOp0
 70
     1
102
RTVSPropertyOp1
 70
     1
102
RTVSPropertyOp2
 70
     1
102
RTVSPropertyOp3
 70
     1
102
RTVSPropertyOp4
 70
     1
102
RTVSPropertyOp5
 70
     1
102
RTVSPropertyOp6
 70
     1
102
RTVSPropertyOp7
 70
     1
102
RTVSPropertyOp8
 70
     1
102
RTVSPropertyOp9
 70
     1
102
RTVSPropertyOp10
 70
     1
102
RTVSPropertyOp11
 70
     1
102
RTVSPropertyOp12
 70
     1
102
RTVSPropertyOp13
 70
     1
102
RTVSPropertyOp14
 70
     1
102
RTVSPropertyOp15
 70
     1
102
RTVSPropertyOp16
 70
     1
102
RTVSPropertyOp17
 70
     1
102
RTVSPropertyOp18
 70
     1
102
RTVSPropertyOp19
 70
     1
102
RTVSPropertyOp20
 70
     1
102
RTVSPropertyOp21
 70
     1
102
RTVSPropertyOp22
 70
     1
102
RTVSPropertyOp23
 70
     1
102
RTVSPropertyOp24
 70
     1
102
RTVSPropertyOp25
 70
     1
102
RTVSPropertyOp26
 70
     1
102
RTVSPropertyOp27
 70
     1
102
RTVSPropertyOp28
 70
     1
102
RTVSPropertyOp29
 70
     1
102
RTVSPropertyOp30
 70
     1
102
RTVSPropertyOp31
 70
     1
102
RTVSPropertyOp32
 70
     1
  0
XRECORD
  5
27B
102
{ACAD_REACTORS
330
27A
102
}
330
27A
100
AcDbXrecord
280
     1
102
RTVSPropertyOp0
 70
     1
102
RTVSPropertyOp1
 70
     1
102
RTVSPropertyOp2
 70
     1
102
RTVSPropertyOp3
 70
     1
102
RTVSPropertyOp4
 70
     1
102
RTVSPropertyOp5
 70
     1
102
RTVSPropertyOp6
 70
     1
102
RTVSPropertyOp7
 70
     1
102
RTVSPropertyOp8
 70
     1
102
RTVSPropertyOp9
 70
     1
102
RTVSPropertyOp10
 70
     1
102
RTVSPropertyOp11
 70
     1
102
RTVSPropertyOp12
 70
     1
102
RTVSPropertyOp13
 70
     1
102
RTVSPropertyOp14
 70
     1
102
RTVSPropertyOp15
 70
     1
102
RTVSPropertyOp16
 70
     1
102
RTVSPropertyOp17
 70
     1
102
RTVSPropertyOp18
 70
     1
102
RTVSPropertyOp19
 70
     1
102
RTVSPropertyOp20
 70
     1
102
RTVSPropertyOp21
 70
     1
102
RTVSPropertyOp22
 70
     1
102
RTVSPropertyOp23
 70
     1
102
RTVSPropertyOp24
 70
     1
102
RTVSPropertyOp25
 70
     1
102
RTVSPropertyOp26
 70
     1
102
RTVSPropertyOp27
 70
     1
102
RTVSPropertyOp28
 70
     1
102
RTVSPropertyOp29
 70
     1
102
RTVSPropertyOp30
 70
     1
102
RTVSPropertyOp31
 70
     1
102
RTVSPropertyOp32
 70
     1
  0
XRECORD
  5
27D
102
{ACAD_REACTORS
330
27C
102
}
330
27C
100
AcDbXrecord
280
     1
102
RTVSPropertyOp0
 70
     1
102
RTVSPropertyOp1
 70
     1
102
RTVSPropertyOp2
 70
     1
102
RTVSPropertyOp3
 70
     1
102
RTVSPropertyOp4
 70
     1
102
RTVSPropertyOp5
 70
     1
102
RTVSPropertyOp6
 70
     1
102
RTVSPropertyOp7
 70
     1
102
RTVSPropertyOp8
 70
     1
102
RTVSPropertyOp9
 70
     1
102
RTVSPropertyOp10
 70
     1
102
RTVSPropertyOp11
 70
     1
102
RTVSPropertyOp12
 70
     1
102
RTVSPropertyOp13
 70
     1
102
RTVSPropertyOp14
 70
     1
102
RTVSPropertyOp15
 70
     1
102
RTVSPropertyOp16
 70
     1
102
RTVSPropertyOp17
 70
     1
102
RTVSPropertyOp18
 70
     1
102
RTVSPropertyOp19
 70
     1
102
RTVSPropertyOp20
 70
     1
102
RTVSPropertyOp21
 70
     1
102
RTVSPropertyOp22
 70
     1
102
RTVSPropertyOp23
 70
     1
102
RTVSPropertyOp24
 70
     1
102
RTVSPropertyOp25
 70
     1
102
RTVSPropertyOp26
 70
     1
102
RTVSPropertyOp27
 70
     1
102
RTVSPropertyOp28
 70
     1
102
RTVSPropertyOp29
 70
     1
102
RTVSPropertyOp30
 70
     1
102
RTVSPropertyOp31
 70
     1
102
RTVSPropertyOp32
 70
     1
  0
XRECORD
  5
291
102
{ACAD_REACTORS
330
290
102
}
330
290
100
AcDbXrecord
280
     1
102
RTVSPropertyOp0
 70
     1
102
RTVSPropertyOp1
 70
     1
102
RTVSPropertyOp2
 70
     1
102
RTVSPropertyOp3
 70
     1
102
RTVSPropertyOp4
 70
     1
102
RTVSPropertyOp5
 70
     1
102
RTVSPropertyOp6
 70
     1
102
RTVSPropertyOp7
 70
     1
102
RTVSPropertyOp8
 70
     1
102
RTVSPropertyOp9
 70
     1
102
RTVSPropertyOp10
 70
     1
102
RTVSPropertyOp11
 70
     1
102
RTVSPropertyOp12
 70
     1
102
RTVSPropertyOp13
 70
     1
102
RTVSPropertyOp14
 70
     1
102
RTVSPropertyOp15
 70
     1
102
RTVSPropertyOp16
 70
     1
102
RTVSPropertyOp17
 70
     1
102
RTVSPropertyOp18
 70
     1
102
RTVSPropertyOp19
 70
     1
102
RTVSPropertyOp20
 70
     1
102
RTVSPropertyOp21
 70
     1
102
RTVSPropertyOp22
 70
     1
102
RTVSPropertyOp23
 70
     1
102
RTVSPropertyOp24
 70
     1
102
RTVSPropertyOp25
 70
     1
102
RTVSPropertyOp26
 70
     1
102
RTVSPropertyOp27
 70
     1
102
RTVSPropertyOp28
 70
     1
102
RTVSPropertyOp29
 70
     1
102
RTVSPropertyOp30
 70
     1
102
RTVSPropertyOp31
 70
     1
102
RTVSPropertyOp32
 70
     1
  0
XRECORD
  5
287
102
{ACAD_REACTORS
330
286
102
}
330
286
100
AcDbXrecord
280
     1
102
RTVSPropertyOp0
 70
     1
102
RTVSPropertyOp1
 70
     1
102
RTVSPropertyOp2
 70
     1
102
RTVSPropertyOp3
 70
     1
102
RTVSPropertyOp4
 70
     1
102
RTVSPropertyOp5
 70
     1
102
RTVSPropertyOp6
 70
     1
102
RTVSPropertyOp7
 70
     1
102
RTVSPropertyOp8
 70
     1
102
RTVSPropertyOp9
 70
     1
102
RTVSPropertyOp10
 70
     1
102
RTVSPropertyOp11
 70
     1
102
RTVSPropertyOp12
 70
     1
102
RTVSPropertyOp13
 70
     1
102
RTVSPropertyOp14
 70
     1
102
RTVSPropertyOp15
 70
     1
102
RTVSPropertyOp16
 70
     1
102
RTVSPropertyOp17
 70
     1
102
RTVSPropertyOp18
 70
     1
102
RTVSPropertyOp19
 70
     1
102
RTVSPropertyOp20
 70
     1
102
RTVSPropertyOp21
 70
     1
102
RTVSPropertyOp22
 70
     1
102
RTVSPropertyOp23
 70
     1
102
RTVSPropertyOp24
 70
     1
102
RTVSPropertyOp25
 70
     1
102
RTVSPropertyOp26
 70
     1
102
RTVSPropertyOp27
 70
     1
102
RTVSPropertyOp28
 70
     1
102
RTVSPropertyOp29
 70
     1
102
RTVSPropertyOp30
 70
     1
102
RTVSPropertyOp31
 70
     1
102
RTVSPropertyOp32
 70
     1
  0
XRECORD
  5
28F
102
{ACAD_REACTORS
330
28E
102
}
330
28E
100
AcDbXrecord
280
     1
102
RTVSPropertyOp0
 70
     1
102
RTVSPropertyOp1
 70
     1
102
RTVSPropertyOp2
 70
     1
102
RTVSPropertyOp3
 70
     1
102
RTVSPropertyOp4
 70
     1
102
RTVSPropertyOp5
 70
     1
102
RTVSPropertyOp6
 70
     1
102
RTVSPropertyOp7
 70
     1
102
RTVSPropertyOp8
 70
     1
102
RTVSPropertyOp9
 70
     1
102
RTVSPropertyOp10
 70
     1
102
RTVSPropertyOp11
 70
     1
102
RTVSPropertyOp12
 70
     1
102
RTVSPropertyOp13
 70
     1
102
RTVSPropertyOp14
 70
     1
102
RTVSPropertyOp15
 70
     1
102
RTVSPropertyOp16
 70
     1
102
RTVSPropertyOp17
 70
     1
102
RTVSPropertyOp18
 70
     1
102
RTVSPropertyOp19
 70
     1
102
RTVSPropertyOp20
 70
     1
102
RTVSPropertyOp21
 70
     1
102
RTVSPropertyOp22
 70
     1
102
RTVSPropertyOp23
 70
     1
102
RTVSPropertyOp24
 70
     1
102
RTVSPropertyOp25
 70
     1
102
RTVSPropertyOp26
 70
     1
102
RTVSPropertyOp27
 70
     1
102
RTVSPropertyOp28
 70
     1
102
RTVSPropertyOp29
 70
     1
102
RTVSPropertyOp30
 70
     1
102
RTVSPropertyOp31
 70
     1
102
RTVSPropertyOp32
 70
     1
  0
ENDSEC
  0
EOF
