  0
SECTION
  2
HEADER
  9
$ACADVER
  1
AC1018
  9
$ACADMAINTVER
 70
     0
  9
$DWGCODEPAGE
  3
ANSI_1252
  9
$INSBASE
 10
0.0
 20
0.0
 30
0.0
  9
$EXTMIN
 10
-97.60000073724768
 20
687.9648332861908
 30
0.0
  9
$EXTMAX
 10
322.3999992627507
 20
984.9648332861908
 30
0.0
  9
$LIMMIN
 10
0.0
 20
0.0
  9
$LIMMAX
 10
12.0
 20
9.0
  9
$ORTHOMODE
 70
     0
  9
$REGENMODE
 70
     1
  9
$FILLMODE
 70
     1
  9
$QTEXTMODE
 70
     0
  9
$MIRRTEXT
 70
     1
  9
$LTSCALE
 40
1.0
  9
$ATTMODE
 70
     1
  9
$TEXTSIZE
 40
0.2
  9
$TRACEWID
 40
0.05
  9
$TEXTSTYLE
  7
Standard
  9
$CLAYER
  8
0
  9
$CELTYPE
  6
ByLayer
  9
$CECOLOR
 62
   256
  9
$CELTSCALE
 40
1.0
  9
$DISPSILH
 70
     0
  9
$DIMSCALE
 40
1.0
  9
$DIMASZ
 40
0.18
  9
$DIMEXO
 40
0.0625
  9
$DIMDLI
 40
0.38
  9
$DIMRND
 40
0.0
  9
$DIMDLE
 40
0.0
  9
$DIMEXE
 40
0.18
  9
$DIMTP
 40
0.0
  9
$DIMTM
 40
0.0
  9
$DIMTXT
 40
0.18
  9
$DIMCEN
 40
0.09
  9
$DIMTSZ
 40
0.0
  9
$DIMTOL
 70
     0
  9
$DIMLIM
 70
     0
  9
$DIMTIH
 70
     1
  9
$DIMTOH
 70
     1
  9
$DIMSE1
 70
     0
  9
$DIMSE2
 70
     0
  9
$DIMTAD
 70
     0
  9
$DIMZIN
 70
     0
  9
$DIMBLK
  1

  9
$DIMASO
 70
     1
  9
$DIMSHO
 70
     1
  9
$DIMPOST
  1

  9
$DIMAPOST
  1

  9
$DIMALT
 70
     0
  9
$DIMALTD
 70
     2
  9
$DIMALTF
 40
25.4
  9
$DIMLFAC
 40
1.0
  9
$DIMTOFL
 70
     0
  9
$DIMTVP
 40
0.0
  9
$DIMTIX
 70
     0
  9
$DIMSOXD
 70
     0
  9
$DIMSAH
 70
     0
  9
$DIMBLK1
  1

  9
$DIMBLK2
  1

  9
$DIMSTYLE
  2
Standard
  9
$DIMCLRD
 70
     0
  9
$DIMCLRE
 70
     0
  9
$DIMCLRT
 70
     0
  9
$DIMTFAC
 40
1.0
  9
$DIMGAP
 40
0.09
  9
$DIMJUST
 70
     0
  9
$DIMSD1
 70
     0
  9
$DIMSD2
 70
     0
  9
$DIMTOLJ
 70
     1
  9
$DIMTZIN
 70
     0
  9
$DIMALTZ
 70
     0
  9
$DIMALTTZ
 70
     0
  9
$DIMUPT
 70
     0
  9
$DIMDEC
 70
     4
  9
$DIMTDEC
 70
     4
  9
$DIMALTU
 70
     2
  9
$DIMALTTD
 70
     2
  9
$DIMTXSTY
  7
Standard
  9
$DIMAUNIT
 70
     0
  9
$DIMADEC
 70
     0
  9
$DIMALTRND
 40
0.0
  9
$DIMAZIN
 70
     0
  9
$DIMDSEP
 70
    46
  9
$DIMATFIT
 70
     3
  9
$DIMFRAC
 70
     0
  9
$DIMLDRBLK
  1

  9
$DIMLUNIT
 70
     2
  9
$DIMLWD
 70
    -2
  9
$DIMLWE
 70
    -2
  9
$DIMTMOVE
 70
     0
  9
$LUNITS
 70
     2
  9
$LUPREC
 70
     4
  9
$SKETCHINC
 40
0.1
  9
$FILLETRAD
 40
0.5
  9
$AUNITS
 70
     0
  9
$AUPREC
 70
     0
  9
$MENU
  1
.
  9
$ELEVATION
 40
0.0
  9
$PELEVATION
 40
0.0
  9
$THICKNESS
 40
0.0
  9
$LIMCHECK
 70
     0
  9
$CHAMFERA
 40
0.5
  9
$CHAMFERB
 40
0.5
  9
$CHAMFERC
 40
1.0
  9
$CHAMFERD
 40
0.0
  9
$SKPOLY
 70
     0
  9
$TDCREATE
 40
2458195.470412813
  9
$TDUCREATE
 40
2458195.428746146
  9
$TDUPDATE
 40
2458195.47041353
  9
$TDUUPDATE
 40
2458195.428746863
  9
$TDINDWG
 40
0.0000000116
  9
$TDUSRTIMER
 40
0.0000000116
  9
$USRTIMER
 70
     1
  9
$ANGBASE
 50
0.0
  9
$ANGDIR
 70
     0
  9
$PDMODE
 70
     0
  9
$PDSIZE
 40
0.0
  9
$PLINEWID
 40
0.0
  9
$SPLFRAME
 70
     0
  9
$SPLINETYPE
 70
     6
  9
$SPLINESEGS
 70
     8
  9
$HANDSEED
  5
4C1
  9
$SURFTAB1
 70
     6
  9
$SURFTAB2
 70
     6
  9
$SURFTYPE
 70
     6
  9
$SURFU
 70
     6
  9
$SURFV
 70
     6
  9
$UCSBASE
  2

  9
$UCSNAME
  2

  9
$UCSORG
 10
0.0
 20
0.0
 30
0.0
  9
$UCSXDIR
 10
1.0
 20
0.0
 30
0.0
  9
$UCSYDIR
 10
0.0
 20
1.0
 30
0.0
  9
$UCSORTHOREF
  2

  9
$UCSORTHOVIEW
 70
     0
  9
$UCSORGTOP
 10
0.0
 20
0.0
 30
0.0
  9
$UCSORGBOTTOM
 10
0.0
 20
0.0
 30
0.0
  9
$UCSORGLEFT
 10
0.0
 20
0.0
 30
0.0
  9
$UCSORGRIGHT
 10
0.0
 20
0.0
 30
0.0
  9
$UCSORGFRONT
 10
0.0
 20
0.0
 30
0.0
  9
$UCSORGBACK
 10
0.0
 20
0.0
 30
0.0
  9
$PUCSBASE
  2

  9
$PUCSNAME
  2

  9
$PUCSORG
 10
0.0
 20
0.0
 30
0.0
  9
$PUCSXDIR
 10
1.0
 20
0.0
 30
0.0
  9
$PUCSYDIR
 10
0.0
 20
1.0
 30
0.0
  9
$PUCSORTHOREF
  2

  9
$PUCSORTHOVIEW
 70
     0
  9
$PUCSORGTOP
 10
0.0
 20
0.0
 30
0.0
  9
$PUCSORGBOTTOM
 10
0.0
 20
0.0
 30
0.0
  9
$PUCSORGLEFT
 10
0.0
 20
0.0
 30
0.0
  9
$PUCSORGRIGHT
 10
0.0
 20
0.0
 30
0.0
  9
$PUCSORGFRONT
 10
0.0
 20
0.0
 30
0.0
  9
$PUCSORGBACK
 10
0.0
 20
0.0
 30
0.0
  9
$USERI1
 70
     0
  9
$USERI2
 70
     0
  9
$USERI3
 70
     0
  9
$USERI4
 70
     0
  9
$USERI5
 70
     0
  9
$USERR1
 40
18.1
  9
$USERR2
 40
0.0
  9
$USERR3
 40
0.0
  9
$USERR4
 40
0.0
  9
$USERR5
 40
0.0
  9
$WORLDVIEW
 70
     1
  9
$SHADEDGE
 70
     3
  9
$SHADEDIF
 70
    70
  9
$TILEMODE
 70
     1
  9
$MAXACTVP
 70
    64
  9
$PINSBASE
 10
0.0
 20
0.0
 30
0.0
  9
$PLIMCHECK
 70
     0
  9
$PEXTMIN
 10
1.00000000000000E+20
 20
1.00000000000000E+20
 30
1.00000000000000E+20
  9
$PEXTMAX
 10
-1.00000000000000E+20
 20
-1.00000000000000E+20
 30
-1.00000000000000E+20
  9
$PLIMMIN
 10
0.0
 20
0.0
  9
$PLIMMAX
 10
12.0
 20
9.0
  9
$UNITMODE
 70
     0
  9
$VISRETAIN
 70
     1
  9
$PLINEGEN
 70
     0
  9
$PSLTSCALE
 70
     1
  9
$TREEDEPTH
 70
  3020
  9
$CMLSTYLE
  2
Standard
  9
$CMLJUST
 70
     0
  9
$CMLSCALE
 40
1.0
  9
$PROXYGRAPHICS
 70
     1
  9
$MEASUREMENT
 70
     1
  9
$CELWEIGHT
370
    -1
  9
$ENDCAPS
280
     0
  9
$JOINSTYLE
280
     0
  9
$LWDISPLAY
290
     0
  9
$INSUNITS
 70
     4
  9
$HYPERLINKBASE
  1

  9
$STYLESHEET
  1

  9
$XEDIT
290
     1
  9
$CEPSNTYPE
380
     0
  9
$PSTYLEMODE
290
     1
  9
$FINGERPRINTGUID
  2
{C2302860-B402-4B46-B709-54D4432B365E}
  9
$VERSIONGUID
  2
{FAEB1C32-E019-11D5-929B-00C0DF256EC4}
  9
$EXTNAMES
290
     1
  9
$PSVPSCALE
 40
0.0
  9
$OLESTARTUP
290
     0
  9
$SORTENTS
280
   127
  9
$INDEXCTL
280
     0
  9
$HIDETEXT
280
     1
  9
$XCLIPFRAME
290
     0
  9
$HALOGAP
280
     0
  9
$OBSCOLOR
 70
   257
  9
$OBSLTYPE
280
     0
  9
$INTERSECTIONDISPLAY
280
     0
  9
$INTERSECTIONCOLOR
 70
   257
  9
$DIMASSOC
280
     2
  9
$PROJECTNAME
  1

  0
ENDSEC
  0
SECTION
  2
CLASSES
  0
CLASS
  1
ACDBDICTIONARYWDFLT
  2
AcDbDictionaryWithDefault
  3
ObjectDBX Classes
 90
        0
 91
        4
280
     0
281
     0
  0
CLASS
  1
VISUALSTYLE
  2
AcDbVisualStyle
  3
ObjectDBX Classes
 90
     4095
 91
        4
280
     0
281
     0
  0
CLASS
  1
MATERIAL
  2
AcDbMaterial
  3
ObjectDBX Classes
 90
     1153
 91
        4
280
     0
281
     0
  0
ENDSEC
  0
SECTION
  2
TABLES
  0
TABLE
  2
VPORT
  5
8
330
0
100
AcDbSymbolTable
 70
     1
  0
VPORT
  5
29
330
8
100
AcDbSymbolTableRecord
100
AcDbViewportTableRecord
  2
*Active
 70
     0
 10
0.0
 20
0.0
 11
1.0
 21
1.0
 12
112.3999992627515
 22
836.4648332861908
 13
0.0
 23
0.0
 14
0.5
 24
0.5
 15
0.5
 25
0.5
 16
0.0
 26
0.0
 36
1.0
 17
0.0
 27
0.0
 37
0.0
 40
326.7
 41
1.60267857142857
 42
50.0
 43
0.0
 44
0.0
 50
0.0
 51
0.0
 71
     0
 72
   100
 73
     1
 74
     3
 75
     0
 76
     0
 77
     0
 78
     0
281
     0
 65
     1
110
0.0
120
0.0
130
0.0
111
1.0
121
0.0
131
0.0
112
0.0
122
1.0
132
0.0
 79
     0
146
0.0
  0
ENDTAB
  0
TABLE
  2
LTYPE
  5
5
330
0
100
AcDbSymbolTable
 70
     8
  0
LTYPE
  5
14
330
5
100
AcDbSymbolTableRecord
100
AcDbLinetypeTableRecord
  2
ByBlock
 70
     0
  3

 72
    65
 73
     0
 40
0.0
  0
LTYPE
  5
15
330
5
100
AcDbSymbolTableRecord
100
AcDbLinetypeTableRecord
  2
ByLayer
 70
     0
  3

 72
    65
 73
     0
 40
0.0
  0
LTYPE
  5
16
330
5
100
AcDbSymbolTableRecord
100
AcDbLinetypeTableRecord
  2
Continuous
 70
     0
  3
Solid line
 72
    65
 73
     0
 40
0.0
  0
LTYPE
  5
3F
330
5
100
AcDbSymbolTableRecord
100
AcDbLinetypeTableRecord
  2
DASHED
 70
     0
  3
Dashed
 72
    65
 73
     2
 40
15.0
 49
7.0
 74
     0
 49
-8.0
 74
     0
  0
LTYPE
  5
40
330
5
100
AcDbSymbolTableRecord
100
AcDbLinetypeTableRecord
  2
DOTTED
 70
     0
  3
Dotted
 72
    65
 73
     2
 40
1.0
 49
0.0
 74
     0
 49
-1.0
 74
     0
  0
LTYPE
  5
41
330
5
100
AcDbSymbolTableRecord
100
AcDbLinetypeTableRecord
  2
DOT_CENTER
 70
     0
  3
Dot_Center
 72
    65
 73
     4
 40
14.0
 49
12.0
 74
     0
 49
-1.0
 74
     0
 49
0.0
 74
     0
 49
-1.0
 74
     0
  0
LTYPE
  5
42
330
5
100
AcDbSymbolTableRecord
100
AcDbLinetypeTableRecord
  2
LONG_DASHED
 70
     0
  3
Long_Dashed
 72
    65
 73
     2
 40
15.0
 49
10.0
 74
     0
 49
-5.0
 74
     0
  0
LTYPE
  5
43
330
5
100
AcDbSymbolTableRecord
100
AcDbLinetypeTableRecord
  2
DASH_CENTER
 70
     0
  3
Dash_Center
 72
    65
 73
     4
 40
14.0
 49
11.0
 74
     0
 49
-1.0
 74
     0
 49
1.0
 74
     0
 49
-1.0
 74
     0
  0
LTYPE
  5
44
330
5
100
AcDbSymbolTableRecord
100
AcDbLinetypeTableRecord
  2
PHANTOM
 70
     0
  3
Phantom
 72
    65
 73
     6
 40
13.0
 49
10.0
 74
     0
 49
-1.0
 74
     0
 49
0.0
 74
     0
 49
-1.0
 74
     0
 49
0.0
 74
     0
 49
-1.0
 74
     0
  0
LTYPE
  5
45
330
5
100
AcDbSymbolTableRecord
100
AcDbLinetypeTableRecord
  2
CENTER_DASH_DASH
 70
     0
  3
Center_Dash_Dash
 72
    65
 73
     6
 40
14.0
 49
9.0
 74
     0
 49
-1.0
 74
     0
 49
1.0
 74
     0
 49
-1.0
 74
     0
 49
1.0
 74
     0
 49
-1.0
 74
     0
  0
ENDTAB
  0
TABLE
  2
LAYER
  5
2
330
0
100
AcDbSymbolTable
 70
     2
  0
LAYER
  5
10
330
2
100
AcDbSymbolTableRecord
100
AcDbLayerTableRecord
  2
0
 70
     0
 62
     7
  6
Continuous
370
    -3
390
F
  0
LAYER
  5
46
330
2
100
AcDbSymbolTableRecord
100
AcDbLayerTableRecord
  2
1
 70
     0
 62
     7
  6
Continuous
370
    -3
390
F
  0
ENDTAB
  0
TABLE
  2
STYLE
  5
3
330
0
100
AcDbSymbolTable
 70
     5
  0
STYLE
  5
11
330
3
100
AcDbSymbolTableRecord
100
AcDbTextStyleTableRecord
  2
Standard
 70
     0
 40
0.0
 41
1.0
 50
0.0
 71
     0
 42
0.2
  3
txt
  4

  0
STYLE
  5
125
330
3
100
AcDbSymbolTableRecord
100
AcDbTextStyleTableRecord
  2
CONVERTER_11
 70
     0
 40
0.0
 41
0.9
 50
0.0
 71
     0
 42
0.2
  3
txt.shx
  4

  0
STYLE
  5
465
330
3
100
AcDbSymbolTableRecord
100
AcDbTextStyleTableRecord
  2
CONVERTER_12
 70
     0
 40
0.0
 41
0.81
 50
0.0
 71
     0
 42
0.2
  3
txt.shx
  4

  0
STYLE
  5
46B
330
3
100
AcDbSymbolTableRecord
100
AcDbTextStyleTableRecord
  2
CONVERTER_13
 70
     0
 40
0.0
 41
0.855
 50
0.0
 71
     0
 42
0.2
  3
txt.shx
  4

  0
STYLE
  5
46E
330
3
100
AcDbSymbolTableRecord
100
AcDbTextStyleTableRecord
  2
CONVERTER_14
 70
     0
 40
0.0
 41
0.72
 50
0.0
 71
     0
 42
0.2
  3
txt.shx
  4

  0
ENDTAB
  0
TABLE
  2
VIEW
  5
6
330
0
100
AcDbSymbolTable
 70
     0
  0
ENDTAB
  0
TABLE
  2
UCS
  5
7
330
0
100
AcDbSymbolTable
 70
     0
  0
ENDTAB
  0
TABLE
  2
APPID
  5
9
330
0
100
AcDbSymbolTable
 70
     1
  0
APPID
  5
12
330
9
100
AcDbSymbolTableRecord
100
AcDbRegAppTableRecord
  2
ACAD
 70
     0
  0
ENDTAB
  0
TABLE
  2
DIMSTYLE
  5
A
330
0
100
AcDbSymbolTable
 70
     8
100
AcDbDimStyleTable
  0
DIMSTYLE
105
27
330
A
100
AcDbSymbolTableRecord
100
AcDbDimStyleTableRecord
  2
Standard
 70
     0
178
     0
340
11
  0
DIMSTYLE
105
167
102
{ACAD_REACTORS
330
168
102
}
330
A
100
AcDbSymbolTableRecord
100
AcDbDimStyleTableRecord
  2
ME10_DIM_10
 70
     0
 41
3.5
 42
0.0
 44
1.5
 73
     0
 74
     0
 77
     1
 78
     8
140
3.5
147
1.5
172
     1
173
     1
174
     1
175
     1
176
     2
177
     2
178
     3
340
125
  0
DIMSTYLE
105
309
102
{ACAD_REACTORS
330
30A
102
}
330
A
100
AcDbSymbolTableRecord
100
AcDbDimStyleTableRecord
  2
ME10_DIM_11
 70
     0
 41
3.5
 42
0.0
 44
1.5
 73
     0
 74
     0
 77
     1
 78
     8
140
3.5
147
1.5
172
     1
173
     1
174
     1
175
     1
176
     2
177
     2
178
     3
340
125
  0
DIMSTYLE
105
314
102
{ACAD_REACTORS
330
315
102
}
330
A
100
AcDbSymbolTableRecord
100
AcDbDimStyleTableRecord
  2
ME10_DIM_12
 70
     0
 41
3.5
 42
0.0
 44
1.5
 73
     0
 74
     0
 77
     1
 78
     8
140
3.5
147
1.5
172
     1
173
     1
174
     1
175
     1
176
     2
177
     2
271
     2
178
     3
271
     2
340
125
  0
DIMSTYLE
105
31F
102
{ACAD_REACTORS
330
320
102
}
330
A
100
AcDbSymbolTableRecord
100
AcDbDimStyleTableRecord
  2
ME10_DIM_13
 70
     0
 41
3.5
 42
0.0
 44
1.5
 73
     0
 74
     0
 77
     1
 78
     8
140
3.5
147
1.5
172
     1
173
     1
174
     1
175
     1
176
     2
177
     2
271
     2
178
     3
271
     2
340
125
  0
DIMSTYLE
105
32A
102
{ACAD_REACTORS
330
32B
102
}
330
A
100
AcDbSymbolTableRecord
100
AcDbDimStyleTableRecord
  2
ME10_DIM_14
 70
     0
 41
3.5
 42
0.0
 44
1.5
 73
     0
 74
     0
 77
     1
 78
     8
140
3.5
147
1.5
172
     1
173
     1
174
     1
175
     1
176
     2
177
     2
271
     2
178
     3
271
     2
340
125
  0
DIMSTYLE
105
335
102
{ACAD_REACTORS
330
336
102
}
330
A
100
AcDbSymbolTableRecord
100
AcDbDimStyleTableRecord
  2
ME10_DIM_15
 70
     0
 41
3.5
 42
0.0
 44
1.5
 73
     0
 74
     0
 77
     1
 78
     8
140
3.5
147
1.5
172
     1
173
     1
174
     1
175
     1
176
     2
177
     2
178
     3
340
125
  0
DIMSTYLE
105
340
102
{ACAD_REACTORS
330
341
102
}
330
A
100
AcDbSymbolTableRecord
100
AcDbDimStyleTableRecord
  2
ME10_DIM_16
 70
     0
 41
3.5
 42
0.0
 44
1.5
 73
     0
 74
     0
 77
     1
 78
     8
140
3.5
147
1.5
172
     1
173
     1
174
     1
175
     1
176
     2
177
     2
271
     2
178
     3
271
     2
340
125
  0
ENDTAB
  0
TABLE
  2
BLOCK_RECORD
  5
1
330
0
100
AcDbSymbolTable
 70
    25
  0
BLOCK_RECORD
  5
1F
330
1
100
AcDbSymbolTableRecord
100
AcDbBlockTableRecord
  2
*Model_Space
340
22
  0
BLOCK_RECORD
  5
1B
330
1
100
AcDbSymbolTableRecord
100
AcDbBlockTableRecord
  2
*Paper_Space
340
1E
  0
BLOCK_RECORD
  5
23
330
1
100
AcDbSymbolTableRecord
100
AcDbBlockTableRecord
  2
*Paper_Space0
340
26
  0
BLOCK_RECORD
  5
47
330
1
100
AcDbSymbolTableRecord
100
AcDbBlockTableRecord
  2
UHV_50_M10_M10_select__1
340
0
102
{BLKREFS
331
4B
102
}
  0
BLOCK_RECORD
  5
4A
330
1
100
AcDbSymbolTableRecord
100
AcDbBlockTableRecord
  2
Allg1
340
0
102
{BLKREFS
331
7D
102
}
  0
BLOCK_RECORD
  5
4E
330
1
100
AcDbSymbolTableRecord
100
AcDbBlockTableRecord
  2
UHV_50_M10_M10_select__2
340
0
102
{BLKREFS
331
52
102
}
  0
BLOCK_RECORD
  5
51
330
1
100
AcDbSymbolTableRecord
100
AcDbBlockTableRecord
  2
Drfsicht1
340
0
102
{BLKREFS
331
7E
102
}
  0
BLOCK_RECORD
  5
55
330
1
100
AcDbSymbolTableRecord
100
AcDbBlockTableRecord
  2
UHV_50_M10_M10_select__3
340
0
102
{BLKREFS
331
59
102
}
  0
BLOCK_RECORD
  5
58
330
1
100
AcDbSymbolTableRecord
100
AcDbBlockTableRecord
  2
Rckans1
340
0
102
{BLKREFS
331
7F
102
}
  0
BLOCK_RECORD
  5
5C
330
1
100
AcDbSymbolTableRecord
100
AcDbBlockTableRecord
  2
UHV_50_M10_M10_select__4
340
0
102
{BLKREFS
331
60
102
}
  0
BLOCK_RECORD
  5
5F
330
1
100
AcDbSymbolTableRecord
100
AcDbBlockTableRecord
  2
SA_Links1
340
0
102
{BLKREFS
331
80
102
}
  0
BLOCK_RECORD
  5
63
330
1
100
AcDbSymbolTableRecord
100
AcDbBlockTableRecord
  2
UHV_50_M10_M10_select__5
340
0
102
{BLKREFS
331
67
102
}
  0
BLOCK_RECORD
  5
66
330
1
100
AcDbSymbolTableRecord
100
AcDbBlockTableRecord
  2
SA_Rechts1
340
0
102
{BLKREFS
331
81
102
}
  0
BLOCK_RECORD
  5
6A
330
1
100
AcDbSymbolTableRecord
100
AcDbBlockTableRecord
  2
UHV_50_M10_M10_select__6
340
0
102
{BLKREFS
331
6E
102
}
  0
BLOCK_RECORD
  5
6D
330
1
100
AcDbSymbolTableRecord
100
AcDbBlockTableRecord
  2
Vordans1
340
0
102
{BLKREFS
331
82
102
}
  0
BLOCK_RECORD
  5
71
330
1
100
AcDbSymbolTableRecord
100
AcDbBlockTableRecord
  2
_rahmen
340
0
102
{BLKREFS
331
78
102
}
  0
BLOCK_RECORD
  5
74
330
1
100
AcDbSymbolTableRecord
100
AcDbBlockTableRecord
  2
_punkt
340
0
102
{BLKREFS
331
79
102
}
  0
BLOCK_RECORD
  5
77
330
1
100
AcDbSymbolTableRecord
100
AcDbBlockTableRecord
  2
A3I_CS
340
0
102
{BLKREFS
331
83
102
}
  0
BLOCK_RECORD
  5
7C
330
1
100
AcDbSymbolTableRecord
100
AcDbBlockTableRecord
  2
1
340
0
102
{BLKREFS
331
86
102
}
  0
BLOCK_RECORD
  5
15E
330
1
100
AcDbSymbolTableRecord
100
AcDbBlockTableRecord
  2
*D17
340
0
  0
BLOCK_RECORD
  5
300
330
1
100
AcDbSymbolTableRecord
100
AcDbBlockTableRecord
  2
*D18
340
0
  0
BLOCK_RECORD
  5
30B
330
1
100
AcDbSymbolTableRecord
100
AcDbBlockTableRecord
  2
*D19
340
0
  0
BLOCK_RECORD
  5
316
330
1
100
AcDbSymbolTableRecord
100
AcDbBlockTableRecord
  2
*D20
340
0
  0
BLOCK_RECORD
  5
321
330
1
100
AcDbSymbolTableRecord
100
AcDbBlockTableRecord
  2
*D21
340
0
  0
BLOCK_RECORD
  5
32C
330
1
100
AcDbSymbolTableRecord
100
AcDbBlockTableRecord
  2
*D22
340
0
  0
BLOCK_RECORD
  5
337
330
1
100
AcDbSymbolTableRecord
100
AcDbBlockTableRecord
  2
*D23
340
0
  0
BLOCK_RECORD
  5
342
330
1
100
AcDbSymbolTableRecord
100
AcDbBlockTableRecord
  2
*D24
340
0
102
{BLKREFS
331
34B
102
}
  0
ENDTAB
  0
ENDSEC
  0
SECTION
  2
BLOCKS
  0
BLOCK
  5
20
330
1F
100
AcDbEntity
  8
0
100
AcDbBlockBegin
  2
*Model_Space
 70
     0
 10
0.0
 20
0.0
 30
0.0
  3
*Model_Space
  1

  0
ENDBLK
  5
21
330
1F
100
AcDbEntity
  8
0
100
AcDbBlockEnd
  0
BLOCK
  5
1C
330
1B
100
AcDbEntity
 67
     1
  8
0
100
AcDbBlockBegin
  2
*Paper_Space
 70
     0
 10
0.0
 20
0.0
 30
0.0
  3
*Paper_Space
  1

  0
ENDBLK
  5
1D
330
1B
100
AcDbEntity
 67
     1
  8
0
100
AcDbBlockEnd
  0
BLOCK
  5
24
330
23
100
AcDbEntity
  8
0
100
AcDbBlockBegin
  2
*Paper_Space0
 70
     0
 10
0.0
 20
0.0
 30
0.0
  3
*Paper_Space0
  1

  0
ENDBLK
  5
25
330
23
100
AcDbEntity
  8
0
100
AcDbBlockEnd
  0
BLOCK
  5
48
330
47
100
AcDbEntity
  8
0
100
AcDbBlockBegin
  2
UHV_50_M10_M10_select__1
 70
     0
 10
196.9671974495845
 20
765.7613041432273
 30
0.0
  3
UHV_50_M10_M10_select__1
  1

  0
LINE
  5
87
330
47
100
AcDbEntity
  8
0
  6
Continuous
 62
     7
100
AcDbLine
 10
246.6168374713103
 20
770.6071689228777
 30
0.0
 11
246.6168374713103
 21
772.425822270825
 31
0.0
  0
LINE
  5
88
330
47
100
AcDbEntity
  8
0
  6
Continuous
 62
     7
100
AcDbLine
 10
253.6516671858755
 20
766.3680237285237
 30
0.0
 11
253.4584603027262
 21
768.6321625311717
 31
0.0
  0
LINE
  5
89
330
47
100
AcDbEntity
  8
0
  6
Continuous
 62
     7
100
AcDbLine
 10
255.7534054812361
 20
776.846429311668
 30
0.0
 11
255.7534054812361
 21
765.7613041432273
 31
0.0
  0
LINE
  5
8A
330
47
100
AcDbEntity
  8
0
  6
Continuous
 62
     7
100
AcDbLine
 10
248.1404229442955
 20
818.4309434343038
 30
0.0
 11
247.3608214019583
 21
820.4919688704913
 31
0.0
  0
LINE
  5
8B
330
47
100
AcDbEntity
  8
0
  6
Continuous
 62
     7
100
AcDbLine
 10
249.1542823544271
 20
802.826938293715
 30
0.0
 11
252.8955216487476
 21
780.5293131441565
 31
0.0
  0
LINE
  5
8C
330
47
100
AcDbEntity
  8
0
  6
Continuous
 62
     7
100
AcDbLine
 10
251.0891745169995
 20
816.6444047410797
 30
0.0
 11
247.6970179375579
 21
817.6236359982166
 31
0.0
  0
LINE
  5
8D
330
47
100
AcDbEntity
  8
0
  6
Continuous
 62
     7
100
AcDbLine
 10
253.4584603027262
 20
768.6321625311717
 30
0.0
 11
246.6168374713103
 21
770.6071689228777
 31
0.0
  0
LINE
  5
8E
330
47
100
AcDbEntity
  8
0
  6
Continuous
 62
     7
100
AcDbLine
 10
255.7534054812361
 20
765.7613041432273
 30
0.0
 11
253.6516671858755
 21
766.3680237285237
 31
0.0
  0
LINE
  5
8F
330
47
100
AcDbEntity
  8
0
  6
Continuous
 62
     7
100
AcDbLine
 10
221.2422931404262
 20
774.5113685779293
 30
0.0
 11
218.2545054973699
 21
777.0988685779291
 31
0.0
  0
LINE
  5
90
330
47
100
AcDbEntity
  8
0
  6
Continuous
 62
     7
100
AcDbLine
 10
220.8565403993639
 20
772.9068689936821
 30
0.0
 11
222.0650172740214
 21
773.9534406670216
 31
0.0
  0
LINE
  5
91
330
47
100
AcDbEntity
  8
0
  6
Continuous
 62
     7
100
AcDbLine
 10
246.6168374713103
 20
772.425822270825
 30
0.0
 11
236.137930085498
 21
775.4508222708309
 31
0.0
  0
LINE
  5
92
330
47
100
AcDbEntity
  8
0
  6
Continuous
 62
     7
100
AcDbLine
 10
222.0650172740214
 20
772.8449266616848
 30
0.0
 11
222.0650172740214
 21
774.2738685779292
 31
0.0
  0
LINE
  5
93
330
47
100
AcDbEntity
  8
0
  6
Continuous
 62
     7
100
AcDbLine
 10
230.046655738151
 20
775.390568364958
 30
0.0
 11
224.8795998363208
 21
770.9157666911988
 31
0.0
  0
LINE
  5
94
330
47
100
AcDbEntity
  8
0
  6
Continuous
 62
     7
100
AcDbLine
 10
224.8795998363209
 20
774.7545713129165
 30
0.0
 11
224.8795998363208
 21
770.9157666911988
 31
0.0
  0
LINE
  5
95
330
47
100
AcDbEntity
  8
0
  6
Continuous
 62
     7
100
AcDbLine
 10
220.9589425107115
 20
772.969192119403
 30
0.0
 11
222.0650172740214
 21
772.8449266616848
 31
0.0
  0
LINE
  5
96
330
47
100
AcDbEntity
  8
0
  6
Continuous
 62
     7
100
AcDbLine
 10
222.8444401374275
 20
776.5170713129164
 30
0.0
 11
224.8795998363209
 21
774.7545713129165
 31
0.0
  0
LINE
  5
97
330
47
100
AcDbEntity
  8
0
  6
Continuous
 62
     7
100
AcDbLine
 10
223.6694138672382
 20
777.2315195203875
 30
0.0
 11
222.8444401374275
 21
776.5170713129164
 31
0.0
  0
LINE
  5
98
330
47
100
AcDbEntity
  8
0
  6
Continuous
 62
     7
100
AcDbLine
 10
226.7221534155783
 20
776.3502695203874
 30
0.0
 11
224.8795998363209
 21
774.7545713129165
 31
0.0
  0
LINE
  5
99
330
47
100
AcDbEntity
  8
0
  6
Continuous
 62
     7
100
AcDbLine
 10
236.137930085498
 20
775.4508222708309
 30
0.0
 11
235.9788185346692
 21
773.6781004712348
 31
0.0
  0
LINE
  5
9A
330
47
100
AcDbEntity
  8
0
  6
Continuous
 62
     7
100
AcDbLine
 10
237.5538185346691
 20
775.0420904821951
 30
0.0
 11
235.9788185346692
 21
773.6781004712348
 31
0.0
  0
LINE
  5
9B
330
47
100
AcDbEntity
  8
0
  6
Continuous
 62
     7
100
AcDbLine
 10
222.8444401374274
 20
777.4696689228778
 30
0.0
 11
222.8444401374275
 21
776.5170713129164
 31
0.0
  0
LINE
  5
9C
330
47
100
AcDbEntity
  8
0
  6
Continuous
 62
     7
100
AcDbLine
 10
222.0650172740214
 20
774.2738685779292
 30
0.0
 11
221.2422931404262
 21
774.5113685779293
 31
0.0
  0
LINE
  5
9D
330
47
100
AcDbEntity
  8
0
  6
Continuous
 62
     7
100
AcDbLine
 10
222.0650172740214
 20
773.9270809629144
 30
0.0
 11
220.9589425107115
 21
772.969192119403
 31
0.0
  0
LINE
  5
9E
330
47
100
AcDbEntity
  8
0
  6
Continuous
 62
     7
100
AcDbLine
 10
252.7530616460661
 20
797.8460520505079
 30
0.0
 11
253.2111725800645
 21
795.1157306036232
 31
0.0
  0
LINE
  5
9F
330
47
100
AcDbEntity
  8
0
  6
Continuous
 62
     7
100
AcDbLine
 10
232.8470179375579
 20
804.7631587520177
 30
0.0
 11
238.3029779813998
 21
803.1881587520177
 31
0.0
  0
LINE
  5
A0
330
47
100
AcDbEntity
  8
0
  6
Continuous
 62
     7
100
AcDbLine
 10
238.6391745169993
 20
805.8623884639634
 30
0.0
 11
249.1542823544271
 21
802.826938293715
 31
0.0
  0
LINE
  5
A1
330
47
100
AcDbEntity
  8
0
  6
Continuous
 62
     7
100
AcDbLine
 10
235.9788185346692
 20
773.6781004712348
 30
0.0
 11
222.8444401374274
 21
777.4696689228778
 31
0.0
  0
LINE
  5
A2
330
47
100
AcDbEntity
  8
0
  6
Continuous
 62
     7
100
AcDbLine
 10
238.3029779813998
 20
803.1881587520177
 30
0.0
 11
238.3029779813998
 21
804.1234661881049
 31
0.0
  0
LINE
  5
A3
330
47
100
AcDbEntity
  8
0
  6
Continuous
 62
     7
100
AcDbLine
 10
238.3029779813998
 20
804.1234661881049
 30
0.0
 11
237.8595729746622
 21
804.2514661881048
 31
0.0
  0
LINE
  5
A4
330
47
100
AcDbEntity
  8
0
  6
Continuous
 62
     7
100
AcDbLine
 10
237.8595729746622
 20
804.2514661881048
 30
0.0
 11
238.6391745169993
 21
805.8623884639634
 31
0.0
  0
LINE
  5
A5
330
47
100
AcDbEntity
  8
0
  6
Continuous
 62
     7
100
AcDbLine
 10
270.9480547619005
 20
800.5813398857982
 30
0.0
 11
266.3292526083835
 21
804.5813398857982
 31
0.0
  0
LINE
  5
A6
330
47
100
AcDbEntity
  8
0
  6
Continuous
 62
     7
100
AcDbLine
 10
280.1856590689346
 20
800.5813398857982
 30
0.0
 11
270.9480547619005
 21
800.5813398857982
 31
0.0
  0
LINE
  5
A7
330
47
100
AcDbEntity
  8
0
  6
Continuous
 62
     7
100
AcDbLine
 10
284.8044612224516
 20
798.8828927288966
 30
0.0
 11
284.8044612224516
 21
804.5813398857982
 31
0.0
  0
LINE
  5
A8
330
47
100
AcDbEntity
  8
0
  6
Continuous
 62
     7
100
AcDbLine
 10
284.8044612224516
 20
804.5813398857982
 30
0.0
 11
280.1856590689346
 21
800.5813398857982
 31
0.0
  0
LINE
  5
A9
330
47
100
AcDbEntity
  8
0
  6
Continuous
 62
     7
100
AcDbLine
 10
267.9642537629099
 20
777.607993221383
 30
0.0
 11
264.8468661123412
 21
774.9082563225467
 31
0.0
  0
LINE
  5
AA
330
47
100
AcDbEntity
  8
0
  6
Continuous
 62
     2
100
AcDbLine
 10
264.8239181833283
 20
770.6048313295936
 30
0.0
 11
262.0489181833283
 21
768.2016108340919
 31
0.0
  0
LINE
  5
AB
330
47
100
AcDbEntity
  8
0
  6
Continuous
 62
     7
100
AcDbLine
 10
265.1035367032827
 20
770.5241124157105
 30
0.0
 11
261.8375464502519
 21
767.6956818880734
 31
0.0
  0
LINE
  5
AC
330
47
100
AcDbEntity
  8
0
  6
Continuous
 62
     7
100
AcDbLine
 10
259.7261194021977
 20
769.2017753207482
 30
0.0
 11
260.5374125749477
 21
768.0605756217235
 31
0.0
  0
LINE
  5
AD
330
47
100
AcDbEntity
  8
0
  6
Continuous
 62
     7
100
AcDbLine
 10
262.0489181833283
 20
768.2016108340919
 30
0.0
 11
262.0489181833283
 21
771.2133780730869
 31
0.0
  0
LINE
  5
AE
330
47
100
AcDbEntity
  8
0
  6
Continuous
 62
     7
100
AcDbLine
 10
262.2156512440729
 20
771.3577731393424
 30
0.0
 11
255.7534054812361
 21
765.7613041432273
 31
0.0
  0
LINE
  5
AF
330
47
100
AcDbEntity
  8
0
  6
Continuous
 62
     7
100
AcDbLine
 10
262.4856473560028
 20
775.1377977023853
 30
0.0
 11
262.0659054812861
 21
776.6699534610826
 31
0.0
  0
LINE
  5
B0
330
47
100
AcDbEntity
  8
0
  6
Continuous
 62
     7
100
AcDbLine
 10
262.0659054812861
 20
771.4010010175699
 30
0.0
 11
266.9419585480333
 21
769.9934057422353
 31
0.0
  0
LINE
  5
B1
330
47
100
AcDbEntity
  8
0
  6
Continuous
 62
     7
100
AcDbLine
 10
266.9419585480333
 20
769.9934057422353
 30
0.0
 11
266.9419585480333
 21
772.1584692516964
 31
0.0
  0
LINE
  5
B2
330
47
100
AcDbEntity
  8
0
  6
Continuous
 62
     7
100
AcDbLine
 10
270.9480547619005
 20
794.8828927288966
 30
0.0
 11
266.3292526083835
 21
798.8828927288966
 31
0.0
  0
LINE
  5
B3
330
47
100
AcDbEntity
  8
0
  6
Continuous
 62
     7
100
AcDbLine
 10
266.3329980387422
 20
774.0810391407449
 30
0.0
 11
266.3329980387422
 21
773.2147201691135
 31
0.0
  0
LINE
  5
B4
330
47
100
AcDbEntity
  8
0
  6
Continuous
 62
     7
100
AcDbLine
 10
266.3329980387422
 20
774.0810391407449
 30
0.0
 11
265.570498038811
 21
773.4206947704189
 31
0.0
  0
LINE
  5
B5
330
47
100
AcDbEntity
  8
0
  6
Continuous
 62
     7
100
AcDbLine
 10
262.4856473560028
 20
775.1377977023853
 30
0.0
 11
263.2481473559339
 21
775.7981420727114
 31
0.0
  0
LINE
  5
B6
330
47
100
AcDbEntity
  8
0
  6
Continuous
 62
     7
100
AcDbLine
 10
265.570498038811
 20
773.4206947704189
 30
0.0
 11
262.4856473560028
 21
775.1377977023853
 31
0.0
  0
LINE
  5
B7
330
47
100
AcDbEntity
  8
0
  6
Continuous
 62
     7
100
AcDbLine
 10
266.3329980387422
 20
774.0810391407449
 30
0.0
 11
263.2481473559339
 21
775.7981420727114
 31
0.0
  0
LINE
  5
B8
330
47
100
AcDbEntity
  8
0
  6
Continuous
 62
     7
100
AcDbLine
 10
263.577858813872
 20
777.9793434564386
 30
0.0
 11
262.0659054812861
 21
776.6699534610826
 31
0.0
  0
LINE
  5
B9
330
47
100
AcDbEntity
  8
0
  6
Continuous
 62
     7
100
AcDbLine
 10
265.570498038811
 20
772.5543757987875
 30
0.0
 11
265.570498038811
 21
773.4206947704189
 31
0.0
  0
LINE
  5
BA
330
47
100
AcDbEntity
  8
0
  6
Continuous
 62
     7
100
AcDbLine
 10
266.9419585480333
 20
772.1584692516964
 30
0.0
 11
265.570498038811
 21
772.5543757987875
 31
0.0
  0
LINE
  5
BB
330
47
100
AcDbEntity
  8
0
  6
Continuous
 62
     7
100
AcDbLine
 10
265.570498038811
 20
772.5543757987875
 30
0.0
 11
266.3329980387422
 21
773.2147201691135
 31
0.0
  0
LINE
  5
BC
330
47
100
AcDbEntity
  8
0
  6
Continuous
 62
     7
100
AcDbLine
 10
262.0659054812861
 20
771.4010010175699
 30
0.0
 11
262.0659054812861
 21
776.6699534610826
 31
0.0
  0
LINE
  5
BD
330
47
100
AcDbEntity
  8
0
  6
Continuous
 62
     7
100
AcDbLine
 10
262.0659054812861
 20
778.4158067882239
 30
0.0
 11
262.0659054812861
 21
780.1478575957927
 31
0.0
  0
LINE
  5
BE
330
47
100
AcDbEntity
  8
0
  6
Continuous
 62
     7
100
AcDbLine
 10
267.5668569154176
 20
797.8110959591721
 30
0.0
 11
267.5668569154175
 21
797.0482129126785
 31
0.0
  0
LINE
  5
BF
330
47
100
AcDbEntity
  8
0
  6
Continuous
 62
     7
100
AcDbLine
 10
266.3292526083835
 20
798.8828927288966
 30
0.0
 11
266.3292526083835
 21
804.5813398857982
 31
0.0
  0
LINE
  5
C0
330
47
100
AcDbEntity
  8
0
  6
Continuous
 62
     7
100
AcDbLine
 10
264.0042823544271
 20
815.6874155399139
 30
0.0
 11
265.6868483177244
 21
805.6593948260388
 31
0.0
  0
LINE
  5
C1
330
47
100
AcDbEntity
  8
0
  6
Continuous
 62
     7
100
AcDbLine
 10
267.0409054812861
 20
784.4563339796204
 30
0.0
 11
262.0659054812861
 21
780.1478575957927
 31
0.0
  0
LINE
  5
C2
330
47
100
AcDbEntity
  8
0
  6
Continuous
 62
     7
100
AcDbLine
 10
262.7530616460661
 20
806.5063060883522
 30
0.0
 11
267.1022745006425
 21
805.2507964821759
 31
0.0
  0
LINE
  5
C3
330
47
100
AcDbEntity
  8
0
  6
Continuous
 62
     7
100
AcDbLine
 10
201.3773473245507
 20
823.3313398857982
 30
0.0
 11
205.9961494780677
 21
827.3313398857982
 31
0.0
  0
LINE
  5
C4
330
47
100
AcDbEntity
  8
0
  6
Continuous
 62
     7
100
AcDbLine
 10
219.8525559386187
 20
823.3313398857982
 30
0.0
 11
215.2337537851017
 21
819.3313398857982
 31
0.0
  0
LINE
  5
C5
330
47
100
AcDbEntity
  8
0
  6
Continuous
 62
     7
100
AcDbLine
 10
215.2337537851017
 20
827.3313398857982
 30
0.0
 11
219.8525559386187
 21
823.3313398857982
 31
0.0
  0
LINE
  5
C6
330
47
100
AcDbEntity
  8
0
  6
Continuous
 62
     7
100
AcDbLine
 10
205.9961494780677
 20
827.3313398857982
 30
0.0
 11
215.2337537851017
 21
827.3313398857982
 31
0.0
  0
LINE
  5
C7
330
47
100
AcDbEntity
  8
0
  6
Continuous
 62
     7
100
AcDbLine
 10
219.8525559386187
 20
817.6328927288966
 30
0.0
 11
219.8525559386187
 21
823.3313398857982
 31
0.0
  0
LINE
  5
C8
330
47
100
AcDbEntity
  8
0
  6
Continuous
 62
     7
100
AcDbLine
 10
201.3773473245507
 20
817.6328927288966
 30
0.0
 11
201.3773473245507
 21
823.3313398857982
 31
0.0
  0
LINE
  5
C9
330
47
100
AcDbEntity
  8
0
  6
Continuous
 62
     7
100
AcDbLine
 10
205.6149516315847
 20
808.1803517141717
 30
0.0
 11
205.6149516315847
 21
800.3123846532079
 31
0.0
  0
LINE
  5
CA
330
47
100
AcDbEntity
  8
0
  6
Continuous
 62
     7
100
AcDbLine
 10
215.6149516315847
 20
805.997691926728
 30
0.0
 11
215.6149516315847
 21
800.3123846532078
 31
0.0
  0
LINE
  5
CB
330
47
100
AcDbEntity
  8
0
  6
Continuous
 62
     7
100
AcDbLine
 10
218.6149516315847
 20
816.5610959591721
 30
0.0
 11
218.6149516315847
 21
815.7982129126785
 31
0.0
  0
LINE
  5
CC
330
47
100
AcDbEntity
  8
0
  6
Continuous
 62
     7
100
AcDbLine
 10
219.8525559386187
 20
817.6328927288966
 30
0.0
 11
215.2337537851017
 21
813.6328927288966
 31
0.0
  0
LINE
  5
CD
330
47
100
AcDbEntity
  8
0
  6
Continuous
 62
     7
100
AcDbLine
 10
205.9961494780677
 20
813.6328927288966
 30
0.0
 11
205.9961494780676
 21
819.3313398857982
 31
0.0
  0
LINE
  5
CE
330
47
100
AcDbEntity
  8
0
  6
Continuous
 62
     7
100
AcDbLine
 10
215.2337537851017
 20
819.3313398857982
 30
0.0
 11
205.9961494780676
 21
819.3313398857982
 31
0.0
  0
LINE
  5
CF
330
47
100
AcDbEntity
  8
0
  6
Continuous
 62
     7
100
AcDbLine
 10
215.2337537851017
 20
813.6328927288966
 30
0.0
 11
215.2337537851017
 21
819.3313398857982
 31
0.0
  0
LINE
  5
D0
330
47
100
AcDbEntity
  8
0
  6
Continuous
 62
     7
100
AcDbLine
 10
202.6149516315847
 20
816.5610959591721
 30
0.0
 11
202.6149516315847
 21
815.7982129126785
 31
0.0
  0
LINE
  5
D1
330
47
100
AcDbEntity
  8
0
  6
Continuous
 62
     7
100
AcDbLine
 10
205.9961494780677
 20
813.6328927288966
 30
0.0
 11
201.3773473245507
 21
817.6328927288966
 31
0.0
  0
LINE
  5
D2
330
47
100
AcDbEntity
  8
0
  6
Continuous
 62
     7
100
AcDbLine
 10
196.9671974495845
 20
813.9789110864612
 30
0.0
 11
196.9671974495845
 21
811.3808348751078
 31
0.0
  0
LINE
  5
D3
330
47
100
AcDbEntity
  8
0
  6
Continuous
 62
     7
100
AcDbLine
 10
215.2337537851017
 20
813.6328927288966
 30
0.0
 11
205.9961494780677
 21
813.6328927288966
 31
0.0
  0
LINE
  5
D4
330
47
100
AcDbEntity
  8
0
  6
Continuous
 62
     7
100
AcDbLine
 10
221.3057524600213
 20
806.95297544298
 30
0.0
 11
196.9671974495845
 21
813.9789110864612
 31
0.0
  0
LINE
  5
D5
330
47
100
AcDbEntity
  8
0
  6
Continuous
 62
     7
100
AcDbLine
 10
219.8525559386187
 20
818.9194825281811
 30
0.0
 11
228.6068653063107
 21
816.392331093178
 31
0.0
  0
LINE
  5
D6
330
47
100
AcDbEntity
  8
0
  6
Continuous
 62
     7
100
AcDbLine
 10
196.9671974495845
 20
813.9789110864612
 30
0.0
 11
201.3773473245507
 21
817.7982129126785
 31
0.0
  0
LINE
  5
D7
330
47
100
AcDbEntity
  8
0
  6
Continuous
 62
     7
100
AcDbLine
 10
205.9961494780676
 20
819.3313398857982
 30
0.0
 11
201.3773473245507
 21
823.3313398857982
 31
0.0
  0
LINE
  5
D8
330
47
100
AcDbEntity
  8
0
  6
Continuous
 62
     7
100
AcDbLine
 10
196.9671974495845
 20
811.3808348751078
 30
0.0
 11
220.8476415260229
 21
804.4871444671581
 31
0.0
  0
LINE
  5
D9
330
47
100
AcDbEntity
  8
0
  6
Continuous
 62
     7
100
AcDbLine
 10
255.9253311203642
 20
810.0521741599752
 30
0.0
 11
255.9253311203642
 21
810.6856667300299
 31
0.0
  0
LINE
  5
DA
330
47
100
AcDbEntity
  8
0
  6
Continuous
 62
     7
100
AcDbLine
 10
252.7530616460661
 20
797.8460520505079
 30
0.0
 11
262.7530616460661
 21
806.5063060883522
 31
0.0
  0
LINE
  5
DB
330
47
100
AcDbEntity
  8
0
  6
Continuous
 62
     7
100
AcDbLine
 10
264.0042823544271
 20
815.6874155399139
 30
0.0
 11
249.1542823544271
 21
802.826938293715
 31
0.0
  0
LINE
  5
DC
330
47
100
AcDbEntity
  8
0
  6
Continuous
 62
     7
100
AcDbLine
 10
264.0042823544271
 20
815.6874155399139
 30
0.0
 11
253.4891745169994
 21
818.7228657101623
 31
0.0
  0
LINE
  5
DD
330
47
100
AcDbEntity
  8
0
  6
Continuous
 62
     7
100
AcDbLine
 10
266.3292526083835
 20
804.5813398857982
 30
0.0
 11
270.9480547619005
 21
808.5813398857982
 31
0.0
  0
LINE
  5
DE
330
47
100
AcDbEntity
  8
0
  6
Continuous
 62
     7
100
AcDbLine
 10
271.9169585480333
 20
774.3018821260628
 30
0.0
 11
266.9419585480333
 21
769.9934057422353
 31
0.0
  0
LINE
  5
DF
330
47
100
AcDbEntity
  8
0
  6
Continuous
 62
     7
100
AcDbLine
 10
280.5668569154175
 20
788.7802637202474
 30
0.0
 11
280.5668569154176
 21
781.5623846532079
 31
0.0
  0
LINE
  5
E0
330
47
100
AcDbEntity
  8
0
  6
Continuous
 62
     7
100
AcDbLine
 10
271.9169585480333
 20
776.4669456355239
 30
0.0
 11
271.9169585480333
 21
774.3018821260628
 31
0.0
  0
LINE
  5
E1
330
47
100
AcDbEntity
  8
0
  6
Continuous
 62
     7
100
AcDbLine
 10
271.9169585480333
 20
776.4669456355239
 30
0.0
 11
267.9642537629099
 21
777.607993221383
 31
0.0
  0
LINE
  5
E2
330
47
100
AcDbEntity
  8
0
  6
Continuous
 62
     7
100
AcDbLine
 10
280.1856590689346
 20
794.8828927288966
 30
0.0
 11
270.9480547619005
 21
794.8828927288966
 31
0.0
  0
LINE
  5
E3
330
47
100
AcDbEntity
  8
0
  6
Continuous
 62
     7
100
AcDbLine
 10
284.8044612224516
 20
798.8828927288966
 30
0.0
 11
280.1856590689346
 21
794.8828927288966
 31
0.0
  0
LINE
  5
E4
330
47
100
AcDbEntity
  8
0
  6
Continuous
 62
     7
100
AcDbLine
 10
271.9169585480333
 20
776.4669456355239
 30
0.0
 11
266.9419585480333
 21
772.1584692516964
 31
0.0
  0
LINE
  5
E5
330
47
100
AcDbEntity
  8
0
  6
Continuous
 62
     7
100
AcDbLine
 10
270.9480547619005
 20
808.5813398857982
 30
0.0
 11
280.1856590689346
 21
808.5813398857982
 31
0.0
  0
LINE
  5
E6
330
47
100
AcDbEntity
  8
0
  6
Continuous
 62
     7
100
AcDbLine
 10
289.2146110974178
 20
798.8675147388959
 30
0.0
 11
289.2146110974178
 21
796.2694385275427
 31
0.0
  0
LINE
  5
E7
330
47
100
AcDbEntity
  8
0
  6
Continuous
 62
     7
100
AcDbLine
 10
284.8044612224516
 20
800.1406153476352
 30
0.0
 11
289.2146110974178
 21
798.8675147388959
 31
0.0
  0
LINE
  5
E8
330
47
100
AcDbEntity
  8
0
  6
Continuous
 62
     7
100
AcDbLine
 10
283.5668569154175
 20
797.8110959591721
 30
0.0
 11
283.5668569154175
 21
797.0482129126785
 31
0.0
  0
LINE
  5
E9
330
47
100
AcDbEntity
  8
0
  6
Continuous
 62
     7
100
AcDbLine
 10
280.1856590689346
 20
794.8828927288966
 30
0.0
 11
280.1856590689346
 21
800.5813398857982
 31
0.0
  0
LINE
  5
EA
330
47
100
AcDbEntity
  8
0
  6
Continuous
 62
     7
100
AcDbLine
 10
289.2146110974178
 20
798.8675147388959
 30
0.0
 11
279.2146110974178
 21
790.2072607010516
 31
0.0
  0
LINE
  5
EB
330
47
100
AcDbEntity
  8
0
  6
Continuous
 62
     7
100
AcDbLine
 10
270.9480547619005
 20
794.8828927288966
 30
0.0
 11
270.9480547619005
 21
800.5813398857982
 31
0.0
  0
LINE
  5
EC
330
47
100
AcDbEntity
  8
0
  6
Continuous
 62
     7
100
AcDbLine
 10
279.2146110974178
 20
787.6091844896982
 30
0.0
 11
289.2146110974178
 21
796.2694385275427
 31
0.0
  0
LINE
  5
ED
330
47
100
AcDbEntity
  8
0
  6
Continuous
 62
     7
100
AcDbLine
 10
280.1856590689346
 20
808.5813398857982
 30
0.0
 11
284.8044612224516
 21
804.5813398857982
 31
0.0
  0
LINE
  5
EE
330
47
100
AcDbEntity
  8
0
  6
Continuous
 62
     7
100
AcDbLine
 10
218.2545054973699
 20
777.0988685779291
 30
0.0
 11
218.2545054973699
 21
790.5293131441568
 31
0.0
  0
LINE
  5
EF
330
47
100
AcDbEntity
  8
0
  6
Continuous
 62
     7
100
AcDbLine
 10
270.6034054812361
 20
778.6217813894262
 30
0.0
 11
269.065651244073
 21
777.2900471552658
 31
0.0
  0
LINE
  5
F0
330
47
100
AcDbEntity
  8
0
  6
Continuous
 62
     7
100
AcDbLine
 10
267.9642537629099
 20
777.607993221383
 30
0.0
 11
267.5925527315419
 21
778.9647886950504
 31
0.0
  0
LINE
  5
F1
330
47
100
AcDbEntity
  8
0
  6
Continuous
 62
     2
100
AcDbLine
 10
270.3148147177092
 20
783.5112377901447
 30
0.0
 11
265.3398147177092
 21
779.2027614063171
 31
0.0
  0
LINE
  5
F2
330
47
100
AcDbEntity
  8
0
  6
Continuous
 62
     7
100
AcDbLine
 10
265.9944683884172
 20
777.5808070565142
 30
0.0
 11
270.5670437362306
 21
781.5407734684392
 31
0.0
  0
LINE
  5
F3
330
47
100
AcDbEntity
  8
0
  6
Continuous
 62
     7
100
AcDbLine
 10
265.3398147177092
 20
779.2027614063171
 30
0.0
 11
262.0659054812861
 21
780.1478575957927
 31
0.0
  0
LINE
  5
F4
330
47
100
AcDbEntity
  8
0
  6
Continuous
 62
     7
100
AcDbLine
 10
262.0659054812861
 20
778.4158067882239
 30
0.0
 11
265.3398147177092
 21
777.4707105987483
 31
0.0
  0
LINE
  5
F5
330
47
100
AcDbEntity
  8
0
  6
Continuous
 62
     7
100
AcDbLine
 10
252.8955216487476
 20
780.5293131441565
 30
0.0
 11
255.7534054812361
 21
776.846429311668
 31
0.0
  0
LINE
  5
F6
330
47
100
AcDbEntity
  8
0
  6
Continuous
 62
     7
100
AcDbLine
 10
270.6034054812361
 20
778.6217813894262
 30
0.0
 11
270.6034054812362
 21
781.2606604991689
 31
0.0
  0
LINE
  5
F7
330
47
100
AcDbEntity
  8
0
  6
Continuous
 62
     7
100
AcDbLine
 10
270.5668569154176
 20
789.4303517141717
 30
0.0
 11
270.5668569154176
 21
781.5623846532079
 31
0.0
  0
LINE
  5
F8
330
47
100
AcDbEntity
  8
0
  6
Continuous
 62
     7
100
AcDbLine
 10
267.0409054812861
 20
784.4563339796204
 30
0.0
 11
270.3148147177092
 21
783.5112377901447
 31
0.0
  0
LINE
  5
F9
330
47
100
AcDbEntity
  8
0
  6
Continuous
 62
     7
100
AcDbLine
 10
279.2146110974178
 20
787.6091844896982
 30
0.0
 11
279.2146110974178
 21
790.2072607010516
 31
0.0
  0
LINE
  5
FA
330
47
100
AcDbEntity
  8
0
  6
Continuous
 62
     7
100
AcDbLine
 10
252.8955216487476
 20
780.5293131441565
 30
0.0
 11
265.6066424516797
 21
791.5374666700687
 31
0.0
  0
LINE
  5
FB
330
47
100
AcDbEntity
  8
0
  6
Continuous
 62
     7
100
AcDbLine
 10
253.2111725800645
 20
795.1157306036232
 30
0.0
 11
279.2146110974178
 21
787.6091844896982
 31
0.0
  0
LINE
  5
FC
330
47
100
AcDbEntity
  8
0
  6
Continuous
 62
     7
100
AcDbLine
 10
270.4192285781736
 20
789.5474046810244
 30
0.0
 11
255.7534054812361
 21
776.846429311668
 31
0.0
  0
LINE
  5
FD
330
47
100
AcDbEntity
  8
0
  6
Continuous
 62
     7
100
AcDbLine
 10
251.7253311203642
 20
810.052174159975
 30
0.0
 11
251.7253311203642
 21
810.6856667300299
 31
0.0
  0
LINE
  5
FE
330
47
100
AcDbEntity
  8
0
  6
Continuous
 62
     7
100
AcDbLine
 10
230.0746960257532
 20
816.302174159975
 30
0.0
 11
230.0746960257532
 21
817.1681995637595
 31
0.0
  0
LINE
  5
FF
330
47
100
AcDbEntity
  8
0
  6
Continuous
 62
     7
100
AcDbLine
 10
221.9957447916903
 20
810.6669327800363
 30
0.0
 11
232.5108214019583
 21
807.6314916242924
 31
0.0
  0
LINE
  5
100
330
47
100
AcDbEntity
  8
0
  6
Continuous
 62
     7
100
AcDbLine
 10
247.6970179375579
 20
817.6236359982166
 30
0.0
 11
247.6970179375579
 21
818.0469434343038
 31
0.0
  0
LINE
  5
101
330
47
100
AcDbEntity
  8
0
  6
Continuous
 62
     7
100
AcDbLine
 10
234.2746960257532
 20
816.302174159975
 30
0.0
 11
234.2746960257532
 21
817.1681995637596
 31
0.0
  0
LINE
  5
102
330
47
100
AcDbEntity
  8
0
  6
Continuous
 62
     7
100
AcDbLine
 10
247.6970179375579
 20
817.6236359982166
 30
0.0
 11
232.8470179375579
 21
804.7631587520177
 31
0.0
  0
LINE
  5
103
330
47
100
AcDbEntity
  8
0
  6
Continuous
 62
     7
100
AcDbLine
 10
232.8470179375579
 20
805.6984661881048
 30
0.0
 11
232.8470179375579
 21
804.7631587520177
 31
0.0
  0
LINE
  5
104
330
47
100
AcDbEntity
  8
0
  6
Continuous
 62
     7
100
AcDbLine
 10
233.2904229442955
 20
805.5704661881049
 30
0.0
 11
232.8470179375579
 21
805.6984661881048
 31
0.0
  0
LINE
  5
105
330
47
100
AcDbEntity
  8
0
  6
Continuous
 62
     7
100
AcDbLine
 10
247.3608214019583
 20
820.4919688704913
 30
0.0
 11
232.5108214019583
 21
807.6314916242924
 31
0.0
  0
LINE
  5
106
330
47
100
AcDbEntity
  8
0
  6
Continuous
 62
     7
100
AcDbLine
 10
232.5108214019583
 20
807.6314916242924
 30
0.0
 11
233.2904229442955
 21
805.5704661881049
 31
0.0
  0
LINE
  5
107
330
47
100
AcDbEntity
  8
0
  6
Continuous
 62
     7
100
AcDbLine
 10
248.1404229442955
 20
818.4309434343038
 30
0.0
 11
233.2904229442955
 21
805.5704661881049
 31
0.0
  0
LINE
  5
108
330
47
100
AcDbEntity
  8
0
  6
Continuous
 62
     7
100
AcDbLine
 10
236.8457447916904
 20
823.5274100262352
 30
0.0
 11
221.9957447916903
 21
810.6669327800363
 31
0.0
  0
LINE
  5
109
330
47
100
AcDbEntity
  8
0
  6
Continuous
 62
     7
100
AcDbLine
 10
247.3608214019583
 20
820.4919688704913
 30
0.0
 11
236.8457447916904
 21
823.5274100262352
 31
0.0
  0
LINE
  5
10A
330
47
100
AcDbEntity
  8
0
  6
Continuous
 62
     7
100
AcDbLine
 10
253.4891745169994
 20
818.7228657101623
 30
0.0
 11
238.6391745169993
 21
805.8623884639634
 31
0.0
  0
LINE
  5
10B
330
47
100
AcDbEntity
  8
0
  6
Continuous
 62
     7
100
AcDbLine
 10
218.2545054973699
 20
790.5293131441568
 30
0.0
 11
221.9957447916903
 21
810.6669327800363
 31
0.0
  0
LINE
  5
10C
330
47
100
AcDbEntity
  8
0
  6
Continuous
 62
     7
100
AcDbLine
 10
279.2146110974178
 20
790.2072607010516
 30
0.0
 11
252.7530616460661
 21
797.8460520505079
 31
0.0
  0
SPLINE
  5
10D
330
47
100
AcDbEntity
  8
0
  6
Continuous
 62
     7
100
AcDbSpline
210
0.0
220
0.0
230
1.0
 70
     8
 71
     3
 72
     9
 73
     5
 74
     3
 42
0.000000001
 43
0.0000000001
 44
0.00000001
 40
0.0
 40
0.0
 40
0.0
 40
0.0
 40
0.3288503058943149
 40
0.6098730103909031
 40
0.6098730103909031
 40
0.6098730103909031
 40
0.6098730103909031
 10
252.0066777724169
 20
811.2106667300299
 30
0.0
 10
251.9254192107485
 20
811.1320742466551
 30
0.0
 10
251.7747202532128
 20
810.9863196678384
 30
0.0
 10
251.7409103428702
 20
810.7805042089218
 30
0.0
 10
251.7253311203642
 20
810.6856667300299
 30
0.0
 11
252.0066777724169
 21
811.2106667300299
 31
0.0
 11
251.7968874259521
 21
810.9574266549347
 31
0.0
 11
251.7253311203642
 21
810.6856667300299
 31
0.0
  0
SPLINE
  5
10E
330
47
100
AcDbEntity
  8
0
  6
Continuous
 62
     7
100
AcDbSpline
210
0.0
220
0.0
230
1.0
 70
     8
 71
     3
 72
    11
 73
     7
 74
     5
 42
0.000000001
 43
0.0000000001
 44
0.00000001
 40
0.0
 40
0.0
 40
0.0
 40
0.0
 40
0.9586215851491234
 40
1.962047208428108
 40
3.008596968120568
 40
4.092749050887743
 40
4.092749050887743
 40
4.092749050887743
 40
4.092749050887743
 10
224.8795998363208
 20
770.9157666911988
 30
0.0
 10
224.5593013433138
 20
770.91939403738
 30
0.0
 10
223.9037342529984
 20
770.9268182796158
 30
0.0
 10
222.9194120335888
 20
771.1471223771334
 30
0.0
 10
221.9325936456705
 20
771.5014677186805
 30
0.0
 10
221.3136293947547
 20
771.8522823527202
 30
0.0
 10
220.9986855762112
 20
772.0307852398328
 30
0.0
 11
224.8795998363208
 21
770.9157666911988
 31
0.0
 11
223.9219614477483
 21
770.9591724773314
 31
0.0
 11
222.9395659369302
 21
771.1635301177678
 31
0.0
 11
221.9569574805027
 21
771.5237342596256
 31
0.0
 11
220.9986855762112
 21
772.0307852398328
 31
0.0
  0
SPLINE
  5
10F
330
47
100
AcDbEntity
  8
0
  6
Continuous
 62
     7
100
AcDbSpline
210
0.0
220
0.0
230
1.0
 70
     8
 71
     3
 72
    13
 73
     9
 74
     7
 42
0.000000001
 43
0.0000000001
 44
0.00000001
 40
0.0
 40
0.0
 40
0.0
 40
0.0
 40
0.1855017720707085
 40
0.3686437051305724
 40
0.5431194997874446
 40
0.7048454875668493
 40
0.8535806508182081
 40
0.9939310507353403
 40
0.9939310507353403
 40
0.9939310507353403
 40
0.9939310507353403
 10
220.9986855762112
 20
772.0307852398328
 30
0.0
 10
220.9543512925578
 20
772.0742492905849
 30
0.0
 10
220.8662467290016
 20
772.1606244788393
 30
0.0
 10
220.7755123404208
 20
772.3197862623772
 30
0.0
 10
220.7235669014431
 20
772.4867426201413
 30
0.0
 10
220.7187866267498
 20
772.6498111794416
 30
0.0
 10
220.7589337305226
 20
772.7997458343605
 30
0.0
 10
220.8246400981669
 20
772.8718584720617
 30
0.0
 10
220.8565403993639
 20
772.9068689936821
 30
0.0
 11
220.9986855762112
 21
772.0307852398328
 31
0.0
 11
220.8723974725801
 21
772.1666609970645
 31
0.0
 11
220.7803522610409
 21
772.3249918113567
 31
0.0
 11
220.7304556331728
 21
772.4921807165179
 31
0.0
 11
220.7269916183055
 21
772.6538696054004
 31
0.0
 11
220.7702588167913
 21
772.7961724512074
 31
0.0
 11
220.8565403993639
 21
772.9068689936821
 31
0.0
  0
SPLINE
  5
110
330
47
100
AcDbEntity
  8
0
  6
Continuous
 62
     7
100
AcDbSpline
210
0.0
220
0.0
230
1.0
 70
     8
 71
     3
 72
     9
 73
     5
 74
     3
 42
0.000000001
 43
0.0000000001
 44
0.00000001
 40
0.0
 40
0.0
 40
0.0
 40
0.0
 40
0.0597844169736261
 40
0.1202880236262202
 40
0.1202880236262202
 40
0.1202880236262202
 40
0.1202880236262202
 10
220.8565403993639
 20
772.9068689936821
 30
0.0
 10
220.8722172639999
 20
772.9193081913952
 30
0.0
 10
220.9037595925806
 20
772.9443362103327
 30
0.0
 10
220.9404750288338
 20
772.9608738632364
 30
0.0
 10
220.9589425107115
 20
772.969192119403
 30
0.0
 11
220.8565403993639
 21
772.9068689936821
 31
0.0
 11
220.9048488574608
 21
772.9420892930561
 31
0.0
 11
220.9589425107115
 21
772.969192119403
 31
0.0
  0
SPLINE
  5
111
330
47
100
AcDbEntity
  8
0
  6
Continuous
 62
     7
100
AcDbSpline
210
0.0
220
0.0
230
1.0
 70
     8
 71
     3
 72
    11
 73
     7
 74
     5
 42
0.000000001
 43
0.0000000001
 44
0.00000001
 40
0.0
 40
0.0
 40
0.0
 40
0.0
 40
0.3291072049668733
 40
0.6742877709986435
 40
1.048570003834249
 40
1.460513389730218
 40
1.460513389730218
 40
1.460513389730218
 40
1.460513389730218
 10
215.6149516315847
 20
800.3123846532078
 30
0.0
 10
215.6063971089815
 20
800.2023715872004
 30
0.0
 10
215.5888702523135
 20
799.9769724976336
 30
0.0
 10
215.4499097093119
 20
799.650767117714
 30
0.0
 10
215.2372172129242
 20
799.3364795373341
 30
0.0
 10
215.0455190328032
 20
799.1566214178708
 30
0.0
 10
214.9450786505069
 20
799.0623846532079
 30
0.0
 11
215.6149516315847
 21
800.3123846532078
 31
0.0
 11
215.5721759178178
 21
799.9860691740162
 31
0.0
 11
215.44458076303
 21
799.6653370404516
 31
0.0
 11
215.2343492749115
 21
799.3556760762777
 31
0.0
 11
214.9450786505069
 21
799.0623846532079
 31
0.0
  0
SPLINE
  5
112
330
47
100
AcDbEntity
  8
0
  6
Continuous
 62
     7
100
AcDbSpline
210
0.0
220
0.0
230
1.0
 70
     8
 71
     3
 72
    19
 73
    15
 74
    13
 42
0.000000001
 43
0.0000000001
 44
0.00000001
 40
0.0
 40
0.0
 40
0.0
 40
0.0
 40
0.7791671370512006
 40
1.672901828484197
 40
2.662625392948866
 40
3.718842557697204
 40
4.805763555921666
 40
5.884943408799007
 40
6.918593374876295
 40
7.872969418410745
 40
8.722300167755812
 40
9.454096549093501
 40
10.07710837718141
 40
10.63103543730374
 40
10.63103543730374
 40
10.63103543730374
 40
10.63103543730374
 10
214.9450786505069
 20
799.0623846532079
 30
0.0
 10
214.7356099545688
 20
798.9074070236519
 30
0.0
 10
214.2858725963845
 20
798.5746640996439
 30
0.0
 10
213.4575512451094
 20
798.2355141278848
 30
0.0
 10
212.5113030590618
 20
797.9772769821269
 30
0.0
 10
211.4744850553404
 20
797.8301106345299
 30
0.0
 10
210.3990611592206
 20
797.7951960690303
 30
0.0
 10
209.3333812169415
 20
797.8758204719185
 30
0.0
 10
208.3265297196384
 20
798.0677454504367
 30
0.0
 10
207.4252315184462
 20
798.3622379072423
 30
0.0
 10
206.6657612593422
 20
798.7465719883701
 30
0.0
 10
206.0907174754996
 20
799.2067384107282
 30
0.0
 10
205.6945165220316
 20
799.7326616958925
 30
0.0
 10
205.6404146900925
 20
800.1268565735567
 30
0.0
 10
205.6149516315847
 20
800.3123846532079
 30
0.0
 11
214.9450786505069
 21
799.0623846532079
 31
0.0
 11
214.3013379865881
 21
798.6234092849269
 31
0.0
 11
213.4828338133399
 21
798.2645045424854
 31
0.0
 11
212.5283686226184
 21
798.0026860280938
 31
0.0
 11
211.4831925199194
 21
797.8503652706775
 31
0.0
 11
210.3968547142254
 21
797.8147643221911
 31
0.0
 11
209.3208564060721
 21
797.8975700874853
 31
0.0
 11
208.3062087714881
 21
798.094857768199
 31
0.0
 11
207.401013583152
 21
798.3972735454104
 31
0.0
 11
206.6481852842025
 21
798.7904812165312
 31
0.0
 11
206.0834126964015
 21
799.2558389988561
 31
0.0
 11
205.7334720317064
 21
799.7712856666611
 31
0.0
 11
205.6149516315847
 21
800.3123846532079
 31
0.0
  0
SPLINE
  5
113
330
47
100
AcDbEntity
  8
0
  6
Continuous
 62
     7
100
AcDbSpline
210
0.0
220
0.0
230
1.0
 70
     8
 71
     3
 72
    11
 73
     7
 74
     5
 42
0.000000001
 43
0.0000000001
 44
0.00000001
 40
0.0
 40
0.0
 40
0.0
 40
0.0
 40
0.1340578103043037
 40
0.2712905770934066
 40
0.4142835042396731
 40
0.5646514904338352
 40
0.5646514904338352
 40
0.5646514904338352
 40
0.5646514904338352
 10
261.8375464502519
 20
767.6956818880734
 30
0.0
 10
261.8693744934042
 20
767.7273672079504
 30
0.0
 10
261.9337843676877
 20
767.7914882764194
 30
0.0
 10
261.9992930234896
 20
767.914981440743
 30
0.0
 10
262.0415876574436
 20
768.0533528523085
 30
0.0
 10
262.0464340669595
 20
768.1513701253633
 30
0.0
 10
262.0489181833283
 20
768.2016108340919
 30
0.0
 11
261.8375464502519
 21
767.6956818880734
 31
0.0
 11
261.9277777193111
 21
767.7948273116173
 31
0.0
 11
261.994356490844
 21
767.9148277287461
 31
0.0
 11
262.0351685889598
 21
768.0518727959053
 31
0.0
 11
262.0489181833283
 21
768.2016108340919
 31
0.0
  0
SPLINE
  5
114
330
47
100
AcDbEntity
  8
0
  6
Continuous
 62
     7
100
AcDbSpline
210
0.0
220
0.0
230
1.0
 70
     8
 71
     3
 72
    13
 73
     9
 74
     7
 42
0.000000001
 43
0.0000000001
 44
0.00000001
 40
0.0
 40
0.0
 40
0.0
 40
0.0
 40
0.2820624084722471
 40
0.5587946766358298
 40
0.8216714860515779
 40
1.065519907148945
 40
1.290601317202812
 40
1.503787711143404
 40
1.503787711143404
 40
1.503787711143404
 40
1.503787711143404
 10
260.5374125749477
 20
768.0605756217235
 30
0.0
 10
260.5967094711908
 20
767.9871525841605
 30
0.0
 10
260.7141827392766
 20
767.841693995358
 30
0.0
 10
260.9389877368857
 20
767.6799086110605
 30
0.0
 10
261.1806414238073
 20
767.5744120184247
 30
0.0
 10
261.4242032574166
 20
767.5389756137454
 30
0.0
 10
261.6563051979003
 20
767.5715795825745
 30
0.0
 10
261.7782358069523
 20
767.6550697841557
 30
0.0
 10
261.8375464502519
 20
767.6956818880734
 30
0.0
 11
260.5374125749477
 21
768.0605756217235
 31
0.0
 11
260.7243254567484
 21
767.8493345852072
 31
0.0
 11
260.9477244457074
 21
767.6860139186417
 31
0.0
 11
261.1898350891873
 21
767.5836095529677
 31
0.0
 11
261.4313933648011
 21
767.550268084239
 31
0.0
 11
261.653179177755
 21
767.5886438142713
 31
0.0
 11
261.8375464502519
 21
767.6956818880734
 31
0.0
  0
SPLINE
  5
115
330
47
100
AcDbEntity
  8
0
  6
Continuous
 62
     7
100
AcDbSpline
210
0.0
220
0.0
230
1.0
 70
     8
 71
     3
 72
    15
 73
    11
 74
     9
 42
0.000000001
 43
0.0000000001
 44
0.00000001
 40
0.0
 40
0.0
 40
0.0
 40
0.0
 40
1.192579195134044
 40
2.399905613772862
 40
3.58540671656319
 40
4.714099756521977
 40
5.75540836958142
 40
6.68651040510945
 40
7.496872747475256
 40
8.194908065450432
 40
8.194908065450432
 40
8.194908065450432
 40
8.194908065450432
 10
212.2890314111599
 20
806.9578023940107
 30
0.0
 10
211.8937012781679
 20
806.9129047548965
 30
0.0
 10
211.0981524291498
 20
806.8225542875497
 30
0.0
 10
209.9001013220823
 20
806.8414461499003
 30
0.0
 10
208.7314383867055
 20
806.9688362431424
 30
0.0
 10
207.6374130884157
 20
807.2115939276798
 30
0.0
 10
206.6581804232192
 20
807.5557077867518
 30
0.0
 10
205.8397290912925
 20
807.9941204736147
 30
0.0
 10
205.1839048946115
 20
808.4974735643159
 30
0.0
 10
204.9133271058066
 20
808.9251957315555
 30
0.0
 10
204.7881128812504
 20
809.123131060217
 30
0.0
 11
212.2890314111599
 21
806.9578023940107
 31
0.0
 11
211.1014677330724
 21
806.8485429544864
 31
0.0
 11
209.8941994210455
 21
806.8603879195459
 31
0.0
 11
208.7161228146401
 21
806.992858198716
 31
0.0
 11
207.6149516315847
 21
807.2405878979962
 31
0.0
 11
206.6352856143601
 21
807.5935441575768
 31
0.0
 11
205.8168020571419
 21
808.0374311523674
 31
0.0
 11
205.1926518198316
 21
808.5542711835373
 31
0.0
 11
204.7881128812504
 21
809.123131060217
 31
0.0
  0
SPLINE
  5
116
330
47
100
AcDbEntity
  8
0
  6
Continuous
 62
     7
100
AcDbSpline
210
0.0
220
0.0
230
1.0
 70
     8
 71
     3
 72
    21
 73
    17
 74
    15
 42
0.000000001
 43
0.0000000001
 44
0.00000001
 40
0.0
 40
0.0
 40
0.0
 40
0.0
 40
0.9124035418542892
 40
1.944325593254707
 40
3.162359284696538
 40
4.57860985927674
 40
6.168556273678065
 40
7.885142742240756
 40
9.668132901464196
 40
11.45112306068764
 40
13.16770952925033
 40
14.75765594365171
 40
16.17390651823191
 40
17.39194020967376
 40
18.42386226107406
 40
19.33626580292845
 40
19.33626580292845
 40
19.33626580292845
 40
19.33626580292845
 10
218.6149516315847
 20
815.7982129126785
 30
0.0
 10
218.5716160476053
 20
815.4926067530735
 30
0.0
 10
218.4792682024857
 20
814.8413621616914
 30
0.0
 10
217.8078364892413
 20
813.9796038787298
 30
0.0
 10
216.8384874647957
 20
813.2311992639721
 30
0.0
 10
215.5618845771193
 20
812.6133351835683
 30
0.0
 10
214.0531626281913
 20
812.1500909716793
 30
0.0
 10
212.3767069715306
 20
811.8627370409105
 30
0.0
 10
210.6149516315847
 20
811.7653393061728
 30
0.0
 10
208.8531962916389
 20
811.8627370409102
 30
0.0
 10
207.176740634978
 20
812.1500909716797
 30
0.0
 10
205.6680186860501
 20
812.6133351835683
 30
0.0
 10
204.3914157983736
 20
813.2311992639723
 30
0.0
 10
203.422066773928
 20
813.9796038787301
 30
0.0
 10
202.7506350606837
 20
814.8413621616912
 30
0.0
 10
202.658287215564
 20
815.4926067530738
 30
0.0
 10
202.6149516315847
 20
815.7982129126785
 30
0.0
 11
218.6149516315847
 21
815.7982129126785
 31
0.0
 11
218.4143741046299
 21
814.9081292709363
 31
0.0
 11
217.822702574804
 21
814.0626779562083
 31
0.0
 11
216.8696028302039
 21
813.3042539688583
 31
0.0
 11
215.6028700464545
 21
812.6708869828065
 31
0.0
 11
214.0860211776285
 21
812.1943378220031
 31
0.0
 11
212.3951191032352
 21
811.8985012639512
 31
0.0
 11
210.6149516315847
 21
811.7982133354839
 31
0.0
 11
208.8347841599341
 21
811.8985012639512
 31
0.0
 11
207.1438820855409
 21
812.1943378220031
 31
0.0
 11
205.6270332167148
 21
812.6708869828065
 31
0.0
 11
204.3603004329654
 21
813.3042539688583
 31
0.0
 11
203.4072006883653
 21
814.0626779562083
 31
0.0
 11
202.8155291585394
 21
814.9081292709362
 31
0.0
 11
202.6149516315847
 21
815.7982129126785
 31
0.0
  0
SPLINE
  5
117
330
47
100
AcDbEntity
  8
0
  6
Continuous
 62
     7
100
AcDbSpline
210
0.0
220
0.0
230
1.0
 70
     8
 71
     3
 72
    19
 73
    15
 74
    13
 42
0.000000001
 43
0.0000000001
 44
0.00000001
 40
0.0
 40
0.0
 40
0.0
 40
0.0
 40
0.2810227023272061
 40
0.6098730067407657
 40
1.008200850458339
 40
1.474036227207415
 40
1.991264554967366
 40
2.535960715550257
 40
3.080656876133148
 40
3.597885203893072
 40
4.06372058064212
 40
4.462048424359669
 40
4.790898728773334
 40
5.071921431100423
 40
5.071921431100423
 40
5.071921431100423
 40
5.071921431100423
 10
251.7253311203642
 20
810.6856667300299
 30
0.0
 10
251.7413326441124
 20
810.591571754096
 30
0.0
 10
251.7760590290302
 20
810.3873676690811
 30
0.0
 10
252.0168355397544
 20
810.1317369152514
 30
0.0
 10
252.3533687241787
 20
809.920006482825
 30
0.0
 10
252.7887963185764
 20
809.7592399093967
 30
0.0
 10
253.2892850534975
 20
809.6583942248681
 30
0.0
 10
253.8253311203642
 20
809.6240090317847
 30
0.0
 10
254.3613771872309
 20
809.6583942248678
 30
0.0
 10
254.8618659221522
 20
809.7592399093966
 30
0.0
 10
255.2972935165498
 20
809.9200064828246
 30
0.0
 10
255.6338267009741
 20
810.1317369152516
 30
0.0
 10
255.8746032116981
 20
810.387367669081
 30
0.0
 10
255.909329596616
 20
810.591571754096
 30
0.0
 10
255.9253311203642
 20
810.6856667300299
 30
0.0
 11
251.7253311203642
 21
810.6856667300299
 31
0.0
 11
251.7968874259521
 21
810.413906805125
 31
0.0
 11
252.0066777724169
 21
810.1606667300298
 31
0.0
 11
252.3404072757618
 21
809.9432048077286
 31
0.0
 11
252.7753311203642
 21
809.7763400560561
 31
0.0
 11
253.2818112705545
 21
809.6714448828237
 31
0.0
 11
253.8253311203642
 21
809.6356667300298
 31
0.0
 11
254.368850970174
 21
809.6714448828237
 31
0.0
 11
254.8753311203643
 21
809.7763400560561
 31
0.0
 11
255.3102549649666
 21
809.9432048077286
 31
0.0
 11
255.6439844683115
 21
810.1606667300298
 31
0.0
 11
255.8537748147763
 21
810.4139068051251
 31
0.0
 11
255.9253311203642
 21
810.6856667300299
 31
0.0
  0
SPLINE
  5
118
330
47
100
AcDbEntity
  8
0
  6
Continuous
 62
     7
100
AcDbSpline
210
0.0
220
0.0
230
1.0
 70
     8
 71
     3
 72
    17
 73
    13
 74
    11
 42
0.000000001
 43
0.0000000001
 44
0.00000001
 40
0.0
 40
0.0
 40
0.0
 40
0.0
 40
0.2810226977060959
 40
0.609873005657213
 40
1.008200848329747
 40
1.474036223461319
 40
1.991264548780575
 40
2.535960706132304
 40
3.080656863260979
 40
3.597885187671146
 40
4.063720563410003
 40
4.462048411756048
 40
4.462048411756048
 40
4.462048411756048
 40
4.462048411756048
 10
255.9253311203642
 20
810.6856667300299
 30
0.0
 10
255.9093295846416
 20
810.7797617259331
 30
0.0
 10
255.8746031805312
 20
810.9839658596472
 30
0.0
 10
255.6338269034603
 20
811.2395961822997
 30
0.0
 10
255.2972925126243
 20
811.4513287439827
 30
0.0
 10
254.8618705751986
 20
811.6120853702591
 30
0.0
 10
254.3613573714788
 20
811.7129740807261
 30
0.0
 10
253.8254091752654
 20
811.747187200131
 30
0.0
 10
253.2890005728619
 20
811.7134394339846
 30
0.0
 10
252.7897566360701
 20
811.6104051169038
 30
0.0
 10
252.3503673832416
 20
811.456604037251
 30
0.0
 10
252.1151150861948
 20
811.2882622749611
 30
0.0
 10
252.0066777724169
 20
811.2106667300299
 30
0.0
 11
255.9253311203642
 21
810.6856667300299
 31
0.0
 11
255.8537748147763
 21
810.9574266549347
 31
0.0
 11
255.6439844683114
 21
811.2106667300299
 31
0.0
 11
255.3102549649665
 21
811.428128652331
 31
0.0
 11
254.8753311203641
 21
811.5949934040035
 31
0.0
 11
254.3688509701739
 21
811.6998885772359
 31
0.0
 11
253.8253311203642
 21
811.7356667300298
 31
0.0
 11
253.2818112705545
 21
811.6998885772359
 31
0.0
 11
252.7753311203642
 21
811.5949934040035
 31
0.0
 11
252.3404072757618
 21
811.4281286523309
 31
0.0
 11
252.0066777724169
 21
811.2106667300299
 31
0.0
  0
SPLINE
  5
119
330
47
100
AcDbEntity
  8
0
  6
Continuous
 62
     7
100
AcDbSpline
210
0.0
220
0.0
230
1.0
 70
     8
 71
     3
 72
    19
 73
    15
 74
    13
 42
0.000000001
 43
0.0000000001
 44
0.00000001
 40
0.0
 40
0.0
 40
0.0
 40
0.0
 40
0.2810227023271033
 40
0.6098730067406811
 40
1.008200850458317
 40
1.474036227207352
 40
1.991264554967224
 40
2.535960715550122
 40
3.080656876133021
 40
3.597885203892944
 40
4.063720580641993
 40
4.462048424359542
 40
4.79089872877312
 40
5.071921431100209
 40
5.071921431100209
 40
5.071921431100209
 40
5.071921431100209
 10
251.7253311203642
 20
810.052174159975
 30
0.0
 10
251.7413326441124
 20
809.958079184041
 30
0.0
 10
251.7760590290302
 20
809.7538750990261
 30
0.0
 10
252.0168355397546
 20
809.498244345197
 30
0.0
 10
252.3533687241786
 20
809.2865139127698
 30
0.0
 10
252.7887963185764
 20
809.1257473393421
 30
0.0
 10
253.2892850534976
 20
809.0249016548136
 30
0.0
 10
253.8253311203642
 20
808.99051646173
 30
0.0
 10
254.361377187231
 20
809.0249016548134
 30
0.0
 10
254.8618659221521
 20
809.125747339342
 30
0.0
 10
255.2972935165498
 20
809.28651391277
 30
0.0
 10
255.633826700974
 20
809.498244345197
 30
0.0
 10
255.8746032116982
 20
809.7538750990262
 30
0.0
 10
255.909329596616
 20
809.9580791840413
 30
0.0
 10
255.9253311203642
 20
810.0521741599752
 30
0.0
 11
251.7253311203642
 21
810.052174159975
 31
0.0
 11
251.7968874259521
 21
809.7804142350702
 31
0.0
 11
252.0066777724169
 21
809.5271741599751
 31
0.0
 11
252.3404072757619
 21
809.3097122376738
 31
0.0
 11
252.7753311203643
 21
809.1428474860014
 31
0.0
 11
253.2818112705545
 21
809.0379523127691
 31
0.0
 11
253.8253311203642
 21
809.0021741599751
 31
0.0
 11
254.368850970174
 21
809.0379523127691
 31
0.0
 11
254.8753311203643
 21
809.1428474860015
 31
0.0
 11
255.3102549649666
 21
809.309712237674
 31
0.0
 11
255.6439844683115
 21
809.5271741599752
 31
0.0
 11
255.8537748147763
 21
809.7804142350703
 31
0.0
 11
255.9253311203642
 21
810.0521741599752
 31
0.0
  0
SPLINE
  5
11A
330
47
100
AcDbEntity
  8
0
  6
Continuous
 62
     7
100
AcDbSpline
210
0.0
220
0.0
230
1.0
 70
     8
 71
     3
 72
    11
 73
     7
 74
     5
 42
0.000000001
 43
0.0000000001
 44
0.00000001
 40
0.0
 40
0.0
 40
0.0
 40
0.0
 40
0.5265715291206483
 40
1.078860436388162
 40
1.677712010137952
 40
2.336821427430468
 40
2.336821427430468
 40
2.336821427430468
 40
2.336821427430468
 10
283.5668569154175
 20
797.0482129126785
 30
0.0
 10
283.5531696792219
 20
796.8721920066746
 30
0.0
 10
283.5251267172896
 20
796.511553461178
 30
0.0
 10
283.3027898435433
 20
795.9896248531356
 30
0.0
 10
282.9624818520903
 20
795.4867647215096
 30
0.0
 10
282.6557647573326
 20
795.1989917361075
 30
0.0
 10
282.495060145693
 20
795.0482129126785
 30
0.0
 11
283.5668569154175
 21
797.0482129126785
 31
0.0
 11
283.4984157733904
 21
796.5261081459716
 31
0.0
 11
283.2942635257301
 21
796.0129367322684
 31
0.0
 11
282.9578931447404
 21
795.5174791895903
 31
0.0
 11
282.495060145693
 21
795.0482129126785
 31
0.0
  0
SPLINE
  5
11B
330
47
100
AcDbEntity
  8
0
  6
Continuous
 62
     7
100
AcDbSpline
210
0.0
220
0.0
230
1.0
 70
     8
 71
     3
 72
    19
 73
    15
 74
    13
 42
0.000000001
 43
0.0000000001
 44
0.00000001
 40
0.0
 40
0.0
 40
0.0
 40
0.0
 40
1.246667415000197
 40
2.676642920319838
 40
4.260200623681881
 40
5.95014808718934
 40
7.689221684136513
 40
9.41590944847844
 40
11.06974939389929
 40
12.59675106318381
 40
13.95568026162166
 40
15.12655447084495
 40
16.12337339492898
 40
17.00965669683903
 40
17.00965669683903
 40
17.00965669683903
 40
17.00965669683903
 10
282.495060145693
 20
795.0482129126785
 30
0.0
 10
282.1599102333432
 20
794.8002487062406
 30
0.0
 10
281.4403304657857
 20
794.267860022416
 30
0.0
 10
280.1150163007965
 20
793.7252200770657
 30
0.0
 10
278.6010192045152
 20
793.3120406422281
 30
0.0
 10
276.9421103982918
 20
793.076574486417
 30
0.0
 10
275.2214321647873
 20
793.0207111811009
 30
0.0
 10
273.516344257382
 20
793.1497102253784
 30
0.0
 10
271.9053818618085
 20
793.4567901904556
 30
0.0
 10
270.4633047405559
 20
793.9279781210319
 30
0.0
 10
269.2481523249692
 20
794.5429126492568
 30
0.0
 10
268.3280822748557
 20
795.2791789262162
 30
0.0
 10
267.6941607352647
 20
796.1206561751615
 30
0.0
 10
267.6075978092926
 20
796.7513679833226
 30
0.0
 10
267.5668569154175
 20
797.0482129126785
 30
0.0
 11
282.495060145693
 21
795.0482129126785
 31
0.0
 11
281.465075083423
 21
794.3458523234289
 31
0.0
 11
280.1554684062259
 21
793.7716047355225
 31
0.0
 11
278.6283241010714
 21
793.3526951124957
 31
0.0
 11
276.956042336753
 21
793.1089819006297
 31
0.0
 11
275.2179018476426
 21
793.0520203830516
 31
0.0
 11
273.4963045545974
 21
793.1845096075223
 31
0.0
 11
271.8728683392631
 21
793.5001698966644
 31
0.0
 11
270.4245560379252
 21
793.9840351402026
 31
0.0
 11
269.2200307596061
 21
794.6131674139959
 31
0.0
 11
268.3163946191244
 21
795.3577398657158
 31
0.0
 11
267.7564895556122
 21
796.1824545342038
 31
0.0
 11
267.5668569154175
 21
797.0482129126785
 31
0.0
  0
SPLINE
  5
11C
330
47
100
AcDbEntity
  8
0
  6
Continuous
 62
     7
100
AcDbSpline
210
0.0
220
0.0
230
1.0
 70
     8
 71
     3
 72
    21
 73
    17
 74
    15
 42
0.000000001
 43
0.0000000001
 44
0.00000001
 40
0.0
 40
0.0
 40
0.0
 40
0.0
 40
0.5702522115159737
 40
1.215203492802608
 40
1.976474550837791
 40
2.861631160685568
 40
3.855347670529181
 40
4.928214214449627
 40
6.042583065243877
 40
7.156951916038127
 40
8.22981845995863
 40
9.223534969802296
 40
10.10869157965018
 40
10.86996263768531
 40
11.51491391897192
 40
12.08516613048789
 40
12.08516613048789
 40
12.08516613048789
 40
12.08516613048789
 10
280.5668569154176
 20
781.5623846532079
 30
0.0
 10
280.5397721755323
 20
781.3713808041726
 30
0.0
 10
280.4820547659226
 20
780.9643529379349
 30
0.0
 10
280.062409957751
 20
780.4257540041991
 30
0.0
 10
279.4565668136811
 20
779.9580011217222
 30
0.0
 10
278.6586900096229
 20
779.5718360699389
 30
0.0
 10
277.7157387904067
 20
779.2823084370906
 30
0.0
 10
276.667954004122
 20
779.1027122297365
 30
0.0
 10
275.5668569154176
 20
779.0418386453221
 30
0.0
 10
274.4657598267132
 20
779.1027122297362
 30
0.0
 10
273.4179750404285
 20
779.282308437091
 30
0.0
 10
272.4750238212123
 20
779.5718360699386
 30
0.0
 10
271.6771470171539
 20
779.9580011217222
 30
0.0
 10
271.0713038730842
 20
780.425754004199
 30
0.0
 10
270.6516590649126
 20
780.9643529379349
 30
0.0
 10
270.5939416553028
 20
781.3713808041729
 30
0.0
 10
270.5668569154176
 20
781.5623846532079
 30
0.0
 11
280.5668569154176
 21
781.5623846532079
 31
0.0
 11
280.4414959610709
 21
781.006082377119
 31
0.0
 11
280.0717012549296
 21
780.477675305414
 31
0.0
 11
279.4760139145546
 21
780.0036603133203
 31
0.0
 11
278.6843059247112
 21
779.6078059470378
 31
0.0
 11
277.736275381695
 21
779.3099627215358
 31
0.0
 11
276.6794615851992
 21
779.1250648727533
 31
0.0
 11
275.5668569154176
 21
779.0623849174611
 31
0.0
 11
274.4542522456361
 21
779.1250648727533
 31
0.0
 11
273.3974384491403
 21
779.3099627215358
 31
0.0
 11
272.449407906124
 21
779.6078059470378
 31
0.0
 11
271.6576999162805
 21
780.0036603133203
 31
0.0
 11
271.0620125759055
 21
780.477675305414
 31
0.0
 11
270.6922178697643
 21
781.006082377119
 31
0.0
 11
270.5668569154176
 21
781.5623846532079
 31
0.0
  0
SPLINE
  5
11D
330
47
100
AcDbEntity
  8
0
  6
Continuous
 62
     7
100
AcDbSpline
210
0.0
220
0.0
230
1.0
 70
     8
 71
     3
 72
    11
 73
     7
 74
     5
 42
0.000000001
 43
0.0000000001
 44
0.00000001
 40
0.0
 40
0.0
 40
0.0
 40
0.0
 40
0.1611053619405576
 40
0.3276072809275771
 40
0.5035023655815178
 40
0.6906435563658201
 40
0.6906435563658201
 40
0.6906435563658201
 40
0.6906435563658201
 10
265.9944683884172
 20
777.5808070565142
 30
0.0
 10
265.9507557442345
 20
777.5489571904975
 30
0.0
 10
265.8618662027159
 20
777.4841905938927
 30
0.0
 10
265.6973917262247
 20
777.4382613710309
 30
0.0
 10
265.5193271731799
 20
777.4293143860586
 30
0.0
 10
265.4008753323402
 20
777.456629798088
 30
0.0
 10
265.3398147177092
 20
777.4707105987483
 30
0.0
 11
265.9944683884172
 21
777.5808070565142
 31
0.0
 11
265.8589467939255
 21
777.4936931327712
 31
0.0
 11
265.6996825732958
 21
777.4451359705773
 31
0.0
 11
265.5239595999932
 21
777.4373566221869
 31
0.0
 11
265.3398147177092
 21
777.4707105987483
 31
0.0
  0
SPLINE
  5
11E
330
47
100
AcDbEntity
  8
0
  6
Continuous
 62
     7
100
AcDbSpline
210
0.0
220
0.0
230
1.0
 70
     8
 71
     3
 72
    15
 73
    11
 74
     9
 42
0.000000001
 43
0.0000000001
 44
0.00000001
 40
0.0
 40
0.0
 40
0.0
 40
0.0
 40
0.2657924201723866
 40
0.5454106417017447
 40
0.8300063567265379
 40
1.109611781008751
 40
1.375381168583998
 40
1.621861797950357
 40
1.849179085154358
 40
2.064300122664154
 40
2.064300122664154
 40
2.064300122664154
 40
2.064300122664154
 10
265.3398147177092
 20
779.2027614063171
 30
0.0
 10
265.4231388888163
 20
779.1714388059733
 30
0.0
 10
265.5941215227211
 20
779.1071642749915
 30
0.0
 10
265.8157886135431
 20
778.9354724437953
 30
0.0
 10
266.0016512340996
 20
778.7223609449478
 30
0.0
 10
266.1353443363795
 20
778.4775256079448
 30
0.0
 10
266.2074195208916
 20
778.220545542686
 30
0.0
 10
266.2094535081338
 20
777.971931615637
 30
0.0
 10
266.1444270717701
 20
777.7441666936232
 30
0.0
 10
266.0435274875085
 20
777.6342502813651
 30
0.0
 10
265.9944683884172
 20
777.5808070565142
 30
0.0
 11
265.3398147177092
 21
779.2027614063171
 31
0.0
 11
265.5837737044661
 21
779.097264380501
 31
0.0
 11
265.8079735022346
 21
778.9301691977525
 31
0.0
 11
265.9942544887532
 21
778.7150085251259
 31
0.0
 11
266.1275298480168
 21
778.4692100868554
 31
0.0
 11
266.1970037315158
 21
778.2126818279236
 31
0.0
 11
266.1970505365223
 21
777.9662012000033
 31
0.0
 11
266.1276649944605
 21
777.7497322683346
 31
0.0
 11
265.9944683884172
 21
777.5808070565142
 31
0.0
  0
SPLINE
  5
11F
330
47
100
AcDbEntity
  8
0
  6
Continuous
 62
     7
100
AcDbSpline
210
0.0
220
0.0
230
1.0
 70
     8
 71
     3
 72
    15
 73
    11
 74
     9
 42
0.000000001
 43
0.0000000001
 44
0.00000001
 40
0.0
 40
0.0
 40
0.0
 40
0.0
 40
1.177054327238043
 40
2.36690428995145
 40
3.534537237602142
 40
4.646513437426589
 40
5.67359054097525
 40
6.593839838865521
 40
7.396848456084625
 40
8.089861550761382
 40
8.089861550761382
 40
8.089861550761382
 40
8.089861550761382
 10
277.1739297418211
 20
788.1982784546904
 30
0.0
 10
276.7835179425526
 20
788.1561237300509
 30
0.0
 10
275.9984502173711
 20
788.0713560285351
 30
0.0
 10
274.8175594778291
 20
788.0940627221507
 30
0.0
 10
273.6665079567626
 20
788.2222187985487
 30
0.0
 10
272.5886599700151
 20
788.4624118239806
 30
0.0
 10
271.6225191012842
 20
788.8011164296045
 30
0.0
 10
270.8121278463144
 20
789.2317012123706
 30
0.0
 10
270.1597529584272
 20
789.7254253399567
 30
0.0
 10
269.8845226433248
 20
790.1449942461625
 30
0.0
 10
269.7570256948781
 20
790.3393542287185
 30
0.0
 11
277.1739297418211
 21
788.1982784546904
 31
0.0
 11
276.0012807034494
 21
788.0965380965514
 31
0.0
 11
274.8115382155421
 21
788.1125301380026
 31
0.0
 11
273.6515157106539
 21
788.2456259279847
 31
0.0
 11
272.5668569154175
 21
788.4905878979962
 31
0.0
 11
271.6002409398174
 21
788.8377779485468
 31
0.0
 11
270.7897010168508
 21
789.2735345326532
 31
0.0
 11
270.167130744587
 21
789.7807121211723
 31
0.0
 11
269.7570256948781
 21
790.3393542287185
 31
0.0
  0
SPLINE
  5
120
330
47
100
AcDbEntity
  8
0
  6
Continuous
 62
     7
100
AcDbSpline
210
0.0
220
0.0
230
1.0
 70
     8
 71
     3
 72
     9
 73
     5
 74
     3
 42
0.000000001
 43
0.0000000001
 44
0.00000001
 40
0.0
 40
0.0
 40
0.0
 40
0.0
 40
0.1355261024923112
 40
0.2756524540205242
 40
0.2756524540205242
 40
0.2756524540205242
 40
0.2756524540205242
 10
270.3148147177092
 20
783.5112377901447
 30
0.0
 10
270.3578463340114
 20
783.4971265865402
 30
0.0
 10
270.4453702088782
 20
783.4684251752101
 30
0.0
 10
270.5259132994259
 20
783.4237182808923
 30
0.0
 10
270.5668569154176
 20
783.4009917772007
 30
0.0
 11
270.3148147177092
 21
783.5112377901447
 31
0.0
 11
270.4422221309385
 21
783.4650352395369
 31
0.0
 11
270.5668569154176
 21
783.4009917772007
 31
0.0
  0
SPLINE
  5
121
330
47
100
AcDbEntity
  8
0
  6
Continuous
 62
     7
100
AcDbSpline
210
0.0
220
0.0
230
1.0
 70
     8
 71
     3
 72
     9
 73
     5
 74
     3
 42
0.000000001
 43
0.0000000001
 44
0.00000001
 40
0.0
 40
0.0
 40
0.0
 40
0.0
 40
0.3288503058942786
 40
0.6098730103909841
 40
0.6098730103909841
 40
0.6098730103909841
 40
0.6098730103909841
 10
230.3560426778059
 20
817.6931995637595
 30
0.0
 10
230.2747841161376
 20
817.6146070803848
 30
0.0
 10
230.1240851586019
 20
817.4688525015679
 30
0.0
 10
230.0902752482592
 20
817.2630370426514
 30
0.0
 10
230.0746960257532
 20
817.1681995637595
 30
0.0
 11
230.3560426778059
 21
817.6931995637595
 31
0.0
 11
230.1462523313411
 21
817.4399594886644
 31
0.0
 11
230.0746960257532
 21
817.1681995637595
 31
0.0
  0
SPLINE
  5
122
330
47
100
AcDbEntity
  8
0
  6
Continuous
 62
     7
100
AcDbSpline
210
0.0
220
0.0
230
1.0
 70
     8
 71
     3
 72
    17
 73
    13
 74
    11
 42
0.000000001
 43
0.0000000001
 44
0.00000001
 40
0.0
 40
0.0
 40
0.0
 40
0.0
 40
0.2810226977061986
 40
0.6098730056572281
 40
1.008200848329848
 40
1.474036223461353
 40
1.991264548780609
 40
2.535960706132366
 40
3.080656863261077
 40
3.597885187671216
 40
4.063720563409992
 40
4.462048411756099
 40
4.462048411756099
 40
4.462048411756099
 40
4.462048411756099
 10
234.2746960257532
 20
817.1681995637596
 30
0.0
 10
234.2586944900305
 20
817.2622945596627
 30
0.0
 10
234.2239680859203
 20
817.4664986933769
 30
0.0
 10
233.9831918088493
 20
817.7221290160296
 30
0.0
 10
233.6466574180133
 20
817.9338615777125
 30
0.0
 10
233.2112354805877
 20
818.094618203989
 30
0.0
 10
232.7107222768678
 20
818.1955069144559
 30
0.0
 10
232.1747740806544
 20
818.2297200338606
 30
0.0
 10
231.6383654782509
 20
818.1959722677142
 30
0.0
 10
231.1391215414592
 20
818.0929379506334
 30
0.0
 10
230.6997322886304
 20
817.9391368709809
 30
0.0
 10
230.4644799915839
 20
817.770795108691
 30
0.0
 10
230.3560426778059
 20
817.6931995637595
 30
0.0
 11
234.2746960257532
 21
817.1681995637596
 31
0.0
 11
234.2031397201653
 21
817.4399594886645
 31
0.0
 11
233.9933493737005
 21
817.6931995637595
 31
0.0
 11
233.6596198703555
 21
817.9106614860608
 31
0.0
 11
233.2246960257532
 21
818.0775262377332
 31
0.0
 11
232.7182158755629
 21
818.1824214109656
 31
0.0
 11
232.1746960257531
 21
818.2181995637595
 31
0.0
 11
231.6311761759434
 21
818.1824214109655
 31
0.0
 11
231.1246960257532
 21
818.0775262377331
 31
0.0
 11
230.6897721811508
 21
817.9106614860607
 31
0.0
 11
230.3560426778059
 21
817.6931995637595
 31
0.0
  0
SPLINE
  5
123
330
47
100
AcDbEntity
  8
0
  6
Continuous
 62
     7
100
AcDbSpline
210
0.0
220
0.0
230
1.0
 70
     8
 71
     3
 72
    19
 73
    15
 74
    13
 42
0.000000001
 43
0.0000000001
 44
0.00000001
 40
0.0
 40
0.0
 40
0.0
 40
0.0
 40
0.2810227023271033
 40
0.609873006740663
 40
1.008200850458103
 40
1.474036227207246
 40
1.991264554967174
 40
2.535960715550072
 40
3.080656876132998
 40
3.597885203892871
 40
4.063720580641988
 40
4.462048424359499
 40
4.79089872877304
 40
5.07192143110024
 40
5.07192143110024
 40
5.07192143110024
 40
5.07192143110024
 10
230.0746960257532
 20
817.1681995637595
 30
0.0
 10
230.0906975495015
 20
817.0741045878256
 30
0.0
 10
230.1254239344192
 20
816.8699005028104
 30
0.0
 10
230.3662004451435
 20
816.6142697489815
 30
0.0
 10
230.7027336295676
 20
816.4025393165543
 30
0.0
 10
231.1381612239654
 20
816.2417727431265
 30
0.0
 10
231.6386499588864
 20
816.1409270585976
 30
0.0
 10
232.1746960257533
 20
816.1065418655144
 30
0.0
 10
232.7107420926199
 20
816.1409270585978
 30
0.0
 10
233.2112308275412
 20
816.2417727431264
 30
0.0
 10
233.6466584219388
 20
816.4025393165542
 30
0.0
 10
233.9831916063631
 20
816.6142697489813
 30
0.0
 10
234.2239681170872
 20
816.8699005028107
 30
0.0
 10
234.2586945020051
 20
817.0741045878257
 30
0.0
 10
234.2746960257532
 20
817.1681995637596
 30
0.0
 11
230.0746960257532
 21
817.1681995637595
 31
0.0
 11
230.1462523313411
 21
816.8964396388546
 31
0.0
 11
230.3560426778059
 21
816.6431995637595
 31
0.0
 11
230.6897721811508
 21
816.4257376414585
 31
0.0
 11
231.1246960257532
 21
816.2588728897858
 31
0.0
 11
231.6311761759435
 21
816.1539777165535
 31
0.0
 11
232.1746960257532
 21
816.1181995637595
 31
0.0
 11
232.718215875563
 21
816.1539777165535
 31
0.0
 11
233.2246960257532
 21
816.2588728897858
 31
0.0
 11
233.6596198703556
 21
816.4257376414585
 31
0.0
 11
233.9933493737006
 21
816.6431995637595
 31
0.0
 11
234.2031397201653
 21
816.8964396388546
 31
0.0
 11
234.2746960257532
 21
817.1681995637596
 31
0.0
  0
SPLINE
  5
124
330
47
100
AcDbEntity
  8
0
  6
Continuous
 62
     7
100
AcDbSpline
210
0.0
220
0.0
230
1.0
 70
     8
 71
     3
 72
    19
 73
    15
 74
    13
 42
0.000000001
 43
0.0000000001
 44
0.00000001
 40
0.0
 40
0.0
 40
0.0
 40
0.0
 40
0.2810227023271033
 40
0.609873006740663
 40
1.008200850458275
 40
1.474036227207336
 40
1.991264554967209
 40
2.535960715550107
 40
3.080656876133034
 40
3.597885203892906
 40
4.063720580641955
 40
4.462048424359504
 40
4.790898728773082
 40
5.071921431100171
 40
5.071921431100171
 40
5.071921431100171
 40
5.071921431100171
 10
230.0746960257532
 20
816.302174159975
 30
0.0
 10
230.0906975495015
 20
816.208079184041
 30
0.0
 10
230.1254239344192
 20
816.0038750990262
 30
0.0
 10
230.3662004451436
 20
815.748244345197
 30
0.0
 10
230.7027336295676
 20
815.5365139127698
 30
0.0
 10
231.1381612239654
 20
815.3757473393418
 30
0.0
 10
231.6386499588865
 20
815.2749016548134
 30
0.0
 10
232.1746960257533
 20
815.2405164617298
 30
0.0
 10
232.7107420926199
 20
815.2749016548136
 30
0.0
 10
233.2112308275412
 20
815.3757473393418
 30
0.0
 10
233.6466584219388
 20
815.53651391277
 30
0.0
 10
233.983191606363
 20
815.7482443451968
 30
0.0
 10
234.2239681170871
 20
816.0038750990262
 30
0.0
 10
234.258694502005
 20
816.208079184041
 30
0.0
 10
234.2746960257532
 20
816.302174159975
 30
0.0
 11
230.0746960257532
 21
816.302174159975
 31
0.0
 11
230.1462523313411
 21
816.0304142350702
 31
0.0
 11
230.3560426778059
 21
815.7771741599751
 31
0.0
 11
230.6897721811508
 21
815.5597122376738
 31
0.0
 11
231.1246960257533
 21
815.3928474860014
 31
0.0
 11
231.6311761759435
 21
815.2879523127691
 31
0.0
 11
232.1746960257532
 21
815.2521741599751
 31
0.0
 11
232.718215875563
 21
815.2879523127691
 31
0.0
 11
233.2246960257532
 21
815.3928474860014
 31
0.0
 11
233.6596198703556
 21
815.5597122376739
 31
0.0
 11
233.9933493737005
 21
815.7771741599751
 31
0.0
 11
234.2031397201653
 21
816.0304142350702
 31
0.0
 11
234.2746960257532
 21
816.302174159975
 31
0.0
  0
ENDBLK
  5
49
330
47
100
AcDbEntity
  8
0
100
AcDbBlockEnd
  0
BLOCK
  5
4C
330
4A
100
AcDbEntity
  8
0
100
AcDbBlockBegin
  2
Allg1
 70
     0
 10
242.9999993966886
 20
793.999998576711
 30
0.0
  3
Allg1
  1

  0
INSERT
  5
4B
330
4A
100
AcDbEntity
  8
0
100
AcDbBlockReference
  2
UHV_50_M10_M10_select__1
 10
196.9671974495845
 20
765.7613041432273
 30
0.0
  0
MTEXT
  5
126
330
4A
100
AcDbEntity
  8
1
 62
     6
100
AcDbMText
 10
242.999999396687
 20
750.6515508565033
 30
0.0
 40
5.0
 41
0.0
 71
     2
 72
     1
  1
 
  7
CONVERTER_11
 73
     1
 44
1.32052821128451
  0
ENDBLK
  5
4D
330
4A
100
AcDbEntity
  8
0
100
AcDbBlockEnd
  0
BLOCK
  5
4F
330
4E
100
AcDbEntity
  8
0
100
AcDbBlockBegin
  2
UHV_50_M10_M10_select__2
 70
     0
 10
38.6049674337983
 20
757.1499996185204
 30
0.0
  3
UHV_50_M10_M10_select__2
  1

  0
LINE
  5
127
330
4E
100
AcDbEntity
  8
0
  6
Continuous
 62
     7
100
AcDbLine
 10
70.32002692042113
 20
757.1499996185204
 30
0.0
 11
82.46179154339664
 21
757.1499996185204
 31
0.0
  0
LINE
  5
128
330
4E
100
AcDbEntity
  8
0
  6
Continuous
 62
     7
100
AcDbLine
 10
82.46179154339664
 20
757.1499996185204
 30
0.0
 11
83.36199786405473
 21
757.1499996185204
 31
0.0
  0
LINE
  5
129
330
4E
100
AcDbEntity
  8
0
  6
Continuous
 62
     7
100
AcDbLine
 10
88.63799786405473
 20
786.8499996185203
 30
0.0
 11
88.63799786405473
 21
757.1499996185204
 31
0.0
  0
LINE
  5
12A
330
4E
100
AcDbEntity
  8
0
  6
Continuous
 62
     7
100
AcDbLine
 10
82.46179154339661
 20
786.8499996185203
 30
0.0
 11
82.46179154339664
 21
757.1499996185204
 31
0.0
  0
LINE
  5
12B
330
4E
100
AcDbEntity
  8
0
  6
Continuous
 62
     7
100
AcDbLine
 10
70.32002692042117
 20
786.8499996185203
 30
0.0
 11
70.32002692042113
 21
757.1499996185204
 31
0.0
  0
LINE
  5
12C
330
4E
100
AcDbEntity
  8
0
  6
Continuous
 62
     7
100
AcDbLine
 10
101.6800048657064
 20
786.8499996185203
 30
0.0
 11
101.6800048657064
 21
757.1499996185204
 31
0.0
  0
LINE
  5
12D
330
4E
100
AcDbEntity
  8
0
  6
Continuous
 62
     7
100
AcDbLine
 10
101.6800048657064
 20
786.8499996185203
 30
0.0
 11
106.0000158930639
 21
786.8499996185203
 31
0.0
  0
LINE
  5
12E
330
4E
100
AcDbEntity
  8
0
  6
Continuous
 62
     7
100
AcDbLine
 10
38.60496743379832
 20
782.0249993302086
 30
0.0
 11
68.95022975015424
 21
782.0249993302086
 31
0.0
  0
LINE
  5
12F
330
4E
100
AcDbEntity
  8
0
  6
Continuous
 62
     7
100
AcDbLine
 10
101.6800048657064
 20
786.8499996185203
 30
0.0
 11
89.53820418471274
 21
786.8499996185203
 31
0.0
  0
LINE
  5
130
330
4E
100
AcDbEntity
  8
0
  6
Continuous
 62
     7
100
AcDbLine
 10
101.6800048657064
 20
757.1499996185204
 30
0.0
 11
106.0000158930639
 21
757.1499996185204
 31
0.0
  0
LINE
  5
131
330
4E
100
AcDbEntity
  8
0
  6
Continuous
 62
     7
100
AcDbLine
 10
89.5382041847127
 20
757.1499996185204
 30
0.0
 11
101.6800048657064
 21
757.1499996185204
 31
0.0
  0
LINE
  5
132
330
4E
100
AcDbEntity
  8
0
  6
Continuous
 62
     7
100
AcDbLine
 10
89.53820418471274
 20
786.8499996185203
 30
0.0
 11
89.5382041847127
 21
757.1499996185204
 31
0.0
  0
LINE
  5
133
330
4E
100
AcDbEntity
  8
0
  6
Continuous
 62
     7
100
AcDbLine
 10
83.36199786405469
 20
786.8499996185203
 30
0.0
 11
83.36199786405473
 21
757.1499996185204
 31
0.0
  0
LINE
  5
134
330
4E
100
AcDbEntity
  8
0
  6
Continuous
 62
     7
100
AcDbLine
 10
66.00001589306376
 20
757.1499996185204
 30
0.0
 11
70.32002692042113
 21
757.1499996185204
 31
0.0
  0
LINE
  5
135
330
4E
100
AcDbEntity
  8
0
  6
Continuous
 62
     7
100
AcDbLine
 10
88.63799786405473
 20
757.1499996185204
 30
0.0
 11
89.5382041847127
 21
757.1499996185204
 31
0.0
  0
LINE
  5
136
330
4E
100
AcDbEntity
  8
0
  6
Continuous
 62
     7
100
AcDbLine
 10
83.36199786405473
 20
757.1499996185204
 30
0.0
 11
88.63799786405473
 21
757.1499996185204
 31
0.0
  0
LINE
  5
137
330
4E
100
AcDbEntity
  8
0
  6
Continuous
 62
     7
100
AcDbLine
 10
66.00001589306376
 20
762.0249993302089
 30
0.0
 11
66.00001589306376
 21
757.1499996185204
 31
0.0
  0
LINE
  5
138
330
4E
100
AcDbEntity
  8
0
  6
Continuous
 62
     7
100
AcDbLine
 10
109.3000158930638
 20
786.8499996185203
 30
0.0
 11
106.0000158930639
 21
786.8499996185203
 31
0.0
  0
LINE
  5
139
330
4E
100
AcDbEntity
  8
0
  6
Continuous
 62
     7
100
AcDbLine
 10
106.0000158930638
 20
781.974999906832
 30
0.0
 11
106.0000158930639
 21
786.8499996185203
 31
0.0
  0
LINE
  5
13A
330
4E
100
AcDbEntity
  8
0
  6
Continuous
 62
     7
100
AcDbLine
 10
109.3000158930638
 20
786.8499996185203
 30
0.0
 11
109.3000158930638
 21
781.974999906832
 31
0.0
  0
LINE
  5
13B
330
4E
100
AcDbEntity
  8
0
  6
Continuous
 62
     7
100
AcDbLine
 10
109.3000158930638
 20
761.974999906832
 30
0.0
 11
109.3000158930638
 21
757.1499996185204
 31
0.0
  0
LINE
  5
13C
330
4E
100
AcDbEntity
  8
0
  6
Continuous
 62
     7
100
AcDbLine
 10
106.0000158930639
 20
757.1499996185204
 30
0.0
 11
109.3000158930638
 21
757.1499996185204
 31
0.0
  0
LINE
  5
13D
330
4E
100
AcDbEntity
  8
0
  6
Continuous
 62
     7
100
AcDbLine
 10
106.0000158930639
 20
757.1499996185204
 30
0.0
 11
106.0000158930638
 21
761.974999906832
 31
0.0
  0
LINE
  5
13E
330
4E
100
AcDbEntity
  8
0
  6
Continuous
 62
     7
100
AcDbLine
 10
133.6049674337983
 20
761.974999906832
 30
0.0
 11
103.0498020359733
 21
761.974999906832
 31
0.0
  0
LINE
  5
13F
330
4E
100
AcDbEntity
  8
0
  6
Continuous
 62
     7
100
AcDbLine
 10
66.00001589306376
 20
786.8499996185203
 30
0.0
 11
66.00001589306376
 21
782.0249993302086
 31
0.0
  0
LINE
  5
140
330
4E
100
AcDbEntity
  8
0
  6
Continuous
 62
     7
100
AcDbLine
 10
56.60496743379835
 20
776.6188017720373
 30
0.0
 11
56.60496743379835
 21
767.3811974650033
 31
0.0
  0
LINE
  5
141
330
4E
100
AcDbEntity
  8
0
  6
Continuous
 62
     7
100
AcDbLine
 10
48.60496743379835
 20
781.2376039255543
 30
0.0
 11
56.60496743379835
 21
776.6188017720373
 31
0.0
  0
LINE
  5
142
330
4E
100
AcDbEntity
  8
0
  6
Continuous
 62
     7
100
AcDbLine
 10
48.6049674337983
 20
762.7623953114863
 30
0.0
 11
40.60496743379834
 21
767.3811974650033
 31
0.0
  0
LINE
  5
143
330
4E
100
AcDbEntity
  8
0
  6
Continuous
 62
     7
100
AcDbLine
 10
40.60496743379834
 20
767.3811974650033
 30
0.0
 11
40.60496743379835
 21
776.6188017720373
 31
0.0
  0
LINE
  5
144
330
4E
100
AcDbEntity
  8
0
  6
Continuous
 62
     7
100
AcDbLine
 10
68.95022975015424
 20
762.0249993302089
 30
0.0
 11
38.6049674337983
 21
762.0249993302089
 31
0.0
  0
LINE
  5
145
330
4E
100
AcDbEntity
  8
0
  6
Continuous
 62
     7
100
AcDbLine
 10
40.60496743379835
 20
776.6188017720373
 30
0.0
 11
48.60496743379835
 21
781.2376039255543
 31
0.0
  0
LINE
  5
146
330
4E
100
AcDbEntity
  8
0
  6
Continuous
 62
     7
100
AcDbLine
 10
66.00001589306376
 20
786.8499996185203
 30
0.0
 11
70.32002692042117
 21
786.8499996185203
 31
0.0
  0
LINE
  5
147
330
4E
100
AcDbEntity
  8
0
  6
Continuous
 62
     7
100
AcDbLine
 10
38.6049674337983
 20
762.0249993302089
 30
0.0
 11
38.60496743379832
 21
782.0249993302086
 31
0.0
  0
LINE
  5
148
330
4E
100
AcDbEntity
  8
0
  6
Continuous
 62
     7
100
AcDbLine
 10
68.95022975015424
 20
782.0249993302086
 30
0.0
 11
68.95022975015424
 21
762.0249993302089
 31
0.0
  0
LINE
  5
149
330
4E
100
AcDbEntity
  8
0
  6
Continuous
 62
     7
100
AcDbLine
 10
82.46179154339661
 20
786.8499996185203
 30
0.0
 11
70.32002692042117
 21
786.8499996185203
 31
0.0
  0
LINE
  5
14A
330
4E
100
AcDbEntity
  8
0
  6
Continuous
 62
     7
100
AcDbLine
 10
83.36199786405469
 20
786.8499996185203
 30
0.0
 11
82.46179154339661
 21
786.8499996185203
 31
0.0
  0
LINE
  5
14B
330
4E
100
AcDbEntity
  8
0
  6
Continuous
 62
     7
100
AcDbLine
 10
89.53820418471274
 20
786.8499996185203
 30
0.0
 11
88.63799786405473
 21
786.8499996185203
 31
0.0
  0
LINE
  5
14C
330
4E
100
AcDbEntity
  8
0
  6
Continuous
 62
     7
100
AcDbLine
 10
88.63799786405473
 20
786.8499996185203
 30
0.0
 11
83.36199786405469
 21
786.8499996185203
 31
0.0
  0
LINE
  5
14D
330
4E
100
AcDbEntity
  8
0
  6
Continuous
 62
     7
100
AcDbLine
 10
56.60496743379835
 20
767.3811974650033
 30
0.0
 11
48.6049674337983
 21
762.7623953114863
 31
0.0
  0
LINE
  5
14E
330
4E
100
AcDbEntity
  8
0
  6
Continuous
 62
     7
100
AcDbLine
 10
115.6049674337983
 20
767.3811974650033
 30
0.0
 11
115.6049674337983
 21
776.6188017720373
 31
0.0
  0
LINE
  5
14F
330
4E
100
AcDbEntity
  8
0
  6
Continuous
 62
     7
100
AcDbLine
 10
123.6049674337983
 20
781.2376039255544
 30
0.0
 11
131.6049674337983
 21
776.6188017720374
 31
0.0
  0
LINE
  5
150
330
4E
100
AcDbEntity
  8
0
  6
Continuous
 62
     7
100
AcDbLine
 10
103.0498020359733
 20
761.974999906832
 30
0.0
 11
103.0498020359733
 21
781.974999906832
 31
0.0
  0
LINE
  5
151
330
4E
100
AcDbEntity
  8
0
  6
Continuous
 62
     7
100
AcDbLine
 10
103.0498020359733
 20
781.974999906832
 30
0.0
 11
133.6049674337983
 21
781.974999906832
 31
0.0
  0
LINE
  5
152
330
4E
100
AcDbEntity
  8
0
  6
Continuous
 62
     7
100
AcDbLine
 10
123.6049674337983
 20
762.7623953114863
 30
0.0
 11
115.6049674337983
 21
767.3811974650033
 31
0.0
  0
LINE
  5
153
330
4E
100
AcDbEntity
  8
0
  6
Continuous
 62
     7
100
AcDbLine
 10
133.6049674337983
 20
781.974999906832
 30
0.0
 11
133.6049674337983
 21
761.974999906832
 31
0.0
  0
LINE
  5
154
330
4E
100
AcDbEntity
  8
0
  6
Continuous
 62
     7
100
AcDbLine
 10
131.6049674337983
 20
776.6188017720374
 30
0.0
 11
131.6049674337983
 21
767.3811974650033
 31
0.0
  0
LINE
  5
155
330
4E
100
AcDbEntity
  8
0
  6
Continuous
 62
     7
100
AcDbLine
 10
131.6049674337983
 20
767.3811974650033
 30
0.0
 11
123.6049674337983
 21
762.7623953114863
 31
0.0
  0
LINE
  5
156
330
4E
100
AcDbEntity
  8
0
  6
Continuous
 62
     7
100
AcDbLine
 10
115.6049674337983
 20
776.6188017720373
 30
0.0
 11
123.6049674337983
 21
781.2376039255544
 31
0.0
  0
LINE
  5
157
330
4E
100
AcDbEntity
  8
1
  6
DOT_CENTER
 62
     2
100
AcDbLine
 10
75.81001589306373
 20
771.9999996185203
 30
0.0
 11
71.19001589306376
 21
771.9999996185203
 31
0.0
  0
LINE
  5
158
330
4E
100
AcDbEntity
  8
1
  6
DOT_CENTER
 62
     2
100
AcDbLine
 10
73.50001589306375
 20
774.3099996185204
 30
0.0
 11
73.50001589306375
 21
769.6899996185202
 31
0.0
  0
LINE
  5
159
330
4E
100
AcDbEntity
  8
1
  6
DOT_CENTER
 62
     2
100
AcDbLine
 10
100.8100158930638
 20
771.9999996185203
 30
0.0
 11
96.19001589306379
 21
771.9999996185203
 31
0.0
  0
LINE
  5
15A
330
4E
100
AcDbEntity
  8
1
  6
DOT_CENTER
 62
     2
100
AcDbLine
 10
98.50001589306378
 20
774.3099996185204
 30
0.0
 11
98.50001589306378
 21
769.6899996185202
 31
0.0
  0
CIRCLE
  5
15B
330
4E
100
AcDbEntity
  8
0
  6
Continuous
 62
     7
100
AcDbCircle
 10
98.50001589306378
 20
771.9999996185203
 30
0.0
 40
2.099999999999994
  0
CIRCLE
  5
15C
330
4E
100
AcDbEntity
  8
0
  6
Continuous
 62
     7
100
AcDbCircle
 10
73.50001589306375
 20
771.9999996185203
 30
0.0
 40
2.099999999999994
  0
ENDBLK
  5
50
330
4E
100
AcDbEntity
  8
0
100
AcDbBlockEnd
  0
BLOCK
  5
53
330
51
100
AcDbEntity
  8
0
100
AcDbBlockBegin
  2
Drfsicht1
 70
     0
 10
85.99999930335707
 20
771.999999999995
 30
0.0
  3
Drfsicht1
  1

  0
INSERT
  5
52
330
51
100
AcDbEntity
  8
0
100
AcDbBlockReference
  2
UHV_50_M10_M10_select__2
 10
38.6049674337983
 20
757.1499996185204
 30
0.0
  0
MTEXT
  5
15D
330
51
100
AcDbEntity
  8
1
 62
     6
100
AcDbMText
 10
85.99999930335707
 20
752.1499996185253
 30
0.0
 40
5.0
 41
0.0
 71
     2
 72
     1
  1
 
  7
CONVERTER_11
 73
     1
 44
1.32052821128451
  0
DIMENSION
  5
168
330
51
100
AcDbEntity
  8
1
100
AcDbDimension
  2
*D17
 10
28.45705166650936
 20
786.8499996185203
 30
0.0
 11
25.03205166650936
 21
771.3538706326862
 31
0.0
 70
    32
  1
<>
 71
     5
 42
-1.0
 53
90.0
  3
ME10_DIM_10
100
AcDbAlignedDimension
 13
70.32002692042113
 23
757.1499996185204
 33
0.0
 14
70.32002692042117
 24
786.8499996185203
 34
0.0
 50
90.0
100
AcDbRotatedDimension
  0
ENDBLK
  5
54
330
51
100
AcDbEntity
  8
0
100
AcDbBlockEnd
  0
BLOCK
  5
56
330
55
100
AcDbEntity
  8
0
100
AcDbBlockBegin
  2
UHV_50_M10_M10_select__3
 70
     0
 10
203.0950337513007
 20
895.837804282193
 30
0.0
  3
UHV_50_M10_M10_select__3
  1

  0
LINE
  5
169
330
55
100
AcDbEntity
  8
0
  6
Continuous
 62
     7
100
AcDbLine
 10
218.0950337513008
 20
915.4878042654352
 30
0.0
 11
208.0950337513008
 21
915.4878042654352
 31
0.0
  0
LINE
  5
16A
330
55
100
AcDbEntity
  8
0
  6
Continuous
 62
     7
100
AcDbLine
 10
248.1196005341327
 20
903.0015669143799
 30
0.0
 11
248.1196005341328
 21
901.9015669143798
 31
0.0
  0
LINE
  5
16B
330
55
100
AcDbEntity
  8
0
  6
Continuous
 62
     7
100
AcDbLine
 10
230.2196005341328
 20
901.8374652992422
 30
0.0
 11
230.2196005341328
 21
903.087804282193
 31
0.0
  0
LINE
  5
16C
330
55
100
AcDbEntity
  8
0
  6
Continuous
 62
     7
100
AcDbLine
 10
227.3999852920353
 20
900.7374652992422
 30
0.0
 11
221.7696041906965
 21
900.7374652992422
 31
0.0
  0
LINE
  5
16D
330
55
100
AcDbEntity
  8
0
  6
Continuous
 62
     7
100
AcDbLine
 10
221.7696041906965
 20
903.2374652992422
 30
0.0
 11
221.7696041906965
 21
900.7374652992422
 31
0.0
  0
LINE
  5
16E
330
55
100
AcDbEntity
  8
0
  6
Continuous
 62
     7
100
AcDbLine
 10
223.3532303790614
 20
903.2374652992422
 30
0.0
 11
226.3337945341328
 21
903.2374652992422
 31
0.0
  0
LINE
  5
16F
330
55
100
AcDbEntity
  8
0
  6
Continuous
 62
     7
100
AcDbLine
 10
237.9499852920353
 20
905.1878042821929
 30
0.0
 11
250.0499852920591
 21
905.1878042821929
 31
0.0
  0
LINE
  5
170
330
55
100
AcDbEntity
  8
0
  6
Continuous
 62
     7
100
AcDbLine
 10
232.5196005341328
 20
901.2211821566506
 30
0.0
 11
230.2196005341328
 21
901.8374652992422
 31
0.0
  0
LINE
  5
171
330
55
100
AcDbEntity
  8
0
  6
Continuous
 62
     7
100
AcDbLine
 10
250.1196005341328
 20
903.5374652992422
 30
0.0
 11
248.1196005341327
 21
903.0015669143799
 31
0.0
  0
LINE
  5
172
330
55
100
AcDbEntity
  8
0
  6
Continuous
 62
     7
100
AcDbLine
 10
208.0950337513008
 20
926.4878042821931
 30
0.0
 11
208.0950337513008
 21
915.4878042654352
 31
0.0
  0
LINE
  5
173
330
55
100
AcDbEntity
  8
0
  6
Continuous
 62
     7
100
AcDbLine
 10
288.0950337513007
 20
935.4878042654352
 30
0.0
 11
280.0950337513007
 21
935.4878042654352
 31
0.0
  0
LINE
  5
174
330
55
100
AcDbEntity
  8
0
  6
Continuous
 62
     7
100
AcDbLine
 10
296.0950337513007
 20
935.4878042654352
 30
0.0
 11
288.0950337513007
 21
935.4878042654352
 31
0.0
  0
LINE
  5
175
330
55
100
AcDbEntity
  8
0
  6
Continuous
 62
     7
100
AcDbLine
 10
268.2787523770702
 20
930.3692984938946
 30
0.0
 11
267.7497714349448
 21
933.3692984938946
 31
0.0
  0
LINE
  5
176
330
55
100
AcDbEntity
  8
0
  6
Continuous
 62
     7
100
AcDbLine
 10
267.7497714349448
 20
933.3692984938946
 30
0.0
 11
266.3799742646779
 21
941.1378042821931
 31
0.0
  0
LINE
  5
177
330
55
100
AcDbEntity
  8
0
  6
Continuous
 62
     7
100
AcDbLine
 10
266.2999852920353
 20
897.487804282193
 30
0.0
 11
267.577170416717
 21
897.2626020853522
 31
0.0
  0
LINE
  5
178
330
55
100
AcDbEntity
  8
0
  6
Continuous
 62
     7
100
AcDbLine
 10
265.3999852920354
 20
903.087804282193
 30
0.0
 11
265.3999852920352
 21
901.9878393091119
 31
0.0
  0
LINE
  5
179
330
55
100
AcDbEntity
  8
0
  6
Continuous
 62
     7
100
AcDbLine
 10
270.6999852920353
 20
916.6378042821934
 30
0.0
 11
270.6999852920353
 21
901.1296627108972
 31
0.0
  0
LINE
  5
17A
330
55
100
AcDbEntity
  8
0
  6
Continuous
 62
     7
100
AcDbLine
 10
270.6999852920353
 20
916.6378042821934
 30
0.0
 11
268.2787523770702
 21
930.3692984938946
 31
0.0
  0
LINE
  5
17B
330
55
100
AcDbEntity
  8
0
  6
Continuous
 62
     7
100
AcDbLine
 10
283.0950337513007
 20
926.4878042821931
 30
0.0
 11
283.0950337513007
 21
915.4878042654352
 31
0.0
  0
LINE
  5
17C
330
55
100
AcDbEntity
  8
0
  6
Continuous
 62
     7
100
AcDbLine
 10
293.0950337513007
 20
926.4878042821931
 30
0.0
 11
293.0950337513007
 21
915.4878042654352
 31
0.0
  0
LINE
  5
17D
330
55
100
AcDbEntity
  8
0
  6
Continuous
 62
     7
100
AcDbLine
 10
267.2499852920354
 20
899.1378042821931
 30
0.0
 11
266.2999852920353
 21
899.1378042821931
 31
0.0
  0
LINE
  5
17E
330
55
100
AcDbEntity
  8
0
  6
Continuous
 62
     7
100
AcDbLine
 10
266.2999852920353
 20
899.1378042821931
 30
0.0
 11
266.2999852920353
 21
897.487804282193
 31
0.0
  0
LINE
  5
17F
330
55
100
AcDbEntity
  8
0
  6
Continuous
 62
     7
100
AcDbLine
 10
263.0499852920353
 20
900.6310661765164
 30
0.0
 11
263.0499852920353
 21
896.1983964130861
 31
0.0
  0
LINE
  5
180
330
55
100
AcDbEntity
  8
0
  6
Continuous
 62
     7
100
AcDbLine
 10
265.3999852920352
 20
901.9878393091119
 30
0.0
 11
263.0499852920353
 21
900.6310661765164
 31
0.0
  0
LINE
  5
181
330
55
100
AcDbEntity
  8
0
  6
Continuous
 62
     7
100
AcDbLine
 10
270.6999852920353
 20
901.1296627108972
 30
0.0
 11
267.2499852920354
 21
899.1378042821931
 31
0.0
  0
LINE
  5
182
330
55
100
AcDbEntity
  8
0
  6
Continuous
 62
     7
100
AcDbLine
 10
248.1196005341328
 20
901.9015669143798
 30
0.0
 11
250.8555072272399
 21
898.2229459795197
 31
0.0
  0
LINE
  5
183
330
55
100
AcDbEntity
  8
0
  6
Continuous
 62
     7
100
AcDbLine
 10
253.9196005341328
 20
899.2374652992421
 30
0.0
 11
253.9196005341328
 21
903.087804282193
 31
0.0
  0
LINE
  5
184
330
55
100
AcDbEntity
  8
0
  6
Continuous
 62
     7
100
AcDbLine
 10
213.0950337513008
 20
935.4878042654352
 30
0.0
 11
205.0950337513008
 21
935.4878042654352
 31
0.0
  0
LINE
  5
185
330
55
100
AcDbEntity
  8
0
  6
Continuous
 62
     7
100
AcDbLine
 10
205.0950337513008
 20
935.4878042654352
 30
0.0
 11
205.0950337513008
 21
933.3692984938946
 31
0.0
  0
LINE
  5
186
330
55
100
AcDbEntity
  8
0
  6
Continuous
 62
     7
100
AcDbLine
 10
208.0950337513008
 20
926.4878042821931
 30
0.0
 11
207.0950337513008
 21
926.4878042821931
 31
0.0
  0
LINE
  5
187
330
55
100
AcDbEntity
  8
0
  6
Continuous
 62
     7
100
AcDbLine
 10
218.0950337513008
 20
926.4878042821931
 30
0.0
 11
208.0950337513008
 21
926.4878042821931
 31
0.0
  0
LINE
  5
188
330
55
100
AcDbEntity
  8
0
  6
Continuous
 62
     7
100
AcDbLine
 10
282.0950337513007
 20
930.3692984938946
 30
0.0
 11
282.0950337513007
 21
926.487804282193
 31
0.0
  0
LINE
  5
189
330
55
100
AcDbEntity
  8
0
  6
Continuous
 62
     7
100
AcDbLine
 10
207.0950337513008
 20
930.3692984938946
 30
0.0
 11
207.0950337513008
 21
926.4878042821931
 31
0.0
  0
LINE
  5
18A
330
55
100
AcDbEntity
  8
0
  6
Continuous
 62
     7
100
AcDbLine
 10
294.0950337513007
 20
930.3692984938946
 30
0.0
 11
294.0950337513007
 21
926.4878042821931
 31
0.0
  0
LINE
  5
18B
330
55
100
AcDbEntity
  8
0
  6
Continuous
 62
     7
100
AcDbLine
 10
283.0950337513007
 20
926.4878042821931
 30
0.0
 11
282.0950337513007
 21
926.487804282193
 31
0.0
  0
LINE
  5
18C
330
55
100
AcDbEntity
  8
0
  6
Continuous
 62
     7
100
AcDbLine
 10
293.0950337513007
 20
926.4878042821931
 30
0.0
 11
283.0950337513007
 21
926.4878042821931
 31
0.0
  0
LINE
  5
18D
330
55
100
AcDbEntity
  8
0
  6
Continuous
 62
     7
100
AcDbLine
 10
294.0950337513007
 20
926.4878042821931
 30
0.0
 11
293.0950337513007
 21
926.4878042821931
 31
0.0
  0
LINE
  5
18E
330
55
100
AcDbEntity
  8
0
  6
Continuous
 62
     7
100
AcDbLine
 10
298.0950337513007
 20
933.3692984938946
 30
0.0
 11
296.0950337513007
 21
933.3692984938946
 31
0.0
  0
LINE
  5
18F
330
55
100
AcDbEntity
  8
0
  6
Continuous
 62
     7
100
AcDbLine
 10
294.0950337513007
 20
930.3692984938946
 30
0.0
 11
298.0950337513007
 21
930.3692984938946
 31
0.0
  0
LINE
  5
190
330
55
100
AcDbEntity
  8
0
  6
Continuous
 62
     7
100
AcDbLine
 10
282.0950337513007
 20
930.3692984938946
 30
0.0
 11
294.0950337513007
 21
930.3692984938946
 31
0.0
  0
LINE
  5
191
330
55
100
AcDbEntity
  8
0
  6
Continuous
 62
     7
100
AcDbLine
 10
298.0950337513007
 20
930.3692984938946
 30
0.0
 11
298.0950337513007
 21
933.3692984938946
 31
0.0
  0
LINE
  5
192
330
55
100
AcDbEntity
  8
0
  6
Continuous
 62
     7
100
AcDbLine
 10
203.0950337513008
 20
930.3692984938946
 30
0.0
 11
207.0950337513008
 21
930.3692984938946
 31
0.0
  0
LINE
  5
193
330
55
100
AcDbEntity
  8
0
  6
Continuous
 62
     7
100
AcDbLine
 10
203.0950337513007
 20
933.3692984938946
 30
0.0
 11
203.0950337513008
 21
930.3692984938946
 31
0.0
  0
LINE
  5
194
330
55
100
AcDbEntity
  8
0
  6
Continuous
 62
     7
100
AcDbLine
 10
205.0950337513008
 20
933.3692984938946
 30
0.0
 11
203.0950337513007
 21
933.3692984938946
 31
0.0
  0
LINE
  5
195
330
55
100
AcDbEntity
  8
0
  6
Continuous
 62
     7
100
AcDbLine
 10
219.0950337513008
 20
930.3692984938946
 30
0.0
 11
233.1212182070004
 21
930.3692984938946
 31
0.0
  0
LINE
  5
196
330
55
100
AcDbEntity
  8
0
  6
Continuous
 62
     7
100
AcDbLine
 10
280.0950337513007
 20
933.3692984938946
 30
0.0
 11
267.7497714349448
 21
933.3692984938946
 31
0.0
  0
LINE
  5
197
330
55
100
AcDbEntity
  8
0
  6
Continuous
 62
     7
100
AcDbLine
 10
233.6501991491258
 20
933.3692984938946
 30
0.0
 11
221.0950337513008
 21
933.3692984938946
 31
0.0
  0
LINE
  5
198
330
55
100
AcDbEntity
  8
0
  6
Continuous
 62
     7
100
AcDbLine
 10
268.2787523770702
 20
930.3692984938946
 30
0.0
 11
282.0950337513007
 21
930.3692984938946
 31
0.0
  0
LINE
  5
199
330
55
100
AcDbEntity
  8
0
  6
Continuous
 62
     7
100
AcDbLine
 10
207.0950337513008
 20
930.3692984938946
 30
0.0
 11
219.0950337513008
 21
930.3692984938946
 31
0.0
  0
LINE
  5
19A
330
55
100
AcDbEntity
  8
0
  6
Continuous
 62
     7
100
AcDbLine
 10
221.0950337513008
 20
933.3692984938946
 30
0.0
 11
205.0950337513008
 21
933.3692984938946
 31
0.0
  0
LINE
  5
19B
330
55
100
AcDbEntity
  8
0
  6
Continuous
 62
     7
100
AcDbLine
 10
253.8500033210443
 20
937.937804282193
 30
0.0
 11
253.8500033210443
 21
939.017804282193
 31
0.0
  0
LINE
  5
19C
330
55
100
AcDbEntity
  8
0
  6
Continuous
 62
     7
100
AcDbLine
 10
253.3380033210444
 20
939.017804282193
 30
0.0
 11
253.8500033210443
 21
939.017804282193
 31
0.0
  0
LINE
  5
19D
330
55
100
AcDbEntity
  8
0
  6
Continuous
 62
     7
100
AcDbLine
 10
265.2999852920353
 20
941.1378042821931
 30
0.0
 11
266.3799742646779
 21
941.1378042821931
 31
0.0
  0
LINE
  5
19E
330
55
100
AcDbEntity
  8
0
  6
Continuous
 62
     7
100
AcDbLine
 10
261.0999852920353
 20
941.1378042821931
 30
0.0
 11
265.2999852920353
 21
941.1378042821931
 31
0.0
  0
LINE
  5
19F
330
55
100
AcDbEntity
  8
0
  6
Continuous
 62
     7
100
AcDbLine
 10
254.2382096417024
 20
941.1378042821931
 30
0.0
 11
261.0999852920353
 21
941.1378042821931
 31
0.0
  0
LINE
  5
1A0
330
55
100
AcDbEntity
  8
0
  6
Continuous
 62
     7
100
AcDbLine
 10
250.2337114854635
 20
903.087804282193
 30
0.0
 11
253.9196005341328
 21
903.087804282193
 31
0.0
  0
LINE
  5
1A1
330
55
100
AcDbEntity
  8
0
  6
Continuous
 62
     7
100
AcDbLine
 10
253.9196005341328
 20
903.087804282193
 30
0.0
 11
265.3999852920354
 21
903.087804282193
 31
0.0
  0
LINE
  5
1A2
330
55
100
AcDbEntity
  8
0
  6
Continuous
 62
     7
100
AcDbLine
 10
253.3380033210444
 20
939.017804282193
 30
0.0
 11
254.2382096417024
 21
941.1378042821931
 31
0.0
  0
LINE
  5
1A3
330
55
100
AcDbEntity
  8
0
  6
Continuous
 62
     7
100
AcDbLine
 10
227.3999852920353
 20
910.8374652992421
 30
0.0
 11
223.6196005341328
 21
910.8374652992421
 31
0.0
  0
LINE
  5
1A4
330
55
100
AcDbEntity
  8
0
  6
Continuous
 62
     7
100
AcDbLine
 10
227.3999852920353
 20
908.8374652992421
 30
0.0
 11
223.6196005341328
 21
908.8374652992421
 31
0.0
  0
LINE
  5
1A5
330
55
100
AcDbEntity
  8
0
  6
Continuous
 62
     7
100
AcDbLine
 10
230.0499597252116
 20
903.0878042821931
 30
0.0
 11
230.2196005341328
 21
903.087804282193
 31
0.0
  0
LINE
  5
1A6
330
55
100
AcDbEntity
  8
0
  6
Continuous
 62
     7
100
AcDbLine
 10
230.2196005341328
 20
903.087804282193
 30
0.0
 11
237.9499852920353
 21
903.087804282193
 31
0.0
  0
LINE
  5
1A7
330
55
100
AcDbEntity
  8
0
  6
Continuous
 62
     7
100
AcDbLine
 10
226.9153091233196
 20
905.1922604012512
 30
0.0
 11
227.3999852920353
 21
906.8215275224609
 31
0.0
  0
LINE
  5
1A8
330
55
100
AcDbEntity
  8
0
  6
Continuous
 62
     7
100
AcDbLine
 10
293.0950337513007
 20
915.4878042654352
 30
0.0
 11
283.0950337513007
 21
915.4878042654352
 31
0.0
  0
LINE
  5
1A9
330
55
100
AcDbEntity
  8
0
  6
Continuous
 62
     7
100
AcDbLine
 10
247.5500033210443
 20
937.937804282193
 30
0.0
 11
247.5500033210443
 21
939.017804282193
 31
0.0
  0
LINE
  5
1AA
330
55
100
AcDbEntity
  8
0
  6
Continuous
 62
     7
100
AcDbLine
 10
248.0620033210443
 20
939.017804282193
 30
0.0
 11
247.5500033210443
 21
939.017804282193
 31
0.0
  0
LINE
  5
1AB
330
55
100
AcDbEntity
  8
0
  6
Continuous
 62
     7
100
AcDbLine
 10
250.1196005341328
 20
904.3920984242206
 30
0.0
 11
250.1196005341328
 21
903.5374652992422
 31
0.0
  0
LINE
  5
1AC
330
55
100
AcDbEntity
  8
0
  6
Continuous
 62
     7
100
AcDbLine
 10
250.1196005341328
 20
904.3920984242206
 30
0.0
 11
250.2337114854635
 21
903.087804282193
 31
0.0
  0
LINE
  5
1AD
330
55
100
AcDbEntity
  8
0
  6
Continuous
 62
     7
100
AcDbLine
 10
247.5500033210443
 20
937.937804282193
 30
0.0
 11
253.8500033210443
 21
937.937804282193
 31
0.0
  0
LINE
  5
1AE
330
55
100
AcDbEntity
  8
0
  6
Continuous
 62
     7
100
AcDbLine
 10
250.0499852920591
 20
905.1878042821929
 30
0.0
 11
250.1196005341328
 21
904.3920984242206
 31
0.0
  0
LINE
  5
1AF
330
55
100
AcDbEntity
  8
0
  6
Continuous
 62
     7
100
AcDbLine
 10
247.1617970003863
 20
941.1378042821931
 30
0.0
 11
248.0620033210443
 21
939.017804282193
 31
0.0
  0
LINE
  5
1B0
330
55
100
AcDbEntity
  8
0
  6
Continuous
 62
     7
100
AcDbLine
 10
205.0950337513008
 20
935.4878042654352
 30
0.0
 11
205.0950337513008
 21
942.0678042654353
 31
0.0
  0
LINE
  5
1B1
330
55
100
AcDbEntity
  8
0
  6
Continuous
 62
     7
100
AcDbLine
 10
296.0950337513007
 20
935.4878042654352
 30
0.0
 11
296.0950337513007
 21
933.3692984938946
 31
0.0
  0
LINE
  5
1B2
330
55
100
AcDbEntity
  8
0
  6
Continuous
 62
     7
100
AcDbLine
 10
280.0950337513007
 20
935.4878042654352
 30
0.0
 11
280.0950337513007
 21
933.3692984938946
 31
0.0
  0
LINE
  5
1B3
330
55
100
AcDbEntity
  8
0
  6
Continuous
 62
     7
100
AcDbLine
 10
296.0950337513007
 20
935.4878042654352
 30
0.0
 11
296.0950337513007
 21
942.0678042654353
 31
0.0
  0
LINE
  5
1B4
330
55
100
AcDbEntity
  8
0
  6
Continuous
 62
     7
100
AcDbLine
 10
288.0950337513007
 20
935.4878042654352
 30
0.0
 11
288.0950337513007
 21
942.0678042654353
 31
0.0
  0
LINE
  5
1B5
330
55
100
AcDbEntity
  8
0
  6
Continuous
 62
     7
100
AcDbLine
 10
240.2999852920353
 20
941.1378042821931
 30
0.0
 11
240.2999852920353
 21
941.8692984938946
 31
0.0
  0
LINE
  5
1B6
330
55
100
AcDbEntity
  8
0
  6
Continuous
 62
     7
100
AcDbLine
 10
236.0999852920353
 20
941.1378042821931
 30
0.0
 11
236.0999852920353
 21
941.8692984938946
 31
0.0
  0
LINE
  5
1B7
330
55
100
AcDbEntity
  8
0
  6
Continuous
 62
     7
100
AcDbLine
 10
236.0999852920353
 20
941.8692984938946
 30
0.0
 11
240.2999852920353
 21
941.8692984938946
 31
0.0
  0
LINE
  5
1B8
330
55
100
AcDbEntity
  8
0
  6
Continuous
 62
     7
100
AcDbLine
 10
265.2999852920353
 20
941.1378042821931
 30
0.0
 11
265.2999852920353
 21
942.1378042821931
 31
0.0
  0
LINE
  5
1B9
330
55
100
AcDbEntity
  8
0
  6
Continuous
 62
     7
100
AcDbLine
 10
261.0999852920353
 20
941.1378042821931
 30
0.0
 11
261.0999852920353
 21
942.1378042821931
 31
0.0
  0
LINE
  5
1BA
330
55
100
AcDbEntity
  8
0
  6
Continuous
 62
     7
100
AcDbLine
 10
235.0199963193927
 20
941.1378042821931
 30
0.0
 11
233.6501991491258
 21
933.3692984938946
 31
0.0
  0
LINE
  5
1BB
330
55
100
AcDbEntity
  8
0
  6
Continuous
 62
     7
100
AcDbLine
 10
233.6501991491258
 20
933.3692984938946
 30
0.0
 11
233.1212182070004
 21
930.3692984938946
 31
0.0
  0
LINE
  5
1BC
330
55
100
AcDbEntity
  8
0
  6
Continuous
 62
     7
100
AcDbLine
 10
261.0999852920353
 20
942.1378042821931
 30
0.0
 11
265.2999852920353
 21
942.1378042821931
 31
0.0
  0
LINE
  5
1BD
330
55
100
AcDbEntity
  8
0
  6
Continuous
 62
     7
100
AcDbLine
 10
280.0950337513007
 20
935.4878042654352
 30
0.0
 11
280.0950337513007
 21
942.0678042654353
 31
0.0
  0
LINE
  5
1BE
330
55
100
AcDbEntity
  8
0
  6
Continuous
 62
     7
100
AcDbLine
 10
296.0950337513007
 20
942.0678042654353
 30
0.0
 11
288.0950337513007
 21
942.0678042654353
 31
0.0
  0
LINE
  5
1BF
330
55
100
AcDbEntity
  8
0
  6
Continuous
 62
     7
100
AcDbLine
 10
288.0950337513007
 20
942.0678042654353
 30
0.0
 11
280.0950337513007
 21
942.0678042654353
 31
0.0
  0
LINE
  5
1C0
330
55
100
AcDbEntity
  8
0
  6
Continuous
 62
     7
100
AcDbLine
 10
213.0950337513007
 20
942.0678042654353
 30
0.0
 11
205.0950337513008
 21
942.0678042654353
 31
0.0
  0
LINE
  5
1C1
330
55
100
AcDbEntity
  8
0
  6
Continuous
 62
     7
100
AcDbLine
 10
296.0950337513007
 20
933.3692984938946
 30
0.0
 11
280.0950337513007
 21
933.3692984938946
 31
0.0
  0
LINE
  5
1C2
330
55
100
AcDbEntity
  8
0
  6
Continuous
 62
     7
100
AcDbLine
 10
236.0999852920353
 20
941.1378042821931
 30
0.0
 11
240.2999852920353
 21
941.1378042821931
 31
0.0
  0
LINE
  5
1C3
330
55
100
AcDbEntity
  8
0
  6
Continuous
 62
     7
100
AcDbLine
 10
235.0199963193927
 20
941.1378042821931
 30
0.0
 11
236.0999852920353
 21
941.1378042821931
 31
0.0
  0
LINE
  5
1C4
330
55
100
AcDbEntity
  8
0
  6
Continuous
 62
     7
100
AcDbLine
 10
237.9499852920353
 20
903.087804282193
 30
0.0
 11
237.9499852920353
 21
905.1878042821929
 31
0.0
  0
LINE
  5
1C5
330
55
100
AcDbEntity
  8
0
  6
Continuous
 62
     7
100
AcDbLine
 10
240.2999852920353
 20
941.1378042821931
 30
0.0
 11
247.1617970003863
 21
941.1378042821931
 31
0.0
  0
LINE
  5
1C6
330
55
100
AcDbEntity
  8
0
  6
Continuous
 62
     7
100
AcDbLine
 10
213.0950337513008
 20
935.4878042654352
 30
0.0
 11
213.0950337513007
 21
942.0678042654353
 31
0.0
  0
LINE
  5
1C7
330
55
100
AcDbEntity
  8
0
  6
Continuous
 62
     7
100
AcDbLine
 10
219.0950337513008
 20
926.487804282193
 30
0.0
 11
218.0950337513008
 21
926.4878042821931
 31
0.0
  0
LINE
  5
1C8
330
55
100
AcDbEntity
  8
0
  6
Continuous
 62
     7
100
AcDbLine
 10
219.0950337513008
 20
930.3692984938946
 30
0.0
 11
219.0950337513008
 21
926.487804282193
 31
0.0
  0
LINE
  5
1C9
330
55
100
AcDbEntity
  8
0
  6
Continuous
 62
     7
100
AcDbLine
 10
218.0950337513008
 20
926.4878042821931
 30
0.0
 11
218.0950337513008
 21
915.4878042654352
 31
0.0
  0
LINE
  5
1CA
330
55
100
AcDbEntity
  8
0
  6
Continuous
 62
     7
100
AcDbLine
 10
221.0950337513008
 20
942.0678042654353
 30
0.0
 11
213.0950337513007
 21
942.0678042654353
 31
0.0
  0
LINE
  5
1CB
330
55
100
AcDbEntity
  8
0
  6
Continuous
 62
     7
100
AcDbLine
 10
221.0950337513008
 20
935.4878042654352
 30
0.0
 11
213.0950337513008
 21
935.4878042654352
 31
0.0
  0
LINE
  5
1CC
330
55
100
AcDbEntity
  8
0
  6
Continuous
 62
     7
100
AcDbLine
 10
221.7696041906965
 20
903.2374652992422
 30
0.0
 11
223.3532303790614
 21
903.2374652992422
 31
0.0
  0
LINE
  5
1CD
330
55
100
AcDbEntity
  8
0
  6
Continuous
 62
     7
100
AcDbLine
 10
223.3532303790614
 20
904.237804282193
 30
0.0
 11
223.3532303790614
 21
903.2374652992422
 31
0.0
  0
LINE
  5
1CE
330
55
100
AcDbEntity
  8
0
  6
Continuous
 62
     7
100
AcDbLine
 10
221.0950337513008
 20
935.4878042654352
 30
0.0
 11
221.0950337513008
 21
933.3692984938946
 31
0.0
  0
LINE
  5
1CF
330
55
100
AcDbEntity
  8
0
  6
Continuous
 62
     7
100
AcDbLine
 10
232.5196005341328
 20
900.1211821566505
 30
0.0
 11
232.5196005341328
 21
901.2211821566506
 31
0.0
  0
LINE
  5
1D0
330
55
100
AcDbEntity
  8
0
  6
Continuous
 62
     7
100
AcDbLine
 10
227.4196005341328
 20
897.0374652992422
 30
0.0
 11
227.4196005341328
 21
900.537804282193
 31
0.0
  0
LINE
  5
1D1
330
55
100
AcDbEntity
  8
0
  6
Continuous
 62
     7
100
AcDbLine
 10
229.8268636332205
 20
900.537804282193
 30
0.0
 11
230.0499597252116
 21
903.0878042821931
 31
0.0
  0
LINE
  5
1D2
330
55
100
AcDbEntity
  8
0
  6
Continuous
 62
     7
100
AcDbLine
 10
227.3999852920353
 20
906.8215275224609
 30
0.0
 11
227.3999852920353
 21
908.8374652992421
 31
0.0
  0
LINE
  5
1D3
330
55
100
AcDbEntity
  8
0
  6
Continuous
 62
     7
100
AcDbLine
 10
227.3999852920353
 20
900.537804282193
 30
0.0
 11
227.3999852920353
 21
900.7374652992422
 31
0.0
  0
LINE
  5
1D4
330
55
100
AcDbEntity
  8
0
  6
Continuous
 62
     7
100
AcDbLine
 10
227.3999852920353
 20
908.8374652992421
 30
0.0
 11
227.3999852920353
 21
910.8374652992421
 31
0.0
  0
LINE
  5
1D5
330
55
100
AcDbEntity
  8
0
  6
Continuous
 62
     7
100
AcDbLine
 10
227.3999852920353
 20
910.8374652992421
 30
0.0
 11
227.3999852920353
 21
913.3378042821928
 31
0.0
  0
LINE
  5
1D6
330
55
100
AcDbEntity
  8
0
  6
Continuous
 62
     7
100
AcDbLine
 10
227.3999852920353
 20
900.7374652992422
 30
0.0
 11
227.3999852920353
 21
906.8215275224609
 31
0.0
  0
LINE
  5
1D7
330
55
100
AcDbEntity
  8
0
  6
Continuous
 62
     7
100
AcDbLine
 10
227.4196005341328
 20
900.537804282193
 30
0.0
 11
227.3999852920353
 21
900.537804282193
 31
0.0
  0
LINE
  5
1D8
330
55
100
AcDbEntity
  8
0
  6
Continuous
 62
     7
100
AcDbLine
 10
229.8268636332205
 20
900.537804282193
 30
0.0
 11
227.4196005341328
 21
900.537804282193
 31
0.0
  0
LINE
  5
1D9
330
55
100
AcDbEntity
  8
0
  6
Continuous
 62
     7
100
AcDbLine
 10
227.3999852920353
 20
913.3378042821928
 30
0.0
 11
230.6999852920352
 21
916.6378042821926
 31
0.0
  0
LINE
  5
1DA
330
55
100
AcDbEntity
  8
0
  6
Continuous
 62
     7
100
AcDbLine
 10
232.5196005341328
 20
900.1211821566505
 30
0.0
 11
229.1649368738932
 21
896.3707766607964
 31
0.0
  0
LINE
  5
1DB
330
55
100
AcDbEntity
  8
0
  6
Continuous
 62
     7
100
AcDbLine
 10
221.0950337513008
 20
935.4878042654352
 30
0.0
 11
221.0950337513008
 21
942.0678042654353
 31
0.0
  0
LINE
  5
1DC
330
55
100
AcDbEntity
  8
0
  6
Continuous
 62
     7
100
AcDbLine
 10
226.3337945341328
 20
903.2374652992422
 30
0.0
 11
226.9153091233196
 21
905.1922604012512
 31
0.0
  0
LINE
  5
1DD
330
55
100
AcDbEntity
  8
0
  6
Continuous
 62
     7
100
AcDbLine
 10
223.3532303790614
 20
904.237804282193
 30
0.0
 11
226.9153091233196
 21
905.1922604012512
 31
0.0
  0
LINE
  5
1DE
330
55
100
AcDbEntity
  8
0
  6
Continuous
 62
     7
100
AcDbLine
 10
233.1212182070004
 20
930.3692984938946
 30
0.0
 11
230.6999852920352
 21
916.6378042821926
 31
0.0
  0
LINE
  5
1DF
330
55
100
AcDbEntity
  8
1
  6
DOT_CENTER
 62
     2
100
AcDbLine
 10
238.1999852920353
 20
941.1378042821931
 30
0.0
 11
238.1999852920353
 21
941.8692984938946
 31
0.0
  0
LINE
  5
1E0
330
55
100
AcDbEntity
  8
1
  6
DOT_CENTER
 62
     2
100
AcDbLine
 10
213.0950337513008
 20
930.3692984938946
 30
0.0
 11
213.0950337513008
 21
915.4878042654353
 31
0.0
  0
LINE
  5
1E1
330
55
100
AcDbEntity
  8
1
  6
DOT_CENTER
 62
     2
100
AcDbLine
 10
213.0950337513008
 20
915.4878042654353
 30
0.0
 11
213.0950337513008
 21
930.3692984938946
 31
0.0
  0
LINE
  5
1E2
330
55
100
AcDbEntity
  8
1
  6
DOT_CENTER
 62
     2
100
AcDbLine
 10
288.0950337513007
 20
930.3692984938946
 30
0.0
 11
288.0950337513007
 21
915.4878042654352
 31
0.0
  0
LINE
  5
1E3
330
55
100
AcDbEntity
  8
1
  6
DOT_CENTER
 62
     2
100
AcDbLine
 10
288.0950337513007
 20
935.4878042654352
 30
0.0
 11
288.0950337513007
 21
933.3692984938946
 31
0.0
  0
LINE
  5
1E4
330
55
100
AcDbEntity
  8
1
  6
DOT_CENTER
 62
     2
100
AcDbLine
 10
263.1999852920353
 20
941.1378042821931
 30
0.0
 11
263.1999852920353
 21
942.1378042821931
 31
0.0
  0
ARC
  5
1E5
330
55
100
AcDbEntity
  8
0
  6
Continuous
 62
     7
100
AcDbCircle
 10
267.2166815893125
 20
896.7419089077524
 30
0.0
 40
0.6333037027228434
100
AcDbArc
 50
299.7856174917796
 51
55.30418182458656
  0
ARC
  5
1E6
330
55
100
AcDbEntity
  8
0
  6
Continuous
 62
     7
100
AcDbCircle
 10
252.2196005341328
 20
899.2374652992422
 30
0.0
 40
1.70000000000004
100
AcDbArc
 50
216.6393479621979
 51
359.9999999999962
  0
ARC
  5
1E7
330
55
100
AcDbEntity
  8
0
  6
Continuous
 62
     7
100
AcDbCircle
 10
265.2999852920353
 20
903.037804282193
 30
0.0
 40
7.200000000000022
100
AcDbArc
 50
251.790043135717
 51
288.0533195142245
  0
ARC
  5
1E8
330
55
100
AcDbEntity
  8
0
  6
Continuous
 62
     7
100
AcDbCircle
 10
223.6196005341328
 20
909.8374652992421
 30
0.0
 40
1.0
100
AcDbArc
 50
90.0
 51
270.0
  0
ARC
  5
1E9
330
55
100
AcDbEntity
  8
0
  6
Continuous
 62
     7
100
AcDbCircle
 10
228.4196005341328
 20
897.0374652992422
 30
0.0
 40
1.0
100
AcDbArc
 50
180.0
 51
318.1879961035054
  0
ENDBLK
  5
57
330
55
100
AcDbEntity
  8
0
100
AcDbBlockEnd
  0
BLOCK
  5
5A
330
58
100
AcDbEntity
  8
0
100
AcDbBlockBegin
  2
Rckans1
 70
     0
 10
250.700001881742
 20
918.9939043318316
 30
0.0
  3
Rckans1
  1

  0
INSERT
  5
59
330
58
100
AcDbEntity
  8
0
100
AcDbBlockReference
  2
UHV_50_M10_M10_select__3
 10
203.0950337513007
 20
895.837804282193
 30
0.0
  0
MTEXT
  5
1EA
330
58
100
AcDbEntity
  8
1
 62
     6
100
AcDbMText
 10
250.700001881742
 20
890.8500005368967
 30
0.0
 40
5.0
 41
0.0
 71
     2
 72
     1
  1
 
  7
CONVERTER_11
 73
     1
 44
1.32052821128451
  0
ENDBLK
  5
5B
330
58
100
AcDbEntity
  8
0
100
AcDbBlockEnd
  0
BLOCK
  5
5D
330
5C
100
AcDbEntity
  8
0
100
AcDbBlockBegin
  2
UHV_50_M10_M10_select__4
 70
     0
 10
153.5000009740377
 20
895.8378042821931
 30
0.0
  3
UHV_50_M10_M10_select__4
  1

  0
LINE
  5
1EB
330
5C
100
AcDbEntity
  8
0
  6
Continuous
 62
     7
100
AcDbLine
 10
153.5000009740377
 20
895.8378042821931
 30
0.0
 11
153.5000009740377
 21
896.1922708447935
 31
0.0
  0
LINE
  5
1EC
330
5C
100
AcDbEntity
  8
0
  6
Continuous
 62
     7
100
AcDbLine
 10
183.2000009740377
 20
895.8378042821931
 30
0.0
 11
183.2000009740377
 21
896.1922708447935
 31
0.0
  0
LINE
  5
1ED
330
5C
100
AcDbEntity
  8
0
  6
Continuous
 62
     7
100
AcDbLine
 10
153.5000009740377
 20
896.1922708447935
 30
0.0
 11
153.5000009740377
 21
897.2626020853522
 31
0.0
  0
LINE
  5
1EE
330
5C
100
AcDbEntity
  8
0
  6
Continuous
 62
     7
100
AcDbLine
 10
183.2000009740377
 20
896.1922708447935
 30
0.0
 11
183.2000009740377
 21
897.2626020853522
 31
0.0
  0
LINE
  5
1EF
330
5C
100
AcDbEntity
  8
0
  6
Continuous
 62
     7
100
AcDbLine
 10
183.2000009740377
 20
897.2626020853522
 30
0.0
 11
183.2000009740377
 21
897.487804282193
 31
0.0
  0
LINE
  5
1F0
330
5C
100
AcDbEntity
  8
0
  6
Continuous
 62
     7
100
AcDbLine
 10
153.5000009740377
 20
897.487804282193
 30
0.0
 11
153.5000009740377
 21
897.2626020853522
 31
0.0
  0
LINE
  5
1F1
330
5C
100
AcDbEntity
  8
0
  6
Continuous
 62
     7
100
AcDbLine
 10
153.5000009740377
 20
901.1296627108973
 30
0.0
 11
183.2000009740377
 21
901.1296627108973
 31
0.0
  0
LINE
  5
1F2
330
5C
100
AcDbEntity
  8
0
  6
Continuous
 62
     7
100
AcDbLine
 10
153.5000009740377
 20
899.1378042821931
 30
0.0
 11
183.2000009740377
 21
899.1378042821931
 31
0.0
  0
LINE
  5
1F3
330
5C
100
AcDbEntity
  8
0
  6
Continuous
 62
     7
100
AcDbLine
 10
153.5000009740377
 20
897.2626020853522
 30
0.0
 11
183.2000009740377
 21
897.2626020853522
 31
0.0
  0
LINE
  5
1F4
330
5C
100
AcDbEntity
  8
0
  6
Continuous
 62
     7
100
AcDbLine
 10
153.5000009740377
 20
896.1922708447935
 30
0.0
 11
183.2000009740377
 21
896.1922708447935
 31
0.0
  0
LINE
  5
1F5
330
5C
100
AcDbEntity
  8
0
  6
Continuous
 62
     7
100
AcDbLine
 10
183.2000009740377
 20
895.8378042821931
 30
0.0
 11
153.5000009740377
 21
895.8378042821931
 31
0.0
  0
LINE
  5
1F6
330
5C
100
AcDbEntity
  8
0
  6
Continuous
 62
     7
100
AcDbLine
 10
178.3250012623492
 20
933.3692984938947
 30
0.0
 11
178.3250012623492
 21
930.3692984938947
 31
0.0
  0
LINE
  5
1F7
330
5C
100
AcDbEntity
  8
0
  6
Continuous
 62
     7
100
AcDbLine
 10
173.3500009740378
 20
916.6378042821933
 30
0.0
 11
183.2000009740377
 21
916.6378042821931
 31
0.0
  0
LINE
  5
1F8
330
5C
100
AcDbEntity
  8
0
  6
Continuous
 62
     7
100
AcDbLine
 10
158.3250012623494
 20
930.3692984938947
 30
0.0
 11
158.3250012623494
 21
933.3692984938947
 31
0.0
  0
LINE
  5
1F9
330
5C
100
AcDbEntity
  8
0
  6
Continuous
 62
     7
100
AcDbLine
 10
173.3500009740378
 20
926.4878042821931
 30
0.0
 11
163.3500009740378
 21
926.4878042821931
 31
0.0
  0
LINE
  5
1FA
330
5C
100
AcDbEntity
  8
0
  6
Continuous
 62
     7
100
AcDbLine
 10
174.3500009740378
 20
926.4878042821931
 30
0.0
 11
173.3500009740378
 21
926.4878042821931
 31
0.0
  0
LINE
  5
1FB
330
5C
100
AcDbEntity
  8
0
  6
Continuous
 62
     7
100
AcDbLine
 10
172.9688031275548
 20
935.4878042654353
 30
0.0
 11
163.7311988205208
 21
935.4878042654353
 31
0.0
  0
LINE
  5
1FC
330
5C
100
AcDbEntity
  8
0
  6
Continuous
 62
     7
100
AcDbLine
 10
160.3500009740378
 20
933.3692984938947
 30
0.0
 11
158.3250012623494
 21
933.3692984938947
 31
0.0
  0
LINE
  5
1FD
330
5C
100
AcDbEntity
  8
0
  6
Continuous
 62
     7
100
AcDbLine
 10
178.3250012623492
 20
933.3692984938947
 30
0.0
 11
176.3500009740378
 21
933.3692984938947
 31
0.0
  0
LINE
  5
1FE
330
5C
100
AcDbEntity
  8
0
  6
Continuous
 62
     7
100
AcDbLine
 10
176.3500009740378
 20
933.3692984938947
 30
0.0
 11
160.3500009740378
 21
933.3692984938947
 31
0.0
  0
LINE
  5
1FF
330
5C
100
AcDbEntity
  8
0
  6
Continuous
 62
     7
100
AcDbLine
 10
153.5000009740377
 20
916.6378042821934
 30
0.0
 11
163.3500009740378
 21
916.6378042821933
 31
0.0
  0
LINE
  5
200
330
5C
100
AcDbEntity
  8
0
  6
Continuous
 62
     7
100
AcDbLine
 10
158.3250012623494
 20
930.3692984938947
 30
0.0
 11
162.3500009740378
 21
930.3692984938947
 31
0.0
  0
LINE
  5
201
330
5C
100
AcDbEntity
  8
0
  6
Continuous
 62
     7
100
AcDbLine
 10
174.3500009740378
 20
930.3692984938947
 30
0.0
 11
178.3250012623492
 21
930.3692984938947
 31
0.0
  0
LINE
  5
202
330
5C
100
AcDbEntity
  8
0
  6
Continuous
 62
     7
100
AcDbLine
 10
162.3500009740378
 20
930.3692984938947
 30
0.0
 11
174.3500009740378
 21
930.3692984938947
 31
0.0
  0
LINE
  5
203
330
5C
100
AcDbEntity
  8
0
  6
Continuous
 62
     7
100
AcDbLine
 10
176.3500009740378
 20
935.4878042654353
 30
0.0
 11
176.3500009740378
 21
933.3692984938947
 31
0.0
  0
LINE
  5
204
330
5C
100
AcDbEntity
  8
0
  6
Continuous
 62
     7
100
AcDbLine
 10
174.3500009740378
 20
930.3692984938947
 30
0.0
 11
174.3500009740378
 21
926.4878042821931
 31
0.0
  0
LINE
  5
205
330
5C
100
AcDbEntity
  8
0
  6
Continuous
 62
     7
100
AcDbLine
 10
177.5876052810718
 20
935.4878042654353
 30
0.0
 11
176.3500009740378
 21
935.4878042654353
 31
0.0
  0
LINE
  5
206
330
5C
100
AcDbEntity
  8
0
  6
Continuous
 62
     7
100
AcDbLine
 10
160.3500009740378
 20
935.4878042654353
 30
0.0
 11
159.1123966670038
 21
935.4878042654353
 31
0.0
  0
LINE
  5
207
330
5C
100
AcDbEntity
  8
0
  6
Continuous
 62
     7
100
AcDbLine
 10
176.3500009740378
 20
935.4878042654353
 30
0.0
 11
172.9688031275548
 21
935.4878042654353
 31
0.0
  0
LINE
  5
208
330
5C
100
AcDbEntity
  8
0
  6
Continuous
 62
     7
100
AcDbLine
 10
177.5876052810718
 20
935.4878042654353
 30
0.0
 11
177.5876052810718
 21
941.1378042821931
 31
0.0
  0
LINE
  5
209
330
5C
100
AcDbEntity
  8
0
  6
Continuous
 62
     7
100
AcDbLine
 10
177.5876052810718
 20
941.1378042821931
 30
0.0
 11
177.5876052810718
 21
942.0678042654353
 31
0.0
  0
LINE
  5
20A
330
5C
100
AcDbEntity
  8
0
  6
Continuous
 62
     7
100
AcDbLine
 10
170.4500009740378
 20
942.0678042654353
 30
0.0
 11
170.4500009740378
 21
942.1378042821931
 31
0.0
  0
LINE
  5
20B
330
5C
100
AcDbEntity
  8
0
  6
Continuous
 62
     7
100
AcDbLine
 10
172.9688031275548
 20
935.4878042654353
 30
0.0
 11
172.9688031275548
 21
942.0678042654353
 31
0.0
  0
LINE
  5
20C
330
5C
100
AcDbEntity
  8
0
  6
Continuous
 62
     7
100
AcDbLine
 10
177.5876052810718
 20
942.0678042654353
 30
0.0
 11
172.9688031275548
 21
942.0678042654353
 31
0.0
  0
LINE
  5
20D
330
5C
100
AcDbEntity
  8
0
  6
Continuous
 62
     7
100
AcDbLine
 10
160.3500009740378
 20
935.4878042654353
 30
0.0
 11
160.3500009740378
 21
933.3692984938947
 31
0.0
  0
LINE
  5
20E
330
5C
100
AcDbEntity
  8
0
  6
Continuous
 62
     7
100
AcDbLine
 10
163.7311988205208
 20
935.4878042654353
 30
0.0
 11
160.3500009740378
 21
935.4878042654353
 31
0.0
  0
LINE
  5
20F
330
5C
100
AcDbEntity
  8
0
  6
Continuous
 62
     7
100
AcDbLine
 10
159.1123966670038
 20
941.1378042821931
 30
0.0
 11
159.1123966670038
 21
942.0678042654353
 31
0.0
  0
LINE
  5
210
330
5C
100
AcDbEntity
  8
0
  6
Continuous
 62
     7
100
AcDbLine
 10
166.2500009740378
 20
942.0678042654353
 30
0.0
 11
166.2500009740378
 21
942.1378042821931
 31
0.0
  0
LINE
  5
211
330
5C
100
AcDbEntity
  8
0
  6
Continuous
 62
     7
100
AcDbLine
 10
163.7311988205208
 20
935.4878042654353
 30
0.0
 11
163.7311988205208
 21
942.0678042654353
 31
0.0
  0
LINE
  5
212
330
5C
100
AcDbEntity
  8
0
  6
Continuous
 62
     7
100
AcDbLine
 10
170.4500009740378
 20
942.0678042654353
 30
0.0
 11
163.7311988205208
 21
942.0678042654353
 31
0.0
  0
LINE
  5
213
330
5C
100
AcDbEntity
  8
0
  6
Continuous
 62
     7
100
AcDbLine
 10
159.1123966670038
 20
935.4878042654353
 30
0.0
 11
159.1123966670038
 21
941.1378042821931
 31
0.0
  0
LINE
  5
214
330
5C
100
AcDbEntity
  8
0
  6
Continuous
 62
     7
100
AcDbLine
 10
173.3500009740378
 20
915.4878042654353
 30
0.0
 11
163.3500009740378
 21
915.4878042654353
 31
0.0
  0
LINE
  5
215
330
5C
100
AcDbEntity
  8
0
  6
Continuous
 62
     7
100
AcDbLine
 10
153.5000009740377
 20
916.6378042821934
 30
0.0
 11
153.5000009740377
 21
941.1378042821931
 31
0.0
  0
LINE
  5
216
330
5C
100
AcDbEntity
  8
0
  6
Continuous
 62
     7
100
AcDbLine
 10
153.5000009740377
 20
901.1296627108973
 30
0.0
 11
153.5000009740377
 21
899.1378042821931
 31
0.0
  0
LINE
  5
217
330
5C
100
AcDbEntity
  8
0
  6
Continuous
 62
     7
100
AcDbLine
 10
153.5000009740377
 20
916.6378042821934
 30
0.0
 11
153.5000009740377
 21
901.1296627108973
 31
0.0
  0
LINE
  5
218
330
5C
100
AcDbEntity
  8
0
  6
Continuous
 62
     7
100
AcDbLine
 10
153.5000009740377
 20
899.1378042821931
 30
0.0
 11
153.5000009740377
 21
897.487804282193
 31
0.0
  0
LINE
  5
219
330
5C
100
AcDbEntity
  8
0
  6
Continuous
 62
     7
100
AcDbLine
 10
168.3500009740378
 20
942.1378042821931
 30
0.0
 11
170.4500009740378
 21
942.1378042821931
 31
0.0
  0
LINE
  5
21A
330
5C
100
AcDbEntity
  8
0
  6
Continuous
 62
     7
100
AcDbLine
 10
166.2500009740378
 20
942.1378042821931
 30
0.0
 11
168.3500009740378
 21
942.1378042821931
 31
0.0
  0
LINE
  5
21B
330
5C
100
AcDbEntity
  8
0
  6
Continuous
 62
     7
100
AcDbLine
 10
172.9688031275548
 20
942.0678042654353
 30
0.0
 11
170.4500009740378
 21
942.0678042654353
 31
0.0
  0
LINE
  5
21C
330
5C
100
AcDbEntity
  8
0
  6
Continuous
 62
     7
100
AcDbLine
 10
163.7311988205208
 20
942.0678042654353
 30
0.0
 11
159.1123966670038
 21
942.0678042654353
 31
0.0
  0
LINE
  5
21D
330
5C
100
AcDbEntity
  8
0
  6
Continuous
 62
     7
100
AcDbLine
 10
163.3500009740378
 20
926.4878042821931
 30
0.0
 11
162.3500009740378
 21
926.4878042821931
 31
0.0
  0
LINE
  5
21E
330
5C
100
AcDbEntity
  8
0
  6
Continuous
 62
     7
100
AcDbLine
 10
162.3500009740378
 20
930.3692984938947
 30
0.0
 11
162.3500009740378
 21
926.4878042821931
 31
0.0
  0
LINE
  5
21F
330
5C
100
AcDbEntity
  8
0
  6
Continuous
 62
     7
100
AcDbLine
 10
163.3500009740378
 20
926.4878042821931
 30
0.0
 11
163.3500009740378
 21
915.4878042654353
 31
0.0
  0
LINE
  5
220
330
5C
100
AcDbEntity
  8
0
  6
Continuous
 62
     7
100
AcDbLine
 10
183.2000009740377
 20
916.6378042821931
 30
0.0
 11
183.2000009740377
 21
941.1378042821931
 31
0.0
  0
LINE
  5
221
330
5C
100
AcDbEntity
  8
0
  6
Continuous
 62
     7
100
AcDbLine
 10
183.2000009740377
 20
899.1378042821931
 30
0.0
 11
183.2000009740377
 21
901.1296627108973
 31
0.0
  0
LINE
  5
222
330
5C
100
AcDbEntity
  8
0
  6
Continuous
 62
     7
100
AcDbLine
 10
183.2000009740377
 20
901.1296627108973
 30
0.0
 11
183.2000009740377
 21
916.6378042821931
 31
0.0
  0
LINE
  5
223
330
5C
100
AcDbEntity
  8
0
  6
Continuous
 62
     7
100
AcDbLine
 10
183.2000009740377
 20
897.487804282193
 30
0.0
 11
183.2000009740377
 21
899.1378042821931
 31
0.0
  0
LINE
  5
224
330
5C
100
AcDbEntity
  8
0
  6
Continuous
 62
     7
100
AcDbLine
 10
173.3500009740378
 20
926.4878042821931
 30
0.0
 11
173.3500009740378
 21
915.4878042654353
 31
0.0
  0
LINE
  5
225
330
5C
100
AcDbEntity
  8
0
  6
Continuous
 62
     7
100
AcDbLine
 10
177.5876052810718
 20
941.1378042821931
 30
0.0
 11
183.2000009740377
 21
941.1378042821931
 31
0.0
  0
LINE
  5
226
330
5C
100
AcDbEntity
  8
0
  6
Continuous
 62
     7
100
AcDbLine
 10
153.5000009740377
 20
941.1378042821931
 30
0.0
 11
159.1123966670038
 21
941.1378042821931
 31
0.0
  0
LINE
  5
227
330
5C
100
AcDbEntity
  8
0
  6
Continuous
 62
     7
100
AcDbLine
 10
153.5000009740377
 20
897.487804282193
 30
0.0
 11
183.2000009740377
 21
897.487804282193
 31
0.0
  0
LINE
  5
228
330
5C
100
AcDbEntity
  8
1
  6
DOT_CENTER
 62
     2
100
AcDbLine
 10
168.3500009740366
 20
930.3692984938947
 30
0.0
 11
168.3500009740378
 21
915.4878042654353
 31
0.0
  0
LINE
  5
229
330
5C
100
AcDbEntity
  8
1
  6
DOT_CENTER
 62
     2
100
AcDbLine
 10
168.3500009740378
 20
935.4878042654353
 30
0.0
 11
168.3500009740378
 21
933.3692984938947
 31
0.0
  0
LINE
  5
22A
330
5C
100
AcDbEntity
  8
1
  6
DOT_CENTER
 62
     2
100
AcDbLine
 10
168.3500009740378
 20
942.0678042654353
 30
0.0
 11
168.3500009740378
 21
942.1378042821931
 31
0.0
  0
ENDBLK
  5
5E
330
5C
100
AcDbEntity
  8
0
100
AcDbBlockEnd
  0
BLOCK
  5
61
330
5F
100
AcDbEntity
  8
0
100
AcDbBlockBegin
  2
SA_Links1
 70
     0
 10
168.3500005925631
 20
918.9939043318316
 30
0.0
  3
SA_Links1
  1

  0
INSERT
  5
60
330
5F
100
AcDbEntity
  8
0
100
AcDbBlockReference
  2
UHV_50_M10_M10_select__4
 10
153.5000009740377
 20
895.8378042821931
 30
0.0
  0
MTEXT
  5
22B
330
5F
100
AcDbEntity
  8
1
 62
     6
100
AcDbMText
 10
168.3500005925611
 20
890.8500005368967
 30
0.0
 40
5.0
 41
0.0
 71
     2
 72
     1
  1
 
  7
CONVERTER_11
 73
     1
 44
1.32052821128451
  0
ENDBLK
  5
62
330
5F
100
AcDbEntity
  8
0
100
AcDbBlockEnd
  0
BLOCK
  5
64
330
63
100
AcDbEntity
  8
0
100
AcDbBlockBegin
  2
UHV_50_M10_M10_select__5
 70
     0
 10
-48.20000297403196
 20
895.837804282193
 30
0.0
  3
UHV_50_M10_M10_select__5
  1

  0
LINE
  5
22C
330
63
100
AcDbEntity
  8
0
  6
Continuous
 62
     7
100
AcDbLine
 10
-35.45000297403203
 20
942.1378042821931
 30
0.0
 11
-31.25000297403203
 21
942.1378042821931
 31
0.0
  0
LINE
  5
22D
330
63
100
AcDbEntity
  8
0
  6
Continuous
 62
     7
100
AcDbLine
 10
-35.45000297403203
 20
942.0678042654353
 30
0.0
 11
-35.45000297403203
 21
942.1378042821931
 31
0.0
  0
LINE
  5
22E
330
63
100
AcDbEntity
  8
0
  6
Continuous
 62
     7
100
AcDbLine
 10
-31.25000297403203
 20
942.0678042654353
 30
0.0
 11
-31.25000297403203
 21
942.1378042821931
 31
0.0
  0
LINE
  5
22F
330
63
100
AcDbEntity
  8
0
  6
Continuous
 62
     7
100
AcDbLine
 10
-24.11239866699803
 20
942.0678042654353
 30
0.0
 11
-28.73120082051494
 21
942.0678042654353
 31
0.0
  0
LINE
  5
230
330
63
100
AcDbEntity
  8
0
  6
Continuous
 62
     7
100
AcDbLine
 10
-24.11239866699803
 20
935.4878042654352
 30
0.0
 11
-24.11239866699803
 21
942.0678042654353
 31
0.0
  0
LINE
  5
231
330
63
100
AcDbEntity
  8
0
  6
Continuous
 62
     7
100
AcDbLine
 10
-42.58760728106594
 20
941.1378042821931
 30
0.0
 11
-42.58760728106594
 21
942.0678042654353
 31
0.0
  0
LINE
  5
232
330
63
100
AcDbEntity
  8
0
  6
Continuous
 62
     7
100
AcDbLine
 10
-37.96880512754893
 20
942.0678042654353
 30
0.0
 11
-42.58760728106594
 21
942.0678042654353
 31
0.0
  0
LINE
  5
233
330
63
100
AcDbEntity
  8
0
  6
Continuous
 62
     7
100
AcDbLine
 10
-42.58760728106594
 20
941.1378042821931
 30
0.0
 11
-48.20000297403196
 21
941.1378042821931
 31
0.0
  0
LINE
  5
234
330
63
100
AcDbEntity
  8
0
  6
Continuous
 62
     7
100
AcDbLine
 10
-28.73120082051494
 20
942.0678042654353
 30
0.0
 11
-37.96880512754893
 21
942.0678042654353
 31
0.0
  0
LINE
  5
235
330
63
100
AcDbEntity
  8
0
  6
Continuous
 62
     7
100
AcDbLine
 10
-41.35000297403204
 20
933.3692984938946
 30
0.0
 11
-43.37500268572033
 21
933.3692984938946
 31
0.0
  0
LINE
  5
236
330
63
100
AcDbEntity
  8
0
  6
Continuous
 62
     7
100
AcDbLine
 10
-25.35000297403204
 20
935.4878042654352
 30
0.0
 11
-28.73120082051494
 21
935.4878042654352
 31
0.0
  0
LINE
  5
237
330
63
100
AcDbEntity
  8
0
  6
Continuous
 62
     7
100
AcDbLine
 10
-27.35000297403204
 20
930.3692984938946
 30
0.0
 11
-23.37500268572033
 21
930.3692984938946
 31
0.0
  0
LINE
  5
238
330
63
100
AcDbEntity
  8
0
  6
Continuous
 62
     7
100
AcDbLine
 10
-38.35000297403204
 20
926.4878042821931
 30
0.0
 11
-39.35000297403204
 21
926.4878042821931
 31
0.0
  0
LINE
  5
239
330
63
100
AcDbEntity
  8
0
  6
Continuous
 62
     7
100
AcDbLine
 10
-28.35000297403204
 20
926.4878042821931
 30
0.0
 11
-38.35000297403204
 21
926.4878042821931
 31
0.0
  0
LINE
  5
23A
330
63
100
AcDbEntity
  8
0
  6
Continuous
 62
     7
100
AcDbLine
 10
-39.35000297403204
 20
930.3692984938946
 30
0.0
 11
-39.35000297403204
 21
926.4878042821931
 31
0.0
  0
LINE
  5
23B
330
63
100
AcDbEntity
  8
0
  6
Continuous
 62
     7
100
AcDbLine
 10
-28.73120082051494
 20
935.4878042654352
 30
0.0
 11
-37.96880512754893
 21
935.4878042654352
 31
0.0
  0
LINE
  5
23C
330
63
100
AcDbEntity
  8
0
  6
Continuous
 62
     7
100
AcDbLine
 10
-41.35000297403204
 20
935.4878042654352
 30
0.0
 11
-42.58760728106594
 21
935.4878042654352
 31
0.0
  0
LINE
  5
23D
330
63
100
AcDbEntity
  8
0
  6
Continuous
 62
     7
100
AcDbLine
 10
-39.35000297403204
 20
930.3692984938946
 30
0.0
 11
-27.35000297403204
 21
930.3692984938946
 31
0.0
  0
LINE
  5
23E
330
63
100
AcDbEntity
  8
0
  6
Continuous
 62
     7
100
AcDbLine
 10
-25.35000297403204
 20
933.3692984938946
 30
0.0
 11
-41.35000297403204
 21
933.3692984938946
 31
0.0
  0
LINE
  5
23F
330
63
100
AcDbEntity
  8
0
  6
Continuous
 62
     7
100
AcDbLine
 10
-35.57500297393193
 20
896.0374652992422
 30
0.0
 11
-35.57500297393193
 21
897.0374652992422
 31
0.0
  0
LINE
  5
240
330
63
100
AcDbEntity
  8
0
  6
Continuous
 62
     7
100
AcDbLine
 10
-35.57500297393193
 20
897.0374652992422
 30
0.0
 11
-35.57500297393193
 21
900.537804282193
 31
0.0
  0
LINE
  5
241
330
63
100
AcDbEntity
  8
0
  6
Continuous
 62
     7
100
AcDbLine
 10
-35.57500297393193
 20
900.7374652992422
 30
0.0
 11
-35.57500297393193
 21
903.2374652992422
 31
0.0
  0
LINE
  5
242
330
63
100
AcDbEntity
  8
0
  6
Continuous
 62
     7
100
AcDbLine
 10
-37.96880512754893
 20
935.4878042654352
 30
0.0
 11
-37.96880512754893
 21
942.0678042654353
 31
0.0
  0
LINE
  5
243
330
63
100
AcDbEntity
  8
0
  6
Continuous
 62
     7
100
AcDbLine
 10
-35.57500297393193
 20
910.8374652992421
 30
0.0
 11
-35.57500297393193
 21
908.8374652992421
 31
0.0
  0
LINE
  5
244
330
63
100
AcDbEntity
  8
0
  6
Continuous
 62
     7
100
AcDbLine
 10
-35.57500297393193
 20
908.8374652992421
 30
0.0
 11
-25.62500297393194
 21
908.8374652992421
 31
0.0
  0
LINE
  5
245
330
63
100
AcDbEntity
  8
0
  6
Continuous
 62
     7
100
AcDbLine
 10
-25.62500297393194
 20
910.8374652992421
 30
0.0
 11
-25.62500297393194
 21
908.8374652992421
 31
0.0
  0
LINE
  5
246
330
63
100
AcDbEntity
  8
0
  6
Continuous
 62
     7
100
AcDbLine
 10
-28.35000297403204
 20
915.4878042654352
 30
0.0
 11
-38.35000297403204
 21
915.4878042654352
 31
0.0
  0
LINE
  5
247
330
63
100
AcDbEntity
  8
0
  6
Continuous
 62
     7
100
AcDbLine
 10
-48.20000297403196
 20
916.6378042821926
 30
0.0
 11
-38.35000297403194
 21
916.6378042821927
 31
0.0
  0
LINE
  5
248
330
63
100
AcDbEntity
  8
0
  6
Continuous
 62
     7
100
AcDbLine
 10
-28.35000297403204
 20
916.6378042821927
 30
0.0
 11
-18.50000297403193
 21
916.6378042821926
 31
0.0
  0
LINE
  5
249
330
63
100
AcDbEntity
  8
0
  6
Continuous
 62
     7
100
AcDbLine
 10
-18.50000297403193
 20
913.3378042821928
 30
0.0
 11
-48.20000297403196
 21
913.3378042821928
 31
0.0
  0
LINE
  5
24A
330
63
100
AcDbEntity
  8
0
  6
Continuous
 62
     7
100
AcDbLine
 10
-35.57500297393193
 20
910.8374652992421
 30
0.0
 11
-25.62500297393194
 21
910.8374652992421
 31
0.0
  0
LINE
  5
24B
330
63
100
AcDbEntity
  8
0
  6
Continuous
 62
     7
100
AcDbLine
 10
-18.50000297403193
 20
896.1983964130861
 30
0.0
 11
-18.50000297403193
 21
895.837804282193
 31
0.0
  0
LINE
  5
24C
330
63
100
AcDbEntity
  8
0
  6
Continuous
 62
     7
100
AcDbLine
 10
-35.57500297393193
 20
896.1983964130861
 30
0.0
 11
-48.20000297403195
 21
896.1983964130861
 31
0.0
  0
LINE
  5
24D
330
63
100
AcDbEntity
  8
0
  6
Continuous
 62
     7
100
AcDbLine
 10
-25.62500297393194
 20
896.0374652992422
 30
0.0
 11
-35.57500297393193
 21
896.0374652992422
 31
0.0
  0
LINE
  5
24E
330
63
100
AcDbEntity
  8
0
  6
Continuous
 62
     7
100
AcDbLine
 10
-25.62500297393194
 20
896.0374652992422
 30
0.0
 11
-25.62500297393194
 21
897.0374652992422
 31
0.0
  0
LINE
  5
24F
330
63
100
AcDbEntity
  8
0
  6
Continuous
 62
     2
100
AcDbLine
 10
-25.62500297393194
 20
897.0374652992422
 30
0.0
 11
-35.57500297393193
 21
897.0374652992422
 31
0.0
  0
LINE
  5
250
330
63
100
AcDbEntity
  8
0
  6
Continuous
 62
     7
100
AcDbLine
 10
-34.05000297406964
 20
904.237804282193
 30
0.0
 11
-34.05000297406964
 21
903.2374652992422
 31
0.0
  0
LINE
  5
251
330
63
100
AcDbEntity
  8
0
  6
Continuous
 62
     7
100
AcDbLine
 10
-35.57500297393193
 20
905.1922604012512
 30
0.0
 11
-34.05000297406964
 21
905.1922604012512
 31
0.0
  0
LINE
  5
252
330
63
100
AcDbEntity
  8
0
  6
Continuous
 62
     7
100
AcDbLine
 10
-35.57500297393193
 20
900.537804282193
 30
0.0
 11
-48.20000297403196
 21
900.537804282193
 31
0.0
  0
LINE
  5
253
330
63
100
AcDbEntity
  8
0
  6
Continuous
 62
     7
100
AcDbLine
 10
-25.62500297393194
 20
900.537804282193
 30
0.0
 11
-35.57500297393193
 21
900.537804282193
 31
0.0
  0
LINE
  5
254
330
63
100
AcDbEntity
  8
0
  6
Continuous
 62
     7
100
AcDbLine
 10
-25.62500297393194
 20
900.7374652992422
 30
0.0
 11
-35.57500297393193
 21
900.7374652992422
 31
0.0
  0
LINE
  5
255
330
63
100
AcDbEntity
  8
0
  6
Continuous
 62
     7
100
AcDbLine
 10
-34.05000297406964
 20
904.237804282193
 30
0.0
 11
-34.05000297406964
 21
905.1922604012512
 31
0.0
  0
LINE
  5
256
330
63
100
AcDbEntity
  8
0
  6
Continuous
 62
     7
100
AcDbLine
 10
-35.57500297393193
 20
905.1922604012512
 30
0.0
 11
-35.57500297393193
 21
906.8215275224609
 31
0.0
  0
LINE
  5
257
330
63
100
AcDbEntity
  8
0
  6
Continuous
 62
     7
100
AcDbLine
 10
-35.57500297393193
 20
904.237804282193
 30
0.0
 11
-35.57500297393193
 21
905.1922604012512
 31
0.0
  0
LINE
  5
258
330
63
100
AcDbEntity
  8
0
  6
Continuous
 62
     7
100
AcDbLine
 10
-35.57500297393193
 20
903.2374652992422
 30
0.0
 11
-35.57500297393193
 21
904.237804282193
 31
0.0
  0
LINE
  5
259
330
63
100
AcDbEntity
  8
0
  6
Continuous
 62
     7
100
AcDbLine
 10
-34.05000297406964
 20
904.237804282193
 30
0.0
 11
-35.57500297393193
 21
904.237804282193
 31
0.0
  0
LINE
  5
25A
330
63
100
AcDbEntity
  8
0
  6
Continuous
 62
     7
100
AcDbLine
 10
-18.50000297403193
 20
900.537804282193
 30
0.0
 11
-25.62500297393194
 21
900.537804282193
 31
0.0
  0
LINE
  5
25B
330
63
100
AcDbEntity
  8
0
  6
Continuous
 62
     7
100
AcDbLine
 10
-34.05000297406964
 20
903.2374652992422
 30
0.0
 11
-35.57500297393193
 21
903.2374652992422
 31
0.0
  0
LINE
  5
25C
330
63
100
AcDbEntity
  8
0
  6
Continuous
 62
     7
100
AcDbLine
 10
-25.62500297393194
 20
903.2374652992422
 30
0.0
 11
-34.05000297406964
 21
903.2374652992422
 31
0.0
  0
LINE
  5
25D
330
63
100
AcDbEntity
  8
0
  6
Continuous
 62
     7
100
AcDbLine
 10
-25.62500297393194
 20
903.2374652992422
 30
0.0
 11
-25.62500297393194
 21
906.8215275224609
 31
0.0
  0
LINE
  5
25E
330
63
100
AcDbEntity
  8
0
  6
Continuous
 62
     7
100
AcDbLine
 10
-25.62500297393194
 20
906.8215275224609
 30
0.0
 11
-35.57500297393193
 21
906.8215275224609
 31
0.0
  0
LINE
  5
25F
330
63
100
AcDbEntity
  8
0
  6
Continuous
 62
     7
100
AcDbLine
 10
-48.20000297403195
 20
895.837804282193
 30
0.0
 11
-18.50000297403193
 21
895.837804282193
 31
0.0
  0
LINE
  5
260
330
63
100
AcDbEntity
  8
0
  6
Continuous
 62
     7
100
AcDbLine
 10
-43.37500268572033
 20
930.3692984938946
 30
0.0
 11
-39.35000297403204
 21
930.3692984938946
 31
0.0
  0
LINE
  5
261
330
63
100
AcDbEntity
  8
0
  6
Continuous
 62
     7
100
AcDbLine
 10
-41.35000297403204
 20
935.4878042654352
 30
0.0
 11
-41.35000297403204
 21
933.3692984938946
 31
0.0
  0
LINE
  5
262
330
63
100
AcDbEntity
  8
0
  6
Continuous
 62
     7
100
AcDbLine
 10
-43.37500268572033
 20
930.3692984938946
 30
0.0
 11
-43.37500268572033
 21
933.3692984938946
 31
0.0
  0
LINE
  5
263
330
63
100
AcDbEntity
  8
0
  6
Continuous
 62
     7
100
AcDbLine
 10
-37.96880512754893
 20
935.4878042654352
 30
0.0
 11
-41.35000297403204
 21
935.4878042654352
 31
0.0
  0
LINE
  5
264
330
63
100
AcDbEntity
  8
0
  6
Continuous
 62
     7
100
AcDbLine
 10
-42.58760728106594
 20
935.4878042654352
 30
0.0
 11
-42.58760728106594
 21
941.1378042821931
 31
0.0
  0
LINE
  5
265
330
63
100
AcDbEntity
  8
0
  6
Continuous
 62
     7
100
AcDbLine
 10
-18.50000297403193
 20
941.1378042821931
 30
0.0
 11
-24.11239866699793
 21
941.1378042821931
 31
0.0
  0
LINE
  5
266
330
63
100
AcDbEntity
  8
0
  6
Continuous
 62
     7
100
AcDbLine
 10
-23.37500268572033
 20
933.3692984938946
 30
0.0
 11
-25.35000297403204
 21
933.3692984938946
 31
0.0
  0
LINE
  5
267
330
63
100
AcDbEntity
  8
0
  6
Continuous
 62
     7
100
AcDbLine
 10
-25.35000297403204
 20
935.4878042654352
 30
0.0
 11
-25.35000297403204
 21
933.3692984938946
 31
0.0
  0
LINE
  5
268
330
63
100
AcDbEntity
  8
0
  6
Continuous
 62
     7
100
AcDbLine
 10
-23.37500268572033
 20
933.3692984938946
 30
0.0
 11
-23.37500268572033
 21
930.3692984938946
 31
0.0
  0
LINE
  5
269
330
63
100
AcDbEntity
  8
0
  6
Continuous
 62
     7
100
AcDbLine
 10
-24.11239866699803
 20
935.4878042654352
 30
0.0
 11
-25.35000297403204
 21
935.4878042654352
 31
0.0
  0
LINE
  5
26A
330
63
100
AcDbEntity
  8
0
  6
Continuous
 62
     7
100
AcDbLine
 10
-18.50000297403193
 20
900.537804282193
 30
0.0
 11
-18.50000297403193
 21
896.1983964130861
 31
0.0
  0
LINE
  5
26B
330
63
100
AcDbEntity
  8
0
  6
Continuous
 62
     7
100
AcDbLine
 10
-18.50000297403193
 20
900.537804282193
 30
0.0
 11
-18.50000297403193
 21
913.3378042821928
 31
0.0
  0
LINE
  5
26C
330
63
100
AcDbEntity
  8
0
  6
Continuous
 62
     7
100
AcDbLine
 10
-18.50000297403193
 20
913.3378042821928
 30
0.0
 11
-18.50000297403193
 21
916.6378042821926
 31
0.0
  0
LINE
  5
26D
330
63
100
AcDbEntity
  8
0
  6
Continuous
 62
     7
100
AcDbLine
 10
-18.50000297403193
 20
941.1378042821931
 30
0.0
 11
-18.50000297403193
 21
916.6378042821926
 31
0.0
  0
LINE
  5
26E
330
63
100
AcDbEntity
  8
0
  6
Continuous
 62
     7
100
AcDbLine
 10
-18.50000297403193
 20
896.1983964130861
 30
0.0
 11
-25.62500297393194
 21
896.1983964130861
 31
0.0
  0
LINE
  5
26F
330
63
100
AcDbEntity
  8
0
  6
Continuous
 62
     7
100
AcDbLine
 10
-27.35000297403204
 20
926.4878042821931
 30
0.0
 11
-28.35000297403204
 21
926.4878042821931
 31
0.0
  0
LINE
  5
270
330
63
100
AcDbEntity
  8
0
  6
Continuous
 62
     7
100
AcDbLine
 10
-27.35000297403204
 20
930.3692984938946
 30
0.0
 11
-27.35000297403204
 21
926.4878042821931
 31
0.0
  0
LINE
  5
271
330
63
100
AcDbEntity
  8
0
  6
Continuous
 62
     7
100
AcDbLine
 10
-25.62500297393194
 20
897.0374652992422
 30
0.0
 11
-25.62500297393194
 21
900.537804282193
 31
0.0
  0
LINE
  5
272
330
63
100
AcDbEntity
  8
0
  6
Continuous
 62
     7
100
AcDbLine
 10
-25.62500297393194
 20
903.2374652992422
 30
0.0
 11
-25.62500297393194
 21
900.7374652992422
 31
0.0
  0
LINE
  5
273
330
63
100
AcDbEntity
  8
0
  6
Continuous
 62
     7
100
AcDbLine
 10
-28.73120082051494
 20
935.4878042654352
 30
0.0
 11
-28.73120082051494
 21
942.0678042654353
 31
0.0
  0
LINE
  5
274
330
63
100
AcDbEntity
  8
0
  6
Continuous
 62
     7
100
AcDbLine
 10
-28.35000297403204
 20
926.4878042821931
 30
0.0
 11
-28.35000297403204
 21
915.4878042654352
 31
0.0
  0
LINE
  5
275
330
63
100
AcDbEntity
  8
0
  6
Continuous
 62
     7
100
AcDbLine
 10
-48.20000297403196
 20
900.537804282193
 30
0.0
 11
-48.20000297403195
 21
896.1983964130861
 31
0.0
  0
LINE
  5
276
330
63
100
AcDbEntity
  8
0
  6
Continuous
 62
     7
100
AcDbLine
 10
-48.20000297403195
 20
896.1983964130861
 30
0.0
 11
-48.20000297403195
 21
895.837804282193
 31
0.0
  0
LINE
  5
277
330
63
100
AcDbEntity
  8
0
  6
Continuous
 62
     7
100
AcDbLine
 10
-48.20000297403196
 20
913.3378042821928
 30
0.0
 11
-48.20000297403196
 21
900.537804282193
 31
0.0
  0
LINE
  5
278
330
63
100
AcDbEntity
  8
0
  6
Continuous
 62
     7
100
AcDbLine
 10
-48.20000297403196
 20
916.6378042821926
 30
0.0
 11
-48.20000297403196
 21
913.3378042821928
 31
0.0
  0
LINE
  5
279
330
63
100
AcDbEntity
  8
0
  6
Continuous
 62
     7
100
AcDbLine
 10
-48.20000297403196
 20
941.1378042821931
 30
0.0
 11
-48.20000297403196
 21
916.6378042821926
 31
0.0
  0
LINE
  5
27A
330
63
100
AcDbEntity
  8
0
  6
Continuous
 62
     7
100
AcDbLine
 10
-38.35000297403204
 20
926.4878042821931
 30
0.0
 11
-38.35000297403204
 21
915.4878042654352
 31
0.0
  0
LINE
  5
27B
330
63
100
AcDbEntity
  8
1
  6
DOT_CENTER
 62
     2
100
AcDbLine
 10
-33.35000297403204
 20
930.3692984938946
 30
0.0
 11
-33.35000297403124
 21
915.4878042654354
 31
0.0
  0
LINE
  5
27C
330
63
100
AcDbEntity
  8
1
  6
DOT_CENTER
 62
     2
100
AcDbLine
 10
-33.35000297403124
 20
915.4878042654354
 30
0.0
 11
-33.35000297403204
 21
930.3692984938946
 31
0.0
  0
LINE
  5
27D
330
63
100
AcDbEntity
  8
1
  6
DOT_CENTER
 62
     2
100
AcDbLine
 10
-33.35000297403203
 20
942.0678042654353
 30
0.0
 11
-33.35000297403203
 21
942.1378042821931
 31
0.0
  0
ENDBLK
  5
65
330
63
100
AcDbEntity
  8
0
100
AcDbBlockEnd
  0
BLOCK
  5
68
330
66
100
AcDbEntity
  8
0
100
AcDbBlockBegin
  2
SA_Rechts1
 70
     0
 10
-33.35000259255723
 20
918.9939043318316
 30
0.0
  3
SA_Rechts1
  1

  0
INSERT
  5
67
330
66
100
AcDbEntity
  8
0
100
AcDbBlockReference
  2
UHV_50_M10_M10_select__5
 10
-48.20000297403196
 20
895.837804282193
 30
0.0
  0
MTEXT
  5
27E
330
66
100
AcDbEntity
  8
1
 62
     6
100
AcDbMText
 10
-33.35000259255594
 20
890.8500005368967
 30
0.0
 40
5.0
 41
0.0
 71
     2
 72
     1
  1
 
  7
CONVERTER_11
 73
     1
 44
1.32052821128451
  0
ENDBLK
  5
69
330
66
100
AcDbEntity
  8
0
100
AcDbBlockEnd
  0
BLOCK
  5
6B
330
6A
100
AcDbEntity
  8
0
100
AcDbBlockBegin
  2
UHV_50_M10_M10_select__6
 70
     0
 10
38.60496743380062
 20
895.837804282193
 30
0.0
  3
UHV_50_M10_M10_select__6
  1

  0
LINE
  5
27F
330
6A
100
AcDbEntity
  8
0
  6
Continuous
 62
     7
100
AcDbLine
 10
73.65001589306614
 20
900.6310661765164
 30
0.0
 11
73.65001589306604
 21
896.1983964130861
 31
0.0
  0
LINE
  5
280
330
6A
100
AcDbEntity
  8
0
  6
Continuous
 62
     7
100
AcDbLine
 10
70.40001589306605
 20
899.137804282193
 30
0.0
 11
69.45001589306601
 21
899.137804282193
 31
0.0
  0
LINE
  5
281
330
6A
100
AcDbEntity
  8
0
  6
Continuous
 62
     7
100
AcDbLine
 10
114.9303969944049
 20
900.7374652992421
 30
0.0
 11
114.9303969944049
 21
903.2374652992421
 31
0.0
  0
LINE
  5
282
330
6A
100
AcDbEntity
  8
0
  6
Continuous
 62
     7
100
AcDbLine
 10
109.3000158930662
 20
900.7374652992421
 30
0.0
 11
114.9303969944049
 21
900.7374652992421
 31
0.0
  0
LINE
  5
283
330
6A
100
AcDbEntity
  8
0
  6
Continuous
 62
     7
100
AcDbLine
 10
106.4804006509686
 20
901.8374652992421
 30
0.0
 11
104.1804006509687
 21
901.2211821566506
 31
0.0
  0
LINE
  5
284
330
6A
100
AcDbEntity
  8
0
  6
Continuous
 62
     7
100
AcDbLine
 10
104.1804006509687
 20
901.2211821566506
 30
0.0
 11
104.1804006509685
 21
900.1211821566505
 31
0.0
  0
LINE
  5
285
330
6A
100
AcDbEntity
  8
0
  6
Continuous
 62
     7
100
AcDbLine
 10
82.78040065096864
 20
903.087804282193
 30
0.0
 11
82.78040065096864
 21
899.2374652992421
 31
0.0
  0
LINE
  5
286
330
6A
100
AcDbEntity
  8
0
  6
Continuous
 62
     7
100
AcDbLine
 10
85.84449395786154
 20
898.2229459795196
 30
0.0
 11
88.58040065096854
 21
901.9015669143798
 31
0.0
  0
LINE
  5
287
330
6A
100
AcDbEntity
  8
0
  6
Continuous
 62
     7
100
AcDbLine
 10
69.45001589306601
 20
899.137804282193
 30
0.0
 11
66.00001589306609
 21
901.1296627108972
 31
0.0
  0
LINE
  5
288
330
6A
100
AcDbEntity
  8
0
  6
Continuous
 62
     7
100
AcDbLine
 10
70.40001589306607
 20
897.4878042821929
 30
0.0
 11
70.40001589306605
 21
899.137804282193
 31
0.0
  0
LINE
  5
289
330
6A
100
AcDbEntity
  8
0
  6
Continuous
 62
     7
100
AcDbLine
 10
69.12283076838435
 20
897.2626020853521
 30
0.0
 11
70.40001589306607
 21
897.4878042821929
 31
0.0
  0
LINE
  5
28A
330
6A
100
AcDbEntity
  8
0
  6
Continuous
 62
     7
100
AcDbLine
 10
71.30001589306612
 20
901.9878393091119
 30
0.0
 11
73.65001589306614
 21
900.6310661765164
 31
0.0
  0
LINE
  5
28B
330
6A
100
AcDbEntity
  8
0
  6
Continuous
 62
     7
100
AcDbLine
 10
109.2804006509686
 20
900.537804282193
 30
0.0
 11
106.8731375518809
 21
900.537804282193
 31
0.0
  0
LINE
  5
28C
330
6A
100
AcDbEntity
  8
0
  6
Continuous
 62
     7
100
AcDbLine
 10
106.8731375518809
 20
900.537804282193
 30
0.0
 11
106.6500414598898
 21
903.087804282193
 31
0.0
  0
LINE
  5
28D
330
6A
100
AcDbEntity
  8
0
  6
Continuous
 62
     7
100
AcDbLine
 10
109.3000158930662
 20
900.537804282193
 30
0.0
 11
109.2804006509686
 21
900.537804282193
 31
0.0
  0
LINE
  5
28E
330
6A
100
AcDbEntity
  8
0
  6
Continuous
 62
     7
100
AcDbLine
 10
109.2804006509686
 20
897.0374652992421
 30
0.0
 11
109.2804006509686
 21
900.537804282193
 31
0.0
  0
LINE
  5
28F
330
6A
100
AcDbEntity
  8
0
  6
Continuous
 62
     7
100
AcDbLine
 10
109.3000158930662
 20
900.7374652992421
 30
0.0
 11
109.3000158930662
 21
900.537804282193
 31
0.0
  0
LINE
  5
290
330
6A
100
AcDbEntity
  8
0
  6
Continuous
 62
     7
100
AcDbLine
 10
109.7846920617817
 20
905.1922604012512
 30
0.0
 11
109.3000158930662
 21
906.8215275224609
 31
0.0
  0
LINE
  5
291
330
6A
100
AcDbEntity
  8
0
  6
Continuous
 62
     7
100
AcDbLine
 10
109.3000158930662
 20
906.8215275224609
 30
0.0
 11
109.3000158930662
 21
900.7374652992421
 31
0.0
  0
LINE
  5
292
330
6A
100
AcDbEntity
  8
0
  6
Continuous
 62
     7
100
AcDbLine
 10
106.0000158930663
 20
916.6378042821926
 30
0.0
 11
109.3000158930662
 21
913.3378042821928
 31
0.0
  0
LINE
  5
293
330
6A
100
AcDbEntity
  8
0
  6
Continuous
 62
     7
100
AcDbLine
 10
104.1804006509685
 20
900.1211821566505
 30
0.0
 11
107.5350643112083
 21
896.3707766607964
 31
0.0
  0
LINE
  5
294
330
6A
100
AcDbEntity
  8
0
  6
Continuous
 62
     7
100
AcDbLine
 10
83.36199786405705
 20
939.017804282193
 30
0.0
 11
82.84999786405704
 21
939.017804282193
 31
0.0
  0
LINE
  5
295
330
6A
100
AcDbEntity
  8
0
  6
Continuous
 62
     7
100
AcDbLine
 10
89.14999786405704
 20
939.017804282193
 30
0.0
 11
88.63799786405704
 21
939.017804282193
 31
0.0
  0
LINE
  5
296
330
6A
100
AcDbEntity
  8
0
  6
Continuous
 62
     7
100
AcDbLine
 10
100.6000158930661
 20
941.137804282193
 30
0.0
 11
101.6800048657087
 21
941.137804282193
 31
0.0
  0
LINE
  5
297
330
6A
100
AcDbEntity
  8
0
  6
Continuous
 62
     7
100
AcDbLine
 10
96.40001589306614
 20
941.8692984938946
 30
0.0
 11
100.6000158930661
 21
941.8692984938946
 31
0.0
  0
LINE
  5
298
330
6A
100
AcDbEntity
  8
0
  6
Continuous
 62
     7
100
AcDbLine
 10
96.40001589306614
 20
941.137804282193
 30
0.0
 11
96.40001589306614
 21
941.8692984938946
 31
0.0
  0
LINE
  5
299
330
6A
100
AcDbEntity
  8
0
  6
Continuous
 62
     7
100
AcDbLine
 10
100.6000158930661
 20
941.137804282193
 30
0.0
 11
100.6000158930661
 21
941.8692984938946
 31
0.0
  0
LINE
  5
29A
330
6A
100
AcDbEntity
  8
0
  6
Continuous
 62
     7
100
AcDbLine
 10
115.6049674338006
 20
933.3692984938946
 30
0.0
 11
103.0498020359757
 21
933.3692984938946
 31
0.0
  0
LINE
  5
29B
330
6A
100
AcDbEntity
  8
0
  6
Continuous
 62
     7
100
AcDbLine
 10
101.6800048657087
 20
941.137804282193
 30
0.0
 11
103.0498020359757
 21
933.3692984938946
 31
0.0
  0
LINE
  5
29C
330
6A
100
AcDbEntity
  8
0
  6
Continuous
 62
     7
100
AcDbLine
 10
96.40001589306614
 20
941.137804282193
 30
0.0
 11
100.6000158930661
 21
941.137804282193
 31
0.0
  0
LINE
  5
29D
330
6A
100
AcDbEntity
  8
0
  6
Continuous
 62
     7
100
AcDbLine
 10
89.53820418471504
 20
941.137804282193
 30
0.0
 11
96.40001589306614
 21
941.137804282193
 31
0.0
  0
LINE
  5
29E
330
6A
100
AcDbEntity
  8
0
  6
Continuous
 62
     7
100
AcDbLine
 10
88.63799786405704
 20
939.017804282193
 30
0.0
 11
89.53820418471504
 21
941.137804282193
 31
0.0
  0
LINE
  5
29F
330
6A
100
AcDbEntity
  8
0
  6
Continuous
 62
     7
100
AcDbLine
 10
89.14999786405704
 20
937.937804282193
 30
0.0
 11
89.14999786405704
 21
939.017804282193
 31
0.0
  0
LINE
  5
2A0
330
6A
100
AcDbEntity
  8
0
  6
Continuous
 62
     7
100
AcDbLine
 10
82.84999786405704
 20
937.937804282193
 30
0.0
 11
89.14999786405704
 21
937.937804282193
 31
0.0
  0
LINE
  5
2A1
330
6A
100
AcDbEntity
  8
0
  6
Continuous
 62
     7
100
AcDbLine
 10
56.60496743380068
 20
942.0678042654351
 30
0.0
 11
48.60496743380062
 21
942.0678042654351
 31
0.0
  0
LINE
  5
2A2
330
6A
100
AcDbEntity
  8
0
  6
Continuous
 62
     7
100
AcDbLine
 10
38.60496743380062
 20
930.3692984938946
 30
0.0
 11
42.60496743380065
 21
930.3692984938946
 31
0.0
  0
LINE
  5
2A3
330
6A
100
AcDbEntity
  8
0
  6
Continuous
 62
     7
100
AcDbLine
 10
48.60496743380064
 20
935.4878042654352
 30
0.0
 11
40.60496743380067
 21
935.4878042654352
 31
0.0
  0
LINE
  5
2A4
330
6A
100
AcDbEntity
  8
0
  6
Continuous
 62
     7
100
AcDbLine
 10
40.60496743380067
 20
935.4878042654352
 30
0.0
 11
40.60496743380067
 21
933.3692984938946
 31
0.0
  0
LINE
  5
2A5
330
6A
100
AcDbEntity
  8
0
  6
Continuous
 62
     7
100
AcDbLine
 10
40.60496743380067
 20
935.4878042654352
 30
0.0
 11
40.60496743380067
 21
942.0678042654351
 31
0.0
  0
LINE
  5
2A6
330
6A
100
AcDbEntity
  8
0
  6
Continuous
 62
     7
100
AcDbLine
 10
56.60496743380068
 20
935.4878042654352
 30
0.0
 11
56.60496743380067
 21
933.3692984938946
 31
0.0
  0
LINE
  5
2A7
330
6A
100
AcDbEntity
  8
0
  6
Continuous
 62
     7
100
AcDbLine
 10
56.60496743380068
 20
935.4878042654352
 30
0.0
 11
56.60496743380068
 21
942.0678042654351
 31
0.0
  0
LINE
  5
2A8
330
6A
100
AcDbEntity
  8
0
  6
Continuous
 62
     7
100
AcDbLine
 10
56.60496743380068
 20
935.4878042654352
 30
0.0
 11
48.60496743380064
 21
935.4878042654352
 31
0.0
  0
LINE
  5
2A9
330
6A
100
AcDbEntity
  8
0
  6
Continuous
 62
     7
100
AcDbLine
 10
48.60496743380064
 20
935.4878042654352
 30
0.0
 11
48.60496743380062
 21
942.0678042654351
 31
0.0
  0
LINE
  5
2AA
330
6A
100
AcDbEntity
  8
0
  6
Continuous
 62
     7
100
AcDbLine
 10
38.60496743380062
 20
933.3692984938946
 30
0.0
 11
38.60496743380062
 21
930.3692984938946
 31
0.0
  0
LINE
  5
2AB
330
6A
100
AcDbEntity
  8
0
  6
Continuous
 62
     7
100
AcDbLine
 10
48.60496743380062
 20
942.0678042654351
 30
0.0
 11
40.60496743380067
 21
942.0678042654351
 31
0.0
  0
LINE
  5
2AC
330
6A
100
AcDbEntity
  8
0
  6
Continuous
 62
     7
100
AcDbLine
 10
42.60496743380065
 20
930.3692984938946
 30
0.0
 11
54.60496743380065
 21
930.3692984938946
 31
0.0
  0
LINE
  5
2AD
330
6A
100
AcDbEntity
  8
0
  6
Continuous
 62
     7
100
AcDbLine
 10
68.42124880803117
 20
930.3692984938945
 30
0.0
 11
68.95022975015657
 21
933.3692984938946
 31
0.0
  0
LINE
  5
2AE
330
6A
100
AcDbEntity
  8
0
  6
Continuous
 62
     7
100
AcDbLine
 10
117.6049674338006
 20
930.3692984938946
 30
0.0
 11
117.6049674338006
 21
926.487804282193
 31
0.0
  0
LINE
  5
2AF
330
6A
100
AcDbEntity
  8
0
  6
Continuous
 62
     7
100
AcDbLine
 10
129.6049674338007
 20
926.487804282193
 30
0.0
 11
128.6049674338007
 21
926.487804282193
 31
0.0
  0
LINE
  5
2B0
330
6A
100
AcDbEntity
  8
0
  6
Continuous
 62
     7
100
AcDbLine
 10
118.6049674338006
 20
926.487804282193
 30
0.0
 11
117.6049674338006
 21
926.487804282193
 31
0.0
  0
LINE
  5
2B1
330
6A
100
AcDbEntity
  8
0
  6
Continuous
 62
     7
100
AcDbLine
 10
128.6049674338007
 20
926.487804282193
 30
0.0
 11
118.6049674338006
 21
926.487804282193
 31
0.0
  0
LINE
  5
2B2
330
6A
100
AcDbEntity
  8
0
  6
Continuous
 62
     7
100
AcDbLine
 10
129.6049674338007
 20
930.3692984938946
 30
0.0
 11
129.6049674338007
 21
926.487804282193
 31
0.0
  0
LINE
  5
2B3
330
6A
100
AcDbEntity
  8
0
  6
Continuous
 62
     7
100
AcDbLine
 10
129.6049674338007
 20
930.3692984938946
 30
0.0
 11
133.6049674338007
 21
930.3692984938946
 31
0.0
  0
LINE
  5
2B4
330
6A
100
AcDbEntity
  8
0
  6
Continuous
 62
     7
100
AcDbLine
 10
117.6049674338006
 20
930.3692984938946
 30
0.0
 11
129.6049674338007
 21
930.3692984938946
 31
0.0
  0
LINE
  5
2B5
330
6A
100
AcDbEntity
  8
0
  6
Continuous
 62
     7
100
AcDbLine
 10
103.5787829781011
 20
930.3692984938946
 30
0.0
 11
117.6049674338006
 21
930.3692984938946
 31
0.0
  0
LINE
  5
2B6
330
6A
100
AcDbEntity
  8
0
  6
Continuous
 62
     7
100
AcDbLine
 10
103.0498020359757
 20
933.3692984938946
 30
0.0
 11
103.5787829781011
 21
930.3692984938946
 31
0.0
  0
LINE
  5
2B7
330
6A
100
AcDbEntity
  8
0
  6
Continuous
 62
     7
100
AcDbLine
 10
82.46179154339895
 20
941.137804282193
 30
0.0
 11
83.36199786405705
 21
939.017804282193
 31
0.0
  0
LINE
  5
2B8
330
6A
100
AcDbEntity
  8
0
  6
Continuous
 62
     7
100
AcDbLine
 10
71.40001589306608
 20
941.137804282193
 30
0.0
 11
75.60001589306604
 21
941.137804282193
 31
0.0
  0
LINE
  5
2B9
330
6A
100
AcDbEntity
  8
0
  6
Continuous
 62
     7
100
AcDbLine
 10
82.84999786405704
 20
939.017804282193
 30
0.0
 11
82.84999786405704
 21
937.937804282193
 31
0.0
  0
LINE
  5
2BA
330
6A
100
AcDbEntity
  8
0
  6
Continuous
 62
     7
100
AcDbLine
 10
70.32002692042346
 20
941.137804282193
 30
0.0
 11
71.40001589306608
 21
941.137804282193
 31
0.0
  0
LINE
  5
2BB
330
6A
100
AcDbEntity
  8
0
  6
Continuous
 62
     7
100
AcDbLine
 10
75.60001589306604
 20
941.137804282193
 30
0.0
 11
75.60001589306604
 21
942.137804282193
 31
0.0
  0
LINE
  5
2BC
330
6A
100
AcDbEntity
  8
0
  6
Continuous
 62
     7
100
AcDbLine
 10
40.60496743380067
 20
933.3692984938946
 30
0.0
 11
38.60496743380062
 21
933.3692984938946
 31
0.0
  0
LINE
  5
2BD
330
6A
100
AcDbEntity
  8
0
  6
Continuous
 62
     7
100
AcDbLine
 10
68.95022975015657
 20
933.3692984938946
 30
0.0
 11
56.60496743380067
 21
933.3692984938946
 31
0.0
  0
LINE
  5
2BE
330
6A
100
AcDbEntity
  8
0
  6
Continuous
 62
     7
100
AcDbLine
 10
56.60496743380067
 20
933.3692984938946
 30
0.0
 11
40.60496743380067
 21
933.3692984938946
 31
0.0
  0
LINE
  5
2BF
330
6A
100
AcDbEntity
  8
0
  6
Continuous
 62
     7
100
AcDbLine
 10
71.40001589306608
 20
941.137804282193
 30
0.0
 11
71.40001589306608
 21
942.137804282193
 31
0.0
  0
LINE
  5
2C0
330
6A
100
AcDbEntity
  8
0
  6
Continuous
 62
     7
100
AcDbLine
 10
71.40001589306608
 20
942.137804282193
 30
0.0
 11
75.60001589306604
 21
942.137804282193
 31
0.0
  0
LINE
  5
2C1
330
6A
100
AcDbEntity
  8
0
  6
Continuous
 62
     7
100
AcDbLine
 10
75.60001589306604
 20
941.137804282193
 30
0.0
 11
82.46179154339895
 21
941.137804282193
 31
0.0
  0
LINE
  5
2C2
330
6A
100
AcDbEntity
  8
0
  6
Continuous
 62
     7
100
AcDbLine
 10
68.95022975015657
 20
933.3692984938946
 30
0.0
 11
70.32002692042346
 21
941.137804282193
 31
0.0
  0
LINE
  5
2C3
330
6A
100
AcDbEntity
  8
0
  6
Continuous
 62
     7
100
AcDbLine
 10
109.3000158930662
 20
908.8374652992421
 30
0.0
 11
109.3000158930662
 21
906.8215275224609
 31
0.0
  0
LINE
  5
2C4
330
6A
100
AcDbEntity
  8
0
  6
Continuous
 62
     7
100
AcDbLine
 10
66.00001589306609
 20
901.1296627108972
 30
0.0
 11
66.00001589306609
 21
916.637804282193
 31
0.0
  0
LINE
  5
2C5
330
6A
100
AcDbEntity
  8
0
  6
Continuous
 62
     7
100
AcDbLine
 10
86.46628969963794
 20
903.087804282193
 30
0.0
 11
82.78040065096864
 21
903.087804282193
 31
0.0
  0
LINE
  5
2C6
330
6A
100
AcDbEntity
  8
0
  6
Continuous
 62
     7
100
AcDbLine
 10
82.78040065096864
 20
903.087804282193
 30
0.0
 11
71.30001589306606
 21
903.087804282193
 31
0.0
  0
LINE
  5
2C7
330
6A
100
AcDbEntity
  8
0
  6
Continuous
 62
     7
100
AcDbLine
 10
71.30001589306606
 20
903.087804282193
 30
0.0
 11
71.30001589306612
 21
901.9878393091119
 31
0.0
  0
LINE
  5
2C8
330
6A
100
AcDbEntity
  8
0
  6
Continuous
 62
     7
100
AcDbLine
 10
106.4804006509686
 20
903.087804282193
 30
0.0
 11
98.75001589306603
 21
903.087804282193
 31
0.0
  0
LINE
  5
2C9
330
6A
100
AcDbEntity
  8
0
  6
Continuous
 62
     7
100
AcDbLine
 10
98.75001589306603
 20
903.087804282193
 30
0.0
 11
98.75001589306603
 21
905.1878042821929
 31
0.0
  0
LINE
  5
2CA
330
6A
100
AcDbEntity
  8
0
  6
Continuous
 62
     7
100
AcDbLine
 10
98.75001589306603
 20
905.1878042821929
 30
0.0
 11
86.65001589304234
 21
905.187804282193
 31
0.0
  0
LINE
  5
2CB
330
6A
100
AcDbEntity
  8
0
  6
Continuous
 62
     7
100
AcDbLine
 10
86.65001589304234
 20
905.187804282193
 30
0.0
 11
86.58040065096854
 21
904.3920984242205
 31
0.0
  0
LINE
  5
2CC
330
6A
100
AcDbEntity
  8
0
  6
Continuous
 62
     7
100
AcDbLine
 10
88.58040065096854
 20
901.9015669143798
 30
0.0
 11
88.58040065096864
 21
903.0015669143799
 31
0.0
  0
LINE
  5
2CD
330
6A
100
AcDbEntity
  8
0
  6
Continuous
 62
     7
100
AcDbLine
 10
86.58040065096854
 20
903.5374652992422
 30
0.0
 11
86.58040065096854
 21
904.3920984242205
 31
0.0
  0
LINE
  5
2CE
330
6A
100
AcDbEntity
  8
0
  6
Continuous
 62
     7
100
AcDbLine
 10
106.6500414598898
 20
903.087804282193
 30
0.0
 11
106.4804006509686
 21
903.087804282193
 31
0.0
  0
LINE
  5
2CF
330
6A
100
AcDbEntity
  8
0
  6
Continuous
 62
     7
100
AcDbLine
 10
114.9303969944049
 20
903.2374652992421
 30
0.0
 11
113.3467708060401
 21
903.2374652992421
 31
0.0
  0
LINE
  5
2D0
330
6A
100
AcDbEntity
  8
0
  6
Continuous
 62
     7
100
AcDbLine
 10
113.3467708060401
 20
903.2374652992421
 30
0.0
 11
113.3467708060401
 21
904.237804282193
 31
0.0
  0
LINE
  5
2D1
330
6A
100
AcDbEntity
  8
0
  6
Continuous
 62
     7
100
AcDbLine
 10
106.4804006509686
 20
903.087804282193
 30
0.0
 11
106.4804006509686
 21
901.8374652992421
 31
0.0
  0
LINE
  5
2D2
330
6A
100
AcDbEntity
  8
0
  6
Continuous
 62
     7
100
AcDbLine
 10
113.3467708060401
 20
904.237804282193
 30
0.0
 11
109.7846920617817
 21
905.1922604012512
 31
0.0
  0
LINE
  5
2D3
330
6A
100
AcDbEntity
  8
0
  6
Continuous
 62
     7
100
AcDbLine
 10
88.58040065096864
 20
903.0015669143799
 30
0.0
 11
86.58040065096854
 21
903.5374652992422
 31
0.0
  0
LINE
  5
2D4
330
6A
100
AcDbEntity
  8
0
  6
Continuous
 62
     7
100
AcDbLine
 10
86.58040065096854
 20
904.3920984242205
 30
0.0
 11
86.46628969963794
 21
903.087804282193
 31
0.0
  0
LINE
  5
2D5
330
6A
100
AcDbEntity
  8
0
  6
Continuous
 62
     7
100
AcDbLine
 10
123.6049674338006
 20
942.0678042654351
 30
0.0
 11
115.6049674338006
 21
942.0678042654351
 31
0.0
  0
LINE
  5
2D6
330
6A
100
AcDbEntity
  8
0
  6
Continuous
 62
     7
100
AcDbLine
 10
115.6049674338006
 20
935.4878042654352
 30
0.0
 11
115.6049674338006
 21
933.3692984938946
 31
0.0
  0
LINE
  5
2D7
330
6A
100
AcDbEntity
  8
0
  6
Continuous
 62
     7
100
AcDbLine
 10
123.6049674338006
 20
935.4878042654352
 30
0.0
 11
115.6049674338006
 21
935.4878042654352
 31
0.0
  0
LINE
  5
2D8
330
6A
100
AcDbEntity
  8
0
  6
Continuous
 62
     7
100
AcDbLine
 10
115.6049674338006
 20
935.4878042654352
 30
0.0
 11
115.6049674338006
 21
942.0678042654351
 31
0.0
  0
LINE
  5
2D9
330
6A
100
AcDbEntity
  8
0
  6
Continuous
 62
     7
100
AcDbLine
 10
131.6049674338007
 20
935.4878042654352
 30
0.0
 11
123.6049674338006
 21
935.4878042654352
 31
0.0
  0
LINE
  5
2DA
330
6A
100
AcDbEntity
  8
0
  6
Continuous
 62
     7
100
AcDbLine
 10
133.6049674338007
 20
933.3692984938946
 30
0.0
 11
131.6049674338007
 21
933.3692984938946
 31
0.0
  0
LINE
  5
2DB
330
6A
100
AcDbEntity
  8
0
  6
Continuous
 62
     7
100
AcDbLine
 10
131.6049674338007
 20
935.4878042654352
 30
0.0
 11
131.6049674338007
 21
933.3692984938946
 31
0.0
  0
LINE
  5
2DC
330
6A
100
AcDbEntity
  8
0
  6
Continuous
 62
     7
100
AcDbLine
 10
133.6049674338007
 20
930.3692984938946
 30
0.0
 11
133.6049674338007
 21
933.3692984938946
 31
0.0
  0
LINE
  5
2DD
330
6A
100
AcDbEntity
  8
0
  6
Continuous
 62
     7
100
AcDbLine
 10
131.6049674338007
 20
935.4878042654352
 30
0.0
 11
131.6049674338007
 21
942.0678042654351
 31
0.0
  0
LINE
  5
2DE
330
6A
100
AcDbEntity
  8
0
  6
Continuous
 62
     7
100
AcDbLine
 10
131.6049674338007
 20
942.0678042654351
 30
0.0
 11
123.6049674338006
 21
942.0678042654351
 31
0.0
  0
LINE
  5
2DF
330
6A
100
AcDbEntity
  8
0
  6
Continuous
 62
     7
100
AcDbLine
 10
123.6049674338006
 20
935.4878042654352
 30
0.0
 11
123.6049674338006
 21
942.0678042654351
 31
0.0
  0
LINE
  5
2E0
330
6A
100
AcDbEntity
  8
0
  6
Continuous
 62
     7
100
AcDbLine
 10
131.6049674338007
 20
933.3692984938946
 30
0.0
 11
115.6049674338006
 21
933.3692984938946
 31
0.0
  0
LINE
  5
2E1
330
6A
100
AcDbEntity
  8
0
  6
Continuous
 62
     7
100
AcDbLine
 10
128.6049674338007
 20
915.4878042654352
 30
0.0
 11
118.6049674338006
 21
915.4878042654352
 31
0.0
  0
LINE
  5
2E2
330
6A
100
AcDbEntity
  8
0
  6
Continuous
 62
     7
100
AcDbLine
 10
109.3000158930662
 20
913.3378042821928
 30
0.0
 11
109.3000158930662
 21
910.8374652992421
 31
0.0
  0
LINE
  5
2E3
330
6A
100
AcDbEntity
  8
0
  6
Continuous
 62
     7
100
AcDbLine
 10
109.3000158930662
 20
910.8374652992421
 30
0.0
 11
109.3000158930662
 21
908.8374652992421
 31
0.0
  0
LINE
  5
2E4
330
6A
100
AcDbEntity
  8
0
  6
Continuous
 62
     7
100
AcDbLine
 10
109.3000158930662
 20
908.8374652992421
 30
0.0
 11
113.0804006509687
 21
908.8374652992421
 31
0.0
  0
LINE
  5
2E5
330
6A
100
AcDbEntity
  8
0
  6
Continuous
 62
     7
100
AcDbLine
 10
113.0804006509687
 20
910.8374652992421
 30
0.0
 11
109.3000158930662
 21
910.8374652992421
 31
0.0
  0
LINE
  5
2E6
330
6A
100
AcDbEntity
  8
0
  6
Continuous
 62
     7
100
AcDbLine
 10
118.6049674338006
 20
926.487804282193
 30
0.0
 11
118.6049674338006
 21
915.4878042654352
 31
0.0
  0
LINE
  5
2E7
330
6A
100
AcDbEntity
  8
0
  6
Continuous
 62
     7
100
AcDbLine
 10
128.6049674338007
 20
926.487804282193
 30
0.0
 11
128.6049674338007
 21
915.4878042654352
 31
0.0
  0
LINE
  5
2E8
330
6A
100
AcDbEntity
  8
0
  6
Continuous
 62
     7
100
AcDbLine
 10
54.60496743380065
 20
926.487804282193
 30
0.0
 11
53.60496743380068
 21
926.487804282193
 31
0.0
  0
LINE
  5
2E9
330
6A
100
AcDbEntity
  8
0
  6
Continuous
 62
     7
100
AcDbLine
 10
43.60496743380068
 20
926.487804282193
 30
0.0
 11
42.60496743380065
 21
926.487804282193
 31
0.0
  0
LINE
  5
2EA
330
6A
100
AcDbEntity
  8
0
  6
Continuous
 62
     7
100
AcDbLine
 10
53.60496743380068
 20
926.487804282193
 30
0.0
 11
43.60496743380068
 21
926.487804282193
 31
0.0
  0
LINE
  5
2EB
330
6A
100
AcDbEntity
  8
0
  6
Continuous
 62
     7
100
AcDbLine
 10
42.60496743380065
 20
930.3692984938946
 30
0.0
 11
42.60496743380065
 21
926.487804282193
 31
0.0
  0
LINE
  5
2EC
330
6A
100
AcDbEntity
  8
0
  6
Continuous
 62
     7
100
AcDbLine
 10
54.60496743380065
 20
930.3692984938946
 30
0.0
 11
54.60496743380065
 21
926.487804282193
 31
0.0
  0
LINE
  5
2ED
330
6A
100
AcDbEntity
  8
0
  6
Continuous
 62
     7
100
AcDbLine
 10
53.60496743380068
 20
926.487804282193
 30
0.0
 11
53.60496743380068
 21
915.4878042654352
 31
0.0
  0
LINE
  5
2EE
330
6A
100
AcDbEntity
  8
0
  6
Continuous
 62
     7
100
AcDbLine
 10
53.60496743380068
 20
915.4878042654352
 30
0.0
 11
43.60496743380068
 21
915.4878042654352
 31
0.0
  0
LINE
  5
2EF
330
6A
100
AcDbEntity
  8
0
  6
Continuous
 62
     7
100
AcDbLine
 10
54.60496743380065
 20
930.3692984938946
 30
0.0
 11
68.42124880803117
 21
930.3692984938945
 31
0.0
  0
LINE
  5
2F0
330
6A
100
AcDbEntity
  8
0
  6
Continuous
 62
     7
100
AcDbLine
 10
43.60496743380068
 20
926.487804282193
 30
0.0
 11
43.60496743380068
 21
915.4878042654352
 31
0.0
  0
LINE
  5
2F1
330
6A
100
AcDbEntity
  8
0
  6
Continuous
 62
     7
100
AcDbLine
 10
66.00001589306609
 20
916.637804282193
 30
0.0
 11
68.42124880803117
 21
930.3692984938945
 31
0.0
  0
LINE
  5
2F2
330
6A
100
AcDbEntity
  8
0
  6
Continuous
 62
     7
100
AcDbLine
 10
103.5787829781011
 20
930.3692984938946
 30
0.0
 11
106.0000158930663
 21
916.6378042821926
 31
0.0
  0
LINE
  5
2F3
330
6A
100
AcDbEntity
  8
1
  6
DOT_CENTER
 62
     2
100
AcDbLine
 10
48.60496743379906
 20
930.3692984938946
 30
0.0
 11
48.60496743380068
 21
915.4878042654352
 31
0.0
  0
LINE
  5
2F4
330
6A
100
AcDbEntity
  8
1
  6
DOT_CENTER
 62
     2
100
AcDbLine
 10
48.60496743380064
 20
935.4878042654352
 30
0.0
 11
48.60496743380067
 21
933.3692984938946
 31
0.0
  0
LINE
  5
2F5
330
6A
100
AcDbEntity
  8
1
  6
DOT_CENTER
 62
     2
100
AcDbLine
 10
98.50001589306613
 20
941.137804282193
 30
0.0
 11
98.50001589306613
 21
941.8692984938946
 31
0.0
  0
LINE
  5
2F6
330
6A
100
AcDbEntity
  8
1
  6
DOT_CENTER
 62
     2
100
AcDbLine
 10
123.6049674338007
 20
930.3692984938946
 30
0.0
 11
123.6049674337991
 21
915.4878042654354
 31
0.0
  0
LINE
  5
2F7
330
6A
100
AcDbEntity
  8
1
  6
DOT_CENTER
 62
     2
100
AcDbLine
 10
123.6049674337991
 20
915.4878042654354
 30
0.0
 11
123.6049674338007
 21
930.3692984938946
 31
0.0
  0
LINE
  5
2F8
330
6A
100
AcDbEntity
  8
1
  6
DOT_CENTER
 62
     2
100
AcDbLine
 10
73.50001589306606
 20
941.137804282193
 30
0.0
 11
73.50001589306606
 21
942.137804282193
 31
0.0
  0
ARC
  5
2F9
330
6A
100
AcDbEntity
  8
0
  6
Continuous
 62
     7
100
AcDbCircle
 10
71.40001589306607
 20
903.037804282193
 30
0.0
 40
7.200000000000032
100
AcDbArc
 50
251.946680485776
 51
288.2099568642827
  0
ARC
  5
2FA
330
6A
100
AcDbEntity
  8
0
  6
Continuous
 62
     7
100
AcDbCircle
 10
84.48040065096865
 20
899.2374652992421
 30
0.0
 40
1.700000000000003
100
AcDbArc
 50
180.0
 51
323.3606520378021
  0
ARC
  5
2FB
330
6A
100
AcDbEntity
  8
0
  6
Continuous
 62
     7
100
AcDbCircle
 10
69.48331959578887
 20
896.7419089077524
 30
0.0
 40
0.6333037027227595
100
AcDbArc
 50
124.6958181754182
 51
240.2143825082238
  0
ARC
  5
2FC
330
6A
100
AcDbEntity
  8
0
  6
Continuous
 62
     7
100
AcDbCircle
 10
108.2804006509686
 20
897.0374652992421
 30
0.0
 40
0.9999999999998878
100
AcDbArc
 50
221.8120038964935
 51
0.0
  0
ARC
  5
2FD
330
6A
100
AcDbEntity
  8
0
  6
Continuous
 62
     7
100
AcDbCircle
 10
113.0804006509687
 20
909.8374652992421
 30
0.0
 40
1.0
100
AcDbArc
 50
270.0
 51
90.0
  0
ENDBLK
  5
6C
330
6A
100
AcDbEntity
  8
0
100
AcDbBlockEnd
  0
BLOCK
  5
6F
330
6D
100
AcDbEntity
  8
0
100
AcDbBlockBegin
  2
Vordans1
 70
     0
 10
85.99999930335944
 20
918.9939043318315
 30
0.0
  3
Vordans1
  1

  0
INSERT
  5
6E
330
6D
100
AcDbEntity
  8
0
100
AcDbBlockReference
  2
UHV_50_M10_M10_select__6
 10
38.60496743380062
 20
895.837804282193
 30
0.0
  0
LINE
  5
2FE
330
6D
100
AcDbEntity
  8
1
  6
Continuous
 62
     2
100
AcDbLine
 10
88.98040065096596
 20
906.550961092591
 30
0.0
 11
88.98040065096596
 21
898.424628531812
 31
0.0
  0
MTEXT
  5
2FF
330
6D
100
AcDbEntity
  8
1
 62
     6
100
AcDbMText
 10
85.99999930335696
 20
890.8500005368967
 30
0.0
 40
5.0
 41
0.0
 71
     2
 72
     1
  1
 
  7
CONVERTER_11
 73
     1
 44
1.32052821128451
  0
DIMENSION
  5
30A
330
6D
100
AcDbEntity
  8
1
100
AcDbDimension
  2
*D18
 10
28.45705166651197
 20
903.087804282193
 30
0.0
 11
25.03205166651197
 21
923.788619942877
 31
0.0
 70
    32
  1
<>
 71
     5
 42
-1.0
 53
90.0
  3
ME10_DIM_11
100
AcDbAlignedDimension
 13
82.46179154339895
 23
941.137804282193
 33
0.0
 14
98.75001589306603
 24
903.087804282193
 34
0.0
 50
90.0
100
AcDbRotatedDimension
  0
DIMENSION
  5
315
330
6D
100
AcDbEntity
  8
1
100
AcDbDimension
  2
*D19
 10
88.98040065096596
 20
888.424628531812
 30
0.0
 11
97.60242281077564
 21
891.849628531812
 31
0.0
 70
    32
  1
<>
 71
     5
 42
-1.0
 53
0.00013888888889
  3
ME10_DIM_12
100
AcDbAlignedDimension
 13
106.4804006509686
 23
901.8374652992421
 33
0.0
 14
88.98040065096596
 24
898.424628531812
 34
0.0
100
AcDbRotatedDimension
  0
DIMENSION
  5
320
330
6D
100
AcDbEntity
  8
1
100
AcDbDimension
  2
*D20
 10
88.98040065096608
 20
879.773716636863
 30
0.0
 11
102.0686224152044
 21
883.198716636863
 31
0.0
 70
    32
  1
<>
 71
     5
 42
-1.0
 53
0.00013888888889
  3
ME10_DIM_13
100
AcDbAlignedDimension
 13
114.9303969944049
 23
900.7374652992421
 33
0.0
 14
88.98040065096596
 24
898.424628531812
 34
0.0
100
AcDbRotatedDimension
  0
DIMENSION
  5
32B
330
6D
100
AcDbEntity
  8
1
100
AcDbDimension
  2
*D21
 10
38.60496743380063
 20
863.4220373477576
 30
0.0
 11
87.58537021923229
 21
866.6720373477576
 31
0.0
 70
    32
  1
<>
 71
     5
 42
-1.0
 53
0.00013888888889
  3
ME10_DIM_14
100
AcDbAlignedDimension
 13
133.6049674338007
 23
930.3692984938946
 33
0.0
 14
38.60496743380062
 24
930.3692984938946
 34
0.0
100
AcDbRotatedDimension
  0
DIMENSION
  5
336
330
6D
100
AcDbEntity
  8
1
100
AcDbDimension
  2
*D22
 10
21.10705166651197
 20
903.087804282193
 30
0.0
 11
17.68205166651197
 21
923.788619942877
 31
0.0
 70
    32
  1
<>
 71
     5
 42
-1.0
 53
90.0
  3
ME10_DIM_15
100
AcDbAlignedDimension
 13
56.60496743380068
 23
942.0678042654351
 33
0.0
 14
98.75001589306603
 24
903.087804282193
 34
0.0
 50
90.0
100
AcDbRotatedDimension
  0
DIMENSION
  5
341
330
6D
100
AcDbEntity
  8
1
100
AcDbDimension
  2
*D23
 10
88.98040065096596
 20
871.115326717802
 30
0.0
 11
111.248217852513
 21
874.5403267178019
 31
0.0
 70
    32
  1
<>
 71
     5
 42
-1.0
 53
0.00013888888889
  3
ME10_DIM_16
100
AcDbAlignedDimension
 13
133.6049674338007
 23
930.3692984938946
 33
0.0
 14
88.98040065096596
 24
898.424628531812
 34
0.0
100
AcDbRotatedDimension
  0
INSERT
  5
34B
330
6D
100
AcDbEntity
  8
1
100
AcDbBlockReference
  2
*D24
 10
0.0
 20
0.0
 30
0.0
  0
ENDBLK
  5
70
330
6D
100
AcDbEntity
  8
0
100
AcDbBlockEnd
  0
BLOCK
  5
72
330
71
100
AcDbEntity
  8
0
100
AcDbBlockBegin
  2
_rahmen
 70
     0
 10
317.3999992627531
 20
687.9648332861908
 30
0.0
  3
_rahmen
  1

  0
LINE
  5
34C
330
71
100
AcDbEntity
  8
1
  6
Continuous
 62
     6
100
AcDbLine
 10
249.0666659294197
 20
692.9648332861908
 30
0.0
 11
317.3999992627531
 21
692.9648332861902
 31
0.0
  0
LINE
  5
34D
330
71
100
AcDbEntity
  8
1
  6
Continuous
 62
     6
100
AcDbLine
 10
317.3999992627527
 20
701.4648332861902
 30
0.0
 11
317.3999992627531
 21
709.9648332861902
 31
0.0
  0
LINE
  5
34E
330
71
100
AcDbEntity
  8
1
  6
Continuous
 62
     6
100
AcDbLine
 10
317.3999992627531
 20
709.9648332861902
 30
0.0
 11
317.3999992627522
 21
714.2148332861902
 31
0.0
  0
LINE
  5
34F
330
71
100
AcDbEntity
  8
1
  6
Continuous
 62
     6
100
AcDbLine
 10
317.3999992627522
 20
714.2148332861902
 30
0.0
 11
317.3999992627531
 21
750.3648332861909
 31
0.0
  0
LINE
  5
350
330
71
100
AcDbEntity
  8
1
  6
Continuous
 62
     2
100
AcDbLine
 10
112.3999992627531
 20
687.9648332861908
 30
0.0
 11
44.06666592942003
 21
687.9648332861908
 31
0.0
  0
LINE
  5
351
330
71
100
AcDbEntity
  8
1
  6
Continuous
 62
     2
100
AcDbLine
 10
249.0666659294197
 20
687.9648332861908
 30
0.0
 11
317.3999992627531
 21
687.9648332861908
 31
0.0
  0
LINE
  5
352
330
71
100
AcDbEntity
  8
1
  6
Continuous
 62
     2
100
AcDbLine
 10
249.0666659294197
 20
687.9648332861908
 30
0.0
 11
249.0666659294197
 21
692.9648332861908
 31
0.0
  0
LINE
  5
353
330
71
100
AcDbEntity
  8
1
  6
Continuous
 62
     2
100
AcDbLine
 10
180.7333325960865
 20
687.9648332861908
 30
0.0
 11
180.7333325960865
 21
692.964833286188
 31
0.0
  0
LINE
  5
354
330
71
100
AcDbEntity
  8
1
  6
Continuous
 62
     2
100
AcDbLine
 10
112.3999992627531
 20
687.9648332861908
 30
0.0
 11
112.3999992627531
 21
692.9648332861908
 31
0.0
  0
LINE
  5
355
330
71
100
AcDbEntity
  8
1
  6
Continuous
 62
     2
100
AcDbLine
 10
322.3999992627506
 20
750.3648332861909
 30
0.0
 11
322.3999992627506
 21
807.764833286191
 31
0.0
  0
LINE
  5
356
330
71
100
AcDbEntity
  8
1
  6
Continuous
 62
     2
100
AcDbLine
 10
322.3999992627506
 20
750.3648332861909
 30
0.0
 11
317.3999992627531
 21
750.3648332861909
 31
0.0
  0
LINE
  5
357
330
71
100
AcDbEntity
  8
1
  6
Continuous
 62
     2
100
AcDbLine
 10
-77.60000073724757
 20
687.9648332861908
 30
0.0
 11
-97.60000073724768
 21
687.9648332861908
 31
0.0
  0
LINE
  5
358
330
71
100
AcDbEntity
  8
1
  6
Continuous
 62
     2
100
AcDbLine
 10
-24.26666740391352
 20
687.9648332861908
 30
0.0
 11
-24.26666740391352
 21
692.9648332861908
 31
0.0
  0
LINE
  5
359
330
71
100
AcDbEntity
  8
1
  6
Continuous
 62
     2
100
AcDbLine
 10
-24.26666740391352
 20
687.9648332861908
 30
0.0
 11
44.06666592942003
 21
687.9648332861908
 31
0.0
  0
LINE
  5
35A
330
71
100
AcDbEntity
  8
1
  6
Continuous
 62
     6
100
AcDbLine
 10
-24.26666740391352
 20
692.9648332861908
 30
0.0
 11
44.06666592942003
 21
692.9648332861908
 31
0.0
  0
LINE
  5
35B
330
71
100
AcDbEntity
  8
1
  6
Continuous
 62
     6
100
AcDbLine
 10
-24.26666740391352
 20
692.9648332861908
 30
0.0
 11
-77.6000007372466
 21
692.9648332861908
 31
0.0
  0
LINE
  5
35C
330
71
100
AcDbEntity
  8
1
  6
Continuous
 62
     2
100
AcDbLine
 10
44.06666592942003
 20
687.9648332861908
 30
0.0
 11
44.06666592942003
 21
692.9648332861908
 31
0.0
  0
LINE
  5
35D
330
71
100
AcDbEntity
  8
1
  6
Continuous
 62
     2
100
AcDbLine
 10
-77.60000073724757
 20
687.9648332861908
 30
0.0
 11
-77.60000073724757
 21
691.9648332861908
 31
0.0
  0
LINE
  5
35E
330
71
100
AcDbEntity
  8
1
  6
Continuous
 62
     2
100
AcDbLine
 10
-77.60000073724757
 20
687.9648332861908
 30
0.0
 11
-24.26666740391352
 21
687.9648332861908
 31
0.0
  0
LINE
  5
35F
330
71
100
AcDbEntity
  8
1
  6
Continuous
 62
     2
100
AcDbLine
 10
132.3999992627503
 20
687.9648332861908
 30
0.0
 11
112.3999992627531
 21
687.9648332861908
 31
0.0
  0
LINE
  5
360
330
71
100
AcDbEntity
  8
1
  6
Continuous
 62
     2
100
AcDbLine
 10
132.3999992627503
 20
687.9648332861908
 30
0.0
 11
132.3999992627503
 21
691.9648332861908
 31
0.0
  0
LINE
  5
361
330
71
100
AcDbEntity
  8
1
  6
Continuous
 62
     2
100
AcDbLine
 10
132.3999992627503
 20
687.9648332861908
 30
0.0
 11
180.7333325960865
 21
687.9648332861908
 31
0.0
  0
LINE
  5
362
330
71
100
AcDbEntity
  8
1
  6
Continuous
 62
     2
100
AcDbLine
 10
180.7333325960865
 20
687.9648332861908
 30
0.0
 11
249.0666659294197
 21
687.9648332861908
 31
0.0
  0
LINE
  5
363
330
71
100
AcDbEntity
  8
1
  6
Continuous
 62
     2
100
AcDbLine
 10
322.3999992627506
 20
687.9648332861908
 30
0.0
 11
317.3999992627531
 21
687.9648332861908
 31
0.0
  0
LINE
  5
364
330
71
100
AcDbEntity
  8
1
  6
Continuous
 62
     2
100
AcDbLine
 10
322.3999992627506
 20
692.9648332861908
 30
0.0
 11
322.3999992627506
 21
687.9648332861908
 31
0.0
  0
LINE
  5
365
330
71
100
AcDbEntity
  8
1
  6
Continuous
 62
     2
100
AcDbLine
 10
322.3999992627506
 20
692.9648332861908
 30
0.0
 11
322.3999992627506
 21
750.3648332861909
 31
0.0
  0
LINE
  5
366
330
71
100
AcDbEntity
  8
1
  6
Continuous
 62
     2
100
AcDbLine
 10
322.3999992627506
 20
984.9648332861908
 30
0.0
 11
317.3999992627506
 21
984.9648332861908
 31
0.0
  0
LINE
  5
367
330
71
100
AcDbEntity
  8
1
  6
Continuous
 62
     6
100
AcDbLine
 10
317.3999992627506
 20
979.9648332861908
 30
0.0
 11
317.3999992627511
 21
922.5648332861907
 31
0.0
  0
LINE
  5
368
330
71
100
AcDbEntity
  8
1
  6
Continuous
 62
     2
100
AcDbLine
 10
322.3999992627506
 20
984.9648332861908
 30
0.0
 11
322.3999992627506
 21
979.9648332861908
 31
0.0
  0
LINE
  5
369
330
71
100
AcDbEntity
  8
1
  6
Continuous
 62
     2
100
AcDbLine
 10
317.3999992627506
 20
979.9648332861908
 30
0.0
 11
317.3999992627506
 21
984.9648332861908
 31
0.0
  0
LINE
  5
36A
330
71
100
AcDbEntity
  8
1
  6
Continuous
 62
     2
100
AcDbLine
 10
317.3999992627506
 20
979.9648332861908
 30
0.0
 11
322.3999992627506
 21
979.9648332861908
 31
0.0
  0
LINE
  5
36B
330
71
100
AcDbEntity
  8
1
  6
Continuous
 62
     2
100
AcDbLine
 10
322.3999992627506
 20
979.9648332861908
 30
0.0
 11
322.3999992627506
 21
922.5648332861907
 31
0.0
  0
LINE
  5
36C
330
71
100
AcDbEntity
  8
1
  6
Continuous
 62
     2
100
AcDbLine
 10
317.3999992627511
 20
922.5648332861907
 30
0.0
 11
322.3999992627506
 21
922.5648332861907
 31
0.0
  0
LINE
  5
36D
330
71
100
AcDbEntity
  8
1
  6
Continuous
 62
     6
100
AcDbLine
 10
317.3999992627511
 20
922.5648332861907
 30
0.0
 11
317.3999992627531
 21
865.1648332861909
 31
0.0
  0
LINE
  5
36E
330
71
100
AcDbEntity
  8
1
  6
Continuous
 62
     2
100
AcDbLine
 10
322.3999992627506
 20
922.5648332861907
 30
0.0
 11
322.3999992627506
 21
865.1648332861909
 31
0.0
  0
LINE
  5
36F
330
71
100
AcDbEntity
  8
1
  6
Continuous
 62
     2
100
AcDbLine
 10
317.3999992627531
 20
865.1648332861909
 30
0.0
 11
322.3999992627506
 21
865.1648332861909
 31
0.0
  0
LINE
  5
370
330
71
100
AcDbEntity
  8
1
  6
Continuous
 62
     6
100
AcDbLine
 10
317.3999992627531
 20
865.1648332861909
 30
0.0
 11
317.3999992627531
 21
807.764833286191
 31
0.0
  0
LINE
  5
371
330
71
100
AcDbEntity
  8
1
  6
Continuous
 62
     2
100
AcDbLine
 10
322.3999992627506
 20
865.1648332861909
 30
0.0
 11
322.3999992627506
 21
807.764833286191
 31
0.0
  0
LINE
  5
372
330
71
100
AcDbEntity
  8
1
  6
Continuous
 62
     2
100
AcDbLine
 10
317.3999992627531
 20
807.764833286191
 30
0.0
 11
322.3999992627506
 21
807.764833286191
 31
0.0
  0
LINE
  5
373
330
71
100
AcDbEntity
  8
1
  6
Continuous
 62
     6
100
AcDbLine
 10
317.3999992627531
 20
807.764833286191
 30
0.0
 11
317.3999992627531
 21
750.3648332861909
 31
0.0
  0
LINE
  5
374
330
71
100
AcDbEntity
  8
1
  6
Continuous
 62
     6
100
AcDbLine
 10
-77.60000073724757
 20
979.964833286191
 30
0.0
 11
-24.26666740391352
 21
979.964833286191
 31
0.0
  0
LINE
  5
375
330
71
100
AcDbEntity
  8
1
  6
Continuous
 62
     2
100
AcDbLine
 10
317.3999992627506
 20
984.9648332861908
 30
0.0
 11
249.0666659294197
 21
984.9648332861908
 31
0.0
  0
LINE
  5
376
330
71
100
AcDbEntity
  8
1
  6
Continuous
 62
     2
100
AcDbLine
 10
249.0666659294197
 20
979.9648332861908
 30
0.0
 11
249.0666659294197
 21
984.9648332861908
 31
0.0
  0
LINE
  5
377
330
71
100
AcDbEntity
  8
1
  6
Continuous
 62
     6
100
AcDbLine
 10
249.0666659294197
 20
979.9648332861908
 30
0.0
 11
317.3999992627506
 21
979.9648332861908
 31
0.0
  0
LINE
  5
378
330
71
100
AcDbEntity
  8
1
  6
Continuous
 62
     2
100
AcDbLine
 10
249.0666659294197
 20
984.9648332861908
 30
0.0
 11
180.7333325960865
 21
984.9648332861908
 31
0.0
  0
LINE
  5
379
330
71
100
AcDbEntity
  8
1
  6
Continuous
 62
     2
100
AcDbLine
 10
180.7333325960865
 20
979.9648332861908
 30
0.0
 11
180.7333325960865
 21
984.9648332861908
 31
0.0
  0
LINE
  5
37A
330
71
100
AcDbEntity
  8
1
  6
Continuous
 62
     6
100
AcDbLine
 10
180.7333325960865
 20
979.9648332861908
 30
0.0
 11
249.0666659294197
 21
979.9648332861908
 31
0.0
  0
LINE
  5
37B
330
71
100
AcDbEntity
  8
1
  6
Continuous
 62
     2
100
AcDbLine
 10
180.7333325960865
 20
984.9648332861908
 30
0.0
 11
132.3999992627503
 21
984.9648332861908
 31
0.0
  0
LINE
  5
37C
330
71
100
AcDbEntity
  8
1
  6
Continuous
 62
     2
100
AcDbLine
 10
112.3999992627531
 20
979.9648332861908
 30
0.0
 11
112.3999992627531
 21
984.9648332861908
 31
0.0
  0
LINE
  5
37D
330
71
100
AcDbEntity
  8
1
  6
Continuous
 62
     6
100
AcDbLine
 10
112.3999992627531
 20
979.9648332861908
 30
0.0
 11
180.7333325960865
 21
979.9648332861908
 31
0.0
  0
LINE
  5
37E
330
71
100
AcDbEntity
  8
1
  6
Continuous
 62
     2
100
AcDbLine
 10
112.3999992627531
 20
984.9648332861908
 30
0.0
 11
44.06666592942003
 21
984.9648332861908
 31
0.0
  0
LINE
  5
37F
330
71
100
AcDbEntity
  8
1
  6
Continuous
 62
     2
100
AcDbLine
 10
44.06666592942003
 20
979.9648332861908
 30
0.0
 11
44.06666592942003
 21
984.9648332861908
 31
0.0
  0
LINE
  5
380
330
71
100
AcDbEntity
  8
1
  6
Continuous
 62
     6
100
AcDbLine
 10
44.06666592942003
 20
979.9648332861908
 30
0.0
 11
112.3999992627531
 21
979.9648332861908
 31
0.0
  0
LINE
  5
381
330
71
100
AcDbEntity
  8
1
  6
Continuous
 62
     2
100
AcDbLine
 10
44.06666592942003
 20
984.9648332861908
 30
0.0
 11
-24.26666740391352
 21
984.9648332861908
 31
0.0
  0
LINE
  5
382
330
71
100
AcDbEntity
  8
1
  6
Continuous
 62
     2
100
AcDbLine
 10
-24.26666740391352
 20
979.964833286191
 30
0.0
 11
-24.26666740391352
 21
984.9648332861908
 31
0.0
  0
LINE
  5
383
330
71
100
AcDbEntity
  8
1
  6
Continuous
 62
     6
100
AcDbLine
 10
-24.26666740391352
 20
979.964833286191
 30
0.0
 11
44.06666592942003
 21
979.9648332861908
 31
0.0
  0
LINE
  5
384
330
71
100
AcDbEntity
  8
1
  6
Continuous
 62
     2
100
AcDbLine
 10
-24.26666740391352
 20
984.9648332861908
 30
0.0
 11
-77.60000073724757
 21
984.9648332861908
 31
0.0
  0
LINE
  5
385
330
71
100
AcDbEntity
  8
1
  6
Continuous
 62
     2
100
AcDbLine
 10
-77.60000073724757
 20
984.9648332861908
 30
0.0
 11
-77.60000073724757
 21
980.964833286191
 31
0.0
  0
LINE
  5
386
330
71
100
AcDbEntity
  8
1
  6
Continuous
 62
     2
100
AcDbLine
 10
-77.60000073724757
 20
984.9648332861908
 30
0.0
 11
-97.60000073724768
 21
984.9648332861908
 31
0.0
  0
LINE
  5
387
330
71
100
AcDbEntity
  8
1
  6
Continuous
 62
     2
100
AcDbLine
 10
132.3999992627503
 20
984.9648332861908
 30
0.0
 11
132.3999992627503
 21
980.964833286191
 31
0.0
  0
LINE
  5
388
330
71
100
AcDbEntity
  8
1
  6
Continuous
 62
     2
100
AcDbLine
 10
132.3999992627503
 20
984.9648332861908
 30
0.0
 11
112.3999992627531
 21
984.9648332861908
 31
0.0
  0
LINE
  5
389
330
71
100
AcDbEntity
  8
1
  6
Continuous
 62
     2
100
AcDbLine
 10
-97.60000073724768
 20
984.9648332861908
 30
0.0
 11
-97.60000073724768
 21
836.4648332861908
 31
0.0
  0
LINE
  5
38A
330
71
100
AcDbEntity
  8
1
  6
Continuous
 62
     2
100
AcDbLine
 10
-97.60000073724768
 20
836.4648332861908
 30
0.0
 11
-87.60000073724757
 21
836.4648332861908
 31
0.0
  0
LINE
  5
38B
330
71
100
AcDbEntity
  8
1
  6
Continuous
 62
     2
100
AcDbLine
 10
-97.60000073724768
 20
836.4648332861908
 30
0.0
 11
-97.60000073724768
 21
687.9648332861908
 31
0.0
  0
LINE
  5
38C
330
71
100
AcDbEntity
  8
1
  6
Continuous
 62
     6
100
AcDbLine
 10
-77.6000007372466
 20
692.9648332861908
 30
0.0
 11
-77.60000073724757
 21
979.964833286191
 31
0.0
  0
LINE
  5
38D
330
71
100
AcDbEntity
  8
1
  6
Continuous
 62
     6
100
AcDbLine
 10
317.3999992627531
 20
692.9648332861902
 30
0.0
 11
317.3999992627527
 21
701.4648332861902
 31
0.0
  0
LINE
  5
38E
330
71
100
AcDbEntity
  8
1
  6
Continuous
 62
     6
100
AcDbLine
 10
44.06666592942003
 20
692.9648332861908
 30
0.0
 11
187.8551947360032
 21
692.9648332861877
 31
0.0
  0
LINE
  5
38F
330
71
100
AcDbEntity
  8
1
  6
Continuous
 62
     2
100
AcDbLine
 10
180.7333325960865
 20
692.964833286188
 30
0.0
 11
180.7333325960865
 21
692.9648332861908
 31
0.0
  0
LINE
  5
390
330
71
100
AcDbEntity
  8
1
  6
Continuous
 62
     6
100
AcDbLine
 10
317.3999992627549
 20
709.9648332861902
 30
0.0
 11
317.3999992627549
 21
718.4648332861902
 31
0.0
  0
LINE
  5
391
330
71
100
AcDbEntity
  8
1
  6
Continuous
 62
     7
100
AcDbLine
 10
252.1551947360031
 20
701.4648332861902
 30
0.0
 11
252.1551947360031
 21
709.9648332861902
 31
0.0
  0
LINE
  5
392
330
71
100
AcDbEntity
  8
1
  6
Continuous
 62
     6
100
AcDbLine
 10
224.2551947360031
 20
709.9648332861902
 30
0.0
 11
317.3999992627549
 21
709.9648332861902
 31
0.0
  0
LINE
  5
393
330
71
100
AcDbEntity
  8
1
  6
Continuous
 62
     7
100
AcDbLine
 10
187.8551947360032
 20
709.9648332861902
 30
0.0
 11
187.8551947360032
 21
718.4648332861902
 31
0.0
  0
LINE
  5
394
330
71
100
AcDbEntity
  8
1
  6
Continuous
 62
     7
100
AcDbLine
 10
224.2551947360031
 20
709.9648332861902
 30
0.0
 11
224.2551947360031
 21
718.4648332861902
 31
0.0
  0
LINE
  5
395
330
71
100
AcDbEntity
  8
1
  6
Continuous
 62
     7
100
AcDbLine
 10
281.9815909810761
 20
718.4648332861902
 30
0.0
 11
281.9815909810761
 21
709.9648332861902
 31
0.0
  0
LINE
  5
396
330
71
100
AcDbEntity
  8
1
  6
Continuous
 62
     7
100
AcDbLine
 10
308.4815909810757
 20
718.4648332861902
 30
0.0
 11
308.4815909810757
 21
709.9648332861902
 31
0.0
  0
LINE
  5
397
330
71
100
AcDbEntity
  8
1
  6
Continuous
 62
     7
100
AcDbLine
 10
317.3999992627544
 20
701.4648332861902
 30
0.0
 11
224.2551947360031
 21
701.4648332861902
 31
0.0
  0
LINE
  5
398
102
{ACAD_REACTORS
330
47D
330
47E
102
}
330
71
100
AcDbEntity
  8
0
  6
Continuous
 62
     2
100
AcDbLine
 10
201.5626236777706
 20
702.2651224018535
 30
0.0
 11
201.5626236777706
 21
703.1376394086568
 31
0.0
  0
LINE
  5
399
102
{ACAD_REACTORS
330
47D
330
47E
102
}
330
71
100
AcDbEntity
  8
0
  6
Continuous
 62
     2
100
AcDbLine
 10
201.5626236777706
 20
701.3053536943708
 30
0.0
 11
201.5626236777706
 21
700.4328366875675
 31
0.0
  0
LINE
  5
39A
102
{ACAD_REACTORS
330
47F
330
480
102
}
330
71
100
AcDbEntity
  8
0
  6
Continuous
 62
     2
100
AcDbLine
 10
216.895667814061
 20
702.526877503894
 30
0.0
 11
217.9993071136291
 21
702.526877503894
 31
0.0
  0
LINE
  5
39B
102
{ACAD_REACTORS
330
47F
330
480
102
}
330
71
100
AcDbEntity
  8
0
  6
Continuous
 62
     2
100
AcDbLine
 10
217.6653251570224
 20
701.3053536943703
 30
0.0
 11
217.6653251570224
 21
700.4328366875669
 31
0.0
  0
LINE
  5
39C
102
{ACAD_REACTORS
330
489
330
48A
102
}
330
71
100
AcDbEntity
  8
0
  6
Continuous
 62
     2
100
AcDbLine
 10
215.8045685416426
 20
703.6175237623809
 30
0.0
 11
217.2025215885829
 21
705.1983827561558
 31
0.0
  0
LINE
  5
39D
102
{ACAD_REACTORS
330
489
330
48A
102
}
330
71
100
AcDbEntity
  8
0
  6
Continuous
 62
     2
100
AcDbLine
 10
215.8999919578154
 20
706.6713332861921
 30
0.0
 11
217.2025215885829
 21
705.1983827561558
 31
0.0
  0
LINE
  5
39E
102
{ACAD_REACTORS
330
489
330
48A
102
}
330
71
100
AcDbEntity
  8
0
  6
Continuous
 62
     2
100
AcDbLine
 10
218.5050512193493
 20
706.6713332861921
 30
0.0
 11
219.9077754370965
 21
706.6713332861921
 31
0.0
  0
LINE
  5
39F
102
{ACAD_REACTORS
330
489
330
48A
102
}
330
71
100
AcDbEntity
  8
0
  6
Continuous
 62
     2
100
AcDbLine
 10
217.2072927593907
 20
703.6175237623809
 30
0.0
 11
217.9038836974565
 21
704.4052555476746
 31
0.0
  0
LINE
  5
3A0
102
{ACAD_REACTORS
330
489
330
48A
102
}
330
71
100
AcDbEntity
  8
0
  6
Continuous
 62
     2
100
AcDbLine
 10
217.2072927593907
 20
703.6175237623809
 30
0.0
 11
215.8045685416426
 21
703.6175237623809
 31
0.0
  0
LINE
  5
3A1
102
{ACAD_REACTORS
330
48B
330
48C
102
}
330
71
100
AcDbEntity
  8
0
  6
Continuous
 62
     2
100
AcDbLine
 10
215.6852892714257
 20
703.6175237623809
 30
0.0
 11
214.4447848611728
 21
703.6175237623809
 31
0.0
  0
LINE
  5
3A2
102
{ACAD_REACTORS
330
48D
330
48E
102
}
330
71
100
AcDbEntity
  8
0
  6
Continuous
 62
     2
100
AcDbLine
 10
213.5768052530177
 20
701.479857095731
 30
0.0
 11
213.2766400158275
 21
702.2476720617177
 31
0.0
  0
LINE
  5
3A3
102
{ACAD_REACTORS
330
48D
330
48E
102
}
330
71
100
AcDbEntity
  8
0
  6
Continuous
 62
     2
100
AcDbLine
 10
212.9764747786352
 20
701.479857095731
 30
0.0
 11
213.5768052530177
 21
701.479857095731
 31
0.0
  0
LINE
  5
3A4
102
{ACAD_REACTORS
330
48D
330
48E
102
}
330
71
100
AcDbEntity
  8
0
  6
Continuous
 62
     2
100
AcDbLine
 10
211.2584347637614
 20
700.2583332862066
 30
0.0
 11
212.4989391740143
 21
700.2583332862066
 31
0.0
  0
LINE
  5
3A5
102
{ACAD_REACTORS
330
48D
330
48E
102
}
330
71
100
AcDbEntity
  8
0
  6
Continuous
 62
     2
100
AcDbLine
 10
212.6563878107006
 20
703.3121428100178
 30
0.0
 11
213.8968922209534
 21
703.3121428100178
 31
0.0
  0
LINE
  5
3A6
102
{ACAD_REACTORS
330
48D
330
48E
102
}
330
71
100
AcDbEntity
  8
0
  6
Continuous
 62
     2
100
AcDbLine
 10
213.8968922209534
 20
703.3121428100178
 30
0.0
 11
215.2948452678937
 21
700.2583332862066
 31
0.0
  0
LINE
  5
3A7
102
{ACAD_REACTORS
330
48D
330
48E
102
}
330
71
100
AcDbEntity
  8
0
  6
Continuous
 62
     2
100
AcDbLine
 10
214.0543408576398
 20
700.2583332862066
 30
0.0
 11
213.842860804164
 21
700.7992938304244
 31
0.0
  0
LINE
  5
3A8
102
{ACAD_REACTORS
330
48F
330
490
102
}
330
71
100
AcDbEntity
  8
0
  6
Continuous
 62
     2
100
AcDbLine
 10
209.9120216620538
 20
700.2583332862066
 30
0.0
 11
211.1048143642202
 21
700.2583332862066
 31
0.0
  0
LINE
  5
3A9
102
{ACAD_REACTORS
330
48F
330
490
102
}
330
71
100
AcDbEntity
  8
0
  6
Continuous
 62
     2
100
AcDbLine
 10
209.9120216620538
 20
702.526877503894
 30
0.0
 11
209.9120216620538
 21
700.2583332862066
 31
0.0
  0
LINE
  5
3AA
102
{ACAD_REACTORS
330
48F
330
490
102
}
330
71
100
AcDbEntity
  8
0
  6
Continuous
 62
     2
100
AcDbLine
 10
209.1009226245791
 20
703.3121428100178
 30
0.0
 11
209.1009226245791
 21
702.526877503894
 31
0.0
  0
LINE
  5
3AB
102
{ACAD_REACTORS
330
491
330
492
102
}
330
71
100
AcDbEntity
  8
0
  6
Continuous
 62
     2
100
AcDbLine
 10
210.5801365061518
 20
703.6175237623809
 30
0.0
 11
211.7729292083182
 21
703.6175237623809
 31
0.0
  0
LINE
  5
3AC
102
{ACAD_REACTORS
330
491
330
492
102
}
330
71
100
AcDbEntity
  8
0
  6
Continuous
 62
     2
100
AcDbLine
 10
213.0134336185723
 20
705.3625577759869
 30
0.0
 11
211.7729292083182
 21
706.6713332861921
 31
0.0
  0
LINE
  5
3AD
102
{ACAD_REACTORS
330
491
330
492
102
}
330
71
100
AcDbEntity
  8
0
  6
Continuous
 62
     2
100
AcDbLine
 10
214.2062263207389
 20
706.6713332861921
 30
0.0
 11
213.0134336185723
 21
706.6713332861921
 31
0.0
  0
LINE
  5
3AE
102
{ACAD_REACTORS
330
491
330
492
102
}
330
71
100
AcDbEntity
  8
0
  6
Continuous
 62
     2
100
AcDbLine
 10
214.2062263207389
 20
703.6175237623809
 30
0.0
 11
214.2062263207389
 21
706.6713332861921
 31
0.0
  0
LINE
  5
3AF
102
{ACAD_REACTORS
330
491
330
492
102
}
330
71
100
AcDbEntity
  8
0
  6
Continuous
 62
     2
100
AcDbLine
 10
213.0134336185723
 20
703.6175237623809
 30
0.0
 11
214.2062263207389
 21
703.6175237623809
 31
0.0
  0
LINE
  5
3B0
102
{ACAD_REACTORS
330
491
330
492
102
}
330
71
100
AcDbEntity
  8
0
  6
Continuous
 62
     2
100
AcDbLine
 10
211.7729292083182
 20
704.9262992725857
 30
0.0
 11
213.0134336185723
 21
703.6175237623809
 31
0.0
  0
LINE
  5
3B1
102
{ACAD_REACTORS
330
493
330
494
102
}
330
71
100
AcDbEntity
  8
0
  6
Continuous
 62
     2
100
AcDbLine
 10
207.7649947981526
 20
702.0033672998125
 30
0.0
 11
206.5244903878996
 21
703.3121428100178
 31
0.0
  0
LINE
  5
3B2
102
{ACAD_REACTORS
330
493
330
494
102
}
330
71
100
AcDbEntity
  8
0
  6
Continuous
 62
     2
100
AcDbLine
 10
207.7649947981526
 20
703.3121428100178
 30
0.0
 11
207.7649947981526
 21
702.0033672998125
 31
0.0
  0
LINE
  5
3B3
102
{ACAD_REACTORS
330
493
330
494
102
}
330
71
100
AcDbEntity
  8
0
  6
Continuous
 62
     2
100
AcDbLine
 10
208.957787500319
 20
703.3121428100178
 30
0.0
 11
207.7649947981526
 21
703.3121428100178
 31
0.0
  0
LINE
  5
3B4
102
{ACAD_REACTORS
330
493
330
494
102
}
330
71
100
AcDbEntity
  8
0
  6
Continuous
 62
     2
100
AcDbLine
 10
208.957787500319
 20
700.2583332862066
 30
0.0
 11
208.957787500319
 21
703.3121428100178
 31
0.0
  0
LINE
  5
3B5
102
{ACAD_REACTORS
330
493
330
494
102
}
330
71
100
AcDbEntity
  8
0
  6
Continuous
 62
     2
100
AcDbLine
 10
206.5244903878996
 20
701.567108796411
 30
0.0
 11
207.7649947981526
 21
700.2583332862066
 31
0.0
  0
LINE
  5
3B6
102
{ACAD_REACTORS
330
493
330
494
102
}
330
71
100
AcDbEntity
  8
0
  6
Continuous
 62
     2
100
AcDbLine
 10
206.5244903878996
 20
700.2583332862066
 30
0.0
 11
206.5244903878996
 21
701.567108796411
 31
0.0
  0
LINE
  5
3B7
102
{ACAD_REACTORS
330
483
330
484
102
}
330
71
100
AcDbEntity
  8
0
  6
Continuous
 62
     2
100
AcDbLine
 10
209.0056501392912
 20
705.9733196807491
 30
0.0
 11
210.3415779657188
 21
705.9733196807491
 31
0.0
  0
LINE
  5
3B8
102
{ACAD_REACTORS
330
483
330
484
102
}
330
71
100
AcDbEntity
  8
0
  6
Continuous
 62
     2
100
AcDbLine
 10
209.0056501392912
 20
704.3155373678233
 30
0.0
 11
209.0056501392912
 21
704.795421721565
 31
0.0
  0
LINE
  5
3B9
102
{ACAD_REACTORS
330
483
330
484
102
}
330
71
100
AcDbEntity
  8
0
  6
Continuous
 62
     2
100
AcDbLine
 10
210.3415779657188
 20
704.3155373678233
 30
0.0
 11
209.0056501392912
 21
704.3155373678233
 31
0.0
  0
LINE
  5
3BA
102
{ACAD_REACTORS
330
483
330
484
102
}
330
71
100
AcDbEntity
  8
0
  6
Continuous
 62
     2
100
AcDbLine
 10
210.3415779657188
 20
703.6175237623809
 30
0.0
 11
210.3415779657188
 21
704.3155373678233
 31
0.0
  0
LINE
  5
3BB
102
{ACAD_REACTORS
330
483
330
484
102
}
330
71
100
AcDbEntity
  8
0
  6
Continuous
 62
     2
100
AcDbLine
 10
207.1912582419379
 20
703.6175237623809
 30
0.0
 11
210.3415779657188
 21
703.6175237623809
 31
0.0
  0
LINE
  5
3BC
102
{ACAD_REACTORS
330
483
330
484
102
}
330
71
100
AcDbEntity
  8
0
  6
Continuous
 62
     2
100
AcDbLine
 10
207.1912582419379
 20
706.6713332861921
 30
0.0
 11
210.3415779657188
 21
706.6713332861921
 31
0.0
  0
LINE
  5
3BD
102
{ACAD_REACTORS
330
483
330
484
102
}
330
71
100
AcDbEntity
  8
0
  6
Continuous
 62
     2
100
AcDbLine
 10
210.3415779657188
 20
705.9733196807491
 30
0.0
 11
210.3415779657188
 21
706.6713332861921
 31
0.0
  0
LINE
  5
3BE
102
{ACAD_REACTORS
330
495
330
496
102
}
330
71
100
AcDbEntity
  8
0
  6
Continuous
 62
     2
100
AcDbLine
 10
204.3299027467978
 20
705.6024999528574
 30
0.0
 11
204.3299027467978
 21
706.6713332861921
 31
0.0
  0
LINE
  5
3BF
102
{ACAD_REACTORS
330
495
330
496
102
}
330
71
100
AcDbEntity
  8
0
  6
Continuous
 62
     2
100
AcDbLine
 10
204.3299027467978
 20
706.6713332861921
 30
0.0
 11
205.5226954489643
 21
706.6713332861921
 31
0.0
  0
LINE
  5
3C0
102
{ACAD_REACTORS
330
495
330
496
102
}
330
71
100
AcDbEntity
  8
0
  6
Continuous
 62
     2
100
AcDbLine
 10
204.3299027467978
 20
704.7517958712247
 30
0.0
 11
203.2802451688904
 21
704.7517958712247
 31
0.0
  0
LINE
  5
3C1
102
{ACAD_REACTORS
330
495
330
496
102
}
330
71
100
AcDbEntity
  8
0
  6
Continuous
 62
     2
100
AcDbLine
 10
203.2802451688904
 20
704.7517958712247
 30
0.0
 11
203.2802451688904
 21
703.6175237623809
 31
0.0
  0
LINE
  5
3C2
102
{ACAD_REACTORS
330
495
330
496
102
}
330
71
100
AcDbEntity
  8
0
  6
Continuous
 62
     2
100
AcDbLine
 10
202.0874524667238
 20
706.6713332861921
 30
0.0
 11
202.0874524667238
 21
703.6175237623809
 31
0.0
  0
LINE
  5
3C3
102
{ACAD_REACTORS
330
487
330
488
102
}
330
71
100
AcDbEntity
  8
0
  6
Continuous
 62
     2
100
AcDbLine
 10
200.1312724351701
 20
705.3024997914097
 30
0.0
 11
200.1312724351701
 21
706.0082274407521
 31
0.0
  0
LINE
  5
3C4
102
{ACAD_REACTORS
330
487
330
488
102
}
330
71
100
AcDbEntity
  8
0
  6
Continuous
 62
     2
100
AcDbLine
 10
198.8907680249161
 20
703.6175237623809
 30
0.0
 11
200.1312724351701
 21
703.6175237623809
 31
0.0
  0
LINE
  5
3C5
102
{ACAD_REACTORS
330
487
330
488
102
}
330
71
100
AcDbEntity
  8
0
  6
Continuous
 62
     2
100
AcDbLine
 10
200.1312724351701
 20
703.6175237623809
 30
0.0
 11
200.1312724351701
 21
704.5606020035247
 31
0.0
  0
LINE
  5
3C6
102
{ACAD_REACTORS
330
481
330
482
102
}
330
71
100
AcDbEntity
  8
0
  6
Continuous
 62
     2
100
AcDbLine
 10
194.5858221757046
 20
700.9708888417636
 30
0.0
 11
193.109988914695
 21
700.9708888417636
 31
0.0
  0
LINE
  5
3C7
102
{ACAD_REACTORS
330
481
330
482
102
}
330
71
100
AcDbEntity
  8
0
  6
Continuous
 62
     2
100
AcDbLine
 10
192.0918496225657
 20
706.24708867079
 30
0.0
 11
192.0918496225657
 21
700.6825779015899
 31
0.0
  0
LINE
  5
3C8
102
{ACAD_REACTORS
330
481
330
482
102
}
330
71
100
AcDbEntity
  8
0
  6
Continuous
 62
     2
100
AcDbLine
 10
192.5160942379485
 20
706.6713332861739
 30
0.0
 11
197.9894063286654
 21
706.6713332861739
 31
0.0
  0
LINE
  5
3C9
102
{ACAD_REACTORS
330
481
330
482
102
}
330
71
100
AcDbEntity
  8
0
  6
Continuous
 62
     2
100
AcDbLine
 10
198.4136509440493
 20
706.24708867079
 30
0.0
 11
198.4136509440493
 21
700.6825779015899
 31
0.0
  0
LINE
  5
3CA
102
{ACAD_REACTORS
330
481
330
482
102
}
330
71
100
AcDbEntity
  8
0
  6
Continuous
 62
     2
100
AcDbLine
 10
197.9894063286654
 20
700.2583332862066
 30
0.0
 11
192.5160942379485
 21
700.2583332862066
 31
0.0
  0
LINE
  5
3CB
102
{ACAD_REACTORS
330
481
330
482
102
}
330
71
100
AcDbEntity
  8
0
  6
Continuous
 62
     2
100
AcDbLine
 10
194.9015390987812
 20
701.2866057648403
 30
0.0
 11
194.9015390987812
 21
702.8173766963719
 31
0.0
  0
LINE
  5
3CC
102
{ACAD_REACTORS
330
481
330
482
102
}
330
71
100
AcDbEntity
  8
0
  6
Continuous
 62
     2
100
AcDbLine
 10
194.9015390987812
 20
705.0390361884968
 30
0.0
 11
194.9015390987812
 21
705.6430608075573
 31
0.0
  0
LINE
  5
3CD
102
{ACAD_REACTORS
330
481
330
482
102
}
330
71
100
AcDbEntity
  8
0
  6
Continuous
 62
     2
100
AcDbLine
 10
193.109988914695
 20
705.9587777306334
 30
0.0
 11
194.5858221757046
 21
705.9587777306334
 31
0.0
  0
LINE
  5
3CE
102
{ACAD_REACTORS
330
481
330
482
102
}
330
71
100
AcDbEntity
  8
0
  6
Continuous
 62
     2
100
AcDbLine
 10
192.7942719916194
 20
705.6430608075573
 30
0.0
 11
192.7942719916194
 21
701.2866057648403
 31
0.0
  0
LINE
  5
3CF
102
{ACAD_REACTORS
330
487
330
488
102
}
330
71
100
AcDbEntity
  8
0
  6
Continuous
 62
     2
100
AcDbLine
 10
200.1312724351701
 20
704.5606020035247
 30
0.0
 11
200.8900400229505
 21
704.5606020035247
 31
0.0
  0
LINE
  5
3D0
102
{ACAD_REACTORS
330
487
330
488
102
}
330
71
100
AcDbEntity
  8
0
  6
Continuous
 62
     2
100
AcDbLine
 10
198.8907680249161
 20
706.6713332861921
 30
0.0
 11
200.8900400229505
 21
706.6713332861921
 31
0.0
  0
LINE
  5
3D1
102
{ACAD_REACTORS
330
487
330
488
102
}
330
71
100
AcDbEntity
  8
0
  6
Continuous
 62
     2
100
AcDbLine
 10
198.8907680249161
 20
706.6713332861921
 30
0.0
 11
198.8907680249161
 21
703.6175237623809
 31
0.0
  0
LINE
  5
3D2
102
{ACAD_REACTORS
330
487
330
488
102
}
330
71
100
AcDbEntity
  8
0
  6
Continuous
 62
     2
100
AcDbLine
 10
200.1312724351701
 20
705.3024997914097
 30
0.0
 11
200.4485674967121
 21
705.3024997914097
 31
0.0
  0
LINE
  5
3D3
102
{ACAD_REACTORS
330
487
330
488
102
}
330
71
100
AcDbEntity
  8
0
  6
Continuous
 62
     2
100
AcDbLine
 10
200.1312724351701
 20
706.0082274407521
 30
0.0
 11
200.4485674967121
 21
706.0082274407521
 31
0.0
  0
LINE
  5
3D4
102
{ACAD_REACTORS
330
495
330
496
102
}
330
71
100
AcDbEntity
  8
0
  6
Continuous
 62
     2
100
AcDbLine
 10
203.2802451688904
 20
705.6024999528574
 30
0.0
 11
204.3299027467978
 21
705.6024999528574
 31
0.0
  0
LINE
  5
3D5
102
{ACAD_REACTORS
330
495
330
496
102
}
330
71
100
AcDbEntity
  8
0
  6
Continuous
 62
     2
100
AcDbLine
 10
203.2802451688904
 20
706.6713332861921
 30
0.0
 11
203.2802451688904
 21
705.6024999528574
 31
0.0
  0
LINE
  5
3D6
102
{ACAD_REACTORS
330
495
330
496
102
}
330
71
100
AcDbEntity
  8
0
  6
Continuous
 62
     2
100
AcDbLine
 10
202.0874524667238
 20
706.6713332861921
 30
0.0
 11
203.2802451688904
 21
706.6713332861921
 31
0.0
  0
LINE
  5
3D7
102
{ACAD_REACTORS
330
495
330
496
102
}
330
71
100
AcDbEntity
  8
0
  6
Continuous
 62
     2
100
AcDbLine
 10
203.2802451688904
 20
703.6175237623809
 30
0.0
 11
202.0874524667238
 21
703.6175237623809
 31
0.0
  0
LINE
  5
3D8
102
{ACAD_REACTORS
330
495
330
496
102
}
330
71
100
AcDbEntity
  8
0
  6
Continuous
 62
     2
100
AcDbLine
 10
204.3299027467978
 20
703.6175237623809
 30
0.0
 11
204.3299027467978
 21
704.7517958712247
 31
0.0
  0
LINE
  5
3D9
102
{ACAD_REACTORS
330
495
330
496
102
}
330
71
100
AcDbEntity
  8
0
  6
Continuous
 62
     2
100
AcDbLine
 10
205.5226954489643
 20
703.6175237623809
 30
0.0
 11
204.3299027467978
 21
703.6175237623809
 31
0.0
  0
LINE
  5
3DA
102
{ACAD_REACTORS
330
495
330
496
102
}
330
71
100
AcDbEntity
  8
0
  6
Continuous
 62
     2
100
AcDbLine
 10
205.5226954489643
 20
706.6713332861921
 30
0.0
 11
205.5226954489643
 21
703.6175237623809
 31
0.0
  0
LINE
  5
3DB
102
{ACAD_REACTORS
330
483
330
484
102
}
330
71
100
AcDbEntity
  8
0
  6
Continuous
 62
     2
100
AcDbLine
 10
209.0056501392912
 20
704.795421721565
 30
0.0
 11
210.3415779657188
 21
704.795421721565
 31
0.0
  0
LINE
  5
3DC
102
{ACAD_REACTORS
330
483
330
484
102
}
330
71
100
AcDbEntity
  8
0
  6
Continuous
 62
     2
100
AcDbLine
 10
210.3415779657188
 20
704.795421721565
 30
0.0
 11
210.3415779657188
 21
705.4934353270074
 31
0.0
  0
LINE
  5
3DD
102
{ACAD_REACTORS
330
483
330
484
102
}
330
71
100
AcDbEntity
  8
0
  6
Continuous
 62
     2
100
AcDbLine
 10
210.3415779657188
 20
705.4934353270074
 30
0.0
 11
209.0056501392912
 21
705.4934353270074
 31
0.0
  0
LINE
  5
3DE
102
{ACAD_REACTORS
330
483
330
484
102
}
330
71
100
AcDbEntity
  8
0
  6
Continuous
 62
     2
100
AcDbLine
 10
209.0056501392912
 20
705.4934353270074
 30
0.0
 11
209.0056501392912
 21
705.9733196807491
 31
0.0
  0
LINE
  5
3DF
102
{ACAD_REACTORS
330
493
330
494
102
}
330
71
100
AcDbEntity
  8
0
  6
Continuous
 62
     2
100
AcDbLine
 10
205.3316976857321
 20
700.2583332862066
 30
0.0
 11
206.5244903878996
 21
700.2583332862066
 31
0.0
  0
LINE
  5
3E0
102
{ACAD_REACTORS
330
493
330
494
102
}
330
71
100
AcDbEntity
  8
0
  6
Continuous
 62
     2
100
AcDbLine
 10
207.7649947981526
 20
700.2583332862066
 30
0.0
 11
208.957787500319
 21
700.2583332862066
 31
0.0
  0
LINE
  5
3E1
102
{ACAD_REACTORS
330
493
330
494
102
}
330
71
100
AcDbEntity
  8
0
  6
Continuous
 62
     2
100
AcDbLine
 10
206.5244903878996
 20
703.3121428100178
 30
0.0
 11
205.3316976857321
 21
703.3121428100178
 31
0.0
  0
LINE
  5
3E2
102
{ACAD_REACTORS
330
493
330
494
102
}
330
71
100
AcDbEntity
  8
0
  6
Continuous
 62
     2
100
AcDbLine
 10
205.3316976857321
 20
703.3121428100178
 30
0.0
 11
205.3316976857321
 21
700.2583332862066
 31
0.0
  0
LINE
  5
3E3
102
{ACAD_REACTORS
330
491
330
492
102
}
330
71
100
AcDbEntity
  8
0
  6
Continuous
 62
     2
100
AcDbLine
 10
213.0134336185723
 20
706.6713332861921
 30
0.0
 11
213.0134336185723
 21
705.3625577759869
 31
0.0
  0
LINE
  5
3E4
102
{ACAD_REACTORS
330
491
330
492
102
}
330
71
100
AcDbEntity
  8
0
  6
Continuous
 62
     2
100
AcDbLine
 10
211.7729292083182
 20
706.6713332861921
 30
0.0
 11
210.5801365061518
 21
706.6713332861921
 31
0.0
  0
LINE
  5
3E5
102
{ACAD_REACTORS
330
491
330
492
102
}
330
71
100
AcDbEntity
  8
0
  6
Continuous
 62
     2
100
AcDbLine
 10
210.5801365061518
 20
706.6713332861921
 30
0.0
 11
210.5801365061518
 21
703.6175237623809
 31
0.0
  0
LINE
  5
3E6
102
{ACAD_REACTORS
330
491
330
492
102
}
330
71
100
AcDbEntity
  8
0
  6
Continuous
 62
     2
100
AcDbLine
 10
211.7729292083182
 20
703.6175237623809
 30
0.0
 11
211.7729292083182
 21
704.9262992725857
 31
0.0
  0
LINE
  5
3E7
102
{ACAD_REACTORS
330
48F
330
490
102
}
330
71
100
AcDbEntity
  8
0
  6
Continuous
 62
     2
100
AcDbLine
 10
211.1048143642202
 20
700.2583332862066
 30
0.0
 11
211.1048143642202
 21
702.526877503894
 31
0.0
  0
LINE
  5
3E8
102
{ACAD_REACTORS
330
48F
330
490
102
}
330
71
100
AcDbEntity
  8
0
  6
Continuous
 62
     2
100
AcDbLine
 10
211.1048143642202
 20
702.526877503894
 30
0.0
 11
211.9159134016928
 21
702.526877503894
 31
0.0
  0
LINE
  5
3E9
102
{ACAD_REACTORS
330
48F
330
490
102
}
330
71
100
AcDbEntity
  8
0
  6
Continuous
 62
     2
100
AcDbLine
 10
211.9159134016928
 20
702.526877503894
 30
0.0
 11
211.9159134016928
 21
703.3121428100178
 31
0.0
  0
LINE
  5
3EA
102
{ACAD_REACTORS
330
48F
330
490
102
}
330
71
100
AcDbEntity
  8
0
  6
Continuous
 62
     2
100
AcDbLine
 10
211.9159134016928
 20
703.3121428100178
 30
0.0
 11
209.1009226245791
 21
703.3121428100178
 31
0.0
  0
LINE
  5
3EB
102
{ACAD_REACTORS
330
48F
330
490
102
}
330
71
100
AcDbEntity
  8
0
  6
Continuous
 62
     2
100
AcDbLine
 10
209.1009226245791
 20
702.526877503894
 30
0.0
 11
209.9120216620538
 21
702.526877503894
 31
0.0
  0
LINE
  5
3EC
102
{ACAD_REACTORS
330
48D
330
48E
102
}
330
71
100
AcDbEntity
  8
0
  6
Continuous
 62
     2
100
AcDbLine
 10
212.7104192274901
 20
700.7992938304244
 30
0.0
 11
213.842860804164
 21
700.7992938304244
 31
0.0
  0
LINE
  5
3ED
102
{ACAD_REACTORS
330
48D
330
48E
102
}
330
71
100
AcDbEntity
  8
0
  6
Continuous
 62
     2
100
AcDbLine
 10
215.2948452678937
 20
700.2583332862066
 30
0.0
 11
214.0543408576398
 21
700.2583332862066
 31
0.0
  0
LINE
  5
3EE
102
{ACAD_REACTORS
330
48D
330
48E
102
}
330
71
100
AcDbEntity
  8
0
  6
Continuous
 62
     2
100
AcDbLine
 10
212.6563878107006
 20
703.3121428100178
 30
0.0
 11
211.2584347637614
 21
700.2583332862066
 31
0.0
  0
LINE
  5
3EF
102
{ACAD_REACTORS
330
48D
330
48E
102
}
330
71
100
AcDbEntity
  8
0
  6
Continuous
 62
     2
100
AcDbLine
 10
212.4989391740143
 20
700.2583332862066
 30
0.0
 11
212.7104192274901
 21
700.7992938304244
 31
0.0
  0
LINE
  5
3F0
102
{ACAD_REACTORS
330
48D
330
48E
102
}
330
71
100
AcDbEntity
  8
0
  6
Continuous
 62
     2
100
AcDbLine
 10
212.9764747786352
 20
701.479857095731
 30
0.0
 11
213.2766400158275
 21
702.2476720617177
 31
0.0
  0
LINE
  5
3F1
102
{ACAD_REACTORS
330
48B
330
48C
102
}
330
71
100
AcDbEntity
  8
0
  6
Continuous
 62
     2
100
AcDbLine
 10
214.4447848611728
 20
703.6175237623809
 30
0.0
 11
214.4447848611728
 21
706.6713332861921
 31
0.0
  0
LINE
  5
3F2
102
{ACAD_REACTORS
330
48B
330
48C
102
}
330
71
100
AcDbEntity
  8
0
  6
Continuous
 62
     2
100
AcDbLine
 10
215.6852892714257
 20
706.6713332861921
 30
0.0
 11
215.6852892714257
 21
703.6175237623809
 31
0.0
  0
LINE
  5
3F3
102
{ACAD_REACTORS
330
48B
330
48C
102
}
330
71
100
AcDbEntity
  8
0
  6
Continuous
 62
     2
100
AcDbLine
 10
214.4447848611728
 20
706.6713332861921
 30
0.0
 11
215.6852892714257
 21
706.6713332861921
 31
0.0
  0
LINE
  5
3F4
102
{ACAD_REACTORS
330
489
330
48A
102
}
330
71
100
AcDbEntity
  8
0
  6
Continuous
 62
     2
100
AcDbLine
 10
217.9038836974565
 20
704.4052555476746
 30
0.0
 11
218.6004746355219
 21
703.6175237623809
 31
0.0
  0
LINE
  5
3F5
102
{ACAD_REACTORS
330
489
330
48A
102
}
330
71
100
AcDbEntity
  8
0
  6
Continuous
 62
     2
100
AcDbLine
 10
218.6004746355219
 20
703.6175237623809
 30
0.0
 11
220.0031988532702
 21
703.6175237623809
 31
0.0
  0
LINE
  5
3F6
102
{ACAD_REACTORS
330
489
330
48A
102
}
330
71
100
AcDbEntity
  8
0
  6
Continuous
 62
     2
100
AcDbLine
 10
218.6052458063299
 20
705.1983827561558
 30
0.0
 11
220.0031988532702
 21
703.6175237623809
 31
0.0
  0
LINE
  5
3F7
102
{ACAD_REACTORS
330
489
330
48A
102
}
330
71
100
AcDbEntity
  8
0
  6
Continuous
 62
     2
100
AcDbLine
 10
218.6052458063299
 20
705.1983827561558
 30
0.0
 11
219.9077754370965
 21
706.6713332861921
 31
0.0
  0
LINE
  5
3F8
102
{ACAD_REACTORS
330
489
330
48A
102
}
330
71
100
AcDbEntity
  8
0
  6
Continuous
 62
     2
100
AcDbLine
 10
217.9038836974565
 20
705.9915099646365
 30
0.0
 11
218.5050512193493
 21
706.6713332861921
 31
0.0
  0
LINE
  5
3F9
102
{ACAD_REACTORS
330
489
330
48A
102
}
330
71
100
AcDbEntity
  8
0
  6
Continuous
 62
     2
100
AcDbLine
 10
217.3027161755646
 20
706.6713332861921
 30
0.0
 11
217.9038836974565
 21
705.9915099646365
 31
0.0
  0
LINE
  5
3FA
102
{ACAD_REACTORS
330
489
330
48A
102
}
330
71
100
AcDbEntity
  8
0
  6
Continuous
 62
     2
100
AcDbLine
 10
217.3027161755646
 20
706.6713332861921
 30
0.0
 11
215.8999919578154
 21
706.6713332861921
 31
0.0
  0
LINE
  5
3FB
102
{ACAD_REACTORS
330
47F
330
480
102
}
330
71
100
AcDbEntity
  8
0
  6
Continuous
 62
     2
100
AcDbLine
 10
217.9993071136291
 20
700.2583332862066
 30
0.0
 11
219.1920998157968
 21
700.2583332862066
 31
0.0
  0
LINE
  5
3FC
102
{ACAD_REACTORS
330
47F
330
480
102
}
330
71
100
AcDbEntity
  8
0
  6
Continuous
 62
     2
100
AcDbLine
 10
219.1920998157968
 20
700.2583332862066
 30
0.0
 11
219.1920998157968
 21
702.526877503894
 31
0.0
  0
LINE
  5
3FD
102
{ACAD_REACTORS
330
47F
330
480
102
}
330
71
100
AcDbEntity
  8
0
  6
Continuous
 62
     2
100
AcDbLine
 10
219.1920998157968
 20
702.526877503894
 30
0.0
 11
220.0031988532702
 21
702.526877503894
 31
0.0
  0
LINE
  5
3FE
102
{ACAD_REACTORS
330
47F
330
480
102
}
330
71
100
AcDbEntity
  8
0
  6
Continuous
 62
     2
100
AcDbLine
 10
220.0031988532702
 20
702.526877503894
 30
0.0
 11
220.0031988532702
 21
703.3121428100178
 31
0.0
  0
LINE
  5
3FF
102
{ACAD_REACTORS
330
47F
330
480
102
}
330
71
100
AcDbEntity
  8
0
  6
Continuous
 62
     2
100
AcDbLine
 10
216.6182533346416
 20
703.3121428100171
 30
0.0
 11
220.0031988532702
 21
703.3121428100178
 31
0.0
  0
LINE
  5
400
102
{ACAD_REACTORS
330
47F
330
480
102
}
330
71
100
AcDbEntity
  8
0
  6
Continuous
 62
     2
100
AcDbLine
 10
217.9993071136291
 20
702.526877503894
 30
0.0
 11
217.9993071136291
 21
700.2583332862066
 31
0.0
  0
LINE
  5
401
102
{ACAD_REACTORS
330
481
330
482
102
}
330
71
100
AcDbEntity
  8
0
  6
Continuous
 62
     2
100
AcDbLine
 10
195.36982067815
 20
702.2372134357711
 30
0.0
 11
195.36982067815
 21
702.8190648424662
 31
0.0
  0
LINE
  5
402
102
{ACAD_REACTORS
330
481
330
482
102
}
330
71
100
AcDbEntity
  8
0
  6
Continuous
 62
     2
100
AcDbLine
 10
195.36982067815
 20
705.0373480424023
 30
0.0
 11
195.36982067815
 21
705.6428833309092
 31
0.0
  0
LINE
  5
403
330
71
100
AcDbEntity
  8
1
  6
Continuous
 62
     6
100
AcDbLine
 10
273.8999992627531
 20
692.9648332861902
 30
0.0
 11
317.3999992627531
 21
692.9648332861902
 31
0.0
  0
LINE
  5
404
330
71
100
AcDbEntity
  8
1
  6
Continuous
 62
     6
100
AcDbLine
 10
223.8999992627531
 20
692.9648332861902
 30
0.0
 11
206.0551947360031
 21
692.9648332861902
 31
0.0
  0
LINE
  5
405
330
71
100
AcDbEntity
  8
1
  6
Continuous
 62
     6
100
AcDbLine
 10
187.8551947360032
 20
709.9648332861902
 30
0.0
 11
224.2551947360031
 21
709.9648332861902
 31
0.0
  0
LINE
  5
406
330
71
100
AcDbEntity
  8
1
  6
Continuous
 62
     6
100
AcDbLine
 10
317.3999992627531
 20
692.9648332861902
 30
0.0
 11
317.3999992627544
 21
701.4648332861902
 31
0.0
  0
LINE
  5
407
330
71
100
AcDbEntity
  8
1
  6
Continuous
 62
     6
100
AcDbLine
 10
224.2551947360031
 20
692.9648332861902
 30
0.0
 11
273.8999992627531
 21
692.9648332861902
 31
0.0
  0
LINE
  5
408
330
71
100
AcDbEntity
  8
1
  6
Continuous
 62
     7
100
AcDbLine
 10
187.8551947360032
 20
709.9648332861902
 30
0.0
 11
187.8551947360032
 21
697.2148332861902
 31
0.0
  0
LINE
  5
409
330
71
100
AcDbEntity
  8
1
  6
Continuous
 62
     7
100
AcDbLine
 10
224.2551947360031
 20
709.9648332861902
 30
0.0
 11
224.2551947360031
 21
697.2148332861902
 31
0.0
  0
LINE
  5
40A
330
71
100
AcDbEntity
  8
1
  6
Continuous
 62
     6
100
AcDbLine
 10
224.2551947360031
 20
692.9648332861902
 30
0.0
 11
223.8999992627531
 21
692.9648332861902
 31
0.0
  0
LINE
  5
40B
330
71
100
AcDbEntity
  8
1
  6
Continuous
 62
     6
100
AcDbLine
 10
317.3999992627549
 20
709.9648332861902
 30
0.0
 11
317.3999992627544
 21
701.4648332861902
 31
0.0
  0
LINE
  5
40C
330
71
100
AcDbEntity
  8
1
  6
Continuous
 62
     2
100
AcDbLine
 10
192.0918496225657
 20
715.3398332861901
 30
0.0
 11
197.0918496225657
 21
716.5898332861901
 31
0.0
  0
LINE
  5
40D
330
71
100
AcDbEntity
  8
1
  6
Continuous
 62
     2
100
AcDbLine
 10
192.0918496225657
 20
712.8398332861901
 30
0.0
 11
192.0918496225657
 21
715.3398332861901
 31
0.0
  0
LINE
  5
40E
330
71
100
AcDbEntity
  8
1
  6
Continuous
 62
     2
100
AcDbLine
 10
197.0918496225657
 20
711.5898332861901
 30
0.0
 11
192.0918496225657
 21
712.8398332861901
 31
0.0
  0
LINE
  5
40F
330
71
100
AcDbEntity
  8
1
  6
Continuous
 62
     2
100
AcDbLine
 10
197.0918496225657
 20
716.5898332861901
 30
0.0
 11
197.0918496225657
 21
711.5898332861901
 31
0.0
  0
LINE
  5
410
330
71
100
AcDbEntity
  8
1
  6
Continuous
 62
     7
100
AcDbLine
 10
187.8551947360032
 20
697.2148332861902
 30
0.0
 11
206.0551947360031
 21
697.2148332861902
 31
0.0
  0
LINE
  5
411
330
71
100
AcDbEntity
  8
1
  6
Continuous
 62
     7
100
AcDbLine
 10
187.8551947360032
 20
697.2148332861902
 30
0.0
 11
187.8551947360032
 21
692.9648332861902
 31
0.0
  0
LINE
  5
412
330
71
100
AcDbEntity
  8
1
  6
Continuous
 62
     7
100
AcDbLine
 10
224.2551947360031
 20
697.2148332861902
 30
0.0
 11
224.2551947360031
 21
692.9648332861902
 31
0.0
  0
LINE
  5
413
330
71
100
AcDbEntity
  8
1
  6
Continuous
 62
     7
100
AcDbLine
 10
206.0551947360031
 20
697.2148332861902
 30
0.0
 11
206.0551947360031
 21
692.9648332861902
 31
0.0
  0
LINE
  5
414
330
71
100
AcDbEntity
  8
1
  6
Continuous
 62
     6
100
AcDbLine
 10
206.0551947360031
 20
692.9648332861902
 30
0.0
 11
187.8551947360032
 21
692.9648332861902
 31
0.0
  0
LINE
  5
415
330
71
100
AcDbEntity
  8
1
  6
Continuous
 62
     7
100
AcDbLine
 10
206.0551947360031
 20
697.2148332861902
 30
0.0
 11
224.2551947360031
 21
697.2148332861902
 31
0.0
  0
LINE
  5
416
330
71
100
AcDbEntity
  8
1
  6
Continuous
 62
     6
100
AcDbLine
 10
187.8551947360032
 20
718.4648332861902
 30
0.0
 11
317.3999992627549
 21
718.4648332861902
 31
0.0
  0
LINE
  5
417
330
71
100
AcDbEntity
  8
1
  6
PHANTOM
 62
     2
100
AcDbLine
 10
203.3418496225657
 20
714.0898332861901
 30
0.0
 11
197.8418496225657
 21
714.0898332861901
 31
0.0
  0
LINE
  5
418
330
71
100
AcDbEntity
  8
1
  6
PHANTOM
 62
     2
100
AcDbLine
 10
200.5918496225657
 20
716.8398332861902
 30
0.0
 11
200.5918496225657
 21
711.3398332861902
 31
0.0
  0
LINE
  5
419
330
71
100
AcDbEntity
  8
1
  6
DOT_CENTER
 62
     2
100
AcDbLine
 10
191.8418496225657
 20
714.0898332861901
 30
0.0
 11
197.3418496225657
 21
714.0898332861901
 31
0.0
  0
ARC
  5
41A
102
{ACAD_REACTORS
330
485
330
486
102
}
330
71
100
AcDbEntity
  8
0
  6
Continuous
 62
     2
100
AcDbCircle
 10
203.2468427349632
 20
701.7852380481118
 30
0.0
 40
0.7717997786795
100
AcDbArc
 50
321.8795802028465
 51
38.1204197971668
  0
ARC
  5
41B
102
{ACAD_REACTORS
330
485
330
486
102
}
330
71
100
AcDbEntity
  8
0
  6
Continuous
 62
     2
100
AcDbCircle
 10
203.4465827713096
 20
701.628506869992
 30
0.0
 40
0.5179085730138424
100
AcDbArc
 50
218.1204197971879
 51
321.8795802027908
  0
ARC
  5
41C
102
{ACAD_REACTORS
330
485
330
486
102
}
330
71
100
AcDbEntity
  8
0
  6
Continuous
 62
     2
100
AcDbCircle
 10
203.6463228076556
 20
701.7852380481118
 30
0.0
 40
0.771799778679551
100
AcDbArc
 50
141.879580202828
 51
218.1204197971587
  0
ARC
  5
41D
102
{ACAD_REACTORS
330
485
330
486
102
}
330
71
100
AcDbEntity
  8
0
  6
Continuous
 62
     2
100
AcDbCircle
 10
203.4465827713096
 20
701.9419692262323
 30
0.0
 40
0.5179085730132454
100
AcDbArc
 50
38.12041979715975
 51
141.8795802028616
  0
ARC
  5
41E
102
{ACAD_REACTORS
330
47D
330
47E
102
}
330
71
100
AcDbEntity
  8
0
  6
Continuous
 62
     2
100
AcDbCircle
 10
200.3845686357456
 20
700.3747716827038
 30
0.0
 40
2.227384008973417
100
AcDbArc
 50
58.06909105003631
 51
71.5519238818663
  0
ARC
  5
41F
102
{ACAD_REACTORS
330
47D
330
47E
102
}
330
71
100
AcDbEntity
  8
0
  6
Continuous
 62
     2
100
AcDbCircle
 10
200.6462963367044
 20
701.9903094774509
 30
0.0
 40
0.5115800601949335
100
AcDbArc
 50
113.3722778881895
 51
151.4785267423156
  0
ARC
  5
420
102
{ACAD_REACTORS
330
47D
330
47E
102
}
330
71
100
AcDbEntity
  8
0
  6
Continuous
 62
     2
100
AcDbCircle
 10
201.0236535947848
 20
701.7852380481118
 30
0.0
 40
0.9410597353333294
100
AcDbArc
 50
151.4785267422693
 51
208.5214732576941
  0
ARC
  5
421
102
{ACAD_REACTORS
330
47D
330
47E
102
}
330
71
100
AcDbEntity
  8
0
  6
Continuous
 62
     2
100
AcDbCircle
 10
200.2266957606528
 20
705.0979189933684
 30
0.0
 40
4.852596863498272
100
AcDbArc
 50
275.1581447696238
 51
285.9799912583527
  0
ARC
  5
422
102
{ACAD_REACTORS
330
47D
330
47E
102
}
330
71
100
AcDbEntity
  8
0
  6
Continuous
 62
     2
100
AcDbCircle
 10
200.5155518553887
 20
701.8980284101467
 30
0.0
 40
1.639695123939452
100
AcDbArc
 50
195.0618917770941
 51
275.1581447696363
  0
ARC
  5
423
102
{ACAD_REACTORS
330
47D
330
47E
102
}
330
71
100
AcDbEntity
  8
0
  6
Continuous
 62
     2
100
AcDbCircle
 10
200.0964240119259
 20
701.7852380481118
 30
0.0
 40
1.205656168390986
100
AcDbArc
 50
164.9381082228742
 51
195.0618917770945
  0
ARC
  5
424
102
{ACAD_REACTORS
330
47D
330
47E
102
}
330
71
100
AcDbEntity
  8
0
  6
Continuous
 62
     2
100
AcDbCircle
 10
200.5155518553887
 20
701.672447686077
 30
0.0
 40
1.639695123940442
100
AcDbArc
 50
84.84185523036514
 51
164.9381082228905
  0
ARC
  5
425
102
{ACAD_REACTORS
330
481
330
482
102
}
330
71
100
AcDbEntity
  8
0
  6
Continuous
 62
     2
100
AcDbCircle
 10
195.6855376012268
 20
702.8190648424662
 30
0.0
 40
0.3157169230764815
100
AcDbArc
 50
115.3740086783563
 51
180.0
  0
ARC
  5
426
102
{ACAD_REACTORS
330
481
330
482
102
}
330
71
100
AcDbEntity
  8
0
  6
Continuous
 62
     2
100
AcDbCircle
 10
195.6855376012268
 20
705.0373480424023
 30
0.0
 40
0.315716923076792
100
AcDbArc
 50
180.0
 51
244.6259913216349
  0
ARC
  5
427
102
{ACAD_REACTORS
330
481
330
482
102
}
330
71
100
AcDbEntity
  8
0
  6
Continuous
 62
     2
100
AcDbCircle
 10
195.6911537365368
 20
703.9400483833401
 30
0.0
 40
2.018561131933266
100
AcDbArc
 50
269.8110329575834
 51
90.18896704241658
  0
ARC
  5
428
102
{ACAD_REACTORS
330
481
330
482
102
}
330
71
100
AcDbEntity
  8
0
  6
Continuous
 62
     2
100
AcDbCircle
 10
195.6855376012268
 20
702.2372134357711
 30
0.0
 40
0.315716923076792
100
AcDbArc
 50
180.0
 51
269.8110329574335
  0
ARC
  5
429
102
{ACAD_REACTORS
330
47F
330
480
102
}
330
71
100
AcDbEntity
  8
0
  6
Continuous
 62
     2
100
AcDbCircle
 10
216.7489978159573
 20
701.9903094774509
 30
0.0
 40
0.5115800601944143
100
AcDbArc
 50
109.3371432194853
 51
151.4785267424197
  0
ARC
  5
42A
102
{ACAD_REACTORS
330
47F
330
480
102
}
330
71
100
AcDbEntity
  8
0
  6
Continuous
 62
     2
100
AcDbCircle
 10
216.7489978159573
 20
701.5801666187733
 30
0.0
 40
0.5115800601960487
100
AcDbArc
 50
208.5214732576922
 51
246.6277221118424
  0
ARC
  5
42B
102
{ACAD_REACTORS
330
47F
330
480
102
}
330
71
100
AcDbEntity
  8
0
  6
Continuous
 62
     2
100
AcDbCircle
 10
216.1991254911799
 20
701.7852380481118
 30
0.0
 40
1.20565616839299
100
AcDbArc
 50
164.9381082228998
 51
195.0618917770897
  0
ARC
  5
42C
102
{ACAD_REACTORS
330
47F
330
480
102
}
330
71
100
AcDbEntity
  8
0
  6
Continuous
 62
     2
100
AcDbCircle
 10
216.6182533346416
 20
701.672447686077
 30
0.0
 40
1.639695123940101
100
AcDbArc
 50
90.0
 51
164.9381082228993
  0
ARC
  5
42D
102
{ACAD_REACTORS
330
483
330
484
102
}
330
71
100
AcDbEntity
  8
0
  6
Continuous
 62
     2
100
AcDbCircle
 10
207.1912582419379
 20
705.1444285242862
 30
0.0
 40
1.526904761905826
100
AcDbArc
 50
90.0
 51
270.0
  0
ARC
  5
42E
102
{ACAD_REACTORS
330
487
330
488
102
}
330
71
100
AcDbEntity
  8
0
  6
Continuous
 62
     2
100
AcDbCircle
 10
200.4485674967121
 20
705.6553636160809
 30
0.0
 40
0.3528638246712035
100
AcDbArc
 50
270.0
 51
90.0
  0
ARC
  5
42F
102
{ACAD_REACTORS
330
481
330
482
102
}
330
71
100
AcDbEntity
  8
0
  6
Continuous
 62
     2
100
AcDbCircle
 10
193.109988914695
 20
705.6430608075573
 30
0.0
 40
0.3157169230761383
100
AcDbArc
 50
90.0
 51
180.0
  0
ARC
  5
430
102
{ACAD_REACTORS
330
481
330
482
102
}
330
71
100
AcDbEntity
  8
0
  6
Continuous
 62
     2
100
AcDbCircle
 10
195.1084066232796
 20
703.9282064424345
 30
0.0
 40
0.9118975235576555
100
AcDbArc
 50
115.1944106485211
 51
244.8055893514911
  0
ARC
  5
431
102
{ACAD_REACTORS
330
481
330
482
102
}
330
71
100
AcDbEntity
  8
0
  6
Continuous
 62
     2
100
AcDbCircle
 10
194.5858221757046
 20
702.8173766963719
 30
0.0
 40
0.315716923076593
100
AcDbArc
 50
0.0
 51
64.80558935144188
  0
ARC
  5
432
102
{ACAD_REACTORS
330
481
330
482
102
}
330
71
100
AcDbEntity
  8
0
  6
Continuous
 62
     2
100
AcDbCircle
 10
192.5160942379485
 20
700.6825779015899
 30
0.0
 40
0.4242446153828041
100
AcDbArc
 50
180.0
 51
270.0
  0
ARC
  5
433
102
{ACAD_REACTORS
330
483
330
484
102
}
330
71
100
AcDbEntity
  8
0
  6
Continuous
 62
     2
100
AcDbCircle
 10
207.4075302521031
 20
705.3011597024067
 30
0.0
 40
0.5179085730133318
100
AcDbArc
 50
38.12041979713626
 51
141.8795802028715
  0
ARC
  5
434
102
{ACAD_REACTORS
330
483
330
484
102
}
330
71
100
AcDbEntity
  8
0
  6
Continuous
 62
     2
100
AcDbCircle
 10
207.6072702884493
 20
705.1444285242862
 30
0.0
 40
0.7717997786795895
100
AcDbArc
 50
141.8795802028517
 51
218.1204197971549
  0
ARC
  5
435
102
{ACAD_REACTORS
330
485
330
486
102
}
330
71
100
AcDbEntity
  8
0
  6
Continuous
 62
     2
100
AcDbCircle
 10
203.4465827713096
 20
702.3238130584152
 30
0.0
 40
2.065479772208586
100
AcDbArc
 50
242.4518518243377
 51
297.5481481756867
  0
ARC
  5
436
102
{ACAD_REACTORS
330
485
330
486
102
}
330
71
100
AcDbEntity
  8
0
  6
Continuous
 62
     2
100
AcDbCircle
 10
203.4465827713096
 20
701.246663037809
 30
0.0
 40
2.065479772208744
100
AcDbArc
 50
62.45185182430892
 51
117.5481481756666
  0
ARC
  5
437
102
{ACAD_REACTORS
330
485
330
486
102
}
330
71
100
AcDbEntity
  8
0
  6
Continuous
 62
     2
100
AcDbCircle
 10
203.1656428794762
 20
701.7852380481118
 30
0.0
 40
1.458034083651667
100
AcDbArc
 50
117.5481481756588
 51
242.451851824335
  0
ARC
  5
438
102
{ACAD_REACTORS
330
485
330
486
102
}
330
71
100
AcDbEntity
  8
0
  6
Continuous
 62
     2
100
AcDbCircle
 10
203.7275226631428
 20
701.7852380481118
 30
0.0
 40
1.458034083651929
100
AcDbArc
 50
297.5481481757076
 51
62.45185182429861
  0
ARC
  5
439
102
{ACAD_REACTORS
330
483
330
484
102
}
330
71
100
AcDbEntity
  8
0
  6
Continuous
 62
     2
100
AcDbCircle
 10
207.4075302521031
 20
704.9876973461658
 30
0.0
 40
0.5179085730134915
100
AcDbArc
 50
218.1204197971384
 51
321.8795802028538
  0
ARC
  5
43A
102
{ACAD_REACTORS
330
483
330
484
102
}
330
71
100
AcDbEntity
  8
0
  6
Continuous
 62
     2
100
AcDbCircle
 10
207.2077902157569
 20
705.1444285242862
 30
0.0
 40
0.7717997786795702
100
AcDbArc
 50
321.8795802028399
 51
38.12041979715352
  0
ARC
  5
43B
102
{ACAD_REACTORS
330
481
330
482
102
}
330
71
100
AcDbEntity
  8
0
  6
Continuous
 62
     2
100
AcDbCircle
 10
197.9894063286654
 20
700.6825779015899
 30
0.0
 40
0.4242446153832589
100
AcDbArc
 50
270.0
 51
0.0
  0
ARC
  5
43C
102
{ACAD_REACTORS
330
481
330
482
102
}
330
71
100
AcDbEntity
  8
0
  6
Continuous
 62
     2
100
AcDbCircle
 10
197.9894063286654
 20
706.24708867079
 30
0.0
 40
0.4242446153838841
100
AcDbArc
 50
0.0
 51
90.0
  0
ARC
  5
43D
102
{ACAD_REACTORS
330
481
330
482
102
}
330
71
100
AcDbEntity
  8
0
  6
Continuous
 62
     2
100
AcDbCircle
 10
192.5160942379485
 20
706.24708867079
 30
0.0
 40
0.4242446153838273
100
AcDbArc
 50
90.0
 51
180.0
  0
ARC
  5
43E
102
{ACAD_REACTORS
330
481
330
482
102
}
330
71
100
AcDbEntity
  8
0
  6
Continuous
 62
     2
100
AcDbCircle
 10
194.5858221757046
 20
701.2866057648403
 30
0.0
 40
0.3157169230767067
100
AcDbArc
 50
270.0
 51
0.0
  0
ARC
  5
43F
102
{ACAD_REACTORS
330
481
330
482
102
}
330
71
100
AcDbEntity
  8
0
  6
Continuous
 62
     2
100
AcDbCircle
 10
194.5858221757046
 20
705.0390361884968
 30
0.0
 40
0.3157169230761051
100
AcDbArc
 50
295.1944106485581
 51
0.0
  0
ARC
  5
440
102
{ACAD_REACTORS
330
481
330
482
102
}
330
71
100
AcDbEntity
  8
0
  6
Continuous
 62
     2
100
AcDbCircle
 10
194.5858221757046
 20
705.6430608075573
 30
0.0
 40
0.315716923076593
100
AcDbArc
 50
0.0
 51
90.0
  0
ARC
  5
441
102
{ACAD_REACTORS
330
481
330
482
102
}
330
71
100
AcDbEntity
  8
0
  6
Continuous
 62
     2
100
AcDbCircle
 10
193.109988914695
 20
701.2866057648403
 30
0.0
 40
0.3157169230755983
100
AcDbArc
 50
180.0
 51
270.0
  0
ARC
  5
442
102
{ACAD_REACTORS
330
487
330
488
102
}
330
71
100
AcDbEntity
  8
0
  6
Continuous
 62
     2
100
AcDbCircle
 10
200.8900400229505
 20
705.6159676448583
 30
0.0
 40
1.055365641333651
100
AcDbArc
 50
270.0
 51
90.0
  0
ARC
  5
443
102
{ACAD_REACTORS
330
47F
330
480
102
}
330
71
100
AcDbEntity
  8
0
  6
Continuous
 62
     2
100
AcDbCircle
 10
216.6182533346416
 20
701.8980284101467
 30
0.0
 40
1.639695123940503
100
AcDbArc
 50
195.0618917771007
 51
275.1581447696764
  0
ARC
  5
444
102
{ACAD_REACTORS
330
47F
330
480
102
}
330
71
100
AcDbEntity
  8
0
  6
Continuous
 62
     2
100
AcDbCircle
 10
216.3293972399057
 20
705.0979189933684
 30
0.0
 40
4.852596863498833
100
AcDbArc
 50
275.1581447696374
 51
285.9799912583386
  0
ARC
  5
445
102
{ACAD_REACTORS
330
47F
330
480
102
}
330
71
100
AcDbEntity
  8
0
  6
Continuous
 62
     2
100
AcDbCircle
 10
216.4872701149985
 20
703.19570441352
 30
0.0
 40
2.227384008972719
100
AcDbArc
 50
288.4480761181337
 51
301.9309089499401
  0
ARC
  5
446
102
{ACAD_REACTORS
330
47F
330
480
102
}
330
71
100
AcDbEntity
  8
0
  6
Continuous
 62
     2
100
AcDbCircle
 10
216.9054378486605
 20
701.9421586374833
 30
0.0
 40
0.905929784985273
100
AcDbArc
 50
246.6277221118102
 51
288.4480761180783
  0
ARC
  5
447
102
{ACAD_REACTORS
330
47F
330
480
102
}
330
71
100
AcDbEntity
  8
0
  6
Continuous
 62
     2
100
AcDbCircle
 10
217.1263550740388
 20
701.7852380481118
 30
0.0
 40
0.9410597353350602
100
AcDbArc
 50
151.4785267423581
 51
208.5214732576662
  0
ARC
  5
448
102
{ACAD_REACTORS
330
47F
330
480
102
}
330
71
100
AcDbEntity
  8
0
  6
Continuous
 62
     2
100
AcDbCircle
 10
216.895667814061
 20
701.5723544970679
 30
0.0
 40
0.9545230068260935
100
AcDbArc
 50
90.0
 51
109.3371432194297
  0
ARC
  5
449
102
{ACAD_REACTORS
330
481
330
482
102
}
330
71
100
AcDbEntity
  8
0
  6
Continuous
 62
     2
100
AcDbCircle
 10
195.6855376012268
 20
705.6428833309092
 30
0.0
 40
0.3157169230761283
100
AcDbArc
 50
90.18896704256652
 51
180.0
  0
ARC
  5
44A
102
{ACAD_REACTORS
330
481
330
482
102
}
330
71
100
AcDbEntity
  8
0
  6
Continuous
 62
     2
100
AcDbCircle
 10
195.1594949031389
 20
703.9282064424345
 30
0.0
 40
0.9118481501444455
100
AcDbArc
 50
295.3740086781789
 51
64.62599132180893
  0
ARC
  5
44B
102
{ACAD_REACTORS
330
47D
330
47E
102
}
330
71
100
AcDbEntity
  8
0
  6
Continuous
 62
     2
100
AcDbCircle
 10
200.3845686357456
 20
703.1957044135205
 30
0.0
 40
2.227384008972719
100
AcDbArc
 50
288.4480761181337
 51
301.9309089499637
  0
ARC
  5
44C
102
{ACAD_REACTORS
330
47D
330
47E
102
}
330
71
100
AcDbEntity
  8
0
  6
Continuous
 62
     2
100
AcDbCircle
 10
200.8027363694065
 20
701.9421586374833
 30
0.0
 40
0.905929784984867
100
AcDbArc
 50
246.6277221118696
 51
288.4480761181556
  0
ARC
  5
44D
102
{ACAD_REACTORS
330
47D
330
47E
102
}
330
71
100
AcDbEntity
  8
0
  6
Continuous
 62
     2
100
AcDbCircle
 10
200.6462963367044
 20
701.5801666187733
 30
0.0
 40
0.5115800601947491
100
AcDbArc
 50
208.5214732576844
 51
246.6277221118307
  0
ARC
  5
44E
102
{ACAD_REACTORS
330
47D
330
47E
102
}
330
71
100
AcDbEntity
  8
0
  6
Continuous
 62
     2
100
AcDbCircle
 10
200.8027363694065
 20
701.6283174587403
 30
0.0
 40
0.9059297849853588
100
AcDbArc
 50
71.55192388185803
 51
113.3722778881275
  0
ARC
  5
44F
102
{ACAD_REACTORS
330
47D
330
47E
102
}
330
71
100
AcDbEntity
  8
0
  6
Continuous
 62
     2
100
AcDbCircle
 10
200.2266957606528
 20
698.472557102856
 30
0.0
 40
4.85259686349804
100
AcDbArc
 50
74.02000874164729
 51
84.84185523037608
  0
CIRCLE
  5
450
102
{ACAD_REACTORS
330
481
330
482
102
}
330
71
100
AcDbEntity
  8
0
  6
Continuous
 62
     2
100
AcDbCircle
 10
195.1356798884661
 20
703.9282064424345
 30
0.0
 40
0.4709789327785074
  0
CIRCLE
  5
451
330
71
100
AcDbEntity
  8
1
  6
Continuous
 62
     2
100
AcDbCircle
 10
200.5918496225657
 20
714.0898332861901
 30
0.0
 40
1.25
  0
CIRCLE
  5
452
330
71
100
AcDbEntity
  8
1
  6
Continuous
 62
     2
100
AcDbCircle
 10
200.5918496225657
 20
714.0898332861901
 30
0.0
 40
2.5
  0
TEXT
  5
453
330
71
100
AcDbEntity
  8
1
 62
     7
100
AcDbText
 10
282.0666659294197
 20
688.9648332861908
 30
0.0
 40
2.5
  1
6
 41
0.9
  7
CONVERTER_11
100
AcDbText
  0
TEXT
  5
454
330
71
100
AcDbEntity
  8
1
 62
     7
100
AcDbText
 10
213.7333325960863
 20
688.9648332861908
 30
0.0
 40
2.5
  1
5
 41
0.9
  7
CONVERTER_11
100
AcDbText
  0
TEXT
  5
455
330
71
100
AcDbEntity
  8
1
 62
     7
100
AcDbText
 10
145.3999992627531
 20
688.9648332861908
 30
0.0
 40
2.5
  1
4
 41
0.9
  7
CONVERTER_11
100
AcDbText
  0
TEXT
  5
456
330
71
100
AcDbEntity
  8
1
 62
     7
100
AcDbText
 10
77.06666592942003
 20
688.9648332861908
 30
0.0
 40
2.5
  1
3
 41
0.9
  7
CONVERTER_11
100
AcDbText
  0
TEXT
  5
457
330
71
100
AcDbEntity
  8
1
 62
     7
100
AcDbText
 10
318.3999992627531
 20
720.4648332861908
 30
0.0
 40
2.5
  1
E
 41
0.9
  7
CONVERTER_11
100
AcDbText
  0
TEXT
  5
458
330
71
100
AcDbEntity
  8
1
 62
     7
100
AcDbText
 10
-59.6000007372466
 20
688.9648332861908
 30
0.0
 40
2.5
  1
1
 41
0.9
  7
CONVERTER_11
100
AcDbText
  0
TEXT
  5
459
330
71
100
AcDbEntity
  8
1
 62
     7
100
AcDbText
 10
8.73333259608648
 20
688.9648332861908
 30
0.0
 40
2.5
  1
2
 41
0.9
  7
CONVERTER_11
100
AcDbText
  0
TEXT
  5
45A
330
71
100
AcDbEntity
  8
1
 62
     7
100
AcDbText
 10
318.3999992627531
 20
777.8648332861909
 30
0.0
 40
2.5
  1
D
 41
0.9
  7
CONVERTER_11
100
AcDbText
  0
TEXT
  5
45B
330
71
100
AcDbEntity
  8
1
 62
     7
100
AcDbText
 10
318.3999992627531
 20
835.264833286191
 30
0.0
 40
2.5
  1
C
 41
0.9
  7
CONVERTER_11
100
AcDbText
  0
TEXT
  5
45C
330
71
100
AcDbEntity
  8
1
 62
     7
100
AcDbText
 10
318.3999992627531
 20
892.6648332861909
 30
0.0
 40
2.5
  1
B
 41
0.9
  7
CONVERTER_11
100
AcDbText
  0
TEXT
  5
45D
330
71
100
AcDbEntity
  8
1
 62
     7
100
AcDbText
 10
318.3999992627531
 20
950.0648332861907
 30
0.0
 40
2.5
  1
A
 41
0.9
  7
CONVERTER_11
100
AcDbText
  0
TEXT
  5
45E
330
71
100
AcDbEntity
  8
1
 62
     7
100
AcDbText
 10
282.0666659294197
 20
980.964833286191
 30
0.0
 40
2.5
  1
6
 41
0.9
  7
CONVERTER_11
100
AcDbText
  0
TEXT
  5
45F
330
71
100
AcDbEntity
  8
1
 62
     7
100
AcDbText
 10
213.7333325960865
 20
980.964833286191
 30
0.0
 40
2.5
  1
5
 41
0.9
  7
CONVERTER_11
100
AcDbText
  0
TEXT
  5
460
330
71
100
AcDbEntity
  8
1
 62
     7
100
AcDbText
 10
145.3999992627531
 20
980.964833286191
 30
0.0
 40
2.5
  1
4
 41
0.9
  7
CONVERTER_11
100
AcDbText
  0
TEXT
  5
461
330
71
100
AcDbEntity
  8
1
 62
     7
100
AcDbText
 10
77.06666592942003
 20
980.964833286191
 30
0.0
 40
2.5
  1
3
 41
0.9
  7
CONVERTER_11
100
AcDbText
  0
TEXT
  5
462
330
71
100
AcDbEntity
  8
1
 62
     7
100
AcDbText
 10
8.73333259608648
 20
980.964833286191
 30
0.0
 40
2.5
  1
2
 41
0.9
  7
CONVERTER_11
100
AcDbText
  0
TEXT
  5
463
330
71
100
AcDbEntity
  8
1
 62
     7
100
AcDbText
 10
-59.6000007372466
 20
980.964833286191
 30
0.0
 40
2.5
  1
1
 41
0.9
  7
CONVERTER_11
100
AcDbText
  0
TEXT
  5
464
330
71
100
AcDbEntity
  8
1
 62
     7
100
AcDbText
 10
243.2287424580169
 20
711.2648332861902
 30
0.0
 40
2.5
  1
/
 41
0.9
  7
CONVERTER_11
100
AcDbText
  0
TEXT
  5
466
330
71
100
AcDbEntity
  8
1
 62
     7
100
AcDbText
 10
245.3851069550589
 20
711.2648332861902
 30
0.0
 40
2.5
  1
00
 41
0.81
  7
CONVERTER_12
100
AcDbText
  0
TEXT
  5
467
330
71
100
AcDbEntity
  8
1
 62
     3
100
AcDbText
 10
282.9815909810761
 20
711.2648332861902
 30
0.0
 40
2.5
  1
17.03.2018
 41
0.81
  7
CONVERTER_12
100
AcDbText
  0
MTEXT
  5
468
330
71
100
AcDbEntity
  8
1
 62
     2
100
AcDbMText
 10
282.9815909810761
 20
717.4648332861902
 30
0.0
 40
1.8
 41
0.0
 71
     1
 72
     1
  1
date
  7
CONVERTER_11
 73
     1
 44
1.32052821128451
  0
MTEXT
  5
469
330
71
100
AcDbEntity
  8
1
 62
     2
100
AcDbMText
 10
253.1551947360031
 20
708.9648332861902
 30
0.0
 40
1.8
 41
0.0
 71
     1
 72
     1
  1
document-type
  7
CONVERTER_11
 73
     1
 44
1.20048019207683
  0
TEXT
  5
46A
330
71
100
AcDbEntity
  8
1
 62
     3
100
AcDbText
 10
253.1551947360031
 20
702.7648332861902
 30
0.0
 40
2.5
  1
TECDOC 2D_Productdrawing
 41
0.81
  7
CONVERTER_12
100
AcDbText
  0
MTEXT
  5
46C
330
71
100
AcDbEntity
  8
1
 62
     2
100
AcDbMText
 10
225.3551947360031
 20
717.4648332861902
 30
0.0
 40
1.8
 41
0.0
 71
     1
 72
     1
  1
document-No. / RI
  7
CONVERTER_13
 73
     1
 44
1.32052821128451
  0
TEXT
  5
46D
330
71
100
AcDbEntity
  8
1
 62
     7
100
AcDbText
 10
225.3551947360031
 20
711.2648332861902
 30
0.0
 40
2.5
  1
00523493
 41
0.81
  7
CONVERTER_12
100
AcDbText
  0
MTEXT
  5
46F
330
71
100
AcDbEntity
  8
1
 62
     3
100
AcDbMText
 10
312.9407951219154
 20
711.2648332861903
 30
0.0
 40
2.5
 41
0.0
 71
     8
 72
     1
  1
1:1
  7
CONVERTER_14
 73
     1
 44
1.32052821128451
  0
MTEXT
  5
470
330
71
100
AcDbEntity
  8
1
 62
     2
100
AcDbMText
 10
309.5815909810759
 20
717.4648332861902
 30
0.0
 40
1.8
 41
0.0
 71
     1
 72
     1
  1
scale
  7
CONVERTER_11
 73
     1
 44
1.20048019207683
  0
MTEXT
  5
471
330
71
100
AcDbEntity
  8
1
 62
     2
100
AcDbMText
 10
225.3551947360031
 20
708.9648332861902
 30
0.0
 40
1.8
 41
0.0
 71
     1
 72
     1
  1
ident.-No.
  7
CONVERTER_11
 73
     1
 44
1.20048019207683
  0
TEXT
  5
472
330
71
100
AcDbEntity
  8
1
 62
     7
100
AcDbText
 10
225.7551947360029
 20
702.7648332861902
 30
0.0
 40
2.5
  1
2130211
 41
0.81
  7
CONVERTER_12
100
AcDbText
  0
MTEXT
  5
473
330
71
100
AcDbEntity
  8
1
 62
     2
100
AcDbMText
 10
153.4441714667936
 20
705.7148332861891
 30
0.0
 40
2.0
 41
0.0
 71
     5
 72
     1
  1
General Information\P- Simplified representation\P- Document excluded from change process\P- Linear dimensions [mm]
  7
CONVERTER_11
 73
     1
 44
1.20048019207683
  0
MTEXT
  5
474
330
71
100
AcDbEntity
  8
1
 62
     3
100
AcDbMText
 10
214.0551947360031
 20
714.0898332861902
 30
0.0
 40
2.5
 41
0.0
 71
     5
 72
     1
  1
DIN A3
  7
CONVERTER_11
 73
     1
 44
1.20048019207683
  0
MTEXT
  5
475
330
71
100
AcDbEntity
  8
1
 62
     2
100
AcDbMText
 10
225.2551947360031
 20
700.4648332861902
 30
0.0
 40
1.8
 41
0.0
 71
     1
 72
     1
  1
description
  7
CONVERTER_11
 73
     1
 44
1.20048019207683
  0
MTEXT
  5
476
330
71
100
AcDbEntity
  8
1
 62
     7
100
AcDbMText
 10
270.8275969993786
 20
696.2148332861905
 30
0.0
 40
3.0
 41
0.0
 71
     5
 72
     1
  1
UHV 50-M10/M10
  7
CONVERTER_12
 73
     1
 44
1.20048019207683
  0
TEXT
  5
477
330
71
100
AcDbEntity
  8
1
 62
     2
100
AcDbText
 10
212.2905035458167
 20
694.2148332861902
 30
0.0
 40
1.8
  1
1
 41
0.9
  7
CONVERTER_11
100
AcDbText
  0
TEXT
  5
478
330
71
100
AcDbEntity
  8
1
 62
     2
100
AcDbText
 10
197.5014597063452
 20
694.1655846323883
 30
0.0
 40
1.8
  1
1
 41
0.9
  7
CONVERTER_11
100
AcDbText
  0
TEXT
  5
479
330
71
100
AcDbEntity
  8
1
 62
     2
100
AcDbText
 10
188.8551947360032
 20
694.2058160711986
 30
0.0
 40
1.8
  1
page
 41
0.9
  7
CONVERTER_11
100
AcDbText
  0
TEXT
  5
47A
330
71
100
AcDbEntity
  8
1
 62
     2
100
AcDbText
 10
207.055194736003
 20
694.2058160711988
 30
0.0
 40
1.8
  1
of
 41
0.9
  7
CONVERTER_11
100
AcDbText
  0
MTEXT
  5
47B
330
71
100
AcDbEntity
  8
1
 62
     3
100
AcDbMText
 10
-79.33153373698758
 20
865.9511173998445
 30
0.0
 40
1.8
 41
0.0
 71
     7
 72
     1
  3
Transfer or duplication of this document as well as the utilisation or\Pcommunication of its content are not permitted unless express consent\Pis granted. Violations give rise to claims for damages. All rights reserved\Pin case of patent, utility mo
  1
del or design patent registrations.
  7
CONVERTER_11
 11
0.0
 21
1.0
 31
0.0
 73
     1
 44
0.99639855942377
  0
MTEXT
  5
47C
330
71
100
AcDbEntity
  8
1
 62
     3
100
AcDbMText
 10
-79.17732742589368
 20
692.9917473856915
 30
0.0
 40
1.8
 41
0.0
 71
     7
 72
     1
  3
Weitergabe sowie Vervielf\U+00e4ltigung dieses Dokuments, Verwertung und \PMitteilung seines Inhalts sind verboten, soweit nicht ausdr\U+00fccklich gestattet. \PZuwiderhandlungen verpflichten zu Schadenersatz. Alle Rechte f\U+00fcr den Fall\Pder Pat
  1
ent-, Gebrauchsmuster- oder Designeintragung vorbehalten.
  7
CONVERTER_11
 11
0.0
 21
1.0
 31
0.0
 73
     1
 44
0.99639855942377
  0
HATCH
  5
47D
330
71
100
AcDbEntity
  8
1
  6
Continuous
 62
     2
100
AcDbHatch
 10
0.0
 20
0.0
 30
0.0
210
0.0
220
0.0
230
1.0
  2
CUSTOM0
 70
     0
 71
     1
 91
        1
 92
        1
 93
       14
 72
     2
 10
200.0964240119259
 20
701.7852380481118
 40
1.205656168390986
 50
164.9381082228742
 51
195.0618917770945
 73
     1
 72
     2
 10
200.5155518553887
 20
701.8980284101467
 40
1.639695123939452
 50
195.0618917770941
 51
275.1581447696363
 73
     1
 72
     2
 10
200.2266957606528
 20
705.0979189933684
 40
4.852596863498272
 50
275.1581447696238
 51
285.9799912583527
 73
     1
 72
     1
 10
201.5626236777706
 20
700.4328366875675
 11
201.5626236777706
 21
701.3053536943708
 72
     2
 10
200.3845686357456
 20
703.1957044135205
 40
2.227384008972719
 50
58.06909105003628
 51
71.55192388186632
 73
     0
 72
     2
 10
200.8027363694065
 20
701.9421586374833
 40
0.905929784984867
 50
71.55192388184437
 51
113.3722778881304
 73
     0
 72
     2
 10
200.6462963367044
 20
701.5801666187733
 40
0.5115800601947491
 50
113.3722778881693
 51
151.4785267423156
 73
     0
 72
     2
 10
201.0236535947848
 20
701.7852380481118
 40
0.9410597353333294
 50
151.4785267423059
 51
208.5214732577306
 73
     0
 72
     2
 10
200.6462963367044
 20
701.9903094774509
 40
0.5115800601949335
 50
208.5214732576844
 51
246.6277221118105
 73
     0
 72
     2
 10
200.8027363694065
 20
701.6283174587403
 40
0.9059297849853588
 50
246.6277221118725
 51
288.448076118142
 73
     0
 72
     2
 10
200.3845686357456
 20
700.3747716827038
 40
2.227384008973417
 50
288.4480761181337
 51
301.9309089499637
 73
     0
 72
     1
 10
201.5626236777706
 20
702.2651224018535
 11
201.5626236777706
 21
703.1376394086568
 72
     2
 10
200.2266957606528
 20
698.472557102856
 40
4.85259686349804
 50
74.02000874164729
 51
84.84185523037608
 73
     1
 72
     2
 10
200.5155518553887
 20
701.672447686077
 40
1.639695123940442
 50
84.84185523036514
 51
164.9381082228905
 73
     1
 97
       14
330
44F
330
398
330
41E
330
44E
330
41F
330
420
330
44D
330
44C
330
44B
330
399
330
421
330
422
330
423
330
424
 75
     1
 76
     2
 52
45.0
 41
0.1
 77
     0
 78
     1
 53
45.0
 43
62.7811309658083
 44
-72.3161373035813
 45
-0.1414213562373095
 46
0.0
 79
     0
 98
        1
 10
0.0
 20
0.0
  0
HATCH
  5
47E
330
71
100
AcDbEntity
  8
1
  6
Continuous
 62
     2
100
AcDbHatch
 10
0.0
 20
0.0
 30
0.0
210
0.0
220
0.0
230
1.0
  2
CUSTOM1
 70
     0
 71
     1
 91
        1
 92
        1
 93
       14
 72
     2
 10
200.0964240119259
 20
701.7852380481118
 40
1.205656168390986
 50
164.9381082228742
 51
195.0618917770945
 73
     1
 72
     2
 10
200.5155518553887
 20
701.8980284101467
 40
1.639695123939452
 50
195.0618917770941
 51
275.1581447696363
 73
     1
 72
     2
 10
200.2266957606528
 20
705.0979189933684
 40
4.852596863498272
 50
275.1581447696238
 51
285.9799912583527
 73
     1
 72
     1
 10
201.5626236777706
 20
700.4328366875675
 11
201.5626236777706
 21
701.3053536943708
 72
     2
 10
200.3845686357456
 20
703.1957044135205
 40
2.227384008972719
 50
58.06909105003628
 51
71.55192388186632
 73
     0
 72
     2
 10
200.8027363694065
 20
701.9421586374833
 40
0.905929784984867
 50
71.55192388184437
 51
113.3722778881304
 73
     0
 72
     2
 10
200.6462963367044
 20
701.5801666187733
 40
0.5115800601947491
 50
113.3722778881693
 51
151.4785267423156
 73
     0
 72
     2
 10
201.0236535947848
 20
701.7852380481118
 40
0.9410597353333294
 50
151.4785267423059
 51
208.5214732577306
 73
     0
 72
     2
 10
200.6462963367044
 20
701.9903094774509
 40
0.5115800601949335
 50
208.5214732576844
 51
246.6277221118105
 73
     0
 72
     2
 10
200.8027363694065
 20
701.6283174587403
 40
0.9059297849853588
 50
246.6277221118725
 51
288.448076118142
 73
     0
 72
     2
 10
200.3845686357456
 20
700.3747716827038
 40
2.227384008973417
 50
288.4480761181337
 51
301.9309089499637
 73
     0
 72
     1
 10
201.5626236777706
 20
702.2651224018535
 11
201.5626236777706
 21
703.1376394086568
 72
     2
 10
200.2266957606528
 20
698.472557102856
 40
4.85259686349804
 50
74.02000874164729
 51
84.84185523037608
 73
     1
 72
     2
 10
200.5155518553887
 20
701.672447686077
 40
1.639695123940442
 50
84.84185523036514
 51
164.9381082228905
 73
     1
 97
       14
330
44F
330
398
330
41E
330
44E
330
41F
330
420
330
44D
330
44C
330
44B
330
399
330
421
330
422
330
423
330
424
 75
     1
 76
     2
 52
45.0
 41
0.1
 77
     0
 78
     1
 53
45.0
 43
62.7811309658083
 44
-72.3161373035813
 45
-0.1414213562373095
 46
0.0
 79
     0
 98
        1
 10
0.0
 20
0.0
  0
HATCH
  5
47F
330
71
100
AcDbEntity
  8
1
  6
Continuous
 62
     2
100
AcDbHatch
 10
0.0
 20
0.0
 30
0.0
210
0.0
220
0.0
230
1.0
  2
CUSTOM2
 70
     0
 71
     1
 91
        1
 92
        1
 93
       18
 72
     2
 10
216.6182533346416
 20
701.672447686077
 40
1.639695123940101
 50
90.0
 51
164.9381082228993
 73
     1
 72
     2
 10
216.1991254911799
 20
701.7852380481118
 40
1.20565616839299
 50
164.9381082228998
 51
195.0618917770897
 73
     1
 72
     2
 10
216.6182533346416
 20
701.8980284101467
 40
1.639695123940503
 50
195.0618917771007
 51
275.1581447696764
 73
     1
 72
     2
 10
216.3293972399057
 20
705.0979189933684
 40
4.852596863498833
 50
275.1581447696374
 51
285.9799912583386
 73
     1
 72
     1
 10
217.6653251570224
 20
700.4328366875669
 11
217.6653251570224
 21
701.3053536943703
 72
     2
 10
216.4872701149985
 20
703.19570441352
 40
2.227384008972719
 50
58.06909105005989
 51
71.55192388186632
 73
     0
 72
     2
 10
216.9054378486605
 20
701.9421586374833
 40
0.905929784985273
 50
71.55192388192168
 51
113.3722778881898
 73
     0
 72
     2
 10
216.7489978159573
 20
701.5801666187733
 40
0.5115800601960487
 50
113.3722778881576
 51
151.4785267423078
 73
     0
 72
     2
 10
217.1263550740388
 20
701.7852380481118
 40
0.9410597353350602
 50
151.4785267423338
 51
208.5214732576419
 73
     0
 72
     2
 10
216.7489978159573
 20
701.9903094774509
 40
0.5115800601944143
 50
208.5214732575803
 51
250.6628567805147
 73
     0
 72
     2
 10
216.895667814061
 20
701.5723544970679
 40
0.9545230068260935
 50
250.6628567805703
 51
270.0
 73
     0
 72
     1
 10
216.895667814061
 20
702.526877503894
 11
217.9993071136291
 21
702.526877503894
 72
     1
 10
217.9993071136291
 20
702.526877503894
 11
217.9993071136291
 21
700.2583332862066
 72
     1
 10
217.9993071136291
 20
700.2583332862066
 11
219.1920998157968
 21
700.2583332862066
 72
     1
 10
219.1920998157968
 20
700.2583332862066
 11
219.1920998157968
 21
702.526877503894
 72
     1
 10
219.1920998157968
 20
702.526877503894
 11
220.0031988532702
 21
702.526877503894
 72
     1
 10
220.0031988532702
 20
702.526877503894
 11
220.0031988532702
 21
703.3121428100178
 72
     1
 10
220.0031988532702
 20
703.3121428100178
 11
216.6182533346416
 21
703.3121428100171
 97
       18
330
3FE
330
3FD
330
3FC
330
3FB
330
400
330
39A
330
448
330
429
330
447
330
42A
330
446
330
445
330
39B
330
444
330
443
330
42B
330
42C
330
3FF
 75
     1
 76
     2
 52
45.0
 41
0.1
 77
     0
 78
     1
 53
45.0
 43
62.7811309658083
 44
-72.3161373035813
 45
-0.1414213562373095
 46
0.0
 79
     0
 98
        1
 10
0.0
 20
0.0
  0
HATCH
  5
480
330
71
100
AcDbEntity
  8
1
  6
Continuous
 62
     2
100
AcDbHatch
 10
0.0
 20
0.0
 30
0.0
210
0.0
220
0.0
230
1.0
  2
CUSTOM3
 70
     0
 71
     1
 91
        1
 92
        1
 93
       18
 72
     2
 10
216.6182533346416
 20
701.672447686077
 40
1.639695123940101
 50
90.0
 51
164.9381082228993
 73
     1
 72
     2
 10
216.1991254911799
 20
701.7852380481118
 40
1.20565616839299
 50
164.9381082228998
 51
195.0618917770897
 73
     1
 72
     2
 10
216.6182533346416
 20
701.8980284101467
 40
1.639695123940503
 50
195.0618917771007
 51
275.1581447696764
 73
     1
 72
     2
 10
216.3293972399057
 20
705.0979189933684
 40
4.852596863498833
 50
275.1581447696374
 51
285.9799912583386
 73
     1
 72
     1
 10
217.6653251570224
 20
700.4328366875669
 11
217.6653251570224
 21
701.3053536943703
 72
     2
 10
216.4872701149985
 20
703.19570441352
 40
2.227384008972719
 50
58.06909105005989
 51
71.55192388186632
 73
     0
 72
     2
 10
216.9054378486605
 20
701.9421586374833
 40
0.905929784985273
 50
71.55192388192168
 51
113.3722778881898
 73
     0
 72
     2
 10
216.7489978159573
 20
701.5801666187733
 40
0.5115800601960487
 50
113.3722778881576
 51
151.4785267423078
 73
     0
 72
     2
 10
217.1263550740388
 20
701.7852380481118
 40
0.9410597353350602
 50
151.4785267423338
 51
208.5214732576419
 73
     0
 72
     2
 10
216.7489978159573
 20
701.9903094774509
 40
0.5115800601944143
 50
208.5214732575803
 51
250.6628567805147
 73
     0
 72
     2
 10
216.895667814061
 20
701.5723544970679
 40
0.9545230068260935
 50
250.6628567805703
 51
270.0
 73
     0
 72
     1
 10
216.895667814061
 20
702.526877503894
 11
217.9993071136291
 21
702.526877503894
 72
     1
 10
217.9993071136291
 20
702.526877503894
 11
217.9993071136291
 21
700.2583332862066
 72
     1
 10
217.9993071136291
 20
700.2583332862066
 11
219.1920998157968
 21
700.2583332862066
 72
     1
 10
219.1920998157968
 20
700.2583332862066
 11
219.1920998157968
 21
702.526877503894
 72
     1
 10
219.1920998157968
 20
702.526877503894
 11
220.0031988532702
 21
702.526877503894
 72
     1
 10
220.0031988532702
 20
702.526877503894
 11
220.0031988532702
 21
703.3121428100178
 72
     1
 10
220.0031988532702
 20
703.3121428100178
 11
216.6182533346416
 21
703.3121428100171
 97
       18
330
3FE
330
3FD
330
3FC
330
3FB
330
400
330
39A
330
448
330
429
330
447
330
42A
330
446
330
445
330
39B
330
444
330
443
330
42B
330
42C
330
3FF
 75
     1
 76
     2
 52
45.0
 41
0.1
 77
     0
 78
     1
 53
45.0
 43
62.7811309658083
 44
-72.3161373035813
 45
-0.1414213562373095
 46
0.0
 79
     0
 98
        1
 10
0.0
 20
0.0
  0
HATCH
  5
481
330
71
100
AcDbEntity
  8
1
  6
Continuous
 62
     2
100
AcDbHatch
 10
0.0
 20
0.0
 30
0.0
210
0.0
220
0.0
230
1.0
  2
CUSTOM4
 70
     0
 71
     1
 91
        4
 92
        1
 93
        8
 72
     2
 10
192.5160942379485
 20
706.24708867079
 40
0.4242446153838273
 50
90.0
 51
180.0
 73
     1
 72
     1
 10
192.0918496225657
 20
706.24708867079
 11
192.0918496225657
 21
700.6825779015899
 72
     2
 10
192.5160942379485
 20
700.6825779015899
 40
0.4242446153828041
 50
180.0
 51
270.0
 73
     1
 72
     1
 10
192.5160942379485
 20
700.2583332862066
 11
197.9894063286654
 21
700.2583332862066
 72
     2
 10
197.9894063286654
 20
700.6825779015899
 40
0.4242446153832589
 50
270.0
 51
360.0
 73
     1
 72
     1
 10
198.4136509440493
 20
700.6825779015899
 11
198.4136509440493
 21
706.24708867079
 72
     2
 10
197.9894063286654
 20
706.24708867079
 40
0.4242446153838841
 50
0.0
 51
90.0
 73
     1
 72
     1
 10
197.9894063286654
 20
706.6713332861739
 11
192.5160942379485
 21
706.6713332861739
 97
        8
330
43C
330
3C9
330
43B
330
3CA
330
432
330
3C7
330
43D
330
3C8
 92
       16
 93
       12
 72
     1
 10
193.109988914695
 20
700.9708888417636
 11
194.5858221757046
 21
700.9708888417636
 72
     2
 10
194.5858221757046
 20
701.2866057648403
 40
0.3157169230767067
 50
270.0
 51
360.0
 73
     1
 72
     1
 10
194.9015390987812
 20
701.2866057648403
 11
194.9015390987812
 21
702.8173766963719
 72
     2
 10
194.5858221757046
 20
702.8173766963719
 40
0.315716923076593
 50
0.0
 51
64.80558935144188
 73
     1
 72
     2
 10
195.1084066232796
 20
703.9282064424345
 40
0.9118975235576555
 50
115.1944106485089
 51
244.8055893514789
 73
     0
 72
     2
 10
194.5858221757046
 20
705.0390361884968
 40
0.3157169230761051
 50
295.1944106485581
 51
360.0
 73
     1
 72
     1
 10
194.9015390987812
 20
705.0390361884968
 11
194.9015390987812
 21
705.6430608075573
 72
     2
 10
194.5858221757046
 20
705.6430608075573
 40
0.315716923076593
 50
0.0
 51
90.0
 73
     1
 72
     1
 10
194.5858221757046
 20
705.9587777306334
 11
193.109988914695
 21
705.9587777306334
 72
     2
 10
193.109988914695
 20
705.6430608075573
 40
0.3157169230761383
 50
90.0
 51
180.0
 73
     1
 72
     1
 10
192.7942719916194
 20
705.6430608075573
 11
192.7942719916194
 21
701.2866057648403
 72
     2
 10
193.109988914695
 20
701.2866057648403
 40
0.3157169230755983
 50
180.0
 51
270.0
 73
     1
 97
       12
330
3CE
330
42F
330
3CD
330
440
330
3CC
330
43F
330
430
330
431
330
3CB
330
43E
330
3C6
330
441
 92
       16
 93
        8
 72
     2
 10
195.1594949031389
 20
703.9282064424345
 40
0.9118481501444455
 50
295.3740086781789
 51
424.6259913218089
 73
     1
 72
     2
 10
195.6855376012268
 20
705.0373480424023
 40
0.315716923076792
 50
115.3740086783651
 51
180.0
 73
     0
 72
     1
 10
195.36982067815
 20
705.0373480424023
 11
195.36982067815
 21
705.6428833309092
 72
     2
 10
195.6855376012268
 20
705.6428833309092
 40
0.3157169230761283
 50
180.0
 51
269.8110329574335
 73
     0
 72
     2
 10
195.6911537365368
 20
703.9400483833401
 40
2.018561131933266
 50
269.8110329575834
 51
450.1889670424166
 73
     0
 72
     2
 10
195.6855376012268
 20
702.2372134357711
 40
0.315716923076792
 50
90.18896704256652
 51
180.0
 73
     0
 72
     1
 10
195.36982067815
 20
702.2372134357711
 11
195.36982067815
 21
702.8190648424662
 72
     2
 10
195.6855376012268
 20
702.8190648424662
 40
0.3157169230764815
 50
180.0
 51
244.6259913216437
 73
     0
 97
        8
330
44A
330
426
330
402
330
449
330
427
330
428
330
401
330
425
 92
       16
 93
        1
 72
     2
 10
195.1356798884661
 20
703.9282064424345
 40
0.4709789327785074
 50
0.0
 51
360.0
 73
     1
 97
        1
330
450
 75
     1
 76
     2
 52
45.0
 41
0.1
 77
     0
 78
     1
 53
45.0
 43
62.7811309658083
 44
-72.3161373035813
 45
-0.1414213562373095
 46
0.0
 79
     0
 98
        1
 10
0.0
 20
0.0
  0
HATCH
  5
482
330
71
100
AcDbEntity
  8
1
  6
Continuous
 62
     2
100
AcDbHatch
 10
0.0
 20
0.0
 30
0.0
210
0.0
220
0.0
230
1.0
  2
CUSTOM5
 70
     0
 71
     1
 91
        4
 92
        1
 93
        8
 72
     2
 10
192.5160942379485
 20
706.24708867079
 40
0.4242446153838273
 50
90.0
 51
180.0
 73
     1
 72
     1
 10
192.0918496225657
 20
706.24708867079
 11
192.0918496225657
 21
700.6825779015899
 72
     2
 10
192.5160942379485
 20
700.6825779015899
 40
0.4242446153828041
 50
180.0
 51
270.0
 73
     1
 72
     1
 10
192.5160942379485
 20
700.2583332862066
 11
197.9894063286654
 21
700.2583332862066
 72
     2
 10
197.9894063286654
 20
700.6825779015899
 40
0.4242446153832589
 50
270.0
 51
360.0
 73
     1
 72
     1
 10
198.4136509440493
 20
700.6825779015899
 11
198.4136509440493
 21
706.24708867079
 72
     2
 10
197.9894063286654
 20
706.24708867079
 40
0.4242446153838841
 50
0.0
 51
90.0
 73
     1
 72
     1
 10
197.9894063286654
 20
706.6713332861739
 11
192.5160942379485
 21
706.6713332861739
 97
        8
330
43C
330
3C9
330
43B
330
3CA
330
432
330
3C7
330
43D
330
3C8
 92
       16
 93
       12
 72
     1
 10
193.109988914695
 20
700.9708888417636
 11
194.5858221757046
 21
700.9708888417636
 72
     2
 10
194.5858221757046
 20
701.2866057648403
 40
0.3157169230767067
 50
270.0
 51
360.0
 73
     1
 72
     1
 10
194.9015390987812
 20
701.2866057648403
 11
194.9015390987812
 21
702.8173766963719
 72
     2
 10
194.5858221757046
 20
702.8173766963719
 40
0.315716923076593
 50
0.0
 51
64.80558935144188
 73
     1
 72
     2
 10
195.1084066232796
 20
703.9282064424345
 40
0.9118975235576555
 50
115.1944106485089
 51
244.8055893514789
 73
     0
 72
     2
 10
194.5858221757046
 20
705.0390361884968
 40
0.3157169230761051
 50
295.1944106485581
 51
360.0
 73
     1
 72
     1
 10
194.9015390987812
 20
705.0390361884968
 11
194.9015390987812
 21
705.6430608075573
 72
     2
 10
194.5858221757046
 20
705.6430608075573
 40
0.315716923076593
 50
0.0
 51
90.0
 73
     1
 72
     1
 10
194.5858221757046
 20
705.9587777306334
 11
193.109988914695
 21
705.9587777306334
 72
     2
 10
193.109988914695
 20
705.6430608075573
 40
0.3157169230761383
 50
90.0
 51
180.0
 73
     1
 72
     1
 10
192.7942719916194
 20
705.6430608075573
 11
192.7942719916194
 21
701.2866057648403
 72
     2
 10
193.109988914695
 20
701.2866057648403
 40
0.3157169230755983
 50
180.0
 51
270.0
 73
     1
 97
       12
330
3CE
330
42F
330
3CD
330
440
330
3CC
330
43F
330
430
330
431
330
3CB
330
43E
330
3C6
330
441
 92
       16
 93
        8
 72
     2
 10
195.1594949031389
 20
703.9282064424345
 40
0.9118481501444455
 50
295.3740086781789
 51
424.6259913218089
 73
     1
 72
     2
 10
195.6855376012268
 20
705.0373480424023
 40
0.315716923076792
 50
115.3740086783651
 51
180.0
 73
     0
 72
     1
 10
195.36982067815
 20
705.0373480424023
 11
195.36982067815
 21
705.6428833309092
 72
     2
 10
195.6855376012268
 20
705.6428833309092
 40
0.3157169230761283
 50
180.0
 51
269.8110329574335
 73
     0
 72
     2
 10
195.6911537365368
 20
703.9400483833401
 40
2.018561131933266
 50
269.8110329575834
 51
450.1889670424166
 73
     0
 72
     2
 10
195.6855376012268
 20
702.2372134357711
 40
0.315716923076792
 50
90.18896704256652
 51
180.0
 73
     0
 72
     1
 10
195.36982067815
 20
702.2372134357711
 11
195.36982067815
 21
702.8190648424662
 72
     2
 10
195.6855376012268
 20
702.8190648424662
 40
0.3157169230764815
 50
180.0
 51
244.6259913216437
 73
     0
 97
        8
330
44A
330
426
330
402
330
449
330
427
330
428
330
401
330
425
 92
       16
 93
        1
 72
     2
 10
195.1356798884661
 20
703.9282064424345
 40
0.4709789327785074
 50
0.0
 51
360.0
 73
     1
 97
        1
330
450
 75
     1
 76
     2
 52
45.0
 41
0.1
 77
     0
 78
     1
 53
45.0
 43
62.7811309658083
 44
-72.3161373035813
 45
-0.1414213562373095
 46
0.0
 79
     0
 98
        1
 10
0.0
 20
0.0
  0
HATCH
  5
483
330
71
100
AcDbEntity
  8
1
  6
Continuous
 62
     2
100
AcDbHatch
 10
0.0
 20
0.0
 30
0.0
210
0.0
220
0.0
230
1.0
  2
CUSTOM6
 70
     0
 71
     1
 91
        2
 92
        1
 93
       12
 72
     2
 10
207.1912582419379
 20
705.1444285242862
 40
1.526904761905826
 50
90.0
 51
270.0
 73
     1
 72
     1
 10
207.1912582419379
 20
703.6175237623809
 11
210.3415779657188
 21
703.6175237623809
 72
     1
 10
210.3415779657188
 20
703.6175237623809
 11
210.3415779657188
 21
704.3155373678233
 72
     1
 10
210.3415779657188
 20
704.3155373678233
 11
209.0056501392912
 21
704.3155373678233
 72
     1
 10
209.0056501392912
 20
704.3155373678233
 11
209.0056501392912
 21
704.795421721565
 72
     1
 10
209.0056501392912
 20
704.795421721565
 11
210.3415779657188
 21
704.795421721565
 72
     1
 10
210.3415779657188
 20
704.795421721565
 11
210.3415779657188
 21
705.4934353270074
 72
     1
 10
210.3415779657188
 20
705.4934353270074
 11
209.0056501392912
 21
705.4934353270074
 72
     1
 10
209.0056501392912
 20
705.4934353270074
 11
209.0056501392912
 21
705.9733196807491
 72
     1
 10
209.0056501392912
 20
705.9733196807491
 11
210.3415779657188
 21
705.9733196807491
 72
     1
 10
210.3415779657188
 20
705.9733196807491
 11
210.3415779657188
 21
706.6713332861921
 72
     1
 10
210.3415779657188
 20
706.6713332861921
 11
207.1912582419379
 21
706.6713332861921
 97
       12
330
3BD
330
3B7
330
3DE
330
3DD
330
3DC
330
3DB
330
3B8
330
3B9
330
3BA
330
3BB
330
42D
330
3BC
 92
       16
 93
        4
 72
     2
 10
207.6072702884493
 20
705.1444285242862
 40
0.7717997786795895
 50
141.8795802028517
 51
218.1204197971549
 73
     1
 72
     2
 10
207.4075302521031
 20
704.9876973461658
 40
0.5179085730134915
 50
218.1204197971384
 51
321.8795802028538
 73
     1
 72
     2
 10
207.2077902157569
 20
705.1444285242862
 40
0.7717997786795702
 50
321.8795802028399
 51
398.1204197971535
 73
     1
 72
     2
 10
207.4075302521031
 20
705.3011597024067
 40
0.5179085730133318
 50
38.12041979713626
 51
141.8795802028715
 73
     1
 97
        4
330
43A
330
439
330
434
330
433
 75
     1
 76
     2
 52
45.0
 41
0.1
 77
     0
 78
     1
 53
45.0
 43
62.7811309658083
 44
-72.3161373035813
 45
-0.1414213562373095
 46
0.0
 79
     0
 98
        1
 10
0.0
 20
0.0
  0
HATCH
  5
484
330
71
100
AcDbEntity
  8
1
  6
Continuous
 62
     2
100
AcDbHatch
 10
0.0
 20
0.0
 30
0.0
210
0.0
220
0.0
230
1.0
  2
CUSTOM7
 70
     0
 71
     1
 91
        2
 92
        1
 93
       12
 72
     2
 10
207.1912582419379
 20
705.1444285242862
 40
1.526904761905826
 50
90.0
 51
270.0
 73
     1
 72
     1
 10
207.1912582419379
 20
703.6175237623809
 11
210.3415779657188
 21
703.6175237623809
 72
     1
 10
210.3415779657188
 20
703.6175237623809
 11
210.3415779657188
 21
704.3155373678233
 72
     1
 10
210.3415779657188
 20
704.3155373678233
 11
209.0056501392912
 21
704.3155373678233
 72
     1
 10
209.0056501392912
 20
704.3155373678233
 11
209.0056501392912
 21
704.795421721565
 72
     1
 10
209.0056501392912
 20
704.795421721565
 11
210.3415779657188
 21
704.795421721565
 72
     1
 10
210.3415779657188
 20
704.795421721565
 11
210.3415779657188
 21
705.4934353270074
 72
     1
 10
210.3415779657188
 20
705.4934353270074
 11
209.0056501392912
 21
705.4934353270074
 72
     1
 10
209.0056501392912
 20
705.4934353270074
 11
209.0056501392912
 21
705.9733196807491
 72
     1
 10
209.0056501392912
 20
705.9733196807491
 11
210.3415779657188
 21
705.9733196807491
 72
     1
 10
210.3415779657188
 20
705.9733196807491
 11
210.3415779657188
 21
706.6713332861921
 72
     1
 10
210.3415779657188
 20
706.6713332861921
 11
207.1912582419379
 21
706.6713332861921
 97
       12
330
3BD
330
3B7
330
3DE
330
3DD
330
3DC
330
3DB
330
3B8
330
3B9
330
3BA
330
3BB
330
42D
330
3BC
 92
       16
 93
        4
 72
     2
 10
207.6072702884493
 20
705.1444285242862
 40
0.7717997786795895
 50
141.8795802028517
 51
218.1204197971549
 73
     1
 72
     2
 10
207.4075302521031
 20
704.9876973461658
 40
0.5179085730134915
 50
218.1204197971384
 51
321.8795802028538
 73
     1
 72
     2
 10
207.2077902157569
 20
705.1444285242862
 40
0.7717997786795702
 50
321.8795802028399
 51
398.1204197971535
 73
     1
 72
     2
 10
207.4075302521031
 20
705.3011597024067
 40
0.5179085730133318
 50
38.12041979713626
 51
141.8795802028715
 73
     1
 97
        4
330
43A
330
439
330
434
330
433
 75
     1
 76
     2
 52
45.0
 41
0.1
 77
     0
 78
     1
 53
45.0
 43
62.7811309658083
 44
-72.3161373035813
 45
-0.1414213562373095
 46
0.0
 79
     0
 98
        1
 10
0.0
 20
0.0
  0
HATCH
  5
485
330
71
100
AcDbEntity
  8
1
  6
Continuous
 62
     2
100
AcDbHatch
 10
0.0
 20
0.0
 30
0.0
210
0.0
220
0.0
230
1.0
  2
CUSTOM8
 70
     0
 71
     1
 91
        2
 92
        1
 93
        4
 72
     2
 10
203.1656428794762
 20
701.7852380481118
 40
1.458034083651667
 50
117.5481481756588
 51
242.451851824335
 73
     1
 72
     2
 10
203.4465827713096
 20
702.3238130584152
 40
2.065479772208586
 50
242.4518518243377
 51
297.5481481756867
 73
     1
 72
     2
 10
203.7275226631428
 20
701.7852380481118
 40
1.458034083651929
 50
297.5481481757076
 51
422.4518518242986
 73
     1
 72
     2
 10
203.4465827713096
 20
701.246663037809
 40
2.065479772208744
 50
62.45185182430892
 51
117.5481481756666
 73
     1
 97
        4
330
438
330
435
330
437
330
436
 92
       16
 93
        4
 72
     2
 10
203.4465827713096
 20
701.9419692262323
 40
0.5179085730132454
 50
38.12041979715975
 51
141.8795802028616
 73
     1
 72
     2
 10
203.6463228076556
 20
701.7852380481118
 40
0.771799778679551
 50
141.879580202828
 51
218.1204197971587
 73
     1
 72
     2
 10
203.4465827713096
 20
701.628506869992
 40
0.5179085730138424
 50
218.1204197971879
 51
321.8795802027908
 73
     1
 72
     2
 10
203.2468427349632
 20
701.7852380481118
 40
0.7717997786795
 50
321.8795802028465
 51
398.1204197971668
 73
     1
 97
        4
330
41B
330
41C
330
41D
330
41A
 75
     1
 76
     2
 52
45.0
 41
0.1
 77
     0
 78
     1
 53
45.0
 43
62.7811309658083
 44
-72.3161373035813
 45
-0.1414213562373095
 46
0.0
 79
     0
 98
        1
 10
0.0
 20
0.0
  0
HATCH
  5
486
330
71
100
AcDbEntity
  8
1
  6
Continuous
 62
     2
100
AcDbHatch
 10
0.0
 20
0.0
 30
0.0
210
0.0
220
0.0
230
1.0
  2
CUSTOM9
 70
     0
 71
     1
 91
        2
 92
        1
 93
        4
 72
     2
 10
203.1656428794762
 20
701.7852380481118
 40
1.458034083651667
 50
117.5481481756588
 51
242.451851824335
 73
     1
 72
     2
 10
203.4465827713096
 20
702.3238130584152
 40
2.065479772208586
 50
242.4518518243377
 51
297.5481481756867
 73
     1
 72
     2
 10
203.7275226631428
 20
701.7852380481118
 40
1.458034083651929
 50
297.5481481757076
 51
422.4518518242986
 73
     1
 72
     2
 10
203.4465827713096
 20
701.246663037809
 40
2.065479772208744
 50
62.45185182430892
 51
117.5481481756666
 73
     1
 97
        4
330
438
330
435
330
437
330
436
 92
       16
 93
        4
 72
     2
 10
203.4465827713096
 20
701.9419692262323
 40
0.5179085730132454
 50
38.12041979715975
 51
141.8795802028616
 73
     1
 72
     2
 10
203.6463228076556
 20
701.7852380481118
 40
0.771799778679551
 50
141.879580202828
 51
218.1204197971587
 73
     1
 72
     2
 10
203.4465827713096
 20
701.628506869992
 40
0.5179085730138424
 50
218.1204197971879
 51
321.8795802027908
 73
     1
 72
     2
 10
203.2468427349632
 20
701.7852380481118
 40
0.7717997786795
 50
321.8795802028465
 51
398.1204197971668
 73
     1
 97
        4
330
41B
330
41C
330
41D
330
41A
 75
     1
 76
     2
 52
45.0
 41
0.1
 77
     0
 78
     1
 53
45.0
 43
62.7811309658083
 44
-72.3161373035813
 45
-0.1414213562373095
 46
0.0
 79
     0
 98
        1
 10
0.0
 20
0.0
  0
HATCH
  5
487
330
71
100
AcDbEntity
  8
1
  6
Continuous
 62
     2
100
AcDbHatch
 10
0.0
 20
0.0
 30
0.0
210
0.0
220
0.0
230
1.0
  2
CUSTOM10
 70
     0
 71
     1
 91
        2
 92
        1
 93
        6
 72
     1
 10
198.8907680249161
 20
706.6713332861921
 11
198.8907680249161
 21
703.6175237623809
 72
     1
 10
198.8907680249161
 20
703.6175237623809
 11
200.1312724351701
 21
703.6175237623809
 72
     1
 10
200.1312724351701
 20
703.6175237623809
 11
200.1312724351701
 21
704.5606020035247
 72
     1
 10
200.1312724351701
 20
704.5606020035247
 11
200.8900400229505
 21
704.5606020035247
 72
     2
 10
200.8900400229505
 20
705.6159676448583
 40
1.055365641333651
 50
270.0
 51
450.0
 73
     1
 72
     1
 10
200.8900400229505
 20
706.6713332861921
 11
198.8907680249161
 21
706.6713332861921
 97
        6
330
442
330
3CF
330
3C5
330
3C4
330
3D1
330
3D0
 92
       16
 93
        4
 72
     1
 10
200.4485674967121
 20
706.0082274407521
 11
200.1312724351701
 21
706.0082274407521
 72
     1
 10
200.1312724351701
 20
706.0082274407521
 11
200.1312724351701
 21
705.3024997914097
 72
     1
 10
200.1312724351701
 20
705.3024997914097
 11
200.4485674967121
 21
705.3024997914097
 72
     2
 10
200.4485674967121
 20
705.6553636160809
 40
0.3528638246712035
 50
270.0
 51
450.0
 73
     1
 97
        4
330
3D2
330
3C3
330
3D3
330
42E
 75
     1
 76
     2
 52
45.0
 41
0.1
 77
     0
 78
     1
 53
45.0
 43
62.7811309658083
 44
-72.3161373035813
 45
-0.1414213562373095
 46
0.0
 79
     0
 98
        1
 10
0.0
 20
0.0
  0
HATCH
  5
488
330
71
100
AcDbEntity
  8
1
  6
Continuous
 62
     2
100
AcDbHatch
 10
0.0
 20
0.0
 30
0.0
210
0.0
220
0.0
230
1.0
  2
CUSTOM11
 70
     0
 71
     1
 91
        2
 92
        1
 93
        6
 72
     1
 10
198.8907680249161
 20
706.6713332861921
 11
198.8907680249161
 21
703.6175237623809
 72
     1
 10
198.8907680249161
 20
703.6175237623809
 11
200.1312724351701
 21
703.6175237623809
 72
     1
 10
200.1312724351701
 20
703.6175237623809
 11
200.1312724351701
 21
704.5606020035247
 72
     1
 10
200.1312724351701
 20
704.5606020035247
 11
200.8900400229505
 21
704.5606020035247
 72
     2
 10
200.8900400229505
 20
705.6159676448583
 40
1.055365641333651
 50
270.0
 51
450.0
 73
     1
 72
     1
 10
200.8900400229505
 20
706.6713332861921
 11
198.8907680249161
 21
706.6713332861921
 97
        6
330
442
330
3CF
330
3C5
330
3C4
330
3D1
330
3D0
 92
       16
 93
        4
 72
     1
 10
200.4485674967121
 20
706.0082274407521
 11
200.1312724351701
 21
706.0082274407521
 72
     1
 10
200.1312724351701
 20
706.0082274407521
 11
200.1312724351701
 21
705.3024997914097
 72
     1
 10
200.1312724351701
 20
705.3024997914097
 11
200.4485674967121
 21
705.3024997914097
 72
     2
 10
200.4485674967121
 20
705.6553636160809
 40
0.3528638246712035
 50
270.0
 51
450.0
 73
     1
 97
        4
330
3D2
330
3C3
330
3D3
330
42E
 75
     1
 76
     2
 52
45.0
 41
0.1
 77
     0
 78
     1
 53
45.0
 43
62.7811309658083
 44
-72.3161373035813
 45
-0.1414213562373095
 46
0.0
 79
     0
 98
        1
 10
0.0
 20
0.0
  0
HATCH
  5
489
330
71
100
AcDbEntity
  8
1
  6
Continuous
 62
     2
100
AcDbHatch
 10
0.0
 20
0.0
 30
0.0
210
0.0
220
0.0
230
1.0
  2
CUSTOM12
 70
     0
 71
     1
 91
        1
 92
        1
 93
       12
 72
     1
 10
218.5050512193493
 20
706.6713332861921
 11
219.9077754370965
 21
706.6713332861921
 72
     1
 10
219.9077754370965
 20
706.6713332861921
 11
218.6052458063299
 21
705.1983827561558
 72
     1
 10
218.6052458063299
 20
705.1983827561558
 11
220.0031988532702
 21
703.6175237623809
 72
     1
 10
220.0031988532702
 20
703.6175237623809
 11
218.6004746355219
 21
703.6175237623809
 72
     1
 10
218.6004746355219
 20
703.6175237623809
 11
217.9038836974565
 21
704.4052555476746
 72
     1
 10
217.9038836974565
 20
704.4052555476746
 11
217.2072927593907
 21
703.6175237623809
 72
     1
 10
217.2072927593907
 20
703.6175237623809
 11
215.8045685416426
 21
703.6175237623809
 72
     1
 10
215.8045685416426
 20
703.6175237623809
 11
217.2025215885829
 21
705.1983827561558
 72
     1
 10
217.2025215885829
 20
705.1983827561558
 11
215.8999919578154
 21
706.6713332861921
 72
     1
 10
215.8999919578154
 20
706.6713332861921
 11
217.3027161755646
 21
706.6713332861921
 72
     1
 10
217.3027161755646
 20
706.6713332861921
 11
217.9038836974565
 21
705.9915099646365
 72
     1
 10
217.9038836974565
 20
705.9915099646365
 11
218.5050512193493
 21
706.6713332861921
 97
       12
330
39E
330
3F7
330
3F6
330
3F5
330
3F4
330
39F
330
3A0
330
39C
330
39D
330
3FA
330
3F9
330
3F8
 75
     1
 76
     2
 52
45.0
 41
0.1
 77
     0
 78
     1
 53
45.0
 43
62.7811309658083
 44
-72.3161373035813
 45
-0.1414213562373095
 46
0.0
 79
     0
 98
        1
 10
0.0
 20
0.0
  0
HATCH
  5
48A
330
71
100
AcDbEntity
  8
1
  6
Continuous
 62
     2
100
AcDbHatch
 10
0.0
 20
0.0
 30
0.0
210
0.0
220
0.0
230
1.0
  2
CUSTOM13
 70
     0
 71
     1
 91
        1
 92
        1
 93
       12
 72
     1
 10
218.5050512193493
 20
706.6713332861921
 11
219.9077754370965
 21
706.6713332861921
 72
     1
 10
219.9077754370965
 20
706.6713332861921
 11
218.6052458063299
 21
705.1983827561558
 72
     1
 10
218.6052458063299
 20
705.1983827561558
 11
220.0031988532702
 21
703.6175237623809
 72
     1
 10
220.0031988532702
 20
703.6175237623809
 11
218.6004746355219
 21
703.6175237623809
 72
     1
 10
218.6004746355219
 20
703.6175237623809
 11
217.9038836974565
 21
704.4052555476746
 72
     1
 10
217.9038836974565
 20
704.4052555476746
 11
217.2072927593907
 21
703.6175237623809
 72
     1
 10
217.2072927593907
 20
703.6175237623809
 11
215.8045685416426
 21
703.6175237623809
 72
     1
 10
215.8045685416426
 20
703.6175237623809
 11
217.2025215885829
 21
705.1983827561558
 72
     1
 10
217.2025215885829
 20
705.1983827561558
 11
215.8999919578154
 21
706.6713332861921
 72
     1
 10
215.8999919578154
 20
706.6713332861921
 11
217.3027161755646
 21
706.6713332861921
 72
     1
 10
217.3027161755646
 20
706.6713332861921
 11
217.9038836974565
 21
705.9915099646365
 72
     1
 10
217.9038836974565
 20
705.9915099646365
 11
218.5050512193493
 21
706.6713332861921
 97
       12
330
39E
330
3F7
330
3F6
330
3F5
330
3F4
330
39F
330
3A0
330
39C
330
39D
330
3FA
330
3F9
330
3F8
 75
     1
 76
     2
 52
45.0
 41
0.1
 77
     0
 78
     1
 53
45.0
 43
62.7811309658083
 44
-72.3161373035813
 45
-0.1414213562373095
 46
0.0
 79
     0
 98
        1
 10
0.0
 20
0.0
  0
HATCH
  5
48B
330
71
100
AcDbEntity
  8
1
  6
Continuous
 62
     2
100
AcDbHatch
 10
0.0
 20
0.0
 30
0.0
210
0.0
220
0.0
230
1.0
  2
CUSTOM14
 70
     0
 71
     1
 91
        1
 92
        1
 93
        4
 72
     1
 10
215.6852892714257
 20
706.6713332861921
 11
215.6852892714257
 21
703.6175237623809
 72
     1
 10
215.6852892714257
 20
703.6175237623809
 11
214.4447848611728
 21
703.6175237623809
 72
     1
 10
214.4447848611728
 20
703.6175237623809
 11
214.4447848611728
 21
706.6713332861921
 72
     1
 10
214.4447848611728
 20
706.6713332861921
 11
215.6852892714257
 21
706.6713332861921
 97
        4
330
3F2
330
3A1
330
3F1
330
3F3
 75
     1
 76
     2
 52
45.0
 41
0.1
 77
     0
 78
     1
 53
45.0
 43
62.7811309658083
 44
-72.3161373035813
 45
-0.1414213562373095
 46
0.0
 79
     0
 98
        1
 10
0.0
 20
0.0
  0
HATCH
  5
48C
330
71
100
AcDbEntity
  8
1
  6
Continuous
 62
     2
100
AcDbHatch
 10
0.0
 20
0.0
 30
0.0
210
0.0
220
0.0
230
1.0
  2
CUSTOM15
 70
     0
 71
     1
 91
        1
 92
        1
 93
        4
 72
     1
 10
215.6852892714257
 20
706.6713332861921
 11
215.6852892714257
 21
703.6175237623809
 72
     1
 10
215.6852892714257
 20
703.6175237623809
 11
214.4447848611728
 21
703.6175237623809
 72
     1
 10
214.4447848611728
 20
703.6175237623809
 11
214.4447848611728
 21
706.6713332861921
 72
     1
 10
214.4447848611728
 20
706.6713332861921
 11
215.6852892714257
 21
706.6713332861921
 97
        4
330
3F2
330
3A1
330
3F1
330
3F3
 75
     1
 76
     2
 52
45.0
 41
0.1
 77
     0
 78
     1
 53
45.0
 43
62.7811309658083
 44
-72.3161373035813
 45
-0.1414213562373095
 46
0.0
 79
     0
 98
        1
 10
0.0
 20
0.0
  0
HATCH
  5
48D
330
71
100
AcDbEntity
  8
1
  6
Continuous
 62
     2
100
AcDbHatch
 10
0.0
 20
0.0
 30
0.0
210
0.0
220
0.0
230
1.0
  2
CUSTOM16
 70
     0
 71
     1
 91
        2
 92
        1
 93
        8
 72
     1
 10
215.2948452678937
 20
700.2583332862066
 11
214.0543408576398
 21
700.2583332862066
 72
     1
 10
214.0543408576398
 20
700.2583332862066
 11
213.842860804164
 21
700.7992938304244
 72
     1
 10
213.842860804164
 20
700.7992938304244
 11
212.7104192274901
 21
700.7992938304244
 72
     1
 10
212.7104192274901
 20
700.7992938304244
 11
212.4989391740143
 21
700.2583332862066
 72
     1
 10
212.4989391740143
 20
700.2583332862066
 11
211.2584347637614
 21
700.2583332862066
 72
     1
 10
211.2584347637614
 20
700.2583332862066
 11
212.6563878107006
 21
703.3121428100178
 72
     1
 10
212.6563878107006
 20
703.3121428100178
 11
213.8968922209534
 21
703.3121428100178
 72
     1
 10
213.8968922209534
 20
703.3121428100178
 11
215.2948452678937
 21
700.2583332862066
 97
        8
330
3ED
330
3A7
330
3EC
330
3EF
330
3A4
330
3EE
330
3A5
330
3A6
 92
       16
 93
        3
 72
     1
 10
212.9764747786352
 20
701.479857095731
 11
213.5768052530177
 21
701.479857095731
 72
     1
 10
213.5768052530177
 20
701.479857095731
 11
213.2766400158275
 21
702.2476720617177
 72
     1
 10
213.2766400158275
 20
702.2476720617177
 11
212.9764747786352
 21
701.479857095731
 97
        3
330
3A3
330
3A2
330
3F0
 75
     1
 76
     2
 52
45.0
 41
0.1
 77
     0
 78
     1
 53
45.0
 43
62.7811309658083
 44
-72.3161373035813
 45
-0.1414213562373095
 46
0.0
 79
     0
 98
        1
 10
0.0
 20
0.0
  0
HATCH
  5
48E
330
71
100
AcDbEntity
  8
1
  6
Continuous
 62
     2
100
AcDbHatch
 10
0.0
 20
0.0
 30
0.0
210
0.0
220
0.0
230
1.0
  2
CUSTOM17
 70
     0
 71
     1
 91
        2
 92
        1
 93
        8
 72
     1
 10
215.2948452678937
 20
700.2583332862066
 11
214.0543408576398
 21
700.2583332862066
 72
     1
 10
214.0543408576398
 20
700.2583332862066
 11
213.842860804164
 21
700.7992938304244
 72
     1
 10
213.842860804164
 20
700.7992938304244
 11
212.7104192274901
 21
700.7992938304244
 72
     1
 10
212.7104192274901
 20
700.7992938304244
 11
212.4989391740143
 21
700.2583332862066
 72
     1
 10
212.4989391740143
 20
700.2583332862066
 11
211.2584347637614
 21
700.2583332862066
 72
     1
 10
211.2584347637614
 20
700.2583332862066
 11
212.6563878107006
 21
703.3121428100178
 72
     1
 10
212.6563878107006
 20
703.3121428100178
 11
213.8968922209534
 21
703.3121428100178
 72
     1
 10
213.8968922209534
 20
703.3121428100178
 11
215.2948452678937
 21
700.2583332862066
 97
        8
330
3ED
330
3A7
330
3EC
330
3EF
330
3A4
330
3EE
330
3A5
330
3A6
 92
       16
 93
        3
 72
     1
 10
212.9764747786352
 20
701.479857095731
 11
213.5768052530177
 21
701.479857095731
 72
     1
 10
213.5768052530177
 20
701.479857095731
 11
213.2766400158275
 21
702.2476720617177
 72
     1
 10
213.2766400158275
 20
702.2476720617177
 11
212.9764747786352
 21
701.479857095731
 97
        3
330
3A3
330
3A2
330
3F0
 75
     1
 76
     2
 52
45.0
 41
0.1
 77
     0
 78
     1
 53
45.0
 43
62.7811309658083
 44
-72.3161373035813
 45
-0.1414213562373095
 46
0.0
 79
     0
 98
        1
 10
0.0
 20
0.0
  0
HATCH
  5
48F
330
71
100
AcDbEntity
  8
1
  6
Continuous
 62
     2
100
AcDbHatch
 10
0.0
 20
0.0
 30
0.0
210
0.0
220
0.0
230
1.0
  2
CUSTOM18
 70
     0
 71
     1
 91
        1
 92
        1
 93
        8
 72
     1
 10
209.1009226245791
 20
703.3121428100178
 11
209.1009226245791
 21
702.526877503894
 72
     1
 10
209.1009226245791
 20
702.526877503894
 11
209.9120216620538
 21
702.526877503894
 72
     1
 10
209.9120216620538
 20
702.526877503894
 11
209.9120216620538
 21
700.2583332862066
 72
     1
 10
209.9120216620538
 20
700.2583332862066
 11
211.1048143642202
 21
700.2583332862066
 72
     1
 10
211.1048143642202
 20
700.2583332862066
 11
211.1048143642202
 21
702.526877503894
 72
     1
 10
211.1048143642202
 20
702.526877503894
 11
211.9159134016928
 21
702.526877503894
 72
     1
 10
211.9159134016928
 20
702.526877503894
 11
211.9159134016928
 21
703.3121428100178
 72
     1
 10
211.9159134016928
 20
703.3121428100178
 11
209.1009226245791
 21
703.3121428100178
 97
        8
330
3E9
330
3E8
330
3E7
330
3A8
330
3A9
330
3EB
330
3AA
330
3EA
 75
     1
 76
     2
 52
45.0
 41
0.1
 77
     0
 78
     1
 53
45.0
 43
62.7811309658083
 44
-72.3161373035813
 45
-0.1414213562373095
 46
0.0
 79
     0
 98
        1
 10
0.0
 20
0.0
  0
HATCH
  5
490
330
71
100
AcDbEntity
  8
1
  6
Continuous
 62
     2
100
AcDbHatch
 10
0.0
 20
0.0
 30
0.0
210
0.0
220
0.0
230
1.0
  2
CUSTOM19
 70
     0
 71
     1
 91
        1
 92
        1
 93
        8
 72
     1
 10
209.1009226245791
 20
703.3121428100178
 11
209.1009226245791
 21
702.526877503894
 72
     1
 10
209.1009226245791
 20
702.526877503894
 11
209.9120216620538
 21
702.526877503894
 72
     1
 10
209.9120216620538
 20
702.526877503894
 11
209.9120216620538
 21
700.2583332862066
 72
     1
 10
209.9120216620538
 20
700.2583332862066
 11
211.1048143642202
 21
700.2583332862066
 72
     1
 10
211.1048143642202
 20
700.2583332862066
 11
211.1048143642202
 21
702.526877503894
 72
     1
 10
211.1048143642202
 20
702.526877503894
 11
211.9159134016928
 21
702.526877503894
 72
     1
 10
211.9159134016928
 20
702.526877503894
 11
211.9159134016928
 21
703.3121428100178
 72
     1
 10
211.9159134016928
 20
703.3121428100178
 11
209.1009226245791
 21
703.3121428100178
 97
        8
330
3E9
330
3E8
330
3E7
330
3A8
330
3A9
330
3EB
330
3AA
330
3EA
 75
     1
 76
     2
 52
45.0
 41
0.1
 77
     0
 78
     1
 53
45.0
 43
62.7811309658083
 44
-72.3161373035813
 45
-0.1414213562373095
 46
0.0
 79
     0
 98
        1
 10
0.0
 20
0.0
  0
HATCH
  5
491
330
71
100
AcDbEntity
  8
1
  6
Continuous
 62
     2
100
AcDbHatch
 10
0.0
 20
0.0
 30
0.0
210
0.0
220
0.0
230
1.0
  2
CUSTOM20
 70
     0
 71
     1
 91
        1
 92
        1
 93
       10
 72
     1
 10
211.7729292083182
 20
706.6713332861921
 11
210.5801365061518
 21
706.6713332861921
 72
     1
 10
210.5801365061518
 20
706.6713332861921
 11
210.5801365061518
 21
703.6175237623809
 72
     1
 10
210.5801365061518
 20
703.6175237623809
 11
211.7729292083182
 21
703.6175237623809
 72
     1
 10
211.7729292083182
 20
703.6175237623809
 11
211.7729292083182
 21
704.9262992725857
 72
     1
 10
211.7729292083182
 20
704.9262992725857
 11
213.0134336185723
 21
703.6175237623809
 72
     1
 10
213.0134336185723
 20
703.6175237623809
 11
214.2062263207389
 21
703.6175237623809
 72
     1
 10
214.2062263207389
 20
703.6175237623809
 11
214.2062263207389
 21
706.6713332861921
 72
     1
 10
214.2062263207389
 20
706.6713332861921
 11
213.0134336185723
 21
706.6713332861921
 72
     1
 10
213.0134336185723
 20
706.6713332861921
 11
213.0134336185723
 21
705.3625577759869
 72
     1
 10
213.0134336185723
 20
705.3625577759869
 11
211.7729292083182
 21
706.6713332861921
 97
       10
330
3E3
330
3AD
330
3AE
330
3AF
330
3B0
330
3E6
330
3AB
330
3E5
330
3E4
330
3AC
 75
     1
 76
     2
 52
45.0
 41
0.1
 77
     0
 78
     1
 53
45.0
 43
62.7811309658083
 44
-72.3161373035813
 45
-0.1414213562373095
 46
0.0
 79
     0
 98
        1
 10
0.0
 20
0.0
  0
HATCH
  5
492
330
71
100
AcDbEntity
  8
1
  6
Continuous
 62
     2
100
AcDbHatch
 10
0.0
 20
0.0
 30
0.0
210
0.0
220
0.0
230
1.0
  2
CUSTOM21
 70
     0
 71
     1
 91
        1
 92
        1
 93
       10
 72
     1
 10
211.7729292083182
 20
706.6713332861921
 11
210.5801365061518
 21
706.6713332861921
 72
     1
 10
210.5801365061518
 20
706.6713332861921
 11
210.5801365061518
 21
703.6175237623809
 72
     1
 10
210.5801365061518
 20
703.6175237623809
 11
211.7729292083182
 21
703.6175237623809
 72
     1
 10
211.7729292083182
 20
703.6175237623809
 11
211.7729292083182
 21
704.9262992725857
 72
     1
 10
211.7729292083182
 20
704.9262992725857
 11
213.0134336185723
 21
703.6175237623809
 72
     1
 10
213.0134336185723
 20
703.6175237623809
 11
214.2062263207389
 21
703.6175237623809
 72
     1
 10
214.2062263207389
 20
703.6175237623809
 11
214.2062263207389
 21
706.6713332861921
 72
     1
 10
214.2062263207389
 20
706.6713332861921
 11
213.0134336185723
 21
706.6713332861921
 72
     1
 10
213.0134336185723
 20
706.6713332861921
 11
213.0134336185723
 21
705.3625577759869
 72
     1
 10
213.0134336185723
 20
705.3625577759869
 11
211.7729292083182
 21
706.6713332861921
 97
       10
330
3E3
330
3AD
330
3AE
330
3AF
330
3B0
330
3E6
330
3AB
330
3E5
330
3E4
330
3AC
 75
     1
 76
     2
 52
45.0
 41
0.1
 77
     0
 78
     1
 53
45.0
 43
62.7811309658083
 44
-72.3161373035813
 45
-0.1414213562373095
 46
0.0
 79
     0
 98
        1
 10
0.0
 20
0.0
  0
HATCH
  5
493
330
71
100
AcDbEntity
  8
1
  6
Continuous
 62
     2
100
AcDbHatch
 10
0.0
 20
0.0
 30
0.0
210
0.0
220
0.0
230
1.0
  2
CUSTOM22
 70
     0
 71
     1
 91
        1
 92
        1
 93
       10
 72
     1
 10
206.5244903878996
 20
703.3121428100178
 11
205.3316976857321
 21
703.3121428100178
 72
     1
 10
205.3316976857321
 20
703.3121428100178
 11
205.3316976857321
 21
700.2583332862066
 72
     1
 10
205.3316976857321
 20
700.2583332862066
 11
206.5244903878996
 21
700.2583332862066
 72
     1
 10
206.5244903878996
 20
700.2583332862066
 11
206.5244903878996
 21
701.567108796411
 72
     1
 10
206.5244903878996
 20
701.567108796411
 11
207.7649947981526
 21
700.2583332862066
 72
     1
 10
207.7649947981526
 20
700.2583332862066
 11
208.957787500319
 21
700.2583332862066
 72
     1
 10
208.957787500319
 20
700.2583332862066
 11
208.957787500319
 21
703.3121428100178
 72
     1
 10
208.957787500319
 20
703.3121428100178
 11
207.7649947981526
 21
703.3121428100178
 72
     1
 10
207.7649947981526
 20
703.3121428100178
 11
207.7649947981526
 21
702.0033672998125
 72
     1
 10
207.7649947981526
 20
702.0033672998125
 11
206.5244903878996
 21
703.3121428100178
 97
       10
330
3B2
330
3B3
330
3B4
330
3E0
330
3B5
330
3B6
330
3DF
330
3E2
330
3E1
330
3B1
 75
     1
 76
     2
 52
45.0
 41
0.1
 77
     0
 78
     1
 53
45.0
 43
62.7811309658083
 44
-72.3161373035813
 45
-0.1414213562373095
 46
0.0
 79
     0
 98
        1
 10
0.0
 20
0.0
  0
HATCH
  5
494
330
71
100
AcDbEntity
  8
1
  6
Continuous
 62
     2
100
AcDbHatch
 10
0.0
 20
0.0
 30
0.0
210
0.0
220
0.0
230
1.0
  2
CUSTOM23
 70
     0
 71
     1
 91
        1
 92
        1
 93
       10
 72
     1
 10
206.5244903878996
 20
703.3121428100178
 11
205.3316976857321
 21
703.3121428100178
 72
     1
 10
205.3316976857321
 20
703.3121428100178
 11
205.3316976857321
 21
700.2583332862066
 72
     1
 10
205.3316976857321
 20
700.2583332862066
 11
206.5244903878996
 21
700.2583332862066
 72
     1
 10
206.5244903878996
 20
700.2583332862066
 11
206.5244903878996
 21
701.567108796411
 72
     1
 10
206.5244903878996
 20
701.567108796411
 11
207.7649947981526
 21
700.2583332862066
 72
     1
 10
207.7649947981526
 20
700.2583332862066
 11
208.957787500319
 21
700.2583332862066
 72
     1
 10
208.957787500319
 20
700.2583332862066
 11
208.957787500319
 21
703.3121428100178
 72
     1
 10
208.957787500319
 20
703.3121428100178
 11
207.7649947981526
 21
703.3121428100178
 72
     1
 10
207.7649947981526
 20
703.3121428100178
 11
207.7649947981526
 21
702.0033672998125
 72
     1
 10
207.7649947981526
 20
702.0033672998125
 11
206.5244903878996
 21
703.3121428100178
 97
       10
330
3B2
330
3B3
330
3B4
330
3E0
330
3B5
330
3B6
330
3DF
330
3E2
330
3E1
330
3B1
 75
     1
 76
     2
 52
45.0
 41
0.1
 77
     0
 78
     1
 53
45.0
 43
62.7811309658083
 44
-72.3161373035813
 45
-0.1414213562373095
 46
0.0
 79
     0
 98
        1
 10
0.0
 20
0.0
  0
HATCH
  5
495
330
71
100
AcDbEntity
  8
1
  6
Continuous
 62
     2
100
AcDbHatch
 10
0.0
 20
0.0
 30
0.0
210
0.0
220
0.0
230
1.0
  2
CUSTOM24
 70
     0
 71
     1
 91
        1
 92
        1
 93
       12
 72
     1
 10
205.5226954489643
 20
706.6713332861921
 11
205.5226954489643
 21
703.6175237623809
 72
     1
 10
205.5226954489643
 20
703.6175237623809
 11
204.3299027467978
 21
703.6175237623809
 72
     1
 10
204.3299027467978
 20
703.6175237623809
 11
204.3299027467978
 21
704.7517958712247
 72
     1
 10
204.3299027467978
 20
704.7517958712247
 11
203.2802451688904
 21
704.7517958712247
 72
     1
 10
203.2802451688904
 20
704.7517958712247
 11
203.2802451688904
 21
703.6175237623809
 72
     1
 10
203.2802451688904
 20
703.6175237623809
 11
202.0874524667238
 21
703.6175237623809
 72
     1
 10
202.0874524667238
 20
703.6175237623809
 11
202.0874524667238
 21
706.6713332861921
 72
     1
 10
202.0874524667238
 20
706.6713332861921
 11
203.2802451688904
 21
706.6713332861921
 72
     1
 10
203.2802451688904
 20
706.6713332861921
 11
203.2802451688904
 21
705.6024999528574
 72
     1
 10
203.2802451688904
 20
705.6024999528574
 11
204.3299027467978
 21
705.6024999528574
 72
     1
 10
204.3299027467978
 20
705.6024999528574
 11
204.3299027467978
 21
706.6713332861921
 72
     1
 10
204.3299027467978
 20
706.6713332861921
 11
205.5226954489643
 21
706.6713332861921
 97
       12
330
3DA
330
3D9
330
3D8
330
3C0
330
3C1
330
3D7
330
3C2
330
3D6
330
3D5
330
3D4
330
3BE
330
3BF
 75
     1
 76
     2
 52
45.0
 41
0.1
 77
     0
 78
     1
 53
45.0
 43
62.7811309658083
 44
-72.3161373035813
 45
-0.1414213562373095
 46
0.0
 79
     0
 98
        1
 10
0.0
 20
0.0
  0
HATCH
  5
496
330
71
100
AcDbEntity
  8
1
  6
Continuous
 62
     2
100
AcDbHatch
 10
0.0
 20
0.0
 30
0.0
210
0.0
220
0.0
230
1.0
  2
CUSTOM25
 70
     0
 71
     1
 91
        1
 92
        1
 93
       12
 72
     1
 10
205.5226954489643
 20
706.6713332861921
 11
205.5226954489643
 21
703.6175237623809
 72
     1
 10
205.5226954489643
 20
703.6175237623809
 11
204.3299027467978
 21
703.6175237623809
 72
     1
 10
204.3299027467978
 20
703.6175237623809
 11
204.3299027467978
 21
704.7517958712247
 72
     1
 10
204.3299027467978
 20
704.7517958712247
 11
203.2802451688904
 21
704.7517958712247
 72
     1
 10
203.2802451688904
 20
704.7517958712247
 11
203.2802451688904
 21
703.6175237623809
 72
     1
 10
203.2802451688904
 20
703.6175237623809
 11
202.0874524667238
 21
703.6175237623809
 72
     1
 10
202.0874524667238
 20
703.6175237623809
 11
202.0874524667238
 21
706.6713332861921
 72
     1
 10
202.0874524667238
 20
706.6713332861921
 11
203.2802451688904
 21
706.6713332861921
 72
     1
 10
203.2802451688904
 20
706.6713332861921
 11
203.2802451688904
 21
705.6024999528574
 72
     1
 10
203.2802451688904
 20
705.6024999528574
 11
204.3299027467978
 21
705.6024999528574
 72
     1
 10
204.3299027467978
 20
705.6024999528574
 11
204.3299027467978
 21
706.6713332861921
 72
     1
 10
204.3299027467978
 20
706.6713332861921
 11
205.5226954489643
 21
706.6713332861921
 97
       12
330
3DA
330
3D9
330
3D8
330
3C0
330
3C1
330
3D7
330
3C2
330
3D6
330
3D5
330
3D4
330
3BE
330
3BF
 75
     1
 76
     2
 52
45.0
 41
0.1
 77
     0
 78
     1
 53
45.0
 43
62.7811309658083
 44
-72.3161373035813
 45
-0.1414213562373095
 46
0.0
 79
     0
 98
        1
 10
0.0
 20
0.0
  0
ENDBLK
  5
73
330
71
100
AcDbEntity
  8
0
100
AcDbBlockEnd
  0
BLOCK
  5
75
330
74
100
AcDbEntity
  8
0
100
AcDbBlockBegin
  2
_punkt
 70
     0
 10
317.3999992627531
 20
692.9648332861902
 30
0.0
  3
_punkt
  1

  0
LINE
  5
497
330
74
100
AcDbEntity
  8
1
  6
Continuous
 62
     2
100
AcDbLine
 10
317.3999992627531
 20
692.9648332861902
 30
0.0
 11
317.3999992627531
 21
687.9648332861908
 31
0.0
  0
LINE
  5
498
330
74
100
AcDbEntity
  8
1
  6
Continuous
 62
     2
100
AcDbLine
 10
317.3999992627531
 20
692.9648332861902
 30
0.0
 11
322.3999992627507
 21
692.9648332861902
 31
0.0
  0
ENDBLK
  5
76
330
74
100
AcDbEntity
  8
0
100
AcDbBlockEnd
  0
BLOCK
  5
7A
330
77
100
AcDbEntity
  8
0
100
AcDbBlockBegin
  2
A3I_CS
 70
     0
 10
317.3999992627531
 20
687.9648332861908
 30
0.0
  3
A3I_CS
  1

  0
INSERT
  5
78
330
77
100
AcDbEntity
  8
1
100
AcDbBlockReference
  2
_rahmen
 10
317.3999992627531
 20
687.9648332861908
 30
0.0
  0
INSERT
  5
79
330
77
100
AcDbEntity
  8
1
100
AcDbBlockReference
  2
_punkt
 10
317.3999992627531
 20
692.9648332861902
 30
0.0
  0
ENDBLK
  5
7B
330
77
100
AcDbEntity
  8
0
100
AcDbBlockEnd
  0
BLOCK
  5
84
330
7C
100
AcDbEntity
  8
0
100
AcDbBlockBegin
  2
1
 70
     0
 10
0.0
 20
0.0
 30
0.0
  3
1
  1

  0
INSERT
  5
7D
330
7C
100
AcDbEntity
  8
0
100
AcDbBlockReference
  2
Allg1
 10
242.9999993966886
 20
793.999998576711
 30
0.0
  0
INSERT
  5
7E
330
7C
100
AcDbEntity
  8
0
100
AcDbBlockReference
  2
Drfsicht1
 10
85.99999930335707
 20
771.999999999995
 30
0.0
  0
INSERT
  5
7F
330
7C
100
AcDbEntity
  8
0
100
AcDbBlockReference
  2
Rckans1
 10
250.700001881742
 20
918.9939043318316
 30
0.0
  0
INSERT
  5
80
330
7C
100
AcDbEntity
  8
0
100
AcDbBlockReference
  2
SA_Links1
 10
168.3500005925631
 20
918.9939043318316
 30
0.0
  0
INSERT
  5
81
330
7C
100
AcDbEntity
  8
0
100
AcDbBlockReference
  2
SA_Rechts1
 10
-33.35000259255723
 20
918.9939043318316
 30
0.0
  0
INSERT
  5
82
330
7C
100
AcDbEntity
  8
0
100
AcDbBlockReference
  2
Vordans1
 10
85.99999930335944
 20
918.9939043318315
 30
0.0
  0
INSERT
  5
83
330
7C
100
AcDbEntity
  8
0
100
AcDbBlockReference
  2
A3I_CS
 10
317.3999992627531
 20
687.9648332861908
 30
0.0
  0
ENDBLK
  5
85
330
7C
100
AcDbEntity
  8
0
100
AcDbBlockEnd
  0
BLOCK
  5
165
330
15E
100
AcDbEntity
  8
0
100
AcDbBlockBegin
  2
*D17
 70
     1
 10
0.0
 20
0.0
 30
0.0
  3
*D17
  1

  0
LINE
  5
15F
330
15E
100
AcDbEntity
  8
1
  6
Continuous
 62
     2
100
AcDbLine
 10
28.45705166650936
 20
786.8499996185203
 30
0.0
 11
28.45705166650936
 21
757.1499996185204
 31
0.0
  0
LINE
  5
160
330
15E
100
AcDbEntity
  8
1
  6
Continuous
 62
     2
100
AcDbLine
 10
70.32002692042117
 20
786.8499996185203
 30
0.0
 11
26.95705166650936
 21
786.8499996185203
 31
0.0
  0
LINE
  5
161
330
15E
100
AcDbEntity
  8
1
  6
Continuous
 62
     2
100
AcDbLine
 10
70.32002692042113
 20
757.1499996185204
 30
0.0
 11
26.95705166650936
 21
757.1499996185204
 31
0.0
  0
SOLID
  5
162
330
15E
100
AcDbEntity
  8
1
 62
     2
100
AcDbTrace
 10
28.91783540806524
 20
783.3499996185203
 30
0.0
 11
27.99626792495348
 21
783.3499996185203
 31
0.0
 12
28.45705166650936
 22
786.8499996185203
 32
0.0
 13
28.45705166650936
 23
786.8499996185203
 33
0.0
  0
SOLID
  5
163
330
15E
100
AcDbEntity
  8
1
 62
     2
100
AcDbTrace
 10
27.99626792495348
 20
760.6499996185204
 30
0.0
 11
28.91783540806525
 21
760.6499996185204
 31
0.0
 12
28.45705166650936
 22
757.1499996185204
 32
0.0
 13
28.45705166650936
 23
757.1499996185204
 33
0.0
  0
MTEXT
  5
164
330
15E
100
AcDbEntity
  8
1
 62
     3
100
AcDbMText
 10
26.60705166650936
 20
766.5413706326862
 30
0.0
 40
3.5
 41
0.0
 71
     7
 72
     1
  1
29,7
  7
CONVERTER_11
 11
0.0
 21
1.0
 31
0.0
 73
     1
 44
0.60024009603842
  0
ENDBLK
  5
166
330
15E
100
AcDbEntity
  8
0
100
AcDbBlockEnd
  0
BLOCK
  5
307
330
300
100
AcDbEntity
  8
0
100
AcDbBlockBegin
  2
*D18
 70
     1
 10
0.0
 20
0.0
 30
0.0
  3
*D18
  1

  0
LINE
  5
301
330
300
100
AcDbEntity
  8
1
  6
Continuous
 62
     2
100
AcDbLine
 10
28.45705166651197
 20
903.087804282193
 30
0.0
 11
28.45705166651197
 21
941.137804282193
 31
0.0
  0
LINE
  5
302
330
300
100
AcDbEntity
  8
1
  6
Continuous
 62
     2
100
AcDbLine
 10
98.75001589306603
 20
903.087804282193
 30
0.0
 11
26.95705166651197
 21
903.087804282193
 31
0.0
  0
LINE
  5
303
330
300
100
AcDbEntity
  8
1
  6
Continuous
 62
     2
100
AcDbLine
 10
82.46179154339893
 20
941.137804282193
 30
0.0
 11
26.95705166651197
 21
941.137804282193
 31
0.0
  0
SOLID
  5
304
330
300
100
AcDbEntity
  8
1
 62
     2
100
AcDbTrace
 10
27.99626792495608
 20
906.587804282193
 30
0.0
 11
28.91783540806786
 21
906.587804282193
 31
0.0
 12
28.45705166651197
 22
903.087804282193
 32
0.0
 13
28.45705166651197
 23
903.087804282193
 33
0.0
  0
SOLID
  5
305
330
300
100
AcDbEntity
  8
1
 62
     2
100
AcDbTrace
 10
28.91783540806785
 20
937.637804282193
 30
0.0
 11
27.99626792495608
 21
937.637804282193
 31
0.0
 12
28.45705166651197
 22
941.137804282193
 32
0.0
 13
28.45705166651197
 23
941.137804282193
 33
0.0
  0
MTEXT
  5
306
330
300
100
AcDbEntity
  8
1
 62
     3
100
AcDbMText
 10
26.60705166651197
 20
917.4011199428769
 30
0.0
 40
3.5
 41
0.0
 71
     7
 72
     1
  1
38,05
  7
CONVERTER_11
 11
0.0
 21
1.0
 31
0.0
 73
     1
 44
0.60024009603842
  0
ENDBLK
  5
308
330
300
100
AcDbEntity
  8
0
100
AcDbBlockEnd
  0
BLOCK
  5
312
330
30B
100
AcDbEntity
  8
0
100
AcDbBlockBegin
  2
*D19
 70
     1
 10
0.0
 20
0.0
 30
0.0
  3
*D19
  1

  0
LINE
  5
30C
330
30B
100
AcDbEntity
  8
1
  6
Continuous
 62
     2
100
AcDbLine
 10
88.98040065096596
 20
888.424628531812
 30
0.0
 11
106.4804006509687
 21
888.424628531812
 31
0.0
  0
LINE
  5
30D
330
30B
100
AcDbEntity
  8
1
  6
Continuous
 62
     2
100
AcDbLine
 10
88.98040065096596
 20
898.424628531812
 30
0.0
 11
88.98040065096596
 21
886.924628531812
 31
0.0
  0
LINE
  5
30E
330
30B
100
AcDbEntity
  8
1
  6
Continuous
 62
     2
100
AcDbLine
 10
106.4804006509687
 20
901.8374652992421
 30
0.0
 11
106.4804006509687
 21
886.924628531812
 31
0.0
  0
SOLID
  5
30F
330
30B
100
AcDbEntity
  8
1
 62
     2
100
AcDbTrace
 10
92.48040065096596
 20
888.8854122733679
 30
0.0
 11
92.48040065096596
 21
887.9638447902561
 31
0.0
 12
88.98040065096596
 22
888.424628531812
 32
0.0
 13
88.98040065096596
 23
888.424628531812
 33
0.0
  0
SOLID
  5
310
330
30B
100
AcDbEntity
  8
1
 62
     2
100
AcDbTrace
 10
102.9804006509687
 20
887.9638447902561
 30
0.0
 11
102.9804006509687
 21
888.8854122733679
 31
0.0
 12
106.4804006509687
 22
888.424628531812
 32
0.0
 13
106.4804006509687
 23
888.424628531812
 33
0.0
  0
MTEXT
  5
311
330
30B
100
AcDbEntity
  8
1
 62
     3
100
AcDbMText
 10
93.31492281077564
 20
890.2746285318119
 30
0.0
 40
3.5
 41
0.0
 71
     7
 72
     1
  1
17,5
  7
CONVERTER_11
 11
0.9999999999970619
 21
2.424068405545306E-6
 31
0.0
 73
     1
 44
0.60024009603842
  0
ENDBLK
  5
313
330
30B
100
AcDbEntity
  8
0
100
AcDbBlockEnd
  0
BLOCK
  5
31D
330
316
100
AcDbEntity
  8
0
100
AcDbBlockBegin
  2
*D20
 70
     1
 10
0.0
 20
0.0
 30
0.0
  3
*D20
  1

  0
LINE
  5
317
330
316
100
AcDbEntity
  8
1
  6
Continuous
 62
     2
100
AcDbLine
 10
88.98040065096608
 20
879.773716636863
 30
0.0
 11
114.9303969944048
 21
879.773716636863
 31
0.0
  0
LINE
  5
318
330
316
100
AcDbEntity
  8
1
  6
Continuous
 62
     2
100
AcDbLine
 10
88.98040065096608
 20
898.424628531812
 30
0.0
 11
88.98040065096608
 21
878.273716636863
 31
0.0
  0
LINE
  5
319
330
316
100
AcDbEntity
  8
1
  6
Continuous
 62
     2
100
AcDbLine
 10
114.9303969944048
 20
900.7374652992421
 30
0.0
 11
114.9303969944048
 21
878.273716636863
 31
0.0
  0
SOLID
  5
31A
330
316
100
AcDbEntity
  8
1
 62
     2
100
AcDbTrace
 10
92.48040065096608
 20
880.2345003784189
 30
0.0
 11
92.48040065096608
 21
879.3129328953071
 31
0.0
 12
88.98040065096608
 22
879.773716636863
 32
0.0
 13
88.98040065096608
 23
879.773716636863
 33
0.0
  0
SOLID
  5
31B
330
316
100
AcDbEntity
  8
1
 62
     2
100
AcDbTrace
 10
111.4303969944048
 20
879.3129328953071
 30
0.0
 11
111.4303969944048
 21
880.2345003784189
 31
0.0
 12
114.9303969944048
 22
879.773716636863
 32
0.0
 13
114.9303969944048
 23
879.773716636863
 33
0.0
  0
MTEXT
  5
31C
330
316
100
AcDbEntity
  8
1
 62
     3
100
AcDbMText
 10
95.6811224152044
 20
881.6237166368629
 30
0.0
 40
3.5
 41
0.0
 71
     7
 72
     1
  1
25,95
  7
CONVERTER_11
 11
0.9999999999970619
 21
2.424068405545306E-6
 31
0.0
 73
     1
 44
0.60024009603842
  0
ENDBLK
  5
31E
330
316
100
AcDbEntity
  8
0
100
AcDbBlockEnd
  0
BLOCK
  5
328
330
321
100
AcDbEntity
  8
0
100
AcDbBlockBegin
  2
*D21
 70
     1
 10
0.0
 20
0.0
 30
0.0
  3
*D21
  1

  0
LINE
  5
322
330
321
100
AcDbEntity
  8
1
  6
Continuous
 62
     2
100
AcDbLine
 10
38.60496743380063
 20
863.4220373477576
 30
0.0
 11
133.6049674338007
 21
863.4220373477576
 31
0.0
  0
LINE
  5
323
330
321
100
AcDbEntity
  8
1
  6
Continuous
 62
     2
100
AcDbLine
 10
38.60496743380063
 20
930.3692984938946
 30
0.0
 11
38.60496743380063
 21
861.9220373477576
 31
0.0
  0
LINE
  5
324
330
321
100
AcDbEntity
  8
1
  6
Continuous
 62
     2
100
AcDbLine
 10
133.6049674338007
 20
930.3692984938946
 30
0.0
 11
133.6049674338007
 21
861.9220373477576
 31
0.0
  0
SOLID
  5
325
330
321
100
AcDbEntity
  8
1
 62
     2
100
AcDbTrace
 10
42.10496743380063
 20
863.8828210893136
 30
0.0
 11
42.10496743380063
 21
862.9612536062017
 31
0.0
 12
38.60496743380063
 22
863.4220373477576
 32
0.0
 13
38.60496743380063
 23
863.4220373477576
 33
0.0
  0
SOLID
  5
326
330
321
100
AcDbEntity
  8
1
 62
     2
100
AcDbTrace
 10
130.1049674338007
 20
862.9612536062017
 30
0.0
 11
130.1049674338007
 21
863.8828210893136
 31
0.0
 12
133.6049674338007
 22
863.4220373477576
 32
0.0
 13
133.6049674338007
 23
863.4220373477576
 33
0.0
  0
MTEXT
  5
327
330
321
100
AcDbEntity
  8
1
 62
     3
100
AcDbMText
 10
84.96037021923229
 20
864.9220373477576
 30
0.0
 40
3.5
 41
0.0
 71
     7
 72
     1
  1
95
  7
CONVERTER_11
 11
0.9999999999970619
 21
2.424068405545306E-6
 31
0.0
 73
     1
 44
0.60024009603842
  0
ENDBLK
  5
329
330
321
100
AcDbEntity
  8
0
100
AcDbBlockEnd
  0
BLOCK
  5
333
330
32C
100
AcDbEntity
  8
0
100
AcDbBlockBegin
  2
*D22
 70
     1
 10
0.0
 20
0.0
 30
0.0
  3
*D22
  1

  0
LINE
  5
32D
330
32C
100
AcDbEntity
  8
1
  6
Continuous
 62
     2
100
AcDbLine
 10
21.10705166651197
 20
903.087804282193
 30
0.0
 11
21.10705166651197
 21
942.0678042654351
 31
0.0
  0
LINE
  5
32E
330
32C
100
AcDbEntity
  8
1
  6
Continuous
 62
     2
100
AcDbLine
 10
98.75001589306603
 20
903.087804282193
 30
0.0
 11
19.60705166651197
 21
903.087804282193
 31
0.0
  0
LINE
  5
32F
330
32C
100
AcDbEntity
  8
1
  6
Continuous
 62
     2
100
AcDbLine
 10
56.60496743380068
 20
942.0678042654351
 30
0.0
 11
19.60705166651197
 21
942.0678042654351
 31
0.0
  0
SOLID
  5
330
330
32C
100
AcDbEntity
  8
1
 62
     2
100
AcDbTrace
 10
20.64626792495608
 20
906.587804282193
 30
0.0
 11
21.56783540806786
 21
906.587804282193
 31
0.0
 12
21.10705166651197
 22
903.087804282193
 32
0.0
 13
21.10705166651197
 23
903.087804282193
 33
0.0
  0
SOLID
  5
331
330
32C
100
AcDbEntity
  8
1
 62
     2
100
AcDbTrace
 10
21.56783540806785
 20
938.5678042654351
 30
0.0
 11
20.64626792495608
 21
938.5678042654351
 31
0.0
 12
21.10705166651197
 22
942.0678042654351
 32
0.0
 13
21.10705166651197
 23
942.0678042654351
 33
0.0
  0
MTEXT
  5
332
330
32C
100
AcDbEntity
  8
1
 62
     3
100
AcDbMText
 10
19.25705166651197
 20
917.4011199428769
 30
0.0
 40
3.5
 41
0.0
 71
     7
 72
     1
  1
38,98
  7
CONVERTER_11
 11
0.0
 21
1.0
 31
0.0
 73
     1
 44
0.60024009603842
  0
ENDBLK
  5
334
330
32C
100
AcDbEntity
  8
0
100
AcDbBlockEnd
  0
BLOCK
  5
33E
330
337
100
AcDbEntity
  8
0
100
AcDbBlockBegin
  2
*D23
 70
     1
 10
0.0
 20
0.0
 30
0.0
  3
*D23
  1

  0
LINE
  5
338
330
337
100
AcDbEntity
  8
1
  6
Continuous
 62
     2
100
AcDbLine
 10
88.98040065096596
 20
871.115326717802
 30
0.0
 11
133.6049674338007
 21
871.115326717802
 31
0.0
  0
LINE
  5
339
330
337
100
AcDbEntity
  8
1
  6
Continuous
 62
     2
100
AcDbLine
 10
88.98040065096596
 20
898.424628531812
 30
0.0
 11
88.98040065096596
 21
869.615326717802
 31
0.0
  0
LINE
  5
33A
330
337
100
AcDbEntity
  8
1
  6
Continuous
 62
     2
100
AcDbLine
 10
133.6049674338007
 20
930.3692984938946
 30
0.0
 11
133.6049674338007
 21
869.615326717802
 31
0.0
  0
SOLID
  5
33B
330
337
100
AcDbEntity
  8
1
 62
     2
100
AcDbTrace
 10
92.48040065096596
 20
871.5761104593579
 30
0.0
 11
92.48040065096596
 21
870.654542976246
 31
0.0
 12
88.98040065096596
 22
871.115326717802
 32
0.0
 13
88.98040065096596
 23
871.115326717802
 33
0.0
  0
SOLID
  5
33C
330
337
100
AcDbEntity
  8
1
 62
     2
100
AcDbTrace
 10
130.1049674338007
 20
870.654542976246
 30
0.0
 11
130.1049674338007
 21
871.5761104593579
 31
0.0
 12
133.6049674338007
 22
871.115326717802
 32
0.0
 13
133.6049674338007
 23
871.115326717802
 33
0.0
  0
MTEXT
  5
33D
330
337
100
AcDbEntity
  8
1
 62
     3
100
AcDbMText
 10
104.860717852513
 20
872.9653267178019
 30
0.0
 40
3.5
 41
0.0
 71
     7
 72
     1
  1
44,62
  7
CONVERTER_11
 11
0.9999999999970619
 21
2.424068405545306E-6
 31
0.0
 73
     1
 44
0.60024009603842
  0
ENDBLK
  5
33F
330
337
100
AcDbEntity
  8
0
100
AcDbBlockEnd
  0
BLOCK
  5
349
330
342
100
AcDbEntity
  8
0
100
AcDbBlockBegin
  2
*D24
 70
     1
 10
0.0
 20
0.0
 30
0.0
  3
*D24
  1

  0
LINE
  5
343
330
342
100
AcDbEntity
  8
1
  6
Continuous
 62
     2
100
AcDbLine
 10
12.4891976884836
 20
895.8378042821929
 30
0.0
 11
12.4891976884836
 21
942.0678042654351
 31
0.0
  0
LINE
  5
344
330
342
100
AcDbEntity
  8
1
  6
Continuous
 62
     2
100
AcDbLine
 10
71.40001589306607
 20
895.8378042821929
 30
0.0
 11
10.9891976884836
 21
895.8378042821929
 31
0.0
  0
LINE
  5
345
330
342
100
AcDbEntity
  8
1
  6
Continuous
 62
     2
100
AcDbLine
 10
56.60496743380068
 20
942.0678042654351
 30
0.0
 11
10.9891976884836
 21
942.0678042654351
 31
0.0
  0
SOLID
  5
346
330
342
100
AcDbEntity
  8
1
 62
     2
100
AcDbTrace
 10
12.02841394692771
 20
899.3378042821929
 30
0.0
 11
12.94998143003949
 21
899.3378042821929
 31
0.0
 12
12.4891976884836
 22
895.8378042821929
 32
0.0
 13
12.4891976884836
 23
895.8378042821929
 33
0.0
  0
SOLID
  5
347
330
342
100
AcDbEntity
  8
1
 62
     2
100
AcDbTrace
 10
12.94998143003948
 20
938.5678042654351
 30
0.0
 11
12.02841394692771
 21
938.5678042654351
 31
0.0
 12
12.4891976884836
 22
942.0678042654351
 32
0.0
 13
12.4891976884836
 23
942.0678042654351
 33
0.0
  0
MTEXT
  5
348
330
342
100
AcDbEntity
  8
1
 62
     3
100
AcDbMText
 10
10.6391976884836
 20
912.9216023983009
 30
0.0
 40
3.5
 41
0.0
 71
     7
 72
     1
  1
46,23
  7
CONVERTER_11
 11
0.0
 21
1.0
 31
0.0
 73
     1
 44
0.60024009603842
  0
ENDBLK
  5
34A
330
342
100
AcDbEntity
  8
0
100
AcDbBlockEnd
  0
ENDSEC
  0
SECTION
  2
ENTITIES
  0
INSERT
  5
86
330
1F
100
AcDbEntity
  8
1
100
AcDbBlockReference
  2
1
 10
0.0
 20
0.0
 30
0.0
  0
ENDSEC
  0
SECTION
  2
OBJECTS
  0
DICTIONARY
  5
C
330
0
100
AcDbDictionary
281
     1
  3
ACAD_GROUP
350
D
  3
ACAD_LAYOUT
350
1A
  3
ACAD_MATERIAL
350
3B
  3
ACAD_MLEADERSTYLE
350
4C0
  3
ACAD_MLINESTYLE
350
17
  3
ACAD_PLOTSETTINGS
350
19
  3
ACAD_PLOTSTYLENAME
350
E
  3
ACAD_TABLESTYLE
350
4BF
  3
ACAD_VISUALSTYLE
350
2A
  0
DICTIONARY
  5
D
102
{ACAD_REACTORS
330
C
102
}
330
C
100
AcDbDictionary
281
     1
  0
DICTIONARY
  5
1A
102
{ACAD_REACTORS
330
C
102
}
330
C
100
AcDbDictionary
281
     1
  3
Layout1
350
1E
  3
Layout2
350
26
  3
Model
350
22
  0
DICTIONARY
  5
3B
102
{ACAD_REACTORS
330
C
102
}
330
C
100
AcDbDictionary
281
     1
  3
ByBlock
350
3D
  3
ByLayer
350
3C
  3
Global
350
3E
  0
DICTIONARY
  5
4C0
102
{ACAD_REACTORS
330
C
102
}
330
C
100
AcDbDictionary
281
     1
  0
DICTIONARY
  5
17
102
{ACAD_REACTORS
330
C
102
}
330
C
100
AcDbDictionary
281
     1
  3
Standard
350
18
  0
DICTIONARY
  5
19
102
{ACAD_REACTORS
330
C
102
}
330
C
100
AcDbDictionary
281
     1
  0
ACDBDICTIONARYWDFLT
  5
E
102
{ACAD_REACTORS
330
C
102
}
330
C
100
AcDbDictionary
281
     1
  3
Normal
350
F
100
AcDbDictionaryWithDefault
340
F
  0
DICTIONARY
  5
4BF
102
{ACAD_REACTORS
330
C
102
}
330
C
100
AcDbDictionary
281
     1
  0
DICTIONARY
  5
2A
102
{ACAD_REACTORS
330
C
102
}
330
C
100
AcDbDictionary
281
     1
  3
2dWireframe
350
2F
  3
3D Hidden
350
31
  3
3dWireframe
350
30
  3
Basic
350
32
  3
Brighten
350
36
  3
ColorChange
350
3A
  3
Conceptual
350
34
  3
Dim
350
35
  3
Facepattern
350
39
  3
Flat
350
2B
  3
FlatWithEdges
350
2C
  3
Gouraud
350
2D
  3
GouraudWithEdges
350
2E
  3
Linepattern
350
38
  3
Realistic
350
33
  3
Thicken
350
37
  0
LAYOUT
  5
1E
102
{ACAD_REACTORS
330
1A
102
}
330
1A
100
AcDbPlotSettings
  1

  2
none_device
  4

  6

 40
0.0
 41
0.0
 42
0.0
 43
0.0
 44
0.0
 45
0.0
 46
0.0
 47
0.0
 48
0.0
 49
0.0
140
0.0
141
0.0
142
1.0
143
1.0
 70
   688
 72
     0
 73
     0
 74
     5
  7

 75
    16
 76
     0
 77
     2
 78
   300
147
1.0
148
0.0
149
0.0
100
AcDbLayout
  1
Layout1
 70
     1
 71
     1
 10
0.0
 20
0.0
 11
12.0
 21
9.0
 12
0.0
 22
0.0
 32
0.0
 14
1.00000000000000E+20
 24
1.00000000000000E+20
 34
1.00000000000000E+20
 15
-1.00000000000000E+20
 25
-1.00000000000000E+20
 35
-1.00000000000000E+20
146
0.0
 13
0.0
 23
0.0
 33
0.0
 16
1.0
 26
0.0
 36
0.0
 17
0.0
 27
1.0
 37
0.0
 76
     0
330
1B
  0
LAYOUT
  5
26
102
{ACAD_REACTORS
330
1A
102
}
330
1A
100
AcDbPlotSettings
  1

  2
none_device
  4

  6

 40
0.0
 41
0.0
 42
0.0
 43
0.0
 44
0.0
 45
0.0
 46
0.0
 47
0.0
 48
0.0
 49
0.0
140
0.0
141
0.0
142
1.0
143
1.0
 70
   688
 72
     0
 73
     0
 74
     5
  7

 75
    16
 76
     0
 77
     2
 78
   300
147
1.0
148
0.0
149
0.0
100
AcDbLayout
  1
Layout2
 70
     1
 71
     2
 10
0.0
 20
0.0
 11
0.0
 21
0.0
 12
0.0
 22
0.0
 32
0.0
 14
0.0
 24
0.0
 34
0.0
 15
0.0
 25
0.0
 35
0.0
146
0.0
 13
0.0
 23
0.0
 33
0.0
 16
1.0
 26
0.0
 36
0.0
 17
0.0
 27
1.0
 37
0.0
 76
     0
330
23
  0
LAYOUT
  5
22
102
{ACAD_REACTORS
330
1A
102
}
330
1A
100
AcDbPlotSettings
  1

  2
none_device
  4

  6

 40
0.0
 41
0.0
 42
0.0
 43
0.0
 44
0.0
 45
0.0
 46
0.0
 47
0.0
 48
0.0
 49
0.0
140
0.0
141
0.0
142
1.0
143
1.0
 70
  1712
 72
     0
 73
     0
 74
     0
  7

 75
     0
 76
     0
 77
     2
 78
   300
147
1.0
148
0.0
149
0.0
100
AcDbLayout
  1
Model
 70
     1
 71
     0
 10
0.0
 20
0.0
 11
12.0
 21
9.0
 12
0.0
 22
0.0
 32
0.0
 14
-97.60000073724768
 24
687.9648332861908
 34
0.0
 15
322.3999992627507
 25
984.9648332861908
 35
0.0
146
0.0
 13
0.0
 23
0.0
 33
0.0
 16
1.0
 26
0.0
 36
0.0
 17
0.0
 27
1.0
 37
0.0
 76
     0
330
1F
331
29
  0
MATERIAL
  5
3D
102
{ACAD_REACTORS
330
3B
102
}
102
{ACAD_XDICTIONARY
360
4BB
102
}
330
3B
100
AcDbMaterial
  1
ByBlock
  0
MATERIAL
  5
3C
102
{ACAD_REACTORS
330
3B
102
}
102
{ACAD_XDICTIONARY
360
4B9
102
}
330
3B
100
AcDbMaterial
  1
ByLayer
  0
MATERIAL
  5
3E
102
{ACAD_REACTORS
330
3B
102
}
102
{ACAD_XDICTIONARY
360
4BD
102
}
330
3B
100
AcDbMaterial
  1
Global
  0
MLINESTYLE
  5
18
102
{ACAD_REACTORS
330
17
102
}
330
17
100
AcDbMlineStyle
  2
Standard
 70
     0
  3

 62
   256
 51
90.0
 52
90.0
 71
     2
 49
0.5
 62
   256
  6
BYLAYER
 49
-0.5
 62
   256
  6
BYLAYER
  0
ACDBPLACEHOLDER
  5
F
102
{ACAD_REACTORS
330
E
102
}
330
E
  0
VISUALSTYLE
  5
2F
102
{ACAD_REACTORS
330
2A
102
}
102
{ACAD_XDICTIONARY
360
4A1
102
}
330
2A
100
AcDbVisualStyle
  2
2dWireframe
 70
     4
 71
     0
 72
     2
 73
     0
 90
        0
 40
-0.6
 41
-30.0
 62
     5
 63
     7
421
 16777215
 74
     1
 91
        4
 64
     7
 65
   257
 75
     1
175
     1
 42
1.0
 92
        0
 66
   257
 43
1.0
 76
     1
 77
     6
 78
     2
 67
     7
 79
     5
170
     0
171
     0
290
     0
174
     0
 93
        1
 44
0.0
173
     0
291
     0
 45
0.0
1001
ACAD
1000
AcDbSavedByObjectVersion
1070
     0
  0
VISUALSTYLE
  5
31
102
{ACAD_REACTORS
330
2A
102
}
102
{ACAD_XDICTIONARY
360
4A5
102
}
330
2A
100
AcDbVisualStyle
  2
3D Hidden
 70
     6
 71
     1
 72
     2
 73
     2
 90
        0
 40
-0.6
 41
-30.0
 62
     5
 63
     7
421
 16777215
 74
     2
 91
        2
 64
     7
 65
   257
 75
     2
175
     1
 42
40.0
 92
        0
 66
   257
 43
1.0
 76
     1
 77
     6
 78
     2
 67
     7
 79
     3
170
     0
171
     0
290
     0
174
     0
 93
        1
 44
0.0
173
     0
291
     0
 45
0.0
1001
ACAD
1000
AcDbSavedByObjectVersion
1070
     0
  0
VISUALSTYLE
  5
30
102
{ACAD_REACTORS
330
2A
102
}
102
{ACAD_XDICTIONARY
360
4A3
102
}
330
2A
100
AcDbVisualStyle
  2
3dWireframe
 70
     5
 71
     0
 72
     2
 73
     0
 90
        0
 40
-0.6
 41
-30.0
 62
     5
 63
     7
421
 16777215
 74
     1
 91
        4
 64
     7
 65
   257
 75
     1
175
     1
 42
1.0
 92
        0
 66
   257
 43
1.0
 76
     1
 77
     6
 78
     2
 67
     7
 79
     5
170
     0
171
     0
290
     0
174
     0
 93
        1
 44
0.0
173
     0
291
     0
 45
0.0
1001
ACAD
1000
AcDbSavedByObjectVersion
1070
     0
  0
VISUALSTYLE
  5
32
102
{ACAD_REACTORS
330
2A
102
}
102
{ACAD_XDICTIONARY
360
4A7
102
}
330
2A
100
AcDbVisualStyle
  2
Basic
 70
     7
 71
     1
 72
     0
 73
     1
 90
        0
 40
-0.6
 41
-30.0
 62
     5
 63
     7
421
 16777215
 74
     0
 91
        4
 64
     7
 65
   257
 75
     1
175
     1
 42
1.0
 92
        8
 66
     7
 43
1.0
 76
     1
 77
     6
 78
     2
 67
     7
 79
     5
170
     0
171
     0
290
     0
174
     0
 93
        1
 44
0.0
173
     0
291
     1
 45
0.0
1001
ACAD
1000
AcDbSavedByObjectVersion
1070
     0
  0
VISUALSTYLE
  5
36
102
{ACAD_REACTORS
330
2A
102
}
102
{ACAD_XDICTIONARY
360
4AF
102
}
330
2A
100
AcDbVisualStyle
  2
Brighten
 70
    12
 71
     2
 72
     2
 73
     0
 90
        0
 40
-0.6
 41
-30.0
 62
     5
 63
     7
421
 16777215
 74
     1
 91
        4
 64
     7
 65
   257
 75
     1
175
     1
 42
1.0
 92
        8
 66
     7
 43
1.0
 76
     1
 77
     6
 78
     2
 67
     7
 79
     5
170
     0
171
     0
290
     0
174
     0
 93
        1
 44
50.0
173
     0
291
     1
 45
0.0
1001
ACAD
1000
AcDbSavedByObjectVersion
1070
     0
  0
VISUALSTYLE
  5
3A
102
{ACAD_REACTORS
330
2A
102
}
102
{ACAD_XDICTIONARY
360
4B7
102
}
330
2A
100
AcDbVisualStyle
  2
ColorChange
 70
    16
 71
     2
 72
     2
 73
     3
 90
        0
 40
-0.6
 41
-30.0
 62
     5
 63
     8
421
  8421504
 74
     1
 91
        4
 64
     7
 65
   257
 75
     1
175
     1
 42
1.0
 92
        8
 66
     8
424
  8421504
 43
1.0
 76
     1
 77
     6
 78
     2
 67
     7
 79
     5
170
     0
171
     0
290
     0
174
     0
 93
        1
 44
0.0
173
     0
291
     1
 45
0.0
1001
ACAD
1000
AcDbSavedByObjectVersion
1070
     0
  0
VISUALSTYLE
  5
34
102
{ACAD_REACTORS
330
2A
102
}
102
{ACAD_XDICTIONARY
360
4AB
102
}
330
2A
100
AcDbVisualStyle
  2
Conceptual
 70
     9
 71
     3
 72
     2
 73
     0
 90
        0
 40
-0.6
 41
-30.0
 62
     5
 63
     7
421
 16777215
 74
     2
 91
        2
 64
     7
 65
   257
 75
     1
175
     1
 42
40.0
 92
        8
 66
     7
 43
1.0
 76
     1
 77
     6
 78
     2
 67
     7
 79
     3
170
     0
171
     0
290
     0
174
     0
 93
        1
 44
0.0
173
     0
291
     0
 45
0.0
1001
ACAD
1000
AcDbSavedByObjectVersion
1070
     0
  0
VISUALSTYLE
  5
35
102
{ACAD_REACTORS
330
2A
102
}
102
{ACAD_XDICTIONARY
360
4AD
102
}
330
2A
100
AcDbVisualStyle
  2
Dim
 70
    11
 71
     2
 72
     2
 73
     0
 90
        0
 40
-0.6
 41
-30.0
 62
     5
 63
     7
421
 16777215
 74
     1
 91
        4
 64
     7
 65
   257
 75
     1
175
     1
 42
1.0
 92
        8
 66
     7
 43
1.0
 76
     1
 77
     6
 78
     2
 67
     7
 79
     5
170
     0
171
     0
290
     0
174
     0
 93
        1
 44
-50.0
173
     0
291
     1
 45
0.0
1001
ACAD
1000
AcDbSavedByObjectVersion
1070
     0
  0
VISUALSTYLE
  5
39
102
{ACAD_REACTORS
330
2A
102
}
102
{ACAD_XDICTIONARY
360
4B5
102
}
330
2A
100
AcDbVisualStyle
  2
Facepattern
 70
    15
 71
     2
 72
     2
 73
     0
 90
        0
 40
-0.6
 41
-30.0
 62
     5
 63
     7
421
 16777215
 74
     1
 91
        4
 64
     7
 65
   257
 75
     1
175
     1
 42
1.0
 92
        8
 66
     7
 43
1.0
 76
     1
 77
     6
 78
     2
 67
     7
 79
     5
170
     0
171
     0
290
     0
174
     0
 93
        1
 44
0.0
173
     0
291
     1
 45
0.0
1001
ACAD
1000
AcDbSavedByObjectVersion
1070
     0
  0
VISUALSTYLE
  5
2B
102
{ACAD_REACTORS
330
2A
102
}
102
{ACAD_XDICTIONARY
360
499
102
}
330
2A
100
AcDbVisualStyle
  2
Flat
 70
     0
 71
     2
 72
     1
 73
     1
 90
        2
 40
-0.6
 41
30.0
 62
     5
 63
     7
421
 16777215
 74
     0
 91
        4
 64
     7
 65
   257
 75
     1
175
     1
 42
1.0
 92
        8
 66
     7
 43
1.0
 76
     1
 77
     6
 78
     2
 67
     7
 79
     5
170
     0
171
     0
290
     0
174
     0
 93
       13
 44
0.0
173
     0
291
     1
 45
0.0
1001
ACAD
1000
AcDbSavedByObjectVersion
1070
     0
  0
VISUALSTYLE
  5
2C
102
{ACAD_REACTORS
330
2A
102
}
102
{ACAD_XDICTIONARY
360
49B
102
}
330
2A
100
AcDbVisualStyle
  2
FlatWithEdges
 70
     1
 71
     2
 72
     1
 73
     1
 90
        2
 40
-0.6
 41
30.0
 62
     5
 63
     7
421
 16777215
 74
     1
 91
        4
 64
     7
 65
   257
 75
     1
175
     1
 42
1.0
 92
        0
 66
   257
 43
1.0
 76
     1
 77
     6
 78
     2
 67
     7
 79
     5
170
     0
171
     0
290
     0
174
     0
 93
       13
 44
0.0
173
     0
291
     1
 45
0.0
1001
ACAD
1000
AcDbSavedByObjectVersion
1070
     0
  0
VISUALSTYLE
  5
2D
102
{ACAD_REACTORS
330
2A
102
}
102
{ACAD_XDICTIONARY
360
49D
102
}
330
2A
100
AcDbVisualStyle
  2
Gouraud
 70
     2
 71
     2
 72
     2
 73
     1
 90
        2
 40
-0.6
 41
30.0
 62
     5
 63
     7
421
 16777215
 74
     0
 91
        4
 64
     7
 65
   257
 75
     1
175
     1
 42
1.0
 92
        0
 66
     7
 43
1.0
 76
     1
 77
     6
 78
     2
 67
     7
 79
     5
170
     0
171
     0
290
     0
174
     0
 93
       13
 44
0.0
173
     0
291
     1
 45
0.0
1001
ACAD
1000
AcDbSavedByObjectVersion
1070
     0
  0
VISUALSTYLE
  5
2E
102
{ACAD_REACTORS
330
2A
102
}
102
{ACAD_XDICTIONARY
360
49F
102
}
330
2A
100
AcDbVisualStyle
  2
GouraudWithEdges
 70
     3
 71
     2
 72
     2
 73
     1
 90
        2
 40
-0.6
 41
30.0
 62
     5
 63
     7
421
 16777215
 74
     1
 91
        4
 64
     7
 65
   257
 75
     1
175
     1
 42
1.0
 92
        0
 66
   257
 43
1.0
 76
     1
 77
     6
 78
     2
 67
     7
 79
     5
170
     0
171
     0
290
     0
174
     0
 93
       13
 44
0.0
173
     0
291
     1
 45
0.0
1001
ACAD
1000
AcDbSavedByObjectVersion
1070
     0
  0
VISUALSTYLE
  5
38
102
{ACAD_REACTORS
330
2A
102
}
102
{ACAD_XDICTIONARY
360
4B3
102
}
330
2A
100
AcDbVisualStyle
  2
Linepattern
 70
    14
 71
     2
 72
     2
 73
     0
 90
        0
 40
-0.6
 41
-30.0
 62
     5
 63
     7
421
 16777215
 74
     1
 91
        4
 64
     7
 65
   257
 75
     7
175
     7
 42
1.0
 92
        8
 66
     7
 43
1.0
 76
     1
 77
     6
 78
     2
 67
     7
 79
     5
170
     0
171
     0
290
     0
174
     0
 93
        1
 44
0.0
173
     0
291
     1
 45
0.0
1001
ACAD
1000
AcDbSavedByObjectVersion
1070
     0
  0
VISUALSTYLE
  5
33
102
{ACAD_REACTORS
330
2A
102
}
102
{ACAD_XDICTIONARY
360
4A9
102
}
330
2A
100
AcDbVisualStyle
  2
Realistic
 70
     8
 71
     2
 72
     2
 73
     0
 90
        0
 40
-0.6
 41
-30.0
 62
     5
 63
     7
421
 16777215
 74
     1
 91
        0
 64
     7
 65
   257
 75
     1
175
     1
 42
1.0
 92
        8
 66
     8
424
  7895160
 43
1.0
 76
     1
 77
     6
 78
     2
 67
     7
 79
     5
170
     0
171
     0
290
     0
174
     0
 93
       13
 44
0.0
173
     0
291
     0
 45
0.0
1001
ACAD
1000
AcDbSavedByObjectVersion
1070
     0
  0
VISUALSTYLE
  5
37
102
{ACAD_REACTORS
330
2A
102
}
102
{ACAD_XDICTIONARY
360
4B1
102
}
330
2A
100
AcDbVisualStyle
  2
Thicken
 70
    13
 71
     2
 72
     2
 73
     0
 90
        0
 40
-0.6
 41
-30.0
 62
     5
 63
     7
421
 16777215
 74
     1
 91
        4
 64
     7
 65
   257
 75
     1
175
     1
 42
1.0
 92
       12
 66
     7
 43
1.0
 76
     1
 77
     6
 78
     2
 67
     7
 79
     5
170
     0
171
     0
290
     0
174
     0
 93
        1
 44
0.0
173
     0
291
     1
 45
0.0
1001
ACAD
1000
AcDbSavedByObjectVersion
1070
     0
  0
DICTIONARY
  5
4BB
330
3D
100
AcDbDictionary
280
     1
281
     1
  3
ACAD_XREC_ROUNDTRIP
360
4BC
  0
DICTIONARY
  5
4B9
330
3C
100
AcDbDictionary
280
     1
281
     1
  3
ACAD_XREC_ROUNDTRIP
360
4BA
  0
DICTIONARY
  5
4BD
330
3E
100
AcDbDictionary
280
     1
281
     1
  3
ACAD_XREC_ROUNDTRIP
360
4BE
  0
DICTIONARY
  5
4A1
330
2F
100
AcDbDictionary
280
     1
281
     1
  3
ACAD_XREC_ROUNDTRIP
360
4A2
  0
DICTIONARY
  5
4A5
330
31
100
AcDbDictionary
280
     1
281
     1
  3
ACAD_XREC_ROUNDTRIP
360
4A6
  0
DICTIONARY
  5
4A3
330
30
100
AcDbDictionary
280
     1
281
     1
  3
ACAD_XREC_ROUNDTRIP
360
4A4
  0
DICTIONARY
  5
4A7
330
32
100
AcDbDictionary
280
     1
281
     1
  3
ACAD_XREC_ROUNDTRIP
360
4A8
  0
DICTIONARY
  5
4AF
330
36
100
AcDbDictionary
280
     1
281
     1
  3
ACAD_XREC_ROUNDTRIP
360
4B0
  0
DICTIONARY
  5
4B7
330
3A
100
AcDbDictionary
280
     1
281
     1
  3
ACAD_XREC_ROUNDTRIP
360
4B8
  0
DICTIONARY
  5
4AB
330
34
100
AcDbDictionary
280
     1
281
     1
  3
ACAD_XREC_ROUNDTRIP
360
4AC
  0
DICTIONARY
  5
4AD
330
35
100
AcDbDictionary
280
     1
281
     1
  3
ACAD_XREC_ROUNDTRIP
360
4AE
  0
DICTIONARY
  5
4B5
330
39
100
AcDbDictionary
280
     1
281
     1
  3
ACAD_XREC_ROUNDTRIP
360
4B6
  0
DICTIONARY
  5
499
330
2B
100
AcDbDictionary
280
     1
281
     1
  3
ACAD_XREC_ROUNDTRIP
360
49A
  0
DICTIONARY
  5
49B
330
2C
100
AcDbDictionary
280
     1
281
     1
  3
ACAD_XREC_ROUNDTRIP
360
49C
  0
DICTIONARY
  5
49D
330
2D
100
AcDbDictionary
280
     1
281
     1
  3
ACAD_XREC_ROUNDTRIP
360
49E
  0
DICTIONARY
  5
49F
330
2E
100
AcDbDictionary
280
     1
281
     1
  3
ACAD_XREC_ROUNDTRIP
360
4A0
  0
DICTIONARY
  5
4B3
330
38
100
AcDbDictionary
280
     1
281
     1
  3
ACAD_XREC_ROUNDTRIP
360
4B4
  0
DICTIONARY
  5
4A9
330
33
100
AcDbDictionary
280
     1
281
     1
  3
ACAD_XREC_ROUNDTRIP
360
4AA
  0
DICTIONARY
  5
4B1
330
37
100
AcDbDictionary
280
     1
281
     1
  3
ACAD_XREC_ROUNDTRIP
360
4B2
  0
XRECORD
  5
4BC
102
{ACAD_REACTORS
330
4BB
102
}
330
4BB
100
AcDbXrecord
280
     1
102
MATERIAL
148
0.0
149
0.0
149
0.0
 93
        0
 94
      127
282
     0
 72
     1
 77
     1
171
     1
175
     1
179
     1
273
     0
  0
XRECORD
  5
4BA
102
{ACAD_REACTORS
330
4B9
102
}
330
4B9
100
AcDbXrecord
280
     1
102
MATERIAL
148
0.0
149
0.0
149
0.0
 93
        0
 94
      127
282
     0
 72
     1
 77
     1
171
     1
175
     1
179
     1
273
     0
  0
XRECORD
  5
4BE
102
{ACAD_REACTORS
330
4BD
102
}
330
4BD
100
AcDbXrecord
280
     1
102
MATERIAL
148
0.0
149
0.0
149
0.0
 93
        0
 94
      127
282
     0
 72
     1
 77
     1
171
     1
175
     1
179
     1
273
     0
  0
XRECORD
  5
4A2
102
{ACAD_REACTORS
330
4A1
102
}
330
4A1
100
AcDbXrecord
280
     1
102
RTVSPropertyOp0
 70
     1
102
RTVSPropertyOp1
 70
     1
102
RTVSPropertyOp2
 70
     1
102
RTVSPropertyOp3
 70
     1
102
RTVSPropertyOp4
 70
     1
102
RTVSPropertyOp5
 70
     1
102
RTVSPropertyOp6
 70
     1
102
RTVSPropertyOp7
 70
     1
102
RTVSPropertyOp8
 70
     1
102
RTVSPropertyOp9
 70
     1
102
RTVSPropertyOp10
 70
     1
102
RTVSPropertyOp11
 70
     1
102
RTVSPropertyOp12
 70
     1
102
RTVSPropertyOp13
 70
     1
102
RTVSPropertyOp14
 70
     1
102
RTVSPropertyOp15
 70
     1
102
RTVSPropertyOp16
 70
     1
102
RTVSPropertyOp17
 70
     1
102
RTVSPropertyOp18
 70
     1
102
RTVSPropertyOp19
 70
     1
102
RTVSPropertyOp20
 70
     1
102
RTVSPropertyOp21
 70
     1
102
RTVSPropertyOp22
 70
     1
102
RTVSPropertyOp23
 70
     1
102
RTVSPropertyOp24
 70
     1
102
RTVSPropertyOp25
 70
     1
102
RTVSPropertyOp26
 70
     1
102
RTVSPropertyOp27
 70
     1
102
RTVSPropertyOp28
 70
     1
102
RTVSPropertyOp29
 70
     1
102
RTVSPropertyOp30
 70
     1
102
RTVSPropertyOp31
 70
     1
102
RTVSPropertyOp32
 70
     1
  0
XRECORD
  5
4A6
102
{ACAD_REACTORS
330
4A5
102
}
330
4A5
100
AcDbXrecord
280
     1
102
RTVSPropertyOp0
 70
     1
102
RTVSPropertyOp1
 70
     1
102
RTVSPropertyOp2
 70
     1
102
RTVSPropertyOp3
 70
     1
102
RTVSPropertyOp4
 70
     1
102
RTVSPropertyOp5
 70
     1
102
RTVSPropertyOp6
 70
     1
102
RTVSPropertyOp7
 70
     1
102
RTVSPropertyOp8
 70
     1
102
RTVSPropertyOp9
 70
     1
102
RTVSPropertyOp10
 70
     1
102
RTVSPropertyOp11
 70
     1
102
RTVSPropertyOp12
 70
     1
102
RTVSPropertyOp13
 70
     1
102
RTVSPropertyOp14
 70
     1
102
RTVSPropertyOp15
 70
     1
102
RTVSPropertyOp16
 70
     1
102
RTVSPropertyOp17
 70
     1
102
RTVSPropertyOp18
 70
     1
102
RTVSPropertyOp19
 70
     1
102
RTVSPropertyOp20
 70
     1
102
RTVSPropertyOp21
 70
     1
102
RTVSPropertyOp22
 70
     1
102
RTVSPropertyOp23
 70
     1
102
RTVSPropertyOp24
 70
     1
102
RTVSPropertyOp25
 70
     1
102
RTVSPropertyOp26
 70
     1
102
RTVSPropertyOp27
 70
     1
102
RTVSPropertyOp28
 70
     1
102
RTVSPropertyOp29
 70
     1
102
RTVSPropertyOp30
 70
     1
102
RTVSPropertyOp31
 70
     1
102
RTVSPropertyOp32
 70
     1
  0
XRECORD
  5
4A4
102
{ACAD_REACTORS
330
4A3
102
}
330
4A3
100
AcDbXrecord
280
     1
102
RTVSPropertyOp0
 70
     1
102
RTVSPropertyOp1
 70
     1
102
RTVSPropertyOp2
 70
     1
102
RTVSPropertyOp3
 70
     1
102
RTVSPropertyOp4
 70
     1
102
RTVSPropertyOp5
 70
     1
102
RTVSPropertyOp6
 70
     1
102
RTVSPropertyOp7
 70
     1
102
RTVSPropertyOp8
 70
     1
102
RTVSPropertyOp9
 70
     1
102
RTVSPropertyOp10
 70
     1
102
RTVSPropertyOp11
 70
     1
102
RTVSPropertyOp12
 70
     1
102
RTVSPropertyOp13
 70
     1
102
RTVSPropertyOp14
 70
     1
102
RTVSPropertyOp15
 70
     1
102
RTVSPropertyOp16
 70
     1
102
RTVSPropertyOp17
 70
     1
102
RTVSPropertyOp18
 70
     1
102
RTVSPropertyOp19
 70
     1
102
RTVSPropertyOp20
 70
     1
102
RTVSPropertyOp21
 70
     1
102
RTVSPropertyOp22
 70
     1
102
RTVSPropertyOp23
 70
     1
102
RTVSPropertyOp24
 70
     1
102
RTVSPropertyOp25
 70
     1
102
RTVSPropertyOp26
 70
     1
102
RTVSPropertyOp27
 70
     1
102
RTVSPropertyOp28
 70
     1
102
RTVSPropertyOp29
 70
     1
102
RTVSPropertyOp30
 70
     1
102
RTVSPropertyOp31
 70
     1
102
RTVSPropertyOp32
 70
     1
  0
XRECORD
  5
4A8
102
{ACAD_REACTORS
330
4A7
102
}
330
4A7
100
AcDbXrecord
280
     1
102
RTVSPropertyOp0
 70
     1
102
RTVSPropertyOp1
 70
     1
102
RTVSPropertyOp2
 70
     1
102
RTVSPropertyOp3
 70
     1
102
RTVSPropertyOp4
 70
     1
102
RTVSPropertyOp5
 70
     1
102
RTVSPropertyOp6
 70
     1
102
RTVSPropertyOp7
 70
     1
102
RTVSPropertyOp8
 70
     1
102
RTVSPropertyOp9
 70
     1
102
RTVSPropertyOp10
 70
     1
102
RTVSPropertyOp11
 70
     1
102
RTVSPropertyOp12
 70
     1
102
RTVSPropertyOp13
 70
     1
102
RTVSPropertyOp14
 70
     1
102
RTVSPropertyOp15
 70
     1
102
RTVSPropertyOp16
 70
     1
102
RTVSPropertyOp17
 70
     1
102
RTVSPropertyOp18
 70
     1
102
RTVSPropertyOp19
 70
     1
102
RTVSPropertyOp20
 70
     1
102
RTVSPropertyOp21
 70
     1
102
RTVSPropertyOp22
 70
     1
102
RTVSPropertyOp23
 70
     1
102
RTVSPropertyOp24
 70
     1
102
RTVSPropertyOp25
 70
     1
102
RTVSPropertyOp26
 70
     1
102
RTVSPropertyOp27
 70
     1
102
RTVSPropertyOp28
 70
     1
102
RTVSPropertyOp29
 70
     1
102
RTVSPropertyOp30
 70
     1
102
RTVSPropertyOp31
 70
     1
102
RTVSPropertyOp32
 70
     1
  0
XRECORD
  5
4B0
102
{ACAD_REACTORS
330
4AF
102
}
330
4AF
100
AcDbXrecord
280
     1
102
RTVSPropertyOp0
 70
     1
102
RTVSPropertyOp1
 70
     1
102
RTVSPropertyOp2
 70
     1
102
RTVSPropertyOp3
 70
     1
102
RTVSPropertyOp4
 70
     1
102
RTVSPropertyOp5
 70
     1
102
RTVSPropertyOp6
 70
     1
102
RTVSPropertyOp7
 70
     1
102
RTVSPropertyOp8
 70
     1
102
RTVSPropertyOp9
 70
     1
102
RTVSPropertyOp10
 70
     1
102
RTVSPropertyOp11
 70
     1
102
RTVSPropertyOp12
 70
     1
102
RTVSPropertyOp13
 70
     1
102
RTVSPropertyOp14
 70
     1
102
RTVSPropertyOp15
 70
     1
102
RTVSPropertyOp16
 70
     1
102
RTVSPropertyOp17
 70
     1
102
RTVSPropertyOp18
 70
     1
102
RTVSPropertyOp19
 70
     1
102
RTVSPropertyOp20
 70
     1
102
RTVSPropertyOp21
 70
     1
102
RTVSPropertyOp22
 70
     1
102
RTVSPropertyOp23
 70
     1
102
RTVSPropertyOp24
 70
     1
102
RTVSPropertyOp25
 70
     1
102
RTVSPropertyOp26
 70
     1
102
RTVSPropertyOp27
 70
     1
102
RTVSPropertyOp28
 70
     1
102
RTVSPropertyOp29
 70
     1
102
RTVSPropertyOp30
 70
     1
102
RTVSPropertyOp31
 70
     1
102
RTVSPropertyOp32
 70
     1
  0
XRECORD
  5
4B8
102
{ACAD_REACTORS
330
4B7
102
}
330
4B7
100
AcDbXrecord
280
     1
102
RTVSPropertyOp0
 70
     1
102
RTVSPropertyOp1
 70
     1
102
RTVSPropertyOp2
 70
     1
102
RTVSPropertyOp3
 70
     1
102
RTVSPropertyOp4
 70
     1
102
RTVSPropertyOp5
 70
     1
102
RTVSPropertyOp6
 70
     1
102
RTVSPropertyOp7
 70
     1
102
RTVSPropertyOp8
 70
     1
102
RTVSPropertyOp9
 70
     1
102
RTVSPropertyOp10
 70
     1
102
RTVSPropertyOp11
 70
     1
102
RTVSPropertyOp12
 70
     1
102
RTVSPropertyOp13
 70
     1
102
RTVSPropertyOp14
 70
     1
102
RTVSPropertyOp15
 70
     1
102
RTVSPropertyOp16
 70
     1
102
RTVSPropertyOp17
 70
     1
102
RTVSPropertyOp18
 70
     1
102
RTVSPropertyOp19
 70
     1
102
RTVSPropertyOp20
 70
     1
102
RTVSPropertyOp21
 70
     1
102
RTVSPropertyOp22
 70
     1
102
RTVSPropertyOp23
 70
     1
102
RTVSPropertyOp24
 70
     1
102
RTVSPropertyOp25
 70
     1
102
RTVSPropertyOp26
 70
     1
102
RTVSPropertyOp27
 70
     1
102
RTVSPropertyOp28
 70
     1
102
RTVSPropertyOp29
 70
     1
102
RTVSPropertyOp30
 70
     1
102
RTVSPropertyOp31
 70
     1
102
RTVSPropertyOp32
 70
     1
  0
XRECORD
  5
4AC
102
{ACAD_REACTORS
330
4AB
102
}
330
4AB
100
AcDbXrecord
280
     1
102
RTVSPropertyOp0
 70
     1
102
RTVSPropertyOp1
 70
     1
102
RTVSPropertyOp2
 70
     1
102
RTVSPropertyOp3
 70
     1
102
RTVSPropertyOp4
 70
     1
102
RTVSPropertyOp5
 70
     1
102
RTVSPropertyOp6
 70
     1
102
RTVSPropertyOp7
 70
     1
102
RTVSPropertyOp8
 70
     1
102
RTVSPropertyOp9
 70
     1
102
RTVSPropertyOp10
 70
     1
102
RTVSPropertyOp11
 70
     1
102
RTVSPropertyOp12
 70
     1
102
RTVSPropertyOp13
 70
     1
102
RTVSPropertyOp14
 70
     1
102
RTVSPropertyOp15
 70
     1
102
RTVSPropertyOp16
 70
     1
102
RTVSPropertyOp17
 70
     1
102
RTVSPropertyOp18
 70
     1
102
RTVSPropertyOp19
 70
     1
102
RTVSPropertyOp20
 70
     1
102
RTVSPropertyOp21
 70
     1
102
RTVSPropertyOp22
 70
     1
102
RTVSPropertyOp23
 70
     1
102
RTVSPropertyOp24
 70
     1
102
RTVSPropertyOp25
 70
     1
102
RTVSPropertyOp26
 70
     1
102
RTVSPropertyOp27
 70
     1
102
RTVSPropertyOp28
 70
     1
102
RTVSPropertyOp29
 70
     1
102
RTVSPropertyOp30
 70
     1
102
RTVSPropertyOp31
 70
     1
102
RTVSPropertyOp32
 70
     1
  0
XRECORD
  5
4AE
102
{ACAD_REACTORS
330
4AD
102
}
330
4AD
100
AcDbXrecord
280
     1
102
RTVSPropertyOp0
 70
     1
102
RTVSPropertyOp1
 70
     1
102
RTVSPropertyOp2
 70
     1
102
RTVSPropertyOp3
 70
     1
102
RTVSPropertyOp4
 70
     1
102
RTVSPropertyOp5
 70
     1
102
RTVSPropertyOp6
 70
     1
102
RTVSPropertyOp7
 70
     1
102
RTVSPropertyOp8
 70
     1
102
RTVSPropertyOp9
 70
     1
102
RTVSPropertyOp10
 70
     1
102
RTVSPropertyOp11
 70
     1
102
RTVSPropertyOp12
 70
     1
102
RTVSPropertyOp13
 70
     1
102
RTVSPropertyOp14
 70
     1
102
RTVSPropertyOp15
 70
     1
102
RTVSPropertyOp16
 70
     1
102
RTVSPropertyOp17
 70
     1
102
RTVSPropertyOp18
 70
     1
102
RTVSPropertyOp19
 70
     1
102
RTVSPropertyOp20
 70
     1
102
RTVSPropertyOp21
 70
     1
102
RTVSPropertyOp22
 70
     1
102
RTVSPropertyOp23
 70
     1
102
RTVSPropertyOp24
 70
     1
102
RTVSPropertyOp25
 70
     1
102
RTVSPropertyOp26
 70
     1
102
RTVSPropertyOp27
 70
     1
102
RTVSPropertyOp28
 70
     1
102
RTVSPropertyOp29
 70
     1
102
RTVSPropertyOp30
 70
     1
102
RTVSPropertyOp31
 70
     1
102
RTVSPropertyOp32
 70
     1
  0
XRECORD
  5
4B6
102
{ACAD_REACTORS
330
4B5
102
}
330
4B5
100
AcDbXrecord
280
     1
102
RTVSPropertyOp0
 70
     1
102
RTVSPropertyOp1
 70
     1
102
RTVSPropertyOp2
 70
     1
102
RTVSPropertyOp3
 70
     1
102
RTVSPropertyOp4
 70
     1
102
RTVSPropertyOp5
 70
     1
102
RTVSPropertyOp6
 70
     1
102
RTVSPropertyOp7
 70
     1
102
RTVSPropertyOp8
 70
     1
102
RTVSPropertyOp9
 70
     1
102
RTVSPropertyOp10
 70
     1
102
RTVSPropertyOp11
 70
     1
102
RTVSPropertyOp12
 70
     1
102
RTVSPropertyOp13
 70
     1
102
RTVSPropertyOp14
 70
     1
102
RTVSPropertyOp15
 70
     1
102
RTVSPropertyOp16
 70
     1
102
RTVSPropertyOp17
 70
     1
102
RTVSPropertyOp18
 70
     1
102
RTVSPropertyOp19
 70
     1
102
RTVSPropertyOp20
 70
     1
102
RTVSPropertyOp21
 70
     1
102
RTVSPropertyOp22
 70
     1
102
RTVSPropertyOp23
 70
     1
102
RTVSPropertyOp24
 70
     1
102
RTVSPropertyOp25
 70
     1
102
RTVSPropertyOp26
 70
     1
102
RTVSPropertyOp27
 70
     1
102
RTVSPropertyOp28
 70
     1
102
RTVSPropertyOp29
 70
     1
102
RTVSPropertyOp30
 70
     1
102
RTVSPropertyOp31
 70
     1
102
RTVSPropertyOp32
 70
     1
  0
XRECORD
  5
49A
102
{ACAD_REACTORS
330
499
102
}
330
499
100
AcDbXrecord
280
     1
102
RTVSPropertyOp0
 70
     1
102
RTVSPropertyOp1
 70
     1
102
RTVSPropertyOp2
 70
     1
102
RTVSPropertyOp3
 70
     1
102
RTVSPropertyOp4
 70
     1
102
RTVSPropertyOp5
 70
     1
102
RTVSPropertyOp6
 70
     1
102
RTVSPropertyOp7
 70
     1
102
RTVSPropertyOp8
 70
     1
102
RTVSPropertyOp9
 70
     1
102
RTVSPropertyOp10
 70
     1
102
RTVSPropertyOp11
 70
     1
102
RTVSPropertyOp12
 70
     1
102
RTVSPropertyOp13
 70
     1
102
RTVSPropertyOp14
 70
     1
102
RTVSPropertyOp15
 70
     1
102
RTVSPropertyOp16
 70
     1
102
RTVSPropertyOp17
 70
     1
102
RTVSPropertyOp18
 70
     1
102
RTVSPropertyOp19
 70
     1
102
RTVSPropertyOp20
 70
     1
102
RTVSPropertyOp21
 70
     1
102
RTVSPropertyOp22
 70
     1
102
RTVSPropertyOp23
 70
     1
102
RTVSPropertyOp24
 70
     1
102
RTVSPropertyOp25
 70
     1
102
RTVSPropertyOp26
 70
     1
102
RTVSPropertyOp27
 70
     1
102
RTVSPropertyOp28
 70
     1
102
RTVSPropertyOp29
 70
     1
102
RTVSPropertyOp30
 70
     1
102
RTVSPropertyOp31
 70
     1
102
RTVSPropertyOp32
 70
     1
  0
XRECORD
  5
49C
102
{ACAD_REACTORS
330
49B
102
}
330
49B
100
AcDbXrecord
280
     1
102
RTVSPropertyOp0
 70
     1
102
RTVSPropertyOp1
 70
     1
102
RTVSPropertyOp2
 70
     1
102
RTVSPropertyOp3
 70
     1
102
RTVSPropertyOp4
 70
     1
102
RTVSPropertyOp5
 70
     1
102
RTVSPropertyOp6
 70
     1
102
RTVSPropertyOp7
 70
     1
102
RTVSPropertyOp8
 70
     1
102
RTVSPropertyOp9
 70
     1
102
RTVSPropertyOp10
 70
     1
102
RTVSPropertyOp11
 70
     1
102
RTVSPropertyOp12
 70
     1
102
RTVSPropertyOp13
 70
     1
102
RTVSPropertyOp14
 70
     1
102
RTVSPropertyOp15
 70
     1
102
RTVSPropertyOp16
 70
     1
102
RTVSPropertyOp17
 70
     1
102
RTVSPropertyOp18
 70
     1
102
RTVSPropertyOp19
 70
     1
102
RTVSPropertyOp20
 70
     1
102
RTVSPropertyOp21
 70
     1
102
RTVSPropertyOp22
 70
     1
102
RTVSPropertyOp23
 70
     1
102
RTVSPropertyOp24
 70
     1
102
RTVSPropertyOp25
 70
     1
102
RTVSPropertyOp26
 70
     1
102
RTVSPropertyOp27
 70
     1
102
RTVSPropertyOp28
 70
     1
102
RTVSPropertyOp29
 70
     1
102
RTVSPropertyOp30
 70
     1
102
RTVSPropertyOp31
 70
     1
102
RTVSPropertyOp32
 70
     1
  0
XRECORD
  5
49E
102
{ACAD_REACTORS
330
49D
102
}
330
49D
100
AcDbXrecord
280
     1
102
RTVSPropertyOp0
 70
     1
102
RTVSPropertyOp1
 70
     1
102
RTVSPropertyOp2
 70
     1
102
RTVSPropertyOp3
 70
     1
102
RTVSPropertyOp4
 70
     1
102
RTVSPropertyOp5
 70
     1
102
RTVSPropertyOp6
 70
     1
102
RTVSPropertyOp7
 70
     1
102
RTVSPropertyOp8
 70
     1
102
RTVSPropertyOp9
 70
     1
102
RTVSPropertyOp10
 70
     1
102
RTVSPropertyOp11
 70
     1
102
RTVSPropertyOp12
 70
     1
102
RTVSPropertyOp13
 70
     1
102
RTVSPropertyOp14
 70
     1
102
RTVSPropertyOp15
 70
     1
102
RTVSPropertyOp16
 70
     1
102
RTVSPropertyOp17
 70
     1
102
RTVSPropertyOp18
 70
     1
102
RTVSPropertyOp19
 70
     1
102
RTVSPropertyOp20
 70
     1
102
RTVSPropertyOp21
 70
     1
102
RTVSPropertyOp22
 70
     1
102
RTVSPropertyOp23
 70
     1
102
RTVSPropertyOp24
 70
     1
102
RTVSPropertyOp25
 70
     1
102
RTVSPropertyOp26
 70
     1
102
RTVSPropertyOp27
 70
     1
102
RTVSPropertyOp28
 70
     1
102
RTVSPropertyOp29
 70
     1
102
RTVSPropertyOp30
 70
     1
102
RTVSPropertyOp31
 70
     1
102
RTVSPropertyOp32
 70
     1
  0
XRECORD
  5
4A0
102
{ACAD_REACTORS
330
49F
102
}
330
49F
100
AcDbXrecord
280
     1
102
RTVSPropertyOp0
 70
     1
102
RTVSPropertyOp1
 70
     1
102
RTVSPropertyOp2
 70
     1
102
RTVSPropertyOp3
 70
     1
102
RTVSPropertyOp4
 70
     1
102
RTVSPropertyOp5
 70
     1
102
RTVSPropertyOp6
 70
     1
102
RTVSPropertyOp7
 70
     1
102
RTVSPropertyOp8
 70
     1
102
RTVSPropertyOp9
 70
     1
102
RTVSPropertyOp10
 70
     1
102
RTVSPropertyOp11
 70
     1
102
RTVSPropertyOp12
 70
     1
102
RTVSPropertyOp13
 70
     1
102
RTVSPropertyOp14
 70
     1
102
RTVSPropertyOp15
 70
     1
102
RTVSPropertyOp16
 70
     1
102
RTVSPropertyOp17
 70
     1
102
RTVSPropertyOp18
 70
     1
102
RTVSPropertyOp19
 70
     1
102
RTVSPropertyOp20
 70
     1
102
RTVSPropertyOp21
 70
     1
102
RTVSPropertyOp22
 70
     1
102
RTVSPropertyOp23
 70
     1
102
RTVSPropertyOp24
 70
     1
102
RTVSPropertyOp25
 70
     1
102
RTVSPropertyOp26
 70
     1
102
RTVSPropertyOp27
 70
     1
102
RTVSPropertyOp28
 70
     1
102
RTVSPropertyOp29
 70
     1
102
RTVSPropertyOp30
 70
     1
102
RTVSPropertyOp31
 70
     1
102
RTVSPropertyOp32
 70
     1
  0
XRECORD
  5
4B4
102
{ACAD_REACTORS
330
4B3
102
}
330
4B3
100
AcDbXrecord
280
     1
102
RTVSPropertyOp0
 70
     1
102
RTVSPropertyOp1
 70
     1
102
RTVSPropertyOp2
 70
     1
102
RTVSPropertyOp3
 70
     1
102
RTVSPropertyOp4
 70
     1
102
RTVSPropertyOp5
 70
     1
102
RTVSPropertyOp6
 70
     1
102
RTVSPropertyOp7
 70
     1
102
RTVSPropertyOp8
 70
     1
102
RTVSPropertyOp9
 70
     1
102
RTVSPropertyOp10
 70
     1
102
RTVSPropertyOp11
 70
     1
102
RTVSPropertyOp12
 70
     1
102
RTVSPropertyOp13
 70
     1
102
RTVSPropertyOp14
 70
     1
102
RTVSPropertyOp15
 70
     1
102
RTVSPropertyOp16
 70
     1
102
RTVSPropertyOp17
 70
     1
102
RTVSPropertyOp18
 70
     1
102
RTVSPropertyOp19
 70
     1
102
RTVSPropertyOp20
 70
     1
102
RTVSPropertyOp21
 70
     1
102
RTVSPropertyOp22
 70
     1
102
RTVSPropertyOp23
 70
     1
102
RTVSPropertyOp24
 70
     1
102
RTVSPropertyOp25
 70
     1
102
RTVSPropertyOp26
 70
     1
102
RTVSPropertyOp27
 70
     1
102
RTVSPropertyOp28
 70
     1
102
RTVSPropertyOp29
 70
     1
102
RTVSPropertyOp30
 70
     1
102
RTVSPropertyOp31
 70
     1
102
RTVSPropertyOp32
 70
     1
  0
XRECORD
  5
4AA
102
{ACAD_REACTORS
330
4A9
102
}
330
4A9
100
AcDbXrecord
280
     1
102
RTVSPropertyOp0
 70
     1
102
RTVSPropertyOp1
 70
     1
102
RTVSPropertyOp2
 70
     1
102
RTVSPropertyOp3
 70
     1
102
RTVSPropertyOp4
 70
     1
102
RTVSPropertyOp5
 70
     1
102
RTVSPropertyOp6
 70
     1
102
RTVSPropertyOp7
 70
     1
102
RTVSPropertyOp8
 70
     1
102
RTVSPropertyOp9
 70
     1
102
RTVSPropertyOp10
 70
     1
102
RTVSPropertyOp11
 70
     1
102
RTVSPropertyOp12
 70
     1
102
RTVSPropertyOp13
 70
     1
102
RTVSPropertyOp14
 70
     1
102
RTVSPropertyOp15
 70
     1
102
RTVSPropertyOp16
 70
     1
102
RTVSPropertyOp17
 70
     1
102
RTVSPropertyOp18
 70
     1
102
RTVSPropertyOp19
 70
     1
102
RTVSPropertyOp20
 70
     1
102
RTVSPropertyOp21
 70
     1
102
RTVSPropertyOp22
 70
     1
102
RTVSPropertyOp23
 70
     1
102
RTVSPropertyOp24
 70
     1
102
RTVSPropertyOp25
 70
     1
102
RTVSPropertyOp26
 70
     1
102
RTVSPropertyOp27
 70
     1
102
RTVSPropertyOp28
 70
     1
102
RTVSPropertyOp29
 70
     1
102
RTVSPropertyOp30
 70
     1
102
RTVSPropertyOp31
 70
     1
102
RTVSPropertyOp32
 70
     1
  0
XRECORD
  5
4B2
102
{ACAD_REACTORS
330
4B1
102
}
330
4B1
100
AcDbXrecord
280
     1
102
RTVSPropertyOp0
 70
     1
102
RTVSPropertyOp1
 70
     1
102
RTVSPropertyOp2
 70
     1
102
RTVSPropertyOp3
 70
     1
102
RTVSPropertyOp4
 70
     1
102
RTVSPropertyOp5
 70
     1
102
RTVSPropertyOp6
 70
     1
102
RTVSPropertyOp7
 70
     1
102
RTVSPropertyOp8
 70
     1
102
RTVSPropertyOp9
 70
     1
102
RTVSPropertyOp10
 70
     1
102
RTVSPropertyOp11
 70
     1
102
RTVSPropertyOp12
 70
     1
102
RTVSPropertyOp13
 70
     1
102
RTVSPropertyOp14
 70
     1
102
RTVSPropertyOp15
 70
     1
102
RTVSPropertyOp16
 70
     1
102
RTVSPropertyOp17
 70
     1
102
RTVSPropertyOp18
 70
     1
102
RTVSPropertyOp19
 70
     1
102
RTVSPropertyOp20
 70
     1
102
RTVSPropertyOp21
 70
     1
102
RTVSPropertyOp22
 70
     1
102
RTVSPropertyOp23
 70
     1
102
RTVSPropertyOp24
 70
     1
102
RTVSPropertyOp25
 70
     1
102
RTVSPropertyOp26
 70
     1
102
RTVSPropertyOp27
 70
     1
102
RTVSPropertyOp28
 70
     1
102
RTVSPropertyOp29
 70
     1
102
RTVSPropertyOp30
 70
     1
102
RTVSPropertyOp31
 70
     1
102
RTVSPropertyOp32
 70
     1
  0
ENDSEC
  0
EOF
