  0
SECTION
  2
HEADER
  9
$ACADVER
  1
AC1018
  9
$ACADMAINTVER
 70
     0
  9
$DWGCODEPAGE
  3
ANSI_1252
  9
$INSBASE
 10
0.0
 20
0.0
 30
0.0
  9
$EXTMIN
 10
-457.7082196961705
 20
-314.224989179649
 30
0.0
  9
$EXTMAX
 10
-37.70821969617208
 20
-17.22498917964902
 30
0.0
  9
$LIMMIN
 10
0.0
 20
0.0
  9
$LIMMAX
 10
12.0
 20
9.0
  9
$ORTHOMODE
 70
     0
  9
$REGENMODE
 70
     1
  9
$FILLMODE
 70
     1
  9
$QTEXTMODE
 70
     0
  9
$MIRRTEXT
 70
     1
  9
$LTSCALE
 40
1.0
  9
$ATTMODE
 70
     1
  9
$TEXTSIZE
 40
0.2
  9
$TRACEWID
 40
0.05
  9
$TEXTSTYLE
  7
Standard
  9
$CLAYER
  8
0
  9
$CELTYPE
  6
ByLayer
  9
$CECOLOR
 62
   256
  9
$CELTSCALE
 40
1.0
  9
$DISPSILH
 70
     0
  9
$DIMSCALE
 40
1.0
  9
$DIMASZ
 40
0.18
  9
$DIMEXO
 40
0.0625
  9
$DIMDLI
 40
0.38
  9
$DIMRND
 40
0.0
  9
$DIMDLE
 40
0.0
  9
$DIMEXE
 40
0.18
  9
$DIMTP
 40
0.0
  9
$DIMTM
 40
0.0
  9
$DIMTXT
 40
0.18
  9
$DIMCEN
 40
0.09
  9
$DIMTSZ
 40
0.0
  9
$DIMTOL
 70
     0
  9
$DIMLIM
 70
     0
  9
$DIMTIH
 70
     1
  9
$DIMTOH
 70
     1
  9
$DIMSE1
 70
     0
  9
$DIMSE2
 70
     0
  9
$DIMTAD
 70
     0
  9
$DIMZIN
 70
     0
  9
$DIMBLK
  1

  9
$DIMASO
 70
     1
  9
$DIMSHO
 70
     1
  9
$DIMPOST
  1

  9
$DIMAPOST
  1

  9
$DIMALT
 70
     0
  9
$DIMALTD
 70
     2
  9
$DIMALTF
 40
25.4
  9
$DIMLFAC
 40
1.0
  9
$DIMTOFL
 70
     0
  9
$DIMTVP
 40
0.0
  9
$DIMTIX
 70
     0
  9
$DIMSOXD
 70
     0
  9
$DIMSAH
 70
     0
  9
$DIMBLK1
  1

  9
$DIMBLK2
  1

  9
$DIMSTYLE
  2
Standard
  9
$DIMCLRD
 70
     0
  9
$DIMCLRE
 70
     0
  9
$DIMCLRT
 70
     0
  9
$DIMTFAC
 40
1.0
  9
$DIMGAP
 40
0.09
  9
$DIMJUST
 70
     0
  9
$DIMSD1
 70
     0
  9
$DIMSD2
 70
     0
  9
$DIMTOLJ
 70
     1
  9
$DIMTZIN
 70
     0
  9
$DIMALTZ
 70
     0
  9
$DIMALTTZ
 70
     0
  9
$DIMUPT
 70
     0
  9
$DIMDEC
 70
     4
  9
$DIMTDEC
 70
     4
  9
$DIMALTU
 70
     2
  9
$DIMALTTD
 70
     2
  9
$DIMTXSTY
  7
Standard
  9
$DIMAUNIT
 70
     0
  9
$DIMADEC
 70
     0
  9
$DIMALTRND
 40
0.0
  9
$DIMAZIN
 70
     0
  9
$DIMDSEP
 70
    46
  9
$DIMATFIT
 70
     3
  9
$DIMFRAC
 70
     0
  9
$DIMLDRBLK
  1

  9
$DIMLUNIT
 70
     2
  9
$DIMLWD
 70
    -2
  9
$DIMLWE
 70
    -2
  9
$DIMTMOVE
 70
     0
  9
$LUNITS
 70
     2
  9
$LUPREC
 70
     4
  9
$SKETCHINC
 40
0.1
  9
$FILLETRAD
 40
0.5
  9
$AUNITS
 70
     0
  9
$AUPREC
 70
     0
  9
$MENU
  1
.
  9
$ELEVATION
 40
0.0
  9
$PELEVATION
 40
0.0
  9
$THICKNESS
 40
0.0
  9
$LIMCHECK
 70
     0
  9
$CHAMFERA
 40
0.5
  9
$CHAMFERB
 40
0.5
  9
$CHAMFERC
 40
1.0
  9
$CHAMFERD
 40
0.0
  9
$SKPOLY
 70
     0
  9
$TDCREATE
 40
2458437.260540394
  9
$TDUCREATE
 40
2458437.218873727
  9
$TDUPDATE
 40
2458437.260541123
  9
$TDUUPDATE
 40
2458437.218874456
  9
$TDINDWG
 40
0.0000000116
  9
$TDUSRTIMER
 40
0.0000000116
  9
$USRTIMER
 70
     1
  9
$ANGBASE
 50
0.0
  9
$ANGDIR
 70
     0
  9
$PDMODE
 70
     0
  9
$PDSIZE
 40
0.0
  9
$PLINEWID
 40
0.0
  9
$SPLFRAME
 70
     0
  9
$SPLINETYPE
 70
     6
  9
$SPLINESEGS
 70
     8
  9
$HANDSEED
  5
299
  9
$SURFTAB1
 70
     6
  9
$SURFTAB2
 70
     6
  9
$SURFTYPE
 70
     6
  9
$SURFU
 70
     6
  9
$SURFV
 70
     6
  9
$UCSBASE
  2

  9
$UCSNAME
  2

  9
$UCSORG
 10
0.0
 20
0.0
 30
0.0
  9
$UCSXDIR
 10
1.0
 20
0.0
 30
0.0
  9
$UCSYDIR
 10
0.0
 20
1.0
 30
0.0
  9
$UCSORTHOREF
  2

  9
$UCSORTHOVIEW
 70
     0
  9
$UCSORGTOP
 10
0.0
 20
0.0
 30
0.0
  9
$UCSORGBOTTOM
 10
0.0
 20
0.0
 30
0.0
  9
$UCSORGLEFT
 10
0.0
 20
0.0
 30
0.0
  9
$UCSORGRIGHT
 10
0.0
 20
0.0
 30
0.0
  9
$UCSORGFRONT
 10
0.0
 20
0.0
 30
0.0
  9
$UCSORGBACK
 10
0.0
 20
0.0
 30
0.0
  9
$PUCSBASE
  2

  9
$PUCSNAME
  2

  9
$PUCSORG
 10
0.0
 20
0.0
 30
0.0
  9
$PUCSXDIR
 10
1.0
 20
0.0
 30
0.0
  9
$PUCSYDIR
 10
0.0
 20
1.0
 30
0.0
  9
$PUCSORTHOREF
  2

  9
$PUCSORTHOVIEW
 70
     0
  9
$PUCSORGTOP
 10
0.0
 20
0.0
 30
0.0
  9
$PUCSORGBOTTOM
 10
0.0
 20
0.0
 30
0.0
  9
$PUCSORGLEFT
 10
0.0
 20
0.0
 30
0.0
  9
$PUCSORGRIGHT
 10
0.0
 20
0.0
 30
0.0
  9
$PUCSORGFRONT
 10
0.0
 20
0.0
 30
0.0
  9
$PUCSORGBACK
 10
0.0
 20
0.0
 30
0.0
  9
$USERI1
 70
     0
  9
$USERI2
 70
     0
  9
$USERI3
 70
     0
  9
$USERI4
 70
     0
  9
$USERI5
 70
     0
  9
$USERR1
 40
18.1
  9
$USERR2
 40
0.0
  9
$USERR3
 40
0.0
  9
$USERR4
 40
0.0
  9
$USERR5
 40
0.0
  9
$WORLDVIEW
 70
     1
  9
$SHADEDGE
 70
     3
  9
$SHADEDIF
 70
    70
  9
$TILEMODE
 70
     1
  9
$MAXACTVP
 70
    64
  9
$PINSBASE
 10
0.0
 20
0.0
 30
0.0
  9
$PLIMCHECK
 70
     0
  9
$PEXTMIN
 10
1.00000000000000E+20
 20
1.00000000000000E+20
 30
1.00000000000000E+20
  9
$PEXTMAX
 10
-1.00000000000000E+20
 20
-1.00000000000000E+20
 30
-1.00000000000000E+20
  9
$PLIMMIN
 10
0.0
 20
0.0
  9
$PLIMMAX
 10
12.0
 20
9.0
  9
$UNITMODE
 70
     0
  9
$VISRETAIN
 70
     1
  9
$PLINEGEN
 70
     0
  9
$PSLTSCALE
 70
     1
  9
$TREEDEPTH
 70
  3020
  9
$CMLSTYLE
  2
Standard
  9
$CMLJUST
 70
     0
  9
$CMLSCALE
 40
1.0
  9
$PROXYGRAPHICS
 70
     1
  9
$MEASUREMENT
 70
     1
  9
$CELWEIGHT
370
    -1
  9
$ENDCAPS
280
     0
  9
$JOINSTYLE
280
     0
  9
$LWDISPLAY
290
     0
  9
$INSUNITS
 70
     4
  9
$HYPERLINKBASE
  1

  9
$STYLESHEET
  1

  9
$XEDIT
290
     1
  9
$CEPSNTYPE
380
     0
  9
$PSTYLEMODE
290
     1
  9
$FINGERPRINTGUID
  2
{D8418C7F-CEA6-4592-967A-5D6B2EFD9F65}
  9
$VERSIONGUID
  2
{FAEB1C32-E019-11D5-929B-00C0DF256EC4}
  9
$EXTNAMES
290
     1
  9
$PSVPSCALE
 40
0.0
  9
$OLESTARTUP
290
     0
  9
$SORTENTS
280
   127
  9
$INDEXCTL
280
     0
  9
$HIDETEXT
280
     1
  9
$XCLIPFRAME
290
     0
  9
$HALOGAP
280
     0
  9
$OBSCOLOR
 70
   257
  9
$OBSLTYPE
280
     0
  9
$INTERSECTIONDISPLAY
280
     0
  9
$INTERSECTIONCOLOR
 70
   257
  9
$DIMASSOC
280
     2
  9
$PROJECTNAME
  1

  0
ENDSEC
  0
SECTION
  2
CLASSES
  0
CLASS
  1
ACDBDICTIONARYWDFLT
  2
AcDbDictionaryWithDefault
  3
ObjectDBX Classes
 90
        0
 91
        4
280
     0
281
     0
  0
CLASS
  1
VISUALSTYLE
  2
AcDbVisualStyle
  3
ObjectDBX Classes
 90
     4095
 91
        4
280
     0
281
     0
  0
CLASS
  1
MATERIAL
  2
AcDbMaterial
  3
ObjectDBX Classes
 90
     1153
 91
        4
280
     0
281
     0
  0
ENDSEC
  0
SECTION
  2
TABLES
  0
TABLE
  2
VPORT
  5
8
330
0
100
AcDbSymbolTable
 70
     1
  0
VPORT
  5
29
330
8
100
AcDbSymbolTableRecord
100
AcDbViewportTableRecord
  2
*Active
 70
     0
 10
0.0
 20
0.0
 11
1.0
 21
1.0
 12
-247.7082196961713
 22
-165.724989179649
 13
0.0
 23
0.0
 14
0.5
 24
0.5
 15
0.5
 25
0.5
 16
0.0
 26
0.0
 36
1.0
 17
0.0
 27
0.0
 37
0.0
 40
326.7
 41
1.60267857142857
 42
50.0
 43
0.0
 44
0.0
 50
0.0
 51
0.0
 71
     0
 72
   100
 73
     1
 74
     3
 75
     0
 76
     0
 77
     0
 78
     0
281
     0
 65
     1
110
0.0
120
0.0
130
0.0
111
1.0
121
0.0
131
0.0
112
0.0
122
1.0
132
0.0
 79
     0
146
0.0
  0
ENDTAB
  0
TABLE
  2
LTYPE
  5
5
330
0
100
AcDbSymbolTable
 70
     8
  0
LTYPE
  5
14
330
5
100
AcDbSymbolTableRecord
100
AcDbLinetypeTableRecord
  2
ByBlock
 70
     0
  3

 72
    65
 73
     0
 40
0.0
  0
LTYPE
  5
15
330
5
100
AcDbSymbolTableRecord
100
AcDbLinetypeTableRecord
  2
ByLayer
 70
     0
  3

 72
    65
 73
     0
 40
0.0
  0
LTYPE
  5
16
330
5
100
AcDbSymbolTableRecord
100
AcDbLinetypeTableRecord
  2
Continuous
 70
     0
  3
Solid line
 72
    65
 73
     0
 40
0.0
  0
LTYPE
  5
3F
330
5
100
AcDbSymbolTableRecord
100
AcDbLinetypeTableRecord
  2
DASHED
 70
     0
  3
Dashed
 72
    65
 73
     2
 40
15.0
 49
7.0
 74
     0
 49
-8.0
 74
     0
  0
LTYPE
  5
40
330
5
100
AcDbSymbolTableRecord
100
AcDbLinetypeTableRecord
  2
DOTTED
 70
     0
  3
Dotted
 72
    65
 73
     2
 40
1.0
 49
0.0
 74
     0
 49
-1.0
 74
     0
  0
LTYPE
  5
41
330
5
100
AcDbSymbolTableRecord
100
AcDbLinetypeTableRecord
  2
DOT_CENTER
 70
     0
  3
Dot_Center
 72
    65
 73
     4
 40
14.0
 49
12.0
 74
     0
 49
-1.0
 74
     0
 49
0.0
 74
     0
 49
-1.0
 74
     0
  0
LTYPE
  5
42
330
5
100
AcDbSymbolTableRecord
100
AcDbLinetypeTableRecord
  2
LONG_DASHED
 70
     0
  3
Long_Dashed
 72
    65
 73
     2
 40
15.0
 49
10.0
 74
     0
 49
-5.0
 74
     0
  0
LTYPE
  5
43
330
5
100
AcDbSymbolTableRecord
100
AcDbLinetypeTableRecord
  2
DASH_CENTER
 70
     0
  3
Dash_Center
 72
    65
 73
     4
 40
14.0
 49
11.0
 74
     0
 49
-1.0
 74
     0
 49
1.0
 74
     0
 49
-1.0
 74
     0
  0
LTYPE
  5
44
330
5
100
AcDbSymbolTableRecord
100
AcDbLinetypeTableRecord
  2
PHANTOM
 70
     0
  3
Phantom
 72
    65
 73
     6
 40
13.0
 49
10.0
 74
     0
 49
-1.0
 74
     0
 49
0.0
 74
     0
 49
-1.0
 74
     0
 49
0.0
 74
     0
 49
-1.0
 74
     0
  0
LTYPE
  5
45
330
5
100
AcDbSymbolTableRecord
100
AcDbLinetypeTableRecord
  2
CENTER_DASH_DASH
 70
     0
  3
Center_Dash_Dash
 72
    65
 73
     6
 40
14.0
 49
9.0
 74
     0
 49
-1.0
 74
     0
 49
1.0
 74
     0
 49
-1.0
 74
     0
 49
1.0
 74
     0
 49
-1.0
 74
     0
  0
ENDTAB
  0
TABLE
  2
LAYER
  5
2
330
0
100
AcDbSymbolTable
 70
     2
  0
LAYER
  5
10
330
2
100
AcDbSymbolTableRecord
100
AcDbLayerTableRecord
  2
0
 70
     0
 62
     7
  6
Continuous
370
    -3
390
F
  0
LAYER
  5
46
330
2
100
AcDbSymbolTableRecord
100
AcDbLayerTableRecord
  2
1
 70
     0
 62
     7
  6
Continuous
370
    -3
390
F
  0
ENDTAB
  0
TABLE
  2
STYLE
  5
3
330
0
100
AcDbSymbolTable
 70
     5
  0
STYLE
  5
11
330
3
100
AcDbSymbolTableRecord
100
AcDbTextStyleTableRecord
  2
Standard
 70
     0
 40
0.0
 41
1.0
 50
0.0
 71
     0
 42
0.2
  3
txt
  4

  0
STYLE
  5
90
330
3
100
AcDbSymbolTableRecord
100
AcDbTextStyleTableRecord
  2
CONVERTER_11
 70
     0
 40
0.0
 41
0.9
 50
0.0
 71
     0
 42
0.2
  3
txt.shx
  4

  0
STYLE
  5
23C
330
3
100
AcDbSymbolTableRecord
100
AcDbTextStyleTableRecord
  2
CONVERTER_12
 70
     0
 40
0.0
 41
0.81
 50
0.0
 71
     0
 42
0.2
  3
txt.shx
  4

  0
STYLE
  5
242
330
3
100
AcDbSymbolTableRecord
100
AcDbTextStyleTableRecord
  2
CONVERTER_13
 70
     0
 40
0.0
 41
0.855
 50
0.0
 71
     0
 42
0.2
  3
txt.shx
  4

  0
STYLE
  5
245
330
3
100
AcDbSymbolTableRecord
100
AcDbTextStyleTableRecord
  2
CONVERTER_14
 70
     0
 40
0.0
 41
0.72
 50
0.0
 71
     0
 42
0.2
  3
txt.shx
  4

  0
ENDTAB
  0
TABLE
  2
VIEW
  5
6
330
0
100
AcDbSymbolTable
 70
     0
  0
ENDTAB
  0
TABLE
  2
UCS
  5
7
330
0
100
AcDbSymbolTable
 70
     0
  0
ENDTAB
  0
TABLE
  2
APPID
  5
9
330
0
100
AcDbSymbolTable
 70
     1
  0
APPID
  5
12
330
9
100
AcDbSymbolTableRecord
100
AcDbRegAppTableRecord
  2
ACAD
 70
     0
  0
ENDTAB
  0
TABLE
  2
DIMSTYLE
  5
A
330
0
100
AcDbSymbolTable
 70
     7
100
AcDbDimStyleTable
  0
DIMSTYLE
105
27
330
A
100
AcDbSymbolTableRecord
100
AcDbDimStyleTableRecord
  2
Standard
 70
     0
178
     0
340
11
  0
DIMSTYLE
105
9D
102
{ACAD_REACTORS
330
9E
102
}
330
A
100
AcDbSymbolTableRecord
100
AcDbDimStyleTableRecord
  2
ME10_DIM_10
 70
     0
 41
3.5
 42
0.0
 44
1.5
 47
0.05
 48
0.05
 71
     1
 73
     0
 74
     0
 77
     1
 78
     8
140
3.5
146
0.6
147
1.5
172
     1
173
     1
174
     1
175
     1
176
     2
177
     2
178
     3
272
     0
340
90
  0
DIMSTYLE
105
AA
102
{ACAD_REACTORS
330
AB
102
}
330
A
100
AcDbSymbolTableRecord
100
AcDbDimStyleTableRecord
  2
ME10_DIM_11
 70
     0
 41
3.5
 42
0.0
 44
1.5
 47
0.05
 48
0.05
 71
     1
 73
     0
 74
     0
 77
     1
 78
     8
140
3.5
146
0.6
147
1.5
172
     1
173
     1
174
     1
175
     1
176
     2
177
     2
178
     3
272
     0
340
90
  0
DIMSTYLE
105
D3
102
{ACAD_REACTORS
330
D4
102
}
330
A
100
AcDbSymbolTableRecord
100
AcDbDimStyleTableRecord
  2
ME10_DIM_12
 70
     0
 41
3.5
 42
0.0
 44
1.5
 73
     0
 74
     0
 77
     1
 78
     8
140
3.5
147
1.5
172
     1
173
     1
174
     1
175
     1
176
     2
177
     2
178
     3
340
90
  0
DIMSTYLE
105
E6
102
{ACAD_REACTORS
330
E7
102
}
330
A
100
AcDbSymbolTableRecord
100
AcDbDimStyleTableRecord
  2
ME10_DIM_13
 70
     0
 41
3.5
 42
0.0
 44
1.5
 47
0.05
 48
0.05
 71
     1
 73
     0
 74
     0
 77
     1
 78
     8
140
3.5
146
0.6
147
1.5
172
     1
173
     1
174
     1
175
     1
176
     2
177
     2
178
     3
272
     0
340
90
  0
DIMSTYLE
105
103
102
{ACAD_REACTORS
330
104
102
}
330
A
100
AcDbSymbolTableRecord
100
AcDbDimStyleTableRecord
  2
ME10_DIM_14
 70
     0
 41
3.5
 42
0.0
 44
1.5
 73
     0
 74
     0
 77
     1
 78
     8
140
3.5
147
1.5
172
     1
173
     1
174
     1
175
     1
176
     2
177
     2
178
     3
340
90
  0
DIMSTYLE
105
125
102
{ACAD_REACTORS
330
126
102
}
330
A
100
AcDbSymbolTableRecord
100
AcDbDimStyleTableRecord
  2
ME10_DIM_15
 70
     0
 41
3.5
 42
0.0
 44
1.5
 73
     0
 74
     0
 77
     1
 78
     8
140
3.5
147
1.5
172
     1
173
     1
174
     1
175
     1
176
     2
177
     2
178
     3
340
90
  0
ENDTAB
  0
TABLE
  2
BLOCK_RECORD
  5
1
330
0
100
AcDbSymbolTable
 70
    27
  0
BLOCK_RECORD
  5
1F
330
1
100
AcDbSymbolTableRecord
100
AcDbBlockTableRecord
  2
*Model_Space
340
22
  0
BLOCK_RECORD
  5
1B
330
1
100
AcDbSymbolTableRecord
100
AcDbBlockTableRecord
  2
*Paper_Space
340
1E
  0
BLOCK_RECORD
  5
23
330
1
100
AcDbSymbolTableRecord
100
AcDbBlockTableRecord
  2
*Paper_Space0
340
26
  0
BLOCK_RECORD
  5
47
330
1
100
AcDbSymbolTableRecord
100
AcDbBlockTableRecord
  2
Wanddurchführung_Option_4__1
340
0
102
{BLKREFS
331
4B
102
}
  0
BLOCK_RECORD
  5
4A
330
1
100
AcDbSymbolTableRecord
100
AcDbBlockTableRecord
  2
Vordans4
340
0
102
{BLKREFS
331
7D
102
}
  0
BLOCK_RECORD
  5
4E
330
1
100
AcDbSymbolTableRecord
100
AcDbBlockTableRecord
  2
Wanddurchführung_Option_4__2
340
0
102
{BLKREFS
331
52
102
}
  0
BLOCK_RECORD
  5
51
330
1
100
AcDbSymbolTableRecord
100
AcDbBlockTableRecord
  2
SA_Links3
340
0
102
{BLKREFS
331
7E
102
}
  0
BLOCK_RECORD
  5
55
330
1
100
AcDbSymbolTableRecord
100
AcDbBlockTableRecord
  2
Wanddurchführung_Option_3__3
340
0
102
{BLKREFS
331
59
102
}
  0
BLOCK_RECORD
  5
58
330
1
100
AcDbSymbolTableRecord
100
AcDbBlockTableRecord
  2
Vordans3
340
0
102
{BLKREFS
331
7F
102
}
  0
BLOCK_RECORD
  5
5C
330
1
100
AcDbSymbolTableRecord
100
AcDbBlockTableRecord
  2
Wanddurchführung_Option_3__4
340
0
102
{BLKREFS
331
60
102
}
  0
BLOCK_RECORD
  5
5F
330
1
100
AcDbSymbolTableRecord
100
AcDbBlockTableRecord
  2
SA_Links2
340
0
102
{BLKREFS
331
80
102
}
  0
BLOCK_RECORD
  5
63
330
1
100
AcDbSymbolTableRecord
100
AcDbBlockTableRecord
  2
Wanddurchführung_Option_2__5
340
0
102
{BLKREFS
331
67
102
}
  0
BLOCK_RECORD
  5
66
330
1
100
AcDbSymbolTableRecord
100
AcDbBlockTableRecord
  2
Vordans2
340
0
102
{BLKREFS
331
81
102
}
  0
BLOCK_RECORD
  5
6A
330
1
100
AcDbSymbolTableRecord
100
AcDbBlockTableRecord
  2
Wanddurchführung_Option_2__6
340
0
102
{BLKREFS
331
6E
102
}
  0
BLOCK_RECORD
  5
6D
330
1
100
AcDbSymbolTableRecord
100
AcDbBlockTableRecord
  2
SA_Links1
340
0
102
{BLKREFS
331
82
102
}
  0
BLOCK_RECORD
  5
71
330
1
100
AcDbSymbolTableRecord
100
AcDbBlockTableRecord
  2
_rahmen
340
0
102
{BLKREFS
331
78
102
}
  0
BLOCK_RECORD
  5
74
330
1
100
AcDbSymbolTableRecord
100
AcDbBlockTableRecord
  2
_punkt
340
0
102
{BLKREFS
331
79
102
}
  0
BLOCK_RECORD
  5
77
330
1
100
AcDbSymbolTableRecord
100
AcDbBlockTableRecord
  2
A3I_TD_PRF
340
0
102
{BLKREFS
331
83
102
}
  0
BLOCK_RECORD
  5
7C
330
1
100
AcDbSymbolTableRecord
100
AcDbBlockTableRecord
  2
1
340
0
102
{BLKREFS
331
86
102
}
  0
BLOCK_RECORD
  5
92
330
1
100
AcDbSymbolTableRecord
100
AcDbBlockTableRecord
  2
*D17
340
0
  0
BLOCK_RECORD
  5
9F
330
1
100
AcDbSymbolTableRecord
100
AcDbBlockTableRecord
  2
*D18
340
0
  0
BLOCK_RECORD
  5
AC
330
1
100
AcDbSymbolTableRecord
100
AcDbBlockTableRecord
  2
*D19
340
0
102
{BLKREFS
331
B2
102
}
  0
BLOCK_RECORD
  5
B3
330
1
100
AcDbSymbolTableRecord
100
AcDbBlockTableRecord
  2
*D20
340
0
102
{BLKREFS
331
BE
102
}
  0
BLOCK_RECORD
  5
C8
330
1
100
AcDbSymbolTableRecord
100
AcDbBlockTableRecord
  2
*D21
340
0
  0
BLOCK_RECORD
  5
DB
330
1
100
AcDbSymbolTableRecord
100
AcDbBlockTableRecord
  2
*D22
340
0
  0
BLOCK_RECORD
  5
E8
330
1
100
AcDbSymbolTableRecord
100
AcDbBlockTableRecord
  2
*D23
340
0
102
{BLKREFS
331
EF
102
}
  0
BLOCK_RECORD
  5
F8
330
1
100
AcDbSymbolTableRecord
100
AcDbBlockTableRecord
  2
*D24
340
0
  0
BLOCK_RECORD
  5
10A
330
1
100
AcDbSymbolTableRecord
100
AcDbBlockTableRecord
  2
*D25
340
0
102
{BLKREFS
331
111
102
}
  0
BLOCK_RECORD
  5
11A
330
1
100
AcDbSymbolTableRecord
100
AcDbBlockTableRecord
  2
*D26
340
0
  0
ENDTAB
  0
ENDSEC
  0
SECTION
  2
BLOCKS
  0
BLOCK
  5
20
330
1F
100
AcDbEntity
  8
0
100
AcDbBlockBegin
  2
*Model_Space
 70
     0
 10
0.0
 20
0.0
 30
0.0
  3
*Model_Space
  1

  0
ENDBLK
  5
21
330
1F
100
AcDbEntity
  8
0
100
AcDbBlockEnd
  0
BLOCK
  5
1C
330
1B
100
AcDbEntity
 67
     1
  8
0
100
AcDbBlockBegin
  2
*Paper_Space
 70
     0
 10
0.0
 20
0.0
 30
0.0
  3
*Paper_Space
  1

  0
ENDBLK
  5
1D
330
1B
100
AcDbEntity
 67
     1
  8
0
100
AcDbBlockEnd
  0
BLOCK
  5
24
330
23
100
AcDbEntity
  8
0
100
AcDbBlockBegin
  2
*Paper_Space0
 70
     0
 10
0.0
 20
0.0
 30
0.0
  3
*Paper_Space0
  1

  0
ENDBLK
  5
25
330
23
100
AcDbEntity
  8
0
100
AcDbBlockEnd
  0
BLOCK
  5
48
330
47
100
AcDbEntity
  8
0
100
AcDbBlockBegin
  2
Wanddurchführung_Option_4__1
 70
     0
 10
-397.2947263036123
 20
-288.9089214655755
 30
0.0
  3
Wanddurchführung_Option_4__1
  1

  0
LINE
  5
87
330
47
100
AcDbEntity
  8
0
  6
Continuous
 62
     7
100
AcDbLine
 10
-357.8677241670957
 20
-240.1451619116151
 30
0.0
 11
-357.8677241670957
 21
-246.3298203500416
 31
0.0
  0
LINE
  5
88
330
47
100
AcDbEntity
  8
1
  6
DOT_CENTER
 62
     2
100
AcDbLine
 10
-356.4127241670957
 20
-243.2374911308283
 30
0.0
 11
-369.7227241670958
 21
-243.2374911308283
 31
0.0
  0
LINE
  5
89
330
47
100
AcDbEntity
  8
1
  6
DOT_CENTER
 62
     2
100
AcDbLine
 10
-363.0677241670957
 20
-236.5824911308283
 30
0.0
 11
-363.0677241670957
 21
-249.8924911308283
 31
0.0
  0
LINE
  5
8A
330
47
100
AcDbEntity
  8
1
  6
DOT_CENTER
 62
     2
100
AcDbLine
 10
-362.4077241670958
 20
-237.5374911308283
 30
0.0
 11
-363.7277241670957
 21
-237.5374911308283
 31
0.0
  0
LINE
  5
8B
330
47
100
AcDbEntity
  8
1
  6
DOT_CENTER
 62
     2
100
AcDbLine
 10
-363.0677241670957
 20
-236.8774911308283
 30
0.0
 11
-363.0677241670957
 21
-238.1974911308283
 31
0.0
  0
ARC
  5
8C
330
47
100
AcDbEntity
  8
0
  6
Continuous
 62
     7
100
AcDbCircle
 10
-363.0677241670957
 20
-237.5374911308283
 30
0.0
 40
0.5999999999999083
100
AcDbArc
 50
146.7282185273352
 51
33.27178147266184
  0
ARC
  5
8D
330
47
100
AcDbEntity
  8
0
  6
Continuous
 62
     7
100
AcDbCircle
 10
-363.0677241670957
 20
-243.2374911308283
 30
0.0
 40
6.049999999999912
100
AcDbArc
 50
94.75624292777447
 51
329.2609523973912
  0
ARC
  5
8E
330
47
100
AcDbEntity
  8
0
  6
Continuous
 62
     7
100
AcDbCircle
 10
-363.0677241670957
 20
-243.2374911308283
 30
0.0
 40
6.050000000000008
100
AcDbArc
 50
30.73904760260792
 51
85.24375707222501
  0
SPLINE
  5
8F
330
47
100
AcDbEntity
  8
0
  6
Continuous
 62
     7
100
AcDbSpline
210
0.0
220
0.0
230
1.0
 70
    11
 71
     3
 72
   246
 73
   242
 74
   240
 42
0.000000001
 43
0.0000000001
 44
0.00000001
 40
0.0
 40
0.0
 40
0.0
 40
0.0
 40
0.8621414651920634
 40
1.832341830612953
 40
2.89808973563693
 40
3.608293291100054
 40
4.310748802115723
 40
4.658758453503718
 40
5.004453936729883
 40
5.334670470841527
 40
5.688618070450729
 40
8.335761275666513
 40
10.85888346037364
 40
13.27879882508988
 40
15.61299696375007
 40
17.87821640542345
 40
20.0935784903612
 40
22.01241984543743
 40
23.93435111605327
 40
25.88814086140432
 40
27.39579799285951
 40
28.95856156087848
 40
29.36013191840921
 40
29.76662591128109
 40
29.99585257334543
 40
30.17835017980191
 40
30.38614755319121
 40
30.59505299478441
 40
31.43843569534107
 40
32.28603827781061
 40
33.46892982210496
 40
34.60502685272062
 40
35.66266376731247
 40
36.61338942791561
 40
36.82392356517813
 40
37.02683967938181
 40
37.12540979973791
 40
37.22204330328291
 40
37.30828603582395
 40
37.40953556918693
 40
37.7628490166695
 40
38.09124867901017
 40
38.6229508519819
 40
39.12431715931427
 40
39.66313000643123
 40
40.23578620548059
 40
40.96093033534859
 40
41.7780677919822
 40
42.69429995855204
 40
44.14021327807104
 40
45.76761373958296
 40
47.55639979055227
 40
49.48228542257073
 40
51.51871006288947
 40
53.63786821665106
 40
55.81132456632339
 40
59.05026684594392
 40
62.25418356293115
 40
63.81552468163956
 40
65.3357369838757
 40
65.70820750004667
 40
66.07734211221513
 40
66.26061302702375
 40
66.44299787239663
 40
66.60908445081076
 40
66.8050513930963
 40
67.51848860818048
 40
68.21828093092931
 40
70.37329746431087
 40
72.41551531372392
 40
74.36266300093186
 40
76.22996704907395
 40
78.03039268086422
 40
80.81514550045527
 40
83.49748087299287
 40
84.81403300029872
 40
86.12285421447177
 40
86.41840077910574
 40
86.77681792942559
 40
87.10405470292473
 40
87.43157009233944
 40
88.08774378543289
 40
88.7459375635741
 40
91.55976026068313
 40
94.45176604806046
 40
97.44588473508063
 40
100.5617676712342
 40
103.8192993542589
 40
105.9376165241178
 40
108.1275386854264
 40
109.2519299456658
 40
110.397429867187
 40
110.9784863322736
 40
111.5652923176796
 40
111.8609022061653
 40
112.1580172597245
 40
112.4295870604445
 40
112.7567166057897
 40
115.1956433045705
 40
117.6603680310601
 40
120.0891531967126
 40
122.4196635654254
 40
124.0750392760236
 40
125.614675767967
 40
127.0157894768187
 40
128.2597777812045
 40
129.2303195390232
 40
130.0702214017672
 40
130.3365143159885
 40
130.5914437148913
 40
130.7154283274462
 40
130.8375313581343
 40
130.9475489194686
 40
131.0777357509431
 40
131.5813075846449
 40
132.1072527249639
 40
132.890551637823
 40
133.7872491278616
 40
134.8070826880187
 40
136.2517645148538
 40
137.8680433363518
 40
139.6312878237239
 40
141.5137034104461
 40
143.4865139664863
 40
145.5213735925843
 40
147.7144627575362
 40
149.9188310773913
 40
152.1115733411962
 40
152.9277125659063
 40
153.7396116168925
 40
154.1439242050195
 40
154.5471327615492
 40
154.7483313734731
 40
154.949263445886
 40
155.1377257907561
 40
155.3503619312271
 40
156.9464151055783
 40
158.5347762006965
 40
160.3916310490489
 40
162.2453103240533
 40
164.0933467380696
 40
165.9297293142068
 40
167.7456306732068
 40
169.5300467118386
 40
171.9405466972319
 40
174.2277023372652
 40
176.3522953403255
 40
178.2764941699721
 40
179.5400966738093
 40
180.6713966498428
 40
181.6709134471637
 40
182.0789870379259
 40
182.4664888214851
 40
182.6538290097971
 40
182.8376700794066
 40
183.0019155455495
 40
183.1978417660425
 40
183.8478788366337
 40
184.5200383417011
 40
185.4472015988367
 40
186.4912983374881
 40
187.5944758294013
 40
188.8182433634804
 40
190.1597389886103
 40
191.6125213202654
 40
193.6763625456169
 40
195.8942199518061
 40
198.2405007939466
 40
200.6882415901546
 40
203.2097498714468
 40
205.7770424421113
 40
208.3621900526202
 40
210.9376372557363
 40
213.4765516251464
 40
215.9532586914865
 40
216.438168822373
 40
216.9194609755161
 40
217.4485745561509
 40
217.8704968015263
 40
218.8055883613452
 40
219.7253863076928
 40
221.5220631663703
 40
223.265830418132
 40
226.6107886512376
 40
229.7881846260691
 40
231.3936139281561
 40
232.9677777617127
 40
234.5192883544705
 40
236.0597806449944
 40
236.8306535031419
 40
237.6047971209042
 40
237.9938920555037
 40
238.3847633953586
 40
238.5809769487063
 40
238.7777669335663
 40
238.9944316135189
 40
239.173257271677
 40
240.7824929104658
 40
242.4337459131773
 40
243.9407019963549
 40
245.4640401832094
 40
246.9937540544115
 40
248.5215276867219
 40
250.0428116842699
 40
251.5590465099519
 40
252.4487330965972
 40
253.3434358536928
 40
253.5851858744802
 40
253.794233896635
 40
254.0207624557455
 40
254.2481122231035
 40
254.7053727876796
 40
255.166191710115
 40
256.4122795881651
 40
257.6816162905228
 40
258.968362794689
 40
260.7897167152708
 40
262.5996297637649
 40
264.365896468423
 40
266.0563584296632
 40
267.642667668111
 40
268.5755780132197
 40
269.4583691671206
 40
269.8817608271555
 40
270.2940551536397
 40
270.7115782740784
 40
271.0907834387576
 40
271.8968087369782
 40
272.6701538999698
 40
273.4241299056017
 40
274.4533148974035
 40
275.4853109871831
 40
276.5110331636
 40
277.973622886203
 40
279.5423243857394
 40
281.2105865463647
 40
282.9675422461175
 40
285.4234627826036
 40
287.9748618936245
 40
290.5804106343628
 40
293.1965400921086
 40
293.1965400921086
 40
293.1965400921086
 40
293.1965400921086
 10
-358.0677241670997
 20
-288.685335463336
 30
0.0
 10
-358.3544288039481
 20
-288.6655545740654
 30
0.0
 10
-358.9637730016325
 20
-288.623513507184
 30
0.0
 10
-359.9260029989476
 20
-288.5371231396311
 30
0.0
 10
-360.8362159110687
 20
-288.4394656547328
 30
0.0
 10
-361.6560523719534
 20
-288.3374401636208
 30
0.0
 10
-362.2374404654538
 20
-288.2571253762636
 30
0.0
 10
-362.6977648609737
 20
-288.188646454994
 30
0.0
 10
-363.0350011529266
 20
-288.1360704161822
 30
0.0
 10
-363.3738173970175
 20
-288.0808318458518
 30
0.0
 10
-364.4685228492327
 20
-287.894568616371
 30
0.0
 10
-366.2745761016718
 20
-287.5311102657568
 30
0.0
 10
-368.7324911822349
 20
-286.9294981997594
 30
0.0
 10
-371.0735349847643
 20
-286.2937347849546
 30
0.0
 10
-373.3277409500006
 20
-285.6668260810436
 30
0.0
 10
-375.5255525766156
 20
-285.091707864031
 30
0.0
 10
-377.609326625639
 20
-284.6311672401471
 30
0.0
 10
-379.6038135445011
 20
-284.3108543808156
 30
0.0
 10
-381.5298937306052
 20
-284.1416036645281
 30
0.0
 10
-383.3270306243911
 20
-284.1393249714675
 30
0.0
 10
-384.9974297081249
 20
-284.2780094573369
 30
0.0
 10
-386.1415762519215
 20
-284.4604507536723
 30
0.0
 10
-386.9153643162985
 20
-284.6211209319966
 30
0.0
 10
-387.2525479759212
 20
-284.697784764736
 30
0.0
 10
-387.517594658713
 20
-284.7621212248742
 30
0.0
 10
-387.7178103488455
 20
-284.8127164585281
 30
0.0
 10
-387.911043452099
 20
-284.8632674370877
 30
0.0
 10
-388.316533551669
 20
-284.9728345230562
 30
0.0
 10
-388.9248669203792
 20
-285.1491405051644
 30
0.0
 10
-389.8401277259447
 20
-285.4320204786557
 30
0.0
 10
-390.8457281307633
 20
-285.7527566311003
 30
0.0
 10
-391.921460956376
 20
-286.084279767279
 30
0.0
 10
-392.9331152675395
 20
-286.3591736763386
 30
0.0
 10
-393.6592904398924
 20
-286.5064192030324
 30
0.0
 10
-394.1106594074643
 20
-286.562185544399
 30
0.0
 10
-394.2806980052059
 20
-286.5773644220315
 30
0.0
 10
-394.4131745667307
 20
-286.585308757635
 30
0.0
 10
-394.50692470944
 20
-286.5889889693446
 30
0.0
 10
-394.6016265778014
 20
-286.5907006592549
 30
0.0
 10
-394.7818943070993
 20
-286.5897703575254
 30
0.0
 10
-395.0428875911526
 20
-286.5728512966334
 30
0.0
 10
-395.4418892214131
 20
-286.5026505614281
 30
0.0
 10
-395.8737777918968
 20
-286.3495657374563
 30
0.0
 10
-396.3137326609803
 20
-286.0548614109699
 30
0.0
 10
-396.6720788472846
 20
-285.646188231679
 30
0.0
 10
-396.9597808165861
 20
-285.1008456704387
 30
0.0
 10
-397.1607584375241
 20
-284.4210400689049
 30
0.0
 10
-397.271861124461
 20
-283.6069461248948
 30
0.0
 10
-397.2994611800219
 20
-282.5460314102943
 30
0.0
 10
-397.2049781733384
 20
-281.2175249924804
 30
0.0
 10
-396.9731486413555
 20
-279.6126764229992
 30
0.0
 10
-396.6322565671919
 20
-277.8644081318991
 30
0.0
 10
-396.2037321447943
 20
-275.9956751851372
 30
0.0
 10
-395.7090606979588
 20
-274.0297107730803
 30
0.0
 10
-395.1700052592273
 20
-271.9900446015797
 30
0.0
 10
-394.5184647123641
 20
-269.5655455926337
 30
0.0
 10
-393.7829719462353
 20
-266.7891982156013
 30
0.0
 10
-393.148986527813
 20
-264.1971197249883
 30
0.0
 10
-392.7074777110007
 20
-262.1488701136217
 30
0.0
 10
-392.4915119888428
 20
-261.0177997440426
 30
0.0
 10
-392.3641045357265
 20
-260.2746983082087
 30
0.0
 10
-392.3144199449954
 20
-259.9704321964323
 30
0.0
 10
-392.2764716813488
 20
-259.7284590787125
 30
0.0
 10
-392.2497649992764
 20
-259.5532346082863
 30
0.0
 10
-392.2231846123608
 20
-259.3737116554168
 30
0.0
 10
-392.1722710927922
 20
-259.0188479930966
 30
0.0
 10
-392.1020928939423
 20
-258.4870240244676
 30
0.0
 10
-391.9673741254376
 20
-257.3052271502887
 30
0.0
 10
-391.8409516315737
 20
-255.6768745016666
 30
0.0
 10
-391.7890885581176
 20
-253.6286060529829
 30
0.0
 10
-391.8296795341765
 20
-251.6762137277649
 30
0.0
 10
-391.9397125399147
 20
-249.8074935501167
 30
0.0
 10
-392.1260595465692
 20
-247.6645539692605
 30
0.0
 10
-392.3872136617547
 20
-245.2562117080543
 30
0.0
 10
-392.6117920020233
 20
-243.0058009494257
 30
0.0
 10
-392.7238933095558
 20
-241.2398782020133
 30
0.0
 10
-392.7526932261753
 20
-240.2663796912252
 30
0.0
 10
-392.754648428425
 20
-239.6121136416468
 30
0.0
 10
-392.752091858567
 20
-239.285048692815
 30
0.0
 10
-392.745773630829
 20
-238.9473788713709
 30
0.0
 10
-392.7331950513192
 20
-238.5105785541332
 30
0.0
 10
-392.7094411888846
 20
-237.9637636330226
 30
0.0
 10
-392.6248129650793
 20
-236.5902437682906
 30
0.0
 10
-392.4011293143253
 20
-234.4792646530466
 30
0.0
 10
-391.9654774516803
 20
-231.6118407543098
 30
0.0
 10
-391.4542687618162
 20
-228.6550053683759
 30
0.0
 10
-390.9290272073499
 20
-225.5769688920174
 30
0.0
 10
-390.5150234998775
 20
-222.7763083155002
 30
0.0
 10
-390.2251255524548
 20
-220.2708039571286
 30
0.0
 10
-390.0711093880678
 20
-218.4661292769704
 30
0.0
 10
-389.9831748959239
 20
-216.9820604357309
 30
0.0
 10
-389.9444903069474
 20
-216.0324675927978
 30
0.0
 10
-389.9242751186813
 20
-215.2616020584965
 30
0.0
 10
-389.9163250518769
 20
-214.7738333554389
 30
0.0
 10
-389.9128962472171
 20
-214.3806700075805
 30
0.0
 10
-389.9118543672533
 20
-214.0925722662344
 30
0.0
 10
-389.9122503233478
 20
-213.7939667149562
 30
0.0
 10
-389.9186558444381
 20
-212.7814400659497
 30
0.0
 10
-389.966456055002
 20
-211.0382071680645
 30
0.0
 10
-390.0821601158991
 20
-208.5967802329739
 30
0.0
 10
-390.2094466360604
 20
-206.1921570990664
 30
0.0
 10
-390.3031702711311
 20
-204.0558660625103
 30
0.0
 10
-390.3406049950574
 20
-202.2142145770913
 30
0.0
 10
-390.3209001706397
 20
-200.681847247904
 30
0.0
 10
-390.2320477641767
 20
-199.2890063043756
 30
0.0
 10
-390.0629811436332
 20
-198.0936208384697
 30
0.0
 10
-389.8075394818572
 20
-197.105806026476
 30
0.0
 10
-389.5279669569638
 20
-196.4664194690758
 30
0.0
 10
-389.2781467747366
 20
-196.0869686105342
 30
0.0
 10
-389.1426928817299
 20
-195.9193657616908
 30
0.0
 10
-389.0273275536637
 20
-195.7985052147288
 30
0.0
 10
-388.9405409079183
 20
-195.7174206535649
 30
0.0
 10
-388.8476571327866
 20
-195.6401289670122
 30
0.0
 10
-388.6476672954792
 20
-195.4934077774551
 30
0.0
 10
-388.2983468796266
 20
-195.3170506038207
 30
0.0
 10
-387.705122652419
 20
-195.1803665095617
 30
0.0
 10
-386.9636850689381
 20
-195.1805715482309
 30
0.0
 10
-386.0746865766861
 20
-195.3360898491299
 30
0.0
 10
-384.9985344490647
 20
-195.6536021827769
 30
0.0
 10
-383.7301679890577
 20
-196.1484994113079
 30
0.0
 10
-382.2651949074246
 20
-196.8124161841417
 30
0.0
 10
-380.688537570843
 20
-197.5811383375649
 30
0.0
 10
-379.0128846849111
 20
-198.4175516711343
 30
0.0
 10
-377.2511617866302
 20
-199.2843330768783
 30
0.0
 10
-375.3792498015633
 20
-200.1612236780404
 30
0.0
 10
-373.4079953792074
 20
-201.0062416116896
 30
0.0
 10
-371.347734606261
 20
-201.7715744894471
 30
0.0
 10
-369.6804003251779
 20
-202.2681149001473
 30
0.0
 10
-368.4402425281465
 20
-202.558908757103
 30
0.0
 10
-367.7754748252192
 20
-202.6902818948992
 30
0.0
 10
-367.243091446086
 20
-202.7796656050746
 30
0.0
 10
-366.9104214588584
 20
-202.8287143849484
 30
0.0
 10
-366.6442640232736
 20
-202.8637268730768
 30
0.0
 10
-366.448816738627
 20
-202.8873361632548
 30
0.0
 10
-366.2493423668516
 20
-202.9093116015254
 30
0.0
 10
-365.5868818915657
 20
-202.9750848495135
 30
0.0
 10
-364.454515180399
 20
-203.032715129496
 30
0.0
 10
-362.7732953243375
 20
-202.987424624877
 30
0.0
 10
-361.0145057594854
 20
-202.8062925934723
 30
0.0
 10
-359.188126558474
 20
-202.4866584672071
 30
0.0
 10
-357.3911383305392
 20
-202.0599498578852
 30
0.0
 10
-355.6299789706593
 20
-201.5480363248301
 30
0.0
 10
-353.9111151476799
 20
-200.9726553779103
 30
0.0
 10
-352.0315210820414
 20
-200.2780373357087
 30
0.0
 10
-350.0249638967706
 20
-199.4760915370368
 30
0.0
 10
-347.9243639592331
 20
-198.6049603936055
 30
0.0
 10
-345.9676589266477
 20
-197.8100355567468
 30
0.0
 10
-344.3057780696719
 20
-197.1963561544597
 30
0.0
 10
-342.9263962529716
 20
-196.7803122268868
 30
0.0
 10
-341.8190846297883
 20
-196.54086388071
 30
0.0
 10
-340.9723948474473
 20
-196.4634274392758
 30
0.0
 10
-340.3739178336077
 20
-196.4913982936494
 30
0.0
 10
-340.0490497779792
 20
-196.5390031392977
 30
0.0
 10
-339.8028182261057
 20
-196.5972464346971
 30
0.0
 10
-339.6318500488982
 20
-196.6488862283455
 30
0.0
 10
-339.4617329986261
 20
-196.7120189154101
 30
0.0
 10
-339.154346618124
 20
-196.8499979929539
 30
0.0
 10
-338.7271846871822
 20
-197.1316818539142
 30
0.0
 10
-338.2103063341003
 20
-197.6824369694678
 30
0.0
 10
-337.7598415922761
 20
-198.4479273192893
 30
0.0
 10
-337.404660176545
 20
-199.4130572880982
 30
0.0
 10
-337.1486060067726
 20
-200.5091346582243
 30
0.0
 10
-336.9761085411568
 20
-201.7208813932702
 30
0.0
 10
-336.8740769103201
 20
-203.0570346721957
 30
0.0
 10
-336.8298367821746
 20
-204.6762741305398
 30
0.0
 10
-336.8594070316834
 20
-206.5880917494641
 30
0.0
 10
-336.965657968264
 20
-208.7950929756463
 30
0.0
 10
-337.1282846158613
 20
-211.1268337673368
 30
0.0
 10
-337.3288523919644
 20
-213.557107800736
 30
0.0
 10
-337.548897024953
 20
-216.0596318430687
 30
0.0
 10
-337.7698763622766
 20
-218.6080575579041
 30
0.0
 10
-337.9732222277642
 20
-221.1760249140677
 30
0.0
 10
-338.1403631347484
 20
-223.7372115290539
 30
0.0
 10
-338.25271522585
 20
-226.2652911594945
 30
0.0
 10
-338.2817359280598
 20
-228.0989805956179
 30
0.0
 10
-338.2733318697577
 20
-229.2465951359763
 30
0.0
 10
-338.2656469608783
 20
-229.7449802712239
 30
0.0
 10
-338.2540051799202
 20
-230.2222892108208
 30
0.0
 10
-338.2329556061228
 20
-230.8506514204213
 30
0.0
 10
-338.1974535409993
 20
-231.6088028468664
 30
0.0
 10
-338.1200365846677
 20
-232.8235740966124
 30
0.0
 10
-337.9917411272529
 20
-234.3049749261436
 30
0.0
 10
-337.740640516054
 20
-236.586496598407
 30
0.0
 10
-337.3769241048474
 20
-239.3177528558607
 30
0.0
 10
-337.0361353789217
 20
-242.0059353496201
 30
0.0
 10
-336.8511128447998
 20
-244.1172377251934
 30
0.0
 10
-336.7755695417168
 20
-245.693018329072
 30
0.0
 10
-336.7829725974692
 20
-247.2492501965814
 30
0.0
 10
-336.8737331354117
 20
-248.5349134735963
 30
0.0
 10
-337.0055591965462
 20
-249.5551701840471
 30
0.0
 10
-337.1144478351012
 20
-250.1908324179011
 30
0.0
 10
-337.2184476842863
 20
-250.6983560673527
 30
0.0
 10
-337.2908149596456
 20
-251.0156318220752
 30
0.0
 10
-337.3532177097335
 20
-251.2693670393845
 30
0.0
 10
-337.403994087188
 20
-251.4661487759623
 30
0.0
 10
-337.4556142972173
 20
-251.6567135541653
 30
0.0
 10
-337.6377994796637
 20
-252.2996506285854
 30
0.0
 10
-338.0056112234882
 20
-253.3868115667759
 30
0.0
 10
-338.5992573320159
 20
-254.8612442254569
 30
0.0
 10
-339.2196553937974
 20
-256.2931831667019
 30
0.0
 10
-339.8284134637292
 20
-257.6859500091308
 30
0.0
 10
-340.4153601407038
 20
-259.0957664512581
 30
0.0
 10
-340.9476181848323
 20
-260.5268615337641
 30
0.0
 10
-341.3919754415078
 20
-261.9835461508547
 30
0.0
 10
-341.6698887676458
 20
-263.2649696921911
 30
0.0
 10
-341.8131696899946
 20
-264.3565067546561
 30
0.0
 10
-341.8550479210826
 20
-265.0312629462242
 30
0.0
 10
-341.8616243767128
 20
-265.4797334675404
 30
0.0
 10
-341.8606248983428
 20
-265.7055197822754
 30
0.0
 10
-341.8555523405738
 20
-265.926450567218
 30
0.0
 10
-341.8429731761278
 20
-266.2299168746483
 30
0.0
 10
-341.8169470719707
 20
-266.6109241301091
 30
0.0
 10
-341.74406338619
 20
-267.3287229035793
 30
0.0
 10
-341.588619687866
 20
-268.3095695322055
 30
0.0
 10
-341.3108259293959
 20
-269.5467515723125
 30
0.0
 10
-340.9225106121552
 20
-270.953718014245
 30
0.0
 10
-340.4207827017784
 20
-272.514805059989
 30
0.0
 10
-339.8293750774754
 20
-274.2139910148762
 30
0.0
 10
-339.2516830576138
 20
-275.8718175804959
 30
0.0
 10
-338.738406054595
 20
-277.4728301371301
 30
0.0
 10
-338.3839969012993
 20
-278.832160848327
 30
0.0
 10
-338.1853713273709
 20
-279.949486358957
 30
0.0
 10
-338.1146238452883
 20
-280.6937361936375
 30
0.0
 10
-338.1064506959473
 20
-281.266791940572
 30
0.0
 10
-338.1255988389622
 20
-281.6843640572407
 30
0.0
 10
-338.171649351128
 20
-282.0851298528137
 30
0.0
 10
-338.272295799303
 20
-282.6102169652023
 30
0.0
 10
-338.4746596461081
 20
-283.2345939569563
 30
0.0
 10
-338.8348031042401
 20
-283.9275426393921
 30
0.0
 10
-339.3371217230791
 20
-284.6192235121477
 30
0.0
 10
-340.0010302923363
 20
-285.2883937962407
 30
0.0
 10
-340.8240731443577
 20
-285.9103255880724
 30
0.0
 10
-341.8349650824565
 20
-286.5098530988263
 30
0.0
 10
-343.0679091028393
 20
-287.072374682383
 30
0.0
 10
-344.5510763114235
 20
-287.5823437428081
 30
0.0
 10
-346.1643511371725
 20
-287.9985028365026
 30
0.0
 10
-348.0916229887007
 20
-288.3632588118709
 30
0.0
 10
-350.3314000845157
 20
-288.6387122104114
 30
0.0
 10
-352.8655029292702
 20
-288.7916183743885
 30
0.0
 10
-355.4580146698779
 20
-288.8182124652946
 30
0.0
 10
-357.1966466679015
 20
-288.7296875887202
 30
0.0
 10
-358.0677241670997
 20
-288.685335463336
 30
0.0
 11
-358.0677241670997
 21
-288.685335463336
 31
0.0
 11
-358.9276242055832
 21
-288.623207804065
 31
0.0
 11
-359.8940147302274
 21
-288.5373119303702
 31
0.0
 11
-360.9536399837339
 21
-288.4232377508535
 31
0.0
 11
-361.6584072005323
 21
-288.3355322200914
 31
0.0
 11
-362.3542460678242
 21
-288.2393448218535
 31
0.0
 11
-362.6984667935481
 21
-288.1881314504443
 31
0.0
 11
-363.0400347586416
 21
-288.1348708428896
 31
0.0
 11
-363.3659492884777
 21
-288.081741956034
 31
0.0
 11
-363.7148826988174
 21
-288.0223754807124
 31
0.0
 11
-366.3109134878922
 21
-287.5046967288351
 31
0.0
 11
-368.7631638808163
 21
-286.9108839897237
 31
0.0
 11
-371.1004302396872
 21
-286.2838462394183
 31
0.0
 11
-373.3515089265999
 21
-285.6664924539596
 31
0.0
 11
-375.5451963036504
 21
-285.1017316093885
 31
0.0
 11
-377.7102887329341
 21
-284.6324726817455
 31
0.0
 11
-379.605730463325
 21
-284.3337206211174
 31
0.0
 11
-381.5206730319985
 21
-284.1699684639711
 31
0.0
 11
-383.4744627763003
 21
-284.1700438630109
 31
0.0
 11
-384.9769365745775
 21
-284.294953880866
 31
0.0
 11
-386.5203059600015
 21
-284.5403941197105
 31
0.0
 11
-386.9134945200784
 21
-284.6220121835898
 31
0.0
 11
-387.3098770403955
 21
-284.7121135926217
 31
0.0
 11
-387.5326355017393
 21
-284.7661832747627
 31
0.0
 11
-387.7095749010628
 21
-284.8108803143272
 31
0.0
 11
-387.9106147071671
 21
-284.8634421328868
 31
0.0
 11
-388.1122950756806
 21
-284.9179078331471
 31
0.0
 11
-388.9227931468928
 21
-285.1511185886818
 31
0.0
 11
-389.7330241263593
 21
-285.4000280060124
 31
0.0
 11
-390.8612018765746
 21
-285.7556223957409
 31
0.0
 11
-391.9483066388284
 21
-286.0856522417105
 31
0.0
 11
-392.9705984666035
 21
-286.356789222199
 31
0.0
 11
-393.9043374133822
 21
-286.535705015484
 31
0.0
 11
-394.1133108537007
 21
-286.5612925944299
 31
0.0
 11
-394.3154410654339
 21
-286.5791343126576
 31
0.0
 11
-394.4138362041948
 21
-286.5850050277233
 31
0.0
 11
-394.5103965395563
 21
-286.5887647673881
 31
0.0
 11
-394.5966255525726
 21
-286.5903030230282
 31
0.0
 11
-394.6978736050914
 21
-286.5897554215337
 31
0.0
 11
-395.0503655564503
 21
-286.5656760444786
 31
0.0
 11
-395.3735833981364
 21
-286.5075678260884
 31
0.0
 11
-395.8731848243937
 21
-286.3256183395173
 31
0.0
 11
-396.2893064294123
 21
-286.0459560716613
 31
0.0
 11
-396.6474412234531
 21
-285.6433908549308
 31
0.0
 11
-396.9203233025762
 21
-285.1399323228463
 31
0.0
 11
-397.1350249427657
 21
-284.4473016742256
 31
0.0
 11
-397.2533189658415
 21
-283.6387720532393
 31
0.0
 11
-397.2833611367469
 21
-282.7230325421483
 31
0.0
 11
-397.1929510927918
 21
-281.2799485686976
 31
0.0
 11
-396.9683373648164
 21
-279.6681232248783
 31
0.0
 11
-396.6317892678525
 21
-277.9112820485826
 31
0.0
 11
-396.2055761169313
 21
-276.0331505777028
 31
0.0
 11
-395.7119672270844
 21
-274.0574543501311
 31
0.0
 11
-395.1732319133432
 21
-272.00791890376
 31
0.0
 11
-394.6116394907393
 21
-269.9082697764817
 31
0.0
 11
-393.7900023638457
 21
-266.7752744801454
 31
0.0
 11
-393.0381931426501
 21
-263.6608138162433
 31
0.0
 11
-392.7106935016949
 21
-262.1342064421731
 31
0.0
 11
-392.4273142431709
 21
-260.6406396910686
 31
0.0
 11
-392.3644047778424
 21
-260.2735202491928
 31
0.0
 11
-392.3049471954465
 21
-259.9092056079699
 31
0.0
 11
-392.2765563753285
 21
-259.7281470827611
 31
0.0
 11
-392.2490803686407
 21
-259.5478437248306
 31
0.0
 11
-392.2247563261969
 21
-259.3835479778049
 31
0.0
 11
-392.1969255109211
 21
-259.1895673390989
 31
0.0
 11
-392.103606877392
 21
-258.4822595612978
 31
0.0
 11
-392.0243639194675
 21
-257.7869683642986
 31
0.0
 11
-391.8572649368881
 21
-255.6384399867036
 31
0.0
 11
-391.8043560786547
 21
-253.596907621728
 31
0.0
 11
-391.8428222763324
 21
-251.6501399243767
 31
0.0
 11
-391.949848461486
 21
-249.7859055496546
 31
0.0
 11
-392.1026195656809
 21
-247.9919731525669
 31
0.0
 11
-392.3868817543379
 21
-245.2217667930534
 31
0.0
 11
-392.6354429412724
 21
-242.5509728311234
 31
0.0
 11
-392.7166221861704
 21
-241.2369258631262
 31
0.0
 11
-392.7532200131295
 21
-239.9286164311782
 31
0.0
 11
-392.7541047369569
 21
-239.6330711907658
 31
0.0
 11
-392.7513304054097
 21
-239.2746647779779
 31
0.0
 11
-392.745225996139
 21
-238.947484946513
 31
0.0
 11
-392.735817295523
 21
-238.6201047292487
 31
0.0
 11
-392.7074942330113
 21
-237.9645425890685
 31
0.0
 11
-392.6671758235648
 21
-237.3075848465585
 31
0.0
 11
-392.3831640010515
 21
-234.5081321401411
 31
0.0
 11
-391.9610520641639
 21
-231.6470975393342
 31
0.0
 11
-391.4622368342638
 21
-228.694822132392
 31
0.0
 11
-390.9481151327127
 21
-225.6216470075684
 31
0.0
 11
-390.4800837808725
 21
-222.3979132531175
 31
0.0
 11
-390.2382502558637
 21
-220.2934455821193
 31
0.0
 11
-390.0533933653961
 21
-218.1113394887775
 31
0.0
 11
-389.9870153638485
 21
-216.9889092383826
 31
0.0
 11
-389.9405025678087
 21
-215.8443540278329
 31
0.0
 11
-389.9252811529951
 21
-215.2634969678375
 31
0.0
 11
-389.9157286595766
 21
-214.6767687391198
 31
0.0
 11
-389.9131514693797
 21
-214.3811700850967
 31
0.0
 11
-389.9120793141039
 21
-214.0840569660097
 31
0.0
 11
-389.9124310807328
 21
-213.8124873931144
 31
0.0
 11
-389.9144746047656
 21
-213.4853642306112
 31
0.0
 11
-389.9742767662761
 21
-211.0471708126397
 31
0.0
 11
-390.085011615637
 21
-208.5849348835621
 31
0.0
 11
-390.2074485748593
 21
-206.1592377524582
 31
0.0
 11
-390.302357065954
 21
-203.8306607284077
 31
0.0
 11
-390.3319014388857
 21
-202.1755486859055
 31
0.0
 11
-390.3066470832042
 21
-200.6361193290277
 31
0.0
 11
-390.2097659892369
 21
-199.238359092526
 31
0.0
 11
-390.0244301473107
 21
-198.0082544111521
 31
0.0
 11
-389.7700839813676
 21
-197.0716331795202
 31
0.0
 11
-389.4195511141337
 21
-196.3083757864699
 31
0.0
 11
-389.2724695455435
 21
-196.0863872094019
 31
0.0
 11
-389.1117167294505
 21
-195.888529860418
 31
0.0
 11
-389.0260542264758
 21
-195.7988966091351
 31
0.0
 11
-388.9367826160338
 21
-195.7155915692308
 31
0.0
 11
-388.8521971407065
 21
-195.6452412944153
 31
0.0
 11
-388.7472000843554
 21
-195.5682722795552
 31
0.0
 11
-388.2986760095568
 21
-195.3393383457436
 31
0.0
 11
-387.787464753479
 21
-195.2157206192002
 31
0.0
 11
-387.0042937699085
 21
-195.2015644387907
 31
0.0
 11
-386.119055475526
 21
-195.344461432712
 31
0.0
 11
-385.1385047777445
 21
-195.624784138857
 31
0.0
 11
-383.7883725874559
 21
-196.1388353519349
 31
0.0
 11
-382.312944837598
 21
-196.7987369990909
 31
0.0
 11
-380.7254343468438
 21
-197.5660971258617
 31
0.0
 11
-379.0390539338662
 21
-198.4025237777838
 31
0.0
 11
-377.2670164173381
 21
-199.2696250003935
 31
0.0
 11
-375.4225346159325
 21
-200.1290088392274
 31
0.0
 11
-373.4047103233254
 21
-200.9880927757006
 31
0.0
 11
-371.3361418217333
 21
-201.7498434200465
 31
0.0
 11
-369.232526468417
 21
-202.3686495942057
 31
0.0
 11
-368.4378390498386
 21
-202.5545397255359
 31
0.0
 11
-367.6412583984597
 21
-202.7115089419641
 31
0.0
 11
-367.2425169789493
 21
-202.7783965290149
 31
0.0
 11
-366.8436123053031
 21
-202.8371519663712
 31
0.0
 11
-366.6441313537687
 21
-202.8633861314872
 31
0.0
 11
-366.4446484024472
 21
-202.8874745075333
 31
0.0
 11
-366.2573195457674
 21
-202.9081131822201
 31
0.0
 11
-366.0457240869423
 21
-202.9291248466932
 31
0.0
 11
-364.4518285810674
 21
-203.0120878022671
 31
0.0
 11
-362.8639891204644
 21
-202.9713837958859
 31
0.0
 11
-361.0165612224608
 21
-202.7845146171987
 31
0.0
 11
-359.1900713135464
 21
-202.4681896772591
 31
0.0
 11
-357.3913291872795
 21
-202.044202235079
 31
0.0
 11
-355.6271446372191
 21
-201.5343455496702
 31
0.0
 11
-353.9043274569235
 21
-200.9604128800446
 31
0.0
 11
-352.2296874399514
 21
-200.3441974852141
 31
0.0
 11
-349.9888236496346
 21
-199.4559184449136
 31
0.0
 11
-347.8732174402798
 21
-198.5868434831221
 31
0.0
 11
-345.9013070450038
 21
-197.7959801433974
 31
0.0
 11
-344.0915306969232
 21
-197.1423359692973
 31
0.0
 11
-342.879577797635
 21
-196.7847587639428
 31
0.0
 11
-341.7717266570346
 21
-196.5556180076472
 31
0.0
 11
-340.7752207631087
 21
-196.4780949038481
 31
0.0
 11
-340.3676624140122
 21
-196.4985948448323
 31
0.0
 11
-339.9844511669212
 21
-196.556099387115
 31
0.0
 11
-339.8021779729
 21
-196.599375580366
 31
0.0
 11
-339.6262341703041
 21
-196.6526795877871
 31
0.0
 11
-339.4722710520896
 21
-196.7098803865673
 31
0.0
 11
-339.2935628481271
 21
-196.7901951530622
 31
0.0
 11
-338.7498952644573
 21
-197.1465289174512
 31
0.0
 11
-338.2856776663276
 21
-197.6326363354776
 31
0.0
 11
-337.8037015318396
 21
-198.4246784500024
 31
0.0
 11
-337.4315748459851
 21
-199.4002089361156
 31
0.0
 11
-337.1728987564733
 21
-200.4726301497111
 31
0.0
 11
-336.9942712207313
 21
-201.6832907879285
 31
0.0
 11
-336.8873921839717
 21
-203.0205220258725
 31
0.0
 11
-336.8439615914068
 21
-204.4726550386478
 31
0.0
 11
-336.8694304067465
 21
-206.5363391091654
 31
0.0
 11
-336.971318309291
 21
-208.751854924845
 31
0.0
 11
-337.1307815710712
 21
-211.0927105928401
 31
0.0
 11
-337.3289764641181
 21
-213.532414220304
 31
0.0
 11
-337.5470592604624
 21
-216.0444739143904
 31
0.0
 11
-337.7661862321351
 21
-218.6023977822524
 31
0.0
 11
-337.967513651167
 21
-221.1796939310439
 31
0.0
 11
-338.1321977895888
 21
-223.7498704679179
 31
0.0
 11
-338.2413949194317
 21
-226.2864355000282
 31
0.0
 11
-338.2762613127263
 21
-228.762897134528
 31
0.0
 11
-338.2726663621876
 21
-229.247793939394
 31
0.0
 11
-338.2652075865643
 21
-229.7290282932647
 31
0.0
 11
-338.2522413000933
 21
-230.2579829762287
 31
0.0
 11
-338.2381011876091
 21
-230.6796682123501
 31
0.0
 11
-338.1945713889704
 21
-231.6137460366668
 31
0.0
 11
-338.1362718072183
 21
-232.5316945215375
 31
0.0
 11
-337.9831947160458
 21
-234.3218384092388
 31
0.0
 11
-337.794532757577
 21
-236.0553697454849
 31
0.0
 11
-337.373105612696
 21
-239.3736742436864
 31
0.0
 11
-336.9972931204638
 21
-242.5287669763275
 31
0.0
 11
-336.8608526179758
 21
-244.1283879418332
 31
0.0
 11
-336.7891243318444
 21
-245.70091674216
 31
0.0
 11
-336.8000467061715
 21
-247.2523888886076
 31
0.0
 11
-336.911558185059
 21
-248.7888398924758
 31
0.0
 11
-337.0106406024921
 21
-249.5533185632073
 31
0.0
 11
-337.1415972126089
 21
-250.3163052650671
 31
0.0
 11
-337.219729060305
 21
-250.6974748894008
 31
0.0
 11
-337.3066703209141
 21
-251.0785544369142
 31
0.0
 11
-337.3535320533186
 21
-251.2690898314108
 31
0.0
 11
-337.4027012823611
 21
-251.4596382112499
 31
0.0
 11
-337.4593540480001
 21
-251.6687650810873
 31
0.0
 11
-337.5080942243716
 21
-251.8408203374021
 31
0.0
 11
-338.015078642079
 21
-253.36810752114
 31
0.0
 11
-338.6241312838048
 21
-254.9029336868435
 31
0.0
 11
-339.2182184559094
 21
-256.287844178143
 31
0.0
 11
-339.8234821074938
 21
-257.6857766314382
 31
0.0
 11
-340.4065115307997
 21
-259.1000259799225
 31
0.0
 11
-340.9338960180689
 21
-260.5338871567895
 31
0.0
 11
-341.3722248615433
 21
-261.9906550952324
 31
0.0
 11
-341.6880873534646
 21
-263.4736247284447
 31
0.0
 11
-341.8028640761224
 21
-264.3558766915723
 31
0.0
 11
-341.8574278224675
 21
-265.2489141046569
 31
0.0
 11
-341.8609592500416
 21
-265.490638330938
 31
0.0
 11
-341.8600310484342
 21
-265.6996842924135
 31
0.0
 11
-341.8548628364204
 21
-265.9261538878954
 31
0.0
 11
-341.8454741880877
 21
-266.1533097154684
 31
0.0
 11
-341.8145328152901
 21
-266.6095222266572
 31
0.0
 11
-341.7682013965662
 21
-267.0680061183168
 31
0.0
 11
-341.5769735786331
 21
-268.2993334190139
 31
0.0
 11
-341.3022352279232
 21
-269.5385809740109
 31
0.0
 11
-340.9628443763011
 21
-270.7797620308254
 31
0.0
 11
-340.4127168215167
 21
-272.5160482334746
 31
0.0
 11
-339.8244838347622
 21
-274.2277045063784
 31
0.0
 11
-339.2505064927048
 21
-275.8981080753266
 31
0.0
 11
-338.7431458720123
 21
-277.5106361661092
 31
0.0
 11
-338.3547630493523
 21
-279.0486660045165
 31
0.0
 11
-338.1952855727563
 21
-279.9678442499093
 31
0.0
 11
-338.116122502425
 21
-280.8470788204408
 31
0.0
 11
-338.1106956329382
 21
-281.2704356993793
 31
0.0
 11
-338.1301914810068
 21
-281.6822688253172
 31
0.0
 11
-338.1785147595629
 21
-282.0969860987738
 31
0.0
 11
-338.2504099796362
 21
-282.4693134202037
 31
0.0
 11
-338.4990251849382
 21
-283.2360384433569
 31
0.0
 11
-338.8542936996126
 21
-283.9229496629227
 31
0.0
 11
-339.2955909711371
 21
-284.5342896134478
 31
0.0
 11
-340.0161903058353
 21
-285.2691081937057
 31
0.0
 11
-340.8363747428615
 21
-285.8954574718576
 31
0.0
 11
-341.7165939515678
 21
-286.4220694043791
 31
0.0
 11
-343.0439130556449
 21
-287.0363923584849
 31
0.0
 11
-344.5253191627119
 21
-287.5523965637719
 31
0.0
 11
-346.1394820581781
 21
-287.9737951669067
 31
0.0
 11
-347.8650715274534
 21
-288.3043013145561
 31
0.0
 11
-350.3018962031715
 21
-288.6099664577754
 31
0.0
 11
-352.8483030444108
 21
-288.7694958294814
 31
0.0
 11
-355.4537572870829
 21
-288.7916864809198
 31
0.0
 11
-358.0677241670997
 21
-288.685335463336
 31
0.0
  0
ENDBLK
  5
49
330
47
100
AcDbEntity
  8
0
100
AcDbBlockEnd
  0
BLOCK
  5
4C
330
4A
100
AcDbEntity
  8
0
100
AcDbBlockBegin
  2
Vordans4
 70
     0
 10
-367.0
 20
-242.0
 30
0.0
  3
Vordans4
  1

  0
INSERT
  5
4B
330
4A
100
AcDbEntity
  8
0
100
AcDbBlockReference
  2
Wanddurchführung_Option_4__1
 10
-397.2947263036123
 20
-288.9089214655755
 30
0.0
  0
MTEXT
  5
91
330
4A
100
AcDbEntity
  8
1
 62
     6
100
AcDbMText
 10
-367.025545120239
 20
-293.7989716529892
 30
0.0
 40
5.0
 41
0.0
 71
     2
 72
     1
  1
 
  7
CONVERTER_11
 73
     1
 44
1.32052821128451
  0
DIMENSION
  5
9E
330
4A
100
AcDbEntity
  8
1
100
AcDbDimension
  2
*D17
 10
-330.400073674914
 20
-243.2374911308283
 30
0.0
 11
-333.825073674914
 21
-225.446752097885
 31
0.0
 70
    32
  1
<>
 71
     5
 42
-1.0
 53
90.0
  3
ME10_DIM_10
100
AcDbAlignedDimension
 13
-362.4077241670958
 23
-237.5374911308283
 33
0.0
 14
-356.4127241670957
 24
-243.2374911308283
 34
0.0
 50
90.0
100
AcDbRotatedDimension
  0
DIMENSION
  5
AB
330
4A
100
AcDbEntity
  8
1
100
AcDbDimension
  2
*D18
 10
-363.0677241670957
 20
-297.6873129912481
 30
0.0
 11
-343.047709764528
 21
-294.2623129912481
 31
0.0
 70
    32
  1
<>
 71
     5
 42
-1.0
 53
0.00013888888889
  3
ME10_DIM_11
100
AcDbAlignedDimension
 13
-357.8677241670957
 23
-246.3298203500416
 33
0.0
 14
-363.0677241670957
 24
-249.8924911308283
 34
0.0
100
AcDbRotatedDimension
  0
INSERT
  5
B2
330
4A
100
AcDbEntity
  8
1
100
AcDbBlockReference
  2
*D19
 10
0.0
 20
0.0
 30
0.0
  0
INSERT
  5
BE
330
4A
100
AcDbEntity
  8
1
100
AcDbBlockReference
  2
*D20
 10
0.0
 20
0.0
 30
0.0
  0
ENDBLK
  5
4D
330
4A
100
AcDbEntity
  8
0
100
AcDbBlockEnd
  0
BLOCK
  5
4F
330
4E
100
AcDbEntity
  8
0
100
AcDbBlockBegin
  2
Wanddurchführung_Option_4__2
 70
     0
 10
-306.8154519999742
 20
-288.7990065954236
 30
0.0
  3
Wanddurchführung_Option_4__2
  1

  0
LINE
  5
BF
330
4E
100
AcDbEntity
  8
0
  6
Continuous
 62
     7
100
AcDbLine
 10
-300.8154519999742
 20
-286.5904120923177
 30
0.0
 11
-300.8154519999742
 21
-195.1872493873597
 31
0.0
  0
LINE
  5
C0
330
4E
100
AcDbEntity
  8
0
  6
Continuous
 62
     7
100
AcDbLine
 10
-306.8154519999742
 20
-195.1872493873597
 30
0.0
 11
-300.8154519999742
 21
-195.1872493873597
 31
0.0
  0
LINE
  5
C1
330
4E
100
AcDbEntity
  8
0
  6
Continuous
 62
     7
100
AcDbLine
 10
-306.8154519999742
 20
-288.7990065954236
 30
0.0
 11
-300.8154519999742
 21
-288.7990065954236
 31
0.0
  0
LINE
  5
C2
330
4E
100
AcDbEntity
  8
0
  6
Continuous
 62
     7
100
AcDbLine
 10
-306.8154519999742
 20
-286.5904120923177
 30
0.0
 11
-300.8154519999742
 21
-286.5904120923177
 31
0.0
  0
LINE
  5
C3
330
4E
100
AcDbEntity
  8
0
  6
Continuous
 62
     7
100
AcDbLine
 10
-306.8154519999742
 20
-286.5904120923177
 30
0.0
 11
-306.8154519999742
 21
-195.1872493873597
 31
0.0
  0
LINE
  5
C4
330
4E
100
AcDbEntity
  8
0
  6
Continuous
 62
     7
100
AcDbLine
 10
-306.8154519999742
 20
-288.7990065954236
 30
0.0
 11
-306.8154519999742
 21
-286.5904120923177
 31
0.0
  0
LINE
  5
C5
330
4E
100
AcDbEntity
  8
0
  6
Continuous
 62
     7
100
AcDbLine
 10
-300.8154519999742
 20
-288.6853354633362
 30
0.0
 11
-300.8154519999742
 21
-286.5904120923177
 31
0.0
  0
LINE
  5
C6
330
4E
100
AcDbEntity
  8
0
  6
Continuous
 62
     7
100
AcDbLine
 10
-300.8154519999742
 20
-288.7990065954236
 30
0.0
 11
-300.8154519999742
 21
-288.6853354633362
 31
0.0
  0
ENDBLK
  5
50
330
4E
100
AcDbEntity
  8
0
100
AcDbBlockEnd
  0
BLOCK
  5
53
330
51
100
AcDbEntity
  8
0
100
AcDbBlockBegin
  2
SA_Links3
 70
     0
 10
-302.8154519999993
 20
-242.0000000000002
 30
0.0
  3
SA_Links3
  1

  0
INSERT
  5
52
330
51
100
AcDbEntity
  8
0
100
AcDbBlockReference
  2
Wanddurchführung_Option_4__2
 10
-306.8154519999742
 20
-288.7990065954236
 30
0.0
  0
MTEXT
  5
C7
330
51
100
AcDbEntity
  8
1
 62
     6
100
AcDbMText
 10
-303.8154519490106
 20
-293.7989716529892
 30
0.0
 40
5.0
 41
0.0
 71
     2
 72
     1
  1
 
  7
CONVERTER_11
 73
     1
 44
1.32052821128451
  0
DIMENSION
  5
D4
330
51
100
AcDbEntity
  8
1
100
AcDbDimension
  2
*D21
 10
-306.8154519999743
 20
-297.6873129912481
 30
0.0
 11
-315.6749675906987
 21
-294.9623129912481
 31
0.0
 70
    32
  1
c
 71
     5
 42
-1.0
 53
0.00013888888889
  3
ME10_DIM_12
100
AcDbAlignedDimension
 13
-300.8154519999742
 23
-286.5904120923177
 33
0.0
 14
-306.8154519999742
 24
-286.5904120923177
 34
0.0
100
AcDbRotatedDimension
  0
ENDBLK
  5
54
330
51
100
AcDbEntity
  8
0
100
AcDbBlockEnd
  0
BLOCK
  5
56
330
55
100
AcDbEntity
  8
0
100
AcDbBlockBegin
  2
Wanddurchführung_Option_3__3
 70
     0
 10
-194.3463036924255
 20
-137.8068196038573
 30
0.0
  3
Wanddurchführung_Option_3__3
  1

  0
LINE
  5
D5
330
55
100
AcDbEntity
  8
0
  6
Continuous
 62
     7
100
AcDbLine
 10
-154.8677241670951
 20
-89.14516191161609
 30
0.0
 11
-154.8677241670951
 21
-95.3298203500405
 31
0.0
  0
LINE
  5
D6
330
55
100
AcDbEntity
  8
1
  6
DOT_CENTER
 62
     2
100
AcDbLine
 10
-153.4127241670957
 20
-92.23749113082829
 30
0.0
 11
-166.7227241670957
 21
-92.23749113082829
 31
0.0
  0
LINE
  5
D7
330
55
100
AcDbEntity
  8
1
  6
DOT_CENTER
 62
     2
100
AcDbLine
 10
-160.0677241670957
 20
-85.58249113082829
 30
0.0
 11
-160.0677241670957
 21
-98.89249113082829
 31
0.0
  0
ARC
  5
D8
330
55
100
AcDbEntity
  8
0
  6
Continuous
 62
     7
100
AcDbCircle
 10
-160.0677241670957
 20
-92.23749113082829
 30
0.0
 40
6.049999999999971
100
AcDbArc
 50
30.73904760259732
 51
329.2609523974025
  0
SPLINE
  5
D9
330
55
100
AcDbEntity
  8
0
  6
Continuous
 62
     7
100
AcDbSpline
210
0.0
220
0.0
230
1.0
 70
    11
 71
     3
 72
   284
 73
   280
 74
   278
 42
0.000000001
 43
0.0000000001
 44
0.00000001
 40
0.0
 40
0.0
 40
0.0
 40
0.0
 40
1.546732916318985
 40
3.084853329339144
 40
4.618772122996172
 40
6.150439496902464
 40
7.679636396838844
 40
9.20428249933644
 40
10.72073448311724
 40
12.2240606115992
 40
13.70828686818572
 40
15.16661607605589
 40
16.59162544910721
 40
18.15448012799901
 40
19.6527770876093
 40
21.07467356793701
 40
22.40872443266397
 40
23.64451205943332
 40
24.77361792458653
 40
25.61123632428211
 40
26.37517675091619
 40
27.07022770283161
 40
27.42957415433091
 40
27.77435566578206
 40
27.85878110248141
 40
27.9426247049139
 40
28.02587554437655
 40
28.10888457244865
 40
28.27377130472221
 40
28.43795746214327
 40
28.90665004599575
 40
29.38815630211655
 40
29.89341826786923
 40
30.57294657576203
 40
31.31324435336231
 40
32.12008114535608
 40
32.99577935102618
 40
33.94029548857779
 40
35.31148498322338
 40
36.79634886487973
 40
38.38566783794028
 40
40.06880441126236
 40
41.83420732959249
 40
43.66973312609334
 40
45.56286125496651
 40
47.50084651889515
 40
51.39256812395056
 40
55.31057315083848
 40
57.24963427531666
 40
59.16002688091714
 40
60.10104301563598
 40
61.03083138746011
 40
61.49112017470596
 40
61.94813086912609
 40
62.4466147774815
 40
62.85172263005325
 40
65.19226325115228
 40
67.44172505449694
 40
69.60991816836955
 40
71.70445838026363
 40
73.73201254856055
 40
75.69981454581733
 40
77.34469885598563
 40
78.96113339791016
 40
80.56069590375404
 40
82.15889126532504
 40
82.9637188578552
 40
83.77603328447422
 40
84.00125271600578
 40
84.18601213910796
 40
84.39209846133743
 40
84.59893183523124
 40
85.01484609523978
 40
85.43375146444156
 40
87.1373757354649
 40
88.87819769863809
 40
90.36099472288922
 40
91.85052380031934
 40
93.33887980237472
 40
94.82134776156867
 40
96.29833532464593
 40
97.27874275021506
 40
98.26425611935643
 40
98.51239411915057
 40
98.76093326179272
 40
99.01061182684029
 40
99.26128467295685
 40
99.76574511513383
 40
100.2745435799061
 40
101.6521638069696
 40
103.0570198995127
 40
104.4803840752489
 40
105.9418538387493
 40
107.3944658064404
 40
108.821562215401
 40
110.206330716264
 40
111.5329673234953
 40
112.7881618340458
 40
113.8079061397341
 40
114.7668305081755
 40
115.670559225668
 40
115.8227135175629
 40
115.9737549677485
 40
116.1106674700004
 40
116.2730058225434
 40
116.564493318474
 40
116.8639853367769
 40
117.4316652241725
 40
118.0447442757945
 40
118.7433494462267
 40
119.5331557719114
 40
120.0228404721419
 40
120.5605047055561
 40
121.1502264301666
 40
122.2455579015058
 40
123.4045633113971
 40
124.6258889350777
 40
125.6111417302028
 40
126.566985106138
 40
127.6179167047436
 40
128.6229994500558
 40
129.7553335881123
 40
130.910267490252
 40
132.1390570564931
 40
133.2722520550357
 40
133.9981156702279
 40
134.8005060728301
 40
135.6763113825142
 40
136.4063577065822
 40
137.2119471205471
 40
138.0882087320355
 40
138.9519657086315
 40
139.7485631157984
 40
140.4728392949172
 40
141.1827738975402
 40
141.9594270085715
 40
142.7946713431101
 40
143.1019989385743
 40
143.3611539716364
 40
143.6419630423179
 40
143.9211708821179
 40
144.4749060347328
 40
145.0226051306485
 40
146.1008026442554
 40
147.1575142428084
 40
149.2126193690449
 40
151.1990981041058
 40
153.1265847464147
 40
155.0042033979579
 40
156.8416962430486
 40
158.6506731890035
 40
160.445883590898
 40
162.2463477910828
 40
163.4722103445063
 40
164.7199100113305
 40
165.9991181657816
 40
167.3203986314059
 40
167.6586544585773
 40
168.0004248120552
 40
168.191535302953
 40
168.3458938467874
 40
168.5200162971299
 40
168.6949634831027
 40
169.401055908371
 40
170.112454659673
 40
171.5244780874458
 40
172.8767116735311
 40
173.7675212916579
 40
174.5848346152873
 40
174.9615947127474
 40
175.3153833893728
 40
175.4001787577566
 40
175.4835014442196
 40
175.562946396845
 40
175.6457856364268
 40
175.8025133494887
 40
175.9540556728631
 40
176.5356813726389
 40
177.0657694497166
 40
177.5574838215621
 40
178.0625790897014
 40
178.7349060949123
 40
179.488455734771
 40
180.255715663676
 40
181.1040178034548
 40
182.0325532293153
 40
183.0380818534513
 40
184.4935107883227
 40
186.0637487341938
 40
187.7328237312797
 40
189.4836347102676
 40
191.2984088511129
 40
193.1589963605108
 40
195.0470797528531
 40
196.9443418404166
 40
198.8326215215421
 40
200.6014741007479
 40
202.3312840702014
 40
203.1770977469056
 40
204.0078912355447
 40
204.4494899103021
 40
204.8220454542813
 40
205.2224825079033
 40
205.6185526354738
 40
207.6617283963282
 40
209.600794951038
 40
211.4508013523255
 40
213.5716306300952
 40
215.602527550573
 40
217.5597943469548
 40
219.4576730636831
 40
221.3097675297426
 40
222.3879595876436
 40
223.4587062485217
 40
223.725687255475
 40
223.9925132286436
 40
224.2861293189771
 40
224.5259796847544
 40
225.0596236983764
 40
225.5938395534539
 40
227.7427717253609
 40
229.9250100149412
 40
232.1549009967148
 40
234.44358481263
 40
236.8003817686377
 40
239.2340931298757
 40
241.6937131478446
 40
244.2458731030811
 40
246.9028923048387
 40
247.9293295192178
 40
248.9734699638313
 40
249.5024764747611
 40
250.0362668951686
 40
250.3335152169634
 40
250.5749678423708
 40
250.8461518870058
 40
251.1184682864389
 40
253.3275433237278
 40
255.5594717974577
 40
257.0370181068865
 40
258.4907003536371
 40
259.9068341383581
 40
261.2719004931834
 40
262.5727262487848
 40
263.7967394801287
 40
264.9323646878674
 40
265.969678402614
 40
266.6806450696951
 40
267.33060404973
 40
267.9206184688011
 40
268.4554596047038
 40
268.725048995204
 40
268.9839867023204
 40
269.0474551904918
 40
269.1105141235234
 40
269.1694245635891
 40
269.23565038219
 40
269.3599130484862
 40
269.4838569843081
 40
269.9742209214808
 40
270.4939388631367
 40
271.0365134151583
 40
271.6319542465662
 40
272.2845922142537
 40
273.2723825611438
 40
274.3656969319207
 40
275.5567958291174
 40
276.8355804402519
 40
278.1906652267951
 40
279.5888747205342
 40
281.0377936788381
 40
282.5258260180876
 40
284.0417400756947
 40
285.5749208031637
 40
287.1156423520353
 40
288.6553833237512
 40
290.1872047597461
 40
291.7062079157294
 40
293.2100812703982
 40
293.2100812703982
 40
293.2100812703982
 40
293.2100812703982
 10
-163.4029933236545
 20
-51.89223032311334
 30
0.0
 10
-162.8891540249724
 20
-51.93777280680202
 30
0.0
 10
-161.864336583389
 20
-52.02860419479721
 30
0.0
 10
-160.3225911772611
 20
-52.01144067436103
 30
0.0
 10
-158.7915785477483
 20
-51.89653359182751
 30
0.0
 10
-157.2736892137164
 20
-51.68477009021712
 30
0.0
 10
-155.7729209777214
 20
-51.3916596012269
 30
0.0
 10
-154.2928386561005
 20
-51.02871001003618
 30
0.0
 10
-152.8371427029042
 20
-50.60842254305793
 30
0.0
 10
-151.4095278364571
 20
-50.14297843517096
 30
0.0
 10
-150.0137220860198
 20
-49.64460626325978
 30
0.0
 10
-148.6534743586768
 20
-49.12549245437277
 30
0.0
 10
-147.2771275980685
 20
-48.57568085679823
 30
0.0
 10
-145.8939148985571
 20
-48.00741287471357
 30
0.0
 10
-144.5126578182911
 20
-47.43714617017102
 30
0.0
 10
-143.1975573592736
 20
-46.90651855597091
 30
0.0
 10
-141.9539580543536
 20
-46.43290648278924
 30
0.0
 10
-140.7870560288477
 20
-46.03363186170785
 30
0.0
 10
-139.7593080963765
 20
-45.7420452654216
 30
0.0
 10
-138.8669165183341
 20
-45.55823921184142
 30
0.0
 10
-138.1050763188091
 20
-45.4713554601868
 30
0.0
 10
-137.4966568941725
 20
-45.4763023485271
 30
0.0
 10
-137.0339660639653
 20
-45.54001741632401
 30
0.0
 10
-136.7781007638732
 20
-45.60289767874542
 30
0.0
 10
-136.6154857997132
 20
-45.65589343467762
 30
0.0
 10
-136.5365731498413
 20
-45.68425296326497
 30
0.0
 10
-136.4590073395677
 20
-45.71484742703056
 30
0.0
 10
-136.3576089208019
 20
-45.75850047005972
 30
0.0
 10
-136.2340060892483
 20
-45.81865375112477
 30
0.0
 10
-136.0024310721647
 20
-45.94961321745122
 30
0.0
 10
-135.701419873715
 20
-46.17073478375962
 30
0.0
 10
-135.3615734552546
 20
-46.51961180236722
 30
0.0
 10
-135.034756527207
 20
-46.9707718304993
 30
0.0
 10
-134.7338815276526
 20
-47.54002916307689
 30
0.0
 10
-134.4700072789648
 20
-48.23527730481719
 30
0.0
 10
-134.2577677824024
 20
-49.01553822059843
 30
0.0
 10
-134.0931403129536
 20
-49.87628800877664
 30
0.0
 10
-133.9570887261651
 20
-50.9318647048881
 30
0.0
 10
-133.8671868699324
 20
-52.19624822852918
 30
0.0
 10
-133.833247011146
 20
-53.67804511993002
 30
0.0
 10
-133.854188550577
 20
-55.26394060066526
 30
0.0
 10
-133.9215332986971
 20
-56.94201991441444
 30
0.0
 10
-134.0268092387623
 20
-58.70030587840891
 30
0.0
 10
-134.1615009296624
 20
-60.52673538918515
 30
0.0
 10
-134.3170611837798
 20
-62.40921094491036
 30
0.0
 10
-134.5405768956153
 20
-64.97377073860983
 30
0.0
 10
-134.8248621982585
 20
-68.21053147102907
 30
0.0
 10
-135.0655271003022
 20
-71.45149845418933
 30
0.0
 10
-135.2014974192397
 20
-74.03718876541159
 30
0.0
 10
-135.255461757524
 20
-75.63323549283943
 30
0.0
 10
-135.2756431801252
 20
-76.8935017477863
 30
0.0
 10
-135.2778427687238
 20
-77.67055800018625
 30
0.0
 10
-135.2728058522551
 20
-78.28623844861181
 30
0.0
 10
-135.2653049330789
 20
-78.75811133179376
 30
0.0
 10
-135.254240478843
 20
-79.21151792196213
 30
0.0
 10
-135.2185455104644
 20
-80.29231120478241
 30
0.0
 10
-135.1186053102318
 20
-81.95493204670116
 30
0.0
 10
-134.9011446378628
 20
-84.19745731734734
 30
0.0
 10
-134.6389401482629
 20
-86.35240561559492
 30
0.0
 10
-134.3638966743264
 20
-88.43103955281777
 30
0.0
 10
-134.1078468329118
 20
-90.4448277862169
 30
0.0
 10
-133.9121252481809
 20
-92.31501276520058
 30
0.0
 10
-133.7963923639655
 20
-94.05470303477712
 30
0.0
 10
-133.7682229711008
 20
-95.67560896354463
 30
0.0
 10
-133.8417716359645
 20
-97.27990458544059
 30
0.0
 10
-134.004858445717
 20
-98.60578865779789
 30
0.0
 10
-134.2051256886314
 20
-99.65899722006066
 30
0.0
 10
-134.3474347452648
 20
-100.2566710163546
 30
0.0
 10
-134.4537275307443
 20
-100.6499991517362
 30
0.0
 10
-134.5096765724581
 20
-100.8475901270014
 30
0.0
 10
-134.5660663985005
 20
-101.038674019869
 30
0.0
 10
-134.647178681836
 20
-101.302781748668
 30
0.0
 10
-134.7543251005113
 20
-101.6330803946637
 30
0.0
 10
-135.0304663886589
 20
-102.4329468991894
 30
0.0
 10
-135.5011956391325
 20
-103.6323371746765
 30
0.0
 10
-136.152614719525
 20
-105.1400374029843
 30
0.0
 10
-136.7822113548749
 20
-106.5794174885646
 30
0.0
 10
-137.3568719386191
 20
-107.9509227253191
 30
0.0
 10
-137.8828198937496
 20
-109.342116821608
 30
0.0
 10
-138.3294188183124
 20
-110.756914891869
 30
0.0
 10
-138.6277579303233
 20
-112.0377699266424
 30
0.0
 10
-138.7961986829972
 20
-113.1738287152367
 30
0.0
 10
-138.850200636713
 20
-113.9107461528071
 30
0.0
 10
-138.8611301113096
 20
-114.404708433101
 30
0.0
 10
-138.8614405736021
 20
-114.6535140159282
 30
0.0
 10
-138.8564364166365
 20
-114.9031125607229
 30
0.0
 10
-138.8428702731814
 20
-115.2377940463291
 30
0.0
 10
-138.8133784220174
 20
-115.658184747987
 30
0.0
 10
-138.7289450402496
 20
-116.4507937457018
 30
0.0
 10
-138.5465793907042
 20
-117.5339191176402
 30
0.0
 10
-138.2216068094658
 20
-118.8983914625631
 30
0.0
 10
-137.8226255774598
 20
-120.2719155881446
 30
0.0
 10
-137.3735415478047
 20
-121.6463691855475
 30
0.0
 10
-136.8996547284609
 20
-123.0136515978087
 30
0.0
 10
-136.4307261193003
 20
-124.3555648695368
 30
0.0
 10
-135.9931788598286
 20
-125.6639459833216
 30
0.0
 10
-135.6134036482977
 20
-126.9307925015102
 30
0.0
 10
-135.3298657112539
 20
-128.098269671249
 30
0.0
 10
-135.1548580351339
 20
-129.1631666565595
 30
0.0
 10
-135.0899906471164
 20
-130.123516531531
 30
0.0
 10
-135.1305000420317
 20
-130.7967338192556
 30
0.0
 10
-135.1937360395086
 20
-131.1940786324472
 30
0.0
 10
-135.2210408146272
 20
-131.3382423324707
 30
0.0
 10
-135.2532617494318
 20
-131.4848607112088
 30
0.0
 10
-135.3015057470858
 20
-131.6758057511681
 30
0.0
 10
-135.3745642419359
 20
-131.9162311180484
 30
0.0
 10
-135.5096609236323
 20
-132.2782823430683
 30
0.0
 10
-135.7238667811359
 20
-132.7241295339817
 30
0.0
 10
-136.0608141026213
 20
-133.2539623920427
 30
0.0
 10
-136.5063798689374
 20
-133.7967188820827
 30
0.0
 10
-136.984106545904
 20
-134.253529749396
 30
0.0
 10
-137.4568744463287
 20
-134.632697677646
 30
0.0
 10
-137.8979092473614
 20
-134.9432324005332
 30
0.0
 10
-138.5287994008642
 20
-135.3324801035558
 30
0.0
 10
-139.3737633949617
 20
-135.7656014267578
 30
0.0
 10
-140.4463303105188
 20
-136.2064262279386
 30
0.0
 10
-141.5123018217591
 20
-136.5587565099181
 30
0.0
 10
-142.5297002117779
 20
-136.8358250413239
 30
0.0
 10
-143.5020511040278
 20
-137.0587411745988
 30
0.0
 10
-144.4884268383175
 20
-137.2469716378841
 30
0.0
 10
-145.5385700652017
 20
-137.4114359980828
 30
0.0
 10
-146.6277285954902
 20
-137.5475624264567
 30
0.0
 10
-147.7946750034194
 20
-137.6581763283434
 30
0.0
 10
-148.9645683002947
 20
-137.7357250466579
 30
0.0
 10
-149.9931127490295
 20
-137.7772896749003
 30
0.0
 10
-150.8800886551112
 20
-137.7962081920544
 30
0.0
 10
-151.6814598171223
 20
-137.801157176637
 30
0.0
 10
-152.4842056128629
 20
-137.7931835429925
 30
0.0
 10
-153.2877927136209
 20
-137.7731500747405
 30
0.0
 10
-154.0911758550356
 20
-137.7417905595195
 30
0.0
 10
-154.9384994871152
 20
-137.6957868369982
 30
0.0
 10
-155.7820085182786
 20
-137.6367459166249
 30
0.0
 10
-156.5740551916451
 20
-137.5694042814797
 30
0.0
 10
-157.3140667115103
 20
-137.4961933791014
 30
0.0
 10
-158.0464421163686
 20
-137.4139757778557
 30
0.0
 10
-158.8143044714456
 20
-137.3169278877127
 30
0.0
 10
-159.447707036429
 20
-137.2268602624963
 30
0.0
 10
-159.9095149823756
 20
-137.1557907100832
 30
0.0
 10
-160.188407343821
 20
-137.111216529017
 30
0.0
 10
-160.4578013549049
 20
-137.0666293685931
 30
0.0
 10
-160.8237228463033
 20
-137.0039420556234
 30
0.0
 10
-161.2766802092727
 20
-136.9224806297685
 30
0.0
 10
-161.9903641812371
 20
-136.7863306649029
 30
0.0
 10
-162.8661730109762
 20
-136.6055952549796
 30
0.0
 10
-164.2288313478508
 20
-136.2989708457312
 30
0.0
 10
-165.8780353795545
 20
-135.8879769540431
 30
0.0
 10
-167.7988769197014
 20
-135.3689395747599
 30
0.0
 10
-169.659032961829
 20
-134.8524839800544
 30
0.0
 10
-171.4749459517202
 20
-134.3622576699962
 30
0.0
 10
-173.2631650552877
 20
-133.9219665216066
 30
0.0
 10
-175.0402990434566
 20
-133.5554833672354
 30
0.0
 10
-176.822821987235
 20
-133.2869287440274
 30
0.0
 10
-178.4263888257768
 20
-133.1570997572594
 30
0.0
 10
-179.8516640541559
 20
-133.1384419366574
 30
0.0
 10
-181.102061073707
 20
-133.1956144778141
 30
0.0
 10
-182.3781873453879
 20
-133.3333824687333
 30
0.0
 10
-183.3442215967787
 20
-133.5001988698301
 30
0.0
 10
-183.996660545994
 20
-133.6393494786717
 30
0.0
 10
-184.2796744913212
 20
-133.7044013159988
 30
0.0
 10
-184.5022920896821
 20
-133.7584383281445
 30
0.0
 10
-184.6702760166196
 20
-133.8006183485071
 30
0.0
 10
-184.8327362779437
 20
-133.8426561459453
 30
0.0
 10
-185.1726195621473
 20
-133.9331461339168
 30
0.0
 10
-185.683337898535
 20
-134.0779937958075
 30
0.0
 10
-186.5860909905519
 20
-134.3512504624977
 30
0.0
 10
-187.6897289701285
 20
-134.7036463901835
 30
0.0
 10
-188.853382923001
 20
-135.0651460281922
 30
0.0
 10
-189.8379921661122
 20
-135.3326844536059
 30
0.0
 10
-190.517894700013
 20
-135.4797557734747
 30
0.0
 10
-191.0285003414987
 20
-135.5551299963359
 30
0.0
 10
-191.299370715877
 20
-135.5798380237804
 30
0.0
 10
-191.473163867298
 20
-135.5878244657758
 30
0.0
 10
-191.5556598162853
 20
-135.5900616992864
 30
0.0
 10
-191.6375324205997
 20
-135.5906736864482
 30
0.0
 10
-191.7438649107386
 20
-135.5892834207403
 30
0.0
 10
-191.8741634121734
 20
-135.58342744943
 30
0.0
 10
-192.1695816209327
 20
-135.5568390095671
 30
0.0
 10
-192.5854096047938
 20
-135.470000183271
 30
0.0
 10
-193.0726018521069
 20
-135.2365825632182
 30
0.0
 10
-193.4644947825086
 20
-134.9036601560877
 30
0.0
 10
-193.79432995517
 20
-134.4500626849211
 30
0.0
 10
-194.0491051248407
 20
-133.8533309878904
 30
0.0
 10
-194.2095868551465
 20
-133.1372770250537
 30
0.0
 10
-194.2846809499011
 20
-132.3498005356753
 30
0.0
 10
-194.2888261238111
 20
-131.5009127253556
 30
0.0
 10
-194.2302095569058
 20
-130.5747761084708
 30
0.0
 10
-194.1000958802022
 20
-129.4520758524688
 30
0.0
 10
-193.8823772835471
 20
-128.1255936995815
 30
0.0
 10
-193.5706656245685
 20
-126.5917954930735
 30
0.0
 10
-193.1959463035836
 20
-124.9710366245798
 30
0.0
 10
-192.7721770961978
 20
-123.2783327309415
 30
0.0
 10
-192.3133415326029
 20
-121.5287556169085
 30
0.0
 10
-191.8334925995541
 20
-119.7374297872544
 30
0.0
 10
-191.3467086978163
 20
-117.9194952876994
 30
0.0
 10
-190.8670861476483
 20
-116.0900980278298
 30
0.0
 10
-190.4162288211929
 20
-114.2943098078611
 30
0.0
 10
-190.0062101438828
 20
-112.5460125631725
 30
0.0
 10
-189.704981481545
 20
-111.1293636994176
 30
0.0
 10
-189.4919612040459
 20
-110.0140147561606
 30
0.0
 10
-189.3704185406676
 20
-109.3184484774038
 30
0.0
 10
-189.2834886760298
 20
-108.7770587366293
 30
0.0
 10
-189.2231331003373
 20
-108.3767138189496
 30
0.0
 10
-189.168747602749
 20
-107.9908319315341
 30
0.0
 10
-189.0459363450061
 20
-107.0522688824751
 30
0.0
 10
-188.9008748179328
 20
-105.5993079428247
 30
0.0
 10
-188.8048549288773
 20
-103.6568769104764
 30
0.0
 10
-188.797688767858
 20
-101.6863183156531
 30
0.0
 10
-188.8777260533861
 20
-99.68671513259834
 30
0.0
 10
-189.0338335735695
 20
-97.65608366909487
 30
0.0
 10
-189.2292437241747
 20
-95.70375495263262
 30
0.0
 10
-189.4323860060427
 20
-93.81224741468598
 30
0.0
 10
-189.587786508084
 20
-92.21025304746715
 30
0.0
 10
-189.6859016392726
 20
-90.88010351849033
 30
0.0
 10
-189.7261124717703
 20
-90.07568663267688
 30
0.0
 10
-189.7427369098215
 20
-89.54108983649341
 30
0.0
 10
-189.7491248366102
 20
-89.26535307815766
 30
0.0
 10
-189.7529770508758
 20
-88.99861246056643
 30
0.0
 10
-189.7549936731964
 20
-88.64291189116614
 30
0.0
 10
-189.751843591115
 20
-88.2069942200101
 30
0.0
 10
-189.7260260558352
 20
-87.13500590540319
 30
0.0
 10
-189.6218269249646
 20
-85.51552530734251
 30
0.0
 10
-189.374159609487
 20
-83.34201868263611
 30
0.0
 10
-189.0461419706981
 20
-81.13236546452356
 30
0.0
 10
-188.6663029984035
 20
-78.87223254298642
 30
0.0
 10
-188.2630337407539
 20
-76.54722448804878
 30
0.0
 10
-187.8679741375842
 20
-74.16295903222245
 30
0.0
 10
-187.5083912324026
 20
-71.70708187280613
 30
0.0
 10
-187.2097118949989
 20
-69.16789685314444
 30
0.0
 10
-187.0426759523854
 20
-67.0954375871203
 30
0.0
 10
-186.9624531520865
 20
-65.52155963299141
 30
0.0
 10
-186.9331198979938
 20
-64.65547729530164
 30
0.0
 10
-186.9186935318379
 20
-63.95330566462248
 30
0.0
 10
-186.913497792871
 20
-63.49997982201431
 30
0.0
 10
-186.9119587108874
 20
-63.14248465816105
 30
0.0
 10
-186.9120597498394
 20
-62.87252223071936
 30
0.0
 10
-186.9132926830203
 20
-62.61087321821667
 30
0.0
 10
-186.9215814367594
 20
-61.69338299556428
 30
0.0
 10
-186.9646018868989
 20
-60.12265177024744
 30
0.0
 10
-187.055252182944
 20
-58.15186292620223
 30
0.0
 10
-187.1438783971142
 20
-56.43309403568958
 30
0.0
 10
-187.2172889146905
 20
-54.98583211006114
 30
0.0
 10
-187.2797649757134
 20
-53.57556890724965
 30
0.0
 10
-187.3228385460976
 20
-52.21551818043969
 30
0.0
 10
-187.3380688489574
 20
-50.9188530904259
 30
0.0
 10
-187.3170735938061
 20
-49.69863335592744
 30
0.0
 10
-187.2514700394022
 20
-48.56782686728482
 30
0.0
 10
-187.1414768383923
 20
-47.61203125203419
 30
0.0
 10
-186.9939306861875
 20
-46.82574086994835
 30
0.0
 10
-186.8238702736069
 20
-46.19712629116303
 30
0.0
 10
-186.610959070955
 20
-45.64382416838714
 30
0.0
 10
-186.3855329352689
 20
-45.23483438045389
 30
0.0
 10
-186.172440571649
 20
-44.95087385461333
 30
0.0
 10
-186.0370648707787
 20
-44.80659228690035
 30
0.0
 10
-185.9421894042193
 20
-44.71992577340541
 30
0.0
 10
-185.895270621597
 20
-44.679666442909
 30
0.0
 10
-185.8464192349054
 20
-44.64029640419714
 30
0.0
 10
-185.7800462093149
 20
-44.59021776427342
 30
0.0
 10
-185.6933184610737
 20
-44.53121697142874
 30
0.0
 10
-185.4813120858031
 20
-44.40585579137919
 30
0.0
 10
-185.1261492370287
 20
-44.26525727733349
 30
0.0
 10
-184.6121877663998
 20
-44.1824140555757
 30
0.0
 10
-184.0577795193753
 20
-44.18568538058061
 30
0.0
 10
-183.464817462386
 20
-44.2633731480616
 30
0.0
 10
-182.7373928998744
 20
-44.42919122254961
 30
0.0
 10
-181.8681467296948
 20
-44.70614527299597
 30
0.0
 10
-180.8518865519872
 20
-45.10346085545987
 30
0.0
 10
-179.7649928825284
 20
-45.5829813342268
 30
0.0
 10
-178.6127122991726
 20
-46.12891862308108
 30
0.0
 10
-177.4067589237753
 20
-46.72232631469963
 30
0.0
 10
-176.1529898743893
 20
-47.34692280779581
 30
0.0
 10
-174.8573737275468
 20
-47.98691364834159
 30
0.0
 10
-173.5194663093512
 20
-48.62977192514873
 30
0.0
 10
-172.1445639335798
 20
-49.26006245600148
 30
0.0
 10
-170.7379455676774
 20
-49.86240523042446
 30
0.0
 10
-169.3048183156376
 20
-50.42112631448592
 30
0.0
 10
-167.8504575851083
 20
-50.92156775968262
 30
0.0
 10
-166.3796187127813
 20
-51.34515981166601
 30
0.0
 10
-164.8986576273057
 20
-51.68755654910579
 30
0.0
 10
-163.8998817664927
 20
-51.8242337563743
 30
0.0
 10
-163.4029933236545
 20
-51.89223032311334
 30
0.0
 11
-163.4029933236545
 21
-51.89223032311334
 31
0.0
 11
-161.860242034504
 21
-52.00314107817914
 31
0.0
 11
-160.3221428254915
 21
-51.99506505928465
 31
0.0
 11
-158.7925262366053
 21
-51.88026107418995
 31
0.0
 11
-157.2752228078336
 21
-51.67098793065517
 31
0.0
 11
-155.7740630791648
 21
-51.37950443644041
 31
0.0
 11
-154.2928775905873
 21
-51.01806939930577
 31
0.0
 11
-152.8354968820894
 21
-50.59894162701137
 31
0.0
 11
-151.4057514936595
 21
-50.1343799273173
 31
0.0
 11
-150.007471965286
 21
-49.63664310798369
 31
0.0
 11
-148.6444888369572
 21
-49.11798997677062
 31
0.0
 11
-147.3206326486614
 21
-48.59067934143819
 31
0.0
 11
-145.8741871290797
 21
-47.99880933337937
 31
0.0
 11
-144.4883341861037
 21
-47.4293311512829
 31
0.0
 11
-143.1686288941242
 21
-46.90002259912927
 31
0.0
 11
-141.9206263275323
 21
-46.42866148089897
 31
0.0
 11
-140.7498815607191
 21
-46.0330256005725
 31
0.0
 11
-139.6619496680754
 21
-45.73089276213036
 31
0.0
 11
-138.8406829196963
 21
-45.56619451750927
 31
0.0
 11
-138.0810727601422
 21
-45.48497025245533
 31
0.0
 11
-137.3861230517612
 21
-45.49683317324698
 31
0.0
 11
-137.0302890367006
 21
-45.54695328929814
 31
0.0
 11
-136.6957039130909
 21
-45.63018240563119
 31
0.0
 11
-136.6154375096511
 21
-45.65635412410183
 31
0.0
 11
-136.536538971664
 21
-45.68472259920131
 31
0.0
 11
-136.4590962009986
 21
-45.71527287825256
 31
0.0
 11
-136.3828541094597
 21
-45.74810033972323
 31
0.0
 11
-136.2345946790711
 21
-45.82025833173222
 31
0.0
 11
-136.0916819919607
 21
-45.90108566734723
 31
0.0
 11
-135.7133462963943
 21
-46.17773497583509
 31
0.0
 11
-135.3758992292807
 21
-46.52121387165899
 31
0.0
 11
-135.0775209130665
 21
-46.92896383766951
 31
0.0
 11
-134.7556677734411
 21
-47.52743629179623
 31
0.0
 11
-134.4888407108394
 21
-48.21797529788071
 31
0.0
 11
-134.2734469648416
 21
-48.99552989020003
 31
0.0
 11
-134.1058937750281
 21
-49.85504910303125
 31
0.0
 11
-133.9825883809792
 21
-50.79148197065149
 31
0.0
 11
-133.8804218677283
 21
-52.15885998649477
 31
0.0
 11
-133.8426773873873
 21
-53.64324407024509
 31
0.0
 11
-133.8606960364878
 21
-55.23246090125019
 31
0.0
 11
-133.9258189115615
 21
-56.91433715885784
 31
0.0
 11
-134.0293871091399
 21
-58.67669952241578
 31
0.0
 11
-134.1627417257549
 21
-60.50737467127178
 31
0.0
 11
-134.3172238579379
 21
-62.39418928477356
 31
0.0
 11
-134.4841746022207
 21
-64.3249700422689
 31
0.0
 11
-134.8154120754953
 21
-68.20256965924767
 31
0.0
 11
-135.0955585574815
 21
-72.11054628915203
 31
0.0
 11
-135.1959041564032
 21
-74.04700925168866
 31
0.0
 11
-135.2587947830947
 21
-75.95636638869011
 31
0.0
 11
-135.2736234168075
 21
-76.8972656805508
 31
0.0
 11
-135.2760030294225
 21
-77.82705100729197
 31
0.0
 11
-135.2722030696854
 21
-78.28732410879829
 31
0.0
 11
-135.2649051949073
 21
-78.74427653065219
 31
0.0
 11
-135.2526916479687
 21
-79.24261079212795
 31
0.0
 11
-135.2393027201799
 21
-79.64749733034344
 31
0.0
 11
-135.1022585780674
 21
-81.98402237881712
 31
0.0
 11
-134.8892674232858
 21
-84.2233779050186
 31
0.0
 11
-134.6321571848933
 21
-86.37627263175439
 31
0.0
 11
-134.3627557919487
 21
-88.45341528183107
 31
0.0
 11
-134.1128911735104
 21
-90.46551457805518
 31
0.0
 11
-133.9143912586369
 21
-92.42327924323325
 31
0.0
 11
-133.8093163637978
 21
-94.0648040405825
 31
0.0
 11
-133.7852457745557
 21
-95.68105935304169
 31
0.0
 11
-133.8621699783799
 21
-97.27877111583203
 31
0.0
 11
-134.0600794627395
 21
-98.86466526417463
 31
0.0
 11
-134.2106507124837
 21
-99.65528258782243
 31
0.0
 11
-134.3989647151036
 21
-100.4454677332902
 31
0.0
 11
-134.4577229545083
 21
-100.662887285406
 31
0.0
 11
-134.5080481463288
 21
-100.84066079157
 31
0.0
 11
-134.5663574701491
 21
-101.0383261526388
 31
0.0
 11
-134.6270607662822
 21
-101.236051098955
 31
0.0
 11
-134.7552444919461
 21
-101.6317196523646
 31
0.0
 11
-134.8917897643693
 21
-102.0277462890058
 31
0.0
 11
-135.5053951494333
 21
-103.6170304323632
 31
0.0
 11
-136.1880205885792
 21
-105.2184309498466
 31
0.0
 11
-136.7777946448635
 21
-106.5788917459473
 31
0.0
 11
-137.3488931808683
 21
-107.9545891453539
 31
0.0
 11
-137.8704596498899
 21
-109.3485661922516
 31
0.0
 11
-138.3116375052248
 21
-110.7638659308256
 31
0.0
 11
-138.6415702001695
 21
-112.2035314052612
 31
0.0
 11
-138.7839537052109
 21
-113.1735446307355
 31
0.0
 11
-138.8547886316726
 21
-114.1565090318924
 31
0.0
 11
-138.8602645909458
 21
-114.4045866020423
 31
0.0
 11
-138.8605600429613
 21
-114.6531255690739
 31
0.0
 11
-138.8555934621101
 21
-114.9027547318708
 31
0.0
 11
-138.8454785340799
 21
-115.1532234205547
 31
0.0
 11
-138.810470518479
 21
-115.6564676719531
 31
0.0
 11
-138.7568697606137
 21
-116.1624349006472
 31
0.0
 11
-138.5331797516061
 21
-117.5217730741386
 31
0.0
 11
-138.2120513597484
 21
-118.8894342883091
 31
0.0
 11
-137.8187767110363
 21
-120.2573891952831
 31
0.0
 11
-137.3685020295754
 21
-121.6477656122793
 31
0.0
 11
-136.8962827203984
 21
-123.0214797211092
 31
0.0
 11
-136.4291394509904
 21
-124.3699534236284
 31
0.0
 11
-135.9940928888366
 21
-125.6846086216922
 31
0.0
 11
-135.6181637014219
 21
-126.9568672171562
 31
0.0
 11
-135.3283725562315
 21
-128.1781511118758
 31
0.0
 11
-135.1681804307792
 21
-129.1852344907113
 31
0.0
 11
-135.1097840138232
 21
-130.142379099885
 31
0.0
 11
-135.1705862245885
 21
-131.0440601332765
 31
0.0
 11
-135.1945309326627
 21
-131.1943185090733
 31
0.0
 11
-135.2226711902473
 21
-131.3427154281017
 31
0.0
 11
-135.2520757806671
 21
-131.4764330534734
 31
0.0
 11
-135.29184783045
 21
-131.633824046743
 31
0.0
 11
-135.3766080026442
 21
-131.91271591377
 31
0.0
 11
-135.4812986351841
 21
-132.193314097097
 31
0.0
 11
-135.7267345749381
 21
-132.7051946046743
 31
0.0
 11
-136.0548607963333
 21
-133.2230740369609
 31
0.0
 11
-136.4967110540996
 21
-133.7642002088422
 31
0.0
 11
-137.0656862277601
 21
-134.3119787077792
 31
0.0
 11
-137.447325029119
 21
-134.6188059082662
 31
0.0
 11
-137.8865576087837
 21
-134.9288987474007
 31
0.0
 11
-138.3880252972746
 21
-135.2392241732261
 31
0.0
 11
-139.3609638989483
 21
-135.7423558752826
 31
0.0
 11
-140.431688708914
 21
-136.1860245823611
 31
0.0
 11
-141.5904442619424
 21
-136.5719285180324
 31
0.0
 11
-142.5407947621021
 21
-136.8318458073144
 31
0.0
 11
-143.4722951545223
 21
-137.0461903392095
 31
0.0
 11
-144.5044475966874
 21
-137.2439744670284
 31
0.0
 11
-145.4973407270622
 21
-137.4000339323078
 31
0.0
 11
-146.6208552838136
 21
-137.5410858416636
 31
0.0
 11
-147.7705864217257
 21
-137.650587572196
 31
0.0
 11
-148.9966533076579
 21
-137.7323420185944
 31
0.0
 11
-150.128912538651
 21
-137.7783848107189
 31
0.0
 11
-150.8546098198656
 21
-137.7939232778352
 31
0.0
 11
-151.6569845016911
 21
-137.7989460489611
 31
0.0
 11
-152.5327472738237
 21
-137.7903142758154
 31
0.0
 11
-153.262567551178
 21
-137.7721484257091
 31
0.0
 11
-154.0675449683651
 21
-137.7407531746874
 31
0.0
 11
-154.9425188232297
 21
-137.6932645954246
 31
0.0
 11
-155.8041675380275
 21
-137.6329520180356
 31
0.0
 11
-156.5978999488817
 21
-137.5654517281306
 31
0.0
 11
-157.3186553828546
 21
-137.4941243974856
 31
0.0
 11
-158.0241549778353
 21
-137.4148939643141
 31
0.0
 11
-158.7946717158225
 21
-137.317456746455
 31
0.0
 11
-159.6215851486842
 21
-137.1997823099373
 31
0.0
 11
-159.925335891968
 21
-137.1530304447461
 31
0.0
 11
-160.1812429319785
 21
-137.1121291239614
 31
0.0
 11
-160.4582838732818
 21
-137.0662809939277
 31
0.0
 11
-160.733483236875
 21
-137.0191394189407
 31
0.0
 11
-161.2784812095088
 21
-136.9211607013522
 31
0.0
 11
-161.8164848421458
 21
-136.8185624997638
 31
0.0
 11
-162.8725010543617
 21
-136.6009857592512
 31
0.0
 11
-163.9035158088994
 21
-136.3693654264585
 31
0.0
 11
-165.8984766873666
 21
-135.8758189000566
 31
0.0
 11
-167.8172389616644
 21
-135.3615727527641
 31
0.0
 11
-169.67567411591
 21
-134.8502768167873
 31
0.0
 11
-171.4896536342205
 21
-134.3655809243322
 31
0.0
 11
-173.2750490007132
 21
-133.9311349076051
 31
0.0
 11
-175.0477316995051
 21
-133.570588598812
 31
0.0
 11
-176.8235732147133
 21
-133.3075918301592
 31
0.0
 11
-178.6184450304552
 21
-133.1657944338528
 31
0.0
 11
-179.8442114795264
 21
-133.1504447628357
 31
0.0
 11
-181.0905919637365
 21
-133.2078045689676
 31
0.0
 11
-182.3624143948634
 21
-133.3450678425907
 31
0.0
 11
-183.6645066846848
 21
-133.5694285740468
 31
0.0
 11
-183.9953250722236
 21
-133.6399707535833
 31
0.0
 11
-184.3284127490366
 21
-133.7165186084442
 31
0.0
 11
-184.5141305307111
 21
-133.7615977089769
 31
0.0
 11
-184.6638434001483
 21
-133.7991825035349
 31
0.0
 11
-184.8324186120263
 21
-133.8427832564709
 31
0.0
 11
-185.001481198786
 21
-133.8877761408078
 31
0.0
 11
-185.6810501392167
 21
-134.0794857343903
 31
0.0
 11
-186.3621964853179
 21
-134.2847364069714
 31
0.0
 11
-187.7093155456867
 21
-134.7079153265255
 31
0.0
 11
-189.0030266821154
 21
-135.1014215742372
 31
0.0
 11
-189.8636731460228
 21
-135.3312681317235
 31
0.0
 11
-190.6636713684595
 21
-135.4986118293927
 31
0.0
 11
-191.0365323934359
 21
-135.5526750063929
 31
0.0
 11
-191.3889573632656
 21
-135.5837083491611
 31
0.0
 11
-191.4736643417789
 21
-135.5875790456573
 31
0.0
 11
-191.5569569530223
 21
-135.5898175702809
 31
0.0
 11
-191.6363997791571
 21
-135.5903988397042
 31
0.0
 11
-191.7192317488696
 21
-135.5893013840655
 31
0.0
 11
-191.875796773799
 21
-135.5821621254533
 31
0.0
 11
-192.0267194367243
 21
-135.5684717787772
 31
0.0
 11
-192.5946673295918
 21
-135.4430778169202
 31
0.0
 11
-193.071285832306
 21
-135.2110688249335
 31
0.0
 11
-193.4467371430117
 21
-134.8935482164852
 31
0.0
 11
-193.747055042903
 21
-134.4874319906161
 31
0.0
 11
-194.019758539624
 21
-133.8728944369875
 31
0.0
 11
-194.193096867911
 21
-133.1395521678685
 31
0.0
 11
-194.2711558582721
 21
-132.376273324639
 31
0.0
 11
-194.2795033531964
 21
-131.5280122565271
 31
0.0
 11
-194.2241104936033
 21
-130.601130566031
 31
0.0
 11
-194.1109484204121
 21
-129.6019898556489
 31
0.0
 11
-193.8799054599048
 21
-128.1650164617199
 31
0.0
 11
-193.5706087118799
 21
-126.6255416394753
 31
0.0
 11
-193.197308659736
 21
-124.9987477321251
 31
0.0
 11
-192.7742557868719
 21
-123.2998170828793
 31
0.0
 11
-192.3157005766865
 21
-121.5439320349482
 31
0.0
 11
-191.8358935125782
 21
-119.7462749315415
 31
0.0
 11
-191.3490850779461
 21
-117.9220281158696
 31
0.0
 11
-190.8695257561887
 21
-116.0863739311423
 31
0.0
 11
-190.4114660307047
 21
-114.2544947205697
 31
0.0
 11
-190.009299497295
 21
-112.5319670643496
 31
0.0
 11
-189.6515898177291
 21
-110.8395468105025
 31
0.0
 11
-189.4932215277431
 21
-110.0086916724422
 31
0.0
 11
-189.3505457267738
 21
-109.1902410407023
 31
0.0
 11
-189.280595559751
 21
-108.7542176884788
 31
0.0
 11
-189.2250880598168
 21
-108.3858204154123
 31
0.0
 11
-189.1692032321316
 21
-107.9893021687321
 31
0.0
 11
-189.1178213469674
 21
-107.596579050196
 31
0.0
 11
-188.9148987129292
 21
-105.5635051227705
 31
0.0
 11
-188.8185226190824
 21
-103.6268351064423
 31
0.0
 11
-188.8105565301329
 21
-101.7768458561401
 31
0.0
 11
-188.8921621881636
 21
-99.6575871786742
 31
0.0
 11
-189.0436217094339
 21
-97.63234588070215
 31
0.0
 11
-189.2335951609551
 21
-95.68432036754118
 31
0.0
 11
-189.4307426097387
 21
-93.79670904450848
 31
0.0
 11
-189.603724122796
 21
-91.95271031692133
 31
0.0
 11
-189.6818223218296
 21
-90.87735047713414
 31
0.0
 11
-189.7341053183467
 21
-89.80788102920398
 31
0.0
 11
-189.7423859290822
 21
-89.54102846774056
 31
0.0
 11
-189.7485487476316
 21
-89.27427367467222
 31
0.0
 11
-189.7527633683884
 21
-88.98068783462762
 31
0.0
 11
-189.7541187528423
 21
-88.74084129849142
 31
0.0
 11
-189.7503470287882
 21
-88.20721061405422
 31
0.0
 11
-189.7375612952836
 21
-87.67314778550691
 31
0.0
 11
-189.6051273674876
 21
-85.52830030042499
 31
0.0
 11
-189.3638656914712
 21
-83.35943959575235
 31
0.0
 11
-189.0420933896569
 21
-81.15288654257134
 31
0.0
 11
-188.6681275844665
 21
-78.89496201195821
 31
0.0
 11
-188.2702853983222
 21
-76.57198687499084
 31
0.0
 11
-187.8768839536462
 21
-74.1702820027471
 31
0.0
 11
-187.5241445333945
 21
-71.73608695419631
 31
0.0
 11
-187.229000587475
 21
-69.2010503689659
 31
0.0
 11
-187.0178148618183
 21
-66.55243721716994
 31
0.0
 11
-186.9656463709966
 21
-65.52732658722414
 31
0.0
 11
-186.9303819889721
 21
-64.48378181509838
 31
0.0
 11
-186.9195232834767
 21
-63.95488676207
 31
0.0
 11
-186.9134119386802
 21
-63.42113132708195
 31
0.0
 11
-186.9121344763901
 21
-63.12388575033033
 31
0.0
 11
-186.9122204794967
 21
-62.88243314024187
 31
0.0
 11
-186.9134858248959
 21
-62.61125204767804
 31
0.0
 11
-186.9159321088458
 21
-62.33894663624906
 31
0.0
 11
-186.9711939679335
 21
-60.13056291796528
 31
0.0
 11
-187.0692893317363
 21
-57.90079117822143
 31
0.0
 11
-187.1440803049522
 21
-56.42513898109376
 31
0.0
 11
-187.2163519669249
 21
-54.97325438454723
 31
0.0
 11
-187.2774893578288
 21
-53.55844092808245
 31
0.0
 11
-187.3188775178378
 21
-52.1940021512
 31
0.0
 11
-187.3319014871269
 21
-50.89324159340052
 31
0.0
 11
-187.3079463058699
 21
-49.6694627941846
 31
0.0
 11
-187.2383970142414
 21
-48.53596929305274
 31
0.0
 11
-187.1146386524157
 21
-47.5060646295056
 31
0.0
 11
-186.9806520197946
 21
-46.80783745601095
 31
0.0
 11
-186.8074723947309
 21
-46.1813747720249
 31
0.0
 11
-186.5914358982105
 21
-45.63233447499259
 31
0.0
 11
-186.3288786512192
 21
-45.16637446235936
 31
0.0
 11
-186.1664168008687
 21
-44.95123593300357
 31
0.0
 11
-185.9887354694635
 21
-44.76287967273446
 31
0.0
 11
-185.9418694477245
 21
-44.72007984790217
 31
0.0
 11
-185.8940070558394
 21
-44.6790235391727
 31
0.0
 11
-185.8481364002235
 21
-44.64205973377736
 31
0.0
 11
-185.7952685430775
 21
-44.6021742885729
 31
0.0
 11
-185.6925321460367
 21
-44.53227119143776
 31
0.0
 11
-185.5858391677881
 21
-44.46919419365581
 31
0.0
 11
-185.1310972618651
 21
-44.28570961584395
 31
0.0
 11
-184.618885001589
 21
-44.19770200438899
 31
0.0
 11
-184.0763122771328
 21
-44.1962936402632
 31
0.0
 11
-183.4854054678631
 21
-44.26963480712615
 31
0.0
 11
-182.8483470196467
 21
-44.41138406002553
 31
0.0
 11
-181.9051675881639
 21
-44.70488419618275
 31
0.0
 11
-180.8851549247635
 21
-45.09847088334713
 31
0.0
 11
-179.793911703527
 21
-45.57586465734516
 31
0.0
 11
-178.6370405985362
 21
-46.12078605400323
 31
0.0
 11
-177.4201442838725
 21
-46.71695560914779
 31
0.0
 11
-176.1677740666389
 21
-47.33869400086286
 31
0.0
 11
-174.8679212768655
 21
-47.97881029731099
 31
0.0
 11
-173.525946472689
 21
-48.62172854085745
 31
0.0
 11
-172.147210212246
 21
-49.25187277386741
 31
0.0
 11
-170.7370730536735
 21
-49.85366703870612
 31
0.0
 11
-169.3008955551082
 21
-50.41153537773875
 31
0.0
 11
-167.844038274687
 21
-50.9099018333306
 31
0.0
 11
-166.3718617705463
 21
-51.33319044784682
 31
0.0
 11
-164.8897266008233
 21
-51.66582526365266
 31
0.0
 11
-163.4029933236545
 21
-51.89223032311334
 31
0.0
  0
ENDBLK
  5
57
330
55
100
AcDbEntity
  8
0
100
AcDbBlockEnd
  0
BLOCK
  5
5A
330
58
100
AcDbEntity
  8
0
100
AcDbBlockBegin
  2
Vordans3
 70
     0
 10
-164.0
 20
-91.0
 30
0.0
  3
Vordans3
  1

  0
INSERT
  5
59
330
58
100
AcDbEntity
  8
0
100
AcDbBlockReference
  2
Wanddurchführung_Option_3__3
 10
-194.3463036924255
 20
-137.8068196038573
 30
0.0
  0
MTEXT
  5
DA
330
58
100
AcDbEntity
  8
1
 62
     6
100
AcDbMText
 10
-163.99891805649
 20
-142.7989716529801
 30
0.0
 40
5.0
 41
0.0
 71
     2
 72
     1
  1
 
  7
CONVERTER_11
 73
     1
 44
1.32052821128451
  0
DIMENSION
  5
E7
330
58
100
AcDbEntity
  8
1
100
AcDbDimension
  2
*D22
 10
-160.0677241670957
 20
-145.5904120923178
 30
0.0
 11
-138.449117756262
 21
-142.1654120923178
 31
0.0
 70
    32
  1
<>
 71
     5
 42
-1.0
 53
0.00013888888889
  3
ME10_DIM_13
100
AcDbAlignedDimension
 13
-154.8677241670951
 23
-95.3298203500405
 33
0.0
 14
-160.0677241670957
 24
-98.89249113082829
 34
0.0
100
AcDbRotatedDimension
  0
INSERT
  5
EF
330
58
100
AcDbEntity
  8
1
100
AcDbBlockReference
  2
*D23
 10
0.0
 20
0.0
 30
0.0
  0
ENDBLK
  5
5B
330
58
100
AcDbEntity
  8
0
100
AcDbBlockEnd
  0
BLOCK
  5
5D
330
5C
100
AcDbEntity
  8
0
100
AcDbBlockBegin
  2
Wanddurchführung_Option_3__4
 70
     0
 10
-94.81545199997458
 20
-137.7990065954238
 30
0.0
  3
Wanddurchführung_Option_3__4
  1

  0
LINE
  5
F0
330
5C
100
AcDbEntity
  8
0
  6
Continuous
 62
     7
100
AcDbLine
 10
-94.81545199997458
 20
-44.18724938735988
 30
0.0
 11
-88.81545199997456
 21
-44.18724938735988
 31
0.0
  0
LINE
  5
F1
330
5C
100
AcDbEntity
  8
0
  6
Continuous
 62
     7
100
AcDbLine
 10
-94.81545199997458
 20
-137.7990065954238
 30
0.0
 11
-94.81545199997458
 21
-135.5904120923178
 31
0.0
  0
LINE
  5
F2
330
5C
100
AcDbEntity
  8
0
  6
Continuous
 62
     7
100
AcDbLine
 10
-94.81545199997458
 20
-137.7990065954238
 30
0.0
 11
-88.81545199997456
 21
-137.7990065954238
 31
0.0
  0
LINE
  5
F3
330
5C
100
AcDbEntity
  8
0
  6
Continuous
 62
     7
100
AcDbLine
 10
-88.81545199997456
 20
-135.5904120923178
 30
0.0
 11
-88.81545199997456
 21
-44.18724938735988
 31
0.0
  0
LINE
  5
F4
330
5C
100
AcDbEntity
  8
0
  6
Continuous
 62
     7
100
AcDbLine
 10
-94.81545199997458
 20
-135.5904120923178
 30
0.0
 11
-88.81545199997456
 21
-135.5904120923178
 31
0.0
  0
LINE
  5
F5
330
5C
100
AcDbEntity
  8
0
  6
Continuous
 62
     7
100
AcDbLine
 10
-88.81545199997456
 20
-137.7990065954238
 30
0.0
 11
-88.81545199997456
 21
-135.5904120923178
 31
0.0
  0
LINE
  5
F6
330
5C
100
AcDbEntity
  8
0
  6
Continuous
 62
     7
100
AcDbLine
 10
-94.81545199997458
 20
-135.5904120923178
 30
0.0
 11
-94.81545199997458
 21
-44.18724938735988
 31
0.0
  0
ENDBLK
  5
5E
330
5C
100
AcDbEntity
  8
0
100
AcDbBlockEnd
  0
BLOCK
  5
61
330
5F
100
AcDbEntity
  8
0
100
AcDbBlockBegin
  2
SA_Links2
 70
     0
 10
-90.81545199999957
 20
-91.0000000000004
 30
0.0
  3
SA_Links2
  1

  0
INSERT
  5
60
330
5F
100
AcDbEntity
  8
0
100
AcDbBlockReference
  2
Wanddurchführung_Option_3__4
 10
-94.81545199997458
 20
-137.7990065954238
 30
0.0
  0
MTEXT
  5
F7
330
5F
100
AcDbEntity
  8
1
 62
     6
100
AcDbMText
 10
-91.81545156549612
 20
-142.7989716529801
 30
0.0
 40
5.0
 41
0.0
 71
     2
 72
     1
  1
 
  7
CONVERTER_11
 73
     1
 44
1.32052821128451
  0
DIMENSION
  5
104
330
5F
100
AcDbEntity
  8
1
100
AcDbDimension
  2
*D24
 10
-94.81545199997458
 20
-145.5904120923178
 30
0.0
 11
-106.270305803036
 21
-142.8654120923178
 31
0.0
 70
    32
  1
c
 71
     5
 42
-1.0
 53
0.00013888888889
  3
ME10_DIM_14
100
AcDbAlignedDimension
 13
-88.81545199997456
 23
-135.5904120923178
 33
0.0
 14
-94.81545199997458
 24
-135.5904120923178
 34
0.0
100
AcDbRotatedDimension
  0
ENDBLK
  5
62
330
5F
100
AcDbEntity
  8
0
100
AcDbBlockEnd
  0
BLOCK
  5
64
330
63
100
AcDbEntity
  8
0
100
AcDbBlockBegin
  2
Wanddurchführung_Option_2__5
 70
     0
 10
-397.3463036924255
 20
-137.8068196038573
 30
0.0
  3
Wanddurchführung_Option_2__5
  1

  0
LINE
  5
105
330
63
100
AcDbEntity
  8
1
  6
DOT_CENTER
 62
     2
100
AcDbLine
 10
-356.4127241670951
 20
-92.23749113082887
 30
0.0
 11
-369.7227241670951
 21
-92.23749113082887
 31
0.0
  0
LINE
  5
106
330
63
100
AcDbEntity
  8
1
  6
DOT_CENTER
 62
     2
100
AcDbLine
 10
-363.0677241670951
 20
-85.58249113082883
 30
0.0
 11
-363.0677241670951
 21
-98.89249113082892
 31
0.0
  0
CIRCLE
  5
107
330
63
100
AcDbEntity
  8
0
  6
Continuous
 62
     7
100
AcDbCircle
 10
-363.0677241670951
 20
-92.23749113082887
 30
0.0
 40
6.050000000000037
  0
SPLINE
  5
108
330
63
100
AcDbEntity
  8
0
  6
Continuous
 62
     7
100
AcDbSpline
210
0.0
220
0.0
230
1.0
 70
    11
 71
     3
 72
   284
 73
   280
 74
   278
 42
0.000000001
 43
0.0000000001
 44
0.00000001
 40
0.0
 40
0.0
 40
0.0
 40
0.0
 40
1.546732916318985
 40
3.084853329339144
 40
4.618772122996229
 40
6.150439496902493
 40
7.679636396838817
 40
9.204282499336497
 40
10.72073448311733
 40
12.22406061159933
 40
13.7082868681858
 40
15.16661607605603
 40
16.59162544910735
 40
18.15448012799904
 40
19.65277708760933
 40
21.07467356793707
 40
22.408724432664
 40
23.64451205943336
 40
24.77361792458659
 40
25.61123632428209
 40
26.37517675091616
 40
27.07022770283162
 40
27.42957415433092
 40
27.77435566578212
 40
27.85878110248144
 40
27.94262470491388
 40
28.02587554437655
 40
28.10888457244871
 40
28.27377130472219
 40
28.43795746214331
 40
28.90665004599576
 40
29.38815630211657
 40
29.89341826786921
 40
30.57294657576205
 40
31.31324435336232
 40
32.12008114535611
 40
32.9957793510262
 40
33.94029548857781
 40
35.31148498322339
 40
36.79634886487975
 40
38.3856678379403
 40
40.06880441126238
 40
41.83420732959251
 40
43.66973312609336
 40
45.56286125496653
 40
47.50084651889517
 40
51.39256812395058
 40
55.3105731508385
 40
57.24963427531667
 40
59.16002688091717
 40
60.10104301563599
 40
61.03083138746013
 40
61.49112017470597
 40
61.9481308691261
 40
62.44661477748151
 40
62.85172263005326
 40
65.1922632511523
 40
67.44172505449696
 40
69.60991816836956
 40
71.70445838026363
 40
73.73201254856055
 40
75.69981454581732
 40
77.34469885598561
 40
78.96113339791015
 40
80.56069590375402
 40
82.15889126532501
 40
82.96371885785516
 40
83.77603328447418
 40
84.00125271600574
 40
84.18601213910793
 40
84.39209846133737
 40
84.59893183523121
 40
85.0148460952397
 40
85.43375146444153
 40
87.13737573546489
 40
88.87819769863812
 40
90.36099472288919
 40
91.85052380031928
 40
93.33887980237463
 40
94.8213477615686
 40
96.29833532464588
 40
97.278742750215
 40
98.26425611935638
 40
98.5123941191505
 40
98.76093326179264
 40
99.01061182684022
 40
99.26128467295678
 40
99.76574511513375
 40
100.274543579906
 40
101.6521638069695
 40
103.0570198995126
 40
104.4803840752488
 40
105.9418538387493
 40
107.3944658064404
 40
108.821562215401
 40
110.206330716264
 40
111.5329673234952
 40
112.7881618340457
 40
113.807906139734
 40
114.7668305081755
 40
115.6705592256679
 40
115.8227135175628
 40
115.9737549677484
 40
116.1106674700004
 40
116.2730058225433
 40
116.564493318474
 40
116.8639853367768
 40
117.4316652241724
 40
118.0447442757945
 40
118.7433494462267
 40
119.5331557719113
 40
120.0228404721418
 40
120.5605047055561
 40
121.1502264301666
 40
122.2455579015057
 40
123.4045633113971
 40
124.6258889350776
 40
125.6111417302027
 40
126.5669851061379
 40
127.6179167047436
 40
128.6229994500557
 40
129.7553335881121
 40
130.9102674902519
 40
132.139057056493
 40
133.2722520550356
 40
133.9981156702278
 40
134.80050607283
 40
135.6763113825141
 40
136.4063577065821
 40
137.211947120547
 40
138.0882087320355
 40
138.9519657086314
 40
139.7485631157983
 40
140.4728392949172
 40
141.1827738975401
 40
141.9594270085714
 40
142.79467134311
 40
143.1019989385742
 40
143.3611539716363
 40
143.6419630423179
 40
143.9211708821177
 40
144.4749060347328
 40
145.0226051306484
 40
146.1008026442553
 40
147.1575142428082
 40
149.2126193690446
 40
151.1990981041057
 40
153.1265847464146
 40
155.0042033979579
 40
156.8416962430485
 40
158.6506731890034
 40
160.4458835908979
 40
162.2463477910827
 40
163.4722103445063
 40
164.7199100113304
 40
165.9991181657816
 40
167.3203986314058
 40
167.6586544585772
 40
168.0004248120551
 40
168.1915353029529
 40
168.3458938467874
 40
168.5200162971297
 40
168.6949634831026
 40
169.4010559083708
 40
170.1124546596729
 40
171.5244780874456
 40
172.876711673531
 40
173.7675212916579
 40
174.5848346152872
 40
174.9615947127473
 40
175.3153833893726
 40
175.4001787577565
 40
175.4835014442195
 40
175.5629463968449
 40
175.6457856364268
 40
175.8025133494886
 40
175.9540556728629
 40
176.5356813726387
 40
177.0657694497166
 40
177.557483821562
 40
178.0625790897013
 40
178.7349060949122
 40
179.4884557347709
 40
180.2557156636759
 40
181.1040178034546
 40
182.0325532293151
 40
183.0380818534511
 40
184.4935107883226
 40
186.0637487341936
 40
187.7328237312795
 40
189.4836347102674
 40
191.2984088511127
 40
193.1589963605106
 40
195.0470797528529
 40
196.9443418404163
 40
198.8326215215418
 40
200.6014741007477
 40
202.3312840702011
 40
203.1770977469053
 40
204.0078912355444
 40
204.4494899103018
 40
204.822045454281
 40
205.2224825079031
 40
205.6185526354735
 40
207.661728396328
 40
209.6007949510377
 40
211.4508013523252
 40
213.5716306300949
 40
215.6025275505727
 40
217.5597943469546
 40
219.4576730636829
 40
221.3097675297423
 40
222.3879595876434
 40
223.4587062485215
 40
223.7256872554747
 40
223.9925132286433
 40
224.2861293189769
 40
224.5259796847541
 40
225.0596236983762
 40
225.5938395534536
 40
227.7427717253607
 40
229.925010014941
 40
232.1549009967146
 40
234.4435848126297
 40
236.8003817686374
 40
239.2340931298755
 40
241.6937131478444
 40
244.2458731030808
 40
246.9028923048385
 40
247.9293295192176
 40
248.9734699638311
 40
249.5024764747609
 40
250.0362668951683
 40
250.3335152169631
 40
250.5749678423706
 40
250.8461518870055
 40
251.1184682864387
 40
253.3275433237276
 40
255.5594717974575
 40
257.0370181068863
 40
258.4907003536369
 40
259.906834138358
 40
261.2719004931832
 40
262.5727262487846
 40
263.7967394801286
 40
264.9323646878673
 40
265.9696784026138
 40
266.6806450696949
 40
267.3306040497298
 40
267.9206184688009
 40
268.4554596047036
 40
268.7250489952037
 40
268.9839867023202
 40
269.0474551904915
 40
269.1105141235232
 40
269.1694245635887
 40
269.2356503821897
 40
269.359913048486
 40
269.4838569843079
 40
269.9742209214805
 40
270.4939388631365
 40
271.036513415158
 40
271.6319542465659
 40
272.2845922142533
 40
273.2723825611436
 40
274.3656969319204
 40
275.556795829117
 40
276.8355804402515
 40
278.1906652267948
 40
279.588874720534
 40
281.0377936788378
 40
282.5258260180872
 40
284.0417400756942
 40
285.5749208031632
 40
287.1156423520348
 40
288.6553833237506
 40
290.1872047597457
 40
291.7062079157289
 40
293.2100812703977
 40
293.2100812703977
 40
293.2100812703977
 40
293.2100812703977
 10
-366.4029933236545
 20
-51.89223032311334
 30
0.0
 10
-365.8891540249725
 20
-51.93777280680203
 30
0.0
 10
-364.864336583389
 20
-52.02860419479722
 30
0.0
 10
-363.3225911772612
 20
-52.01144067436103
 30
0.0
 10
-361.7915785477481
 20
-51.89653359182751
 30
0.0
 10
-360.2736892137165
 20
-51.68477009021713
 30
0.0
 10
-358.7729209777212
 20
-51.39165960122686
 30
0.0
 10
-357.2928386561006
 20
-51.02871001003621
 30
0.0
 10
-355.8371427029042
 20
-50.60842254305793
 30
0.0
 10
-354.409527836457
 20
-50.14297843517097
 30
0.0
 10
-353.0137220860198
 20
-49.64460626325976
 30
0.0
 10
-351.6534743586767
 20
-49.12549245437278
 30
0.0
 10
-350.2771275980684
 20
-48.57568085679825
 30
0.0
 10
-348.893914898557
 20
-48.00741287471353
 30
0.0
 10
-347.5126578182912
 20
-47.43714617017103
 30
0.0
 10
-346.1975573592735
 20
-46.90651855597091
 30
0.0
 10
-344.9539580543535
 20
-46.43290648278924
 30
0.0
 10
-343.7870560288476
 20
-46.03363186170783
 30
0.0
 10
-342.7593080963766
 20
-45.74204526542161
 30
0.0
 10
-341.8669165183342
 20
-45.55823921184142
 30
0.0
 10
-341.105076318809
 20
-45.4713554601868
 30
0.0
 10
-340.4966568941725
 20
-45.47630234852707
 30
0.0
 10
-340.0339660639654
 20
-45.54001741632405
 30
0.0
 10
-339.7781007638733
 20
-45.6028976787454
 30
0.0
 10
-339.6154857997132
 20
-45.65589343467762
 30
0.0
 10
-339.5365731498413
 20
-45.68425296326497
 30
0.0
 10
-339.4590073395677
 20
-45.71484742703058
 30
0.0
 10
-339.3576089208018
 20
-45.75850047005965
 30
0.0
 10
-339.2340060892484
 20
-45.81865375112482
 30
0.0
 10
-339.0024310721647
 20
-45.94961321745115
 30
0.0
 10
-338.7014198737152
 20
-46.17073478375966
 30
0.0
 10
-338.3615734552545
 20
-46.5196118023672
 30
0.0
 10
-338.0347565272072
 20
-46.97077183049934
 30
0.0
 10
-337.7338815276525
 20
-47.54002916307684
 30
0.0
 10
-337.4700072789649
 20
-48.23527730481721
 30
0.0
 10
-337.2577677824023
 20
-49.01553822059842
 30
0.0
 10
-337.0931403129537
 20
-49.87628800877664
 30
0.0
 10
-336.9570887261651
 20
-50.93186470488811
 30
0.0
 10
-336.8671868699324
 20
-52.19624822852919
 30
0.0
 10
-336.8332470111461
 20
-53.67804511993002
 30
0.0
 10
-336.8541885505771
 20
-55.26394060066526
 30
0.0
 10
-336.9215332986971
 20
-56.94201991441444
 30
0.0
 10
-337.0268092387625
 20
-58.70030587840891
 30
0.0
 10
-337.1615009296623
 20
-60.52673538918515
 30
0.0
 10
-337.3170611837799
 20
-62.40921094491036
 30
0.0
 10
-337.5405768956153
 20
-64.97377073860983
 30
0.0
 10
-337.8248621982585
 20
-68.21053147102907
 30
0.0
 10
-338.0655271003023
 20
-71.45149845418933
 30
0.0
 10
-338.2014974192397
 20
-74.03718876541157
 30
0.0
 10
-338.255461757524
 20
-75.63323549283946
 30
0.0
 10
-338.2756431801251
 20
-76.89350174778625
 30
0.0
 10
-338.2778427687235
 20
-77.67055800018629
 30
0.0
 10
-338.2728058522552
 20
-78.28623844861178
 30
0.0
 10
-338.2653049330789
 20
-78.75811133179376
 30
0.0
 10
-338.2542404788431
 20
-79.21151792196213
 30
0.0
 10
-338.2185455104644
 20
-80.29231120478241
 30
0.0
 10
-338.1186053102318
 20
-81.95493204670116
 30
0.0
 10
-337.9011446378629
 20
-84.19745731734736
 30
0.0
 10
-337.6389401482627
 20
-86.35240561559488
 30
0.0
 10
-337.3638966743265
 20
-88.4310395528178
 30
0.0
 10
-337.1078468329116
 20
-90.44482778621685
 30
0.0
 10
-336.9121252481809
 20
-92.31501276520059
 30
0.0
 10
-336.7963923639656
 20
-94.05470303477712
 30
0.0
 10
-336.7682229711006
 20
-95.67560896354463
 30
0.0
 10
-336.8417716359646
 20
-97.27990458544055
 30
0.0
 10
-337.004858445717
 20
-98.60578865779789
 30
0.0
 10
-337.2051256886314
 20
-99.65899722006068
 30
0.0
 10
-337.3474347452648
 20
-100.2566710163546
 30
0.0
 10
-337.4537275307443
 20
-100.6499991517362
 30
0.0
 10
-337.509676572458
 20
-100.8475901270013
 30
0.0
 10
-337.5660663985006
 20
-101.038674019869
 30
0.0
 10
-337.6471786818358
 20
-101.3027817486679
 30
0.0
 10
-337.7543251005112
 20
-101.6330803946637
 30
0.0
 10
-338.0304663886591
 20
-102.4329468991893
 30
0.0
 10
-338.5011956391323
 20
-103.6323371746765
 30
0.0
 10
-339.1526147195252
 20
-105.1400374029843
 30
0.0
 10
-339.7822113548748
 20
-106.5794174885646
 30
0.0
 10
-340.3568719386192
 20
-107.950922725319
 30
0.0
 10
-340.8828198937495
 20
-109.342116821608
 30
0.0
 10
-341.3294188183123
 20
-110.756914891869
 30
0.0
 10
-341.6277579303234
 20
-112.0377699266424
 30
0.0
 10
-341.796198682997
 20
-113.1738287152367
 30
0.0
 10
-341.8502006367132
 20
-113.9107461528071
 30
0.0
 10
-341.8611301113094
 20
-114.404708433101
 30
0.0
 10
-341.8614405736022
 20
-114.6535140159282
 30
0.0
 10
-341.8564364166366
 20
-114.9031125607229
 30
0.0
 10
-341.8428702731813
 20
-115.2377940463291
 30
0.0
 10
-341.8133784220176
 20
-115.6581847479871
 30
0.0
 10
-341.7289450402495
 20
-116.4507937457018
 30
0.0
 10
-341.5465793907042
 20
-117.5339191176402
 30
0.0
 10
-341.2216068094659
 20
-118.8983914625631
 30
0.0
 10
-340.8226255774597
 20
-120.2719155881445
 30
0.0
 10
-340.3735415478047
 20
-121.6463691855476
 30
0.0
 10
-339.899654728461
 20
-123.0136515978087
 30
0.0
 10
-339.4307261193002
 20
-124.3555648695368
 30
0.0
 10
-338.9931788598287
 20
-125.6639459833217
 30
0.0
 10
-338.6134036482978
 20
-126.9307925015102
 30
0.0
 10
-338.3298657112539
 20
-128.098269671249
 30
0.0
 10
-338.1548580351339
 20
-129.1631666565594
 30
0.0
 10
-338.0899906471167
 20
-130.1235165315311
 30
0.0
 10
-338.1305000420311
 20
-130.7967338192556
 30
0.0
 10
-338.1937360395086
 20
-131.1940786324472
 30
0.0
 10
-338.2210408146271
 20
-131.3382423324707
 30
0.0
 10
-338.2532617494319
 20
-131.4848607112088
 30
0.0
 10
-338.3015057470858
 20
-131.6758057511681
 30
0.0
 10
-338.3745642419359
 20
-131.9162311180484
 30
0.0
 10
-338.5096609236323
 20
-132.2782823430683
 30
0.0
 10
-338.7238667811359
 20
-132.7241295339817
 30
0.0
 10
-339.0608141026214
 20
-133.2539623920427
 30
0.0
 10
-339.5063798689373
 20
-133.7967188820828
 30
0.0
 10
-339.984106545904
 20
-134.253529749396
 30
0.0
 10
-340.4568744463286
 20
-134.632697677646
 30
0.0
 10
-340.8979092473615
 20
-134.9432324005331
 30
0.0
 10
-341.5287994008642
 20
-135.3324801035558
 30
0.0
 10
-342.3737633949616
 20
-135.7656014267578
 30
0.0
 10
-343.4463303105189
 20
-136.2064262279385
 30
0.0
 10
-344.512301821759
 20
-136.5587565099181
 30
0.0
 10
-345.5297002117778
 20
-136.8358250413239
 30
0.0
 10
-346.5020511040278
 20
-137.0587411745987
 30
0.0
 10
-347.4884268383175
 20
-137.2469716378841
 30
0.0
 10
-348.5385700652017
 20
-137.4114359980829
 30
0.0
 10
-349.6277285954901
 20
-137.5475624264566
 30
0.0
 10
-350.7946750034195
 20
-137.6581763283434
 30
0.0
 10
-351.9645683002947
 20
-137.7357250466579
 30
0.0
 10
-352.9931127490296
 20
-137.7772896749003
 30
0.0
 10
-353.8800886551111
 20
-137.7962081920544
 30
0.0
 10
-354.6814598171222
 20
-137.8011571766369
 30
0.0
 10
-355.484205612863
 20
-137.7931835429926
 30
0.0
 10
-356.2877927136208
 20
-137.7731500747405
 30
0.0
 10
-357.0911758550356
 20
-137.7417905595195
 30
0.0
 10
-357.9384994871153
 20
-137.6957868369982
 30
0.0
 10
-358.7820085182784
 20
-137.6367459166249
 30
0.0
 10
-359.5740551916452
 20
-137.5694042814797
 30
0.0
 10
-360.3140667115103
 20
-137.4961933791014
 30
0.0
 10
-361.0464421163685
 20
-137.4139757778557
 30
0.0
 10
-361.8143044714457
 20
-137.3169278877127
 30
0.0
 10
-362.4477070364288
 20
-137.2268602624962
 30
0.0
 10
-362.9095149823756
 20
-137.1557907100833
 30
0.0
 10
-363.1884073438209
 20
-137.1112165290169
 30
0.0
 10
-363.4578013549049
 20
-137.0666293685931
 30
0.0
 10
-363.8237228463033
 20
-137.0039420556234
 30
0.0
 10
-364.2766802092727
 20
-136.9224806297685
 30
0.0
 10
-364.990364181237
 20
-136.7863306649029
 30
0.0
 10
-365.8661730109762
 20
-136.6055952549797
 30
0.0
 10
-367.2288313478507
 20
-136.2989708457312
 30
0.0
 10
-368.8780353795544
 20
-135.8879769540431
 30
0.0
 10
-370.7988769197013
 20
-135.36893957476
 30
0.0
 10
-372.659032961829
 20
-134.8524839800543
 30
0.0
 10
-374.4749459517201
 20
-134.3622576699962
 30
0.0
 10
-376.2631650552877
 20
-133.9219665216066
 30
0.0
 10
-378.0402990434566
 20
-133.5554833672355
 30
0.0
 10
-379.822821987235
 20
-133.2869287440274
 30
0.0
 10
-381.4263888257768
 20
-133.1570997572595
 30
0.0
 10
-382.8516640541559
 20
-133.1384419366573
 30
0.0
 10
-384.1020610737071
 20
-133.1956144778141
 30
0.0
 10
-385.378187345388
 20
-133.3333824687332
 30
0.0
 10
-386.3442215967785
 20
-133.5001988698301
 30
0.0
 10
-386.996660545994
 20
-133.6393494786717
 30
0.0
 10
-387.2796744913212
 20
-133.7044013159988
 30
0.0
 10
-387.5022920896822
 20
-133.7584383281445
 30
0.0
 10
-387.6702760166194
 20
-133.8006183485071
 30
0.0
 10
-387.8327362779436
 20
-133.8426561459453
 30
0.0
 10
-388.1726195621475
 20
-133.9331461339167
 30
0.0
 10
-388.683337898535
 20
-134.0779937958076
 30
0.0
 10
-389.5860909905517
 20
-134.3512504624977
 30
0.0
 10
-390.6897289701285
 20
-134.7036463901834
 30
0.0
 10
-391.8533829230008
 20
-135.0651460281922
 30
0.0
 10
-392.8379921661124
 20
-135.3326844536059
 30
0.0
 10
-393.5178947000128
 20
-135.4797557734747
 30
0.0
 10
-394.0285003414987
 20
-135.5551299963359
 30
0.0
 10
-394.2993707158769
 20
-135.5798380237804
 30
0.0
 10
-394.473163867298
 20
-135.5878244657758
 30
0.0
 10
-394.5556598162853
 20
-135.5900616992864
 30
0.0
 10
-394.6375324205997
 20
-135.5906736864483
 30
0.0
 10
-394.7438649107387
 20
-135.5892834207403
 30
0.0
 10
-394.8741634121733
 20
-135.58342744943
 30
0.0
 10
-395.1695816209329
 20
-135.5568390095672
 30
0.0
 10
-395.5854096047937
 20
-135.4700001832709
 30
0.0
 10
-396.072601852107
 20
-135.2365825632183
 30
0.0
 10
-396.4644947825086
 20
-134.9036601560877
 30
0.0
 10
-396.7943299551699
 20
-134.4500626849211
 30
0.0
 10
-397.0491051248407
 20
-133.8533309878904
 30
0.0
 10
-397.2095868551465
 20
-133.1372770250537
 30
0.0
 10
-397.2846809499009
 20
-132.3498005356753
 30
0.0
 10
-397.2888261238111
 20
-131.5009127253556
 30
0.0
 10
-397.2302095569057
 20
-130.5747761084708
 30
0.0
 10
-397.1000958802023
 20
-129.4520758524689
 30
0.0
 10
-396.8823772835469
 20
-128.1255936995815
 30
0.0
 10
-396.5706656245688
 20
-126.5917954930735
 30
0.0
 10
-396.1959463035835
 20
-124.9710366245798
 30
0.0
 10
-395.7721770961979
 20
-123.2783327309415
 30
0.0
 10
-395.3133415326027
 20
-121.5287556169085
 30
0.0
 10
-394.8334925995541
 20
-119.7374297872544
 30
0.0
 10
-394.3467086978164
 20
-117.9194952876995
 30
0.0
 10
-393.8670861476483
 20
-116.0900980278298
 30
0.0
 10
-393.4162288211928
 20
-114.2943098078611
 30
0.0
 10
-393.0062101438828
 20
-112.5460125631724
 30
0.0
 10
-392.704981481545
 20
-111.1293636994177
 30
0.0
 10
-392.4919612040459
 20
-110.0140147561605
 30
0.0
 10
-392.3704185406676
 20
-109.3184484774038
 30
0.0
 10
-392.2834886760301
 20
-108.7770587366292
 30
0.0
 10
-392.2231331003372
 20
-108.3767138189496
 30
0.0
 10
-392.1687476027489
 20
-107.9908319315341
 30
0.0
 10
-392.0459363450063
 20
-107.0522688824752
 30
0.0
 10
-391.9008748179326
 20
-105.5993079428246
 30
0.0
 10
-391.8048549288773
 20
-103.6568769104764
 30
0.0
 10
-391.7976887678581
 20
-101.6863183156531
 30
0.0
 10
-391.877726053386
 20
-99.68671513259834
 30
0.0
 10
-392.0338335735694
 20
-97.65608366909487
 30
0.0
 10
-392.2292437241748
 20
-95.70375495263264
 30
0.0
 10
-392.4323860060429
 20
-93.81224741468594
 30
0.0
 10
-392.5877865080839
 20
-92.21025304746715
 30
0.0
 10
-392.6859016392727
 20
-90.88010351849033
 30
0.0
 10
-392.7261124717703
 20
-90.0756866326769
 30
0.0
 10
-392.7427369098215
 20
-89.54108983649341
 30
0.0
 10
-392.7491248366102
 20
-89.26535307815766
 30
0.0
 10
-392.7529770508758
 20
-88.99861246056643
 30
0.0
 10
-392.7549936731964
 20
-88.64291189116614
 30
0.0
 10
-392.7518435911149
 20
-88.2069942200101
 30
0.0
 10
-392.7260260558354
 20
-87.13500590540319
 30
0.0
 10
-392.6218269249646
 20
-85.51552530734251
 30
0.0
 10
-392.374159609487
 20
-83.34201868263611
 30
0.0
 10
-392.0461419706981
 20
-81.13236546452357
 30
0.0
 10
-391.6663029984034
 20
-78.87223254298647
 30
0.0
 10
-391.2630337407539
 20
-76.54722448804873
 30
0.0
 10
-390.867974137584
 20
-74.16295903222249
 30
0.0
 10
-390.5083912324027
 20
-71.70708187280611
 30
0.0
 10
-390.2097118949989
 20
-69.16789685314443
 30
0.0
 10
-390.0426759523851
 20
-67.0954375871203
 30
0.0
 10
-389.9624531520866
 20
-65.52155963299141
 30
0.0
 10
-389.9331198979937
 20
-64.65547729530164
 30
0.0
 10
-389.9186935318379
 20
-63.95330566462248
 30
0.0
 10
-389.9134977928709
 20
-63.49997982201431
 30
0.0
 10
-389.9119587108873
 20
-63.14248465816105
 30
0.0
 10
-389.9120597498394
 20
-62.87252223071936
 30
0.0
 10
-389.9132926830204
 20
-62.61087321821667
 30
0.0
 10
-389.9215814367594
 20
-61.69338299556428
 30
0.0
 10
-389.9646018868987
 20
-60.12265177024743
 30
0.0
 10
-390.0552521829441
 20
-58.15186292620221
 30
0.0
 10
-390.1438783971142
 20
-56.43309403568961
 30
0.0
 10
-390.2172889146906
 20
-54.98583211006112
 30
0.0
 10
-390.2797649757134
 20
-53.57556890724965
 30
0.0
 10
-390.3228385460976
 20
-52.21551818043969
 30
0.0
 10
-390.3380688489574
 20
-50.9188530904259
 30
0.0
 10
-390.3170735938062
 20
-49.69863335592744
 30
0.0
 10
-390.2514700394021
 20
-48.56782686728482
 30
0.0
 10
-390.1414768383924
 20
-47.61203125203419
 30
0.0
 10
-389.9939306861874
 20
-46.82574086994839
 30
0.0
 10
-389.823870273607
 20
-46.19712629116299
 30
0.0
 10
-389.6109590709549
 20
-45.64382416838714
 30
0.0
 10
-389.3855329352689
 20
-45.23483438045392
 30
0.0
 10
-389.1724405716488
 20
-44.95087385461328
 30
0.0
 10
-389.0370648707791
 20
-44.80659228690048
 30
0.0
 10
-388.9421894042191
 20
-44.71992577340535
 30
0.0
 10
-388.895270621597
 20
-44.67966644290906
 30
0.0
 10
-388.8464192349056
 20
-44.64029640419706
 30
0.0
 10
-388.7800462093151
 20
-44.59021776427347
 30
0.0
 10
-388.6933184610736
 20
-44.53121697142869
 30
0.0
 10
-388.4813120858031
 20
-44.40585579137934
 30
0.0
 10
-388.1261492370287
 20
-44.26525727733341
 30
0.0
 10
-387.6121877663998
 20
-44.18241405557573
 30
0.0
 10
-387.0577795193753
 20
-44.18568538058061
 30
0.0
 10
-386.4648174623861
 20
-44.26337314806159
 30
0.0
 10
-385.7373928998743
 20
-44.42919122254963
 30
0.0
 10
-384.8681467296949
 20
-44.70614527299595
 30
0.0
 10
-383.8518865519872
 20
-45.10346085545989
 30
0.0
 10
-382.7649928825285
 20
-45.58298133422679
 30
0.0
 10
-381.6127122991726
 20
-46.12891862308113
 30
0.0
 10
-380.4067589237753
 20
-46.72232631469961
 30
0.0
 10
-379.1529898743893
 20
-47.34692280779579
 30
0.0
 10
-377.8573737275468
 20
-47.9869136483416
 30
0.0
 10
-376.5194663093512
 20
-48.62977192514871
 30
0.0
 10
-375.1445639335798
 20
-49.26006245600148
 30
0.0
 10
-373.7379455676775
 20
-49.86240523042449
 30
0.0
 10
-372.3048183156378
 20
-50.4211263144859
 30
0.0
 10
-370.8504575851082
 20
-50.92156775968267
 30
0.0
 10
-369.3796187127814
 20
-51.34515981166596
 30
0.0
 10
-367.8986576273056
 20
-51.68755654910581
 30
0.0
 10
-366.8998817664928
 20
-51.82423375637431
 30
0.0
 10
-366.4029933236545
 20
-51.89223032311334
 30
0.0
 11
-366.4029933236545
 21
-51.89223032311334
 31
0.0
 11
-364.860242034504
 21
-52.00314107817914
 31
0.0
 11
-363.3221428254915
 21
-51.99506505928465
 31
0.0
 11
-361.7925262366052
 21
-51.88026107418995
 31
0.0
 11
-360.2752228078335
 21
-51.67098793065517
 31
0.0
 11
-358.7740630791648
 21
-51.37950443644041
 31
0.0
 11
-357.2928775905872
 21
-51.01806939930577
 31
0.0
 11
-355.8354968820894
 21
-50.59894162701137
 31
0.0
 11
-354.4057514936594
 21
-50.1343799273173
 31
0.0
 11
-353.007471965286
 21
-49.63664310798369
 31
0.0
 11
-351.6444888369571
 21
-49.11798997677062
 31
0.0
 11
-350.3206326486613
 21
-48.59067934143819
 31
0.0
 11
-348.8741871290796
 21
-47.99880933337937
 31
0.0
 11
-347.4883341861037
 21
-47.4293311512829
 31
0.0
 11
-346.1686288941242
 21
-46.90002259912927
 31
0.0
 11
-344.9206263275323
 21
-46.42866148089897
 31
0.0
 11
-343.7498815607191
 21
-46.0330256005725
 31
0.0
 11
-342.6619496680754
 21
-45.73089276213036
 31
0.0
 11
-341.8406829196964
 21
-45.56619451750927
 31
0.0
 11
-341.0810727601422
 21
-45.48497025245533
 31
0.0
 11
-340.3861230517612
 21
-45.49683317324698
 31
0.0
 11
-340.0302890367006
 21
-45.54695328929814
 31
0.0
 11
-339.6957039130909
 21
-45.63018240563119
 31
0.0
 11
-339.6154375096511
 21
-45.65635412410183
 31
0.0
 11
-339.536538971664
 21
-45.68472259920131
 31
0.0
 11
-339.4590962009986
 21
-45.71527287825256
 31
0.0
 11
-339.3828541094597
 21
-45.74810033972323
 31
0.0
 11
-339.2345946790712
 21
-45.82025833173222
 31
0.0
 11
-339.0916819919607
 21
-45.90108566734723
 31
0.0
 11
-338.7133462963943
 21
-46.17773497583509
 31
0.0
 11
-338.3758992292808
 21
-46.52121387165899
 31
0.0
 11
-338.0775209130666
 21
-46.92896383766951
 31
0.0
 11
-337.7556677734411
 21
-47.52743629179623
 31
0.0
 11
-337.4888407108394
 21
-48.21797529788071
 31
0.0
 11
-337.2734469648416
 21
-48.99552989020003
 31
0.0
 11
-337.1058937750281
 21
-49.85504910303125
 31
0.0
 11
-336.9825883809792
 21
-50.79148197065149
 31
0.0
 11
-336.8804218677284
 21
-52.15885998649477
 31
0.0
 11
-336.8426773873874
 21
-53.64324407024509
 31
0.0
 11
-336.8606960364879
 21
-55.23246090125019
 31
0.0
 11
-336.9258189115615
 21
-56.91433715885784
 31
0.0
 11
-337.02938710914
 21
-58.67669952241578
 31
0.0
 11
-337.1627417257549
 21
-60.50737467127178
 31
0.0
 11
-337.317223857938
 21
-62.39418928477356
 31
0.0
 11
-337.4841746022207
 21
-64.3249700422689
 31
0.0
 11
-337.8154120754953
 21
-68.20256965924767
 31
0.0
 11
-338.0955585574815
 21
-72.11054628915203
 31
0.0
 11
-338.1959041564032
 21
-74.04700925168866
 31
0.0
 11
-338.2587947830947
 21
-75.95636638869011
 31
0.0
 11
-338.2736234168074
 21
-76.8972656805508
 31
0.0
 11
-338.2760030294224
 21
-77.82705100729197
 31
0.0
 11
-338.2722030696854
 21
-78.28732410879829
 31
0.0
 11
-338.2649051949073
 21
-78.74427653065219
 31
0.0
 11
-338.2526916479687
 21
-79.24261079212795
 31
0.0
 11
-338.2393027201799
 21
-79.64749733034344
 31
0.0
 11
-338.1022585780675
 21
-81.98402237881712
 31
0.0
 11
-337.8892674232858
 21
-84.2233779050186
 31
0.0
 11
-337.6321571848933
 21
-86.37627263175439
 31
0.0
 11
-337.3627557919486
 21
-88.45341528183107
 31
0.0
 11
-337.1128911735103
 21
-90.46551457805518
 31
0.0
 11
-336.9143912586369
 21
-92.42327924323325
 31
0.0
 11
-336.8093163637978
 21
-94.0648040405825
 31
0.0
 11
-336.7852457745557
 21
-95.68105935304169
 31
0.0
 11
-336.8621699783799
 21
-97.27877111583203
 31
0.0
 11
-337.0600794627395
 21
-98.86466526417463
 31
0.0
 11
-337.2106507124837
 21
-99.65528258782243
 31
0.0
 11
-337.3989647151036
 21
-100.4454677332902
 31
0.0
 11
-337.4577229545083
 21
-100.662887285406
 31
0.0
 11
-337.5080481463288
 21
-100.84066079157
 31
0.0
 11
-337.5663574701491
 21
-101.0383261526388
 31
0.0
 11
-337.6270607662822
 21
-101.236051098955
 31
0.0
 11
-337.755244491946
 21
-101.6317196523646
 31
0.0
 11
-337.8917897643693
 21
-102.0277462890058
 31
0.0
 11
-338.5053951494334
 21
-103.6170304323632
 31
0.0
 11
-339.1880205885793
 21
-105.2184309498466
 31
0.0
 11
-339.7777946448636
 21
-106.5788917459473
 31
0.0
 11
-340.3488931808682
 21
-107.9545891453539
 31
0.0
 11
-340.8704596498898
 21
-109.3485661922516
 31
0.0
 11
-341.3116375052248
 21
-110.7638659308256
 31
0.0
 11
-341.6415702001695
 21
-112.2035314052612
 31
0.0
 11
-341.7839537052109
 21
-113.1735446307355
 31
0.0
 11
-341.8547886316726
 21
-114.1565090318924
 31
0.0
 11
-341.8602645909458
 21
-114.4045866020423
 31
0.0
 11
-341.8605600429613
 21
-114.6531255690739
 31
0.0
 11
-341.8555934621101
 21
-114.9027547318708
 31
0.0
 11
-341.8454785340799
 21
-115.1532234205547
 31
0.0
 11
-341.8104705184791
 21
-115.6564676719531
 31
0.0
 11
-341.7568697606137
 21
-116.1624349006472
 31
0.0
 11
-341.5331797516061
 21
-117.5217730741386
 31
0.0
 11
-341.2120513597485
 21
-118.8894342883091
 31
0.0
 11
-340.8187767110363
 21
-120.2573891952831
 31
0.0
 11
-340.3685020295754
 21
-121.6477656122793
 31
0.0
 11
-339.8962827203985
 21
-123.0214797211092
 31
0.0
 11
-339.4291394509904
 21
-124.3699534236284
 31
0.0
 11
-338.9940928888366
 21
-125.6846086216922
 31
0.0
 11
-338.618163701422
 21
-126.9568672171562
 31
0.0
 11
-338.3283725562315
 21
-128.1781511118758
 31
0.0
 11
-338.1681804307792
 21
-129.1852344907113
 31
0.0
 11
-338.1097840138233
 21
-130.142379099885
 31
0.0
 11
-338.1705862245884
 21
-131.0440601332765
 31
0.0
 11
-338.1945309326627
 21
-131.1943185090733
 31
0.0
 11
-338.2226711902473
 21
-131.3427154281017
 31
0.0
 11
-338.2520757806671
 21
-131.4764330534734
 31
0.0
 11
-338.29184783045
 21
-131.633824046743
 31
0.0
 11
-338.3766080026442
 21
-131.91271591377
 31
0.0
 11
-338.4812986351841
 21
-132.193314097097
 31
0.0
 11
-338.7267345749381
 21
-132.7051946046743
 31
0.0
 11
-339.0548607963333
 21
-133.2230740369609
 31
0.0
 11
-339.4967110540996
 21
-133.7642002088422
 31
0.0
 11
-340.0656862277601
 21
-134.3119787077792
 31
0.0
 11
-340.447325029119
 21
-134.6188059082662
 31
0.0
 11
-340.8865576087838
 21
-134.9288987474007
 31
0.0
 11
-341.3880252972746
 21
-135.2392241732261
 31
0.0
 11
-342.3609638989483
 21
-135.7423558752826
 31
0.0
 11
-343.4316887089141
 21
-136.1860245823611
 31
0.0
 11
-344.5904442619424
 21
-136.5719285180324
 31
0.0
 11
-345.5407947621021
 21
-136.8318458073144
 31
0.0
 11
-346.4722951545223
 21
-137.0461903392095
 31
0.0
 11
-347.5044475966875
 21
-137.2439744670284
 31
0.0
 11
-348.4973407270622
 21
-137.4000339323078
 31
0.0
 11
-349.6208552838136
 21
-137.5410858416636
 31
0.0
 11
-350.7705864217257
 21
-137.650587572196
 31
0.0
 11
-351.9966533076579
 21
-137.7323420185944
 31
0.0
 11
-353.128912538651
 21
-137.7783848107189
 31
0.0
 11
-353.8546098198656
 21
-137.7939232778352
 31
0.0
 11
-354.6569845016911
 21
-137.7989460489611
 31
0.0
 11
-355.5327472738237
 21
-137.7903142758154
 31
0.0
 11
-356.262567551178
 21
-137.7721484257091
 31
0.0
 11
-357.067544968365
 21
-137.7407531746874
 31
0.0
 11
-357.9425188232297
 21
-137.6932645954246
 31
0.0
 11
-358.8041675380275
 21
-137.6329520180356
 31
0.0
 11
-359.5978999488817
 21
-137.5654517281306
 31
0.0
 11
-360.3186553828547
 21
-137.4941243974856
 31
0.0
 11
-361.0241549778353
 21
-137.4148939643141
 31
0.0
 11
-361.7946717158225
 21
-137.317456746455
 31
0.0
 11
-362.6215851486842
 21
-137.1997823099373
 31
0.0
 11
-362.925335891968
 21
-137.1530304447461
 31
0.0
 11
-363.1812429319785
 21
-137.1121291239614
 31
0.0
 11
-363.4582838732817
 21
-137.0662809939277
 31
0.0
 11
-363.733483236875
 21
-137.0191394189407
 31
0.0
 11
-364.2784812095089
 21
-136.9211607013522
 31
0.0
 11
-364.8164848421458
 21
-136.8185624997638
 31
0.0
 11
-365.8725010543617
 21
-136.6009857592512
 31
0.0
 11
-366.9035158088993
 21
-136.3693654264585
 31
0.0
 11
-368.8984766873664
 21
-135.8758189000566
 31
0.0
 11
-370.8172389616644
 21
-135.3615727527641
 31
0.0
 11
-372.67567411591
 21
-134.8502768167873
 31
0.0
 11
-374.4896536342205
 21
-134.3655809243322
 31
0.0
 11
-376.2750490007132
 21
-133.9311349076051
 31
0.0
 11
-378.047731699505
 21
-133.570588598812
 31
0.0
 11
-379.8235732147133
 21
-133.3075918301592
 31
0.0
 11
-381.6184450304552
 21
-133.1657944338528
 31
0.0
 11
-382.8442114795265
 21
-133.1504447628357
 31
0.0
 11
-384.0905919637365
 21
-133.2078045689676
 31
0.0
 11
-385.3624143948634
 21
-133.3450678425907
 31
0.0
 11
-386.6645066846848
 21
-133.5694285740468
 31
0.0
 11
-386.9953250722236
 21
-133.6399707535833
 31
0.0
 11
-387.3284127490366
 21
-133.7165186084442
 31
0.0
 11
-387.514130530711
 21
-133.7615977089769
 31
0.0
 11
-387.6638434001483
 21
-133.7991825035349
 31
0.0
 11
-387.8324186120262
 21
-133.8427832564709
 31
0.0
 11
-388.001481198786
 21
-133.8877761408078
 31
0.0
 11
-388.6810501392167
 21
-134.0794857343903
 31
0.0
 11
-389.3621964853179
 21
-134.2847364069714
 31
0.0
 11
-390.7093155456866
 21
-134.7079153265255
 31
0.0
 11
-392.0030266821154
 21
-135.1014215742372
 31
0.0
 11
-392.8636731460228
 21
-135.3312681317235
 31
0.0
 11
-393.6636713684595
 21
-135.4986118293927
 31
0.0
 11
-394.0365323934359
 21
-135.5526750063929
 31
0.0
 11
-394.3889573632656
 21
-135.5837083491611
 31
0.0
 11
-394.4736643417788
 21
-135.5875790456573
 31
0.0
 11
-394.5569569530223
 21
-135.5898175702809
 31
0.0
 11
-394.636399779157
 21
-135.5903988397042
 31
0.0
 11
-394.7192317488696
 21
-135.5893013840655
 31
0.0
 11
-394.875796773799
 21
-135.5821621254533
 31
0.0
 11
-395.0267194367243
 21
-135.5684717787772
 31
0.0
 11
-395.5946673295917
 21
-135.4430778169202
 31
0.0
 11
-396.071285832306
 21
-135.2110688249335
 31
0.0
 11
-396.4467371430117
 21
-134.8935482164852
 31
0.0
 11
-396.747055042903
 21
-134.4874319906161
 31
0.0
 11
-397.019758539624
 21
-133.8728944369875
 31
0.0
 11
-397.193096867911
 21
-133.1395521678685
 31
0.0
 11
-397.271155858272
 21
-132.376273324639
 31
0.0
 11
-397.2795033531963
 21
-131.5280122565271
 31
0.0
 11
-397.2241104936032
 21
-130.601130566031
 31
0.0
 11
-397.1109484204121
 21
-129.6019898556489
 31
0.0
 11
-396.8799054599048
 21
-128.1650164617199
 31
0.0
 11
-396.57060871188
 21
-126.6255416394753
 31
0.0
 11
-396.197308659736
 21
-124.9987477321251
 31
0.0
 11
-395.7742557868719
 21
-123.2998170828793
 31
0.0
 11
-395.3157005766865
 21
-121.5439320349482
 31
0.0
 11
-394.8358935125782
 21
-119.7462749315415
 31
0.0
 11
-394.3490850779461
 21
-117.9220281158696
 31
0.0
 11
-393.8695257561887
 21
-116.0863739311423
 31
0.0
 11
-393.4114660307047
 21
-114.2544947205697
 31
0.0
 11
-393.009299497295
 21
-112.5319670643496
 31
0.0
 11
-392.6515898177291
 21
-110.8395468105025
 31
0.0
 11
-392.4932215277431
 21
-110.0086916724422
 31
0.0
 11
-392.3505457267738
 21
-109.1902410407023
 31
0.0
 11
-392.2805955597511
 21
-108.7542176884788
 31
0.0
 11
-392.2250880598168
 21
-108.3858204154123
 31
0.0
 11
-392.1692032321315
 21
-107.9893021687321
 31
0.0
 11
-392.1178213469674
 21
-107.596579050196
 31
0.0
 11
-391.9148987129291
 21
-105.5635051227705
 31
0.0
 11
-391.8185226190824
 21
-103.6268351064423
 31
0.0
 11
-391.8105565301329
 21
-101.7768458561401
 31
0.0
 11
-391.8921621881635
 21
-99.6575871786742
 31
0.0
 11
-392.0436217094339
 21
-97.63234588070215
 31
0.0
 11
-392.2335951609552
 21
-95.68432036754118
 31
0.0
 11
-392.4307426097388
 21
-93.79670904450848
 31
0.0
 11
-392.603724122796
 21
-91.95271031692133
 31
0.0
 11
-392.6818223218297
 21
-90.87735047713414
 31
0.0
 11
-392.7341053183467
 21
-89.80788102920398
 31
0.0
 11
-392.7423859290822
 21
-89.54102846774056
 31
0.0
 11
-392.7485487476316
 21
-89.27427367467222
 31
0.0
 11
-392.7527633683884
 21
-88.98068783462762
 31
0.0
 11
-392.7541187528423
 21
-88.74084129849142
 31
0.0
 11
-392.7503470287882
 21
-88.20721061405422
 31
0.0
 11
-392.7375612952836
 21
-87.67314778550691
 31
0.0
 11
-392.6051273674876
 21
-85.52830030042499
 31
0.0
 11
-392.3638656914712
 21
-83.35943959575235
 31
0.0
 11
-392.0420933896568
 21
-81.15288654257134
 31
0.0
 11
-391.6681275844664
 21
-78.89496201195821
 31
0.0
 11
-391.2702853983222
 21
-76.57198687499084
 31
0.0
 11
-390.8768839536461
 21
-74.1702820027471
 31
0.0
 11
-390.5241445333945
 21
-71.73608695419631
 31
0.0
 11
-390.229000587475
 21
-69.2010503689659
 31
0.0
 11
-390.0178148618182
 21
-66.55243721716994
 31
0.0
 11
-389.9656463709966
 21
-65.52732658722414
 31
0.0
 11
-389.930381988972
 21
-64.48378181509838
 31
0.0
 11
-389.9195232834767
 21
-63.95488676207
 31
0.0
 11
-389.9134119386802
 21
-63.42113132708195
 31
0.0
 11
-389.9121344763901
 21
-63.12388575033033
 31
0.0
 11
-389.9122204794967
 21
-62.88243314024187
 31
0.0
 11
-389.9134858248959
 21
-62.61125204767804
 31
0.0
 11
-389.9159321088458
 21
-62.33894663624906
 31
0.0
 11
-389.9711939679334
 21
-60.13056291796528
 31
0.0
 11
-390.0692893317363
 21
-57.90079117822143
 31
0.0
 11
-390.1440803049522
 21
-56.42513898109376
 31
0.0
 11
-390.216351966925
 21
-54.97325438454723
 31
0.0
 11
-390.2774893578288
 21
-53.55844092808245
 31
0.0
 11
-390.3188775178378
 21
-52.1940021512
 31
0.0
 11
-390.3319014871269
 21
-50.89324159340052
 31
0.0
 11
-390.30794630587
 21
-49.6694627941846
 31
0.0
 11
-390.2383970142414
 21
-48.53596929305274
 31
0.0
 11
-390.1146386524157
 21
-47.5060646295056
 31
0.0
 11
-389.9806520197946
 21
-46.80783745601095
 31
0.0
 11
-389.807472394731
 21
-46.1813747720249
 31
0.0
 11
-389.5914358982105
 21
-45.63233447499259
 31
0.0
 11
-389.3288786512192
 21
-45.16637446235936
 31
0.0
 11
-389.1664168008687
 21
-44.95123593300357
 31
0.0
 11
-388.9887354694635
 21
-44.76287967273446
 31
0.0
 11
-388.9418694477245
 21
-44.72007984790217
 31
0.0
 11
-388.8940070558394
 21
-44.6790235391727
 31
0.0
 11
-388.8481364002236
 21
-44.64205973377736
 31
0.0
 11
-388.7952685430776
 21
-44.6021742885729
 31
0.0
 11
-388.6925321460367
 21
-44.53227119143776
 31
0.0
 11
-388.585839167788
 21
-44.46919419365581
 31
0.0
 11
-388.1310972618651
 21
-44.28570961584395
 31
0.0
 11
-387.618885001589
 21
-44.19770200438899
 31
0.0
 11
-387.0763122771328
 21
-44.1962936402632
 31
0.0
 11
-386.4854054678631
 21
-44.26963480712615
 31
0.0
 11
-385.8483470196467
 21
-44.41138406002553
 31
0.0
 11
-384.9051675881639
 21
-44.70488419618275
 31
0.0
 11
-383.8851549247635
 21
-45.09847088334713
 31
0.0
 11
-382.7939117035271
 21
-45.57586465734516
 31
0.0
 11
-381.6370405985363
 21
-46.12078605400323
 31
0.0
 11
-380.4201442838725
 21
-46.71695560914779
 31
0.0
 11
-379.1677740666389
 21
-47.33869400086286
 31
0.0
 11
-377.8679212768655
 21
-47.97881029731099
 31
0.0
 11
-376.525946472689
 21
-48.62172854085745
 31
0.0
 11
-375.1472102122461
 21
-49.25187277386741
 31
0.0
 11
-373.7370730536736
 21
-49.85366703870612
 31
0.0
 11
-372.3008955551082
 21
-50.41153537773875
 31
0.0
 11
-370.844038274687
 21
-50.9099018333306
 31
0.0
 11
-369.3718617705463
 21
-51.33319044784682
 31
0.0
 11
-367.8897266008233
 21
-51.66582526365266
 31
0.0
 11
-366.4029933236545
 21
-51.89223032311334
 31
0.0
  0
ENDBLK
  5
65
330
63
100
AcDbEntity
  8
0
100
AcDbBlockEnd
  0
BLOCK
  5
68
330
66
100
AcDbEntity
  8
0
100
AcDbBlockBegin
  2
Vordans2
 70
     0
 10
-367.0
 20
-91.0
 30
0.0
  3
Vordans2
  1

  0
INSERT
  5
67
330
66
100
AcDbEntity
  8
0
100
AcDbBlockReference
  2
Wanddurchführung_Option_2__5
 10
-397.3463036924255
 20
-137.8068196038573
 30
0.0
  0
MTEXT
  5
109
330
66
100
AcDbEntity
  8
1
 62
     6
100
AcDbMText
 10
-366.99891805649
 20
-142.7989716529801
 30
0.0
 40
5.0
 41
0.0
 71
     2
 72
     1
  1
 
  7
CONVERTER_11
 73
     1
 44
1.32052821128451
  0
INSERT
  5
111
330
66
100
AcDbEntity
  8
1
100
AcDbBlockReference
  2
*D25
 10
0.0
 20
0.0
 30
0.0
  0
ENDBLK
  5
69
330
66
100
AcDbEntity
  8
0
100
AcDbBlockEnd
  0
BLOCK
  5
6B
330
6A
100
AcDbEntity
  8
0
100
AcDbBlockBegin
  2
Wanddurchführung_Option_2__6
 70
     0
 10
-306.8154519999746
 20
-137.7990065954238
 30
0.0
  3
Wanddurchführung_Option_2__6
  1

  0
LINE
  5
112
330
6A
100
AcDbEntity
  8
0
  6
Continuous
 62
     7
100
AcDbLine
 10
-306.8154519999746
 20
-135.5904120923178
 30
0.0
 11
-306.8154519999746
 21
-44.18724938735988
 31
0.0
  0
LINE
  5
113
330
6A
100
AcDbEntity
  8
0
  6
Continuous
 62
     7
100
AcDbLine
 10
-306.8154519999746
 20
-137.7990065954238
 30
0.0
 11
-306.8154519999746
 21
-135.5904120923178
 31
0.0
  0
LINE
  5
114
330
6A
100
AcDbEntity
  8
0
  6
Continuous
 62
     7
100
AcDbLine
 10
-300.8154519999746
 20
-137.7990065954238
 30
0.0
 11
-300.8154519999746
 21
-135.5904120923178
 31
0.0
  0
LINE
  5
115
330
6A
100
AcDbEntity
  8
0
  6
Continuous
 62
     7
100
AcDbLine
 10
-306.8154519999746
 20
-137.7990065954238
 30
0.0
 11
-300.8154519999746
 21
-137.7990065954238
 31
0.0
  0
LINE
  5
116
330
6A
100
AcDbEntity
  8
0
  6
Continuous
 62
     7
100
AcDbLine
 10
-300.8154519999746
 20
-135.5904120923178
 30
0.0
 11
-300.8154519999746
 21
-44.18724938735988
 31
0.0
  0
LINE
  5
117
330
6A
100
AcDbEntity
  8
0
  6
Continuous
 62
     7
100
AcDbLine
 10
-306.8154519999746
 20
-44.18724938735988
 30
0.0
 11
-300.8154519999746
 21
-44.18724938735988
 31
0.0
  0
LINE
  5
118
330
6A
100
AcDbEntity
  8
0
  6
Continuous
 62
     7
100
AcDbLine
 10
-306.8154519999746
 20
-135.5904120923178
 30
0.0
 11
-300.8154519999746
 21
-135.5904120923178
 31
0.0
  0
ENDBLK
  5
6C
330
6A
100
AcDbEntity
  8
0
100
AcDbBlockEnd
  0
BLOCK
  5
6F
330
6D
100
AcDbEntity
  8
0
100
AcDbBlockBegin
  2
SA_Links1
 70
     0
 10
-302.8154519999996
 20
-91.0000000000004
 30
0.0
  3
SA_Links1
  1

  0
INSERT
  5
6E
330
6D
100
AcDbEntity
  8
0
100
AcDbBlockReference
  2
Wanddurchführung_Option_2__6
 10
-306.8154519999746
 20
-137.7990065954238
 30
0.0
  0
MTEXT
  5
119
330
6D
100
AcDbEntity
  8
1
 62
     6
100
AcDbMText
 10
-303.8154515654961
 20
-142.7989716529801
 30
0.0
 40
5.0
 41
0.0
 71
     2
 72
     1
  1
 
  7
CONVERTER_11
 73
     1
 44
1.32052821128451
  0
DIMENSION
  5
126
330
6D
100
AcDbEntity
  8
1
100
AcDbDimension
  2
*D26
 10
-306.8154519999746
 20
-145.5904120923178
 30
0.0
 11
-316.989682424846
 21
-142.8654120923178
 31
0.0
 70
    32
  1
c
 71
     5
 42
-1.0
 53
0.00013888888889
  3
ME10_DIM_15
100
AcDbAlignedDimension
 13
-300.8154519999746
 23
-135.5904120923178
 33
0.0
 14
-306.8154519999746
 24
-135.5904120923178
 34
0.0
100
AcDbRotatedDimension
  0
ENDBLK
  5
70
330
6D
100
AcDbEntity
  8
0
100
AcDbBlockEnd
  0
BLOCK
  5
72
330
71
100
AcDbEntity
  8
0
100
AcDbBlockBegin
  2
_rahmen
 70
     0
 10
-42.70821969616969
 20
-314.224989179649
 30
0.0
  3
_rahmen
  1

  0
POINT
  5
127
330
71
100
AcDbEntity
  8
1
 62
     3
 60
     1
100
AcDbPoint
 10
-42.70821969616975
 20
-309.2249891796495
 30
0.0
  0
LINE
  5
128
330
71
100
AcDbEntity
  8
1
  6
Continuous
 62
     2
100
AcDbLine
 10
-247.7082196961697
 20
-314.224989179649
 30
0.0
 11
-316.0415530295028
 21
-314.224989179649
 31
0.0
  0
LINE
  5
129
330
71
100
AcDbEntity
  8
1
  6
Continuous
 62
     2
100
AcDbLine
 10
-111.0415530295031
 20
-314.224989179649
 30
0.0
 11
-42.70821969616969
 21
-314.224989179649
 31
0.0
  0
LINE
  5
12A
330
71
100
AcDbEntity
  8
1
  6
Continuous
 62
     2
100
AcDbLine
 10
-111.0415530295031
 20
-314.224989179649
 30
0.0
 11
-111.0415530295031
 21
-309.224989179649
 31
0.0
  0
LINE
  5
12B
330
71
100
AcDbEntity
  8
1
  6
Continuous
 62
     2
100
AcDbLine
 10
-179.3748863628363
 20
-314.224989179649
 30
0.0
 11
-179.3748863628363
 21
-309.2249891796519
 31
0.0
  0
LINE
  5
12C
330
71
100
AcDbEntity
  8
1
  6
Continuous
 62
     2
100
AcDbLine
 10
-247.7082196961697
 20
-314.224989179649
 30
0.0
 11
-247.7082196961697
 21
-309.224989179649
 31
0.0
  0
LINE
  5
12D
330
71
100
AcDbEntity
  8
1
  6
Continuous
 62
     2
100
AcDbLine
 10
-37.70821969617219
 20
-251.8249891796489
 30
0.0
 11
-37.70821969617219
 21
-194.4249891796488
 31
0.0
  0
LINE
  5
12E
330
71
100
AcDbEntity
  8
1
  6
Continuous
 62
     2
100
AcDbLine
 10
-37.70821969617219
 20
-251.8249891796489
 30
0.0
 11
-42.70821969616975
 21
-251.8249891796489
 31
0.0
  0
LINE
  5
12F
330
71
100
AcDbEntity
  8
1
  6
Continuous
 62
     2
100
AcDbLine
 10
-437.7082196961704
 20
-314.224989179649
 30
0.0
 11
-457.7082196961705
 21
-314.224989179649
 31
0.0
  0
LINE
  5
130
330
71
100
AcDbEntity
  8
1
  6
Continuous
 62
     2
100
AcDbLine
 10
-384.3748863628363
 20
-314.224989179649
 30
0.0
 11
-384.3748863628363
 21
-309.224989179649
 31
0.0
  0
LINE
  5
131
330
71
100
AcDbEntity
  8
1
  6
Continuous
 62
     2
100
AcDbLine
 10
-384.3748863628363
 20
-314.224989179649
 30
0.0
 11
-316.0415530295028
 21
-314.224989179649
 31
0.0
  0
LINE
  5
132
330
71
100
AcDbEntity
  8
1
  6
Continuous
 62
     6
100
AcDbLine
 10
-384.3748863628363
 20
-309.224989179649
 30
0.0
 11
-316.0415530295028
 21
-309.224989179649
 31
0.0
  0
LINE
  5
133
330
71
100
AcDbEntity
  8
1
  6
Continuous
 62
     6
100
AcDbLine
 10
-384.3748863628363
 20
-309.224989179649
 30
0.0
 11
-437.7082196961694
 21
-309.224989179649
 31
0.0
  0
LINE
  5
134
330
71
100
AcDbEntity
  8
1
  6
Continuous
 62
     2
100
AcDbLine
 10
-316.0415530295028
 20
-314.224989179649
 30
0.0
 11
-316.0415530295028
 21
-309.224989179649
 31
0.0
  0
LINE
  5
135
330
71
100
AcDbEntity
  8
1
  6
Continuous
 62
     2
100
AcDbLine
 10
-437.7082196961704
 20
-314.224989179649
 30
0.0
 11
-437.7082196961704
 21
-310.224989179649
 31
0.0
  0
LINE
  5
136
330
71
100
AcDbEntity
  8
1
  6
Continuous
 62
     2
100
AcDbLine
 10
-437.7082196961704
 20
-314.224989179649
 30
0.0
 11
-384.3748863628363
 21
-314.224989179649
 31
0.0
  0
LINE
  5
137
330
71
100
AcDbEntity
  8
1
  6
Continuous
 62
     2
100
AcDbLine
 10
-227.7082196961725
 20
-314.224989179649
 30
0.0
 11
-247.7082196961697
 21
-314.224989179649
 31
0.0
  0
LINE
  5
138
330
71
100
AcDbEntity
  8
1
  6
Continuous
 62
     2
100
AcDbLine
 10
-227.7082196961725
 20
-314.224989179649
 30
0.0
 11
-227.7082196961725
 21
-310.224989179649
 31
0.0
  0
LINE
  5
139
330
71
100
AcDbEntity
  8
1
  6
Continuous
 62
     2
100
AcDbLine
 10
-227.7082196961725
 20
-314.224989179649
 30
0.0
 11
-179.3748863628363
 21
-314.224989179649
 31
0.0
  0
LINE
  5
13A
330
71
100
AcDbEntity
  8
1
  6
Continuous
 62
     2
100
AcDbLine
 10
-179.3748863628363
 20
-314.224989179649
 30
0.0
 11
-111.0415530295031
 21
-314.224989179649
 31
0.0
  0
LINE
  5
13B
330
71
100
AcDbEntity
  8
1
  6
Continuous
 62
     2
100
AcDbLine
 10
-37.70821969617219
 20
-314.224989179649
 30
0.0
 11
-42.70821969616969
 21
-314.224989179649
 31
0.0
  0
LINE
  5
13C
330
71
100
AcDbEntity
  8
1
  6
Continuous
 62
     2
100
AcDbLine
 10
-37.70821969617219
 20
-309.224989179649
 30
0.0
 11
-37.70821969617219
 21
-314.224989179649
 31
0.0
  0
LINE
  5
13D
330
71
100
AcDbEntity
  8
1
  6
Continuous
 62
     2
100
AcDbLine
 10
-37.70821969617219
 20
-309.224989179649
 30
0.0
 11
-37.70821969617219
 21
-251.8249891796489
 31
0.0
  0
LINE
  5
13E
330
71
100
AcDbEntity
  8
1
  6
Continuous
 62
     2
100
AcDbLine
 10
-37.70821969617219
 20
-17.22498917964902
 30
0.0
 11
-42.70821969617219
 21
-17.22498917964902
 31
0.0
  0
LINE
  5
13F
330
71
100
AcDbEntity
  8
1
  6
Continuous
 62
     6
100
AcDbLine
 10
-42.70821969617219
 20
-22.22498917964902
 30
0.0
 11
-42.70821969617168
 21
-79.6249891796491
 31
0.0
  0
LINE
  5
140
330
71
100
AcDbEntity
  8
1
  6
Continuous
 62
     2
100
AcDbLine
 10
-37.70821969617219
 20
-17.22498917964902
 30
0.0
 11
-37.70821969617219
 21
-22.22498917964902
 31
0.0
  0
LINE
  5
141
330
71
100
AcDbEntity
  8
1
  6
Continuous
 62
     2
100
AcDbLine
 10
-42.70821969617219
 20
-22.22498917964902
 30
0.0
 11
-42.70821969617219
 21
-17.22498917964902
 31
0.0
  0
LINE
  5
142
330
71
100
AcDbEntity
  8
1
  6
Continuous
 62
     2
100
AcDbLine
 10
-42.70821969617219
 20
-22.22498917964902
 30
0.0
 11
-37.70821969617219
 21
-22.22498917964902
 31
0.0
  0
LINE
  5
143
330
71
100
AcDbEntity
  8
1
  6
Continuous
 62
     2
100
AcDbLine
 10
-37.70821969617219
 20
-22.22498917964902
 30
0.0
 11
-37.70821969617219
 21
-79.6249891796491
 31
0.0
  0
LINE
  5
144
330
71
100
AcDbEntity
  8
1
  6
Continuous
 62
     2
100
AcDbLine
 10
-42.70821969617168
 20
-79.6249891796491
 30
0.0
 11
-37.70821969617219
 21
-79.6249891796491
 31
0.0
  0
LINE
  5
145
330
71
100
AcDbEntity
  8
1
  6
Continuous
 62
     6
100
AcDbLine
 10
-42.70821969617168
 20
-79.6249891796491
 30
0.0
 11
-42.70821969616969
 21
-137.024989179649
 31
0.0
  0
LINE
  5
146
330
71
100
AcDbEntity
  8
1
  6
Continuous
 62
     2
100
AcDbLine
 10
-37.70821969617219
 20
-79.6249891796491
 30
0.0
 11
-37.70821969617219
 21
-137.024989179649
 31
0.0
  0
LINE
  5
147
330
71
100
AcDbEntity
  8
1
  6
Continuous
 62
     2
100
AcDbLine
 10
-42.70821969616969
 20
-137.024989179649
 30
0.0
 11
-37.70821969617219
 21
-137.024989179649
 31
0.0
  0
LINE
  5
148
330
71
100
AcDbEntity
  8
1
  6
Continuous
 62
     6
100
AcDbLine
 10
-42.70821969616969
 20
-137.024989179649
 30
0.0
 11
-42.70821969616969
 21
-194.4249891796488
 31
0.0
  0
LINE
  5
149
330
71
100
AcDbEntity
  8
1
  6
Continuous
 62
     2
100
AcDbLine
 10
-37.70821969617219
 20
-137.024989179649
 30
0.0
 11
-37.70821969617219
 21
-194.4249891796488
 31
0.0
  0
LINE
  5
14A
330
71
100
AcDbEntity
  8
1
  6
Continuous
 62
     2
100
AcDbLine
 10
-42.70821969616969
 20
-194.4249891796488
 30
0.0
 11
-37.70821969617219
 21
-194.4249891796488
 31
0.0
  0
LINE
  5
14B
330
71
100
AcDbEntity
  8
1
  6
Continuous
 62
     6
100
AcDbLine
 10
-42.70821969616969
 20
-194.4249891796488
 30
0.0
 11
-42.70821969616975
 21
-251.8249891796489
 31
0.0
  0
LINE
  5
14C
330
71
100
AcDbEntity
  8
1
  6
Continuous
 62
     6
100
AcDbLine
 10
-437.7082196961704
 20
-22.22498917964879
 30
0.0
 11
-384.3748863628363
 21
-22.22498917964879
 31
0.0
  0
LINE
  5
14D
330
71
100
AcDbEntity
  8
1
  6
Continuous
 62
     2
100
AcDbLine
 10
-42.70821969617219
 20
-17.22498917964902
 30
0.0
 11
-111.0415530295031
 21
-17.22498917964902
 31
0.0
  0
LINE
  5
14E
330
71
100
AcDbEntity
  8
1
  6
Continuous
 62
     2
100
AcDbLine
 10
-111.0415530295031
 20
-22.22498917964902
 30
0.0
 11
-111.0415530295031
 21
-17.22498917964902
 31
0.0
  0
LINE
  5
14F
330
71
100
AcDbEntity
  8
1
  6
Continuous
 62
     6
100
AcDbLine
 10
-111.0415530295031
 20
-22.22498917964902
 30
0.0
 11
-42.70821969617219
 21
-22.22498917964902
 31
0.0
  0
LINE
  5
150
330
71
100
AcDbEntity
  8
1
  6
Continuous
 62
     2
100
AcDbLine
 10
-111.0415530295031
 20
-17.22498917964902
 30
0.0
 11
-179.3748863628363
 21
-17.22498917964902
 31
0.0
  0
LINE
  5
151
330
71
100
AcDbEntity
  8
1
  6
Continuous
 62
     2
100
AcDbLine
 10
-179.3748863628363
 20
-22.22498917964902
 30
0.0
 11
-179.3748863628363
 21
-17.22498917964902
 31
0.0
  0
LINE
  5
152
330
71
100
AcDbEntity
  8
1
  6
Continuous
 62
     6
100
AcDbLine
 10
-179.3748863628363
 20
-22.22498917964902
 30
0.0
 11
-111.0415530295031
 21
-22.22498917964902
 31
0.0
  0
LINE
  5
153
330
71
100
AcDbEntity
  8
1
  6
Continuous
 62
     2
100
AcDbLine
 10
-179.3748863628363
 20
-17.22498917964902
 30
0.0
 11
-227.7082196961725
 21
-17.22498917964902
 31
0.0
  0
LINE
  5
154
330
71
100
AcDbEntity
  8
1
  6
Continuous
 62
     2
100
AcDbLine
 10
-247.7082196961697
 20
-22.22498917964902
 30
0.0
 11
-247.7082196961697
 21
-17.22498917964902
 31
0.0
  0
LINE
  5
155
330
71
100
AcDbEntity
  8
1
  6
Continuous
 62
     6
100
AcDbLine
 10
-247.7082196961697
 20
-22.22498917964902
 30
0.0
 11
-179.3748863628363
 21
-22.22498917964902
 31
0.0
  0
LINE
  5
156
330
71
100
AcDbEntity
  8
1
  6
Continuous
 62
     2
100
AcDbLine
 10
-247.7082196961697
 20
-17.22498917964902
 30
0.0
 11
-316.0415530295028
 21
-17.22498917964902
 31
0.0
  0
LINE
  5
157
330
71
100
AcDbEntity
  8
1
  6
Continuous
 62
     2
100
AcDbLine
 10
-316.0415530295028
 20
-22.22498917964902
 30
0.0
 11
-316.0415530295028
 21
-17.22498917964902
 31
0.0
  0
LINE
  5
158
330
71
100
AcDbEntity
  8
1
  6
Continuous
 62
     6
100
AcDbLine
 10
-316.0415530295028
 20
-22.22498917964902
 30
0.0
 11
-247.7082196961697
 21
-22.22498917964902
 31
0.0
  0
LINE
  5
159
330
71
100
AcDbEntity
  8
1
  6
Continuous
 62
     2
100
AcDbLine
 10
-316.0415530295028
 20
-17.22498917964902
 30
0.0
 11
-384.3748863628363
 21
-17.22498917964902
 31
0.0
  0
LINE
  5
15A
330
71
100
AcDbEntity
  8
1
  6
Continuous
 62
     2
100
AcDbLine
 10
-384.3748863628363
 20
-22.22498917964879
 30
0.0
 11
-384.3748863628363
 21
-17.22498917964902
 31
0.0
  0
LINE
  5
15B
330
71
100
AcDbEntity
  8
1
  6
Continuous
 62
     6
100
AcDbLine
 10
-384.3748863628363
 20
-22.22498917964879
 30
0.0
 11
-316.0415530295028
 21
-22.22498917964902
 31
0.0
  0
LINE
  5
15C
330
71
100
AcDbEntity
  8
1
  6
Continuous
 62
     2
100
AcDbLine
 10
-384.3748863628363
 20
-17.22498917964902
 30
0.0
 11
-437.7082196961704
 21
-17.22498917964902
 31
0.0
  0
LINE
  5
15D
330
71
100
AcDbEntity
  8
1
  6
Continuous
 62
     2
100
AcDbLine
 10
-437.7082196961704
 20
-17.22498917964902
 30
0.0
 11
-437.7082196961704
 21
-21.22498917964879
 31
0.0
  0
LINE
  5
15E
330
71
100
AcDbEntity
  8
1
  6
Continuous
 62
     2
100
AcDbLine
 10
-437.7082196961704
 20
-17.22498917964902
 30
0.0
 11
-457.7082196961705
 21
-17.22498917964902
 31
0.0
  0
LINE
  5
15F
330
71
100
AcDbEntity
  8
1
  6
Continuous
 62
     2
100
AcDbLine
 10
-227.7082196961725
 20
-17.22498917964902
 30
0.0
 11
-227.7082196961725
 21
-21.22498917964879
 31
0.0
  0
LINE
  5
160
330
71
100
AcDbEntity
  8
1
  6
Continuous
 62
     2
100
AcDbLine
 10
-227.7082196961725
 20
-17.22498917964902
 30
0.0
 11
-247.7082196961697
 21
-17.22498917964902
 31
0.0
  0
LINE
  5
161
330
71
100
AcDbEntity
  8
1
  6
Continuous
 62
     2
100
AcDbLine
 10
-457.7082196961705
 20
-17.22498917964902
 30
0.0
 11
-457.7082196961705
 21
-165.724989179649
 31
0.0
  0
LINE
  5
162
330
71
100
AcDbEntity
  8
1
  6
Continuous
 62
     2
100
AcDbLine
 10
-457.7082196961705
 20
-165.724989179649
 30
0.0
 11
-447.7082196961704
 21
-165.724989179649
 31
0.0
  0
LINE
  5
163
330
71
100
AcDbEntity
  8
1
  6
Continuous
 62
     2
100
AcDbLine
 10
-457.7082196961705
 20
-165.724989179649
 30
0.0
 11
-457.7082196961705
 21
-314.224989179649
 31
0.0
  0
LINE
  5
164
330
71
100
AcDbEntity
  8
1
  6
Continuous
 62
     6
100
AcDbLine
 10
-437.7082196961694
 20
-309.224989179649
 30
0.0
 11
-437.7082196961704
 21
-22.22498917964879
 31
0.0
  0
LINE
  5
165
330
71
100
AcDbEntity
  8
1
  6
Continuous
 62
     6
100
AcDbLine
 10
-316.0415530295028
 20
-309.224989179649
 30
0.0
 11
-172.2530242229196
 21
-309.2249891796521
 31
0.0
  0
LINE
  5
166
330
71
100
AcDbEntity
  8
1
  6
Continuous
 62
     2
100
AcDbLine
 10
-179.3748863628363
 20
-309.2249891796519
 30
0.0
 11
-179.3748863628363
 21
-309.224989179649
 31
0.0
  0
LINE
  5
167
330
71
100
AcDbEntity
  8
1
  6
Continuous
 62
     7
100
AcDbLine
 10
-135.8530242229197
 20
-292.2249891796496
 30
0.0
 11
-79.8266279778472
 21
-292.2249891796496
 31
0.0
  0
LINE
  5
168
330
71
100
AcDbEntity
  8
1
  6
Continuous
 62
     6
100
AcDbLine
 10
-172.2530242229196
 20
-292.2249891796496
 30
0.0
 11
-172.2530242229196
 21
-283.7249891796496
 31
0.0
  0
LINE
  5
169
330
71
100
AcDbEntity
  8
1
  6
Continuous
 62
     6
100
AcDbLine
 10
-135.8530242229197
 20
-292.2249891796496
 30
0.0
 11
-135.8530242229197
 21
-283.7249891796496
 31
0.0
  0
LINE
  5
16A
330
71
100
AcDbEntity
  8
1
  6
Continuous
 62
     7
100
AcDbLine
 10
-109.7266279778468
 20
-283.7249891796496
 30
0.0
 11
-109.7266279778468
 21
-292.2249891796496
 31
0.0
  0
LINE
  5
16B
330
71
100
AcDbEntity
  8
1
  6
Continuous
 62
     7
100
AcDbLine
 10
-89.2266279778472
 20
-283.7249891796496
 30
0.0
 11
-89.2266279778472
 21
-292.2249891796496
 31
0.0
  0
LINE
  5
16C
102
{ACAD_REACTORS
330
252
330
253
102
}
330
71
100
AcDbEntity
  8
0
  6
Continuous
 62
     2
100
AcDbLine
 10
-158.5455952811522
 20
-299.9247000639863
 30
0.0
 11
-158.5455952811522
 21
-299.052183057183
 31
0.0
  0
LINE
  5
16D
102
{ACAD_REACTORS
330
252
330
253
102
}
330
71
100
AcDbEntity
  8
0
  6
Continuous
 62
     2
100
AcDbLine
 10
-158.5455952811522
 20
-300.8844687714691
 30
0.0
 11
-158.5455952811522
 21
-301.7569857782724
 31
0.0
  0
LINE
  5
16E
102
{ACAD_REACTORS
330
254
330
255
102
}
330
71
100
AcDbEntity
  8
0
  6
Continuous
 62
     2
100
AcDbLine
 10
-143.2125511448618
 20
-299.6629449619458
 30
0.0
 11
-142.1089118452937
 21
-299.6629449619458
 31
0.0
  0
LINE
  5
16F
102
{ACAD_REACTORS
330
254
330
255
102
}
330
71
100
AcDbEntity
  8
0
  6
Continuous
 62
     2
100
AcDbLine
 10
-142.4428938019004
 20
-300.8844687714696
 30
0.0
 11
-142.4428938019004
 21
-301.7569857782729
 31
0.0
  0
LINE
  5
170
102
{ACAD_REACTORS
330
25E
330
25F
102
}
330
71
100
AcDbEntity
  8
0
  6
Continuous
 62
     2
100
AcDbLine
 10
-144.3036504172802
 20
-298.5722987034589
 30
0.0
 11
-142.9056973703399
 21
-296.991439709684
 31
0.0
  0
LINE
  5
171
102
{ACAD_REACTORS
330
25E
330
25F
102
}
330
71
100
AcDbEntity
  8
0
  6
Continuous
 62
     2
100
AcDbLine
 10
-144.2082270011074
 20
-295.5184891796478
 30
0.0
 11
-142.9056973703399
 21
-296.991439709684
 31
0.0
  0
LINE
  5
172
102
{ACAD_REACTORS
330
25E
330
25F
102
}
330
71
100
AcDbEntity
  8
0
  6
Continuous
 62
     2
100
AcDbLine
 10
-141.6031677395735
 20
-295.5184891796478
 30
0.0
 11
-140.2004435218263
 21
-295.5184891796478
 31
0.0
  0
LINE
  5
173
102
{ACAD_REACTORS
330
25E
330
25F
102
}
330
71
100
AcDbEntity
  8
0
  6
Continuous
 62
     2
100
AcDbLine
 10
-142.9009261995321
 20
-298.5722987034589
 30
0.0
 11
-142.2043352614663
 21
-297.7845669181652
 31
0.0
  0
LINE
  5
174
102
{ACAD_REACTORS
330
25E
330
25F
102
}
330
71
100
AcDbEntity
  8
0
  6
Continuous
 62
     2
100
AcDbLine
 10
-142.9009261995321
 20
-298.5722987034589
 30
0.0
 11
-144.3036504172802
 21
-298.5722987034589
 31
0.0
  0
LINE
  5
175
102
{ACAD_REACTORS
330
260
330
261
102
}
330
71
100
AcDbEntity
  8
0
  6
Continuous
 62
     2
100
AcDbLine
 10
-144.4229296874971
 20
-298.5722987034589
 30
0.0
 11
-145.66343409775
 21
-298.5722987034589
 31
0.0
  0
LINE
  5
176
102
{ACAD_REACTORS
330
262
330
263
102
}
330
71
100
AcDbEntity
  8
0
  6
Continuous
 62
     2
100
AcDbLine
 10
-146.5314137059051
 20
-300.7099653701088
 30
0.0
 11
-146.8315789430953
 21
-299.9421504041221
 31
0.0
  0
LINE
  5
177
102
{ACAD_REACTORS
330
262
330
263
102
}
330
71
100
AcDbEntity
  8
0
  6
Continuous
 62
     2
100
AcDbLine
 10
-147.1317441802876
 20
-300.7099653701088
 30
0.0
 11
-146.5314137059051
 21
-300.7099653701088
 31
0.0
  0
LINE
  5
178
102
{ACAD_REACTORS
330
262
330
263
102
}
330
71
100
AcDbEntity
  8
0
  6
Continuous
 62
     2
100
AcDbLine
 10
-148.8497841951614
 20
-301.9314891796332
 30
0.0
 11
-147.6092797849085
 21
-301.9314891796332
 31
0.0
  0
LINE
  5
179
102
{ACAD_REACTORS
330
262
330
263
102
}
330
71
100
AcDbEntity
  8
0
  6
Continuous
 62
     2
100
AcDbLine
 10
-147.4518311482222
 20
-298.8776796558221
 30
0.0
 11
-146.2113267379694
 21
-298.8776796558221
 31
0.0
  0
LINE
  5
17A
102
{ACAD_REACTORS
330
262
330
263
102
}
330
71
100
AcDbEntity
  8
0
  6
Continuous
 62
     2
100
AcDbLine
 10
-146.2113267379694
 20
-298.8776796558221
 30
0.0
 11
-144.8133736910291
 21
-301.9314891796332
 31
0.0
  0
LINE
  5
17B
102
{ACAD_REACTORS
330
262
330
263
102
}
330
71
100
AcDbEntity
  8
0
  6
Continuous
 62
     2
100
AcDbLine
 10
-146.053878101283
 20
-301.9314891796332
 30
0.0
 11
-146.2653581547588
 21
-301.3905286354154
 31
0.0
  0
LINE
  5
17C
102
{ACAD_REACTORS
330
264
330
265
102
}
330
71
100
AcDbEntity
  8
0
  6
Continuous
 62
     2
100
AcDbLine
 10
-150.196197296869
 20
-301.9314891796332
 30
0.0
 11
-149.0034045947026
 21
-301.9314891796332
 31
0.0
  0
LINE
  5
17D
102
{ACAD_REACTORS
330
264
330
265
102
}
330
71
100
AcDbEntity
  8
0
  6
Continuous
 62
     2
100
AcDbLine
 10
-150.196197296869
 20
-299.6629449619458
 30
0.0
 11
-150.196197296869
 21
-301.9314891796332
 31
0.0
  0
LINE
  5
17E
102
{ACAD_REACTORS
330
264
330
265
102
}
330
71
100
AcDbEntity
  8
0
  6
Continuous
 62
     2
100
AcDbLine
 10
-151.0072963343437
 20
-298.8776796558221
 30
0.0
 11
-151.0072963343437
 21
-299.6629449619458
 31
0.0
  0
LINE
  5
17F
102
{ACAD_REACTORS
330
266
330
267
102
}
330
71
100
AcDbEntity
  8
0
  6
Continuous
 62
     2
100
AcDbLine
 10
-149.528082452771
 20
-298.5722987034589
 30
0.0
 11
-148.3352897506046
 21
-298.5722987034589
 31
0.0
  0
LINE
  5
180
102
{ACAD_REACTORS
330
266
330
267
102
}
330
71
100
AcDbEntity
  8
0
  6
Continuous
 62
     2
100
AcDbLine
 10
-147.0947853403505
 20
-296.8272646898529
 30
0.0
 11
-148.3352897506046
 21
-295.5184891796478
 31
0.0
  0
LINE
  5
181
102
{ACAD_REACTORS
330
266
330
267
102
}
330
71
100
AcDbEntity
  8
0
  6
Continuous
 62
     2
100
AcDbLine
 10
-145.9019926381839
 20
-295.5184891796478
 30
0.0
 11
-147.0947853403505
 21
-295.5184891796478
 31
0.0
  0
LINE
  5
182
102
{ACAD_REACTORS
330
266
330
267
102
}
330
71
100
AcDbEntity
  8
0
  6
Continuous
 62
     2
100
AcDbLine
 10
-145.9019926381839
 20
-298.5722987034589
 30
0.0
 11
-145.9019926381839
 21
-295.5184891796478
 31
0.0
  0
LINE
  5
183
102
{ACAD_REACTORS
330
266
330
267
102
}
330
71
100
AcDbEntity
  8
0
  6
Continuous
 62
     2
100
AcDbLine
 10
-147.0947853403505
 20
-298.5722987034589
 30
0.0
 11
-145.9019926381839
 21
-298.5722987034589
 31
0.0
  0
LINE
  5
184
102
{ACAD_REACTORS
330
266
330
267
102
}
330
71
100
AcDbEntity
  8
0
  6
Continuous
 62
     2
100
AcDbLine
 10
-148.3352897506046
 20
-297.2635231932542
 30
0.0
 11
-147.0947853403505
 21
-298.5722987034589
 31
0.0
  0
LINE
  5
185
102
{ACAD_REACTORS
330
268
330
269
102
}
330
71
100
AcDbEntity
  8
0
  6
Continuous
 62
     2
100
AcDbLine
 10
-152.3432241607702
 20
-300.1864551660273
 30
0.0
 11
-153.5837285710232
 21
-298.8776796558221
 31
0.0
  0
LINE
  5
186
102
{ACAD_REACTORS
330
268
330
269
102
}
330
71
100
AcDbEntity
  8
0
  6
Continuous
 62
     2
100
AcDbLine
 10
-152.3432241607702
 20
-298.8776796558221
 30
0.0
 11
-152.3432241607702
 21
-300.1864551660273
 31
0.0
  0
LINE
  5
187
102
{ACAD_REACTORS
330
268
330
269
102
}
330
71
100
AcDbEntity
  8
0
  6
Continuous
 62
     2
100
AcDbLine
 10
-151.1504314586038
 20
-298.8776796558221
 30
0.0
 11
-152.3432241607702
 21
-298.8776796558221
 31
0.0
  0
LINE
  5
188
102
{ACAD_REACTORS
330
268
330
269
102
}
330
71
100
AcDbEntity
  8
0
  6
Continuous
 62
     2
100
AcDbLine
 10
-151.1504314586038
 20
-301.9314891796332
 30
0.0
 11
-151.1504314586038
 21
-298.8776796558221
 31
0.0
  0
LINE
  5
189
102
{ACAD_REACTORS
330
268
330
269
102
}
330
71
100
AcDbEntity
  8
0
  6
Continuous
 62
     2
100
AcDbLine
 10
-153.5837285710232
 20
-300.6227136694287
 30
0.0
 11
-152.3432241607702
 21
-301.9314891796332
 31
0.0
  0
LINE
  5
18A
102
{ACAD_REACTORS
330
268
330
269
102
}
330
71
100
AcDbEntity
  8
0
  6
Continuous
 62
     2
100
AcDbLine
 10
-153.5837285710232
 20
-301.9314891796332
 30
0.0
 11
-153.5837285710232
 21
-300.6227136694287
 31
0.0
  0
LINE
  5
18B
102
{ACAD_REACTORS
330
258
330
259
102
}
330
71
100
AcDbEntity
  8
0
  6
Continuous
 62
     2
100
AcDbLine
 10
-151.1025688196316
 20
-296.2165027850907
 30
0.0
 11
-149.766640993204
 21
-296.2165027850907
 31
0.0
  0
LINE
  5
18C
102
{ACAD_REACTORS
330
258
330
259
102
}
330
71
100
AcDbEntity
  8
0
  6
Continuous
 62
     2
100
AcDbLine
 10
-151.1025688196316
 20
-297.8742850980165
 30
0.0
 11
-151.1025688196316
 21
-297.3944007442748
 31
0.0
  0
LINE
  5
18D
102
{ACAD_REACTORS
330
258
330
259
102
}
330
71
100
AcDbEntity
  8
0
  6
Continuous
 62
     2
100
AcDbLine
 10
-149.766640993204
 20
-297.8742850980165
 30
0.0
 11
-151.1025688196316
 21
-297.8742850980165
 31
0.0
  0
LINE
  5
18E
102
{ACAD_REACTORS
330
258
330
259
102
}
330
71
100
AcDbEntity
  8
0
  6
Continuous
 62
     2
100
AcDbLine
 10
-149.766640993204
 20
-298.5722987034589
 30
0.0
 11
-149.766640993204
 21
-297.8742850980165
 31
0.0
  0
LINE
  5
18F
102
{ACAD_REACTORS
330
258
330
259
102
}
330
71
100
AcDbEntity
  8
0
  6
Continuous
 62
     2
100
AcDbLine
 10
-152.9169607169849
 20
-298.5722987034589
 30
0.0
 11
-149.766640993204
 21
-298.5722987034589
 31
0.0
  0
LINE
  5
190
102
{ACAD_REACTORS
330
258
330
259
102
}
330
71
100
AcDbEntity
  8
0
  6
Continuous
 62
     2
100
AcDbLine
 10
-152.9169607169849
 20
-295.5184891796478
 30
0.0
 11
-149.766640993204
 21
-295.5184891796478
 31
0.0
  0
LINE
  5
191
102
{ACAD_REACTORS
330
258
330
259
102
}
330
71
100
AcDbEntity
  8
0
  6
Continuous
 62
     2
100
AcDbLine
 10
-149.766640993204
 20
-296.2165027850907
 30
0.0
 11
-149.766640993204
 21
-295.5184891796478
 31
0.0
  0
LINE
  5
192
102
{ACAD_REACTORS
330
26A
330
26B
102
}
330
71
100
AcDbEntity
  8
0
  6
Continuous
 62
     2
100
AcDbLine
 10
-155.778316212125
 20
-296.5873225129824
 30
0.0
 11
-155.778316212125
 21
-295.5184891796478
 31
0.0
  0
LINE
  5
193
102
{ACAD_REACTORS
330
26A
330
26B
102
}
330
71
100
AcDbEntity
  8
0
  6
Continuous
 62
     2
100
AcDbLine
 10
-155.778316212125
 20
-295.5184891796478
 30
0.0
 11
-154.5855235099585
 21
-295.5184891796478
 31
0.0
  0
LINE
  5
194
102
{ACAD_REACTORS
330
26A
330
26B
102
}
330
71
100
AcDbEntity
  8
0
  6
Continuous
 62
     2
100
AcDbLine
 10
-155.778316212125
 20
-297.4380265946152
 30
0.0
 11
-156.8279737900324
 21
-297.4380265946152
 31
0.0
  0
LINE
  5
195
102
{ACAD_REACTORS
330
26A
330
26B
102
}
330
71
100
AcDbEntity
  8
0
  6
Continuous
 62
     2
100
AcDbLine
 10
-156.8279737900324
 20
-297.4380265946152
 30
0.0
 11
-156.8279737900324
 21
-298.5722987034589
 31
0.0
  0
LINE
  5
196
102
{ACAD_REACTORS
330
26A
330
26B
102
}
330
71
100
AcDbEntity
  8
0
  6
Continuous
 62
     2
100
AcDbLine
 10
-158.020766492199
 20
-295.5184891796478
 30
0.0
 11
-158.020766492199
 21
-298.5722987034589
 31
0.0
  0
LINE
  5
197
102
{ACAD_REACTORS
330
25C
330
25D
102
}
330
71
100
AcDbEntity
  8
0
  6
Continuous
 62
     2
100
AcDbLine
 10
-159.9769465237527
 20
-296.8873226744301
 30
0.0
 11
-159.9769465237527
 21
-296.1815950250878
 31
0.0
  0
LINE
  5
198
102
{ACAD_REACTORS
330
25C
330
25D
102
}
330
71
100
AcDbEntity
  8
0
  6
Continuous
 62
     2
100
AcDbLine
 10
-161.2174509340067
 20
-298.5722987034589
 30
0.0
 11
-159.9769465237527
 21
-298.5722987034589
 31
0.0
  0
LINE
  5
199
102
{ACAD_REACTORS
330
25C
330
25D
102
}
330
71
100
AcDbEntity
  8
0
  6
Continuous
 62
     2
100
AcDbLine
 10
-159.9769465237527
 20
-298.5722987034589
 30
0.0
 11
-159.9769465237527
 21
-297.6292204623152
 31
0.0
  0
LINE
  5
19A
102
{ACAD_REACTORS
330
256
330
257
102
}
330
71
100
AcDbEntity
  8
0
  6
Continuous
 62
     2
100
AcDbLine
 10
-165.5223967832182
 20
-301.2189336240763
 30
0.0
 11
-166.9982300442278
 21
-301.2189336240763
 31
0.0
  0
LINE
  5
19B
102
{ACAD_REACTORS
330
256
330
257
102
}
330
71
100
AcDbEntity
  8
0
  6
Continuous
 62
     2
100
AcDbLine
 10
-168.0163693363571
 20
-295.9427337950498
 30
0.0
 11
-168.0163693363571
 21
-301.50724456425
 31
0.0
  0
LINE
  5
19C
102
{ACAD_REACTORS
330
256
330
257
102
}
330
71
100
AcDbEntity
  8
0
  6
Continuous
 62
     2
100
AcDbLine
 10
-167.5921247209743
 20
-295.5184891796659
 30
0.0
 11
-162.1188126302574
 21
-295.5184891796659
 31
0.0
  0
LINE
  5
19D
102
{ACAD_REACTORS
330
256
330
257
102
}
330
71
100
AcDbEntity
  8
0
  6
Continuous
 62
     2
100
AcDbLine
 10
-161.6945680148735
 20
-295.9427337950498
 30
0.0
 11
-161.6945680148735
 21
-301.50724456425
 31
0.0
  0
LINE
  5
19E
102
{ACAD_REACTORS
330
256
330
257
102
}
330
71
100
AcDbEntity
  8
0
  6
Continuous
 62
     2
100
AcDbLine
 10
-162.1188126302574
 20
-301.9314891796332
 30
0.0
 11
-167.5921247209743
 21
-301.9314891796332
 31
0.0
  0
LINE
  5
19F
102
{ACAD_REACTORS
330
256
330
257
102
}
330
71
100
AcDbEntity
  8
0
  6
Continuous
 62
     2
100
AcDbLine
 10
-165.2066798601416
 20
-300.9032167009996
 30
0.0
 11
-165.2066798601416
 21
-299.372445769468
 31
0.0
  0
LINE
  5
1A0
102
{ACAD_REACTORS
330
256
330
257
102
}
330
71
100
AcDbEntity
  8
0
  6
Continuous
 62
     2
100
AcDbLine
 10
-165.2066798601416
 20
-297.1507862773431
 30
0.0
 11
-165.2066798601416
 21
-296.5467616582825
 31
0.0
  0
LINE
  5
1A1
102
{ACAD_REACTORS
330
256
330
257
102
}
330
71
100
AcDbEntity
  8
0
  6
Continuous
 62
     2
100
AcDbLine
 10
-166.9982300442278
 20
-296.2310447352064
 30
0.0
 11
-165.5223967832182
 21
-296.2310447352064
 31
0.0
  0
LINE
  5
1A2
102
{ACAD_REACTORS
330
256
330
257
102
}
330
71
100
AcDbEntity
  8
0
  6
Continuous
 62
     2
100
AcDbLine
 10
-167.3139469673034
 20
-296.5467616582825
 30
0.0
 11
-167.3139469673034
 21
-300.9032167009996
 31
0.0
  0
LINE
  5
1A3
102
{ACAD_REACTORS
330
25C
330
25D
102
}
330
71
100
AcDbEntity
  8
0
  6
Continuous
 62
     2
100
AcDbLine
 10
-159.9769465237527
 20
-297.6292204623152
 30
0.0
 11
-159.2181789359723
 21
-297.6292204623152
 31
0.0
  0
LINE
  5
1A4
102
{ACAD_REACTORS
330
25C
330
25D
102
}
330
71
100
AcDbEntity
  8
0
  6
Continuous
 62
     2
100
AcDbLine
 10
-161.2174509340067
 20
-295.5184891796478
 30
0.0
 11
-159.2181789359723
 21
-295.5184891796478
 31
0.0
  0
LINE
  5
1A5
102
{ACAD_REACTORS
330
25C
330
25D
102
}
330
71
100
AcDbEntity
  8
0
  6
Continuous
 62
     2
100
AcDbLine
 10
-161.2174509340067
 20
-295.5184891796478
 30
0.0
 11
-161.2174509340067
 21
-298.5722987034589
 31
0.0
  0
LINE
  5
1A6
102
{ACAD_REACTORS
330
25C
330
25D
102
}
330
71
100
AcDbEntity
  8
0
  6
Continuous
 62
     2
100
AcDbLine
 10
-159.9769465237527
 20
-296.8873226744301
 30
0.0
 11
-159.6596514622107
 21
-296.8873226744301
 31
0.0
  0
LINE
  5
1A7
102
{ACAD_REACTORS
330
25C
330
25D
102
}
330
71
100
AcDbEntity
  8
0
  6
Continuous
 62
     2
100
AcDbLine
 10
-159.9769465237527
 20
-296.1815950250878
 30
0.0
 11
-159.6596514622107
 21
-296.1815950250878
 31
0.0
  0
LINE
  5
1A8
102
{ACAD_REACTORS
330
26A
330
26B
102
}
330
71
100
AcDbEntity
  8
0
  6
Continuous
 62
     2
100
AcDbLine
 10
-156.8279737900324
 20
-296.5873225129824
 30
0.0
 11
-155.778316212125
 21
-296.5873225129824
 31
0.0
  0
LINE
  5
1A9
102
{ACAD_REACTORS
330
26A
330
26B
102
}
330
71
100
AcDbEntity
  8
0
  6
Continuous
 62
     2
100
AcDbLine
 10
-156.8279737900324
 20
-295.5184891796478
 30
0.0
 11
-156.8279737900324
 21
-296.5873225129824
 31
0.0
  0
LINE
  5
1AA
102
{ACAD_REACTORS
330
26A
330
26B
102
}
330
71
100
AcDbEntity
  8
0
  6
Continuous
 62
     2
100
AcDbLine
 10
-158.020766492199
 20
-295.5184891796478
 30
0.0
 11
-156.8279737900324
 21
-295.5184891796478
 31
0.0
  0
LINE
  5
1AB
102
{ACAD_REACTORS
330
26A
330
26B
102
}
330
71
100
AcDbEntity
  8
0
  6
Continuous
 62
     2
100
AcDbLine
 10
-156.8279737900324
 20
-298.5722987034589
 30
0.0
 11
-158.020766492199
 21
-298.5722987034589
 31
0.0
  0
LINE
  5
1AC
102
{ACAD_REACTORS
330
26A
330
26B
102
}
330
71
100
AcDbEntity
  8
0
  6
Continuous
 62
     2
100
AcDbLine
 10
-155.778316212125
 20
-298.5722987034589
 30
0.0
 11
-155.778316212125
 21
-297.4380265946152
 31
0.0
  0
LINE
  5
1AD
102
{ACAD_REACTORS
330
26A
330
26B
102
}
330
71
100
AcDbEntity
  8
0
  6
Continuous
 62
     2
100
AcDbLine
 10
-154.5855235099585
 20
-298.5722987034589
 30
0.0
 11
-155.778316212125
 21
-298.5722987034589
 31
0.0
  0
LINE
  5
1AE
102
{ACAD_REACTORS
330
26A
330
26B
102
}
330
71
100
AcDbEntity
  8
0
  6
Continuous
 62
     2
100
AcDbLine
 10
-154.5855235099585
 20
-295.5184891796478
 30
0.0
 11
-154.5855235099585
 21
-298.5722987034589
 31
0.0
  0
LINE
  5
1AF
102
{ACAD_REACTORS
330
258
330
259
102
}
330
71
100
AcDbEntity
  8
0
  6
Continuous
 62
     2
100
AcDbLine
 10
-151.1025688196316
 20
-297.3944007442748
 30
0.0
 11
-149.766640993204
 21
-297.3944007442748
 31
0.0
  0
LINE
  5
1B0
102
{ACAD_REACTORS
330
258
330
259
102
}
330
71
100
AcDbEntity
  8
0
  6
Continuous
 62
     2
100
AcDbLine
 10
-149.766640993204
 20
-297.3944007442748
 30
0.0
 11
-149.766640993204
 21
-296.6963871388324
 31
0.0
  0
LINE
  5
1B1
102
{ACAD_REACTORS
330
258
330
259
102
}
330
71
100
AcDbEntity
  8
0
  6
Continuous
 62
     2
100
AcDbLine
 10
-149.766640993204
 20
-296.6963871388324
 30
0.0
 11
-151.1025688196316
 21
-296.6963871388324
 31
0.0
  0
LINE
  5
1B2
102
{ACAD_REACTORS
330
258
330
259
102
}
330
71
100
AcDbEntity
  8
0
  6
Continuous
 62
     2
100
AcDbLine
 10
-151.1025688196316
 20
-296.6963871388324
 30
0.0
 11
-151.1025688196316
 21
-296.2165027850907
 31
0.0
  0
LINE
  5
1B3
102
{ACAD_REACTORS
330
268
330
269
102
}
330
71
100
AcDbEntity
  8
0
  6
Continuous
 62
     2
100
AcDbLine
 10
-154.7765212731907
 20
-301.9314891796332
 30
0.0
 11
-153.5837285710232
 21
-301.9314891796332
 31
0.0
  0
LINE
  5
1B4
102
{ACAD_REACTORS
330
268
330
269
102
}
330
71
100
AcDbEntity
  8
0
  6
Continuous
 62
     2
100
AcDbLine
 10
-152.3432241607702
 20
-301.9314891796332
 30
0.0
 11
-151.1504314586038
 21
-301.9314891796332
 31
0.0
  0
LINE
  5
1B5
102
{ACAD_REACTORS
330
268
330
269
102
}
330
71
100
AcDbEntity
  8
0
  6
Continuous
 62
     2
100
AcDbLine
 10
-153.5837285710232
 20
-298.8776796558221
 30
0.0
 11
-154.7765212731907
 21
-298.8776796558221
 31
0.0
  0
LINE
  5
1B6
102
{ACAD_REACTORS
330
268
330
269
102
}
330
71
100
AcDbEntity
  8
0
  6
Continuous
 62
     2
100
AcDbLine
 10
-154.7765212731907
 20
-298.8776796558221
 30
0.0
 11
-154.7765212731907
 21
-301.9314891796332
 31
0.0
  0
LINE
  5
1B7
102
{ACAD_REACTORS
330
266
330
267
102
}
330
71
100
AcDbEntity
  8
0
  6
Continuous
 62
     2
100
AcDbLine
 10
-147.0947853403505
 20
-295.5184891796478
 30
0.0
 11
-147.0947853403505
 21
-296.8272646898529
 31
0.0
  0
LINE
  5
1B8
102
{ACAD_REACTORS
330
266
330
267
102
}
330
71
100
AcDbEntity
  8
0
  6
Continuous
 62
     2
100
AcDbLine
 10
-148.3352897506046
 20
-295.5184891796478
 30
0.0
 11
-149.528082452771
 21
-295.5184891796478
 31
0.0
  0
LINE
  5
1B9
102
{ACAD_REACTORS
330
266
330
267
102
}
330
71
100
AcDbEntity
  8
0
  6
Continuous
 62
     2
100
AcDbLine
 10
-149.528082452771
 20
-295.5184891796478
 30
0.0
 11
-149.528082452771
 21
-298.5722987034589
 31
0.0
  0
LINE
  5
1BA
102
{ACAD_REACTORS
330
266
330
267
102
}
330
71
100
AcDbEntity
  8
0
  6
Continuous
 62
     2
100
AcDbLine
 10
-148.3352897506046
 20
-298.5722987034589
 30
0.0
 11
-148.3352897506046
 21
-297.2635231932542
 31
0.0
  0
LINE
  5
1BB
102
{ACAD_REACTORS
330
264
330
265
102
}
330
71
100
AcDbEntity
  8
0
  6
Continuous
 62
     2
100
AcDbLine
 10
-149.0034045947026
 20
-301.9314891796332
 30
0.0
 11
-149.0034045947026
 21
-299.6629449619458
 31
0.0
  0
LINE
  5
1BC
102
{ACAD_REACTORS
330
264
330
265
102
}
330
71
100
AcDbEntity
  8
0
  6
Continuous
 62
     2
100
AcDbLine
 10
-149.0034045947026
 20
-299.6629449619458
 30
0.0
 11
-148.19230555723
 21
-299.6629449619458
 31
0.0
  0
LINE
  5
1BD
102
{ACAD_REACTORS
330
264
330
265
102
}
330
71
100
AcDbEntity
  8
0
  6
Continuous
 62
     2
100
AcDbLine
 10
-148.19230555723
 20
-299.6629449619458
 30
0.0
 11
-148.19230555723
 21
-298.8776796558221
 31
0.0
  0
LINE
  5
1BE
102
{ACAD_REACTORS
330
264
330
265
102
}
330
71
100
AcDbEntity
  8
0
  6
Continuous
 62
     2
100
AcDbLine
 10
-148.19230555723
 20
-298.8776796558221
 30
0.0
 11
-151.0072963343437
 21
-298.8776796558221
 31
0.0
  0
LINE
  5
1BF
102
{ACAD_REACTORS
330
264
330
265
102
}
330
71
100
AcDbEntity
  8
0
  6
Continuous
 62
     2
100
AcDbLine
 10
-151.0072963343437
 20
-299.6629449619458
 30
0.0
 11
-150.196197296869
 21
-299.6629449619458
 31
0.0
  0
LINE
  5
1C0
102
{ACAD_REACTORS
330
262
330
263
102
}
330
71
100
AcDbEntity
  8
0
  6
Continuous
 62
     2
100
AcDbLine
 10
-147.3977997314327
 20
-301.3905286354154
 30
0.0
 11
-146.2653581547588
 21
-301.3905286354154
 31
0.0
  0
LINE
  5
1C1
102
{ACAD_REACTORS
330
262
330
263
102
}
330
71
100
AcDbEntity
  8
0
  6
Continuous
 62
     2
100
AcDbLine
 10
-144.8133736910291
 20
-301.9314891796332
 30
0.0
 11
-146.053878101283
 21
-301.9314891796332
 31
0.0
  0
LINE
  5
1C2
102
{ACAD_REACTORS
330
262
330
263
102
}
330
71
100
AcDbEntity
  8
0
  6
Continuous
 62
     2
100
AcDbLine
 10
-147.4518311482222
 20
-298.8776796558221
 30
0.0
 11
-148.8497841951614
 21
-301.9314891796332
 31
0.0
  0
LINE
  5
1C3
102
{ACAD_REACTORS
330
262
330
263
102
}
330
71
100
AcDbEntity
  8
0
  6
Continuous
 62
     2
100
AcDbLine
 10
-147.6092797849085
 20
-301.9314891796332
 30
0.0
 11
-147.3977997314327
 21
-301.3905286354154
 31
0.0
  0
LINE
  5
1C4
102
{ACAD_REACTORS
330
262
330
263
102
}
330
71
100
AcDbEntity
  8
0
  6
Continuous
 62
     2
100
AcDbLine
 10
-147.1317441802876
 20
-300.7099653701088
 30
0.0
 11
-146.8315789430953
 21
-299.9421504041221
 31
0.0
  0
LINE
  5
1C5
102
{ACAD_REACTORS
330
260
330
261
102
}
330
71
100
AcDbEntity
  8
0
  6
Continuous
 62
     2
100
AcDbLine
 10
-145.66343409775
 20
-298.5722987034589
 30
0.0
 11
-145.66343409775
 21
-295.5184891796478
 31
0.0
  0
LINE
  5
1C6
102
{ACAD_REACTORS
330
260
330
261
102
}
330
71
100
AcDbEntity
  8
0
  6
Continuous
 62
     2
100
AcDbLine
 10
-144.4229296874971
 20
-295.5184891796478
 30
0.0
 11
-144.4229296874971
 21
-298.5722987034589
 31
0.0
  0
LINE
  5
1C7
102
{ACAD_REACTORS
330
260
330
261
102
}
330
71
100
AcDbEntity
  8
0
  6
Continuous
 62
     2
100
AcDbLine
 10
-145.66343409775
 20
-295.5184891796478
 30
0.0
 11
-144.4229296874971
 21
-295.5184891796478
 31
0.0
  0
LINE
  5
1C8
102
{ACAD_REACTORS
330
25E
330
25F
102
}
330
71
100
AcDbEntity
  8
0
  6
Continuous
 62
     2
100
AcDbLine
 10
-142.2043352614663
 20
-297.7845669181652
 30
0.0
 11
-141.5077443234009
 21
-298.5722987034589
 31
0.0
  0
LINE
  5
1C9
102
{ACAD_REACTORS
330
25E
330
25F
102
}
330
71
100
AcDbEntity
  8
0
  6
Continuous
 62
     2
100
AcDbLine
 10
-141.5077443234009
 20
-298.5722987034589
 30
0.0
 11
-140.1050201056526
 21
-298.5722987034589
 31
0.0
  0
LINE
  5
1CA
102
{ACAD_REACTORS
330
25E
330
25F
102
}
330
71
100
AcDbEntity
  8
0
  6
Continuous
 62
     2
100
AcDbLine
 10
-141.5029731525929
 20
-296.991439709684
 30
0.0
 11
-140.1050201056526
 21
-298.5722987034589
 31
0.0
  0
LINE
  5
1CB
102
{ACAD_REACTORS
330
25E
330
25F
102
}
330
71
100
AcDbEntity
  8
0
  6
Continuous
 62
     2
100
AcDbLine
 10
-141.5029731525929
 20
-296.991439709684
 30
0.0
 11
-140.2004435218263
 21
-295.5184891796478
 31
0.0
  0
LINE
  5
1CC
102
{ACAD_REACTORS
330
25E
330
25F
102
}
330
71
100
AcDbEntity
  8
0
  6
Continuous
 62
     2
100
AcDbLine
 10
-142.2043352614663
 20
-296.1983125012033
 30
0.0
 11
-141.6031677395735
 21
-295.5184891796478
 31
0.0
  0
LINE
  5
1CD
102
{ACAD_REACTORS
330
25E
330
25F
102
}
330
71
100
AcDbEntity
  8
0
  6
Continuous
 62
     2
100
AcDbLine
 10
-142.8055027833582
 20
-295.5184891796478
 30
0.0
 11
-142.2043352614663
 21
-296.1983125012033
 31
0.0
  0
LINE
  5
1CE
102
{ACAD_REACTORS
330
25E
330
25F
102
}
330
71
100
AcDbEntity
  8
0
  6
Continuous
 62
     2
100
AcDbLine
 10
-142.8055027833582
 20
-295.5184891796478
 30
0.0
 11
-144.2082270011074
 21
-295.5184891796478
 31
0.0
  0
LINE
  5
1CF
102
{ACAD_REACTORS
330
254
330
255
102
}
330
71
100
AcDbEntity
  8
0
  6
Continuous
 62
     2
100
AcDbLine
 10
-142.1089118452937
 20
-301.9314891796332
 30
0.0
 11
-140.916119143126
 21
-301.9314891796332
 31
0.0
  0
LINE
  5
1D0
102
{ACAD_REACTORS
330
254
330
255
102
}
330
71
100
AcDbEntity
  8
0
  6
Continuous
 62
     2
100
AcDbLine
 10
-140.916119143126
 20
-301.9314891796332
 30
0.0
 11
-140.916119143126
 21
-299.6629449619458
 31
0.0
  0
LINE
  5
1D1
102
{ACAD_REACTORS
330
254
330
255
102
}
330
71
100
AcDbEntity
  8
0
  6
Continuous
 62
     2
100
AcDbLine
 10
-140.916119143126
 20
-299.6629449619458
 30
0.0
 11
-140.1050201056526
 21
-299.6629449619458
 31
0.0
  0
LINE
  5
1D2
102
{ACAD_REACTORS
330
254
330
255
102
}
330
71
100
AcDbEntity
  8
0
  6
Continuous
 62
     2
100
AcDbLine
 10
-140.1050201056526
 20
-299.6629449619458
 30
0.0
 11
-140.1050201056526
 21
-298.8776796558221
 31
0.0
  0
LINE
  5
1D3
102
{ACAD_REACTORS
330
254
330
255
102
}
330
71
100
AcDbEntity
  8
0
  6
Continuous
 62
     2
100
AcDbLine
 10
-143.4899656242812
 20
-298.8776796558227
 30
0.0
 11
-140.1050201056526
 21
-298.8776796558221
 31
0.0
  0
LINE
  5
1D4
102
{ACAD_REACTORS
330
254
330
255
102
}
330
71
100
AcDbEntity
  8
0
  6
Continuous
 62
     2
100
AcDbLine
 10
-142.1089118452937
 20
-299.6629449619458
 30
0.0
 11
-142.1089118452937
 21
-301.9314891796332
 31
0.0
  0
LINE
  5
1D5
102
{ACAD_REACTORS
330
256
330
257
102
}
330
71
100
AcDbEntity
  8
0
  6
Continuous
 62
     2
100
AcDbLine
 10
-164.7383982807728
 20
-299.9526090300687
 30
0.0
 11
-164.7383982807728
 21
-299.3707576233736
 31
0.0
  0
LINE
  5
1D6
102
{ACAD_REACTORS
330
256
330
257
102
}
330
71
100
AcDbEntity
  8
0
  6
Continuous
 62
     2
100
AcDbLine
 10
-164.7383982807728
 20
-297.1524744234375
 30
0.0
 11
-164.7383982807728
 21
-296.5469391349307
 31
0.0
  0
LINE
  5
1D7
330
71
100
AcDbEntity
  8
1
  6
Continuous
 62
     6
100
AcDbLine
 10
-136.2082196961697
 20
-309.2249891796495
 30
0.0
 11
-154.0530242229197
 21
-309.2249891796495
 31
0.0
  0
LINE
  5
1D8
330
71
100
AcDbEntity
  8
1
  6
Continuous
 62
     7
100
AcDbLine
 10
-172.2530242229196
 20
-292.2249891796496
 30
0.0
 11
-135.8530242229197
 21
-292.2249891796496
 31
0.0
  0
LINE
  5
1D9
330
71
100
AcDbEntity
  8
1
  6
Continuous
 62
     6
100
AcDbLine
 10
-172.2530242229196
 20
-292.2249891796496
 30
0.0
 11
-172.2530242229196
 21
-304.9749891796496
 31
0.0
  0
LINE
  5
1DA
330
71
100
AcDbEntity
  8
1
  6
Continuous
 62
     6
100
AcDbLine
 10
-135.8530242229197
 20
-292.2249891796496
 30
0.0
 11
-135.8530242229197
 21
-304.9749891796495
 31
0.0
  0
LINE
  5
1DB
330
71
100
AcDbEntity
  8
1
  6
Continuous
 62
     6
100
AcDbLine
 10
-135.8530242229197
 20
-309.2249891796496
 30
0.0
 11
-136.2082196961697
 21
-309.2249891796495
 31
0.0
  0
LINE
  5
1DC
330
71
100
AcDbEntity
  8
1
  6
Continuous
 62
     2
100
AcDbLine
 10
-168.0163693363571
 20
-286.8499891796497
 30
0.0
 11
-163.0163693363571
 21
-285.5999891796497
 31
0.0
  0
LINE
  5
1DD
330
71
100
AcDbEntity
  8
1
  6
Continuous
 62
     2
100
AcDbLine
 10
-168.0163693363571
 20
-289.3499891796497
 30
0.0
 11
-168.0163693363571
 21
-286.8499891796497
 31
0.0
  0
LINE
  5
1DE
330
71
100
AcDbEntity
  8
1
  6
Continuous
 62
     2
100
AcDbLine
 10
-163.0163693363571
 20
-290.5999891796497
 30
0.0
 11
-168.0163693363571
 21
-289.3499891796497
 31
0.0
  0
LINE
  5
1DF
330
71
100
AcDbEntity
  8
1
  6
Continuous
 62
     2
100
AcDbLine
 10
-163.0163693363571
 20
-285.5999891796497
 30
0.0
 11
-163.0163693363571
 21
-290.5999891796497
 31
0.0
  0
LINE
  5
1E0
330
71
100
AcDbEntity
  8
1
  6
Continuous
 62
     7
100
AcDbLine
 10
-172.2530242229196
 20
-304.9749891796496
 30
0.0
 11
-154.0530242229197
 21
-304.9749891796495
 31
0.0
  0
LINE
  5
1E1
330
71
100
AcDbEntity
  8
1
  6
Continuous
 62
     6
100
AcDbLine
 10
-172.2530242229196
 20
-304.9749891796496
 30
0.0
 11
-172.2530242229196
 21
-309.2249891796496
 31
0.0
  0
LINE
  5
1E2
330
71
100
AcDbEntity
  8
1
  6
Continuous
 62
     6
100
AcDbLine
 10
-135.8530242229197
 20
-304.9749891796495
 30
0.0
 11
-135.8530242229197
 21
-309.2249891796496
 31
0.0
  0
LINE
  5
1E3
330
71
100
AcDbEntity
  8
1
  6
Continuous
 62
     7
100
AcDbLine
 10
-154.0530242229197
 20
-304.9749891796495
 30
0.0
 11
-154.0530242229197
 21
-309.2249891796495
 31
0.0
  0
LINE
  5
1E4
330
71
100
AcDbEntity
  8
1
  6
Continuous
 62
     6
100
AcDbLine
 10
-154.0530242229197
 20
-309.2249891796495
 30
0.0
 11
-172.2530242229196
 21
-309.2249891796496
 31
0.0
  0
LINE
  5
1E5
330
71
100
AcDbEntity
  8
1
  6
Continuous
 62
     7
100
AcDbLine
 10
-154.0530242229197
 20
-304.9749891796495
 30
0.0
 11
-135.8530242229197
 21
-304.9749891796495
 31
0.0
  0
LINE
  5
1E6
330
71
100
AcDbEntity
  8
1
  6
Continuous
 62
     6
100
AcDbLine
 10
-172.2530242229196
 20
-283.7249891796496
 30
0.0
 11
-42.7082196961679
 21
-283.7249891796496
 31
0.0
  0
LINE
  5
1E7
330
71
100
AcDbEntity
  8
1
  6
PHANTOM
 62
     2
100
AcDbLine
 10
-156.7663693363571
 20
-288.0999891796497
 30
0.0
 11
-162.2663693363571
 21
-288.0999891796497
 31
0.0
  0
LINE
  5
1E8
330
71
100
AcDbEntity
  8
1
  6
PHANTOM
 62
     2
100
AcDbLine
 10
-159.5163693363571
 20
-285.3499891796496
 30
0.0
 11
-159.5163693363571
 21
-290.8499891796496
 31
0.0
  0
LINE
  5
1E9
330
71
100
AcDbEntity
  8
1
  6
DOT_CENTER
 62
     2
100
AcDbLine
 10
-168.2663693363571
 20
-288.0999891796497
 30
0.0
 11
-162.7663693363571
 21
-288.0999891796497
 31
0.0
  0
LINE
  5
1EA
330
71
100
AcDbEntity
  8
1
  6
Continuous
 62
     6
100
AcDbLine
 10
-42.70821969616975
 20
-251.8249891796489
 30
0.0
 11
-42.7082196961679
 21
-283.7249891796496
 31
0.0
  0
LINE
  5
1EB
330
71
100
AcDbEntity
  8
1
  6
Continuous
 62
     7
100
AcDbLine
 10
-79.8266279778472
 20
-283.7249891796496
 30
0.0
 11
-79.8266279778472
 21
-292.2249891796496
 31
0.0
  0
LINE
  5
1EC
330
71
100
AcDbEntity
  8
1
  6
Continuous
 62
     6
100
AcDbLine
 10
-42.70821969617015
 20
-300.7249891796496
 30
0.0
 11
-135.8530242229197
 21
-300.7249891796496
 31
0.0
  0
LINE
  5
1ED
330
71
100
AcDbEntity
  8
1
  6
Continuous
 62
     7
100
AcDbLine
 10
-79.8266279778472
 20
-292.2249891796496
 30
0.0
 11
-79.8266279778472
 21
-300.7249891796496
 31
0.0
  0
LINE
  5
1EE
330
71
100
AcDbEntity
  8
1
  6
Continuous
 62
     6
100
AcDbLine
 10
-135.8530242229197
 20
-309.2249891796496
 30
0.0
 11
-42.70821969616975
 21
-309.2249891796495
 31
0.0
  0
LINE
  5
1EF
330
71
100
AcDbEntity
  8
1
  6
Continuous
 62
     6
100
AcDbLine
 10
-42.7082196961679
 20
-283.7249891796496
 30
0.0
 11
-42.70821969617015
 21
-300.7249891796496
 31
0.0
  0
LINE
  5
1F0
330
71
100
AcDbEntity
  8
1
  6
Continuous
 62
     6
100
AcDbLine
 10
-42.70821969617015
 20
-300.7249891796496
 30
0.0
 11
-42.70821969616975
 21
-309.2249891796495
 31
0.0
  0
ARC
  5
1F1
102
{ACAD_REACTORS
330
25A
330
25B
102
}
330
71
100
AcDbEntity
  8
0
  6
Continuous
 62
     2
100
AcDbCircle
 10
-156.8613762239596
 20
-300.404584417728
 30
0.0
 40
0.7717997786795351
100
AcDbArc
 50
321.8795802028432
 51
38.1204197971668
  0
ARC
  5
1F2
102
{ACAD_REACTORS
330
25A
330
25B
102
}
330
71
100
AcDbEntity
  8
0
  6
Continuous
 62
     2
100
AcDbCircle
 10
-156.6616361876132
 20
-300.5613155958479
 30
0.0
 40
0.5179085730138424
100
AcDbArc
 50
218.1204197971879
 51
321.8795802027908
  0
ARC
  5
1F3
102
{ACAD_REACTORS
330
25A
330
25B
102
}
330
71
100
AcDbEntity
  8
0
  6
Continuous
 62
     2
100
AcDbCircle
 10
-156.4618961512672
 20
-300.404584417728
 30
0.0
 40
0.771799778679551
100
AcDbArc
 50
141.879580202828
 51
218.120419797162
  0
ARC
  5
1F4
102
{ACAD_REACTORS
330
25A
330
25B
102
}
330
71
100
AcDbEntity
  8
0
  6
Continuous
 62
     2
100
AcDbCircle
 10
-156.6616361876132
 20
-300.2478532396075
 30
0.0
 40
0.5179085730132806
100
AcDbArc
 50
38.12041979716469
 51
141.8795802028567
  0
ARC
  5
1F5
102
{ACAD_REACTORS
330
252
330
253
102
}
330
71
100
AcDbEntity
  8
0
  6
Continuous
 62
     2
100
AcDbCircle
 10
-159.7236503231772
 20
-301.8150507831361
 30
0.0
 40
2.227384008973465
100
AcDbArc
 50
58.06909105003707
 51
71.55192388186676
  0
ARC
  5
1F6
102
{ACAD_REACTORS
330
252
330
253
102
}
330
71
100
AcDbEntity
  8
0
  6
Continuous
 62
     2
100
AcDbCircle
 10
-159.4619226222184
 20
-300.1995129883889
 30
0.0
 40
0.5115800601948293
100
AcDbArc
 50
113.3722778881945
 51
151.4785267423156
  0
ARC
  5
1F7
102
{ACAD_REACTORS
330
252
330
253
102
}
330
71
100
AcDbEntity
  8
0
  6
Continuous
 62
     2
100
AcDbCircle
 10
-159.084565364138
 20
-300.404584417728
 30
0.0
 40
0.9410597353333294
100
AcDbArc
 50
151.4785267422693
 51
208.5214732576972
  0
ARC
  5
1F8
102
{ACAD_REACTORS
330
252
330
253
102
}
330
71
100
AcDbEntity
  8
0
  6
Continuous
 62
     2
100
AcDbCircle
 10
-159.88152319827
 20
-297.0919034724715
 30
0.0
 40
4.852596863498272
100
AcDbArc
 50
275.1581447696238
 51
285.9799912583526
  0
ARC
  5
1F9
102
{ACAD_REACTORS
330
252
330
253
102
}
330
71
100
AcDbEntity
  8
0
  6
Continuous
 62
     2
100
AcDbCircle
 10
-159.5926671035341
 20
-300.2917940556931
 30
0.0
 40
1.639695123939437
100
AcDbArc
 50
195.0618917770922
 51
275.1581447696363
  0
ARC
  5
1FA
102
{ACAD_REACTORS
330
252
330
253
102
}
330
71
100
AcDbEntity
  8
0
  6
Continuous
 62
     2
100
AcDbCircle
 10
-160.0117949469969
 20
-300.404584417728
 30
0.0
 40
1.205656168390971
100
AcDbArc
 50
164.9381082228768
 51
195.0618917770945
  0
ARC
  5
1FB
102
{ACAD_REACTORS
330
252
330
253
102
}
330
71
100
AcDbEntity
  8
0
  6
Continuous
 62
     2
100
AcDbCircle
 10
-159.5926671035341
 20
-300.5173747797628
 30
0.0
 40
1.639695123940499
100
AcDbArc
 50
84.84185523036533
 51
164.9381082228905
  0
ARC
  5
1FC
102
{ACAD_REACTORS
330
256
330
257
102
}
330
71
100
AcDbEntity
  8
0
  6
Continuous
 62
     2
100
AcDbCircle
 10
-164.422681357696
 20
-299.3707576233736
 30
0.0
 40
0.3157169230765328
100
AcDbArc
 50
115.3740086783519
 51
180.0
  0
ARC
  5
1FD
102
{ACAD_REACTORS
330
256
330
257
102
}
330
71
100
AcDbEntity
  8
0
  6
Continuous
 62
     2
100
AcDbCircle
 10
-164.422681357696
 20
-297.1524744234375
 30
0.0
 40
0.315716923076792
100
AcDbArc
 50
180.0
 51
244.6259913216349
  0
ARC
  5
1FE
102
{ACAD_REACTORS
330
256
330
257
102
}
330
71
100
AcDbEntity
  8
0
  6
Continuous
 62
     2
100
AcDbCircle
 10
-164.417065222386
 20
-298.2497740824997
 30
0.0
 40
2.018561131933266
100
AcDbArc
 50
269.8110329575827
 51
90.18896704241737
  0
ARC
  5
1FF
102
{ACAD_REACTORS
330
256
330
257
102
}
330
71
100
AcDbEntity
  8
0
  6
Continuous
 62
     2
100
AcDbCircle
 10
-164.422681357696
 20
-299.9526090300687
 30
0.0
 40
0.315716923076792
100
AcDbArc
 50
180.0
 51
269.8110329574335
  0
ARC
  5
200
102
{ACAD_REACTORS
330
254
330
255
102
}
330
71
100
AcDbEntity
  8
0
  6
Continuous
 62
     2
100
AcDbCircle
 10
-143.3592211429655
 20
-300.1995129883889
 30
0.0
 40
0.5115800601944048
100
AcDbArc
 50
109.3371432194823
 51
151.4785267424182
  0
ARC
  5
201
102
{ACAD_REACTORS
330
254
330
255
102
}
330
71
100
AcDbEntity
  8
0
  6
Continuous
 62
     2
100
AcDbCircle
 10
-143.3592211429655
 20
-300.6096558470665
 30
0.0
 40
0.5115800601959967
100
AcDbArc
 50
208.5214732576881
 51
246.6277221118399
  0
ARC
  5
202
102
{ACAD_REACTORS
330
254
330
255
102
}
330
71
100
AcDbEntity
  8
0
  6
Continuous
 62
     2
100
AcDbCircle
 10
-143.9090934677429
 20
-300.404584417728
 30
0.0
 40
1.205656168392975
100
AcDbArc
 50
164.9381082229024
 51
195.0618917770924
  0
ARC
  5
203
102
{ACAD_REACTORS
330
254
330
255
102
}
330
71
100
AcDbEntity
  8
0
  6
Continuous
 62
     2
100
AcDbCircle
 10
-143.4899656242812
 20
-300.5173747797628
 30
0.0
 40
1.639695123940101
100
AcDbArc
 50
90.0
 51
164.9381082228993
  0
ARC
  5
204
102
{ACAD_REACTORS
330
258
330
259
102
}
330
71
100
AcDbEntity
  8
0
  6
Continuous
 62
     2
100
AcDbCircle
 10
-152.9169607169849
 20
-297.0453939415536
 30
0.0
 40
1.526904761905769
100
AcDbArc
 50
90.0
 51
270.0
  0
ARC
  5
205
102
{ACAD_REACTORS
330
25C
330
25D
102
}
330
71
100
AcDbEntity
  8
0
  6
Continuous
 62
     2
100
AcDbCircle
 10
-159.6596514622107
 20
-296.534458849759
 30
0.0
 40
0.3528638246710898
100
AcDbArc
 50
270.0
 51
90.0
  0
ARC
  5
206
102
{ACAD_REACTORS
330
256
330
257
102
}
330
71
100
AcDbEntity
  8
0
  6
Continuous
 62
     2
100
AcDbCircle
 10
-166.9982300442278
 20
-296.5467616582825
 30
0.0
 40
0.3157169230760815
100
AcDbArc
 50
90.0
 51
180.0
  0
ARC
  5
207
102
{ACAD_REACTORS
330
256
330
257
102
}
330
71
100
AcDbEntity
  8
0
  6
Continuous
 62
     2
100
AcDbCircle
 10
-164.9998123356432
 20
-298.2616160234053
 30
0.0
 40
0.9118975235576433
100
AcDbArc
 50
115.1944106485195
 51
244.8055893514911
  0
ARC
  5
208
102
{ACAD_REACTORS
330
256
330
257
102
}
330
71
100
AcDbEntity
  8
0
  6
Continuous
 62
     2
100
AcDbCircle
 10
-165.5223967832182
 20
-299.372445769468
 30
0.0
 40
0.315716923076593
100
AcDbArc
 50
0.0
 51
64.805589351446
  0
ARC
  5
209
102
{ACAD_REACTORS
330
256
330
257
102
}
330
71
100
AcDbEntity
  8
0
  6
Continuous
 62
     2
100
AcDbCircle
 10
-167.5921247209743
 20
-301.50724456425
 30
0.0
 40
0.4242446153827757
100
AcDbArc
 50
180.0
 51
270.0
  0
ARC
  5
20A
102
{ACAD_REACTORS
330
258
330
259
102
}
330
71
100
AcDbEntity
  8
0
  6
Continuous
 62
     2
100
AcDbCircle
 10
-152.7006887068197
 20
-296.8886627634331
 30
0.0
 40
0.5179085730133669
100
AcDbArc
 50
38.12041979714121
 51
141.8795802028666
  0
ARC
  5
20B
102
{ACAD_REACTORS
330
258
330
259
102
}
330
71
100
AcDbEntity
  8
0
  6
Continuous
 62
     2
100
AcDbCircle
 10
-152.5009486704735
 20
-297.0453939415536
 30
0.0
 40
0.7717997786796245
100
AcDbArc
 50
141.8795802028484
 51
218.1204197971549
  0
ARC
  5
20C
102
{ACAD_REACTORS
330
25A
330
25B
102
}
330
71
100
AcDbEntity
  8
0
  6
Continuous
 62
     2
100
AcDbCircle
 10
-156.6616361876132
 20
-299.8660094074246
 30
0.0
 40
2.065479772208637
100
AcDbArc
 50
242.4518518243384
 51
297.548148175686
  0
ARC
  5
20D
102
{ACAD_REACTORS
330
25A
330
25B
102
}
330
71
100
AcDbEntity
  8
0
  6
Continuous
 62
     2
100
AcDbCircle
 10
-156.6616361876132
 20
-300.9431594280308
 30
0.0
 40
2.065479772208694
100
AcDbArc
 50
62.45185182430819
 51
117.5481481756674
  0
ARC
  5
20E
102
{ACAD_REACTORS
330
25A
330
25B
102
}
330
71
100
AcDbEntity
  8
0
  6
Continuous
 62
     2
100
AcDbCircle
 10
-156.9425760794466
 20
-300.404584417728
 30
0.0
 40
1.458034083651616
100
AcDbArc
 50
117.5481481756598
 51
242.451851824337
  0
ARC
  5
20F
102
{ACAD_REACTORS
330
25A
330
25B
102
}
330
71
100
AcDbEntity
  8
0
  6
Continuous
 62
     2
100
AcDbCircle
 10
-156.38069629578
 20
-300.404584417728
 30
0.0
 40
1.45803408365203
100
AcDbArc
 50
297.5481481757055
 51
62.45185182429758
  0
ARC
  5
210
102
{ACAD_REACTORS
330
258
330
259
102
}
330
71
100
AcDbEntity
  8
0
  6
Continuous
 62
     2
100
AcDbCircle
 10
-152.7006887068197
 20
-297.2021251196741
 30
0.0
 40
0.5179085730134564
100
AcDbArc
 50
218.1204197971334
 51
321.8795802028588
  0
ARC
  5
211
102
{ACAD_REACTORS
330
258
330
259
102
}
330
71
100
AcDbEntity
  8
0
  6
Continuous
 62
     2
100
AcDbCircle
 10
-152.9004287431659
 20
-297.0453939415536
 30
0.0
 40
0.7717997786795479
100
AcDbArc
 50
321.8795802028385
 51
38.12041979715814
  0
ARC
  5
212
102
{ACAD_REACTORS
330
256
330
257
102
}
330
71
100
AcDbEntity
  8
0
  6
Continuous
 62
     2
100
AcDbCircle
 10
-162.1188126302574
 20
-301.50724456425
 30
0.0
 40
0.424244615383202
100
AcDbArc
 50
270.0
 51
0.0
  0
ARC
  5
213
102
{ACAD_REACTORS
330
256
330
257
102
}
330
71
100
AcDbEntity
  8
0
  6
Continuous
 62
     2
100
AcDbCircle
 10
-162.1188126302574
 20
-295.9427337950498
 30
0.0
 40
0.4242446153838841
100
AcDbArc
 50
0.0
 51
90.0
  0
ARC
  5
214
102
{ACAD_REACTORS
330
256
330
257
102
}
330
71
100
AcDbEntity
  8
0
  6
Continuous
 62
     2
100
AcDbCircle
 10
-167.5921247209743
 20
-295.9427337950498
 30
0.0
 40
0.4242446153838841
100
AcDbArc
 50
90.0
 51
180.0
  0
ARC
  5
215
102
{ACAD_REACTORS
330
256
330
257
102
}
330
71
100
AcDbEntity
  8
0
  6
Continuous
 62
     2
100
AcDbCircle
 10
-165.5223967832182
 20
-300.9032167009996
 30
0.0
 40
0.3157169230767067
100
AcDbArc
 50
270.0
 51
0.0
  0
ARC
  5
216
102
{ACAD_REACTORS
330
256
330
257
102
}
330
71
100
AcDbEntity
  8
0
  6
Continuous
 62
     2
100
AcDbCircle
 10
-165.5223967832182
 20
-297.1507862773431
 30
0.0
 40
0.3157169230760658
100
AcDbArc
 50
295.1944106485672
 51
0.0
  0
ARC
  5
217
102
{ACAD_REACTORS
330
256
330
257
102
}
330
71
100
AcDbEntity
  8
0
  6
Continuous
 62
     2
100
AcDbCircle
 10
-165.5223967832182
 20
-296.5467616582825
 30
0.0
 40
0.315716923076593
100
AcDbArc
 50
0.0
 51
90.0
  0
ARC
  5
218
102
{ACAD_REACTORS
330
256
330
257
102
}
330
71
100
AcDbEntity
  8
0
  6
Continuous
 62
     2
100
AcDbCircle
 10
-166.9982300442278
 20
-300.9032167009996
 30
0.0
 40
0.3157169230755983
100
AcDbArc
 50
180.0
 51
270.0
  0
ARC
  5
219
102
{ACAD_REACTORS
330
25C
330
25D
102
}
330
71
100
AcDbEntity
  8
0
  6
Continuous
 62
     2
100
AcDbCircle
 10
-159.2181789359723
 20
-296.5738548209815
 30
0.0
 40
1.055365641333651
100
AcDbArc
 50
270.0
 51
90.0
  0
ARC
  5
21A
102
{ACAD_REACTORS
330
254
330
255
102
}
330
71
100
AcDbEntity
  8
0
  6
Continuous
 62
     2
100
AcDbCircle
 10
-143.4899656242812
 20
-300.2917940556931
 30
0.0
 40
1.639695123940503
100
AcDbArc
 50
195.0618917771007
 51
275.1581447696772
  0
ARC
  5
21B
102
{ACAD_REACTORS
330
254
330
255
102
}
330
71
100
AcDbEntity
  8
0
  6
Continuous
 62
     2
100
AcDbCircle
 10
-143.7788217190171
 20
-297.0919034724715
 30
0.0
 40
4.852596863498889
100
AcDbArc
 50
275.1581447696373
 51
285.9799912583383
  0
ARC
  5
21C
102
{ACAD_REACTORS
330
254
330
255
102
}
330
71
100
AcDbEntity
  8
0
  6
Continuous
 62
     2
100
AcDbCircle
 10
-143.6209488439243
 20
-298.9941180523198
 30
0.0
 40
2.227384008972773
100
AcDbArc
 50
288.4480761181333
 51
301.9309089499394
  0
ARC
  5
21D
102
{ACAD_REACTORS
330
254
330
255
102
}
330
71
100
AcDbEntity
  8
0
  6
Continuous
 62
     2
100
AcDbCircle
 10
-143.2027811102623
 20
-300.2476638283565
 30
0.0
 40
0.9059297849852208
100
AcDbArc
 50
246.6277221118088
 51
288.4480761180772
  0
ARC
  5
21E
102
{ACAD_REACTORS
330
254
330
255
102
}
330
71
100
AcDbEntity
  8
0
  6
Continuous
 62
     2
100
AcDbCircle
 10
-142.981863884884
 20
-300.404584417728
 30
0.0
 40
0.9410597353350352
100
AcDbArc
 50
151.4785267423573
 51
208.521473257667
  0
ARC
  5
21F
102
{ACAD_REACTORS
330
254
330
255
102
}
330
71
100
AcDbEntity
  8
0
  6
Continuous
 62
     2
100
AcDbCircle
 10
-143.2125511448618
 20
-300.6174679687719
 30
0.0
 40
0.9545230068260935
100
AcDbArc
 50
90.0
 51
109.3371432194281
  0
ARC
  5
220
102
{ACAD_REACTORS
330
256
330
257
102
}
330
71
100
AcDbEntity
  8
0
  6
Continuous
 62
     2
100
AcDbCircle
 10
-164.422681357696
 20
-296.5469391349307
 30
0.0
 40
0.3157169230761851
100
AcDbArc
 50
90.1889670425665
 51
180.0
  0
ARC
  5
221
102
{ACAD_REACTORS
330
256
330
257
102
}
330
71
100
AcDbEntity
  8
0
  6
Continuous
 62
     2
100
AcDbCircle
 10
-164.9487240557839
 20
-298.2616160234053
 30
0.0
 40
0.9118481501443941
100
AcDbArc
 50
295.3740086781804
 51
64.62599132180893
  0
ARC
  5
222
102
{ACAD_REACTORS
330
252
330
253
102
}
330
71
100
AcDbEntity
  8
0
  6
Continuous
 62
     2
100
AcDbCircle
 10
-159.7236503231772
 20
-298.9941180523193
 30
0.0
 40
2.227384008972719
100
AcDbArc
 50
288.4480761181337
 51
301.9309089499637
  0
ARC
  5
223
102
{ACAD_REACTORS
330
252
330
253
102
}
330
71
100
AcDbEntity
  8
0
  6
Continuous
 62
     2
100
AcDbCircle
 10
-159.3054825895163
 20
-300.2476638283565
 30
0.0
 40
0.9059297849848262
100
AcDbArc
 50
246.6277221118665
 51
288.4480761181539
  0
ARC
  5
224
102
{ACAD_REACTORS
330
252
330
253
102
}
330
71
100
AcDbEntity
  8
0
  6
Continuous
 62
     2
100
AcDbCircle
 10
-159.4619226222184
 20
-300.6096558470665
 30
0.0
 40
0.5115800601947491
100
AcDbArc
 50
208.5214732576844
 51
246.6277221118282
  0
ARC
  5
225
102
{ACAD_REACTORS
330
252
330
253
102
}
330
71
100
AcDbEntity
  8
0
  6
Continuous
 62
     2
100
AcDbCircle
 10
-159.3054825895163
 20
-300.5615050070995
 30
0.0
 40
0.9059297849853498
100
AcDbArc
 50
71.55192388185974
 51
113.3722778881306
  0
ARC
  5
226
102
{ACAD_REACTORS
330
252
330
253
102
}
330
71
100
AcDbEntity
  8
0
  6
Continuous
 62
     2
100
AcDbCircle
 10
-159.88152319827
 20
-303.7172653629838
 30
0.0
 40
4.852596863497986
100
AcDbArc
 50
74.0200087416471
 51
84.84185523037608
  0
CIRCLE
  5
227
102
{ACAD_REACTORS
330
256
330
257
102
}
330
71
100
AcDbEntity
  8
0
  6
Continuous
 62
     2
100
AcDbCircle
 10
-164.9725390704567
 20
-298.2616160234053
 30
0.0
 40
0.470978932778479
  0
CIRCLE
  5
228
330
71
100
AcDbEntity
  8
1
  6
Continuous
 62
     2
100
AcDbCircle
 10
-159.5163693363571
 20
-288.0999891796497
 30
0.0
 40
1.25
  0
CIRCLE
  5
229
330
71
100
AcDbEntity
  8
1
  6
Continuous
 62
     2
100
AcDbCircle
 10
-159.5163693363571
 20
-288.0999891796497
 30
0.0
 40
2.5
  0
TEXT
  5
22A
330
71
100
AcDbEntity
  8
1
 62
     7
100
AcDbText
 10
-78.04155302950306
 20
-313.224989179649
 30
0.0
 40
2.5
  1
6
 41
0.9
  7
CONVERTER_11
100
AcDbText
  0
TEXT
  5
22B
330
71
100
AcDbEntity
  8
1
 62
     7
100
AcDbText
 10
-146.3748863628365
 20
-313.224989179649
 30
0.0
 40
2.5
  1
5
 41
0.9
  7
CONVERTER_11
100
AcDbText
  0
TEXT
  5
22C
330
71
100
AcDbEntity
  8
1
 62
     7
100
AcDbText
 10
-214.7082196961697
 20
-313.224989179649
 30
0.0
 40
2.5
  1
4
 41
0.9
  7
CONVERTER_11
100
AcDbText
  0
TEXT
  5
22D
330
71
100
AcDbEntity
  8
1
 62
     7
100
AcDbText
 10
-283.0415530295028
 20
-313.224989179649
 30
0.0
 40
2.5
  1
3
 41
0.9
  7
CONVERTER_11
100
AcDbText
  0
TEXT
  5
22E
330
71
100
AcDbEntity
  8
1
 62
     7
100
AcDbText
 10
-41.70821969616969
 20
-281.724989179649
 30
0.0
 40
2.5
  1
E
 41
0.9
  7
CONVERTER_11
100
AcDbText
  0
TEXT
  5
22F
330
71
100
AcDbEntity
  8
1
 62
     7
100
AcDbText
 10
-419.7082196961694
 20
-313.224989179649
 30
0.0
 40
2.5
  1
1
 41
0.9
  7
CONVERTER_11
100
AcDbText
  0
TEXT
  5
230
330
71
100
AcDbEntity
  8
1
 62
     7
100
AcDbText
 10
-351.3748863628363
 20
-313.224989179649
 30
0.0
 40
2.5
  1
2
 41
0.9
  7
CONVERTER_11
100
AcDbText
  0
TEXT
  5
231
330
71
100
AcDbEntity
  8
1
 62
     7
100
AcDbText
 10
-41.70821969616969
 20
-224.3249891796489
 30
0.0
 40
2.5
  1
D
 41
0.9
  7
CONVERTER_11
100
AcDbText
  0
TEXT
  5
232
330
71
100
AcDbEntity
  8
1
 62
     7
100
AcDbText
 10
-41.70821969616969
 20
-166.9249891796488
 30
0.0
 40
2.5
  1
C
 41
0.9
  7
CONVERTER_11
100
AcDbText
  0
TEXT
  5
233
330
71
100
AcDbEntity
  8
1
 62
     7
100
AcDbText
 10
-41.70821969616969
 20
-109.524989179649
 30
0.0
 40
2.5
  1
B
 41
0.9
  7
CONVERTER_11
100
AcDbText
  0
TEXT
  5
234
330
71
100
AcDbEntity
  8
1
 62
     7
100
AcDbText
 10
-41.70821969616969
 20
-52.12498917964911
 30
0.0
 40
2.5
  1
A
 41
0.9
  7
CONVERTER_11
100
AcDbText
  0
TEXT
  5
235
330
71
100
AcDbEntity
  8
1
 62
     7
100
AcDbText
 10
-78.04155302950306
 20
-21.22498917964879
 30
0.0
 40
2.5
  1
6
 41
0.9
  7
CONVERTER_11
100
AcDbText
  0
TEXT
  5
236
330
71
100
AcDbEntity
  8
1
 62
     7
100
AcDbText
 10
-146.3748863628363
 20
-21.22498917964879
 30
0.0
 40
2.5
  1
5
 41
0.9
  7
CONVERTER_11
100
AcDbText
  0
TEXT
  5
237
330
71
100
AcDbEntity
  8
1
 62
     7
100
AcDbText
 10
-214.7082196961697
 20
-21.22498917964879
 30
0.0
 40
2.5
  1
4
 41
0.9
  7
CONVERTER_11
100
AcDbText
  0
TEXT
  5
238
330
71
100
AcDbEntity
  8
1
 62
     7
100
AcDbText
 10
-283.0415530295028
 20
-21.22498917964879
 30
0.0
 40
2.5
  1
3
 41
0.9
  7
CONVERTER_11
100
AcDbText
  0
TEXT
  5
239
330
71
100
AcDbEntity
  8
1
 62
     7
100
AcDbText
 10
-351.3748863628363
 20
-21.22498917964879
 30
0.0
 40
2.5
  1
2
 41
0.9
  7
CONVERTER_11
100
AcDbText
  0
TEXT
  5
23A
330
71
100
AcDbEntity
  8
1
 62
     7
100
AcDbText
 10
-419.7082196961694
 20
-21.22498917964879
 30
0.0
 40
2.5
  1
1
 41
0.9
  7
CONVERTER_11
100
AcDbText
  0
TEXT
  5
23B
330
71
100
AcDbEntity
  8
1
 62
     7
100
AcDbText
 10
-116.8794765009059
 20
-290.9249891796496
 30
0.0
 40
2.5
  1
/
 41
0.9
  7
CONVERTER_11
100
AcDbText
  0
TEXT
  5
23D
330
71
100
AcDbEntity
  8
1
 62
     7
100
AcDbText
 10
-114.7231120038639
 20
-290.9249891796496
 30
0.0
 40
2.5
  1
00
 41
0.81
  7
CONVERTER_12
100
AcDbText
  0
TEXT
  5
23E
330
71
100
AcDbEntity
  8
1
 62
     3
100
AcDbText
 10
-108.6266279778468
 20
-290.9249891796496
 30
0.0
 40
2.5
  1
14.11.2018
 41
0.81
  7
CONVERTER_12
100
AcDbText
  0
MTEXT
  5
23F
330
71
100
AcDbEntity
  8
1
 62
     2
100
AcDbMText
 10
-108.6266279778468
 20
-284.7249891796496
 30
0.0
 40
1.8
 41
0.0
 71
     1
 72
     1
  1
date
  7
CONVERTER_11
 73
     1
 44
1.32052821128451
  0
MTEXT
  5
240
330
71
100
AcDbEntity
  8
1
 62
     2
100
AcDbMText
 10
-134.8530242229197
 20
-293.2249891796496
 30
0.0
 40
1.8
 41
0.0
 71
     1
 72
     1
  1
document-type
  7
CONVERTER_11
 73
     1
 44
1.20048019207683
  0
TEXT
  5
241
330
71
100
AcDbEntity
  8
1
 62
     3
100
AcDbText
 10
-134.8530242229197
 20
-299.4249891796496
 30
0.0
 40
2.5
  1
TECDOC 2D_Design_In
 41
0.81
  7
CONVERTER_12
100
AcDbText
  0
MTEXT
  5
243
330
71
100
AcDbEntity
  8
1
 62
     2
100
AcDbMText
 10
-134.7530242229197
 20
-284.7249891796496
 30
0.0
 40
1.8
 41
0.0
 71
     1
 72
     1
  1
document-No. / RI
  7
CONVERTER_13
 73
     1
 44
1.32052821128451
  0
TEXT
  5
244
330
71
100
AcDbEntity
  8
1
 62
     7
100
AcDbText
 10
-134.7530242229197
 20
-290.9249891796496
 30
0.0
 40
2.5
  1
01174106
 41
0.81
  7
CONVERTER_12
100
AcDbText
  0
MTEXT
  5
246
330
71
100
AcDbEntity
  8
1
 62
     3
100
AcDbMText
 10
-84.9674238370077
 20
-290.9249891796495
 30
0.0
 40
2.5
 41
0.0
 71
     8
 72
     1
  1
1:1
  7
CONVERTER_14
 73
     1
 44
1.32052821128451
  0
MTEXT
  5
247
330
71
100
AcDbEntity
  8
1
 62
     2
100
AcDbMText
 10
-88.1266279778472
 20
-284.7249891796496
 30
0.0
 40
1.8
 41
0.0
 71
     1
 72
     1
  1
scale
  7
CONVERTER_11
 73
     1
 44
1.20048019207683
  0
MTEXT
  5
248
330
71
100
AcDbEntity
  8
1
 62
     2
100
AcDbMText
 10
-78.7266279778472
 20
-292.2249891796496
 30
0.0
 40
1.5
 41
0.0
 71
     4
 72
     1
  1
- Simplified representation\P- Document excluded\P  from change process\P- Linear dimensions [mm]\P- EN ISO 291  23/50
  7
CONVERTER_11
 73
     1
 44
1.20048019207683
  0
MTEXT
  5
249
330
71
100
AcDbEntity
  8
1
 62
     3
100
AcDbMText
 10
-146.0530242229197
 20
-288.0999891796496
 30
0.0
 40
2.5
 41
0.0
 71
     5
 72
     1
  1
DIN A3
  7
CONVERTER_11
 73
     1
 44
1.20048019207683
  0
MTEXT
  5
24A
330
71
100
AcDbEntity
  8
1
 62
     2
100
AcDbMText
 10
-134.8530242229197
 20
-301.7249891796496
 30
0.0
 40
1.8
 41
0.0
 71
     1
 72
     1
  1
description
  7
CONVERTER_11
 73
     1
 44
1.20048019207683
  0
MTEXT
  5
24B
330
71
100
AcDbEntity
  8
1
 62
     7
100
AcDbMText
 10
-89.28062195954419
 20
-305.9749891796494
 30
0.0
 40
3.0
 41
0.0
 71
     5
 72
     1
  1
DESIGN-IN
  7
CONVERTER_12
 73
     1
 44
1.20048019207683
  0
TEXT
  5
24C
330
71
100
AcDbEntity
  8
1
 62
     2
100
AcDbText
 10
-147.8177154131061
 20
-307.9749891796496
 30
0.0
 40
1.8
  1
1
 41
0.9
  7
CONVERTER_11
100
AcDbText
  0
TEXT
  5
24D
330
71
100
AcDbEntity
  8
1
 62
     2
100
AcDbText
 10
-162.6067592525776
 20
-308.0242378334515
 30
0.0
 40
1.8
  1
1
 41
0.9
  7
CONVERTER_11
100
AcDbText
  0
TEXT
  5
24E
330
71
100
AcDbEntity
  8
1
 62
     2
100
AcDbText
 10
-171.2530242229196
 20
-307.9840063946413
 30
0.0
 40
1.8
  1
page
 41
0.9
  7
CONVERTER_11
100
AcDbText
  0
TEXT
  5
24F
330
71
100
AcDbEntity
  8
1
 62
     2
100
AcDbText
 10
-153.0530242229198
 20
-307.9840063946411
 30
0.0
 40
1.8
  1
of
 41
0.9
  7
CONVERTER_11
100
AcDbText
  0
MTEXT
  5
250
330
71
100
AcDbEntity
  8
1
 62
     3
100
AcDbMText
 10
-439.4397526959104
 20
-136.2387050659953
 30
0.0
 40
1.8
 41
0.0
 71
     7
 72
     1
  3
Transfer or duplication of this document as well as the utilisation or\Pcommunication of its content are not permitted unless express consent\Pis granted. Violations give rise to claims for damages. All rights reserved\Pin case of patent, utility mo
  1
del or design patent registrations.\PTolerance specifications do not include clearances inherent in the design.
  7
CONVERTER_11
 11
0.0
 21
1.0
 31
0.0
 73
     1
 44
0.99639855942377
  0
MTEXT
  5
251
330
71
100
AcDbEntity
  8
1
 62
     3
100
AcDbMText
 10
-439.2855463848165
 20
-309.1980750801484
 30
0.0
 40
1.8
 41
0.0
 71
     7
 72
     1
  3
Weitergabe sowie Vervielf\U+00e4ltigung dieses Dokuments, Verwertung und\PMitteilung seines Inhalts sind verboten, soweit nicht ausdr\U+00fccklich gestattet.\PZuwiderhandlungen verpflichten zu Schadenersatz. Alle Rechte f\U+00fcr den Fall\Pder Paten
  1
t-, Gebrauchsmuster- oder Designeintragung vorbehalten.\PBauartbedingtes Spiel ist in den Toleranzangaben nicht ber\U+00fccksichtigt.
  7
CONVERTER_11
 11
0.0
 21
1.0
 31
0.0
 73
     1
 44
0.99639855942377
  0
HATCH
  5
252
330
71
100
AcDbEntity
  8
1
  6
Continuous
 62
     2
100
AcDbHatch
 10
0.0
 20
0.0
 30
0.0
210
0.0
220
0.0
230
1.0
  2
CUSTOM0
 70
     0
 71
     1
 91
        1
 92
        1
 93
       14
 72
     2
 10
-160.0117949469969
 20
-300.404584417728
 40
1.205656168390971
 50
164.9381082228768
 51
195.0618917770945
 73
     1
 72
     2
 10
-159.5926671035341
 20
-300.2917940556931
 40
1.639695123939437
 50
195.0618917770922
 51
275.1581447696363
 73
     1
 72
     2
 10
-159.88152319827
 20
-297.0919034724715
 40
4.852596863498272
 50
275.1581447696238
 51
285.9799912583526
 73
     1
 72
     1
 10
-158.5455952811522
 20
-301.7569857782724
 11
-158.5455952811522
 21
-300.8844687714691
 72
     2
 10
-159.7236503231772
 20
-298.9941180523193
 40
2.227384008972719
 50
58.06909105003628
 51
71.55192388186632
 73
     0
 72
     2
 10
-159.3054825895163
 20
-300.2476638283565
 40
0.9059297849848262
 50
71.55192388184605
 51
113.3722778881334
 73
     0
 72
     2
 10
-159.4619226222184
 20
-300.6096558470665
 40
0.5115800601947491
 50
113.3722778881718
 51
151.4785267423156
 73
     0
 72
     2
 10
-159.084565364138
 20
-300.404584417728
 40
0.9410597353333294
 50
151.4785267423028
 51
208.5214732577306
 73
     0
 72
     2
 10
-159.4619226222184
 20
-300.1995129883889
 40
0.5115800601948293
 50
208.5214732576844
 51
246.6277221118054
 73
     0
 72
     2
 10
-159.3054825895163
 20
-300.5615050070995
 40
0.9059297849853498
 50
246.6277221118694
 51
288.4480761181403
 73
     0
 72
     2
 10
-159.7236503231772
 20
-301.8150507831361
 40
2.227384008973465
 50
288.4480761181333
 51
301.9309089499629
 73
     0
 72
     1
 10
-158.5455952811522
 20
-299.9247000639863
 11
-158.5455952811522
 21
-299.052183057183
 72
     2
 10
-159.88152319827
 20
-303.7172653629838
 40
4.852596863497986
 50
74.0200087416471
 51
84.84185523037608
 73
     1
 72
     2
 10
-159.5926671035341
 20
-300.5173747797628
 40
1.639695123940499
 50
84.84185523036533
 51
164.9381082228905
 73
     1
 97
       14
330
226
330
16C
330
1F5
330
225
330
1F6
330
1F7
330
224
330
223
330
222
330
16D
330
1F8
330
1F9
330
1FA
330
1FB
 75
     1
 76
     2
 52
45.0
 41
0.1
 77
     0
 78
     1
 53
45.0
 43
62.7811309658083
 44
-72.3161373035813
 45
-0.1414213562373095
 46
0.0
 79
     0
 98
        1
 10
0.0
 20
0.0
  0
HATCH
  5
253
330
71
100
AcDbEntity
  8
1
  6
Continuous
 62
     2
100
AcDbHatch
 10
0.0
 20
0.0
 30
0.0
210
0.0
220
0.0
230
1.0
  2
CUSTOM1
 70
     0
 71
     1
 91
        1
 92
        1
 93
       14
 72
     2
 10
-160.0117949469969
 20
-300.404584417728
 40
1.205656168390971
 50
164.9381082228768
 51
195.0618917770945
 73
     1
 72
     2
 10
-159.5926671035341
 20
-300.2917940556931
 40
1.639695123939437
 50
195.0618917770922
 51
275.1581447696363
 73
     1
 72
     2
 10
-159.88152319827
 20
-297.0919034724715
 40
4.852596863498272
 50
275.1581447696238
 51
285.9799912583526
 73
     1
 72
     1
 10
-158.5455952811522
 20
-301.7569857782724
 11
-158.5455952811522
 21
-300.8844687714691
 72
     2
 10
-159.7236503231772
 20
-298.9941180523193
 40
2.227384008972719
 50
58.06909105003628
 51
71.55192388186632
 73
     0
 72
     2
 10
-159.3054825895163
 20
-300.2476638283565
 40
0.9059297849848262
 50
71.55192388184605
 51
113.3722778881334
 73
     0
 72
     2
 10
-159.4619226222184
 20
-300.6096558470665
 40
0.5115800601947491
 50
113.3722778881718
 51
151.4785267423156
 73
     0
 72
     2
 10
-159.084565364138
 20
-300.404584417728
 40
0.9410597353333294
 50
151.4785267423028
 51
208.5214732577306
 73
     0
 72
     2
 10
-159.4619226222184
 20
-300.1995129883889
 40
0.5115800601948293
 50
208.5214732576844
 51
246.6277221118054
 73
     0
 72
     2
 10
-159.3054825895163
 20
-300.5615050070995
 40
0.9059297849853498
 50
246.6277221118694
 51
288.4480761181403
 73
     0
 72
     2
 10
-159.7236503231772
 20
-301.8150507831361
 40
2.227384008973465
 50
288.4480761181333
 51
301.9309089499629
 73
     0
 72
     1
 10
-158.5455952811522
 20
-299.9247000639863
 11
-158.5455952811522
 21
-299.052183057183
 72
     2
 10
-159.88152319827
 20
-303.7172653629838
 40
4.852596863497986
 50
74.0200087416471
 51
84.84185523037608
 73
     1
 72
     2
 10
-159.5926671035341
 20
-300.5173747797628
 40
1.639695123940499
 50
84.84185523036533
 51
164.9381082228905
 73
     1
 97
       14
330
226
330
16C
330
1F5
330
225
330
1F6
330
1F7
330
224
330
223
330
222
330
16D
330
1F8
330
1F9
330
1FA
330
1FB
 75
     1
 76
     2
 52
45.0
 41
0.1
 77
     0
 78
     1
 53
45.0
 43
62.7811309658083
 44
-72.3161373035813
 45
-0.1414213562373095
 46
0.0
 79
     0
 98
        1
 10
0.0
 20
0.0
  0
HATCH
  5
254
330
71
100
AcDbEntity
  8
1
  6
Continuous
 62
     2
100
AcDbHatch
 10
0.0
 20
0.0
 30
0.0
210
0.0
220
0.0
230
1.0
  2
CUSTOM2
 70
     0
 71
     1
 91
        1
 92
        1
 93
       18
 72
     2
 10
-143.4899656242812
 20
-300.5173747797628
 40
1.639695123940101
 50
90.0
 51
164.9381082228993
 73
     1
 72
     2
 10
-143.9090934677429
 20
-300.404584417728
 40
1.205656168392975
 50
164.9381082229024
 51
195.0618917770924
 73
     1
 72
     2
 10
-143.4899656242812
 20
-300.2917940556931
 40
1.639695123940503
 50
195.0618917771007
 51
275.1581447696772
 73
     1
 72
     2
 10
-143.7788217190171
 20
-297.0919034724715
 40
4.852596863498889
 50
275.1581447696373
 51
285.9799912583383
 73
     1
 72
     1
 10
-142.4428938019004
 20
-301.7569857782729
 11
-142.4428938019004
 21
-300.8844687714696
 72
     2
 10
-143.6209488439243
 20
-298.9941180523198
 40
2.227384008972773
 50
58.06909105006066
 51
71.55192388186677
 73
     0
 72
     2
 10
-143.2027811102623
 20
-300.2476638283565
 40
0.9059297849852208
 50
71.55192388192279
 51
113.3722778881912
 73
     0
 72
     2
 10
-143.3592211429655
 20
-300.6096558470665
 40
0.5115800601959967
 50
113.3722778881601
 51
151.4785267423119
 73
     0
 72
     2
 10
-142.981863884884
 20
-300.404584417728
 40
0.9410597353350352
 50
151.478526742333
 51
208.5214732576427
 73
     0
 72
     2
 10
-143.3592211429655
 20
-300.1995129883889
 40
0.5115800601944048
 50
208.5214732575818
 51
250.6628567805177
 73
     0
 72
     2
 10
-143.2125511448618
 20
-300.6174679687719
 40
0.9545230068260935
 50
250.6628567805719
 51
270.0
 73
     0
 72
     1
 10
-143.2125511448618
 20
-299.6629449619458
 11
-142.1089118452937
 21
-299.6629449619458
 72
     1
 10
-142.1089118452937
 20
-299.6629449619458
 11
-142.1089118452937
 21
-301.9314891796332
 72
     1
 10
-142.1089118452937
 20
-301.9314891796332
 11
-140.916119143126
 21
-301.9314891796332
 72
     1
 10
-140.916119143126
 20
-301.9314891796332
 11
-140.916119143126
 21
-299.6629449619458
 72
     1
 10
-140.916119143126
 20
-299.6629449619458
 11
-140.1050201056526
 21
-299.6629449619458
 72
     1
 10
-140.1050201056526
 20
-299.6629449619458
 11
-140.1050201056526
 21
-298.8776796558221
 72
     1
 10
-140.1050201056526
 20
-298.8776796558221
 11
-143.4899656242812
 21
-298.8776796558227
 97
       18
330
1D2
330
1D1
330
1D0
330
1CF
330
1D4
330
16E
330
21F
330
200
330
21E
330
201
330
21D
330
21C
330
16F
330
21B
330
21A
330
202
330
203
330
1D3
 75
     1
 76
     2
 52
45.0
 41
0.1
 77
     0
 78
     1
 53
45.0
 43
62.7811309658083
 44
-72.3161373035813
 45
-0.1414213562373095
 46
0.0
 79
     0
 98
        1
 10
0.0
 20
0.0
  0
HATCH
  5
255
330
71
100
AcDbEntity
  8
1
  6
Continuous
 62
     2
100
AcDbHatch
 10
0.0
 20
0.0
 30
0.0
210
0.0
220
0.0
230
1.0
  2
CUSTOM3
 70
     0
 71
     1
 91
        1
 92
        1
 93
       18
 72
     2
 10
-143.4899656242812
 20
-300.5173747797628
 40
1.639695123940101
 50
90.0
 51
164.9381082228993
 73
     1
 72
     2
 10
-143.9090934677429
 20
-300.404584417728
 40
1.205656168392975
 50
164.9381082229024
 51
195.0618917770924
 73
     1
 72
     2
 10
-143.4899656242812
 20
-300.2917940556931
 40
1.639695123940503
 50
195.0618917771007
 51
275.1581447696772
 73
     1
 72
     2
 10
-143.7788217190171
 20
-297.0919034724715
 40
4.852596863498889
 50
275.1581447696373
 51
285.9799912583383
 73
     1
 72
     1
 10
-142.4428938019004
 20
-301.7569857782729
 11
-142.4428938019004
 21
-300.8844687714696
 72
     2
 10
-143.6209488439243
 20
-298.9941180523198
 40
2.227384008972773
 50
58.06909105006066
 51
71.55192388186677
 73
     0
 72
     2
 10
-143.2027811102623
 20
-300.2476638283565
 40
0.9059297849852208
 50
71.55192388192279
 51
113.3722778881912
 73
     0
 72
     2
 10
-143.3592211429655
 20
-300.6096558470665
 40
0.5115800601959967
 50
113.3722778881601
 51
151.4785267423119
 73
     0
 72
     2
 10
-142.981863884884
 20
-300.404584417728
 40
0.9410597353350352
 50
151.478526742333
 51
208.5214732576427
 73
     0
 72
     2
 10
-143.3592211429655
 20
-300.1995129883889
 40
0.5115800601944048
 50
208.5214732575818
 51
250.6628567805177
 73
     0
 72
     2
 10
-143.2125511448618
 20
-300.6174679687719
 40
0.9545230068260935
 50
250.6628567805719
 51
270.0
 73
     0
 72
     1
 10
-143.2125511448618
 20
-299.6629449619458
 11
-142.1089118452937
 21
-299.6629449619458
 72
     1
 10
-142.1089118452937
 20
-299.6629449619458
 11
-142.1089118452937
 21
-301.9314891796332
 72
     1
 10
-142.1089118452937
 20
-301.9314891796332
 11
-140.916119143126
 21
-301.9314891796332
 72
     1
 10
-140.916119143126
 20
-301.9314891796332
 11
-140.916119143126
 21
-299.6629449619458
 72
     1
 10
-140.916119143126
 20
-299.6629449619458
 11
-140.1050201056526
 21
-299.6629449619458
 72
     1
 10
-140.1050201056526
 20
-299.6629449619458
 11
-140.1050201056526
 21
-298.8776796558221
 72
     1
 10
-140.1050201056526
 20
-298.8776796558221
 11
-143.4899656242812
 21
-298.8776796558227
 97
       18
330
1D2
330
1D1
330
1D0
330
1CF
330
1D4
330
16E
330
21F
330
200
330
21E
330
201
330
21D
330
21C
330
16F
330
21B
330
21A
330
202
330
203
330
1D3
 75
     1
 76
     2
 52
45.0
 41
0.1
 77
     0
 78
     1
 53
45.0
 43
62.7811309658083
 44
-72.3161373035813
 45
-0.1414213562373095
 46
0.0
 79
     0
 98
        1
 10
0.0
 20
0.0
  0
HATCH
  5
256
330
71
100
AcDbEntity
  8
1
  6
Continuous
 62
     2
100
AcDbHatch
 10
0.0
 20
0.0
 30
0.0
210
0.0
220
0.0
230
1.0
  2
CUSTOM4
 70
     0
 71
     1
 91
        4
 92
        1
 93
        8
 72
     2
 10
-167.5921247209743
 20
-295.9427337950498
 40
0.4242446153838841
 50
90.0
 51
180.0
 73
     1
 72
     1
 10
-168.0163693363571
 20
-295.9427337950498
 11
-168.0163693363571
 21
-301.50724456425
 72
     2
 10
-167.5921247209743
 20
-301.50724456425
 40
0.4242446153827757
 50
180.0
 51
270.0
 73
     1
 72
     1
 10
-167.5921247209743
 20
-301.9314891796332
 11
-162.1188126302574
 21
-301.9314891796332
 72
     2
 10
-162.1188126302574
 20
-301.50724456425
 40
0.424244615383202
 50
270.0
 51
360.0
 73
     1
 72
     1
 10
-161.6945680148735
 20
-301.50724456425
 11
-161.6945680148735
 21
-295.9427337950498
 72
     2
 10
-162.1188126302574
 20
-295.9427337950498
 40
0.4242446153838841
 50
0.0
 51
90.0
 73
     1
 72
     1
 10
-162.1188126302574
 20
-295.5184891796659
 11
-167.5921247209743
 21
-295.5184891796659
 97
        8
330
213
330
19D
330
212
330
19E
330
209
330
19B
330
214
330
19C
 92
       16
 93
       12
 72
     1
 10
-166.9982300442278
 20
-301.2189336240763
 11
-165.5223967832182
 21
-301.2189336240763
 72
     2
 10
-165.5223967832182
 20
-300.9032167009996
 40
0.3157169230767067
 50
270.0
 51
360.0
 73
     1
 72
     1
 10
-165.2066798601416
 20
-300.9032167009996
 11
-165.2066798601416
 21
-299.372445769468
 72
     2
 10
-165.5223967832182
 20
-299.372445769468
 40
0.315716923076593
 50
0.0
 51
64.805589351446
 73
     1
 72
     2
 10
-164.9998123356432
 20
-298.2616160234053
 40
0.9118975235576433
 50
115.1944106485089
 51
244.8055893514805
 73
     0
 72
     2
 10
-165.5223967832182
 20
-297.1507862773431
 40
0.3157169230760658
 50
295.1944106485672
 51
360.0
 73
     1
 72
     1
 10
-165.2066798601416
 20
-297.1507862773431
 11
-165.2066798601416
 21
-296.5467616582825
 72
     2
 10
-165.5223967832182
 20
-296.5467616582825
 40
0.315716923076593
 50
0.0
 51
90.0
 73
     1
 72
     1
 10
-165.5223967832182
 20
-296.2310447352064
 11
-166.9982300442278
 21
-296.2310447352064
 72
     2
 10
-166.9982300442278
 20
-296.5467616582825
 40
0.3157169230760815
 50
90.0
 51
180.0
 73
     1
 72
     1
 10
-167.3139469673034
 20
-296.5467616582825
 11
-167.3139469673034
 21
-300.9032167009996
 72
     2
 10
-166.9982300442278
 20
-300.9032167009996
 40
0.3157169230755983
 50
180.0
 51
270.0
 73
     1
 97
       12
330
1A2
330
206
330
1A1
330
217
330
1A0
330
216
330
207
330
208
330
19F
330
215
330
19A
330
218
 92
       16
 93
        8
 72
     2
 10
-164.9487240557839
 20
-298.2616160234053
 40
0.9118481501443941
 50
295.3740086781804
 51
424.6259913218089
 73
     1
 72
     2
 10
-164.422681357696
 20
-297.1524744234375
 40
0.315716923076792
 50
115.3740086783651
 51
180.0
 73
     0
 72
     1
 10
-164.7383982807728
 20
-297.1524744234375
 11
-164.7383982807728
 21
-296.5469391349307
 72
     2
 10
-164.422681357696
 20
-296.5469391349307
 40
0.3157169230761851
 50
180.0
 51
269.8110329574335
 73
     0
 72
     2
 10
-164.417065222386
 20
-298.2497740824997
 40
2.018561131933266
 50
269.8110329575827
 51
450.1889670424174
 73
     0
 72
     2
 10
-164.422681357696
 20
-299.9526090300687
 40
0.315716923076792
 50
90.18896704256652
 51
180.0
 73
     0
 72
     1
 10
-164.7383982807728
 20
-299.9526090300687
 11
-164.7383982807728
 21
-299.3707576233736
 72
     2
 10
-164.422681357696
 20
-299.3707576233736
 40
0.3157169230765328
 50
180.0
 51
244.6259913216482
 73
     0
 97
        8
330
221
330
1FD
330
1D6
330
220
330
1FE
330
1FF
330
1D5
330
1FC
 92
       16
 93
        1
 72
     2
 10
-164.9725390704567
 20
-298.2616160234053
 40
0.470978932778479
 50
0.0
 51
360.0
 73
     1
 97
        1
330
227
 75
     1
 76
     2
 52
45.0
 41
0.1
 77
     0
 78
     1
 53
45.0
 43
62.7811309658083
 44
-72.3161373035813
 45
-0.1414213562373095
 46
0.0
 79
     0
 98
        1
 10
0.0
 20
0.0
  0
HATCH
  5
257
330
71
100
AcDbEntity
  8
1
  6
Continuous
 62
     2
100
AcDbHatch
 10
0.0
 20
0.0
 30
0.0
210
0.0
220
0.0
230
1.0
  2
CUSTOM5
 70
     0
 71
     1
 91
        4
 92
        1
 93
        8
 72
     2
 10
-167.5921247209743
 20
-295.9427337950498
 40
0.4242446153838841
 50
90.0
 51
180.0
 73
     1
 72
     1
 10
-168.0163693363571
 20
-295.9427337950498
 11
-168.0163693363571
 21
-301.50724456425
 72
     2
 10
-167.5921247209743
 20
-301.50724456425
 40
0.4242446153827757
 50
180.0
 51
270.0
 73
     1
 72
     1
 10
-167.5921247209743
 20
-301.9314891796332
 11
-162.1188126302574
 21
-301.9314891796332
 72
     2
 10
-162.1188126302574
 20
-301.50724456425
 40
0.424244615383202
 50
270.0
 51
360.0
 73
     1
 72
     1
 10
-161.6945680148735
 20
-301.50724456425
 11
-161.6945680148735
 21
-295.9427337950498
 72
     2
 10
-162.1188126302574
 20
-295.9427337950498
 40
0.4242446153838841
 50
0.0
 51
90.0
 73
     1
 72
     1
 10
-162.1188126302574
 20
-295.5184891796659
 11
-167.5921247209743
 21
-295.5184891796659
 97
        8
330
213
330
19D
330
212
330
19E
330
209
330
19B
330
214
330
19C
 92
       16
 93
       12
 72
     1
 10
-166.9982300442278
 20
-301.2189336240763
 11
-165.5223967832182
 21
-301.2189336240763
 72
     2
 10
-165.5223967832182
 20
-300.9032167009996
 40
0.3157169230767067
 50
270.0
 51
360.0
 73
     1
 72
     1
 10
-165.2066798601416
 20
-300.9032167009996
 11
-165.2066798601416
 21
-299.372445769468
 72
     2
 10
-165.5223967832182
 20
-299.372445769468
 40
0.315716923076593
 50
0.0
 51
64.805589351446
 73
     1
 72
     2
 10
-164.9998123356432
 20
-298.2616160234053
 40
0.9118975235576433
 50
115.1944106485089
 51
244.8055893514805
 73
     0
 72
     2
 10
-165.5223967832182
 20
-297.1507862773431
 40
0.3157169230760658
 50
295.1944106485672
 51
360.0
 73
     1
 72
     1
 10
-165.2066798601416
 20
-297.1507862773431
 11
-165.2066798601416
 21
-296.5467616582825
 72
     2
 10
-165.5223967832182
 20
-296.5467616582825
 40
0.315716923076593
 50
0.0
 51
90.0
 73
     1
 72
     1
 10
-165.5223967832182
 20
-296.2310447352064
 11
-166.9982300442278
 21
-296.2310447352064
 72
     2
 10
-166.9982300442278
 20
-296.5467616582825
 40
0.3157169230760815
 50
90.0
 51
180.0
 73
     1
 72
     1
 10
-167.3139469673034
 20
-296.5467616582825
 11
-167.3139469673034
 21
-300.9032167009996
 72
     2
 10
-166.9982300442278
 20
-300.9032167009996
 40
0.3157169230755983
 50
180.0
 51
270.0
 73
     1
 97
       12
330
1A2
330
206
330
1A1
330
217
330
1A0
330
216
330
207
330
208
330
19F
330
215
330
19A
330
218
 92
       16
 93
        8
 72
     2
 10
-164.9487240557839
 20
-298.2616160234053
 40
0.9118481501443941
 50
295.3740086781804
 51
424.6259913218089
 73
     1
 72
     2
 10
-164.422681357696
 20
-297.1524744234375
 40
0.315716923076792
 50
115.3740086783651
 51
180.0
 73
     0
 72
     1
 10
-164.7383982807728
 20
-297.1524744234375
 11
-164.7383982807728
 21
-296.5469391349307
 72
     2
 10
-164.422681357696
 20
-296.5469391349307
 40
0.3157169230761851
 50
180.0
 51
269.8110329574335
 73
     0
 72
     2
 10
-164.417065222386
 20
-298.2497740824997
 40
2.018561131933266
 50
269.8110329575827
 51
450.1889670424174
 73
     0
 72
     2
 10
-164.422681357696
 20
-299.9526090300687
 40
0.315716923076792
 50
90.18896704256652
 51
180.0
 73
     0
 72
     1
 10
-164.7383982807728
 20
-299.9526090300687
 11
-164.7383982807728
 21
-299.3707576233736
 72
     2
 10
-164.422681357696
 20
-299.3707576233736
 40
0.3157169230765328
 50
180.0
 51
244.6259913216482
 73
     0
 97
        8
330
221
330
1FD
330
1D6
330
220
330
1FE
330
1FF
330
1D5
330
1FC
 92
       16
 93
        1
 72
     2
 10
-164.9725390704567
 20
-298.2616160234053
 40
0.470978932778479
 50
0.0
 51
360.0
 73
     1
 97
        1
330
227
 75
     1
 76
     2
 52
45.0
 41
0.1
 77
     0
 78
     1
 53
45.0
 43
62.7811309658083
 44
-72.3161373035813
 45
-0.1414213562373095
 46
0.0
 79
     0
 98
        1
 10
0.0
 20
0.0
  0
HATCH
  5
258
330
71
100
AcDbEntity
  8
1
  6
Continuous
 62
     2
100
AcDbHatch
 10
0.0
 20
0.0
 30
0.0
210
0.0
220
0.0
230
1.0
  2
CUSTOM6
 70
     0
 71
     1
 91
        2
 92
        1
 93
       12
 72
     2
 10
-152.9169607169849
 20
-297.0453939415536
 40
1.526904761905769
 50
90.0
 51
270.0
 73
     1
 72
     1
 10
-152.9169607169849
 20
-298.5722987034589
 11
-149.766640993204
 21
-298.5722987034589
 72
     1
 10
-149.766640993204
 20
-298.5722987034589
 11
-149.766640993204
 21
-297.8742850980165
 72
     1
 10
-149.766640993204
 20
-297.8742850980165
 11
-151.1025688196316
 21
-297.8742850980165
 72
     1
 10
-151.1025688196316
 20
-297.8742850980165
 11
-151.1025688196316
 21
-297.3944007442748
 72
     1
 10
-151.1025688196316
 20
-297.3944007442748
 11
-149.766640993204
 21
-297.3944007442748
 72
     1
 10
-149.766640993204
 20
-297.3944007442748
 11
-149.766640993204
 21
-296.6963871388324
 72
     1
 10
-149.766640993204
 20
-296.6963871388324
 11
-151.1025688196316
 21
-296.6963871388324
 72
     1
 10
-151.1025688196316
 20
-296.6963871388324
 11
-151.1025688196316
 21
-296.2165027850907
 72
     1
 10
-151.1025688196316
 20
-296.2165027850907
 11
-149.766640993204
 21
-296.2165027850907
 72
     1
 10
-149.766640993204
 20
-296.2165027850907
 11
-149.766640993204
 21
-295.5184891796478
 72
     1
 10
-149.766640993204
 20
-295.5184891796478
 11
-152.9169607169849
 21
-295.5184891796478
 97
       12
330
191
330
18B
330
1B2
330
1B1
330
1B0
330
1AF
330
18C
330
18D
330
18E
330
18F
330
204
330
190
 92
       16
 93
        4
 72
     2
 10
-152.5009486704735
 20
-297.0453939415536
 40
0.7717997786796245
 50
141.8795802028484
 51
218.1204197971549
 73
     1
 72
     2
 10
-152.7006887068197
 20
-297.2021251196741
 40
0.5179085730134564
 50
218.1204197971334
 51
321.8795802028588
 73
     1
 72
     2
 10
-152.9004287431659
 20
-297.0453939415536
 40
0.7717997786795479
 50
321.8795802028385
 51
398.1204197971581
 73
     1
 72
     2
 10
-152.7006887068197
 20
-296.8886627634331
 40
0.5179085730133669
 50
38.12041979714121
 51
141.8795802028666
 73
     1
 97
        4
330
211
330
210
330
20B
330
20A
 75
     1
 76
     2
 52
45.0
 41
0.1
 77
     0
 78
     1
 53
45.0
 43
62.7811309658083
 44
-72.3161373035813
 45
-0.1414213562373095
 46
0.0
 79
     0
 98
        1
 10
0.0
 20
0.0
  0
HATCH
  5
259
330
71
100
AcDbEntity
  8
1
  6
Continuous
 62
     2
100
AcDbHatch
 10
0.0
 20
0.0
 30
0.0
210
0.0
220
0.0
230
1.0
  2
CUSTOM7
 70
     0
 71
     1
 91
        2
 92
        1
 93
       12
 72
     2
 10
-152.9169607169849
 20
-297.0453939415536
 40
1.526904761905769
 50
90.0
 51
270.0
 73
     1
 72
     1
 10
-152.9169607169849
 20
-298.5722987034589
 11
-149.766640993204
 21
-298.5722987034589
 72
     1
 10
-149.766640993204
 20
-298.5722987034589
 11
-149.766640993204
 21
-297.8742850980165
 72
     1
 10
-149.766640993204
 20
-297.8742850980165
 11
-151.1025688196316
 21
-297.8742850980165
 72
     1
 10
-151.1025688196316
 20
-297.8742850980165
 11
-151.1025688196316
 21
-297.3944007442748
 72
     1
 10
-151.1025688196316
 20
-297.3944007442748
 11
-149.766640993204
 21
-297.3944007442748
 72
     1
 10
-149.766640993204
 20
-297.3944007442748
 11
-149.766640993204
 21
-296.6963871388324
 72
     1
 10
-149.766640993204
 20
-296.6963871388324
 11
-151.1025688196316
 21
-296.6963871388324
 72
     1
 10
-151.1025688196316
 20
-296.6963871388324
 11
-151.1025688196316
 21
-296.2165027850907
 72
     1
 10
-151.1025688196316
 20
-296.2165027850907
 11
-149.766640993204
 21
-296.2165027850907
 72
     1
 10
-149.766640993204
 20
-296.2165027850907
 11
-149.766640993204
 21
-295.5184891796478
 72
     1
 10
-149.766640993204
 20
-295.5184891796478
 11
-152.9169607169849
 21
-295.5184891796478
 97
       12
330
191
330
18B
330
1B2
330
1B1
330
1B0
330
1AF
330
18C
330
18D
330
18E
330
18F
330
204
330
190
 92
       16
 93
        4
 72
     2
 10
-152.5009486704735
 20
-297.0453939415536
 40
0.7717997786796245
 50
141.8795802028484
 51
218.1204197971549
 73
     1
 72
     2
 10
-152.7006887068197
 20
-297.2021251196741
 40
0.5179085730134564
 50
218.1204197971334
 51
321.8795802028588
 73
     1
 72
     2
 10
-152.9004287431659
 20
-297.0453939415536
 40
0.7717997786795479
 50
321.8795802028385
 51
398.1204197971581
 73
     1
 72
     2
 10
-152.7006887068197
 20
-296.8886627634331
 40
0.5179085730133669
 50
38.12041979714121
 51
141.8795802028666
 73
     1
 97
        4
330
211
330
210
330
20B
330
20A
 75
     1
 76
     2
 52
45.0
 41
0.1
 77
     0
 78
     1
 53
45.0
 43
62.7811309658083
 44
-72.3161373035813
 45
-0.1414213562373095
 46
0.0
 79
     0
 98
        1
 10
0.0
 20
0.0
  0
HATCH
  5
25A
330
71
100
AcDbEntity
  8
1
  6
Continuous
 62
     2
100
AcDbHatch
 10
0.0
 20
0.0
 30
0.0
210
0.0
220
0.0
230
1.0
  2
CUSTOM8
 70
     0
 71
     1
 91
        2
 92
        1
 93
        4
 72
     2
 10
-156.9425760794466
 20
-300.404584417728
 40
1.458034083651616
 50
117.5481481756598
 51
242.451851824337
 73
     1
 72
     2
 10
-156.6616361876132
 20
-299.8660094074246
 40
2.065479772208637
 50
242.4518518243384
 51
297.548148175686
 73
     1
 72
     2
 10
-156.38069629578
 20
-300.404584417728
 40
1.45803408365203
 50
297.5481481757055
 51
422.4518518242976
 73
     1
 72
     2
 10
-156.6616361876132
 20
-300.9431594280308
 40
2.065479772208694
 50
62.45185182430819
 51
117.5481481756674
 73
     1
 97
        4
330
20F
330
20C
330
20E
330
20D
 92
       16
 93
        4
 72
     2
 10
-156.6616361876132
 20
-300.2478532396075
 40
0.5179085730132806
 50
38.12041979716469
 51
141.8795802028567
 73
     1
 72
     2
 10
-156.4618961512672
 20
-300.404584417728
 40
0.771799778679551
 50
141.879580202828
 51
218.120419797162
 73
     1
 72
     2
 10
-156.6616361876132
 20
-300.5613155958479
 40
0.5179085730138424
 50
218.1204197971879
 51
321.8795802027908
 73
     1
 72
     2
 10
-156.8613762239596
 20
-300.404584417728
 40
0.7717997786795351
 50
321.8795802028432
 51
398.1204197971668
 73
     1
 97
        4
330
1F2
330
1F3
330
1F4
330
1F1
 75
     1
 76
     2
 52
45.0
 41
0.1
 77
     0
 78
     1
 53
45.0
 43
62.7811309658083
 44
-72.3161373035813
 45
-0.1414213562373095
 46
0.0
 79
     0
 98
        1
 10
0.0
 20
0.0
  0
HATCH
  5
25B
330
71
100
AcDbEntity
  8
1
  6
Continuous
 62
     2
100
AcDbHatch
 10
0.0
 20
0.0
 30
0.0
210
0.0
220
0.0
230
1.0
  2
CUSTOM9
 70
     0
 71
     1
 91
        2
 92
        1
 93
        4
 72
     2
 10
-156.9425760794466
 20
-300.404584417728
 40
1.458034083651616
 50
117.5481481756598
 51
242.451851824337
 73
     1
 72
     2
 10
-156.6616361876132
 20
-299.8660094074246
 40
2.065479772208637
 50
242.4518518243384
 51
297.548148175686
 73
     1
 72
     2
 10
-156.38069629578
 20
-300.404584417728
 40
1.45803408365203
 50
297.5481481757055
 51
422.4518518242976
 73
     1
 72
     2
 10
-156.6616361876132
 20
-300.9431594280308
 40
2.065479772208694
 50
62.45185182430819
 51
117.5481481756674
 73
     1
 97
        4
330
20F
330
20C
330
20E
330
20D
 92
       16
 93
        4
 72
     2
 10
-156.6616361876132
 20
-300.2478532396075
 40
0.5179085730132806
 50
38.12041979716469
 51
141.8795802028567
 73
     1
 72
     2
 10
-156.4618961512672
 20
-300.404584417728
 40
0.771799778679551
 50
141.879580202828
 51
218.120419797162
 73
     1
 72
     2
 10
-156.6616361876132
 20
-300.5613155958479
 40
0.5179085730138424
 50
218.1204197971879
 51
321.8795802027908
 73
     1
 72
     2
 10
-156.8613762239596
 20
-300.404584417728
 40
0.7717997786795351
 50
321.8795802028432
 51
398.1204197971668
 73
     1
 97
        4
330
1F2
330
1F3
330
1F4
330
1F1
 75
     1
 76
     2
 52
45.0
 41
0.1
 77
     0
 78
     1
 53
45.0
 43
62.7811309658083
 44
-72.3161373035813
 45
-0.1414213562373095
 46
0.0
 79
     0
 98
        1
 10
0.0
 20
0.0
  0
HATCH
  5
25C
330
71
100
AcDbEntity
  8
1
  6
Continuous
 62
     2
100
AcDbHatch
 10
0.0
 20
0.0
 30
0.0
210
0.0
220
0.0
230
1.0
  2
CUSTOM10
 70
     0
 71
     1
 91
        2
 92
        1
 93
        6
 72
     1
 10
-161.2174509340067
 20
-295.5184891796478
 11
-161.2174509340067
 21
-298.5722987034589
 72
     1
 10
-161.2174509340067
 20
-298.5722987034589
 11
-159.9769465237527
 21
-298.5722987034589
 72
     1
 10
-159.9769465237527
 20
-298.5722987034589
 11
-159.9769465237527
 21
-297.6292204623152
 72
     1
 10
-159.9769465237527
 20
-297.6292204623152
 11
-159.2181789359723
 21
-297.6292204623152
 72
     2
 10
-159.2181789359723
 20
-296.5738548209815
 40
1.055365641333651
 50
270.0
 51
450.0
 73
     1
 72
     1
 10
-159.2181789359723
 20
-295.5184891796478
 11
-161.2174509340067
 21
-295.5184891796478
 97
        6
330
219
330
1A3
330
199
330
198
330
1A5
330
1A4
 92
       16
 93
        4
 72
     1
 10
-159.6596514622107
 20
-296.1815950250878
 11
-159.9769465237527
 21
-296.1815950250878
 72
     1
 10
-159.9769465237527
 20
-296.1815950250878
 11
-159.9769465237527
 21
-296.8873226744301
 72
     1
 10
-159.9769465237527
 20
-296.8873226744301
 11
-159.6596514622107
 21
-296.8873226744301
 72
     2
 10
-159.6596514622107
 20
-296.534458849759
 40
0.3528638246710898
 50
270.0
 51
450.0
 73
     1
 97
        4
330
1A6
330
197
330
1A7
330
205
 75
     1
 76
     2
 52
45.0
 41
0.1
 77
     0
 78
     1
 53
45.0
 43
62.7811309658083
 44
-72.3161373035813
 45
-0.1414213562373095
 46
0.0
 79
     0
 98
        1
 10
0.0
 20
0.0
  0
HATCH
  5
25D
330
71
100
AcDbEntity
  8
1
  6
Continuous
 62
     2
100
AcDbHatch
 10
0.0
 20
0.0
 30
0.0
210
0.0
220
0.0
230
1.0
  2
CUSTOM11
 70
     0
 71
     1
 91
        2
 92
        1
 93
        6
 72
     1
 10
-161.2174509340067
 20
-295.5184891796478
 11
-161.2174509340067
 21
-298.5722987034589
 72
     1
 10
-161.2174509340067
 20
-298.5722987034589
 11
-159.9769465237527
 21
-298.5722987034589
 72
     1
 10
-159.9769465237527
 20
-298.5722987034589
 11
-159.9769465237527
 21
-297.6292204623152
 72
     1
 10
-159.9769465237527
 20
-297.6292204623152
 11
-159.2181789359723
 21
-297.6292204623152
 72
     2
 10
-159.2181789359723
 20
-296.5738548209815
 40
1.055365641333651
 50
270.0
 51
450.0
 73
     1
 72
     1
 10
-159.2181789359723
 20
-295.5184891796478
 11
-161.2174509340067
 21
-295.5184891796478
 97
        6
330
219
330
1A3
330
199
330
198
330
1A5
330
1A4
 92
       16
 93
        4
 72
     1
 10
-159.6596514622107
 20
-296.1815950250878
 11
-159.9769465237527
 21
-296.1815950250878
 72
     1
 10
-159.9769465237527
 20
-296.1815950250878
 11
-159.9769465237527
 21
-296.8873226744301
 72
     1
 10
-159.9769465237527
 20
-296.8873226744301
 11
-159.6596514622107
 21
-296.8873226744301
 72
     2
 10
-159.6596514622107
 20
-296.534458849759
 40
0.3528638246710898
 50
270.0
 51
450.0
 73
     1
 97
        4
330
1A6
330
197
330
1A7
330
205
 75
     1
 76
     2
 52
45.0
 41
0.1
 77
     0
 78
     1
 53
45.0
 43
62.7811309658083
 44
-72.3161373035813
 45
-0.1414213562373095
 46
0.0
 79
     0
 98
        1
 10
0.0
 20
0.0
  0
HATCH
  5
25E
330
71
100
AcDbEntity
  8
1
  6
Continuous
 62
     2
100
AcDbHatch
 10
0.0
 20
0.0
 30
0.0
210
0.0
220
0.0
230
1.0
  2
CUSTOM12
 70
     0
 71
     1
 91
        1
 92
        1
 93
       12
 72
     1
 10
-141.6031677395735
 20
-295.5184891796478
 11
-140.2004435218263
 21
-295.5184891796478
 72
     1
 10
-140.2004435218263
 20
-295.5184891796478
 11
-141.5029731525929
 21
-296.991439709684
 72
     1
 10
-141.5029731525929
 20
-296.991439709684
 11
-140.1050201056526
 21
-298.5722987034589
 72
     1
 10
-140.1050201056526
 20
-298.5722987034589
 11
-141.5077443234009
 21
-298.5722987034589
 72
     1
 10
-141.5077443234009
 20
-298.5722987034589
 11
-142.2043352614663
 21
-297.7845669181652
 72
     1
 10
-142.2043352614663
 20
-297.7845669181652
 11
-142.9009261995321
 21
-298.5722987034589
 72
     1
 10
-142.9009261995321
 20
-298.5722987034589
 11
-144.3036504172802
 21
-298.5722987034589
 72
     1
 10
-144.3036504172802
 20
-298.5722987034589
 11
-142.9056973703399
 21
-296.991439709684
 72
     1
 10
-142.9056973703399
 20
-296.991439709684
 11
-144.2082270011074
 21
-295.5184891796478
 72
     1
 10
-144.2082270011074
 20
-295.5184891796478
 11
-142.8055027833582
 21
-295.5184891796478
 72
     1
 10
-142.8055027833582
 20
-295.5184891796478
 11
-142.2043352614663
 21
-296.1983125012033
 72
     1
 10
-142.2043352614663
 20
-296.1983125012033
 11
-141.6031677395735
 21
-295.5184891796478
 97
       12
330
172
330
1CB
330
1CA
330
1C9
330
1C8
330
173
330
174
330
170
330
171
330
1CE
330
1CD
330
1CC
 75
     1
 76
     2
 52
45.0
 41
0.1
 77
     0
 78
     1
 53
45.0
 43
62.7811309658083
 44
-72.3161373035813
 45
-0.1414213562373095
 46
0.0
 79
     0
 98
        1
 10
0.0
 20
0.0
  0
HATCH
  5
25F
330
71
100
AcDbEntity
  8
1
  6
Continuous
 62
     2
100
AcDbHatch
 10
0.0
 20
0.0
 30
0.0
210
0.0
220
0.0
230
1.0
  2
CUSTOM13
 70
     0
 71
     1
 91
        1
 92
        1
 93
       12
 72
     1
 10
-141.6031677395735
 20
-295.5184891796478
 11
-140.2004435218263
 21
-295.5184891796478
 72
     1
 10
-140.2004435218263
 20
-295.5184891796478
 11
-141.5029731525929
 21
-296.991439709684
 72
     1
 10
-141.5029731525929
 20
-296.991439709684
 11
-140.1050201056526
 21
-298.5722987034589
 72
     1
 10
-140.1050201056526
 20
-298.5722987034589
 11
-141.5077443234009
 21
-298.5722987034589
 72
     1
 10
-141.5077443234009
 20
-298.5722987034589
 11
-142.2043352614663
 21
-297.7845669181652
 72
     1
 10
-142.2043352614663
 20
-297.7845669181652
 11
-142.9009261995321
 21
-298.5722987034589
 72
     1
 10
-142.9009261995321
 20
-298.5722987034589
 11
-144.3036504172802
 21
-298.5722987034589
 72
     1
 10
-144.3036504172802
 20
-298.5722987034589
 11
-142.9056973703399
 21
-296.991439709684
 72
     1
 10
-142.9056973703399
 20
-296.991439709684
 11
-144.2082270011074
 21
-295.5184891796478
 72
     1
 10
-144.2082270011074
 20
-295.5184891796478
 11
-142.8055027833582
 21
-295.5184891796478
 72
     1
 10
-142.8055027833582
 20
-295.5184891796478
 11
-142.2043352614663
 21
-296.1983125012033
 72
     1
 10
-142.2043352614663
 20
-296.1983125012033
 11
-141.6031677395735
 21
-295.5184891796478
 97
       12
330
172
330
1CB
330
1CA
330
1C9
330
1C8
330
173
330
174
330
170
330
171
330
1CE
330
1CD
330
1CC
 75
     1
 76
     2
 52
45.0
 41
0.1
 77
     0
 78
     1
 53
45.0
 43
62.7811309658083
 44
-72.3161373035813
 45
-0.1414213562373095
 46
0.0
 79
     0
 98
        1
 10
0.0
 20
0.0
  0
HATCH
  5
260
330
71
100
AcDbEntity
  8
1
  6
Continuous
 62
     2
100
AcDbHatch
 10
0.0
 20
0.0
 30
0.0
210
0.0
220
0.0
230
1.0
  2
CUSTOM14
 70
     0
 71
     1
 91
        1
 92
        1
 93
        4
 72
     1
 10
-144.4229296874971
 20
-295.5184891796478
 11
-144.4229296874971
 21
-298.5722987034589
 72
     1
 10
-144.4229296874971
 20
-298.5722987034589
 11
-145.66343409775
 21
-298.5722987034589
 72
     1
 10
-145.66343409775
 20
-298.5722987034589
 11
-145.66343409775
 21
-295.5184891796478
 72
     1
 10
-145.66343409775
 20
-295.5184891796478
 11
-144.4229296874971
 21
-295.5184891796478
 97
        4
330
1C6
330
175
330
1C5
330
1C7
 75
     1
 76
     2
 52
45.0
 41
0.1
 77
     0
 78
     1
 53
45.0
 43
62.7811309658083
 44
-72.3161373035813
 45
-0.1414213562373095
 46
0.0
 79
     0
 98
        1
 10
0.0
 20
0.0
  0
HATCH
  5
261
330
71
100
AcDbEntity
  8
1
  6
Continuous
 62
     2
100
AcDbHatch
 10
0.0
 20
0.0
 30
0.0
210
0.0
220
0.0
230
1.0
  2
CUSTOM15
 70
     0
 71
     1
 91
        1
 92
        1
 93
        4
 72
     1
 10
-144.4229296874971
 20
-295.5184891796478
 11
-144.4229296874971
 21
-298.5722987034589
 72
     1
 10
-144.4229296874971
 20
-298.5722987034589
 11
-145.66343409775
 21
-298.5722987034589
 72
     1
 10
-145.66343409775
 20
-298.5722987034589
 11
-145.66343409775
 21
-295.5184891796478
 72
     1
 10
-145.66343409775
 20
-295.5184891796478
 11
-144.4229296874971
 21
-295.5184891796478
 97
        4
330
1C6
330
175
330
1C5
330
1C7
 75
     1
 76
     2
 52
45.0
 41
0.1
 77
     0
 78
     1
 53
45.0
 43
62.7811309658083
 44
-72.3161373035813
 45
-0.1414213562373095
 46
0.0
 79
     0
 98
        1
 10
0.0
 20
0.0
  0
HATCH
  5
262
330
71
100
AcDbEntity
  8
1
  6
Continuous
 62
     2
100
AcDbHatch
 10
0.0
 20
0.0
 30
0.0
210
0.0
220
0.0
230
1.0
  2
CUSTOM16
 70
     0
 71
     1
 91
        2
 92
        1
 93
        8
 72
     1
 10
-144.8133736910291
 20
-301.9314891796332
 11
-146.053878101283
 21
-301.9314891796332
 72
     1
 10
-146.053878101283
 20
-301.9314891796332
 11
-146.2653581547588
 21
-301.3905286354154
 72
     1
 10
-146.2653581547588
 20
-301.3905286354154
 11
-147.3977997314327
 21
-301.3905286354154
 72
     1
 10
-147.3977997314327
 20
-301.3905286354154
 11
-147.6092797849085
 21
-301.9314891796332
 72
     1
 10
-147.6092797849085
 20
-301.9314891796332
 11
-148.8497841951614
 21
-301.9314891796332
 72
     1
 10
-148.8497841951614
 20
-301.9314891796332
 11
-147.4518311482222
 21
-298.8776796558221
 72
     1
 10
-147.4518311482222
 20
-298.8776796558221
 11
-146.2113267379694
 21
-298.8776796558221
 72
     1
 10
-146.2113267379694
 20
-298.8776796558221
 11
-144.8133736910291
 21
-301.9314891796332
 97
        8
330
1C1
330
17B
330
1C0
330
1C3
330
178
330
1C2
330
179
330
17A
 92
       16
 93
        3
 72
     1
 10
-147.1317441802876
 20
-300.7099653701088
 11
-146.5314137059051
 21
-300.7099653701088
 72
     1
 10
-146.5314137059051
 20
-300.7099653701088
 11
-146.8315789430953
 21
-299.9421504041221
 72
     1
 10
-146.8315789430953
 20
-299.9421504041221
 11
-147.1317441802876
 21
-300.7099653701088
 97
        3
330
177
330
176
330
1C4
 75
     1
 76
     2
 52
45.0
 41
0.1
 77
     0
 78
     1
 53
45.0
 43
62.7811309658083
 44
-72.3161373035813
 45
-0.1414213562373095
 46
0.0
 79
     0
 98
        1
 10
0.0
 20
0.0
  0
HATCH
  5
263
330
71
100
AcDbEntity
  8
1
  6
Continuous
 62
     2
100
AcDbHatch
 10
0.0
 20
0.0
 30
0.0
210
0.0
220
0.0
230
1.0
  2
CUSTOM17
 70
     0
 71
     1
 91
        2
 92
        1
 93
        8
 72
     1
 10
-144.8133736910291
 20
-301.9314891796332
 11
-146.053878101283
 21
-301.9314891796332
 72
     1
 10
-146.053878101283
 20
-301.9314891796332
 11
-146.2653581547588
 21
-301.3905286354154
 72
     1
 10
-146.2653581547588
 20
-301.3905286354154
 11
-147.3977997314327
 21
-301.3905286354154
 72
     1
 10
-147.3977997314327
 20
-301.3905286354154
 11
-147.6092797849085
 21
-301.9314891796332
 72
     1
 10
-147.6092797849085
 20
-301.9314891796332
 11
-148.8497841951614
 21
-301.9314891796332
 72
     1
 10
-148.8497841951614
 20
-301.9314891796332
 11
-147.4518311482222
 21
-298.8776796558221
 72
     1
 10
-147.4518311482222
 20
-298.8776796558221
 11
-146.2113267379694
 21
-298.8776796558221
 72
     1
 10
-146.2113267379694
 20
-298.8776796558221
 11
-144.8133736910291
 21
-301.9314891796332
 97
        8
330
1C1
330
17B
330
1C0
330
1C3
330
178
330
1C2
330
179
330
17A
 92
       16
 93
        3
 72
     1
 10
-147.1317441802876
 20
-300.7099653701088
 11
-146.5314137059051
 21
-300.7099653701088
 72
     1
 10
-146.5314137059051
 20
-300.7099653701088
 11
-146.8315789430953
 21
-299.9421504041221
 72
     1
 10
-146.8315789430953
 20
-299.9421504041221
 11
-147.1317441802876
 21
-300.7099653701088
 97
        3
330
177
330
176
330
1C4
 75
     1
 76
     2
 52
45.0
 41
0.1
 77
     0
 78
     1
 53
45.0
 43
62.7811309658083
 44
-72.3161373035813
 45
-0.1414213562373095
 46
0.0
 79
     0
 98
        1
 10
0.0
 20
0.0
  0
HATCH
  5
264
330
71
100
AcDbEntity
  8
1
  6
Continuous
 62
     2
100
AcDbHatch
 10
0.0
 20
0.0
 30
0.0
210
0.0
220
0.0
230
1.0
  2
CUSTOM18
 70
     0
 71
     1
 91
        1
 92
        1
 93
        8
 72
     1
 10
-151.0072963343437
 20
-298.8776796558221
 11
-151.0072963343437
 21
-299.6629449619458
 72
     1
 10
-151.0072963343437
 20
-299.6629449619458
 11
-150.196197296869
 21
-299.6629449619458
 72
     1
 10
-150.196197296869
 20
-299.6629449619458
 11
-150.196197296869
 21
-301.9314891796332
 72
     1
 10
-150.196197296869
 20
-301.9314891796332
 11
-149.0034045947026
 21
-301.9314891796332
 72
     1
 10
-149.0034045947026
 20
-301.9314891796332
 11
-149.0034045947026
 21
-299.6629449619458
 72
     1
 10
-149.0034045947026
 20
-299.6629449619458
 11
-148.19230555723
 21
-299.6629449619458
 72
     1
 10
-148.19230555723
 20
-299.6629449619458
 11
-148.19230555723
 21
-298.8776796558221
 72
     1
 10
-148.19230555723
 20
-298.8776796558221
 11
-151.0072963343437
 21
-298.8776796558221
 97
        8
330
1BD
330
1BC
330
1BB
330
17C
330
17D
330
1BF
330
17E
330
1BE
 75
     1
 76
     2
 52
45.0
 41
0.1
 77
     0
 78
     1
 53
45.0
 43
62.7811309658083
 44
-72.3161373035813
 45
-0.1414213562373095
 46
0.0
 79
     0
 98
        1
 10
0.0
 20
0.0
  0
HATCH
  5
265
330
71
100
AcDbEntity
  8
1
  6
Continuous
 62
     2
100
AcDbHatch
 10
0.0
 20
0.0
 30
0.0
210
0.0
220
0.0
230
1.0
  2
CUSTOM19
 70
     0
 71
     1
 91
        1
 92
        1
 93
        8
 72
     1
 10
-151.0072963343437
 20
-298.8776796558221
 11
-151.0072963343437
 21
-299.6629449619458
 72
     1
 10
-151.0072963343437
 20
-299.6629449619458
 11
-150.196197296869
 21
-299.6629449619458
 72
     1
 10
-150.196197296869
 20
-299.6629449619458
 11
-150.196197296869
 21
-301.9314891796332
 72
     1
 10
-150.196197296869
 20
-301.9314891796332
 11
-149.0034045947026
 21
-301.9314891796332
 72
     1
 10
-149.0034045947026
 20
-301.9314891796332
 11
-149.0034045947026
 21
-299.6629449619458
 72
     1
 10
-149.0034045947026
 20
-299.6629449619458
 11
-148.19230555723
 21
-299.6629449619458
 72
     1
 10
-148.19230555723
 20
-299.6629449619458
 11
-148.19230555723
 21
-298.8776796558221
 72
     1
 10
-148.19230555723
 20
-298.8776796558221
 11
-151.0072963343437
 21
-298.8776796558221
 97
        8
330
1BD
330
1BC
330
1BB
330
17C
330
17D
330
1BF
330
17E
330
1BE
 75
     1
 76
     2
 52
45.0
 41
0.1
 77
     0
 78
     1
 53
45.0
 43
62.7811309658083
 44
-72.3161373035813
 45
-0.1414213562373095
 46
0.0
 79
     0
 98
        1
 10
0.0
 20
0.0
  0
HATCH
  5
266
330
71
100
AcDbEntity
  8
1
  6
Continuous
 62
     2
100
AcDbHatch
 10
0.0
 20
0.0
 30
0.0
210
0.0
220
0.0
230
1.0
  2
CUSTOM20
 70
     0
 71
     1
 91
        1
 92
        1
 93
       10
 72
     1
 10
-148.3352897506046
 20
-295.5184891796478
 11
-149.528082452771
 21
-295.5184891796478
 72
     1
 10
-149.528082452771
 20
-295.5184891796478
 11
-149.528082452771
 21
-298.5722987034589
 72
     1
 10
-149.528082452771
 20
-298.5722987034589
 11
-148.3352897506046
 21
-298.5722987034589
 72
     1
 10
-148.3352897506046
 20
-298.5722987034589
 11
-148.3352897506046
 21
-297.2635231932542
 72
     1
 10
-148.3352897506046
 20
-297.2635231932542
 11
-147.0947853403505
 21
-298.5722987034589
 72
     1
 10
-147.0947853403505
 20
-298.5722987034589
 11
-145.9019926381839
 21
-298.5722987034589
 72
     1
 10
-145.9019926381839
 20
-298.5722987034589
 11
-145.9019926381839
 21
-295.5184891796478
 72
     1
 10
-145.9019926381839
 20
-295.5184891796478
 11
-147.0947853403505
 21
-295.5184891796478
 72
     1
 10
-147.0947853403505
 20
-295.5184891796478
 11
-147.0947853403505
 21
-296.8272646898529
 72
     1
 10
-147.0947853403505
 20
-296.8272646898529
 11
-148.3352897506046
 21
-295.5184891796478
 97
       10
330
1B7
330
181
330
182
330
183
330
184
330
1BA
330
17F
330
1B9
330
1B8
330
180
 75
     1
 76
     2
 52
45.0
 41
0.1
 77
     0
 78
     1
 53
45.0
 43
62.7811309658083
 44
-72.3161373035813
 45
-0.1414213562373095
 46
0.0
 79
     0
 98
        1
 10
0.0
 20
0.0
  0
HATCH
  5
267
330
71
100
AcDbEntity
  8
1
  6
Continuous
 62
     2
100
AcDbHatch
 10
0.0
 20
0.0
 30
0.0
210
0.0
220
0.0
230
1.0
  2
CUSTOM21
 70
     0
 71
     1
 91
        1
 92
        1
 93
       10
 72
     1
 10
-148.3352897506046
 20
-295.5184891796478
 11
-149.528082452771
 21
-295.5184891796478
 72
     1
 10
-149.528082452771
 20
-295.5184891796478
 11
-149.528082452771
 21
-298.5722987034589
 72
     1
 10
-149.528082452771
 20
-298.5722987034589
 11
-148.3352897506046
 21
-298.5722987034589
 72
     1
 10
-148.3352897506046
 20
-298.5722987034589
 11
-148.3352897506046
 21
-297.2635231932542
 72
     1
 10
-148.3352897506046
 20
-297.2635231932542
 11
-147.0947853403505
 21
-298.5722987034589
 72
     1
 10
-147.0947853403505
 20
-298.5722987034589
 11
-145.9019926381839
 21
-298.5722987034589
 72
     1
 10
-145.9019926381839
 20
-298.5722987034589
 11
-145.9019926381839
 21
-295.5184891796478
 72
     1
 10
-145.9019926381839
 20
-295.5184891796478
 11
-147.0947853403505
 21
-295.5184891796478
 72
     1
 10
-147.0947853403505
 20
-295.5184891796478
 11
-147.0947853403505
 21
-296.8272646898529
 72
     1
 10
-147.0947853403505
 20
-296.8272646898529
 11
-148.3352897506046
 21
-295.5184891796478
 97
       10
330
1B7
330
181
330
182
330
183
330
184
330
1BA
330
17F
330
1B9
330
1B8
330
180
 75
     1
 76
     2
 52
45.0
 41
0.1
 77
     0
 78
     1
 53
45.0
 43
62.7811309658083
 44
-72.3161373035813
 45
-0.1414213562373095
 46
0.0
 79
     0
 98
        1
 10
0.0
 20
0.0
  0
HATCH
  5
268
330
71
100
AcDbEntity
  8
1
  6
Continuous
 62
     2
100
AcDbHatch
 10
0.0
 20
0.0
 30
0.0
210
0.0
220
0.0
230
1.0
  2
CUSTOM22
 70
     0
 71
     1
 91
        1
 92
        1
 93
       10
 72
     1
 10
-153.5837285710232
 20
-298.8776796558221
 11
-154.7765212731907
 21
-298.8776796558221
 72
     1
 10
-154.7765212731907
 20
-298.8776796558221
 11
-154.7765212731907
 21
-301.9314891796332
 72
     1
 10
-154.7765212731907
 20
-301.9314891796332
 11
-153.5837285710232
 21
-301.9314891796332
 72
     1
 10
-153.5837285710232
 20
-301.9314891796332
 11
-153.5837285710232
 21
-300.6227136694287
 72
     1
 10
-153.5837285710232
 20
-300.6227136694287
 11
-152.3432241607702
 21
-301.9314891796332
 72
     1
 10
-152.3432241607702
 20
-301.9314891796332
 11
-151.1504314586038
 21
-301.9314891796332
 72
     1
 10
-151.1504314586038
 20
-301.9314891796332
 11
-151.1504314586038
 21
-298.8776796558221
 72
     1
 10
-151.1504314586038
 20
-298.8776796558221
 11
-152.3432241607702
 21
-298.8776796558221
 72
     1
 10
-152.3432241607702
 20
-298.8776796558221
 11
-152.3432241607702
 21
-300.1864551660273
 72
     1
 10
-152.3432241607702
 20
-300.1864551660273
 11
-153.5837285710232
 21
-298.8776796558221
 97
       10
330
186
330
187
330
188
330
1B4
330
189
330
18A
330
1B3
330
1B6
330
1B5
330
185
 75
     1
 76
     2
 52
45.0
 41
0.1
 77
     0
 78
     1
 53
45.0
 43
62.7811309658083
 44
-72.3161373035813
 45
-0.1414213562373095
 46
0.0
 79
     0
 98
        1
 10
0.0
 20
0.0
  0
HATCH
  5
269
330
71
100
AcDbEntity
  8
1
  6
Continuous
 62
     2
100
AcDbHatch
 10
0.0
 20
0.0
 30
0.0
210
0.0
220
0.0
230
1.0
  2
CUSTOM23
 70
     0
 71
     1
 91
        1
 92
        1
 93
       10
 72
     1
 10
-153.5837285710232
 20
-298.8776796558221
 11
-154.7765212731907
 21
-298.8776796558221
 72
     1
 10
-154.7765212731907
 20
-298.8776796558221
 11
-154.7765212731907
 21
-301.9314891796332
 72
     1
 10
-154.7765212731907
 20
-301.9314891796332
 11
-153.5837285710232
 21
-301.9314891796332
 72
     1
 10
-153.5837285710232
 20
-301.9314891796332
 11
-153.5837285710232
 21
-300.6227136694287
 72
     1
 10
-153.5837285710232
 20
-300.6227136694287
 11
-152.3432241607702
 21
-301.9314891796332
 72
     1
 10
-152.3432241607702
 20
-301.9314891796332
 11
-151.1504314586038
 21
-301.9314891796332
 72
     1
 10
-151.1504314586038
 20
-301.9314891796332
 11
-151.1504314586038
 21
-298.8776796558221
 72
     1
 10
-151.1504314586038
 20
-298.8776796558221
 11
-152.3432241607702
 21
-298.8776796558221
 72
     1
 10
-152.3432241607702
 20
-298.8776796558221
 11
-152.3432241607702
 21
-300.1864551660273
 72
     1
 10
-152.3432241607702
 20
-300.1864551660273
 11
-153.5837285710232
 21
-298.8776796558221
 97
       10
330
186
330
187
330
188
330
1B4
330
189
330
18A
330
1B3
330
1B6
330
1B5
330
185
 75
     1
 76
     2
 52
45.0
 41
0.1
 77
     0
 78
     1
 53
45.0
 43
62.7811309658083
 44
-72.3161373035813
 45
-0.1414213562373095
 46
0.0
 79
     0
 98
        1
 10
0.0
 20
0.0
  0
HATCH
  5
26A
330
71
100
AcDbEntity
  8
1
  6
Continuous
 62
     2
100
AcDbHatch
 10
0.0
 20
0.0
 30
0.0
210
0.0
220
0.0
230
1.0
  2
CUSTOM24
 70
     0
 71
     1
 91
        1
 92
        1
 93
       12
 72
     1
 10
-154.5855235099585
 20
-295.5184891796478
 11
-154.5855235099585
 21
-298.5722987034589
 72
     1
 10
-154.5855235099585
 20
-298.5722987034589
 11
-155.778316212125
 21
-298.5722987034589
 72
     1
 10
-155.778316212125
 20
-298.5722987034589
 11
-155.778316212125
 21
-297.4380265946152
 72
     1
 10
-155.778316212125
 20
-297.4380265946152
 11
-156.8279737900324
 21
-297.4380265946152
 72
     1
 10
-156.8279737900324
 20
-297.4380265946152
 11
-156.8279737900324
 21
-298.5722987034589
 72
     1
 10
-156.8279737900324
 20
-298.5722987034589
 11
-158.020766492199
 21
-298.5722987034589
 72
     1
 10
-158.020766492199
 20
-298.5722987034589
 11
-158.020766492199
 21
-295.5184891796478
 72
     1
 10
-158.020766492199
 20
-295.5184891796478
 11
-156.8279737900324
 21
-295.5184891796478
 72
     1
 10
-156.8279737900324
 20
-295.5184891796478
 11
-156.8279737900324
 21
-296.5873225129824
 72
     1
 10
-156.8279737900324
 20
-296.5873225129824
 11
-155.778316212125
 21
-296.5873225129824
 72
     1
 10
-155.778316212125
 20
-296.5873225129824
 11
-155.778316212125
 21
-295.5184891796478
 72
     1
 10
-155.778316212125
 20
-295.5184891796478
 11
-154.5855235099585
 21
-295.5184891796478
 97
       12
330
1AE
330
1AD
330
1AC
330
194
330
195
330
1AB
330
196
330
1AA
330
1A9
330
1A8
330
192
330
193
 75
     1
 76
     2
 52
45.0
 41
0.1
 77
     0
 78
     1
 53
45.0
 43
62.7811309658083
 44
-72.3161373035813
 45
-0.1414213562373095
 46
0.0
 79
     0
 98
        1
 10
0.0
 20
0.0
  0
HATCH
  5
26B
330
71
100
AcDbEntity
  8
1
  6
Continuous
 62
     2
100
AcDbHatch
 10
0.0
 20
0.0
 30
0.0
210
0.0
220
0.0
230
1.0
  2
CUSTOM25
 70
     0
 71
     1
 91
        1
 92
        1
 93
       12
 72
     1
 10
-154.5855235099585
 20
-295.5184891796478
 11
-154.5855235099585
 21
-298.5722987034589
 72
     1
 10
-154.5855235099585
 20
-298.5722987034589
 11
-155.778316212125
 21
-298.5722987034589
 72
     1
 10
-155.778316212125
 20
-298.5722987034589
 11
-155.778316212125
 21
-297.4380265946152
 72
     1
 10
-155.778316212125
 20
-297.4380265946152
 11
-156.8279737900324
 21
-297.4380265946152
 72
     1
 10
-156.8279737900324
 20
-297.4380265946152
 11
-156.8279737900324
 21
-298.5722987034589
 72
     1
 10
-156.8279737900324
 20
-298.5722987034589
 11
-158.020766492199
 21
-298.5722987034589
 72
     1
 10
-158.020766492199
 20
-298.5722987034589
 11
-158.020766492199
 21
-295.5184891796478
 72
     1
 10
-158.020766492199
 20
-295.5184891796478
 11
-156.8279737900324
 21
-295.5184891796478
 72
     1
 10
-156.8279737900324
 20
-295.5184891796478
 11
-156.8279737900324
 21
-296.5873225129824
 72
     1
 10
-156.8279737900324
 20
-296.5873225129824
 11
-155.778316212125
 21
-296.5873225129824
 72
     1
 10
-155.778316212125
 20
-296.5873225129824
 11
-155.778316212125
 21
-295.5184891796478
 72
     1
 10
-155.778316212125
 20
-295.5184891796478
 11
-154.5855235099585
 21
-295.5184891796478
 97
       12
330
1AE
330
1AD
330
1AC
330
194
330
195
330
1AB
330
196
330
1AA
330
1A9
330
1A8
330
192
330
193
 75
     1
 76
     2
 52
45.0
 41
0.1
 77
     0
 78
     1
 53
45.0
 43
62.7811309658083
 44
-72.3161373035813
 45
-0.1414213562373095
 46
0.0
 79
     0
 98
        1
 10
0.0
 20
0.0
  0
ENDBLK
  5
73
330
71
100
AcDbEntity
  8
0
100
AcDbBlockEnd
  0
BLOCK
  5
75
330
74
100
AcDbEntity
  8
0
100
AcDbBlockBegin
  2
_punkt
 70
     0
 10
-42.70821969616975
 20
-309.2249891796495
 30
0.0
  3
_punkt
  1

  0
LINE
  5
26C
330
74
100
AcDbEntity
  8
1
  6
Continuous
 62
     2
100
AcDbLine
 10
-42.70821969616969
 20
-309.2249891796495
 30
0.0
 11
-42.70821969616969
 21
-314.224989179649
 31
0.0
  0
LINE
  5
26D
330
74
100
AcDbEntity
  8
1
  6
Continuous
 62
     2
100
AcDbLine
 10
-42.70821969616969
 20
-309.2249891796495
 30
0.0
 11
-37.70821969617208
 21
-309.2249891796495
 31
0.0
  0
ENDBLK
  5
76
330
74
100
AcDbEntity
  8
0
100
AcDbBlockEnd
  0
BLOCK
  5
7A
330
77
100
AcDbEntity
  8
0
100
AcDbBlockBegin
  2
A3I_TD_PRF
 70
     0
 10
-42.70821969616969
 20
-314.224989179649
 30
0.0
  3
A3I_TD_PRF
  1

  0
INSERT
  5
78
330
77
100
AcDbEntity
  8
1
100
AcDbBlockReference
  2
_rahmen
 10
-42.70821969616969
 20
-314.224989179649
 30
0.0
  0
INSERT
  5
79
330
77
100
AcDbEntity
  8
1
100
AcDbBlockReference
  2
_punkt
 10
-42.70821969616975
 20
-309.2249891796495
 30
0.0
  0
LINE
  5
26E
330
77
100
AcDbEntity
  8
1
  6
Continuous
 62
     2
100
AcDbLine
 10
-437.7082196961699
 20
-165.724989179649
 30
0.0
 11
-42.70821969616969
 21
-165.724989179649
 31
0.0
  0
LINE
  5
26F
330
77
100
AcDbEntity
  8
1
  6
Continuous
 62
     2
100
AcDbLine
 10
-247.7082196961697
 20
-22.22498917964902
 30
0.0
 11
-247.7082196961697
 21
-309.224989179649
 31
0.0
  0
MTEXT
  5
270
330
77
100
AcDbEntity
  8
1
 62
     3
100
AcDbMText
 10
-87.0646816756567
 20
-281.125614365558
 30
0.0
 40
3.5
 41
0.0
 71
     7
 72
     1
  1
c = thickness\Pplastic: 2 - 6mm\Pmetall:  2 - 5mm
  7
CONVERTER_11
 73
     1
 44
1.32052821128451
  0
ENDBLK
  5
7B
330
77
100
AcDbEntity
  8
0
100
AcDbBlockEnd
  0
BLOCK
  5
84
330
7C
100
AcDbEntity
  8
0
100
AcDbBlockBegin
  2
1
 70
     0
 10
0.0
 20
0.0
 30
0.0
  3
1
  1

  0
INSERT
  5
7D
330
7C
100
AcDbEntity
  8
0
100
AcDbBlockReference
  2
Vordans4
 10
-367.0
 20
-242.0
 30
0.0
  0
INSERT
  5
7E
330
7C
100
AcDbEntity
  8
0
100
AcDbBlockReference
  2
SA_Links3
 10
-302.8154519999993
 20
-242.0000000000002
 30
0.0
  0
INSERT
  5
7F
330
7C
100
AcDbEntity
  8
0
100
AcDbBlockReference
  2
Vordans3
 10
-164.0
 20
-91.0
 30
0.0
  0
INSERT
  5
80
330
7C
100
AcDbEntity
  8
0
100
AcDbBlockReference
  2
SA_Links2
 10
-90.81545199999957
 20
-91.0000000000004
 30
0.0
  0
INSERT
  5
81
330
7C
100
AcDbEntity
  8
0
100
AcDbBlockReference
  2
Vordans2
 10
-367.0
 20
-91.0
 30
0.0
  0
INSERT
  5
82
330
7C
100
AcDbEntity
  8
0
100
AcDbBlockReference
  2
SA_Links1
 10
-302.8154519999996
 20
-91.0000000000004
 30
0.0
  0
INSERT
  5
83
330
7C
100
AcDbEntity
  8
0
100
AcDbBlockReference
  2
A3I_TD_PRF
 10
-42.70821969616969
 20
-314.224989179649
 30
0.0
  0
ENDBLK
  5
85
330
7C
100
AcDbEntity
  8
0
100
AcDbBlockEnd
  0
BLOCK
  5
9B
330
92
100
AcDbEntity
  8
0
100
AcDbBlockBegin
  2
*D17
 70
     1
 10
0.0
 20
0.0
 30
0.0
  3
*D17
  1

  0
LINE
  5
93
330
92
100
AcDbEntity
  8
1
  6
Continuous
 62
     2
100
AcDbLine
 10
-330.400073674914
 20
-250.2374911308283
 30
0.0
 11
-330.400073674914
 21
-243.2374911308283
 31
0.0
  0
LINE
  5
94
330
92
100
AcDbEntity
  8
1
  6
Continuous
 62
     2
100
AcDbLine
 10
-330.400073674914
 20
-243.2374911308283
 30
0.0
 11
-330.400073674914
 21
-237.5374911308283
 31
0.0
  0
LINE
  5
95
330
92
100
AcDbEntity
  8
1
  6
Continuous
 62
     2
100
AcDbLine
 10
-330.400073674914
 20
-237.5374911308283
 30
0.0
 11
-330.400073674914
 21
-217.711752097885
 31
0.0
  0
LINE
  5
96
330
92
100
AcDbEntity
  8
1
  6
Continuous
 62
     2
100
AcDbLine
 10
-356.4127241670957
 20
-243.2374911308283
 30
0.0
 11
-328.900073674914
 21
-243.2374911308283
 31
0.0
  0
LINE
  5
97
330
92
100
AcDbEntity
  8
1
  6
Continuous
 62
     2
100
AcDbLine
 10
-362.4077241670958
 20
-237.5374911308283
 30
0.0
 11
-328.900073674914
 21
-237.5374911308283
 31
0.0
  0
SOLID
  5
98
330
92
100
AcDbEntity
  8
1
 62
     2
100
AcDbTrace
 10
-329.9392899333581
 20
-246.7374911308283
 30
0.0
 11
-330.8608574164699
 21
-246.7374911308283
 31
0.0
 12
-330.400073674914
 22
-243.2374911308283
 32
0.0
 13
-330.400073674914
 23
-243.2374911308283
 33
0.0
  0
SOLID
  5
99
330
92
100
AcDbEntity
  8
1
 62
     2
100
AcDbTrace
 10
-330.8608574164699
 20
-234.0374911308283
 30
0.0
 11
-329.9392899333581
 21
-234.0374911308283
 31
0.0
 12
-330.400073674914
 22
-237.5374911308283
 32
0.0
 13
-330.400073674914
 23
-237.5374911308283
 33
0.0
  0
MTEXT
  5
9A
330
92
100
AcDbEntity
  8
1
 62
     3
100
AcDbMText
 10
-332.250073674914
 20
-233.181752097885
 30
0.0
 40
3.5
 41
0.0
 71
     7
 72
     1
  1
\C3;5,7\C3;\H2.1;{\Fgdt;`}0,05
  7
CONVERTER_11
 11
0.0
 21
1.0
 31
0.0
 73
     1
 44
0.60024009603842
  0
ENDBLK
  5
9C
330
92
100
AcDbEntity
  8
0
100
AcDbBlockEnd
  0
BLOCK
  5
A8
330
9F
100
AcDbEntity
  8
0
100
AcDbBlockBegin
  2
*D18
 70
     1
 10
0.0
 20
0.0
 30
0.0
  3
*D18
  1

  0
LINE
  5
A0
330
9F
100
AcDbEntity
  8
1
  6
Continuous
 62
     2
100
AcDbLine
 10
-370.0677241670957
 20
-297.6873129912481
 30
0.0
 11
-363.0677241670957
 21
-297.6873129912481
 31
0.0
  0
LINE
  5
A1
330
9F
100
AcDbEntity
  8
1
  6
Continuous
 62
     2
100
AcDbLine
 10
-363.0677241670957
 20
-297.6873129912481
 30
0.0
 11
-357.8677241670957
 21
-297.6873129912481
 31
0.0
  0
LINE
  5
A2
330
9F
100
AcDbEntity
  8
1
  6
Continuous
 62
     2
100
AcDbLine
 10
-357.8677241670957
 20
-297.6873129912481
 30
0.0
 11
-335.312709764528
 21
-297.6873129912481
 31
0.0
  0
LINE
  5
A3
330
9F
100
AcDbEntity
  8
1
  6
Continuous
 62
     2
100
AcDbLine
 10
-363.0677241670957
 20
-249.8924911308283
 30
0.0
 11
-363.0677241670957
 21
-299.1873129912481
 31
0.0
  0
LINE
  5
A4
330
9F
100
AcDbEntity
  8
1
  6
Continuous
 62
     2
100
AcDbLine
 10
-357.8677241670957
 20
-246.3298203500416
 30
0.0
 11
-357.8677241670957
 21
-299.1873129912481
 31
0.0
  0
SOLID
  5
A5
330
9F
100
AcDbEntity
  8
1
 62
     2
100
AcDbTrace
 10
-366.5677241670957
 20
-298.148096732804
 30
0.0
 11
-366.5677241670957
 21
-297.2265292496922
 31
0.0
 12
-363.0677241670957
 22
-297.6873129912481
 32
0.0
 13
-363.0677241670957
 23
-297.6873129912481
 33
0.0
  0
SOLID
  5
A6
330
9F
100
AcDbEntity
  8
1
 62
     2
100
AcDbTrace
 10
-354.3677241670957
 20
-297.2265292496922
 30
0.0
 11
-354.3677241670957
 21
-298.148096732804
 31
0.0
 12
-357.8677241670957
 22
-297.6873129912481
 32
0.0
 13
-357.8677241670957
 23
-297.6873129912481
 33
0.0
  0
MTEXT
  5
A7
330
9F
100
AcDbEntity
  8
1
 62
     3
100
AcDbMText
 10
-350.782709764528
 20
-295.8373129912481
 30
0.0
 40
3.5
 41
0.0
 71
     7
 72
     1
  1
\C3;5,2\C3;\H2.1;{\Fgdt;`}0,05
  7
CONVERTER_11
 11
0.9999999999970619
 21
2.424068405545306E-6
 31
0.0
 73
     1
 44
0.60024009603842
  0
ENDBLK
  5
A9
330
9F
100
AcDbEntity
  8
0
100
AcDbBlockEnd
  0
BLOCK
  5
B0
330
AC
100
AcDbEntity
  8
0
100
AcDbBlockBegin
  2
*D19
 70
     1
 10
0.0
 20
0.0
 30
0.0
  3
*D19
  1

  0
LINE
  5
AD
330
AC
100
AcDbEntity
  8
1
  6
Continuous
 62
     2
100
AcDbLine
 10
-363.0677241670958
 20
-243.2374911308283
 30
0.0
 11
-421.7658524673313
 21
-215.6346587777653
 31
0.0
  0
SOLID
  5
AE
330
AC
100
AcDbEntity
  8
1
 62
     2
100
AcDbTrace
 10
-371.9059515816781
 20
-239.5904981469293
 30
0.0
 11
-371.5137813908258
 21
-238.7565382154363
 31
0.0
 12
-368.5425891965089
 22
-240.6629323512099
 32
0.0
 13
-368.5425891965089
 23
-240.6629323512099
 33
0.0
  0
MTEXT
  5
AF
330
AC
100
AcDbEntity
  8
1
 62
     3
100
AcDbMText
 10
-419.838370867438
 20
-214.4967155972538
 30
0.0
 40
3.5
 41
0.0
 71
     7
 72
     1
  1
\C3; {\Fgdt;n}\C3;\C3;12,1\C3;\H2.1;{\Fgdt;`}0,05
  7
CONVERTER_11
 11
0.9049363684980261
 21
-0.4255469057220422
 31
0.0
 73
     1
 44
0.60024009603842
  0
ENDBLK
  5
B1
330
AC
100
AcDbEntity
  8
0
100
AcDbBlockEnd
  0
BLOCK
  5
BC
330
B3
100
AcDbEntity
  8
0
100
AcDbBlockBegin
  2
*D20
 70
     1
 10
0.0
 20
0.0
 30
0.0
  3
*D20
  1

  0
LINE
  5
B4
330
B3
100
AcDbEntity
  8
1
  6
Continuous
 62
     2
100
AcDbLine
 10
-355.4677241670958
 20
-193.032158066266
 30
0.0
 11
-362.4677241670958
 21
-193.032158066266
 31
0.0
  0
LINE
  5
B5
330
B3
100
AcDbEntity
  8
1
  6
Continuous
 62
     2
100
AcDbLine
 10
-362.4677241670958
 20
-193.032158066266
 30
0.0
 11
-363.6677241670957
 21
-193.032158066266
 31
0.0
  0
LINE
  5
B6
330
B3
100
AcDbEntity
  8
1
  6
Continuous
 62
     2
100
AcDbLine
 10
-363.6677241670957
 20
-193.032158066266
 30
0.0
 11
-370.6677241670957
 21
-193.032158066266
 31
0.0
  0
LINE
  5
B7
330
B3
100
AcDbEntity
  8
1
  6
Continuous
 62
     2
100
AcDbLine
 10
-362.4677241670958
 20
-237.5374911308283
 30
0.0
 11
-362.4677241670958
 21
-191.532158066266
 31
0.0
  0
LINE
  5
B8
330
B3
100
AcDbEntity
  8
1
  6
Continuous
 62
     2
100
AcDbLine
 10
-363.6677241670957
 20
-237.5374911308283
 30
0.0
 11
-363.6677241670957
 21
-191.532158066266
 31
0.0
  0
SOLID
  5
B9
330
B3
100
AcDbEntity
  8
1
 62
     2
100
AcDbTrace
 10
-358.9677241670958
 20
-192.5713743247101
 30
0.0
 11
-358.9677241670958
 21
-193.4929418078219
 31
0.0
 12
-362.4677241670958
 22
-193.032158066266
 32
0.0
 13
-362.4677241670958
 23
-193.032158066266
 33
0.0
  0
SOLID
  5
BA
330
B3
100
AcDbEntity
  8
1
 62
     2
100
AcDbTrace
 10
-367.1677241670957
 20
-193.4929418078219
 30
0.0
 11
-367.1677241670957
 21
-192.5713743247101
 31
0.0
 12
-363.6677241670957
 22
-193.032158066266
 32
0.0
 13
-363.6677241670957
 23
-193.032158066266
 33
0.0
  0
MTEXT
  5
BB
330
B3
100
AcDbEntity
  8
1
 62
     3
100
AcDbMText
 10
-361.4488395823081
 20
-191.1821719804186
 30
0.0
 40
3.5
 41
0.0
 71
     7
 72
     1
  1
\C3; {\Fgdt;n}\C3;\C3;1,2\C3;\H2.1;{\Fgdt;`}0,1
  7
CONVERTER_11
 11
0.9999999999970619
 21
2.424068405545306E-6
 31
0.0
 73
     1
 44
0.60024009603842
  0
ENDBLK
  5
BD
330
B3
100
AcDbEntity
  8
0
100
AcDbBlockEnd
  0
BLOCK
  5
D1
330
C8
100
AcDbEntity
  8
0
100
AcDbBlockBegin
  2
*D21
 70
     1
 10
0.0
 20
0.0
 30
0.0
  3
*D21
  1

  0
LINE
  5
C9
330
C8
100
AcDbEntity
  8
1
  6
Continuous
 62
     2
100
AcDbLine
 10
-316.7249675906987
 20
-297.6873129912481
 30
0.0
 11
-306.8154519999743
 21
-297.6873129912481
 31
0.0
  0
LINE
  5
CA
330
C8
100
AcDbEntity
  8
1
  6
Continuous
 62
     2
100
AcDbLine
 10
-306.8154519999743
 20
-297.6873129912481
 30
0.0
 11
-300.8154519999743
 21
-297.6873129912481
 31
0.0
  0
LINE
  5
CB
330
C8
100
AcDbEntity
  8
1
  6
Continuous
 62
     2
100
AcDbLine
 10
-300.8154519999743
 20
-297.6873129912481
 30
0.0
 11
-293.8154519999743
 21
-297.6873129912481
 31
0.0
  0
LINE
  5
CC
330
C8
100
AcDbEntity
  8
1
  6
Continuous
 62
     2
100
AcDbLine
 10
-306.8154519999743
 20
-286.5904120923177
 30
0.0
 11
-306.8154519999743
 21
-299.1873129912481
 31
0.0
  0
LINE
  5
CD
330
C8
100
AcDbEntity
  8
1
  6
Continuous
 62
     2
100
AcDbLine
 10
-300.8154519999743
 20
-286.5904120923177
 30
0.0
 11
-300.8154519999743
 21
-299.1873129912481
 31
0.0
  0
SOLID
  5
CE
330
C8
100
AcDbEntity
  8
1
 62
     2
100
AcDbTrace
 10
-310.3154519999743
 20
-298.148096732804
 30
0.0
 11
-310.3154519999743
 21
-297.2265292496922
 31
0.0
 12
-306.8154519999743
 22
-297.6873129912481
 32
0.0
 13
-306.8154519999743
 23
-297.6873129912481
 33
0.0
  0
SOLID
  5
CF
330
C8
100
AcDbEntity
  8
1
 62
     2
100
AcDbTrace
 10
-297.3154519999743
 20
-297.2265292496922
 30
0.0
 11
-297.3154519999743
 21
-298.148096732804
 31
0.0
 12
-300.8154519999743
 22
-297.6873129912481
 32
0.0
 13
-300.8154519999743
 23
-297.6873129912481
 33
0.0
  0
MTEXT
  5
D0
330
C8
100
AcDbEntity
  8
1
 62
     3
100
AcDbMText
 10
-316.7249675906987
 20
-296.1873129912481
 30
0.0
 40
3.5
 41
0.0
 71
     7
 72
     1
  1
c
  7
CONVERTER_11
 11
0.9999999999970619
 21
2.424068405545306E-6
 31
0.0
 73
     1
 44
0.60024009603842
  0
ENDBLK
  5
D2
330
C8
100
AcDbEntity
  8
0
100
AcDbBlockEnd
  0
BLOCK
  5
E4
330
DB
100
AcDbEntity
  8
0
100
AcDbBlockBegin
  2
*D22
 70
     1
 10
0.0
 20
0.0
 30
0.0
  3
*D22
  1

  0
LINE
  5
DC
330
DB
100
AcDbEntity
  8
1
  6
Continuous
 62
     2
100
AcDbLine
 10
-167.0677241670957
 20
-145.5904120923178
 30
0.0
 11
-160.0677241670957
 21
-145.5904120923178
 31
0.0
  0
LINE
  5
DD
330
DB
100
AcDbEntity
  8
1
  6
Continuous
 62
     2
100
AcDbLine
 10
-160.0677241670957
 20
-145.5904120923178
 30
0.0
 11
-154.8677241670951
 21
-145.5904120923178
 31
0.0
  0
LINE
  5
DE
330
DB
100
AcDbEntity
  8
1
  6
Continuous
 62
     2
100
AcDbLine
 10
-154.8677241670951
 20
-145.5904120923178
 30
0.0
 11
-130.714117756262
 21
-145.5904120923178
 31
0.0
  0
LINE
  5
DF
330
DB
100
AcDbEntity
  8
1
  6
Continuous
 62
     2
100
AcDbLine
 10
-160.0677241670957
 20
-98.89249113082832
 30
0.0
 11
-160.0677241670957
 21
-147.0904120923178
 31
0.0
  0
LINE
  5
E0
330
DB
100
AcDbEntity
  8
1
  6
Continuous
 62
     2
100
AcDbLine
 10
-154.8677241670951
 20
-95.32982035004054
 30
0.0
 11
-154.8677241670951
 21
-147.0904120923178
 31
0.0
  0
SOLID
  5
E1
330
DB
100
AcDbEntity
  8
1
 62
     2
100
AcDbTrace
 10
-163.5677241670957
 20
-146.0511958338737
 30
0.0
 11
-163.5677241670957
 21
-145.1296283507619
 31
0.0
 12
-160.0677241670957
 22
-145.5904120923178
 32
0.0
 13
-160.0677241670957
 23
-145.5904120923178
 33
0.0
  0
SOLID
  5
E2
330
DB
100
AcDbEntity
  8
1
 62
     2
100
AcDbTrace
 10
-151.3677241670951
 20
-145.1296283507619
 30
0.0
 11
-151.3677241670951
 21
-146.0511958338737
 31
0.0
 12
-154.8677241670951
 22
-145.5904120923178
 32
0.0
 13
-154.8677241670951
 23
-145.5904120923178
 33
0.0
  0
MTEXT
  5
E3
330
DB
100
AcDbEntity
  8
1
 62
     3
100
AcDbMText
 10
-146.184117756262
 20
-143.7404120923178
 30
0.0
 40
3.5
 41
0.0
 71
     7
 72
     1
  1
\C3;5,2\C3;\H2.1;{\Fgdt;`}0,05
  7
CONVERTER_11
 11
0.9999999999970619
 21
2.424068405545306E-6
 31
0.0
 73
     1
 44
0.60024009603842
  0
ENDBLK
  5
E5
330
DB
100
AcDbEntity
  8
0
100
AcDbBlockEnd
  0
BLOCK
  5
ED
330
E8
100
AcDbEntity
  8
0
100
AcDbBlockBegin
  2
*D23
 70
     1
 10
0.0
 20
0.0
 30
0.0
  3
*D23
  1

  0
LINE
  5
E9
330
E8
100
AcDbEntity
  8
1
  6
Continuous
 62
     2
100
AcDbLine
 10
-150.3989629360815
 20
-98.08600002264305
 30
0.0
 11
-219.8858579286453
 21
-56.05427398052862
 31
0.0
  0
SOLID
  5
EA
330
E8
100
AcDbEntity
  8
1
 62
     2
100
AcDbTrace
 10
-168.4775974030142
 20
-87.68899095909434
 30
0.0
 11
-168.0006243393517
 21
-86.90045857391961
 31
0.0
 12
-165.244361817329
 22
-89.10620982149385
 32
0.0
 13
-165.244361817329
 23
-89.10620982149385
 33
0.0
  0
SOLID
  5
EB
330
E8
100
AcDbEntity
  8
1
 62
     2
100
AcDbTrace
 10
-151.6578509311772
 20
-96.78599130256224
 30
0.0
 11
-152.1348239948397
 21
-97.57452368773697
 31
0.0
 12
-154.8910865168624
 22
-95.36877244016273
 32
0.0
 13
-154.8910865168624
 23
-95.36877244016273
 33
0.0
  0
MTEXT
  5
EC
330
E8
100
AcDbEntity
  8
1
 62
     3
100
AcDbMText
 10
-217.8502490259077
 20
-55.12346981471537
 30
0.0
 40
3.5
 41
0.0
 71
     7
 72
     1
  1
\C3; {\Fgdt;n}\C3;\C3;12,1\C3;\H2.1;{\Fgdt;`}0,05
  7
CONVERTER_11
 11
0.8556425868154186
 21
-0.5175671585676765
 31
0.0
 73
     1
 44
0.60024009603842
  0
ENDBLK
  5
EE
330
E8
100
AcDbEntity
  8
0
100
AcDbBlockEnd
  0
BLOCK
  5
101
330
F8
100
AcDbEntity
  8
0
100
AcDbBlockBegin
  2
*D24
 70
     1
 10
0.0
 20
0.0
 30
0.0
  3
*D24
  1

  0
LINE
  5
F9
330
F8
100
AcDbEntity
  8
1
  6
Continuous
 62
     2
100
AcDbLine
 10
-107.320305803036
 20
-145.5904120923178
 30
0.0
 11
-94.81545199997458
 21
-145.5904120923178
 31
0.0
  0
LINE
  5
FA
330
F8
100
AcDbEntity
  8
1
  6
Continuous
 62
     2
100
AcDbLine
 10
-94.81545199997458
 20
-145.5904120923178
 30
0.0
 11
-88.81545199997456
 21
-145.5904120923178
 31
0.0
  0
LINE
  5
FB
330
F8
100
AcDbEntity
  8
1
  6
Continuous
 62
     2
100
AcDbLine
 10
-88.81545199997456
 20
-145.5904120923178
 30
0.0
 11
-81.81545199997456
 21
-145.5904120923178
 31
0.0
  0
LINE
  5
FC
330
F8
100
AcDbEntity
  8
1
  6
Continuous
 62
     2
100
AcDbLine
 10
-94.81545199997458
 20
-135.5904120923178
 30
0.0
 11
-94.81545199997458
 21
-147.0904120923178
 31
0.0
  0
LINE
  5
FD
330
F8
100
AcDbEntity
  8
1
  6
Continuous
 62
     2
100
AcDbLine
 10
-88.81545199997456
 20
-135.5904120923178
 30
0.0
 11
-88.81545199997456
 21
-147.0904120923178
 31
0.0
  0
SOLID
  5
FE
330
F8
100
AcDbEntity
  8
1
 62
     2
100
AcDbTrace
 10
-98.31545199997458
 20
-146.0511958338737
 30
0.0
 11
-98.31545199997458
 21
-145.1296283507619
 31
0.0
 12
-94.81545199997458
 22
-145.5904120923178
 32
0.0
 13
-94.81545199997458
 23
-145.5904120923178
 33
0.0
  0
SOLID
  5
FF
330
F8
100
AcDbEntity
  8
1
 62
     2
100
AcDbTrace
 10
-85.31545199997456
 20
-145.1296283507619
 30
0.0
 11
-85.31545199997456
 21
-146.0511958338737
 31
0.0
 12
-88.81545199997456
 22
-145.5904120923178
 32
0.0
 13
-88.81545199997456
 23
-145.5904120923178
 33
0.0
  0
MTEXT
  5
100
330
F8
100
AcDbEntity
  8
1
 62
     3
100
AcDbMText
 10
-107.320305803036
 20
-144.0904120923178
 30
0.0
 40
3.5
 41
0.0
 71
     7
 72
     1
  1
c
  7
CONVERTER_11
 11
0.9999999999970619
 21
2.424068405545306E-6
 31
0.0
 73
     1
 44
0.60024009603842
  0
ENDBLK
  5
102
330
F8
100
AcDbEntity
  8
0
100
AcDbBlockEnd
  0
BLOCK
  5
10F
330
10A
100
AcDbEntity
  8
0
100
AcDbBlockBegin
  2
*D25
 70
     1
 10
0.0
 20
0.0
 30
0.0
  3
*D25
  1

  0
LINE
  5
10B
330
10A
100
AcDbEntity
  8
1
  6
Continuous
 62
     2
100
AcDbLine
 10
-353.1923878164528
 20
-97.73000712640709
 30
0.0
 11
-420.0466141112068
 21
-60.54667541416035
 31
0.0
  0
SOLID
  5
10C
330
10A
100
AcDbEntity
  8
1
 62
     2
100
AcDbTrace
 10
-371.6376643635228
 20
-87.99827579233332
 30
0.0
 11
-371.1897241739656
 21
-87.19289624670998
 31
0.0
 12
-368.3549617707576
 22
-89.29680778806353
 32
0.0
 13
-368.3549617707576
 23
-89.29680778806353
 33
0.0
  0
SOLID
  5
10D
330
10A
100
AcDbEntity
  8
1
 62
     2
100
AcDbTrace
 10
-354.4977839706674
 20
-96.47670646932443
 30
0.0
 11
-354.9457241602246
 21
-97.28208601494777
 31
0.0
 12
-357.7804865634326
 22
-95.17817447359421
 32
0.0
 13
-357.7804865634326
 23
-95.17817447359421
 33
0.0
  0
MTEXT
  5
10E
330
10A
100
AcDbEntity
  8
1
 62
     3
100
AcDbMText
 10
-418.0462531914167
 20
-59.54235664475681
 30
0.0
 40
3.5
 41
0.0
 71
     7
 72
     1
  1
\C3; {\Fgdt;n}\C3;\C3;12,1\C3;\H2.1;{\Fgdt;`}0,05
  7
CONVERTER_11
 11
0.8739235708533029
 21
-0.4860633624405489
 31
0.0
 73
     1
 44
0.60024009603842
  0
ENDBLK
  5
110
330
10A
100
AcDbEntity
  8
0
100
AcDbBlockEnd
  0
BLOCK
  5
123
330
11A
100
AcDbEntity
  8
0
100
AcDbBlockBegin
  2
*D26
 70
     1
 10
0.0
 20
0.0
 30
0.0
  3
*D26
  1

  0
LINE
  5
11B
330
11A
100
AcDbEntity
  8
1
  6
Continuous
 62
     2
100
AcDbLine
 10
-318.039682424846
 20
-145.5904120923178
 30
0.0
 11
-306.8154519999746
 21
-145.5904120923178
 31
0.0
  0
LINE
  5
11C
330
11A
100
AcDbEntity
  8
1
  6
Continuous
 62
     2
100
AcDbLine
 10
-306.8154519999746
 20
-145.5904120923178
 30
0.0
 11
-300.8154519999746
 21
-145.5904120923178
 31
0.0
  0
LINE
  5
11D
330
11A
100
AcDbEntity
  8
1
  6
Continuous
 62
     2
100
AcDbLine
 10
-300.8154519999746
 20
-145.5904120923178
 30
0.0
 11
-293.8154519999746
 21
-145.5904120923178
 31
0.0
  0
LINE
  5
11E
330
11A
100
AcDbEntity
  8
1
  6
Continuous
 62
     2
100
AcDbLine
 10
-306.8154519999746
 20
-135.5904120923178
 30
0.0
 11
-306.8154519999746
 21
-147.0904120923178
 31
0.0
  0
LINE
  5
11F
330
11A
100
AcDbEntity
  8
1
  6
Continuous
 62
     2
100
AcDbLine
 10
-300.8154519999746
 20
-135.5904120923178
 30
0.0
 11
-300.8154519999746
 21
-147.0904120923178
 31
0.0
  0
SOLID
  5
120
330
11A
100
AcDbEntity
  8
1
 62
     2
100
AcDbTrace
 10
-310.3154519999746
 20
-146.0511958338737
 30
0.0
 11
-310.3154519999746
 21
-145.1296283507619
 31
0.0
 12
-306.8154519999746
 22
-145.5904120923178
 32
0.0
 13
-306.8154519999746
 23
-145.5904120923178
 33
0.0
  0
SOLID
  5
121
330
11A
100
AcDbEntity
  8
1
 62
     2
100
AcDbTrace
 10
-297.3154519999746
 20
-145.1296283507619
 30
0.0
 11
-297.3154519999746
 21
-146.0511958338737
 31
0.0
 12
-300.8154519999746
 22
-145.5904120923178
 32
0.0
 13
-300.8154519999746
 23
-145.5904120923178
 33
0.0
  0
MTEXT
  5
122
330
11A
100
AcDbEntity
  8
1
 62
     3
100
AcDbMText
 10
-318.039682424846
 20
-144.0904120923178
 30
0.0
 40
3.5
 41
0.0
 71
     7
 72
     1
  1
c
  7
CONVERTER_11
 11
0.9999999999970619
 21
2.424068405545306E-6
 31
0.0
 73
     1
 44
0.60024009603842
  0
ENDBLK
  5
124
330
11A
100
AcDbEntity
  8
0
100
AcDbBlockEnd
  0
ENDSEC
  0
SECTION
  2
ENTITIES
  0
INSERT
  5
86
330
1F
100
AcDbEntity
  8
1
100
AcDbBlockReference
  2
1
 10
0.0
 20
0.0
 30
0.0
  0
ENDSEC
  0
SECTION
  2
OBJECTS
  0
DICTIONARY
  5
C
330
0
100
AcDbDictionary
281
     1
  3
ACAD_GROUP
350
D
  3
ACAD_LAYOUT
350
1A
  3
ACAD_MATERIAL
350
3B
  3
ACAD_MLEADERSTYLE
350
298
  3
ACAD_MLINESTYLE
350
17
  3
ACAD_PLOTSETTINGS
350
19
  3
ACAD_PLOTSTYLENAME
350
E
  3
ACAD_TABLESTYLE
350
297
  3
ACAD_VISUALSTYLE
350
2A
  0
DICTIONARY
  5
D
102
{ACAD_REACTORS
330
C
102
}
330
C
100
AcDbDictionary
281
     1
  0
DICTIONARY
  5
1A
102
{ACAD_REACTORS
330
C
102
}
330
C
100
AcDbDictionary
281
     1
  3
Layout1
350
1E
  3
Layout2
350
26
  3
Model
350
22
  0
DICTIONARY
  5
3B
102
{ACAD_REACTORS
330
C
102
}
330
C
100
AcDbDictionary
281
     1
  3
ByBlock
350
3D
  3
ByLayer
350
3C
  3
Global
350
3E
  0
DICTIONARY
  5
298
102
{ACAD_REACTORS
330
C
102
}
330
C
100
AcDbDictionary
281
     1
  0
DICTIONARY
  5
17
102
{ACAD_REACTORS
330
C
102
}
330
C
100
AcDbDictionary
281
     1
  3
Standard
350
18
  0
DICTIONARY
  5
19
102
{ACAD_REACTORS
330
C
102
}
330
C
100
AcDbDictionary
281
     1
  0
ACDBDICTIONARYWDFLT
  5
E
102
{ACAD_REACTORS
330
C
102
}
330
C
100
AcDbDictionary
281
     1
  3
Normal
350
F
100
AcDbDictionaryWithDefault
340
F
  0
DICTIONARY
  5
297
102
{ACAD_REACTORS
330
C
102
}
330
C
100
AcDbDictionary
281
     1
  0
DICTIONARY
  5
2A
102
{ACAD_REACTORS
330
C
102
}
330
C
100
AcDbDictionary
281
     1
  3
2dWireframe
350
2F
  3
3D Hidden
350
31
  3
3dWireframe
350
30
  3
Basic
350
32
  3
Brighten
350
36
  3
ColorChange
350
3A
  3
Conceptual
350
34
  3
Dim
350
35
  3
Facepattern
350
39
  3
Flat
350
2B
  3
FlatWithEdges
350
2C
  3
Gouraud
350
2D
  3
GouraudWithEdges
350
2E
  3
Linepattern
350
38
  3
Realistic
350
33
  3
Thicken
350
37
  0
LAYOUT
  5
1E
102
{ACAD_REACTORS
330
1A
102
}
330
1A
100
AcDbPlotSettings
  1

  2
none_device
  4

  6

 40
0.0
 41
0.0
 42
0.0
 43
0.0
 44
0.0
 45
0.0
 46
0.0
 47
0.0
 48
0.0
 49
0.0
140
0.0
141
0.0
142
1.0
143
1.0
 70
   688
 72
     0
 73
     0
 74
     5
  7

 75
    16
 76
     0
 77
     2
 78
   300
147
1.0
148
0.0
149
0.0
100
AcDbLayout
  1
Layout1
 70
     1
 71
     1
 10
0.0
 20
0.0
 11
12.0
 21
9.0
 12
0.0
 22
0.0
 32
0.0
 14
1.00000000000000E+20
 24
1.00000000000000E+20
 34
1.00000000000000E+20
 15
-1.00000000000000E+20
 25
-1.00000000000000E+20
 35
-1.00000000000000E+20
146
0.0
 13
0.0
 23
0.0
 33
0.0
 16
1.0
 26
0.0
 36
0.0
 17
0.0
 27
1.0
 37
0.0
 76
     0
330
1B
  0
LAYOUT
  5
26
102
{ACAD_REACTORS
330
1A
102
}
330
1A
100
AcDbPlotSettings
  1

  2
none_device
  4

  6

 40
0.0
 41
0.0
 42
0.0
 43
0.0
 44
0.0
 45
0.0
 46
0.0
 47
0.0
 48
0.0
 49
0.0
140
0.0
141
0.0
142
1.0
143
1.0
 70
   688
 72
     0
 73
     0
 74
     5
  7

 75
    16
 76
     0
 77
     2
 78
   300
147
1.0
148
0.0
149
0.0
100
AcDbLayout
  1
Layout2
 70
     1
 71
     2
 10
0.0
 20
0.0
 11
0.0
 21
0.0
 12
0.0
 22
0.0
 32
0.0
 14
0.0
 24
0.0
 34
0.0
 15
0.0
 25
0.0
 35
0.0
146
0.0
 13
0.0
 23
0.0
 33
0.0
 16
1.0
 26
0.0
 36
0.0
 17
0.0
 27
1.0
 37
0.0
 76
     0
330
23
  0
LAYOUT
  5
22
102
{ACAD_REACTORS
330
1A
102
}
330
1A
100
AcDbPlotSettings
  1

  2
none_device
  4

  6

 40
0.0
 41
0.0
 42
0.0
 43
0.0
 44
0.0
 45
0.0
 46
0.0
 47
0.0
 48
0.0
 49
0.0
140
0.0
141
0.0
142
1.0
143
1.0
 70
  1712
 72
     0
 73
     0
 74
     0
  7

 75
     0
 76
     0
 77
     2
 78
   300
147
1.0
148
0.0
149
0.0
100
AcDbLayout
  1
Model
 70
     1
 71
     0
 10
0.0
 20
0.0
 11
12.0
 21
9.0
 12
0.0
 22
0.0
 32
0.0
 14
-457.7082196961705
 24
-314.224989179649
 34
0.0
 15
-37.70821969617208
 25
-17.22498917964902
 35
0.0
146
0.0
 13
0.0
 23
0.0
 33
0.0
 16
1.0
 26
0.0
 36
0.0
 17
0.0
 27
1.0
 37
0.0
 76
     0
330
1F
331
29
  0
MATERIAL
  5
3D
102
{ACAD_REACTORS
330
3B
102
}
102
{ACAD_XDICTIONARY
360
293
102
}
330
3B
100
AcDbMaterial
  1
ByBlock
  0
MATERIAL
  5
3C
102
{ACAD_REACTORS
330
3B
102
}
102
{ACAD_XDICTIONARY
360
291
102
}
330
3B
100
AcDbMaterial
  1
ByLayer
  0
MATERIAL
  5
3E
102
{ACAD_REACTORS
330
3B
102
}
102
{ACAD_XDICTIONARY
360
295
102
}
330
3B
100
AcDbMaterial
  1
Global
  0
MLINESTYLE
  5
18
102
{ACAD_REACTORS
330
17
102
}
330
17
100
AcDbMlineStyle
  2
Standard
 70
     0
  3

 62
   256
 51
90.0
 52
90.0
 71
     2
 49
0.5
 62
   256
  6
BYLAYER
 49
-0.5
 62
   256
  6
BYLAYER
  0
ACDBPLACEHOLDER
  5
F
102
{ACAD_REACTORS
330
E
102
}
330
E
  0
VISUALSTYLE
  5
2F
102
{ACAD_REACTORS
330
2A
102
}
102
{ACAD_XDICTIONARY
360
279
102
}
330
2A
100
AcDbVisualStyle
  2
2dWireframe
 70
     4
 71
     0
 72
     2
 73
     0
 90
        0
 40
-0.6
 41
-30.0
 62
     5
 63
     7
421
 16777215
 74
     1
 91
        4
 64
     7
 65
   257
 75
     1
175
     1
 42
1.0
 92
        0
 66
   257
 43
1.0
 76
     1
 77
     6
 78
     2
 67
     7
 79
     5
170
     0
171
     0
290
     0
174
     0
 93
        1
 44
0.0
173
     0
291
     0
 45
0.0
1001
ACAD
1000
AcDbSavedByObjectVersion
1070
     0
  0
VISUALSTYLE
  5
31
102
{ACAD_REACTORS
330
2A
102
}
102
{ACAD_XDICTIONARY
360
27D
102
}
330
2A
100
AcDbVisualStyle
  2
3D Hidden
 70
     6
 71
     1
 72
     2
 73
     2
 90
        0
 40
-0.6
 41
-30.0
 62
     5
 63
     7
421
 16777215
 74
     2
 91
        2
 64
     7
 65
   257
 75
     2
175
     1
 42
40.0
 92
        0
 66
   257
 43
1.0
 76
     1
 77
     6
 78
     2
 67
     7
 79
     3
170
     0
171
     0
290
     0
174
     0
 93
        1
 44
0.0
173
     0
291
     0
 45
0.0
1001
ACAD
1000
AcDbSavedByObjectVersion
1070
     0
  0
VISUALSTYLE
  5
30
102
{ACAD_REACTORS
330
2A
102
}
102
{ACAD_XDICTIONARY
360
27B
102
}
330
2A
100
AcDbVisualStyle
  2
3dWireframe
 70
     5
 71
     0
 72
     2
 73
     0
 90
        0
 40
-0.6
 41
-30.0
 62
     5
 63
     7
421
 16777215
 74
     1
 91
        4
 64
     7
 65
   257
 75
     1
175
     1
 42
1.0
 92
        0
 66
   257
 43
1.0
 76
     1
 77
     6
 78
     2
 67
     7
 79
     5
170
     0
171
     0
290
     0
174
     0
 93
        1
 44
0.0
173
     0
291
     0
 45
0.0
1001
ACAD
1000
AcDbSavedByObjectVersion
1070
     0
  0
VISUALSTYLE
  5
32
102
{ACAD_REACTORS
330
2A
102
}
102
{ACAD_XDICTIONARY
360
27F
102
}
330
2A
100
AcDbVisualStyle
  2
Basic
 70
     7
 71
     1
 72
     0
 73
     1
 90
        0
 40
-0.6
 41
-30.0
 62
     5
 63
     7
421
 16777215
 74
     0
 91
        4
 64
     7
 65
   257
 75
     1
175
     1
 42
1.0
 92
        8
 66
     7
 43
1.0
 76
     1
 77
     6
 78
     2
 67
     7
 79
     5
170
     0
171
     0
290
     0
174
     0
 93
        1
 44
0.0
173
     0
291
     1
 45
0.0
1001
ACAD
1000
AcDbSavedByObjectVersion
1070
     0
  0
VISUALSTYLE
  5
36
102
{ACAD_REACTORS
330
2A
102
}
102
{ACAD_XDICTIONARY
360
287
102
}
330
2A
100
AcDbVisualStyle
  2
Brighten
 70
    12
 71
     2
 72
     2
 73
     0
 90
        0
 40
-0.6
 41
-30.0
 62
     5
 63
     7
421
 16777215
 74
     1
 91
        4
 64
     7
 65
   257
 75
     1
175
     1
 42
1.0
 92
        8
 66
     7
 43
1.0
 76
     1
 77
     6
 78
     2
 67
     7
 79
     5
170
     0
171
     0
290
     0
174
     0
 93
        1
 44
50.0
173
     0
291
     1
 45
0.0
1001
ACAD
1000
AcDbSavedByObjectVersion
1070
     0
  0
VISUALSTYLE
  5
3A
102
{ACAD_REACTORS
330
2A
102
}
102
{ACAD_XDICTIONARY
360
28F
102
}
330
2A
100
AcDbVisualStyle
  2
ColorChange
 70
    16
 71
     2
 72
     2
 73
     3
 90
        0
 40
-0.6
 41
-30.0
 62
     5
 63
     8
421
  8421504
 74
     1
 91
        4
 64
     7
 65
   257
 75
     1
175
     1
 42
1.0
 92
        8
 66
     8
424
  8421504
 43
1.0
 76
     1
 77
     6
 78
     2
 67
     7
 79
     5
170
     0
171
     0
290
     0
174
     0
 93
        1
 44
0.0
173
     0
291
     1
 45
0.0
1001
ACAD
1000
AcDbSavedByObjectVersion
1070
     0
  0
VISUALSTYLE
  5
34
102
{ACAD_REACTORS
330
2A
102
}
102
{ACAD_XDICTIONARY
360
283
102
}
330
2A
100
AcDbVisualStyle
  2
Conceptual
 70
     9
 71
     3
 72
     2
 73
     0
 90
        0
 40
-0.6
 41
-30.0
 62
     5
 63
     7
421
 16777215
 74
     2
 91
        2
 64
     7
 65
   257
 75
     1
175
     1
 42
40.0
 92
        8
 66
     7
 43
1.0
 76
     1
 77
     6
 78
     2
 67
     7
 79
     3
170
     0
171
     0
290
     0
174
     0
 93
        1
 44
0.0
173
     0
291
     0
 45
0.0
1001
ACAD
1000
AcDbSavedByObjectVersion
1070
     0
  0
VISUALSTYLE
  5
35
102
{ACAD_REACTORS
330
2A
102
}
102
{ACAD_XDICTIONARY
360
285
102
}
330
2A
100
AcDbVisualStyle
  2
Dim
 70
    11
 71
     2
 72
     2
 73
     0
 90
        0
 40
-0.6
 41
-30.0
 62
     5
 63
     7
421
 16777215
 74
     1
 91
        4
 64
     7
 65
   257
 75
     1
175
     1
 42
1.0
 92
        8
 66
     7
 43
1.0
 76
     1
 77
     6
 78
     2
 67
     7
 79
     5
170
     0
171
     0
290
     0
174
     0
 93
        1
 44
-50.0
173
     0
291
     1
 45
0.0
1001
ACAD
1000
AcDbSavedByObjectVersion
1070
     0
  0
VISUALSTYLE
  5
39
102
{ACAD_REACTORS
330
2A
102
}
102
{ACAD_XDICTIONARY
360
28D
102
}
330
2A
100
AcDbVisualStyle
  2
Facepattern
 70
    15
 71
     2
 72
     2
 73
     0
 90
        0
 40
-0.6
 41
-30.0
 62
     5
 63
     7
421
 16777215
 74
     1
 91
        4
 64
     7
 65
   257
 75
     1
175
     1
 42
1.0
 92
        8
 66
     7
 43
1.0
 76
     1
 77
     6
 78
     2
 67
     7
 79
     5
170
     0
171
     0
290
     0
174
     0
 93
        1
 44
0.0
173
     0
291
     1
 45
0.0
1001
ACAD
1000
AcDbSavedByObjectVersion
1070
     0
  0
VISUALSTYLE
  5
2B
102
{ACAD_REACTORS
330
2A
102
}
102
{ACAD_XDICTIONARY
360
271
102
}
330
2A
100
AcDbVisualStyle
  2
Flat
 70
     0
 71
     2
 72
     1
 73
     1
 90
        2
 40
-0.6
 41
30.0
 62
     5
 63
     7
421
 16777215
 74
     0
 91
        4
 64
     7
 65
   257
 75
     1
175
     1
 42
1.0
 92
        8
 66
     7
 43
1.0
 76
     1
 77
     6
 78
     2
 67
     7
 79
     5
170
     0
171
     0
290
     0
174
     0
 93
       13
 44
0.0
173
     0
291
     1
 45
0.0
1001
ACAD
1000
AcDbSavedByObjectVersion
1070
     0
  0
VISUALSTYLE
  5
2C
102
{ACAD_REACTORS
330
2A
102
}
102
{ACAD_XDICTIONARY
360
273
102
}
330
2A
100
AcDbVisualStyle
  2
FlatWithEdges
 70
     1
 71
     2
 72
     1
 73
     1
 90
        2
 40
-0.6
 41
30.0
 62
     5
 63
     7
421
 16777215
 74
     1
 91
        4
 64
     7
 65
   257
 75
     1
175
     1
 42
1.0
 92
        0
 66
   257
 43
1.0
 76
     1
 77
     6
 78
     2
 67
     7
 79
     5
170
     0
171
     0
290
     0
174
     0
 93
       13
 44
0.0
173
     0
291
     1
 45
0.0
1001
ACAD
1000
AcDbSavedByObjectVersion
1070
     0
  0
VISUALSTYLE
  5
2D
102
{ACAD_REACTORS
330
2A
102
}
102
{ACAD_XDICTIONARY
360
275
102
}
330
2A
100
AcDbVisualStyle
  2
Gouraud
 70
     2
 71
     2
 72
     2
 73
     1
 90
        2
 40
-0.6
 41
30.0
 62
     5
 63
     7
421
 16777215
 74
     0
 91
        4
 64
     7
 65
   257
 75
     1
175
     1
 42
1.0
 92
        0
 66
     7
 43
1.0
 76
     1
 77
     6
 78
     2
 67
     7
 79
     5
170
     0
171
     0
290
     0
174
     0
 93
       13
 44
0.0
173
     0
291
     1
 45
0.0
1001
ACAD
1000
AcDbSavedByObjectVersion
1070
     0
  0
VISUALSTYLE
  5
2E
102
{ACAD_REACTORS
330
2A
102
}
102
{ACAD_XDICTIONARY
360
277
102
}
330
2A
100
AcDbVisualStyle
  2
GouraudWithEdges
 70
     3
 71
     2
 72
     2
 73
     1
 90
        2
 40
-0.6
 41
30.0
 62
     5
 63
     7
421
 16777215
 74
     1
 91
        4
 64
     7
 65
   257
 75
     1
175
     1
 42
1.0
 92
        0
 66
   257
 43
1.0
 76
     1
 77
     6
 78
     2
 67
     7
 79
     5
170
     0
171
     0
290
     0
174
     0
 93
       13
 44
0.0
173
     0
291
     1
 45
0.0
1001
ACAD
1000
AcDbSavedByObjectVersion
1070
     0
  0
VISUALSTYLE
  5
38
102
{ACAD_REACTORS
330
2A
102
}
102
{ACAD_XDICTIONARY
360
28B
102
}
330
2A
100
AcDbVisualStyle
  2
Linepattern
 70
    14
 71
     2
 72
     2
 73
     0
 90
        0
 40
-0.6
 41
-30.0
 62
     5
 63
     7
421
 16777215
 74
     1
 91
        4
 64
     7
 65
   257
 75
     7
175
     7
 42
1.0
 92
        8
 66
     7
 43
1.0
 76
     1
 77
     6
 78
     2
 67
     7
 79
     5
170
     0
171
     0
290
     0
174
     0
 93
        1
 44
0.0
173
     0
291
     1
 45
0.0
1001
ACAD
1000
AcDbSavedByObjectVersion
1070
     0
  0
VISUALSTYLE
  5
33
102
{ACAD_REACTORS
330
2A
102
}
102
{ACAD_XDICTIONARY
360
281
102
}
330
2A
100
AcDbVisualStyle
  2
Realistic
 70
     8
 71
     2
 72
     2
 73
     0
 90
        0
 40
-0.6
 41
-30.0
 62
     5
 63
     7
421
 16777215
 74
     1
 91
        0
 64
     7
 65
   257
 75
     1
175
     1
 42
1.0
 92
        8
 66
     8
424
  7895160
 43
1.0
 76
     1
 77
     6
 78
     2
 67
     7
 79
     5
170
     0
171
     0
290
     0
174
     0
 93
       13
 44
0.0
173
     0
291
     0
 45
0.0
1001
ACAD
1000
AcDbSavedByObjectVersion
1070
     0
  0
VISUALSTYLE
  5
37
102
{ACAD_REACTORS
330
2A
102
}
102
{ACAD_XDICTIONARY
360
289
102
}
330
2A
100
AcDbVisualStyle
  2
Thicken
 70
    13
 71
     2
 72
     2
 73
     0
 90
        0
 40
-0.6
 41
-30.0
 62
     5
 63
     7
421
 16777215
 74
     1
 91
        4
 64
     7
 65
   257
 75
     1
175
     1
 42
1.0
 92
       12
 66
     7
 43
1.0
 76
     1
 77
     6
 78
     2
 67
     7
 79
     5
170
     0
171
     0
290
     0
174
     0
 93
        1
 44
0.0
173
     0
291
     1
 45
0.0
1001
ACAD
1000
AcDbSavedByObjectVersion
1070
     0
  0
DICTIONARY
  5
293
330
3D
100
AcDbDictionary
280
     1
281
     1
  3
ACAD_XREC_ROUNDTRIP
360
294
  0
DICTIONARY
  5
291
330
3C
100
AcDbDictionary
280
     1
281
     1
  3
ACAD_XREC_ROUNDTRIP
360
292
  0
DICTIONARY
  5
295
330
3E
100
AcDbDictionary
280
     1
281
     1
  3
ACAD_XREC_ROUNDTRIP
360
296
  0
DICTIONARY
  5
279
330
2F
100
AcDbDictionary
280
     1
281
     1
  3
ACAD_XREC_ROUNDTRIP
360
27A
  0
DICTIONARY
  5
27D
330
31
100
AcDbDictionary
280
     1
281
     1
  3
ACAD_XREC_ROUNDTRIP
360
27E
  0
DICTIONARY
  5
27B
330
30
100
AcDbDictionary
280
     1
281
     1
  3
ACAD_XREC_ROUNDTRIP
360
27C
  0
DICTIONARY
  5
27F
330
32
100
AcDbDictionary
280
     1
281
     1
  3
ACAD_XREC_ROUNDTRIP
360
280
  0
DICTIONARY
  5
287
330
36
100
AcDbDictionary
280
     1
281
     1
  3
ACAD_XREC_ROUNDTRIP
360
288
  0
DICTIONARY
  5
28F
330
3A
100
AcDbDictionary
280
     1
281
     1
  3
ACAD_XREC_ROUNDTRIP
360
290
  0
DICTIONARY
  5
283
330
34
100
AcDbDictionary
280
     1
281
     1
  3
ACAD_XREC_ROUNDTRIP
360
284
  0
DICTIONARY
  5
285
330
35
100
AcDbDictionary
280
     1
281
     1
  3
ACAD_XREC_ROUNDTRIP
360
286
  0
DICTIONARY
  5
28D
330
39
100
AcDbDictionary
280
     1
281
     1
  3
ACAD_XREC_ROUNDTRIP
360
28E
  0
DICTIONARY
  5
271
330
2B
100
AcDbDictionary
280
     1
281
     1
  3
ACAD_XREC_ROUNDTRIP
360
272
  0
DICTIONARY
  5
273
330
2C
100
AcDbDictionary
280
     1
281
     1
  3
ACAD_XREC_ROUNDTRIP
360
274
  0
DICTIONARY
  5
275
330
2D
100
AcDbDictionary
280
     1
281
     1
  3
ACAD_XREC_ROUNDTRIP
360
276
  0
DICTIONARY
  5
277
330
2E
100
AcDbDictionary
280
     1
281
     1
  3
ACAD_XREC_ROUNDTRIP
360
278
  0
DICTIONARY
  5
28B
330
38
100
AcDbDictionary
280
     1
281
     1
  3
ACAD_XREC_ROUNDTRIP
360
28C
  0
DICTIONARY
  5
281
330
33
100
AcDbDictionary
280
     1
281
     1
  3
ACAD_XREC_ROUNDTRIP
360
282
  0
DICTIONARY
  5
289
330
37
100
AcDbDictionary
280
     1
281
     1
  3
ACAD_XREC_ROUNDTRIP
360
28A
  0
XRECORD
  5
294
102
{ACAD_REACTORS
330
293
102
}
330
293
100
AcDbXrecord
280
     1
102
MATERIAL
148
0.0
149
0.0
149
0.0
 93
        0
 94
      127
282
     0
 72
     1
 77
     1
171
     1
175
     1
179
     1
273
     0
  0
XRECORD
  5
292
102
{ACAD_REACTORS
330
291
102
}
330
291
100
AcDbXrecord
280
     1
102
MATERIAL
148
0.0
149
0.0
149
0.0
 93
        0
 94
      127
282
     0
 72
     1
 77
     1
171
     1
175
     1
179
     1
273
     0
  0
XRECORD
  5
296
102
{ACAD_REACTORS
330
295
102
}
330
295
100
AcDbXrecord
280
     1
102
MATERIAL
148
0.0
149
0.0
149
0.0
 93
        0
 94
      127
282
     0
 72
     1
 77
     1
171
     1
175
     1
179
     1
273
     0
  0
XRECORD
  5
27A
102
{ACAD_REACTORS
330
279
102
}
330
279
100
AcDbXrecord
280
     1
102
RTVSPropertyOp0
 70
     1
102
RTVSPropertyOp1
 70
     1
102
RTVSPropertyOp2
 70
     1
102
RTVSPropertyOp3
 70
     1
102
RTVSPropertyOp4
 70
     1
102
RTVSPropertyOp5
 70
     1
102
RTVSPropertyOp6
 70
     1
102
RTVSPropertyOp7
 70
     1
102
RTVSPropertyOp8
 70
     1
102
RTVSPropertyOp9
 70
     1
102
RTVSPropertyOp10
 70
     1
102
RTVSPropertyOp11
 70
     1
102
RTVSPropertyOp12
 70
     1
102
RTVSPropertyOp13
 70
     1
102
RTVSPropertyOp14
 70
     1
102
RTVSPropertyOp15
 70
     1
102
RTVSPropertyOp16
 70
     1
102
RTVSPropertyOp17
 70
     1
102
RTVSPropertyOp18
 70
     1
102
RTVSPropertyOp19
 70
     1
102
RTVSPropertyOp20
 70
     1
102
RTVSPropertyOp21
 70
     1
102
RTVSPropertyOp22
 70
     1
102
RTVSPropertyOp23
 70
     1
102
RTVSPropertyOp24
 70
     1
102
RTVSPropertyOp25
 70
     1
102
RTVSPropertyOp26
 70
     1
102
RTVSPropertyOp27
 70
     1
102
RTVSPropertyOp28
 70
     1
102
RTVSPropertyOp29
 70
     1
102
RTVSPropertyOp30
 70
     1
102
RTVSPropertyOp31
 70
     1
102
RTVSPropertyOp32
 70
     1
  0
XRECORD
  5
27E
102
{ACAD_REACTORS
330
27D
102
}
330
27D
100
AcDbXrecord
280
     1
102
RTVSPropertyOp0
 70
     1
102
RTVSPropertyOp1
 70
     1
102
RTVSPropertyOp2
 70
     1
102
RTVSPropertyOp3
 70
     1
102
RTVSPropertyOp4
 70
     1
102
RTVSPropertyOp5
 70
     1
102
RTVSPropertyOp6
 70
     1
102
RTVSPropertyOp7
 70
     1
102
RTVSPropertyOp8
 70
     1
102
RTVSPropertyOp9
 70
     1
102
RTVSPropertyOp10
 70
     1
102
RTVSPropertyOp11
 70
     1
102
RTVSPropertyOp12
 70
     1
102
RTVSPropertyOp13
 70
     1
102
RTVSPropertyOp14
 70
     1
102
RTVSPropertyOp15
 70
     1
102
RTVSPropertyOp16
 70
     1
102
RTVSPropertyOp17
 70
     1
102
RTVSPropertyOp18
 70
     1
102
RTVSPropertyOp19
 70
     1
102
RTVSPropertyOp20
 70
     1
102
RTVSPropertyOp21
 70
     1
102
RTVSPropertyOp22
 70
     1
102
RTVSPropertyOp23
 70
     1
102
RTVSPropertyOp24
 70
     1
102
RTVSPropertyOp25
 70
     1
102
RTVSPropertyOp26
 70
     1
102
RTVSPropertyOp27
 70
     1
102
RTVSPropertyOp28
 70
     1
102
RTVSPropertyOp29
 70
     1
102
RTVSPropertyOp30
 70
     1
102
RTVSPropertyOp31
 70
     1
102
RTVSPropertyOp32
 70
     1
  0
XRECORD
  5
27C
102
{ACAD_REACTORS
330
27B
102
}
330
27B
100
AcDbXrecord
280
     1
102
RTVSPropertyOp0
 70
     1
102
RTVSPropertyOp1
 70
     1
102
RTVSPropertyOp2
 70
     1
102
RTVSPropertyOp3
 70
     1
102
RTVSPropertyOp4
 70
     1
102
RTVSPropertyOp5
 70
     1
102
RTVSPropertyOp6
 70
     1
102
RTVSPropertyOp7
 70
     1
102
RTVSPropertyOp8
 70
     1
102
RTVSPropertyOp9
 70
     1
102
RTVSPropertyOp10
 70
     1
102
RTVSPropertyOp11
 70
     1
102
RTVSPropertyOp12
 70
     1
102
RTVSPropertyOp13
 70
     1
102
RTVSPropertyOp14
 70
     1
102
RTVSPropertyOp15
 70
     1
102
RTVSPropertyOp16
 70
     1
102
RTVSPropertyOp17
 70
     1
102
RTVSPropertyOp18
 70
     1
102
RTVSPropertyOp19
 70
     1
102
RTVSPropertyOp20
 70
     1
102
RTVSPropertyOp21
 70
     1
102
RTVSPropertyOp22
 70
     1
102
RTVSPropertyOp23
 70
     1
102
RTVSPropertyOp24
 70
     1
102
RTVSPropertyOp25
 70
     1
102
RTVSPropertyOp26
 70
     1
102
RTVSPropertyOp27
 70
     1
102
RTVSPropertyOp28
 70
     1
102
RTVSPropertyOp29
 70
     1
102
RTVSPropertyOp30
 70
     1
102
RTVSPropertyOp31
 70
     1
102
RTVSPropertyOp32
 70
     1
  0
XRECORD
  5
280
102
{ACAD_REACTORS
330
27F
102
}
330
27F
100
AcDbXrecord
280
     1
102
RTVSPropertyOp0
 70
     1
102
RTVSPropertyOp1
 70
     1
102
RTVSPropertyOp2
 70
     1
102
RTVSPropertyOp3
 70
     1
102
RTVSPropertyOp4
 70
     1
102
RTVSPropertyOp5
 70
     1
102
RTVSPropertyOp6
 70
     1
102
RTVSPropertyOp7
 70
     1
102
RTVSPropertyOp8
 70
     1
102
RTVSPropertyOp9
 70
     1
102
RTVSPropertyOp10
 70
     1
102
RTVSPropertyOp11
 70
     1
102
RTVSPropertyOp12
 70
     1
102
RTVSPropertyOp13
 70
     1
102
RTVSPropertyOp14
 70
     1
102
RTVSPropertyOp15
 70
     1
102
RTVSPropertyOp16
 70
     1
102
RTVSPropertyOp17
 70
     1
102
RTVSPropertyOp18
 70
     1
102
RTVSPropertyOp19
 70
     1
102
RTVSPropertyOp20
 70
     1
102
RTVSPropertyOp21
 70
     1
102
RTVSPropertyOp22
 70
     1
102
RTVSPropertyOp23
 70
     1
102
RTVSPropertyOp24
 70
     1
102
RTVSPropertyOp25
 70
     1
102
RTVSPropertyOp26
 70
     1
102
RTVSPropertyOp27
 70
     1
102
RTVSPropertyOp28
 70
     1
102
RTVSPropertyOp29
 70
     1
102
RTVSPropertyOp30
 70
     1
102
RTVSPropertyOp31
 70
     1
102
RTVSPropertyOp32
 70
     1
  0
XRECORD
  5
288
102
{ACAD_REACTORS
330
287
102
}
330
287
100
AcDbXrecord
280
     1
102
RTVSPropertyOp0
 70
     1
102
RTVSPropertyOp1
 70
     1
102
RTVSPropertyOp2
 70
     1
102
RTVSPropertyOp3
 70
     1
102
RTVSPropertyOp4
 70
     1
102
RTVSPropertyOp5
 70
     1
102
RTVSPropertyOp6
 70
     1
102
RTVSPropertyOp7
 70
     1
102
RTVSPropertyOp8
 70
     1
102
RTVSPropertyOp9
 70
     1
102
RTVSPropertyOp10
 70
     1
102
RTVSPropertyOp11
 70
     1
102
RTVSPropertyOp12
 70
     1
102
RTVSPropertyOp13
 70
     1
102
RTVSPropertyOp14
 70
     1
102
RTVSPropertyOp15
 70
     1
102
RTVSPropertyOp16
 70
     1
102
RTVSPropertyOp17
 70
     1
102
RTVSPropertyOp18
 70
     1
102
RTVSPropertyOp19
 70
     1
102
RTVSPropertyOp20
 70
     1
102
RTVSPropertyOp21
 70
     1
102
RTVSPropertyOp22
 70
     1
102
RTVSPropertyOp23
 70
     1
102
RTVSPropertyOp24
 70
     1
102
RTVSPropertyOp25
 70
     1
102
RTVSPropertyOp26
 70
     1
102
RTVSPropertyOp27
 70
     1
102
RTVSPropertyOp28
 70
     1
102
RTVSPropertyOp29
 70
     1
102
RTVSPropertyOp30
 70
     1
102
RTVSPropertyOp31
 70
     1
102
RTVSPropertyOp32
 70
     1
  0
XRECORD
  5
290
102
{ACAD_REACTORS
330
28F
102
}
330
28F
100
AcDbXrecord
280
     1
102
RTVSPropertyOp0
 70
     1
102
RTVSPropertyOp1
 70
     1
102
RTVSPropertyOp2
 70
     1
102
RTVSPropertyOp3
 70
     1
102
RTVSPropertyOp4
 70
     1
102
RTVSPropertyOp5
 70
     1
102
RTVSPropertyOp6
 70
     1
102
RTVSPropertyOp7
 70
     1
102
RTVSPropertyOp8
 70
     1
102
RTVSPropertyOp9
 70
     1
102
RTVSPropertyOp10
 70
     1
102
RTVSPropertyOp11
 70
     1
102
RTVSPropertyOp12
 70
     1
102
RTVSPropertyOp13
 70
     1
102
RTVSPropertyOp14
 70
     1
102
RTVSPropertyOp15
 70
     1
102
RTVSPropertyOp16
 70
     1
102
RTVSPropertyOp17
 70
     1
102
RTVSPropertyOp18
 70
     1
102
RTVSPropertyOp19
 70
     1
102
RTVSPropertyOp20
 70
     1
102
RTVSPropertyOp21
 70
     1
102
RTVSPropertyOp22
 70
     1
102
RTVSPropertyOp23
 70
     1
102
RTVSPropertyOp24
 70
     1
102
RTVSPropertyOp25
 70
     1
102
RTVSPropertyOp26
 70
     1
102
RTVSPropertyOp27
 70
     1
102
RTVSPropertyOp28
 70
     1
102
RTVSPropertyOp29
 70
     1
102
RTVSPropertyOp30
 70
     1
102
RTVSPropertyOp31
 70
     1
102
RTVSPropertyOp32
 70
     1
  0
XRECORD
  5
284
102
{ACAD_REACTORS
330
283
102
}
330
283
100
AcDbXrecord
280
     1
102
RTVSPropertyOp0
 70
     1
102
RTVSPropertyOp1
 70
     1
102
RTVSPropertyOp2
 70
     1
102
RTVSPropertyOp3
 70
     1
102
RTVSPropertyOp4
 70
     1
102
RTVSPropertyOp5
 70
     1
102
RTVSPropertyOp6
 70
     1
102
RTVSPropertyOp7
 70
     1
102
RTVSPropertyOp8
 70
     1
102
RTVSPropertyOp9
 70
     1
102
RTVSPropertyOp10
 70
     1
102
RTVSPropertyOp11
 70
     1
102
RTVSPropertyOp12
 70
     1
102
RTVSPropertyOp13
 70
     1
102
RTVSPropertyOp14
 70
     1
102
RTVSPropertyOp15
 70
     1
102
RTVSPropertyOp16
 70
     1
102
RTVSPropertyOp17
 70
     1
102
RTVSPropertyOp18
 70
     1
102
RTVSPropertyOp19
 70
     1
102
RTVSPropertyOp20
 70
     1
102
RTVSPropertyOp21
 70
     1
102
RTVSPropertyOp22
 70
     1
102
RTVSPropertyOp23
 70
     1
102
RTVSPropertyOp24
 70
     1
102
RTVSPropertyOp25
 70
     1
102
RTVSPropertyOp26
 70
     1
102
RTVSPropertyOp27
 70
     1
102
RTVSPropertyOp28
 70
     1
102
RTVSPropertyOp29
 70
     1
102
RTVSPropertyOp30
 70
     1
102
RTVSPropertyOp31
 70
     1
102
RTVSPropertyOp32
 70
     1
  0
XRECORD
  5
286
102
{ACAD_REACTORS
330
285
102
}
330
285
100
AcDbXrecord
280
     1
102
RTVSPropertyOp0
 70
     1
102
RTVSPropertyOp1
 70
     1
102
RTVSPropertyOp2
 70
     1
102
RTVSPropertyOp3
 70
     1
102
RTVSPropertyOp4
 70
     1
102
RTVSPropertyOp5
 70
     1
102
RTVSPropertyOp6
 70
     1
102
RTVSPropertyOp7
 70
     1
102
RTVSPropertyOp8
 70
     1
102
RTVSPropertyOp9
 70
     1
102
RTVSPropertyOp10
 70
     1
102
RTVSPropertyOp11
 70
     1
102
RTVSPropertyOp12
 70
     1
102
RTVSPropertyOp13
 70
     1
102
RTVSPropertyOp14
 70
     1
102
RTVSPropertyOp15
 70
     1
102
RTVSPropertyOp16
 70
     1
102
RTVSPropertyOp17
 70
     1
102
RTVSPropertyOp18
 70
     1
102
RTVSPropertyOp19
 70
     1
102
RTVSPropertyOp20
 70
     1
102
RTVSPropertyOp21
 70
     1
102
RTVSPropertyOp22
 70
     1
102
RTVSPropertyOp23
 70
     1
102
RTVSPropertyOp24
 70
     1
102
RTVSPropertyOp25
 70
     1
102
RTVSPropertyOp26
 70
     1
102
RTVSPropertyOp27
 70
     1
102
RTVSPropertyOp28
 70
     1
102
RTVSPropertyOp29
 70
     1
102
RTVSPropertyOp30
 70
     1
102
RTVSPropertyOp31
 70
     1
102
RTVSPropertyOp32
 70
     1
  0
XRECORD
  5
28E
102
{ACAD_REACTORS
330
28D
102
}
330
28D
100
AcDbXrecord
280
     1
102
RTVSPropertyOp0
 70
     1
102
RTVSPropertyOp1
 70
     1
102
RTVSPropertyOp2
 70
     1
102
RTVSPropertyOp3
 70
     1
102
RTVSPropertyOp4
 70
     1
102
RTVSPropertyOp5
 70
     1
102
RTVSPropertyOp6
 70
     1
102
RTVSPropertyOp7
 70
     1
102
RTVSPropertyOp8
 70
     1
102
RTVSPropertyOp9
 70
     1
102
RTVSPropertyOp10
 70
     1
102
RTVSPropertyOp11
 70
     1
102
RTVSPropertyOp12
 70
     1
102
RTVSPropertyOp13
 70
     1
102
RTVSPropertyOp14
 70
     1
102
RTVSPropertyOp15
 70
     1
102
RTVSPropertyOp16
 70
     1
102
RTVSPropertyOp17
 70
     1
102
RTVSPropertyOp18
 70
     1
102
RTVSPropertyOp19
 70
     1
102
RTVSPropertyOp20
 70
     1
102
RTVSPropertyOp21
 70
     1
102
RTVSPropertyOp22
 70
     1
102
RTVSPropertyOp23
 70
     1
102
RTVSPropertyOp24
 70
     1
102
RTVSPropertyOp25
 70
     1
102
RTVSPropertyOp26
 70
     1
102
RTVSPropertyOp27
 70
     1
102
RTVSPropertyOp28
 70
     1
102
RTVSPropertyOp29
 70
     1
102
RTVSPropertyOp30
 70
     1
102
RTVSPropertyOp31
 70
     1
102
RTVSPropertyOp32
 70
     1
  0
XRECORD
  5
272
102
{ACAD_REACTORS
330
271
102
}
330
271
100
AcDbXrecord
280
     1
102
RTVSPropertyOp0
 70
     1
102
RTVSPropertyOp1
 70
     1
102
RTVSPropertyOp2
 70
     1
102
RTVSPropertyOp3
 70
     1
102
RTVSPropertyOp4
 70
     1
102
RTVSPropertyOp5
 70
     1
102
RTVSPropertyOp6
 70
     1
102
RTVSPropertyOp7
 70
     1
102
RTVSPropertyOp8
 70
     1
102
RTVSPropertyOp9
 70
     1
102
RTVSPropertyOp10
 70
     1
102
RTVSPropertyOp11
 70
     1
102
RTVSPropertyOp12
 70
     1
102
RTVSPropertyOp13
 70
     1
102
RTVSPropertyOp14
 70
     1
102
RTVSPropertyOp15
 70
     1
102
RTVSPropertyOp16
 70
     1
102
RTVSPropertyOp17
 70
     1
102
RTVSPropertyOp18
 70
     1
102
RTVSPropertyOp19
 70
     1
102
RTVSPropertyOp20
 70
     1
102
RTVSPropertyOp21
 70
     1
102
RTVSPropertyOp22
 70
     1
102
RTVSPropertyOp23
 70
     1
102
RTVSPropertyOp24
 70
     1
102
RTVSPropertyOp25
 70
     1
102
RTVSPropertyOp26
 70
     1
102
RTVSPropertyOp27
 70
     1
102
RTVSPropertyOp28
 70
     1
102
RTVSPropertyOp29
 70
     1
102
RTVSPropertyOp30
 70
     1
102
RTVSPropertyOp31
 70
     1
102
RTVSPropertyOp32
 70
     1
  0
XRECORD
  5
274
102
{ACAD_REACTORS
330
273
102
}
330
273
100
AcDbXrecord
280
     1
102
RTVSPropertyOp0
 70
     1
102
RTVSPropertyOp1
 70
     1
102
RTVSPropertyOp2
 70
     1
102
RTVSPropertyOp3
 70
     1
102
RTVSPropertyOp4
 70
     1
102
RTVSPropertyOp5
 70
     1
102
RTVSPropertyOp6
 70
     1
102
RTVSPropertyOp7
 70
     1
102
RTVSPropertyOp8
 70
     1
102
RTVSPropertyOp9
 70
     1
102
RTVSPropertyOp10
 70
     1
102
RTVSPropertyOp11
 70
     1
102
RTVSPropertyOp12
 70
     1
102
RTVSPropertyOp13
 70
     1
102
RTVSPropertyOp14
 70
     1
102
RTVSPropertyOp15
 70
     1
102
RTVSPropertyOp16
 70
     1
102
RTVSPropertyOp17
 70
     1
102
RTVSPropertyOp18
 70
     1
102
RTVSPropertyOp19
 70
     1
102
RTVSPropertyOp20
 70
     1
102
RTVSPropertyOp21
 70
     1
102
RTVSPropertyOp22
 70
     1
102
RTVSPropertyOp23
 70
     1
102
RTVSPropertyOp24
 70
     1
102
RTVSPropertyOp25
 70
     1
102
RTVSPropertyOp26
 70
     1
102
RTVSPropertyOp27
 70
     1
102
RTVSPropertyOp28
 70
     1
102
RTVSPropertyOp29
 70
     1
102
RTVSPropertyOp30
 70
     1
102
RTVSPropertyOp31
 70
     1
102
RTVSPropertyOp32
 70
     1
  0
XRECORD
  5
276
102
{ACAD_REACTORS
330
275
102
}
330
275
100
AcDbXrecord
280
     1
102
RTVSPropertyOp0
 70
     1
102
RTVSPropertyOp1
 70
     1
102
RTVSPropertyOp2
 70
     1
102
RTVSPropertyOp3
 70
     1
102
RTVSPropertyOp4
 70
     1
102
RTVSPropertyOp5
 70
     1
102
RTVSPropertyOp6
 70
     1
102
RTVSPropertyOp7
 70
     1
102
RTVSPropertyOp8
 70
     1
102
RTVSPropertyOp9
 70
     1
102
RTVSPropertyOp10
 70
     1
102
RTVSPropertyOp11
 70
     1
102
RTVSPropertyOp12
 70
     1
102
RTVSPropertyOp13
 70
     1
102
RTVSPropertyOp14
 70
     1
102
RTVSPropertyOp15
 70
     1
102
RTVSPropertyOp16
 70
     1
102
RTVSPropertyOp17
 70
     1
102
RTVSPropertyOp18
 70
     1
102
RTVSPropertyOp19
 70
     1
102
RTVSPropertyOp20
 70
     1
102
RTVSPropertyOp21
 70
     1
102
RTVSPropertyOp22
 70
     1
102
RTVSPropertyOp23
 70
     1
102
RTVSPropertyOp24
 70
     1
102
RTVSPropertyOp25
 70
     1
102
RTVSPropertyOp26
 70
     1
102
RTVSPropertyOp27
 70
     1
102
RTVSPropertyOp28
 70
     1
102
RTVSPropertyOp29
 70
     1
102
RTVSPropertyOp30
 70
     1
102
RTVSPropertyOp31
 70
     1
102
RTVSPropertyOp32
 70
     1
  0
XRECORD
  5
278
102
{ACAD_REACTORS
330
277
102
}
330
277
100
AcDbXrecord
280
     1
102
RTVSPropertyOp0
 70
     1
102
RTVSPropertyOp1
 70
     1
102
RTVSPropertyOp2
 70
     1
102
RTVSPropertyOp3
 70
     1
102
RTVSPropertyOp4
 70
     1
102
RTVSPropertyOp5
 70
     1
102
RTVSPropertyOp6
 70
     1
102
RTVSPropertyOp7
 70
     1
102
RTVSPropertyOp8
 70
     1
102
RTVSPropertyOp9
 70
     1
102
RTVSPropertyOp10
 70
     1
102
RTVSPropertyOp11
 70
     1
102
RTVSPropertyOp12
 70
     1
102
RTVSPropertyOp13
 70
     1
102
RTVSPropertyOp14
 70
     1
102
RTVSPropertyOp15
 70
     1
102
RTVSPropertyOp16
 70
     1
102
RTVSPropertyOp17
 70
     1
102
RTVSPropertyOp18
 70
     1
102
RTVSPropertyOp19
 70
     1
102
RTVSPropertyOp20
 70
     1
102
RTVSPropertyOp21
 70
     1
102
RTVSPropertyOp22
 70
     1
102
RTVSPropertyOp23
 70
     1
102
RTVSPropertyOp24
 70
     1
102
RTVSPropertyOp25
 70
     1
102
RTVSPropertyOp26
 70
     1
102
RTVSPropertyOp27
 70
     1
102
RTVSPropertyOp28
 70
     1
102
RTVSPropertyOp29
 70
     1
102
RTVSPropertyOp30
 70
     1
102
RTVSPropertyOp31
 70
     1
102
RTVSPropertyOp32
 70
     1
  0
XRECORD
  5
28C
102
{ACAD_REACTORS
330
28B
102
}
330
28B
100
AcDbXrecord
280
     1
102
RTVSPropertyOp0
 70
     1
102
RTVSPropertyOp1
 70
     1
102
RTVSPropertyOp2
 70
     1
102
RTVSPropertyOp3
 70
     1
102
RTVSPropertyOp4
 70
     1
102
RTVSPropertyOp5
 70
     1
102
RTVSPropertyOp6
 70
     1
102
RTVSPropertyOp7
 70
     1
102
RTVSPropertyOp8
 70
     1
102
RTVSPropertyOp9
 70
     1
102
RTVSPropertyOp10
 70
     1
102
RTVSPropertyOp11
 70
     1
102
RTVSPropertyOp12
 70
     1
102
RTVSPropertyOp13
 70
     1
102
RTVSPropertyOp14
 70
     1
102
RTVSPropertyOp15
 70
     1
102
RTVSPropertyOp16
 70
     1
102
RTVSPropertyOp17
 70
     1
102
RTVSPropertyOp18
 70
     1
102
RTVSPropertyOp19
 70
     1
102
RTVSPropertyOp20
 70
     1
102
RTVSPropertyOp21
 70
     1
102
RTVSPropertyOp22
 70
     1
102
RTVSPropertyOp23
 70
     1
102
RTVSPropertyOp24
 70
     1
102
RTVSPropertyOp25
 70
     1
102
RTVSPropertyOp26
 70
     1
102
RTVSPropertyOp27
 70
     1
102
RTVSPropertyOp28
 70
     1
102
RTVSPropertyOp29
 70
     1
102
RTVSPropertyOp30
 70
     1
102
RTVSPropertyOp31
 70
     1
102
RTVSPropertyOp32
 70
     1
  0
XRECORD
  5
282
102
{ACAD_REACTORS
330
281
102
}
330
281
100
AcDbXrecord
280
     1
102
RTVSPropertyOp0
 70
     1
102
RTVSPropertyOp1
 70
     1
102
RTVSPropertyOp2
 70
     1
102
RTVSPropertyOp3
 70
     1
102
RTVSPropertyOp4
 70
     1
102
RTVSPropertyOp5
 70
     1
102
RTVSPropertyOp6
 70
     1
102
RTVSPropertyOp7
 70
     1
102
RTVSPropertyOp8
 70
     1
102
RTVSPropertyOp9
 70
     1
102
RTVSPropertyOp10
 70
     1
102
RTVSPropertyOp11
 70
     1
102
RTVSPropertyOp12
 70
     1
102
RTVSPropertyOp13
 70
     1
102
RTVSPropertyOp14
 70
     1
102
RTVSPropertyOp15
 70
     1
102
RTVSPropertyOp16
 70
     1
102
RTVSPropertyOp17
 70
     1
102
RTVSPropertyOp18
 70
     1
102
RTVSPropertyOp19
 70
     1
102
RTVSPropertyOp20
 70
     1
102
RTVSPropertyOp21
 70
     1
102
RTVSPropertyOp22
 70
     1
102
RTVSPropertyOp23
 70
     1
102
RTVSPropertyOp24
 70
     1
102
RTVSPropertyOp25
 70
     1
102
RTVSPropertyOp26
 70
     1
102
RTVSPropertyOp27
 70
     1
102
RTVSPropertyOp28
 70
     1
102
RTVSPropertyOp29
 70
     1
102
RTVSPropertyOp30
 70
     1
102
RTVSPropertyOp31
 70
     1
102
RTVSPropertyOp32
 70
     1
  0
XRECORD
  5
28A
102
{ACAD_REACTORS
330
289
102
}
330
289
100
AcDbXrecord
280
     1
102
RTVSPropertyOp0
 70
     1
102
RTVSPropertyOp1
 70
     1
102
RTVSPropertyOp2
 70
     1
102
RTVSPropertyOp3
 70
     1
102
RTVSPropertyOp4
 70
     1
102
RTVSPropertyOp5
 70
     1
102
RTVSPropertyOp6
 70
     1
102
RTVSPropertyOp7
 70
     1
102
RTVSPropertyOp8
 70
     1
102
RTVSPropertyOp9
 70
     1
102
RTVSPropertyOp10
 70
     1
102
RTVSPropertyOp11
 70
     1
102
RTVSPropertyOp12
 70
     1
102
RTVSPropertyOp13
 70
     1
102
RTVSPropertyOp14
 70
     1
102
RTVSPropertyOp15
 70
     1
102
RTVSPropertyOp16
 70
     1
102
RTVSPropertyOp17
 70
     1
102
RTVSPropertyOp18
 70
     1
102
RTVSPropertyOp19
 70
     1
102
RTVSPropertyOp20
 70
     1
102
RTVSPropertyOp21
 70
     1
102
RTVSPropertyOp22
 70
     1
102
RTVSPropertyOp23
 70
     1
102
RTVSPropertyOp24
 70
     1
102
RTVSPropertyOp25
 70
     1
102
RTVSPropertyOp26
 70
     1
102
RTVSPropertyOp27
 70
     1
102
RTVSPropertyOp28
 70
     1
102
RTVSPropertyOp29
 70
     1
102
RTVSPropertyOp30
 70
     1
102
RTVSPropertyOp31
 70
     1
102
RTVSPropertyOp32
 70
     1
  0
ENDSEC
  0
EOF
