  0
SECTION
  2
HEADER
  9
$ACADVER
  1
AC1018
  9
$ACADMAINTVER
 70
     0
  9
$DWGCODEPAGE
  3
ANSI_1252
  9
$INSBASE
 10
0.0
 20
0.0
 30
0.0
  9
$EXTMIN
 10
-457.7082196961705
 20
-314.224989179649
 30
0.0
  9
$EXTMAX
 10
-37.70821969617208
 20
-17.22498917964902
 30
0.0
  9
$LIMMIN
 10
0.0
 20
0.0
  9
$LIMMAX
 10
12.0
 20
9.0
  9
$ORTHOMODE
 70
     0
  9
$REGENMODE
 70
     1
  9
$FILLMODE
 70
     1
  9
$QTEXTMODE
 70
     0
  9
$MIRRTEXT
 70
     1
  9
$LTSCALE
 40
1.0
  9
$ATTMODE
 70
     1
  9
$TEXTSIZE
 40
0.2
  9
$TRACEWID
 40
0.05
  9
$TEXTSTYLE
  7
Standard
  9
$CLAYER
  8
0
  9
$CELTYPE
  6
ByLayer
  9
$CECOLOR
 62
   256
  9
$CELTSCALE
 40
1.0
  9
$DISPSILH
 70
     0
  9
$DIMSCALE
 40
1.0
  9
$DIMASZ
 40
0.18
  9
$DIMEXO
 40
0.0625
  9
$DIMDLI
 40
0.38
  9
$DIMRND
 40
0.0
  9
$DIMDLE
 40
0.0
  9
$DIMEXE
 40
0.18
  9
$DIMTP
 40
0.0
  9
$DIMTM
 40
0.0
  9
$DIMTXT
 40
0.18
  9
$DIMCEN
 40
0.09
  9
$DIMTSZ
 40
0.0
  9
$DIMTOL
 70
     0
  9
$DIMLIM
 70
     0
  9
$DIMTIH
 70
     1
  9
$DIMTOH
 70
     1
  9
$DIMSE1
 70
     0
  9
$DIMSE2
 70
     0
  9
$DIMTAD
 70
     0
  9
$DIMZIN
 70
     0
  9
$DIMBLK
  1

  9
$DIMASO
 70
     1
  9
$DIMSHO
 70
     1
  9
$DIMPOST
  1

  9
$DIMAPOST
  1

  9
$DIMALT
 70
     0
  9
$DIMALTD
 70
     2
  9
$DIMALTF
 40
25.4
  9
$DIMLFAC
 40
1.0
  9
$DIMTOFL
 70
     0
  9
$DIMTVP
 40
0.0
  9
$DIMTIX
 70
     0
  9
$DIMSOXD
 70
     0
  9
$DIMSAH
 70
     0
  9
$DIMBLK1
  1

  9
$DIMBLK2
  1

  9
$DIMSTYLE
  2
Standard
  9
$DIMCLRD
 70
     0
  9
$DIMCLRE
 70
     0
  9
$DIMCLRT
 70
     0
  9
$DIMTFAC
 40
1.0
  9
$DIMGAP
 40
0.09
  9
$DIMJUST
 70
     0
  9
$DIMSD1
 70
     0
  9
$DIMSD2
 70
     0
  9
$DIMTOLJ
 70
     1
  9
$DIMTZIN
 70
     0
  9
$DIMALTZ
 70
     0
  9
$DIMALTTZ
 70
     0
  9
$DIMUPT
 70
     0
  9
$DIMDEC
 70
     4
  9
$DIMTDEC
 70
     4
  9
$DIMALTU
 70
     2
  9
$DIMALTTD
 70
     2
  9
$DIMTXSTY
  7
Standard
  9
$DIMAUNIT
 70
     0
  9
$DIMADEC
 70
     0
  9
$DIMALTRND
 40
0.0
  9
$DIMAZIN
 70
     0
  9
$DIMDSEP
 70
    46
  9
$DIMATFIT
 70
     3
  9
$DIMFRAC
 70
     0
  9
$DIMLDRBLK
  1

  9
$DIMLUNIT
 70
     2
  9
$DIMLWD
 70
    -2
  9
$DIMLWE
 70
    -2
  9
$DIMTMOVE
 70
     0
  9
$LUNITS
 70
     2
  9
$LUPREC
 70
     4
  9
$SKETCHINC
 40
0.1
  9
$FILLETRAD
 40
0.5
  9
$AUNITS
 70
     0
  9
$AUPREC
 70
     0
  9
$MENU
  1
.
  9
$ELEVATION
 40
0.0
  9
$PELEVATION
 40
0.0
  9
$THICKNESS
 40
0.0
  9
$LIMCHECK
 70
     0
  9
$CHAMFERA
 40
0.0
  9
$CHAMFERB
 40
0.0
  9
$CHAMFERC
 40
0.0
  9
$CHAMFERD
 40
0.0
  9
$SKPOLY
 70
     0
  9
$TDCREATE
 40
2458968.513161574
  9
$TDUCREATE
 40
2458968.429828241
  9
$TDUPDATE
 40
2458968.513161574
  9
$TDUUPDATE
 40
2458968.429828241
  9
$TDINDWG
 40
0.0000000116
  9
$TDUSRTIMER
 40
0.0000000116
  9
$USRTIMER
 70
     1
  9
$ANGBASE
 50
0.0
  9
$ANGDIR
 70
     0
  9
$PDMODE
 70
     0
  9
$PDSIZE
 40
0.0
  9
$PLINEWID
 40
0.0
  9
$SPLFRAME
 70
     0
  9
$SPLINETYPE
 70
     6
  9
$SPLINESEGS
 70
     8
  9
$HANDSEED
  5
278
  9
$SURFTAB1
 70
     6
  9
$SURFTAB2
 70
     6
  9
$SURFTYPE
 70
     6
  9
$SURFU
 70
     6
  9
$SURFV
 70
     6
  9
$UCSBASE
  2

  9
$UCSNAME
  2

  9
$UCSORG
 10
0.0
 20
0.0
 30
0.0
  9
$UCSXDIR
 10
1.0
 20
0.0
 30
0.0
  9
$UCSYDIR
 10
0.0
 20
1.0
 30
0.0
  9
$UCSORTHOREF
  2

  9
$UCSORTHOVIEW
 70
     0
  9
$UCSORGTOP
 10
0.0
 20
0.0
 30
0.0
  9
$UCSORGBOTTOM
 10
0.0
 20
0.0
 30
0.0
  9
$UCSORGLEFT
 10
0.0
 20
0.0
 30
0.0
  9
$UCSORGRIGHT
 10
0.0
 20
0.0
 30
0.0
  9
$UCSORGFRONT
 10
0.0
 20
0.0
 30
0.0
  9
$UCSORGBACK
 10
0.0
 20
0.0
 30
0.0
  9
$PUCSBASE
  2

  9
$PUCSNAME
  2

  9
$PUCSORG
 10
0.0
 20
0.0
 30
0.0
  9
$PUCSXDIR
 10
1.0
 20
0.0
 30
0.0
  9
$PUCSYDIR
 10
0.0
 20
1.0
 30
0.0
  9
$PUCSORTHOREF
  2

  9
$PUCSORTHOVIEW
 70
     0
  9
$PUCSORGTOP
 10
0.0
 20
0.0
 30
0.0
  9
$PUCSORGBOTTOM
 10
0.0
 20
0.0
 30
0.0
  9
$PUCSORGLEFT
 10
0.0
 20
0.0
 30
0.0
  9
$PUCSORGRIGHT
 10
0.0
 20
0.0
 30
0.0
  9
$PUCSORGFRONT
 10
0.0
 20
0.0
 30
0.0
  9
$PUCSORGBACK
 10
0.0
 20
0.0
 30
0.0
  9
$USERI1
 70
     0
  9
$USERI2
 70
     0
  9
$USERI3
 70
     0
  9
$USERI4
 70
     0
  9
$USERI5
 70
     0
  9
$USERR1
 40
20.1
  9
$USERR2
 40
0.0
  9
$USERR3
 40
0.0
  9
$USERR4
 40
0.0
  9
$USERR5
 40
0.0
  9
$WORLDVIEW
 70
     1
  9
$SHADEDGE
 70
     3
  9
$SHADEDIF
 70
    70
  9
$TILEMODE
 70
     1
  9
$MAXACTVP
 70
    64
  9
$PINSBASE
 10
0.0
 20
0.0
 30
0.0
  9
$PLIMCHECK
 70
     0
  9
$PEXTMIN
 10
1.00000000000000E+20
 20
1.00000000000000E+20
 30
1.00000000000000E+20
  9
$PEXTMAX
 10
-1.00000000000000E+20
 20
-1.00000000000000E+20
 30
-1.00000000000000E+20
  9
$PLIMMIN
 10
0.0
 20
0.0
  9
$PLIMMAX
 10
12.0
 20
9.0
  9
$UNITMODE
 70
     0
  9
$VISRETAIN
 70
     1
  9
$PLINEGEN
 70
     0
  9
$PSLTSCALE
 70
     1
  9
$TREEDEPTH
 70
  3020
  9
$CMLSTYLE
  2
Standard
  9
$CMLJUST
 70
     0
  9
$CMLSCALE
 40
1.0
  9
$PROXYGRAPHICS
 70
     1
  9
$MEASUREMENT
 70
     1
  9
$CELWEIGHT
370
    -1
  9
$ENDCAPS
280
     0
  9
$JOINSTYLE
280
     0
  9
$LWDISPLAY
290
     0
  9
$INSUNITS
 70
     4
  9
$HYPERLINKBASE
  1

  9
$STYLESHEET
  1

  9
$XEDIT
290
     1
  9
$CEPSNTYPE
380
     0
  9
$PSTYLEMODE
290
     1
  9
$FINGERPRINTGUID
  2
{a4273224-adc8-4a4b-8221-c132e34f8d27}
  9
$VERSIONGUID
  2
{FAEB1C32-E019-11D5-929B-00C0DF256EC4}
  9
$EXTNAMES
290
     1
  9
$PSVPSCALE
 40
0.0
  9
$OLESTARTUP
290
     0
  9
$SORTENTS
280
   127
  9
$INDEXCTL
280
     0
  9
$HIDETEXT
280
     1
  9
$XCLIPFRAME
290
     0
  9
$HALOGAP
280
     0
  9
$OBSCOLOR
 70
   257
  9
$OBSLTYPE
280
     0
  9
$INTERSECTIONDISPLAY
280
     0
  9
$INTERSECTIONCOLOR
 70
   257
  9
$DIMASSOC
280
     2
  9
$PROJECTNAME
  1

  0
ENDSEC
  0
SECTION
  2
CLASSES
  0
CLASS
  1
ACDBDICTIONARYWDFLT
  2
AcDbDictionaryWithDefault
  3
ObjectDBX Classes
 90
        0
 91
        3
280
     0
281
     0
  0
CLASS
  1
VISUALSTYLE
  2
AcDbVisualStyle
  3
ObjectDBX Classes
 90
     4095
 91
        3
280
     0
281
     0
  0
CLASS
  1
MATERIAL
  2
AcDbMaterial
  3
ObjectDBX Classes
 90
     1153
 91
        3
280
     0
281
     0
  0
CLASS
  1
SCALE
  2
AcDbScale
  3
ObjectDBX Classes
 90
     1153
 91
        3
280
     0
281
     0
  0
CLASS
  1
TABLESTYLE
  2
AcDbTableStyle
  3
ObjectDBX Classes
 90
     4095
 91
        3
280
     0
281
     0
  0
CLASS
  1
MLEADERSTYLE
  2
AcDbMLeaderStyle
  3
ACDB_MLEADERSTYLE_CLASS
 90
     4095
 91
        3
280
     0
281
     0
  0
CLASS
  1
SUN
  2
AcDbSun
  3
SCENEOE
 90
     1153
 91
        3
280
     0
281
     0
  0
CLASS
  1
DICTIONARYVAR
  2
AcDbDictionaryVar
  3
ObjectDBX Classes
 90
        0
 91
        3
280
     0
281
     0
  0
CLASS
  1
CELLSTYLEMAP
  2
AcDbCellStyleMap
  3
ObjectDBX Classes
 90
     1152
 91
        3
280
     0
281
     0
  0
ENDSEC
  0
SECTION
  2
TABLES
  0
TABLE
  2
VPORT
  5
8
102
{ACAD_XDICTIONARY
360
231
102
}
330
0
100
AcDbSymbolTable
 70
     1
  0
VPORT
  5
29
330
8
100
AcDbSymbolTableRecord
100
AcDbViewportTableRecord
  2
*Active
 70
     0
 10
0.0
 20
0.0
 11
1.0
 21
1.0
 12
-247.7082196961713
 22
-165.724989179649
 13
0.0
 23
0.0
 14
0.5
 24
0.5
 15
0.5
 25
0.5
 16
0.0
 26
0.0
 36
1.0
 17
0.0
 27
0.0
 37
0.0
 40
326.7
 41
1.60267857142857
 42
50.0
 43
0.0
 44
0.0
 50
0.0
 51
0.0
 71
     0
 72
   100
 73
     1
 74
     3
 75
     0
 76
     0
 77
     0
 78
     0
281
     0
 65
     1
110
0.0
120
0.0
130
0.0
111
1.0
121
0.0
131
0.0
112
0.0
122
1.0
132
0.0
 79
     0
146
0.0
  0
ENDTAB
  0
TABLE
  2
LTYPE
  5
5
330
0
100
AcDbSymbolTable
 70
     8
  0
LTYPE
  5
14
330
5
100
AcDbSymbolTableRecord
100
AcDbLinetypeTableRecord
  2
ByBlock
 70
     0
  3

 72
    65
 73
     0
 40
0.0
  0
LTYPE
  5
15
330
5
100
AcDbSymbolTableRecord
100
AcDbLinetypeTableRecord
  2
ByLayer
 70
     0
  3

 72
    65
 73
     0
 40
0.0
  0
LTYPE
  5
16
330
5
100
AcDbSymbolTableRecord
100
AcDbLinetypeTableRecord
  2
Continuous
 70
     0
  3
Solid line
 72
    65
 73
     0
 40
0.0
  0
LTYPE
  5
6E
330
5
100
AcDbSymbolTableRecord
100
AcDbLinetypeTableRecord
  2
DASHED
 70
     0
  3
Dashed
 72
    65
 73
     2
 40
15.0
 49
7.0
 74
     0
 49
-8.0
 74
     0
  0
LTYPE
  5
6F
330
5
100
AcDbSymbolTableRecord
100
AcDbLinetypeTableRecord
  2
DOTTED
 70
     0
  3
Dotted
 72
    65
 73
     2
 40
1.0
 49
0.0
 74
     0
 49
-1.0
 74
     0
  0
LTYPE
  5
70
330
5
100
AcDbSymbolTableRecord
100
AcDbLinetypeTableRecord
  2
DOT_CENTER
 70
     0
  3
Dot_Center
 72
    65
 73
     4
 40
14.0
 49
12.0
 74
     0
 49
-1.0
 74
     0
 49
0.0
 74
     0
 49
-1.0
 74
     0
  0
LTYPE
  5
71
330
5
100
AcDbSymbolTableRecord
100
AcDbLinetypeTableRecord
  2
LONG_DASHED
 70
     0
  3
Long_Dashed
 72
    65
 73
     2
 40
15.0
 49
10.0
 74
     0
 49
-5.0
 74
     0
  0
LTYPE
  5
72
330
5
100
AcDbSymbolTableRecord
100
AcDbLinetypeTableRecord
  2
DASH_CENTER
 70
     0
  3
Dash_Center
 72
    65
 73
     4
 40
14.0
 49
11.0
 74
     0
 49
-1.0
 74
     0
 49
1.0
 74
     0
 49
-1.0
 74
     0
  0
LTYPE
  5
73
330
5
100
AcDbSymbolTableRecord
100
AcDbLinetypeTableRecord
  2
PHANTOM
 70
     0
  3
Phantom
 72
    65
 73
     6
 40
13.0
 49
10.0
 74
     0
 49
-1.0
 74
     0
 49
0.0
 74
     0
 49
-1.0
 74
     0
 49
0.0
 74
     0
 49
-1.0
 74
     0
  0
LTYPE
  5
74
330
5
100
AcDbSymbolTableRecord
100
AcDbLinetypeTableRecord
  2
CENTER_DASH_DASH
 70
     0
  3
Center_Dash_Dash
 72
    65
 73
     6
 40
14.0
 49
9.0
 74
     0
 49
-1.0
 74
     0
 49
1.0
 74
     0
 49
-1.0
 74
     0
 49
1.0
 74
     0
 49
-1.0
 74
     0
  0
ENDTAB
  0
TABLE
  2
LAYER
  5
2
330
0
100
AcDbSymbolTable
 70
     2
  0
LAYER
  5
10
330
2
100
AcDbSymbolTableRecord
100
AcDbLayerTableRecord
  2
0
 70
     0
 62
     7
  6
Continuous
370
    -3
390
F
  0
LAYER
  5
75
330
2
100
AcDbSymbolTableRecord
100
AcDbLayerTableRecord
  2
1
 70
     0
 62
     7
  6
Continuous
370
    -3
390
F
  0
ENDTAB
  0
TABLE
  2
STYLE
  5
3
330
0
100
AcDbSymbolTable
 70
     5
  0
STYLE
  5
11
330
3
100
AcDbSymbolTableRecord
100
AcDbTextStyleTableRecord
  2
Standard
 70
     0
 40
0.0
 41
1.0
 50
0.0
 71
     0
 42
0.2
  3
txt
  4

  0
STYLE
  5
AC
330
3
100
AcDbSymbolTableRecord
100
AcDbTextStyleTableRecord
  2
CONVERTER_11
 70
     0
 40
0.0
 41
0.9
 50
0.0
 71
     0
 42
0.2
  3
txt.shx
  4

  0
STYLE
  5
1EA
330
3
100
AcDbSymbolTableRecord
100
AcDbTextStyleTableRecord
  2
CONVERTER_12
 70
     0
 40
0.0
 41
0.81
 50
0.0
 71
     0
 42
0.2
  3
txt.shx
  4

  0
STYLE
  5
1F0
330
3
100
AcDbSymbolTableRecord
100
AcDbTextStyleTableRecord
  2
CONVERTER_13
 70
     0
 40
0.0
 41
0.72
 50
0.0
 71
     0
 42
0.2
  3
txt.shx
  4

  0
STYLE
  5
1F3
330
3
100
AcDbSymbolTableRecord
100
AcDbTextStyleTableRecord
  2
CONVERTER_14
 70
     0
 40
0.0
 41
0.855
 50
0.0
 71
     0
 42
0.2
  3
txt.shx
  4

  0
ENDTAB
  0
TABLE
  2
VIEW
  5
6
330
0
100
AcDbSymbolTable
 70
     0
  0
ENDTAB
  0
TABLE
  2
UCS
  5
7
330
0
100
AcDbSymbolTable
 70
     0
  0
ENDTAB
  0
TABLE
  2
APPID
  5
9
330
0
100
AcDbSymbolTable
 70
     2
  0
APPID
  5
12
330
9
100
AcDbSymbolTableRecord
100
AcDbRegAppTableRecord
  2
ACAD
 70
     0
  0
APPID
  5
270
330
9
100
AcDbSymbolTableRecord
100
AcDbRegAppTableRecord
  2
ACAD_MLEADERVER
 70
     0
  0
ENDTAB
  0
TABLE
  2
DIMSTYLE
  5
A
330
0
100
AcDbSymbolTable
 70
     5
100
AcDbDimStyleTable
  0
DIMSTYLE
105
27
330
A
100
AcDbSymbolTableRecord
100
AcDbDimStyleTableRecord
  2
Standard
 70
     0
178
     0
340
11
  0
DIMSTYLE
105
B7
102
{ACAD_REACTORS
330
B8
102
}
330
A
100
AcDbSymbolTableRecord
100
AcDbDimStyleTableRecord
  2
ME10_DIM_10
 70
     0
 41
1.75
 42
0.0
 44
0.75
 73
     0
 74
     0
 77
     1
 78
     8
140
1.75
147
0.75
172
     1
173
     1
174
     1
175
     1
176
     2
177
     2
178
     3
340
AC
  0
DIMSTYLE
105
C2
102
{ACAD_REACTORS
330
C3
102
}
330
A
100
AcDbSymbolTableRecord
100
AcDbDimStyleTableRecord
  2
ME10_DIM_11
 70
     0
 41
1.75
 42
0.0
 44
0.75
 73
     0
 74
     0
 77
     1
 78
     8
140
1.75
147
0.75
172
     1
173
     1
174
     1
175
     1
176
     2
177
     2
178
     3
340
AC
  0
DIMSTYLE
105
CD
102
{ACAD_REACTORS
330
CE
102
}
330
A
100
AcDbSymbolTableRecord
100
AcDbDimStyleTableRecord
  2
ME10_DIM_12
 70
     0
 41
1.75
 42
0.0
 44
0.75
 73
     0
 74
     0
 77
     1
 78
     8
140
1.75
147
0.75
172
     1
173
     1
174
     1
175
     1
176
     2
177
     2
178
     3
340
AC
  0
DIMSTYLE
105
D8
102
{ACAD_REACTORS
330
D9
102
}
330
A
100
AcDbSymbolTableRecord
100
AcDbDimStyleTableRecord
  2
ME10_DIM_13
 70
     0
 41
1.75
 42
0.0
 44
0.75
 73
     0
 74
     0
 77
     1
 78
     8
140
1.75
147
0.75
172
     1
173
     1
174
     1
175
     1
176
     2
177
     2
178
     3
340
AC
  0
ENDTAB
  0
TABLE
  2
BLOCK_RECORD
  5
1
330
0
100
AcDbSymbolTable
 70
    13
  0
BLOCK_RECORD
  5
1F
330
1
100
AcDbSymbolTableRecord
100
AcDbBlockTableRecord
  2
*Model_Space
340
22
  0
BLOCK_RECORD
  5
1B
330
1
100
AcDbSymbolTableRecord
100
AcDbBlockTableRecord
  2
*Paper_Space
340
1E
  0
BLOCK_RECORD
  5
23
330
1
100
AcDbSymbolTableRecord
100
AcDbBlockTableRecord
  2
*Paper_Space0
340
26
  0
BLOCK_RECORD
  5
76
330
1
100
AcDbSymbolTableRecord
100
AcDbBlockTableRecord
  2
VS-15-A-GC-ST-ST__1
340
0
102
{BLKREFS
331
7A
102
}
  0
BLOCK_RECORD
  5
79
330
1
100
AcDbSymbolTableRecord
100
AcDbBlockTableRecord
  2
VS-15-A-GC-ST-ST__2
340
0
102
{BLKREFS
331
7E
102
}
  0
BLOCK_RECORD
  5
7D
330
1
100
AcDbSymbolTableRecord
100
AcDbBlockTableRecord
  2
Vordans1
340
0
102
{BLKREFS
331
8D
102
}
  0
BLOCK_RECORD
  5
81
330
1
100
AcDbSymbolTableRecord
100
AcDbBlockTableRecord
  2
_rahmen
340
0
102
{BLKREFS
331
88
102
}
  0
BLOCK_RECORD
  5
84
330
1
100
AcDbSymbolTableRecord
100
AcDbBlockTableRecord
  2
_punkt
340
0
102
{BLKREFS
331
89
102
}
  0
BLOCK_RECORD
  5
87
330
1
100
AcDbSymbolTableRecord
100
AcDbBlockTableRecord
  2
A3I_TD_PRF
340
0
102
{BLKREFS
331
8E
102
}
  0
BLOCK_RECORD
  5
8C
330
1
100
AcDbSymbolTableRecord
100
AcDbBlockTableRecord
  2
1
340
0
102
{BLKREFS
331
91
102
}
  0
BLOCK_RECORD
  5
AE
330
1
100
AcDbSymbolTableRecord
100
AcDbBlockTableRecord
  2
*D8
340
0
  0
BLOCK_RECORD
  5
B9
330
1
100
AcDbSymbolTableRecord
100
AcDbBlockTableRecord
  2
*D9
340
0
  0
BLOCK_RECORD
  5
C4
330
1
100
AcDbSymbolTableRecord
100
AcDbBlockTableRecord
  2
*D10
340
0
  0
BLOCK_RECORD
  5
CF
330
1
100
AcDbSymbolTableRecord
100
AcDbBlockTableRecord
  2
*D11
340
0
  0
BLOCK_RECORD
  5
DA
330
1
100
AcDbSymbolTableRecord
100
AcDbBlockTableRecord
  2
*D12
340
0
102
{BLKREFS
331
E0
102
}
  0
ENDTAB
  0
ENDSEC
  0
SECTION
  2
BLOCKS
  0
BLOCK
  5
20
330
1F
100
AcDbEntity
  8
0
100
AcDbBlockBegin
  2
*Model_Space
 70
     0
 10
0.0
 20
0.0
 30
0.0
  3
*Model_Space
  1

  0
ENDBLK
  5
21
330
1F
100
AcDbEntity
  8
0
100
AcDbBlockEnd
  0
BLOCK
  5
1C
330
1B
100
AcDbEntity
 67
     1
  8
0
100
AcDbBlockBegin
  2
*Paper_Space
 70
     0
 10
0.0
 20
0.0
 30
0.0
  3
*Paper_Space
  1

  0
ENDBLK
  5
1D
330
1B
100
AcDbEntity
 67
     1
  8
0
100
AcDbBlockEnd
  0
BLOCK
  5
24
330
23
100
AcDbEntity
  8
0
100
AcDbBlockBegin
  2
*Paper_Space0
 70
     0
 10
0.0
 20
0.0
 30
0.0
  3
*Paper_Space0
  1

  0
ENDBLK
  5
25
330
23
100
AcDbEntity
  8
0
100
AcDbBlockEnd
  0
BLOCK
  5
77
330
76
100
AcDbEntity
  8
0
100
AcDbBlockBegin
  2
VS-15-A-GC-ST-ST__1
 70
     0
 10
-177.9618081889115
 20
-105.7269480742191
 30
0.0
  3
VS-15-A-GC-ST-ST__1
  1

  0
LINE
  5
92
330
76
100
AcDbEntity
  8
1
  6
DOT_CENTER
 62
     2
100
AcDbLine
 10
-150.8634496199899
 20
-66.22120099872063
 30
0.0
 11
-150.8634496199899
 21
-69.74120099872067
 31
0.0
  0
LINE
  5
93
330
76
100
AcDbEntity
  8
1
  6
DOT_CENTER
 62
     2
100
AcDbLine
 10
-149.1034496199899
 20
-67.98120099872065
 30
0.0
 11
-152.6234496199899
 21
-67.98120099872065
 31
0.0
  0
LINE
  5
94
330
76
100
AcDbEntity
  8
1
  6
DOT_CENTER
 62
     2
100
AcDbLine
 10
-150.8634496199899
 20
-83.8212018712197
 30
0.0
 11
-150.8634496199899
 21
-87.3412001262212
 31
0.0
  0
LINE
  5
95
330
76
100
AcDbEntity
  8
1
  6
DOT_CENTER
 62
     2
100
AcDbLine
 10
-149.1034504924892
 20
-85.58120099872045
 30
0.0
 11
-152.6234487474906
 21
-85.58120099872045
 31
0.0
  0
LINE
  5
96
330
76
100
AcDbEntity
  8
1
  6
DOT_CENTER
 62
     2
100
AcDbLine
 10
-97.96344904748814
 20
-83.82120194993868
 30
0.0
 11
-97.96344904748814
 21
-87.34120004750221
 31
0.0
  0
LINE
  5
97
330
76
100
AcDbEntity
  8
1
  6
DOT_CENTER
 62
     2
100
AcDbLine
 10
-96.20344999870638
 20
-85.58120099872045
 30
0.0
 11
-99.7234480962699
 21
-85.58120099872045
 31
0.0
  0
LINE
  5
98
330
76
100
AcDbEntity
  8
1
  6
DOT_CENTER
 62
     2
100
AcDbLine
 10
-97.96344904748814
 20
-66.22120115615871
 30
0.0
 11
-97.96344904748814
 21
-69.74120084128259
 31
0.0
  0
LINE
  5
99
330
76
100
AcDbEntity
  8
1
  6
DOT_CENTER
 62
     2
100
AcDbLine
 10
-96.2034492049262
 20
-67.98120099872065
 30
0.0
 11
-99.72344889005008
 21
-67.98120099872065
 31
0.0
  0
LINE
  5
9A
330
76
100
AcDbEntity
  8
1
  6
DOT_CENTER
 62
     2
100
AcDbLine
 10
-111.8846970778245
 20
-76.7812005957317
 30
0.0
 11
-148.700204338191
 21
-76.7812005957317
 31
0.0
  0
LINE
  5
9B
330
76
100
AcDbEntity
  8
1
  6
DOT_CENTER
 62
     2
100
AcDbLine
 10
-124.413449333739
 20
-86.2684953221295
 30
0.0
 11
-124.413449333739
 21
-67.092662839537
 31
0.0
  0
LINE
  5
9C
330
76
100
AcDbEntity
  8
0
  6
Continuous
 62
     7
100
AcDbLine
 10
-147.413449333739
 20
-85.5812005957317
 30
0.0
 11
-147.413449333739
 21
-67.9812005957317
 31
0.0
  0
LINE
  5
9D
330
76
100
AcDbEntity
  8
0
  6
Continuous
 62
     7
100
AcDbLine
 10
-101.413449333739
 20
-67.9812005957317
 30
0.0
 11
-147.413449333739
 21
-67.9812005957317
 31
0.0
  0
LINE
  5
9E
330
76
100
AcDbEntity
  8
0
  6
Continuous
 62
     7
100
AcDbLine
 10
-101.413449333739
 20
-85.5812005957317
 30
0.0
 11
-101.413449333739
 21
-67.9812005957317
 31
0.0
  0
LINE
  5
9F
330
76
100
AcDbEntity
  8
0
  6
Continuous
 62
     7
100
AcDbLine
 10
-101.413449333739
 20
-85.5812005957317
 30
0.0
 11
-147.413449333739
 21
-85.5812005957317
 31
0.0
  0
ARC
  5
A0
330
76
100
AcDbEntity
  8
0
  6
Continuous
 62
     7
100
AcDbCircle
 10
-97.96344904748814
 20
-85.58120099872045
 30
0.0
 40
1.600000000000009
100
AcDbArc
 50
270.0
 51
284.4775372927356
  0
ARC
  5
A1
330
76
100
AcDbEntity
  8
0
  6
Continuous
 62
     7
100
AcDbCircle
 10
-97.96344904748814
 20
-85.58120099872045
 30
0.0
 40
1.600000000000003
100
AcDbArc
 50
284.4775372927356
 51
270.0
  0
ARC
  5
A2
330
76
100
AcDbEntity
  8
0
  6
Continuous
 62
     7
100
AcDbCircle
 10
-97.96344904748814
 20
-67.98120099872065
 30
0.0
 40
1.600000000000009
100
AcDbArc
 50
284.4775135092783
 51
75.52248649072173
  0
ARC
  5
A3
330
76
100
AcDbEntity
  8
0
  6
Continuous
 62
     7
100
AcDbCircle
 10
-97.96344904748814
 20
-67.98120099872065
 30
0.0
 40
1.600000000000009
100
AcDbArc
 50
75.52248649072173
 51
284.4775135092783
  0
ARC
  5
A4
330
76
100
AcDbEntity
  8
0
  6
Continuous
 62
     7
100
AcDbCircle
 10
-150.8634496199899
 20
-67.98120099872065
 30
0.0
 40
1.600000000000042
100
AcDbArc
 50
104.477512185934
 51
255.5224878140661
  0
ARC
  5
A5
330
76
100
AcDbEntity
  8
0
  6
Continuous
 62
     7
100
AcDbCircle
 10
-150.8634496199899
 20
-67.98120099872065
 30
0.0
 40
1.600000000000042
100
AcDbArc
 50
255.5224878140661
 51
90.0
  0
ARC
  5
A6
330
76
100
AcDbEntity
  8
0
  6
Continuous
 62
     7
100
AcDbCircle
 10
-150.8634496199899
 20
-67.98120099872065
 30
0.0
 40
1.600000000000023
100
AcDbArc
 50
90.0
 51
104.477512185934
  0
ARC
  5
A7
330
76
100
AcDbEntity
  8
0
  6
Continuous
 62
     7
100
AcDbCircle
 10
-150.8634496199899
 20
-85.58120099872045
 30
0.0
 40
1.600000000000023
100
AcDbArc
 50
255.5224842063247
 51
270.0
  0
ARC
  5
A8
330
76
100
AcDbEntity
  8
0
  6
Continuous
 62
     7
100
AcDbCircle
 10
-150.8634496199899
 20
-85.58120099872045
 30
0.0
 40
1.600000000000023
100
AcDbArc
 50
270.0
 51
255.5224842063247
  0
SPLINE
  5
A9
330
76
100
AcDbEntity
  8
0
  6
Continuous
 62
     7
100
AcDbSpline
210
0.0
220
0.0
230
1.0
 70
  1064
 71
     3
 72
    15
 73
    11
 74
     9
 42
0.000000001
 43
0.0000000001
 44
0.00000001
 40
0.0
 40
0.0
 40
0.0
 40
0.0
 40
15.10844756165752
 40
31.76682387201867
 40
44.1382492086237
 40
55.88993617483111
 40
68.86321883598454
 40
82.3620821696723
 40
94.0754702606169
 40
106.2431028511751
 40
106.2431028511751
 40
106.2431028511751
 40
106.2431028511751
 10
-80.6813592252768
 20
-62.83598650298825
 30
0.0
 10
-82.75326975458034
 20
-57.58680061944118
 30
0.0
 10
-87.10964168758247
 20
-46.54993116477272
 30
0.0
 10
-104.3338634612526
 20
-49.35069061077318
 30
0.0
 10
-117.4158485911816
 20
-49.37103824302143
 30
0.0
 10
-129.8587420100258
 20
-49.7353046469511
 30
0.0
 10
-142.728085306712
 20
-49.97185517789355
 30
0.0
 10
-154.8340156746127
 20
-50.33325599600661
 30
0.0
 10
-169.3996539598216
 20
-48.83736375195068
 30
0.0
 10
-171.8669171830751
 20
-57.56756687556361
 30
0.0
 10
-173.1240138896208
 20
-62.0156976917818
 30
0.0
 11
-80.6813592252768
 21
-62.83598650298825
 31
0.0
 11
-88.7157605933433
 21
-50.04092565539758
 31
0.0
 11
-105.3428793330299
 21
-49.02091390126749
 31
0.0
 11
-117.7075232130669
 21
-49.43048264987267
 31
0.0
 11
-129.4560492969396
 21
-49.70302876990208
 31
0.0
 11
-142.4261702522054
 21
-49.98942951561866
 31
0.0
 11
-155.9250332311102
 21
-49.99252048540069
 31
0.0
 11
-167.5774841096857
 21
-51.18577202167858
 31
0.0
 11
-173.1240138896208
 21
-62.0156976917818
 31
0.0
  0
SPLINE
  5
AA
330
76
100
AcDbEntity
  8
0
  6
Continuous
 62
     7
100
AcDbSpline
210
0.0
220
0.0
230
1.0
 70
  1064
 71
     3
 72
     9
 73
     5
 74
     3
 42
0.000000001
 43
0.0000000001
 44
0.00000001
 40
0.0
 40
0.0
 40
0.0
 40
0.0
 40
1.110612121264207
 40
2.221457468786133
 40
2.221457468786133
 40
2.221457468786133
 40
2.221457468786133
 10
-81.21320645666698
 20
-64.86651642490008
 30
0.0
 10
-80.94869784476559
 20
-64.57420370653134
 30
0.0
 10
-80.41962509118852
 20
-63.98951687720692
 30
0.0
 10
-80.59410840167953
 20
-63.22052353991598
 30
0.0
 10
-80.6813592252768
 20
-62.83598650298825
 30
0.0
 11
-81.21320645666698
 21
-64.86651642490008
 31
0.0
 11
-80.5955327132794
 21
-63.94351131229195
 31
0.0
 11
-80.6813592252768
 21
-62.83598650298825
 31
0.0
  0
SPLINE
  5
AB
330
76
100
AcDbEntity
  8
0
  6
Continuous
 62
     7
100
AcDbSpline
210
0.0
220
0.0
230
1.0
 70
  1064
 71
     3
 72
    27
 73
    23
 74
    21
 42
0.000000001
 43
0.0000000001
 44
0.00000001
 40
0.0
 40
0.0
 40
0.0
 40
0.0
 40
5.062011449348313
 40
10.23892745959454
 40
18.83856857645179
 40
27.13053683893967
 40
34.29854099869669
 40
39.9999580633412
 40
45.98042309473225
 40
54.26715706330832
 40
67.55238332512813
 40
79.31232984819746
 40
94.21841915690271
 40
109.4921849259631
 40
117.8948789514771
 40
126.5455848368791
 40
135.2092546734075
 40
142.6122653987688
 40
149.2636526792135
 40
157.3560336127327
 40
165.3704448519975
 40
172.9103791481918
 40
172.9103791481918
 40
172.9103791481918
 40
172.9103791481918
 10
-173.1240138896208
 20
-62.0156976917818
 30
0.0
 10
-173.4107510017667
 20
-63.68210202951818
 30
0.0
 10
-173.9907339785343
 20
-67.05273706336797
 30
0.0
 10
-173.5917736060198
 20
-73.39638526448668
 30
0.0
 10
-171.4135966197401
 20
-80.36829720039506
 30
0.0
 10
-170.5717935262569
 20
-88.71575703000698
 30
0.0
 10
-173.1017007918759
 20
-94.99083583221261
 30
0.0
 10
-174.8517276242756
 20
-102.2483756024018
 30
0.0
 10
-167.2877640141034
 20
-105.1224294797135
 30
0.0
 10
-158.5294036491703
 20
-105.0724120228565
 30
0.0
 10
-147.230693383574
 20
-104.7164712966455
 30
0.0
 10
-134.0499277231122
 20
-103.1547038455678
 30
0.0
 10
-120.0520450544313
 20
-102.598363921671
 30
0.0
 10
-107.178358384372
 20
-102.9916304417007
 30
0.0
 10
-96.47917892790959
 20
-104.2526620596056
 30
0.0
 10
-87.77915986554369
 20
-103.3936577570614
 30
0.0
 10
-80.29206770993844
 20
-100.0731312815826
 30
0.0
 10
-74.2209695486933
 20
-94.14813739786877
 30
0.0
 10
-76.15724713658811
 20
-86.21228096463881
 30
0.0
 10
-79.86233656044848
 20
-79.92985524991187
 30
0.0
 10
-83.80742499204786
 20
-72.45208948945074
 30
0.0
 10
-82.06017970461237
 20
-67.34309170439987
 30
0.0
 10
-81.21320645666698
 20
-64.86651642490008
 30
0.0
 11
-173.1240138896208
 21
-62.0156976917818
 31
0.0
 11
-173.7894658694549
 21
-67.03377836835118
 31
0.0
 11
-173.513449333739
 21
-72.20333098342144
 31
0.0
 11
-171.6621708705067
 21
-80.60134237790939
 31
0.0
 11
-171.2197751430354
 21
-88.88150081352669
 31
0.0
 11
-173.170386617558
 21
-95.77899300367706
 31
0.0
 11
-173.5134493337391
 21
-101.4700794125006
 31
0.0
 11
-168.3140616995522
 21
-104.4251310610022
 31
0.0
 11
-160.051168771427
 21
-105.0532714843743
 31
0.0
 11
-146.7774701871179
 21
-104.4999515076483
 31
0.0
 11
-135.0679907009338
 21
-103.4116351962265
 31
0.0
 11
-120.1754624823251
 21
-102.7759452268737
 31
0.0
 11
-104.9123230629115
 21
-103.3455905940315
 31
0.0
 11
-96.53090661520926
 21
-103.9431901393795
 31
0.0
 11
-87.93650310801482
 21
-102.9578269242152
 31
0.0
 11
-80.07685102649603
 21
-99.31296146809824
 31
0.0
 11
-75.40311375185368
 21
-93.57181631267451
 31
0.0
 11
-76.25743106215872
 21
-86.97552230037425
 31
0.0
 11
-79.8914230324267
 21
-79.7449807207737
 31
0.0
 11
-82.7337835386115
 21
-72.25153196517996
 31
0.0
 11
-81.21320645666698
 21
-64.86651642490008
 31
0.0
  0
ENDBLK
  5
78
330
76
100
AcDbEntity
  8
0
100
AcDbBlockEnd
  0
BLOCK
  5
7B
330
79
100
AcDbEntity
  8
0
100
AcDbBlockBegin
  2
VS-15-A-GC-ST-ST__2
 70
     0
 10
-177.9618081889115
 20
-105.7269480742191
 30
0.0
  3
VS-15-A-GC-ST-ST__2
  1

  0
INSERT
  5
7A
330
79
100
AcDbEntity
  8
0
100
AcDbBlockReference
  2
VS-15-A-GC-ST-ST__1
 10
-177.9618081889115
 20
-105.7269480742191
 30
0.0
  0
ENDBLK
  5
7C
330
79
100
AcDbEntity
  8
0
100
AcDbBlockEnd
  0
BLOCK
  5
7F
330
7D
100
AcDbEntity
  8
0
100
AcDbBlockBegin
  2
Vordans1
 70
     0
 10
-124.500001
 20
-79.0
 30
0.0
  3
Vordans1
  1

  0
INSERT
  5
7E
330
7D
100
AcDbEntity
  8
0
100
AcDbBlockReference
  2
VS-15-A-GC-ST-ST__2
 10
-177.9618081889115
 20
-105.7269480742191
 30
0.0
  0
MTEXT
  5
AD
330
7D
100
AcDbEntity
  8
1
 62
     6
100
AcDbMText
 10
-124.4999999999991
 20
-107.5567512512203
 30
0.0
 40
2.5
 41
0.0
 71
     2
 72
     1
  1
 
  7
CONVERTER_11
 73
     1
 44
1.32052821128451
  0
DIMENSION
  5
B8
330
7D
100
AcDbEntity
  8
1
100
AcDbDimension
  2
*D8
 10
-147.413449333739
 20
-93.9812005957317
 30
0.0
 11
-124.4134493207277
 21
-92.3562005957317
 31
0.0
 70
    33
  1
<>
 71
     5
 42
-1.0
 53
0.00013888888889
  3
ME10_DIM_10
100
AcDbAlignedDimension
 13
-101.413449333739
 23
-67.9812005957317
 33
0.0
 14
-147.413449333739
 24
-67.9812005957317
 34
0.0
  0
DIMENSION
  5
C3
330
7D
100
AcDbEntity
  8
1
100
AcDbDimension
  2
*D9
 10
-150.8634496199899
 20
-60.48120059573171
 30
0.0
 11
-125.9134493207277
 21
-58.76870059573171
 31
0.0
 70
    32
  1
<>
 71
     5
 42
-1.0
 53
0.00013888888889
  3
ME10_DIM_11
100
AcDbAlignedDimension
 13
-97.96344904748814
 23
-66.22120115615871
 33
0.0
 14
-150.8634496199899
 24
-66.38120099872063
 34
0.0
100
AcDbRotatedDimension
  0
DIMENSION
  5
CE
330
7D
100
AcDbEntity
  8
1
100
AcDbDimension
  2
*D10
 10
-89.3339970517655
 20
-67.98120099872065
 30
0.0
 11
-91.0464970517655
 21
-76.556330100545
 31
0.0
 70
    32
  1
<>
 71
     5
 42
-1.0
 53
90.0
  3
ME10_DIM_12
100
AcDbAlignedDimension
 13
-96.20344999870638
 23
-85.58120099872045
 33
0.0
 14
-96.2034492049262
 24
-67.98120099872065
 34
0.0
 50
90.0
100
AcDbRotatedDimension
  0
DIMENSION
  5
D9
330
7D
100
AcDbEntity
  8
1
100
AcDbDimension
  2
*D11
 10
-107.690267245651
 20
-85.5812005957317
 30
0.0
 11
-109.402767245651
 21
-77.3573869920945
 31
0.0
 70
    32
  1
<>
 71
     5
 42
-1.0
 53
90.0
  3
ME10_DIM_13
100
AcDbAlignedDimension
 13
-101.413449333739
 23
-67.9812005957317
 33
0.0
 14
-101.413449333739
 24
-85.5812005957317
 34
0.0
 50
90.0
100
AcDbRotatedDimension
  0
INSERT
  5
E0
330
7D
100
AcDbEntity
  8
1
100
AcDbBlockReference
  2
*D12
 10
0.0
 20
0.0
 30
0.0
  0
ENDBLK
  5
80
330
7D
100
AcDbEntity
  8
0
100
AcDbBlockEnd
  0
BLOCK
  5
82
330
81
100
AcDbEntity
  8
0
100
AcDbBlockBegin
  2
_rahmen
 70
     0
 10
-42.70821969616969
 20
-314.224989179649
 30
0.0
  3
_rahmen
  1

  0
POINT
  5
E1
330
81
100
AcDbEntity
  8
1
 62
     3
 60
     1
100
AcDbPoint
 10
-42.70821969616975
 20
-309.2249891796495
 30
0.0
  0
LINE
  5
E2
330
81
100
AcDbEntity
  8
1
  6
Continuous
 62
     6
100
AcDbLine
 10
-42.70821969617015
 20
-300.7249891796496
 30
0.0
 11
-42.70821969616975
 21
-309.2249891796495
 31
0.0
  0
LINE
  5
E3
330
81
100
AcDbEntity
  8
1
  6
Continuous
 62
     6
100
AcDbLine
 10
-42.7082196961679
 20
-283.7249891796496
 30
0.0
 11
-42.70821969617015
 21
-300.7249891796496
 31
0.0
  0
LINE
  5
E4
330
81
100
AcDbEntity
  8
1
  6
Continuous
 62
     6
100
AcDbLine
 10
-135.8530242229197
 20
-309.2249891796496
 30
0.0
 11
-42.70821969616975
 21
-309.2249891796495
 31
0.0
  0
LINE
  5
E5
330
81
100
AcDbEntity
  8
1
  6
Continuous
 62
     7
100
AcDbLine
 10
-79.8266279778472
 20
-292.2249891796496
 30
0.0
 11
-79.8266279778472
 21
-300.7249891796496
 31
0.0
  0
LINE
  5
E6
330
81
100
AcDbEntity
  8
1
  6
Continuous
 62
     6
100
AcDbLine
 10
-42.70821969617015
 20
-300.7249891796496
 30
0.0
 11
-135.8530242229197
 21
-300.7249891796496
 31
0.0
  0
LINE
  5
E7
330
81
100
AcDbEntity
  8
1
  6
Continuous
 62
     7
100
AcDbLine
 10
-79.8266279778472
 20
-283.7249891796496
 30
0.0
 11
-79.8266279778472
 21
-292.2249891796496
 31
0.0
  0
LINE
  5
E8
330
81
100
AcDbEntity
  8
1
  6
Continuous
 62
     6
100
AcDbLine
 10
-42.70821969616975
 20
-251.8249891796489
 30
0.0
 11
-42.7082196961679
 21
-283.7249891796496
 31
0.0
  0
LINE
  5
E9
330
81
100
AcDbEntity
  8
1
  6
DOT_CENTER
 62
     2
100
AcDbLine
 10
-168.2663693363571
 20
-288.0999891796497
 30
0.0
 11
-162.7663693363571
 21
-288.0999891796497
 31
0.0
  0
LINE
  5
EA
330
81
100
AcDbEntity
  8
1
  6
PHANTOM
 62
     2
100
AcDbLine
 10
-159.5163693363571
 20
-285.3499891796496
 30
0.0
 11
-159.5163693363571
 21
-290.8499891796496
 31
0.0
  0
LINE
  5
EB
330
81
100
AcDbEntity
  8
1
  6
PHANTOM
 62
     2
100
AcDbLine
 10
-156.7663693363571
 20
-288.0999891796497
 30
0.0
 11
-162.2663693363571
 21
-288.0999891796497
 31
0.0
  0
LINE
  5
EC
330
81
100
AcDbEntity
  8
1
  6
Continuous
 62
     6
100
AcDbLine
 10
-172.2530242229196
 20
-283.7249891796496
 30
0.0
 11
-42.7082196961679
 21
-283.7249891796496
 31
0.0
  0
LINE
  5
ED
330
81
100
AcDbEntity
  8
1
  6
Continuous
 62
     7
100
AcDbLine
 10
-154.0530242229197
 20
-304.9749891796495
 30
0.0
 11
-135.8530242229197
 21
-304.9749891796495
 31
0.0
  0
LINE
  5
EE
330
81
100
AcDbEntity
  8
1
  6
Continuous
 62
     6
100
AcDbLine
 10
-154.0530242229197
 20
-309.2249891796495
 30
0.0
 11
-172.2530242229196
 21
-309.2249891796496
 31
0.0
  0
LINE
  5
EF
330
81
100
AcDbEntity
  8
1
  6
Continuous
 62
     7
100
AcDbLine
 10
-154.0530242229197
 20
-304.9749891796495
 30
0.0
 11
-154.0530242229197
 21
-309.2249891796495
 31
0.0
  0
LINE
  5
F0
330
81
100
AcDbEntity
  8
1
  6
Continuous
 62
     6
100
AcDbLine
 10
-135.8530242229197
 20
-304.9749891796495
 30
0.0
 11
-135.8530242229197
 21
-309.2249891796496
 31
0.0
  0
LINE
  5
F1
330
81
100
AcDbEntity
  8
1
  6
Continuous
 62
     6
100
AcDbLine
 10
-172.2530242229196
 20
-304.9749891796496
 30
0.0
 11
-172.2530242229196
 21
-309.2249891796496
 31
0.0
  0
LINE
  5
F2
330
81
100
AcDbEntity
  8
1
  6
Continuous
 62
     7
100
AcDbLine
 10
-172.2530242229196
 20
-304.9749891796496
 30
0.0
 11
-154.0530242229197
 21
-304.9749891796495
 31
0.0
  0
LINE
  5
F3
330
81
100
AcDbEntity
  8
1
  6
Continuous
 62
     2
100
AcDbLine
 10
-163.0163693363571
 20
-285.5999891796497
 30
0.0
 11
-163.0163693363571
 21
-290.5999891796497
 31
0.0
  0
LINE
  5
F4
330
81
100
AcDbEntity
  8
1
  6
Continuous
 62
     2
100
AcDbLine
 10
-163.0163693363571
 20
-290.5999891796497
 30
0.0
 11
-168.0163693363571
 21
-289.3499891796497
 31
0.0
  0
LINE
  5
F5
330
81
100
AcDbEntity
  8
1
  6
Continuous
 62
     2
100
AcDbLine
 10
-168.0163693363571
 20
-289.3499891796497
 30
0.0
 11
-168.0163693363571
 21
-286.8499891796497
 31
0.0
  0
LINE
  5
F6
330
81
100
AcDbEntity
  8
1
  6
Continuous
 62
     2
100
AcDbLine
 10
-168.0163693363571
 20
-286.8499891796497
 30
0.0
 11
-163.0163693363571
 21
-285.5999891796497
 31
0.0
  0
LINE
  5
F7
330
81
100
AcDbEntity
  8
1
  6
Continuous
 62
     6
100
AcDbLine
 10
-135.8530242229197
 20
-309.2249891796496
 30
0.0
 11
-136.2082196961697
 21
-309.2249891796495
 31
0.0
  0
LINE
  5
F8
330
81
100
AcDbEntity
  8
1
  6
Continuous
 62
     6
100
AcDbLine
 10
-135.8530242229197
 20
-292.2249891796496
 30
0.0
 11
-135.8530242229197
 21
-304.9749891796495
 31
0.0
  0
LINE
  5
F9
330
81
100
AcDbEntity
  8
1
  6
Continuous
 62
     6
100
AcDbLine
 10
-172.2530242229196
 20
-292.2249891796496
 30
0.0
 11
-172.2530242229196
 21
-304.9749891796496
 31
0.0
  0
LINE
  5
FA
330
81
100
AcDbEntity
  8
1
  6
Continuous
 62
     7
100
AcDbLine
 10
-172.2530242229196
 20
-292.2249891796496
 30
0.0
 11
-135.8530242229197
 21
-292.2249891796496
 31
0.0
  0
LINE
  5
FB
330
81
100
AcDbEntity
  8
1
  6
Continuous
 62
     6
100
AcDbLine
 10
-136.2082196961697
 20
-309.2249891796495
 30
0.0
 11
-154.0530242229197
 21
-309.2249891796495
 31
0.0
  0
LINE
  5
FC
102
{ACAD_REACTORS
330
220
330
221
102
}
330
81
100
AcDbEntity
  8
0
  6
Continuous
 62
     2
100
AcDbLine
 10
-164.7383982807728
 20
-297.1524744234375
 30
0.0
 11
-164.7383982807728
 21
-296.5469391349307
 31
0.0
  0
LINE
  5
FD
102
{ACAD_REACTORS
330
220
330
221
102
}
330
81
100
AcDbEntity
  8
0
  6
Continuous
 62
     2
100
AcDbLine
 10
-164.7383982807728
 20
-299.9526090300687
 30
0.0
 11
-164.7383982807728
 21
-299.3707576233736
 31
0.0
  0
LINE
  5
FE
102
{ACAD_REACTORS
330
222
330
223
102
}
330
81
100
AcDbEntity
  8
0
  6
Continuous
 62
     2
100
AcDbLine
 10
-142.1089118452937
 20
-299.6629449619458
 30
0.0
 11
-142.1089118452937
 21
-301.9314891796332
 31
0.0
  0
LINE
  5
FF
102
{ACAD_REACTORS
330
222
330
223
102
}
330
81
100
AcDbEntity
  8
0
  6
Continuous
 62
     2
100
AcDbLine
 10
-143.4899656242812
 20
-298.8776796558227
 30
0.0
 11
-140.1050201056526
 21
-298.8776796558221
 31
0.0
  0
LINE
  5
100
102
{ACAD_REACTORS
330
222
330
223
102
}
330
81
100
AcDbEntity
  8
0
  6
Continuous
 62
     2
100
AcDbLine
 10
-140.1050201056526
 20
-299.6629449619458
 30
0.0
 11
-140.1050201056526
 21
-298.8776796558221
 31
0.0
  0
LINE
  5
101
102
{ACAD_REACTORS
330
222
330
223
102
}
330
81
100
AcDbEntity
  8
0
  6
Continuous
 62
     2
100
AcDbLine
 10
-140.916119143126
 20
-299.6629449619458
 30
0.0
 11
-140.1050201056526
 21
-299.6629449619458
 31
0.0
  0
LINE
  5
102
102
{ACAD_REACTORS
330
222
330
223
102
}
330
81
100
AcDbEntity
  8
0
  6
Continuous
 62
     2
100
AcDbLine
 10
-140.916119143126
 20
-301.9314891796332
 30
0.0
 11
-140.916119143126
 21
-299.6629449619458
 31
0.0
  0
LINE
  5
103
102
{ACAD_REACTORS
330
222
330
223
102
}
330
81
100
AcDbEntity
  8
0
  6
Continuous
 62
     2
100
AcDbLine
 10
-142.1089118452937
 20
-301.9314891796332
 30
0.0
 11
-140.916119143126
 21
-301.9314891796332
 31
0.0
  0
LINE
  5
104
102
{ACAD_REACTORS
330
218
330
219
102
}
330
81
100
AcDbEntity
  8
0
  6
Continuous
 62
     2
100
AcDbLine
 10
-142.8055027833582
 20
-295.5184891796478
 30
0.0
 11
-144.2082270011074
 21
-295.5184891796478
 31
0.0
  0
LINE
  5
105
102
{ACAD_REACTORS
330
218
330
219
102
}
330
81
100
AcDbEntity
  8
0
  6
Continuous
 62
     2
100
AcDbLine
 10
-142.8055027833582
 20
-295.5184891796478
 30
0.0
 11
-142.2043352614663
 21
-296.1983125012033
 31
0.0
  0
LINE
  5
106
102
{ACAD_REACTORS
330
218
330
219
102
}
330
81
100
AcDbEntity
  8
0
  6
Continuous
 62
     2
100
AcDbLine
 10
-142.2043352614663
 20
-296.1983125012033
 30
0.0
 11
-141.6031677395735
 21
-295.5184891796478
 31
0.0
  0
LINE
  5
107
102
{ACAD_REACTORS
330
218
330
219
102
}
330
81
100
AcDbEntity
  8
0
  6
Continuous
 62
     2
100
AcDbLine
 10
-141.5029731525929
 20
-296.991439709684
 30
0.0
 11
-140.2004435218263
 21
-295.5184891796478
 31
0.0
  0
LINE
  5
108
102
{ACAD_REACTORS
330
218
330
219
102
}
330
81
100
AcDbEntity
  8
0
  6
Continuous
 62
     2
100
AcDbLine
 10
-141.5029731525929
 20
-296.991439709684
 30
0.0
 11
-140.1050201056526
 21
-298.5722987034589
 31
0.0
  0
LINE
  5
109
102
{ACAD_REACTORS
330
218
330
219
102
}
330
81
100
AcDbEntity
  8
0
  6
Continuous
 62
     2
100
AcDbLine
 10
-141.5077443234009
 20
-298.5722987034589
 30
0.0
 11
-140.1050201056526
 21
-298.5722987034589
 31
0.0
  0
LINE
  5
10A
102
{ACAD_REACTORS
330
218
330
219
102
}
330
81
100
AcDbEntity
  8
0
  6
Continuous
 62
     2
100
AcDbLine
 10
-142.2043352614663
 20
-297.7845669181652
 30
0.0
 11
-141.5077443234009
 21
-298.5722987034589
 31
0.0
  0
LINE
  5
10B
102
{ACAD_REACTORS
330
216
330
217
102
}
330
81
100
AcDbEntity
  8
0
  6
Continuous
 62
     2
100
AcDbLine
 10
-145.66343409775
 20
-295.5184891796478
 30
0.0
 11
-144.4229296874971
 21
-295.5184891796478
 31
0.0
  0
LINE
  5
10C
102
{ACAD_REACTORS
330
216
330
217
102
}
330
81
100
AcDbEntity
  8
0
  6
Continuous
 62
     2
100
AcDbLine
 10
-144.4229296874971
 20
-295.5184891796478
 30
0.0
 11
-144.4229296874971
 21
-298.5722987034589
 31
0.0
  0
LINE
  5
10D
102
{ACAD_REACTORS
330
216
330
217
102
}
330
81
100
AcDbEntity
  8
0
  6
Continuous
 62
     2
100
AcDbLine
 10
-145.66343409775
 20
-298.5722987034589
 30
0.0
 11
-145.66343409775
 21
-295.5184891796478
 31
0.0
  0
LINE
  5
10E
102
{ACAD_REACTORS
330
214
330
215
102
}
330
81
100
AcDbEntity
  8
0
  6
Continuous
 62
     2
100
AcDbLine
 10
-147.1317441802876
 20
-300.7099653701088
 30
0.0
 11
-146.8315789430953
 21
-299.9421504041221
 31
0.0
  0
LINE
  5
10F
102
{ACAD_REACTORS
330
214
330
215
102
}
330
81
100
AcDbEntity
  8
0
  6
Continuous
 62
     2
100
AcDbLine
 10
-147.6092797849085
 20
-301.9314891796332
 30
0.0
 11
-147.3977997314327
 21
-301.3905286354154
 31
0.0
  0
LINE
  5
110
102
{ACAD_REACTORS
330
214
330
215
102
}
330
81
100
AcDbEntity
  8
0
  6
Continuous
 62
     2
100
AcDbLine
 10
-147.4518311482222
 20
-298.8776796558221
 30
0.0
 11
-148.8497841951614
 21
-301.9314891796332
 31
0.0
  0
LINE
  5
111
102
{ACAD_REACTORS
330
214
330
215
102
}
330
81
100
AcDbEntity
  8
0
  6
Continuous
 62
     2
100
AcDbLine
 10
-144.8133736910291
 20
-301.9314891796332
 30
0.0
 11
-146.053878101283
 21
-301.9314891796332
 31
0.0
  0
LINE
  5
112
102
{ACAD_REACTORS
330
214
330
215
102
}
330
81
100
AcDbEntity
  8
0
  6
Continuous
 62
     2
100
AcDbLine
 10
-147.3977997314327
 20
-301.3905286354154
 30
0.0
 11
-146.2653581547588
 21
-301.3905286354154
 31
0.0
  0
LINE
  5
113
102
{ACAD_REACTORS
330
212
330
213
102
}
330
81
100
AcDbEntity
  8
0
  6
Continuous
 62
     2
100
AcDbLine
 10
-151.0072963343437
 20
-299.6629449619458
 30
0.0
 11
-150.196197296869
 21
-299.6629449619458
 31
0.0
  0
LINE
  5
114
102
{ACAD_REACTORS
330
212
330
213
102
}
330
81
100
AcDbEntity
  8
0
  6
Continuous
 62
     2
100
AcDbLine
 10
-148.19230555723
 20
-298.8776796558221
 30
0.0
 11
-151.0072963343437
 21
-298.8776796558221
 31
0.0
  0
LINE
  5
115
102
{ACAD_REACTORS
330
212
330
213
102
}
330
81
100
AcDbEntity
  8
0
  6
Continuous
 62
     2
100
AcDbLine
 10
-148.19230555723
 20
-299.6629449619458
 30
0.0
 11
-148.19230555723
 21
-298.8776796558221
 31
0.0
  0
LINE
  5
116
102
{ACAD_REACTORS
330
212
330
213
102
}
330
81
100
AcDbEntity
  8
0
  6
Continuous
 62
     2
100
AcDbLine
 10
-149.0034045947026
 20
-299.6629449619458
 30
0.0
 11
-148.19230555723
 21
-299.6629449619458
 31
0.0
  0
LINE
  5
117
102
{ACAD_REACTORS
330
212
330
213
102
}
330
81
100
AcDbEntity
  8
0
  6
Continuous
 62
     2
100
AcDbLine
 10
-149.0034045947026
 20
-301.9314891796332
 30
0.0
 11
-149.0034045947026
 21
-299.6629449619458
 31
0.0
  0
LINE
  5
118
102
{ACAD_REACTORS
330
210
330
211
102
}
330
81
100
AcDbEntity
  8
0
  6
Continuous
 62
     2
100
AcDbLine
 10
-148.3352897506046
 20
-298.5722987034589
 30
0.0
 11
-148.3352897506046
 21
-297.2635231932542
 31
0.0
  0
LINE
  5
119
102
{ACAD_REACTORS
330
210
330
211
102
}
330
81
100
AcDbEntity
  8
0
  6
Continuous
 62
     2
100
AcDbLine
 10
-149.528082452771
 20
-295.5184891796478
 30
0.0
 11
-149.528082452771
 21
-298.5722987034589
 31
0.0
  0
LINE
  5
11A
102
{ACAD_REACTORS
330
210
330
211
102
}
330
81
100
AcDbEntity
  8
0
  6
Continuous
 62
     2
100
AcDbLine
 10
-148.3352897506046
 20
-295.5184891796478
 30
0.0
 11
-149.528082452771
 21
-295.5184891796478
 31
0.0
  0
LINE
  5
11B
102
{ACAD_REACTORS
330
210
330
211
102
}
330
81
100
AcDbEntity
  8
0
  6
Continuous
 62
     2
100
AcDbLine
 10
-147.0947853403505
 20
-295.5184891796478
 30
0.0
 11
-147.0947853403505
 21
-296.8272646898529
 31
0.0
  0
LINE
  5
11C
102
{ACAD_REACTORS
330
20E
330
20F
102
}
330
81
100
AcDbEntity
  8
0
  6
Continuous
 62
     2
100
AcDbLine
 10
-154.7765212731907
 20
-298.8776796558221
 30
0.0
 11
-154.7765212731907
 21
-301.9314891796332
 31
0.0
  0
LINE
  5
11D
102
{ACAD_REACTORS
330
20E
330
20F
102
}
330
81
100
AcDbEntity
  8
0
  6
Continuous
 62
     2
100
AcDbLine
 10
-153.5837285710232
 20
-298.8776796558221
 30
0.0
 11
-154.7765212731907
 21
-298.8776796558221
 31
0.0
  0
LINE
  5
11E
102
{ACAD_REACTORS
330
20E
330
20F
102
}
330
81
100
AcDbEntity
  8
0
  6
Continuous
 62
     2
100
AcDbLine
 10
-152.3432241607702
 20
-301.9314891796332
 30
0.0
 11
-151.1504314586038
 21
-301.9314891796332
 31
0.0
  0
LINE
  5
11F
102
{ACAD_REACTORS
330
20E
330
20F
102
}
330
81
100
AcDbEntity
  8
0
  6
Continuous
 62
     2
100
AcDbLine
 10
-154.7765212731907
 20
-301.9314891796332
 30
0.0
 11
-153.5837285710232
 21
-301.9314891796332
 31
0.0
  0
LINE
  5
120
102
{ACAD_REACTORS
330
21E
330
21F
102
}
330
81
100
AcDbEntity
  8
0
  6
Continuous
 62
     2
100
AcDbLine
 10
-151.1025688196316
 20
-296.6963871388324
 30
0.0
 11
-151.1025688196316
 21
-296.2165027850907
 31
0.0
  0
LINE
  5
121
102
{ACAD_REACTORS
330
21E
330
21F
102
}
330
81
100
AcDbEntity
  8
0
  6
Continuous
 62
     2
100
AcDbLine
 10
-149.766640993204
 20
-296.6963871388324
 30
0.0
 11
-151.1025688196316
 21
-296.6963871388324
 31
0.0
  0
LINE
  5
122
102
{ACAD_REACTORS
330
21E
330
21F
102
}
330
81
100
AcDbEntity
  8
0
  6
Continuous
 62
     2
100
AcDbLine
 10
-149.766640993204
 20
-297.3944007442748
 30
0.0
 11
-149.766640993204
 21
-296.6963871388324
 31
0.0
  0
LINE
  5
123
102
{ACAD_REACTORS
330
21E
330
21F
102
}
330
81
100
AcDbEntity
  8
0
  6
Continuous
 62
     2
100
AcDbLine
 10
-151.1025688196316
 20
-297.3944007442748
 30
0.0
 11
-149.766640993204
 21
-297.3944007442748
 31
0.0
  0
LINE
  5
124
102
{ACAD_REACTORS
330
20C
330
20D
102
}
330
81
100
AcDbEntity
  8
0
  6
Continuous
 62
     2
100
AcDbLine
 10
-154.5855235099585
 20
-295.5184891796478
 30
0.0
 11
-154.5855235099585
 21
-298.5722987034589
 31
0.0
  0
LINE
  5
125
102
{ACAD_REACTORS
330
20C
330
20D
102
}
330
81
100
AcDbEntity
  8
0
  6
Continuous
 62
     2
100
AcDbLine
 10
-154.5855235099585
 20
-298.5722987034589
 30
0.0
 11
-155.778316212125
 21
-298.5722987034589
 31
0.0
  0
LINE
  5
126
102
{ACAD_REACTORS
330
20C
330
20D
102
}
330
81
100
AcDbEntity
  8
0
  6
Continuous
 62
     2
100
AcDbLine
 10
-155.778316212125
 20
-298.5722987034589
 30
0.0
 11
-155.778316212125
 21
-297.4380265946152
 31
0.0
  0
LINE
  5
127
102
{ACAD_REACTORS
330
20C
330
20D
102
}
330
81
100
AcDbEntity
  8
0
  6
Continuous
 62
     2
100
AcDbLine
 10
-156.8279737900324
 20
-298.5722987034589
 30
0.0
 11
-158.020766492199
 21
-298.5722987034589
 31
0.0
  0
LINE
  5
128
102
{ACAD_REACTORS
330
20C
330
20D
102
}
330
81
100
AcDbEntity
  8
0
  6
Continuous
 62
     2
100
AcDbLine
 10
-158.020766492199
 20
-295.5184891796478
 30
0.0
 11
-156.8279737900324
 21
-295.5184891796478
 31
0.0
  0
LINE
  5
129
102
{ACAD_REACTORS
330
20C
330
20D
102
}
330
81
100
AcDbEntity
  8
0
  6
Continuous
 62
     2
100
AcDbLine
 10
-156.8279737900324
 20
-295.5184891796478
 30
0.0
 11
-156.8279737900324
 21
-296.5873225129824
 31
0.0
  0
LINE
  5
12A
102
{ACAD_REACTORS
330
20C
330
20D
102
}
330
81
100
AcDbEntity
  8
0
  6
Continuous
 62
     2
100
AcDbLine
 10
-156.8279737900324
 20
-296.5873225129824
 30
0.0
 11
-155.778316212125
 21
-296.5873225129824
 31
0.0
  0
LINE
  5
12B
102
{ACAD_REACTORS
330
21A
330
21B
102
}
330
81
100
AcDbEntity
  8
0
  6
Continuous
 62
     2
100
AcDbLine
 10
-159.9769465237527
 20
-296.1815950250878
 30
0.0
 11
-159.6596514622107
 21
-296.1815950250878
 31
0.0
  0
LINE
  5
12C
102
{ACAD_REACTORS
330
21A
330
21B
102
}
330
81
100
AcDbEntity
  8
0
  6
Continuous
 62
     2
100
AcDbLine
 10
-159.9769465237527
 20
-296.8873226744301
 30
0.0
 11
-159.6596514622107
 21
-296.8873226744301
 31
0.0
  0
LINE
  5
12D
102
{ACAD_REACTORS
330
21A
330
21B
102
}
330
81
100
AcDbEntity
  8
0
  6
Continuous
 62
     2
100
AcDbLine
 10
-161.2174509340067
 20
-295.5184891796478
 30
0.0
 11
-161.2174509340067
 21
-298.5722987034589
 31
0.0
  0
LINE
  5
12E
102
{ACAD_REACTORS
330
21A
330
21B
102
}
330
81
100
AcDbEntity
  8
0
  6
Continuous
 62
     2
100
AcDbLine
 10
-161.2174509340067
 20
-295.5184891796478
 30
0.0
 11
-159.2181789359723
 21
-295.5184891796478
 31
0.0
  0
LINE
  5
12F
102
{ACAD_REACTORS
330
21A
330
21B
102
}
330
81
100
AcDbEntity
  8
0
  6
Continuous
 62
     2
100
AcDbLine
 10
-159.9769465237527
 20
-297.6292204623152
 30
0.0
 11
-159.2181789359723
 21
-297.6292204623152
 31
0.0
  0
LINE
  5
130
102
{ACAD_REACTORS
330
220
330
221
102
}
330
81
100
AcDbEntity
  8
0
  6
Continuous
 62
     2
100
AcDbLine
 10
-167.3139469673034
 20
-296.5467616582825
 30
0.0
 11
-167.3139469673034
 21
-300.9032167009996
 31
0.0
  0
LINE
  5
131
102
{ACAD_REACTORS
330
220
330
221
102
}
330
81
100
AcDbEntity
  8
0
  6
Continuous
 62
     2
100
AcDbLine
 10
-166.9982300442278
 20
-296.2310447352064
 30
0.0
 11
-165.5223967832182
 21
-296.2310447352064
 31
0.0
  0
LINE
  5
132
102
{ACAD_REACTORS
330
220
330
221
102
}
330
81
100
AcDbEntity
  8
0
  6
Continuous
 62
     2
100
AcDbLine
 10
-165.2066798601416
 20
-297.1507862773431
 30
0.0
 11
-165.2066798601416
 21
-296.5467616582825
 31
0.0
  0
LINE
  5
133
102
{ACAD_REACTORS
330
220
330
221
102
}
330
81
100
AcDbEntity
  8
0
  6
Continuous
 62
     2
100
AcDbLine
 10
-165.2066798601416
 20
-300.9032167009996
 30
0.0
 11
-165.2066798601416
 21
-299.372445769468
 31
0.0
  0
LINE
  5
134
102
{ACAD_REACTORS
330
220
330
221
102
}
330
81
100
AcDbEntity
  8
0
  6
Continuous
 62
     2
100
AcDbLine
 10
-162.1188126302574
 20
-301.9314891796332
 30
0.0
 11
-167.5921247209743
 21
-301.9314891796332
 31
0.0
  0
LINE
  5
135
102
{ACAD_REACTORS
330
220
330
221
102
}
330
81
100
AcDbEntity
  8
0
  6
Continuous
 62
     2
100
AcDbLine
 10
-161.6945680148735
 20
-295.9427337950498
 30
0.0
 11
-161.6945680148735
 21
-301.50724456425
 31
0.0
  0
LINE
  5
136
102
{ACAD_REACTORS
330
220
330
221
102
}
330
81
100
AcDbEntity
  8
0
  6
Continuous
 62
     2
100
AcDbLine
 10
-167.5921247209743
 20
-295.5184891796659
 30
0.0
 11
-162.1188126302574
 21
-295.5184891796659
 31
0.0
  0
LINE
  5
137
102
{ACAD_REACTORS
330
220
330
221
102
}
330
81
100
AcDbEntity
  8
0
  6
Continuous
 62
     2
100
AcDbLine
 10
-168.0163693363571
 20
-295.9427337950498
 30
0.0
 11
-168.0163693363571
 21
-301.50724456425
 31
0.0
  0
LINE
  5
138
102
{ACAD_REACTORS
330
220
330
221
102
}
330
81
100
AcDbEntity
  8
0
  6
Continuous
 62
     2
100
AcDbLine
 10
-165.5223967832182
 20
-301.2189336240763
 30
0.0
 11
-166.9982300442278
 21
-301.2189336240763
 31
0.0
  0
LINE
  5
139
102
{ACAD_REACTORS
330
21A
330
21B
102
}
330
81
100
AcDbEntity
  8
0
  6
Continuous
 62
     2
100
AcDbLine
 10
-159.9769465237527
 20
-298.5722987034589
 30
0.0
 11
-159.9769465237527
 21
-297.6292204623152
 31
0.0
  0
LINE
  5
13A
102
{ACAD_REACTORS
330
21A
330
21B
102
}
330
81
100
AcDbEntity
  8
0
  6
Continuous
 62
     2
100
AcDbLine
 10
-161.2174509340067
 20
-298.5722987034589
 30
0.0
 11
-159.9769465237527
 21
-298.5722987034589
 31
0.0
  0
LINE
  5
13B
102
{ACAD_REACTORS
330
21A
330
21B
102
}
330
81
100
AcDbEntity
  8
0
  6
Continuous
 62
     2
100
AcDbLine
 10
-159.9769465237527
 20
-296.8873226744301
 30
0.0
 11
-159.9769465237527
 21
-296.1815950250878
 31
0.0
  0
LINE
  5
13C
102
{ACAD_REACTORS
330
20C
330
20D
102
}
330
81
100
AcDbEntity
  8
0
  6
Continuous
 62
     2
100
AcDbLine
 10
-158.020766492199
 20
-295.5184891796478
 30
0.0
 11
-158.020766492199
 21
-298.5722987034589
 31
0.0
  0
LINE
  5
13D
102
{ACAD_REACTORS
330
20C
330
20D
102
}
330
81
100
AcDbEntity
  8
0
  6
Continuous
 62
     2
100
AcDbLine
 10
-156.8279737900324
 20
-297.4380265946152
 30
0.0
 11
-156.8279737900324
 21
-298.5722987034589
 31
0.0
  0
LINE
  5
13E
102
{ACAD_REACTORS
330
20C
330
20D
102
}
330
81
100
AcDbEntity
  8
0
  6
Continuous
 62
     2
100
AcDbLine
 10
-155.778316212125
 20
-297.4380265946152
 30
0.0
 11
-156.8279737900324
 21
-297.4380265946152
 31
0.0
  0
LINE
  5
13F
102
{ACAD_REACTORS
330
20C
330
20D
102
}
330
81
100
AcDbEntity
  8
0
  6
Continuous
 62
     2
100
AcDbLine
 10
-155.778316212125
 20
-295.5184891796478
 30
0.0
 11
-154.5855235099585
 21
-295.5184891796478
 31
0.0
  0
LINE
  5
140
102
{ACAD_REACTORS
330
20C
330
20D
102
}
330
81
100
AcDbEntity
  8
0
  6
Continuous
 62
     2
100
AcDbLine
 10
-155.778316212125
 20
-296.5873225129824
 30
0.0
 11
-155.778316212125
 21
-295.5184891796478
 31
0.0
  0
LINE
  5
141
102
{ACAD_REACTORS
330
21E
330
21F
102
}
330
81
100
AcDbEntity
  8
0
  6
Continuous
 62
     2
100
AcDbLine
 10
-149.766640993204
 20
-296.2165027850907
 30
0.0
 11
-149.766640993204
 21
-295.5184891796478
 31
0.0
  0
LINE
  5
142
102
{ACAD_REACTORS
330
21E
330
21F
102
}
330
81
100
AcDbEntity
  8
0
  6
Continuous
 62
     2
100
AcDbLine
 10
-152.9169607169849
 20
-295.5184891796478
 30
0.0
 11
-149.766640993204
 21
-295.5184891796478
 31
0.0
  0
LINE
  5
143
102
{ACAD_REACTORS
330
21E
330
21F
102
}
330
81
100
AcDbEntity
  8
0
  6
Continuous
 62
     2
100
AcDbLine
 10
-152.9169607169849
 20
-298.5722987034589
 30
0.0
 11
-149.766640993204
 21
-298.5722987034589
 31
0.0
  0
LINE
  5
144
102
{ACAD_REACTORS
330
21E
330
21F
102
}
330
81
100
AcDbEntity
  8
0
  6
Continuous
 62
     2
100
AcDbLine
 10
-149.766640993204
 20
-298.5722987034589
 30
0.0
 11
-149.766640993204
 21
-297.8742850980165
 31
0.0
  0
LINE
  5
145
102
{ACAD_REACTORS
330
21E
330
21F
102
}
330
81
100
AcDbEntity
  8
0
  6
Continuous
 62
     2
100
AcDbLine
 10
-149.766640993204
 20
-297.8742850980165
 30
0.0
 11
-151.1025688196316
 21
-297.8742850980165
 31
0.0
  0
LINE
  5
146
102
{ACAD_REACTORS
330
21E
330
21F
102
}
330
81
100
AcDbEntity
  8
0
  6
Continuous
 62
     2
100
AcDbLine
 10
-151.1025688196316
 20
-297.8742850980165
 30
0.0
 11
-151.1025688196316
 21
-297.3944007442748
 31
0.0
  0
LINE
  5
147
102
{ACAD_REACTORS
330
21E
330
21F
102
}
330
81
100
AcDbEntity
  8
0
  6
Continuous
 62
     2
100
AcDbLine
 10
-151.1025688196316
 20
-296.2165027850907
 30
0.0
 11
-149.766640993204
 21
-296.2165027850907
 31
0.0
  0
LINE
  5
148
102
{ACAD_REACTORS
330
20E
330
20F
102
}
330
81
100
AcDbEntity
  8
0
  6
Continuous
 62
     2
100
AcDbLine
 10
-153.5837285710232
 20
-301.9314891796332
 30
0.0
 11
-153.5837285710232
 21
-300.6227136694287
 31
0.0
  0
LINE
  5
149
102
{ACAD_REACTORS
330
20E
330
20F
102
}
330
81
100
AcDbEntity
  8
0
  6
Continuous
 62
     2
100
AcDbLine
 10
-153.5837285710232
 20
-300.6227136694287
 30
0.0
 11
-152.3432241607702
 21
-301.9314891796332
 31
0.0
  0
LINE
  5
14A
102
{ACAD_REACTORS
330
20E
330
20F
102
}
330
81
100
AcDbEntity
  8
0
  6
Continuous
 62
     2
100
AcDbLine
 10
-151.1504314586038
 20
-301.9314891796332
 30
0.0
 11
-151.1504314586038
 21
-298.8776796558221
 31
0.0
  0
LINE
  5
14B
102
{ACAD_REACTORS
330
20E
330
20F
102
}
330
81
100
AcDbEntity
  8
0
  6
Continuous
 62
     2
100
AcDbLine
 10
-151.1504314586038
 20
-298.8776796558221
 30
0.0
 11
-152.3432241607702
 21
-298.8776796558221
 31
0.0
  0
LINE
  5
14C
102
{ACAD_REACTORS
330
20E
330
20F
102
}
330
81
100
AcDbEntity
  8
0
  6
Continuous
 62
     2
100
AcDbLine
 10
-152.3432241607702
 20
-298.8776796558221
 30
0.0
 11
-152.3432241607702
 21
-300.1864551660273
 31
0.0
  0
LINE
  5
14D
102
{ACAD_REACTORS
330
20E
330
20F
102
}
330
81
100
AcDbEntity
  8
0
  6
Continuous
 62
     2
100
AcDbLine
 10
-152.3432241607702
 20
-300.1864551660273
 30
0.0
 11
-153.5837285710232
 21
-298.8776796558221
 31
0.0
  0
LINE
  5
14E
102
{ACAD_REACTORS
330
210
330
211
102
}
330
81
100
AcDbEntity
  8
0
  6
Continuous
 62
     2
100
AcDbLine
 10
-148.3352897506046
 20
-297.2635231932542
 30
0.0
 11
-147.0947853403505
 21
-298.5722987034589
 31
0.0
  0
LINE
  5
14F
102
{ACAD_REACTORS
330
210
330
211
102
}
330
81
100
AcDbEntity
  8
0
  6
Continuous
 62
     2
100
AcDbLine
 10
-147.0947853403505
 20
-298.5722987034589
 30
0.0
 11
-145.9019926381839
 21
-298.5722987034589
 31
0.0
  0
LINE
  5
150
102
{ACAD_REACTORS
330
210
330
211
102
}
330
81
100
AcDbEntity
  8
0
  6
Continuous
 62
     2
100
AcDbLine
 10
-145.9019926381839
 20
-298.5722987034589
 30
0.0
 11
-145.9019926381839
 21
-295.5184891796478
 31
0.0
  0
LINE
  5
151
102
{ACAD_REACTORS
330
210
330
211
102
}
330
81
100
AcDbEntity
  8
0
  6
Continuous
 62
     2
100
AcDbLine
 10
-145.9019926381839
 20
-295.5184891796478
 30
0.0
 11
-147.0947853403505
 21
-295.5184891796478
 31
0.0
  0
LINE
  5
152
102
{ACAD_REACTORS
330
210
330
211
102
}
330
81
100
AcDbEntity
  8
0
  6
Continuous
 62
     2
100
AcDbLine
 10
-147.0947853403505
 20
-296.8272646898529
 30
0.0
 11
-148.3352897506046
 21
-295.5184891796478
 31
0.0
  0
LINE
  5
153
102
{ACAD_REACTORS
330
210
330
211
102
}
330
81
100
AcDbEntity
  8
0
  6
Continuous
 62
     2
100
AcDbLine
 10
-149.528082452771
 20
-298.5722987034589
 30
0.0
 11
-148.3352897506046
 21
-298.5722987034589
 31
0.0
  0
LINE
  5
154
102
{ACAD_REACTORS
330
212
330
213
102
}
330
81
100
AcDbEntity
  8
0
  6
Continuous
 62
     2
100
AcDbLine
 10
-151.0072963343437
 20
-298.8776796558221
 30
0.0
 11
-151.0072963343437
 21
-299.6629449619458
 31
0.0
  0
LINE
  5
155
102
{ACAD_REACTORS
330
212
330
213
102
}
330
81
100
AcDbEntity
  8
0
  6
Continuous
 62
     2
100
AcDbLine
 10
-150.196197296869
 20
-299.6629449619458
 30
0.0
 11
-150.196197296869
 21
-301.9314891796332
 31
0.0
  0
LINE
  5
156
102
{ACAD_REACTORS
330
212
330
213
102
}
330
81
100
AcDbEntity
  8
0
  6
Continuous
 62
     2
100
AcDbLine
 10
-150.196197296869
 20
-301.9314891796332
 30
0.0
 11
-149.0034045947026
 21
-301.9314891796332
 31
0.0
  0
LINE
  5
157
102
{ACAD_REACTORS
330
214
330
215
102
}
330
81
100
AcDbEntity
  8
0
  6
Continuous
 62
     2
100
AcDbLine
 10
-146.053878101283
 20
-301.9314891796332
 30
0.0
 11
-146.2653581547588
 21
-301.3905286354154
 31
0.0
  0
LINE
  5
158
102
{ACAD_REACTORS
330
214
330
215
102
}
330
81
100
AcDbEntity
  8
0
  6
Continuous
 62
     2
100
AcDbLine
 10
-146.2113267379694
 20
-298.8776796558221
 30
0.0
 11
-144.8133736910291
 21
-301.9314891796332
 31
0.0
  0
LINE
  5
159
102
{ACAD_REACTORS
330
214
330
215
102
}
330
81
100
AcDbEntity
  8
0
  6
Continuous
 62
     2
100
AcDbLine
 10
-147.4518311482222
 20
-298.8776796558221
 30
0.0
 11
-146.2113267379694
 21
-298.8776796558221
 31
0.0
  0
LINE
  5
15A
102
{ACAD_REACTORS
330
214
330
215
102
}
330
81
100
AcDbEntity
  8
0
  6
Continuous
 62
     2
100
AcDbLine
 10
-148.8497841951614
 20
-301.9314891796332
 30
0.0
 11
-147.6092797849085
 21
-301.9314891796332
 31
0.0
  0
LINE
  5
15B
102
{ACAD_REACTORS
330
214
330
215
102
}
330
81
100
AcDbEntity
  8
0
  6
Continuous
 62
     2
100
AcDbLine
 10
-147.1317441802876
 20
-300.7099653701088
 30
0.0
 11
-146.5314137059051
 21
-300.7099653701088
 31
0.0
  0
LINE
  5
15C
102
{ACAD_REACTORS
330
214
330
215
102
}
330
81
100
AcDbEntity
  8
0
  6
Continuous
 62
     2
100
AcDbLine
 10
-146.5314137059051
 20
-300.7099653701088
 30
0.0
 11
-146.8315789430953
 21
-299.9421504041221
 31
0.0
  0
LINE
  5
15D
102
{ACAD_REACTORS
330
216
330
217
102
}
330
81
100
AcDbEntity
  8
0
  6
Continuous
 62
     2
100
AcDbLine
 10
-144.4229296874971
 20
-298.5722987034589
 30
0.0
 11
-145.66343409775
 21
-298.5722987034589
 31
0.0
  0
LINE
  5
15E
102
{ACAD_REACTORS
330
218
330
219
102
}
330
81
100
AcDbEntity
  8
0
  6
Continuous
 62
     2
100
AcDbLine
 10
-142.9009261995321
 20
-298.5722987034589
 30
0.0
 11
-144.3036504172802
 21
-298.5722987034589
 31
0.0
  0
LINE
  5
15F
102
{ACAD_REACTORS
330
218
330
219
102
}
330
81
100
AcDbEntity
  8
0
  6
Continuous
 62
     2
100
AcDbLine
 10
-142.9009261995321
 20
-298.5722987034589
 30
0.0
 11
-142.2043352614663
 21
-297.7845669181652
 31
0.0
  0
LINE
  5
160
102
{ACAD_REACTORS
330
218
330
219
102
}
330
81
100
AcDbEntity
  8
0
  6
Continuous
 62
     2
100
AcDbLine
 10
-141.6031677395735
 20
-295.5184891796478
 30
0.0
 11
-140.2004435218263
 21
-295.5184891796478
 31
0.0
  0
LINE
  5
161
102
{ACAD_REACTORS
330
218
330
219
102
}
330
81
100
AcDbEntity
  8
0
  6
Continuous
 62
     2
100
AcDbLine
 10
-144.2082270011074
 20
-295.5184891796478
 30
0.0
 11
-142.9056973703399
 21
-296.991439709684
 31
0.0
  0
LINE
  5
162
102
{ACAD_REACTORS
330
218
330
219
102
}
330
81
100
AcDbEntity
  8
0
  6
Continuous
 62
     2
100
AcDbLine
 10
-144.3036504172802
 20
-298.5722987034589
 30
0.0
 11
-142.9056973703399
 21
-296.991439709684
 31
0.0
  0
LINE
  5
163
102
{ACAD_REACTORS
330
222
330
223
102
}
330
81
100
AcDbEntity
  8
0
  6
Continuous
 62
     2
100
AcDbLine
 10
-142.4428938019004
 20
-300.8844687714696
 30
0.0
 11
-142.4428938019004
 21
-301.7569857782729
 31
0.0
  0
LINE
  5
164
102
{ACAD_REACTORS
330
222
330
223
102
}
330
81
100
AcDbEntity
  8
0
  6
Continuous
 62
     2
100
AcDbLine
 10
-143.2125511448618
 20
-299.6629449619458
 30
0.0
 11
-142.1089118452937
 21
-299.6629449619458
 31
0.0
  0
LINE
  5
165
102
{ACAD_REACTORS
330
224
330
225
102
}
330
81
100
AcDbEntity
  8
0
  6
Continuous
 62
     2
100
AcDbLine
 10
-158.5455952811522
 20
-300.8844687714691
 30
0.0
 11
-158.5455952811522
 21
-301.7569857782724
 31
0.0
  0
LINE
  5
166
102
{ACAD_REACTORS
330
224
330
225
102
}
330
81
100
AcDbEntity
  8
0
  6
Continuous
 62
     2
100
AcDbLine
 10
-158.5455952811522
 20
-299.9247000639863
 30
0.0
 11
-158.5455952811522
 21
-299.052183057183
 31
0.0
  0
LINE
  5
167
330
81
100
AcDbEntity
  8
1
  6
Continuous
 62
     7
100
AcDbLine
 10
-89.2266279778472
 20
-283.7249891796496
 30
0.0
 11
-89.2266279778472
 21
-292.2249891796496
 31
0.0
  0
LINE
  5
168
330
81
100
AcDbEntity
  8
1
  6
Continuous
 62
     7
100
AcDbLine
 10
-109.7266279778468
 20
-283.7249891796496
 30
0.0
 11
-109.7266279778468
 21
-292.2249891796496
 31
0.0
  0
LINE
  5
169
330
81
100
AcDbEntity
  8
1
  6
Continuous
 62
     6
100
AcDbLine
 10
-135.8530242229197
 20
-292.2249891796496
 30
0.0
 11
-135.8530242229197
 21
-283.7249891796496
 31
0.0
  0
LINE
  5
16A
330
81
100
AcDbEntity
  8
1
  6
Continuous
 62
     6
100
AcDbLine
 10
-172.2530242229196
 20
-292.2249891796496
 30
0.0
 11
-172.2530242229196
 21
-283.7249891796496
 31
0.0
  0
LINE
  5
16B
330
81
100
AcDbEntity
  8
1
  6
Continuous
 62
     7
100
AcDbLine
 10
-135.8530242229197
 20
-292.2249891796496
 30
0.0
 11
-79.8266279778472
 21
-292.2249891796496
 31
0.0
  0
LINE
  5
16C
330
81
100
AcDbEntity
  8
1
  6
Continuous
 62
     2
100
AcDbLine
 10
-179.3748863628363
 20
-309.2249891796519
 30
0.0
 11
-179.3748863628363
 21
-309.224989179649
 31
0.0
  0
LINE
  5
16D
330
81
100
AcDbEntity
  8
1
  6
Continuous
 62
     6
100
AcDbLine
 10
-316.0415530295028
 20
-309.224989179649
 30
0.0
 11
-172.2530242229196
 21
-309.2249891796521
 31
0.0
  0
LINE
  5
16E
330
81
100
AcDbEntity
  8
1
  6
Continuous
 62
     6
100
AcDbLine
 10
-437.7082196961694
 20
-309.224989179649
 30
0.0
 11
-437.7082196961704
 21
-22.22498917964879
 31
0.0
  0
LINE
  5
16F
330
81
100
AcDbEntity
  8
1
  6
Continuous
 62
     2
100
AcDbLine
 10
-457.7082196961705
 20
-165.724989179649
 30
0.0
 11
-457.7082196961705
 21
-314.224989179649
 31
0.0
  0
LINE
  5
170
330
81
100
AcDbEntity
  8
1
  6
Continuous
 62
     2
100
AcDbLine
 10
-457.7082196961705
 20
-165.724989179649
 30
0.0
 11
-447.7082196961704
 21
-165.724989179649
 31
0.0
  0
LINE
  5
171
330
81
100
AcDbEntity
  8
1
  6
Continuous
 62
     2
100
AcDbLine
 10
-457.7082196961705
 20
-17.22498917964902
 30
0.0
 11
-457.7082196961705
 21
-165.724989179649
 31
0.0
  0
LINE
  5
172
330
81
100
AcDbEntity
  8
1
  6
Continuous
 62
     2
100
AcDbLine
 10
-227.7082196961725
 20
-17.22498917964902
 30
0.0
 11
-247.7082196961697
 21
-17.22498917964902
 31
0.0
  0
LINE
  5
173
330
81
100
AcDbEntity
  8
1
  6
Continuous
 62
     2
100
AcDbLine
 10
-227.7082196961725
 20
-17.22498917964902
 30
0.0
 11
-227.7082196961725
 21
-21.22498917964879
 31
0.0
  0
LINE
  5
174
330
81
100
AcDbEntity
  8
1
  6
Continuous
 62
     2
100
AcDbLine
 10
-437.7082196961704
 20
-17.22498917964902
 30
0.0
 11
-457.7082196961705
 21
-17.22498917964902
 31
0.0
  0
LINE
  5
175
330
81
100
AcDbEntity
  8
1
  6
Continuous
 62
     2
100
AcDbLine
 10
-437.7082196961704
 20
-17.22498917964902
 30
0.0
 11
-437.7082196961704
 21
-21.22498917964879
 31
0.0
  0
LINE
  5
176
330
81
100
AcDbEntity
  8
1
  6
Continuous
 62
     2
100
AcDbLine
 10
-384.3748863628363
 20
-17.22498917964902
 30
0.0
 11
-437.7082196961704
 21
-17.22498917964902
 31
0.0
  0
LINE
  5
177
330
81
100
AcDbEntity
  8
1
  6
Continuous
 62
     6
100
AcDbLine
 10
-384.3748863628363
 20
-22.22498917964879
 30
0.0
 11
-316.0415530295028
 21
-22.22498917964902
 31
0.0
  0
LINE
  5
178
330
81
100
AcDbEntity
  8
1
  6
Continuous
 62
     2
100
AcDbLine
 10
-384.3748863628363
 20
-22.22498917964879
 30
0.0
 11
-384.3748863628363
 21
-17.22498917964902
 31
0.0
  0
LINE
  5
179
330
81
100
AcDbEntity
  8
1
  6
Continuous
 62
     2
100
AcDbLine
 10
-316.0415530295028
 20
-17.22498917964902
 30
0.0
 11
-384.3748863628363
 21
-17.22498917964902
 31
0.0
  0
LINE
  5
17A
330
81
100
AcDbEntity
  8
1
  6
Continuous
 62
     6
100
AcDbLine
 10
-316.0415530295028
 20
-22.22498917964902
 30
0.0
 11
-247.7082196961697
 21
-22.22498917964902
 31
0.0
  0
LINE
  5
17B
330
81
100
AcDbEntity
  8
1
  6
Continuous
 62
     2
100
AcDbLine
 10
-316.0415530295028
 20
-22.22498917964902
 30
0.0
 11
-316.0415530295028
 21
-17.22498917964902
 31
0.0
  0
LINE
  5
17C
330
81
100
AcDbEntity
  8
1
  6
Continuous
 62
     2
100
AcDbLine
 10
-247.7082196961697
 20
-17.22498917964902
 30
0.0
 11
-316.0415530295028
 21
-17.22498917964902
 31
0.0
  0
LINE
  5
17D
330
81
100
AcDbEntity
  8
1
  6
Continuous
 62
     6
100
AcDbLine
 10
-247.7082196961697
 20
-22.22498917964902
 30
0.0
 11
-179.3748863628363
 21
-22.22498917964902
 31
0.0
  0
LINE
  5
17E
330
81
100
AcDbEntity
  8
1
  6
Continuous
 62
     2
100
AcDbLine
 10
-247.7082196961697
 20
-22.22498917964902
 30
0.0
 11
-247.7082196961697
 21
-17.22498917964902
 31
0.0
  0
LINE
  5
17F
330
81
100
AcDbEntity
  8
1
  6
Continuous
 62
     2
100
AcDbLine
 10
-179.3748863628363
 20
-17.22498917964902
 30
0.0
 11
-227.7082196961725
 21
-17.22498917964902
 31
0.0
  0
LINE
  5
180
330
81
100
AcDbEntity
  8
1
  6
Continuous
 62
     6
100
AcDbLine
 10
-179.3748863628363
 20
-22.22498917964902
 30
0.0
 11
-111.0415530295031
 21
-22.22498917964902
 31
0.0
  0
LINE
  5
181
330
81
100
AcDbEntity
  8
1
  6
Continuous
 62
     2
100
AcDbLine
 10
-179.3748863628363
 20
-22.22498917964902
 30
0.0
 11
-179.3748863628363
 21
-17.22498917964902
 31
0.0
  0
LINE
  5
182
330
81
100
AcDbEntity
  8
1
  6
Continuous
 62
     2
100
AcDbLine
 10
-111.0415530295031
 20
-17.22498917964902
 30
0.0
 11
-179.3748863628363
 21
-17.22498917964902
 31
0.0
  0
LINE
  5
183
330
81
100
AcDbEntity
  8
1
  6
Continuous
 62
     6
100
AcDbLine
 10
-111.0415530295031
 20
-22.22498917964902
 30
0.0
 11
-42.70821969617219
 21
-22.22498917964902
 31
0.0
  0
LINE
  5
184
330
81
100
AcDbEntity
  8
1
  6
Continuous
 62
     2
100
AcDbLine
 10
-111.0415530295031
 20
-22.22498917964902
 30
0.0
 11
-111.0415530295031
 21
-17.22498917964902
 31
0.0
  0
LINE
  5
185
330
81
100
AcDbEntity
  8
1
  6
Continuous
 62
     2
100
AcDbLine
 10
-42.70821969617219
 20
-17.22498917964902
 30
0.0
 11
-111.0415530295031
 21
-17.22498917964902
 31
0.0
  0
LINE
  5
186
330
81
100
AcDbEntity
  8
1
  6
Continuous
 62
     6
100
AcDbLine
 10
-437.7082196961704
 20
-22.22498917964879
 30
0.0
 11
-384.3748863628363
 21
-22.22498917964879
 31
0.0
  0
LINE
  5
187
330
81
100
AcDbEntity
  8
1
  6
Continuous
 62
     6
100
AcDbLine
 10
-42.70821969616969
 20
-194.4249891796488
 30
0.0
 11
-42.70821969616975
 21
-251.8249891796489
 31
0.0
  0
LINE
  5
188
330
81
100
AcDbEntity
  8
1
  6
Continuous
 62
     2
100
AcDbLine
 10
-42.70821969616969
 20
-194.4249891796488
 30
0.0
 11
-37.70821969617219
 21
-194.4249891796488
 31
0.0
  0
LINE
  5
189
330
81
100
AcDbEntity
  8
1
  6
Continuous
 62
     2
100
AcDbLine
 10
-37.70821969617219
 20
-137.024989179649
 30
0.0
 11
-37.70821969617219
 21
-194.4249891796488
 31
0.0
  0
LINE
  5
18A
330
81
100
AcDbEntity
  8
1
  6
Continuous
 62
     6
100
AcDbLine
 10
-42.70821969616969
 20
-137.024989179649
 30
0.0
 11
-42.70821969616969
 21
-194.4249891796488
 31
0.0
  0
LINE
  5
18B
330
81
100
AcDbEntity
  8
1
  6
Continuous
 62
     2
100
AcDbLine
 10
-42.70821969616969
 20
-137.024989179649
 30
0.0
 11
-37.70821969617219
 21
-137.024989179649
 31
0.0
  0
LINE
  5
18C
330
81
100
AcDbEntity
  8
1
  6
Continuous
 62
     2
100
AcDbLine
 10
-37.70821969617219
 20
-79.6249891796491
 30
0.0
 11
-37.70821969617219
 21
-137.024989179649
 31
0.0
  0
LINE
  5
18D
330
81
100
AcDbEntity
  8
1
  6
Continuous
 62
     6
100
AcDbLine
 10
-42.70821969617168
 20
-79.6249891796491
 30
0.0
 11
-42.70821969616969
 21
-137.024989179649
 31
0.0
  0
LINE
  5
18E
330
81
100
AcDbEntity
  8
1
  6
Continuous
 62
     2
100
AcDbLine
 10
-42.70821969617168
 20
-79.6249891796491
 30
0.0
 11
-37.70821969617219
 21
-79.6249891796491
 31
0.0
  0
LINE
  5
18F
330
81
100
AcDbEntity
  8
1
  6
Continuous
 62
     2
100
AcDbLine
 10
-37.70821969617219
 20
-22.22498917964902
 30
0.0
 11
-37.70821969617219
 21
-79.6249891796491
 31
0.0
  0
LINE
  5
190
330
81
100
AcDbEntity
  8
1
  6
Continuous
 62
     2
100
AcDbLine
 10
-42.70821969617219
 20
-22.22498917964902
 30
0.0
 11
-37.70821969617219
 21
-22.22498917964902
 31
0.0
  0
LINE
  5
191
330
81
100
AcDbEntity
  8
1
  6
Continuous
 62
     2
100
AcDbLine
 10
-42.70821969617219
 20
-22.22498917964902
 30
0.0
 11
-42.70821969617219
 21
-17.22498917964902
 31
0.0
  0
LINE
  5
192
330
81
100
AcDbEntity
  8
1
  6
Continuous
 62
     2
100
AcDbLine
 10
-37.70821969617219
 20
-17.22498917964902
 30
0.0
 11
-37.70821969617219
 21
-22.22498917964902
 31
0.0
  0
LINE
  5
193
330
81
100
AcDbEntity
  8
1
  6
Continuous
 62
     6
100
AcDbLine
 10
-42.70821969617219
 20
-22.22498917964902
 30
0.0
 11
-42.70821969617168
 21
-79.6249891796491
 31
0.0
  0
LINE
  5
194
330
81
100
AcDbEntity
  8
1
  6
Continuous
 62
     2
100
AcDbLine
 10
-37.70821969617219
 20
-17.22498917964902
 30
0.0
 11
-42.70821969617219
 21
-17.22498917964902
 31
0.0
  0
LINE
  5
195
330
81
100
AcDbEntity
  8
1
  6
Continuous
 62
     2
100
AcDbLine
 10
-37.70821969617219
 20
-309.224989179649
 30
0.0
 11
-37.70821969617219
 21
-251.8249891796489
 31
0.0
  0
LINE
  5
196
330
81
100
AcDbEntity
  8
1
  6
Continuous
 62
     2
100
AcDbLine
 10
-37.70821969617219
 20
-309.224989179649
 30
0.0
 11
-37.70821969617219
 21
-314.224989179649
 31
0.0
  0
LINE
  5
197
330
81
100
AcDbEntity
  8
1
  6
Continuous
 62
     2
100
AcDbLine
 10
-37.70821969617219
 20
-314.224989179649
 30
0.0
 11
-42.70821969616969
 21
-314.224989179649
 31
0.0
  0
LINE
  5
198
330
81
100
AcDbEntity
  8
1
  6
Continuous
 62
     2
100
AcDbLine
 10
-179.3748863628363
 20
-314.224989179649
 30
0.0
 11
-111.0415530295031
 21
-314.224989179649
 31
0.0
  0
LINE
  5
199
330
81
100
AcDbEntity
  8
1
  6
Continuous
 62
     2
100
AcDbLine
 10
-227.7082196961725
 20
-314.224989179649
 30
0.0
 11
-179.3748863628363
 21
-314.224989179649
 31
0.0
  0
LINE
  5
19A
330
81
100
AcDbEntity
  8
1
  6
Continuous
 62
     2
100
AcDbLine
 10
-227.7082196961725
 20
-314.224989179649
 30
0.0
 11
-227.7082196961725
 21
-310.224989179649
 31
0.0
  0
LINE
  5
19B
330
81
100
AcDbEntity
  8
1
  6
Continuous
 62
     2
100
AcDbLine
 10
-227.7082196961725
 20
-314.224989179649
 30
0.0
 11
-247.7082196961697
 21
-314.224989179649
 31
0.0
  0
LINE
  5
19C
330
81
100
AcDbEntity
  8
1
  6
Continuous
 62
     2
100
AcDbLine
 10
-437.7082196961704
 20
-314.224989179649
 30
0.0
 11
-384.3748863628363
 21
-314.224989179649
 31
0.0
  0
LINE
  5
19D
330
81
100
AcDbEntity
  8
1
  6
Continuous
 62
     2
100
AcDbLine
 10
-437.7082196961704
 20
-314.224989179649
 30
0.0
 11
-437.7082196961704
 21
-310.224989179649
 31
0.0
  0
LINE
  5
19E
330
81
100
AcDbEntity
  8
1
  6
Continuous
 62
     2
100
AcDbLine
 10
-316.0415530295028
 20
-314.224989179649
 30
0.0
 11
-316.0415530295028
 21
-309.224989179649
 31
0.0
  0
LINE
  5
19F
330
81
100
AcDbEntity
  8
1
  6
Continuous
 62
     6
100
AcDbLine
 10
-384.3748863628363
 20
-309.224989179649
 30
0.0
 11
-437.7082196961694
 21
-309.224989179649
 31
0.0
  0
LINE
  5
1A0
330
81
100
AcDbEntity
  8
1
  6
Continuous
 62
     6
100
AcDbLine
 10
-384.3748863628363
 20
-309.224989179649
 30
0.0
 11
-316.0415530295028
 21
-309.224989179649
 31
0.0
  0
LINE
  5
1A1
330
81
100
AcDbEntity
  8
1
  6
Continuous
 62
     2
100
AcDbLine
 10
-384.3748863628363
 20
-314.224989179649
 30
0.0
 11
-316.0415530295028
 21
-314.224989179649
 31
0.0
  0
LINE
  5
1A2
330
81
100
AcDbEntity
  8
1
  6
Continuous
 62
     2
100
AcDbLine
 10
-384.3748863628363
 20
-314.224989179649
 30
0.0
 11
-384.3748863628363
 21
-309.224989179649
 31
0.0
  0
LINE
  5
1A3
330
81
100
AcDbEntity
  8
1
  6
Continuous
 62
     2
100
AcDbLine
 10
-437.7082196961704
 20
-314.224989179649
 30
0.0
 11
-457.7082196961705
 21
-314.224989179649
 31
0.0
  0
LINE
  5
1A4
330
81
100
AcDbEntity
  8
1
  6
Continuous
 62
     2
100
AcDbLine
 10
-37.70821969617219
 20
-251.8249891796489
 30
0.0
 11
-42.70821969616975
 21
-251.8249891796489
 31
0.0
  0
LINE
  5
1A5
330
81
100
AcDbEntity
  8
1
  6
Continuous
 62
     2
100
AcDbLine
 10
-37.70821969617219
 20
-251.8249891796489
 30
0.0
 11
-37.70821969617219
 21
-194.4249891796488
 31
0.0
  0
LINE
  5
1A6
330
81
100
AcDbEntity
  8
1
  6
Continuous
 62
     2
100
AcDbLine
 10
-247.7082196961697
 20
-314.224989179649
 30
0.0
 11
-247.7082196961697
 21
-309.224989179649
 31
0.0
  0
LINE
  5
1A7
330
81
100
AcDbEntity
  8
1
  6
Continuous
 62
     2
100
AcDbLine
 10
-179.3748863628363
 20
-314.224989179649
 30
0.0
 11
-179.3748863628363
 21
-309.2249891796519
 31
0.0
  0
LINE
  5
1A8
330
81
100
AcDbEntity
  8
1
  6
Continuous
 62
     2
100
AcDbLine
 10
-111.0415530295031
 20
-314.224989179649
 30
0.0
 11
-111.0415530295031
 21
-309.224989179649
 31
0.0
  0
LINE
  5
1A9
330
81
100
AcDbEntity
  8
1
  6
Continuous
 62
     2
100
AcDbLine
 10
-111.0415530295031
 20
-314.224989179649
 30
0.0
 11
-42.70821969616969
 21
-314.224989179649
 31
0.0
  0
LINE
  5
1AA
330
81
100
AcDbEntity
  8
1
  6
Continuous
 62
     2
100
AcDbLine
 10
-247.7082196961697
 20
-314.224989179649
 30
0.0
 11
-316.0415530295028
 21
-314.224989179649
 31
0.0
  0
ARC
  5
1AB
102
{ACAD_REACTORS
330
224
330
225
102
}
330
81
100
AcDbEntity
  8
0
  6
Continuous
 62
     2
100
AcDbCircle
 10
-159.88152319827
 20
-303.7172653629838
 30
0.0
 40
4.852596863497986
100
AcDbArc
 50
74.0200087416471
 51
84.84185523037608
  0
ARC
  5
1AC
102
{ACAD_REACTORS
330
224
330
225
102
}
330
81
100
AcDbEntity
  8
0
  6
Continuous
 62
     2
100
AcDbCircle
 10
-159.3054825895163
 20
-300.5615050070995
 30
0.0
 40
0.9059297849853498
100
AcDbArc
 50
71.55192388185974
 51
113.3722778881306
  0
ARC
  5
1AD
102
{ACAD_REACTORS
330
224
330
225
102
}
330
81
100
AcDbEntity
  8
0
  6
Continuous
 62
     2
100
AcDbCircle
 10
-159.4619226222184
 20
-300.6096558470665
 30
0.0
 40
0.5115800601947491
100
AcDbArc
 50
208.5214732576844
 51
246.6277221118282
  0
ARC
  5
1AE
102
{ACAD_REACTORS
330
224
330
225
102
}
330
81
100
AcDbEntity
  8
0
  6
Continuous
 62
     2
100
AcDbCircle
 10
-159.3054825895163
 20
-300.2476638283565
 30
0.0
 40
0.9059297849848262
100
AcDbArc
 50
246.6277221118665
 51
288.4480761181539
  0
ARC
  5
1AF
102
{ACAD_REACTORS
330
224
330
225
102
}
330
81
100
AcDbEntity
  8
0
  6
Continuous
 62
     2
100
AcDbCircle
 10
-159.7236503231772
 20
-298.9941180523193
 30
0.0
 40
2.227384008972719
100
AcDbArc
 50
288.4480761181337
 51
301.9309089499637
  0
ARC
  5
1B0
102
{ACAD_REACTORS
330
220
330
221
102
}
330
81
100
AcDbEntity
  8
0
  6
Continuous
 62
     2
100
AcDbCircle
 10
-164.9487240557839
 20
-298.2616160234053
 30
0.0
 40
0.9118481501443941
100
AcDbArc
 50
295.3740086781804
 51
64.62599132180893
  0
ARC
  5
1B1
102
{ACAD_REACTORS
330
220
330
221
102
}
330
81
100
AcDbEntity
  8
0
  6
Continuous
 62
     2
100
AcDbCircle
 10
-164.422681357696
 20
-296.5469391349307
 30
0.0
 40
0.3157169230761851
100
AcDbArc
 50
90.1889670425665
 51
180.0
  0
ARC
  5
1B2
102
{ACAD_REACTORS
330
222
330
223
102
}
330
81
100
AcDbEntity
  8
0
  6
Continuous
 62
     2
100
AcDbCircle
 10
-143.2125511448618
 20
-300.6174679687719
 30
0.0
 40
0.9545230068260935
100
AcDbArc
 50
90.0
 51
109.3371432194281
  0
ARC
  5
1B3
102
{ACAD_REACTORS
330
222
330
223
102
}
330
81
100
AcDbEntity
  8
0
  6
Continuous
 62
     2
100
AcDbCircle
 10
-142.981863884884
 20
-300.404584417728
 30
0.0
 40
0.9410597353350352
100
AcDbArc
 50
151.4785267423573
 51
208.521473257667
  0
ARC
  5
1B4
102
{ACAD_REACTORS
330
222
330
223
102
}
330
81
100
AcDbEntity
  8
0
  6
Continuous
 62
     2
100
AcDbCircle
 10
-143.2027811102623
 20
-300.2476638283565
 30
0.0
 40
0.9059297849852208
100
AcDbArc
 50
246.6277221118088
 51
288.4480761180772
  0
ARC
  5
1B5
102
{ACAD_REACTORS
330
222
330
223
102
}
330
81
100
AcDbEntity
  8
0
  6
Continuous
 62
     2
100
AcDbCircle
 10
-143.6209488439243
 20
-298.9941180523198
 30
0.0
 40
2.227384008972773
100
AcDbArc
 50
288.4480761181333
 51
301.9309089499394
  0
ARC
  5
1B6
102
{ACAD_REACTORS
330
222
330
223
102
}
330
81
100
AcDbEntity
  8
0
  6
Continuous
 62
     2
100
AcDbCircle
 10
-143.7788217190171
 20
-297.0919034724715
 30
0.0
 40
4.852596863498889
100
AcDbArc
 50
275.1581447696373
 51
285.9799912583383
  0
ARC
  5
1B7
102
{ACAD_REACTORS
330
222
330
223
102
}
330
81
100
AcDbEntity
  8
0
  6
Continuous
 62
     2
100
AcDbCircle
 10
-143.4899656242812
 20
-300.2917940556931
 30
0.0
 40
1.639695123940503
100
AcDbArc
 50
195.0618917771007
 51
275.1581447696772
  0
ARC
  5
1B8
102
{ACAD_REACTORS
330
21A
330
21B
102
}
330
81
100
AcDbEntity
  8
0
  6
Continuous
 62
     2
100
AcDbCircle
 10
-159.2181789359723
 20
-296.5738548209815
 30
0.0
 40
1.055365641333651
100
AcDbArc
 50
270.0
 51
90.0
  0
ARC
  5
1B9
102
{ACAD_REACTORS
330
220
330
221
102
}
330
81
100
AcDbEntity
  8
0
  6
Continuous
 62
     2
100
AcDbCircle
 10
-166.9982300442278
 20
-300.9032167009996
 30
0.0
 40
0.3157169230755983
100
AcDbArc
 50
180.0
 51
270.0
  0
ARC
  5
1BA
102
{ACAD_REACTORS
330
220
330
221
102
}
330
81
100
AcDbEntity
  8
0
  6
Continuous
 62
     2
100
AcDbCircle
 10
-165.5223967832182
 20
-296.5467616582825
 30
0.0
 40
0.315716923076593
100
AcDbArc
 50
0.0
 51
90.0
  0
ARC
  5
1BB
102
{ACAD_REACTORS
330
220
330
221
102
}
330
81
100
AcDbEntity
  8
0
  6
Continuous
 62
     2
100
AcDbCircle
 10
-165.5223967832182
 20
-297.1507862773431
 30
0.0
 40
0.3157169230760658
100
AcDbArc
 50
295.1944106485672
 51
0.0
  0
ARC
  5
1BC
102
{ACAD_REACTORS
330
220
330
221
102
}
330
81
100
AcDbEntity
  8
0
  6
Continuous
 62
     2
100
AcDbCircle
 10
-165.5223967832182
 20
-300.9032167009996
 30
0.0
 40
0.3157169230767067
100
AcDbArc
 50
270.0
 51
0.0
  0
ARC
  5
1BD
102
{ACAD_REACTORS
330
220
330
221
102
}
330
81
100
AcDbEntity
  8
0
  6
Continuous
 62
     2
100
AcDbCircle
 10
-167.5921247209743
 20
-295.9427337950498
 30
0.0
 40
0.4242446153838841
100
AcDbArc
 50
90.0
 51
180.0
  0
ARC
  5
1BE
102
{ACAD_REACTORS
330
220
330
221
102
}
330
81
100
AcDbEntity
  8
0
  6
Continuous
 62
     2
100
AcDbCircle
 10
-162.1188126302574
 20
-295.9427337950498
 30
0.0
 40
0.4242446153838841
100
AcDbArc
 50
0.0
 51
90.0
  0
ARC
  5
1BF
102
{ACAD_REACTORS
330
220
330
221
102
}
330
81
100
AcDbEntity
  8
0
  6
Continuous
 62
     2
100
AcDbCircle
 10
-162.1188126302574
 20
-301.50724456425
 30
0.0
 40
0.424244615383202
100
AcDbArc
 50
270.0
 51
0.0
  0
ARC
  5
1C0
102
{ACAD_REACTORS
330
21E
330
21F
102
}
330
81
100
AcDbEntity
  8
0
  6
Continuous
 62
     2
100
AcDbCircle
 10
-152.9004287431659
 20
-297.0453939415536
 30
0.0
 40
0.7717997786795479
100
AcDbArc
 50
321.8795802028385
 51
38.12041979715814
  0
ARC
  5
1C1
102
{ACAD_REACTORS
330
21E
330
21F
102
}
330
81
100
AcDbEntity
  8
0
  6
Continuous
 62
     2
100
AcDbCircle
 10
-152.7006887068197
 20
-297.2021251196741
 30
0.0
 40
0.5179085730134564
100
AcDbArc
 50
218.1204197971334
 51
321.8795802028588
  0
ARC
  5
1C2
102
{ACAD_REACTORS
330
21C
330
21D
102
}
330
81
100
AcDbEntity
  8
0
  6
Continuous
 62
     2
100
AcDbCircle
 10
-156.38069629578
 20
-300.404584417728
 30
0.0
 40
1.45803408365203
100
AcDbArc
 50
297.5481481757055
 51
62.45185182429758
  0
ARC
  5
1C3
102
{ACAD_REACTORS
330
21C
330
21D
102
}
330
81
100
AcDbEntity
  8
0
  6
Continuous
 62
     2
100
AcDbCircle
 10
-156.9425760794466
 20
-300.404584417728
 30
0.0
 40
1.458034083651616
100
AcDbArc
 50
117.5481481756598
 51
242.451851824337
  0
ARC
  5
1C4
102
{ACAD_REACTORS
330
21C
330
21D
102
}
330
81
100
AcDbEntity
  8
0
  6
Continuous
 62
     2
100
AcDbCircle
 10
-156.6616361876132
 20
-300.9431594280308
 30
0.0
 40
2.065479772208694
100
AcDbArc
 50
62.45185182430819
 51
117.5481481756674
  0
ARC
  5
1C5
102
{ACAD_REACTORS
330
21C
330
21D
102
}
330
81
100
AcDbEntity
  8
0
  6
Continuous
 62
     2
100
AcDbCircle
 10
-156.6616361876132
 20
-299.8660094074246
 30
0.0
 40
2.065479772208637
100
AcDbArc
 50
242.4518518243384
 51
297.548148175686
  0
ARC
  5
1C6
102
{ACAD_REACTORS
330
21E
330
21F
102
}
330
81
100
AcDbEntity
  8
0
  6
Continuous
 62
     2
100
AcDbCircle
 10
-152.5009486704735
 20
-297.0453939415536
 30
0.0
 40
0.7717997786796245
100
AcDbArc
 50
141.8795802028484
 51
218.1204197971549
  0
ARC
  5
1C7
102
{ACAD_REACTORS
330
21E
330
21F
102
}
330
81
100
AcDbEntity
  8
0
  6
Continuous
 62
     2
100
AcDbCircle
 10
-152.7006887068197
 20
-296.8886627634331
 30
0.0
 40
0.5179085730133669
100
AcDbArc
 50
38.12041979714121
 51
141.8795802028666
  0
ARC
  5
1C8
102
{ACAD_REACTORS
330
220
330
221
102
}
330
81
100
AcDbEntity
  8
0
  6
Continuous
 62
     2
100
AcDbCircle
 10
-167.5921247209743
 20
-301.50724456425
 30
0.0
 40
0.4242446153827757
100
AcDbArc
 50
180.0
 51
270.0
  0
ARC
  5
1C9
102
{ACAD_REACTORS
330
220
330
221
102
}
330
81
100
AcDbEntity
  8
0
  6
Continuous
 62
     2
100
AcDbCircle
 10
-165.5223967832182
 20
-299.372445769468
 30
0.0
 40
0.315716923076593
100
AcDbArc
 50
0.0
 51
64.805589351446
  0
ARC
  5
1CA
102
{ACAD_REACTORS
330
220
330
221
102
}
330
81
100
AcDbEntity
  8
0
  6
Continuous
 62
     2
100
AcDbCircle
 10
-164.9998123356432
 20
-298.2616160234053
 30
0.0
 40
0.9118975235576433
100
AcDbArc
 50
115.1944106485195
 51
244.8055893514911
  0
ARC
  5
1CB
102
{ACAD_REACTORS
330
220
330
221
102
}
330
81
100
AcDbEntity
  8
0
  6
Continuous
 62
     2
100
AcDbCircle
 10
-166.9982300442278
 20
-296.5467616582825
 30
0.0
 40
0.3157169230760815
100
AcDbArc
 50
90.0
 51
180.0
  0
ARC
  5
1CC
102
{ACAD_REACTORS
330
21A
330
21B
102
}
330
81
100
AcDbEntity
  8
0
  6
Continuous
 62
     2
100
AcDbCircle
 10
-159.6596514622107
 20
-296.534458849759
 30
0.0
 40
0.3528638246710898
100
AcDbArc
 50
270.0
 51
90.0
  0
ARC
  5
1CD
102
{ACAD_REACTORS
330
21E
330
21F
102
}
330
81
100
AcDbEntity
  8
0
  6
Continuous
 62
     2
100
AcDbCircle
 10
-152.9169607169849
 20
-297.0453939415536
 30
0.0
 40
1.526904761905769
100
AcDbArc
 50
90.0
 51
270.0
  0
ARC
  5
1CE
102
{ACAD_REACTORS
330
222
330
223
102
}
330
81
100
AcDbEntity
  8
0
  6
Continuous
 62
     2
100
AcDbCircle
 10
-143.4899656242812
 20
-300.5173747797628
 30
0.0
 40
1.639695123940101
100
AcDbArc
 50
90.0
 51
164.9381082228993
  0
ARC
  5
1CF
102
{ACAD_REACTORS
330
222
330
223
102
}
330
81
100
AcDbEntity
  8
0
  6
Continuous
 62
     2
100
AcDbCircle
 10
-143.9090934677429
 20
-300.404584417728
 30
0.0
 40
1.205656168392975
100
AcDbArc
 50
164.9381082229024
 51
195.0618917770924
  0
ARC
  5
1D0
102
{ACAD_REACTORS
330
222
330
223
102
}
330
81
100
AcDbEntity
  8
0
  6
Continuous
 62
     2
100
AcDbCircle
 10
-143.3592211429655
 20
-300.6096558470665
 30
0.0
 40
0.5115800601959967
100
AcDbArc
 50
208.5214732576881
 51
246.6277221118399
  0
ARC
  5
1D1
102
{ACAD_REACTORS
330
222
330
223
102
}
330
81
100
AcDbEntity
  8
0
  6
Continuous
 62
     2
100
AcDbCircle
 10
-143.3592211429655
 20
-300.1995129883889
 30
0.0
 40
0.5115800601944048
100
AcDbArc
 50
109.3371432194823
 51
151.4785267424182
  0
ARC
  5
1D2
102
{ACAD_REACTORS
330
220
330
221
102
}
330
81
100
AcDbEntity
  8
0
  6
Continuous
 62
     2
100
AcDbCircle
 10
-164.422681357696
 20
-299.9526090300687
 30
0.0
 40
0.315716923076792
100
AcDbArc
 50
180.0
 51
269.8110329574335
  0
ARC
  5
1D3
102
{ACAD_REACTORS
330
220
330
221
102
}
330
81
100
AcDbEntity
  8
0
  6
Continuous
 62
     2
100
AcDbCircle
 10
-164.417065222386
 20
-298.2497740824997
 30
0.0
 40
2.018561131933266
100
AcDbArc
 50
269.8110329575827
 51
90.18896704241737
  0
ARC
  5
1D4
102
{ACAD_REACTORS
330
220
330
221
102
}
330
81
100
AcDbEntity
  8
0
  6
Continuous
 62
     2
100
AcDbCircle
 10
-164.422681357696
 20
-297.1524744234375
 30
0.0
 40
0.315716923076792
100
AcDbArc
 50
180.0
 51
244.6259913216349
  0
ARC
  5
1D5
102
{ACAD_REACTORS
330
220
330
221
102
}
330
81
100
AcDbEntity
  8
0
  6
Continuous
 62
     2
100
AcDbCircle
 10
-164.422681357696
 20
-299.3707576233736
 30
0.0
 40
0.3157169230765328
100
AcDbArc
 50
115.3740086783519
 51
180.0
  0
ARC
  5
1D6
102
{ACAD_REACTORS
330
224
330
225
102
}
330
81
100
AcDbEntity
  8
0
  6
Continuous
 62
     2
100
AcDbCircle
 10
-159.5926671035341
 20
-300.5173747797628
 30
0.0
 40
1.639695123940499
100
AcDbArc
 50
84.84185523036533
 51
164.9381082228905
  0
ARC
  5
1D7
102
{ACAD_REACTORS
330
224
330
225
102
}
330
81
100
AcDbEntity
  8
0
  6
Continuous
 62
     2
100
AcDbCircle
 10
-160.0117949469969
 20
-300.404584417728
 30
0.0
 40
1.205656168390971
100
AcDbArc
 50
164.9381082228768
 51
195.0618917770945
  0
ARC
  5
1D8
102
{ACAD_REACTORS
330
224
330
225
102
}
330
81
100
AcDbEntity
  8
0
  6
Continuous
 62
     2
100
AcDbCircle
 10
-159.5926671035341
 20
-300.2917940556931
 30
0.0
 40
1.639695123939437
100
AcDbArc
 50
195.0618917770922
 51
275.1581447696363
  0
ARC
  5
1D9
102
{ACAD_REACTORS
330
224
330
225
102
}
330
81
100
AcDbEntity
  8
0
  6
Continuous
 62
     2
100
AcDbCircle
 10
-159.88152319827
 20
-297.0919034724715
 30
0.0
 40
4.852596863498272
100
AcDbArc
 50
275.1581447696238
 51
285.9799912583526
  0
ARC
  5
1DA
102
{ACAD_REACTORS
330
224
330
225
102
}
330
81
100
AcDbEntity
  8
0
  6
Continuous
 62
     2
100
AcDbCircle
 10
-159.084565364138
 20
-300.404584417728
 30
0.0
 40
0.9410597353333294
100
AcDbArc
 50
151.4785267422693
 51
208.5214732576972
  0
ARC
  5
1DB
102
{ACAD_REACTORS
330
224
330
225
102
}
330
81
100
AcDbEntity
  8
0
  6
Continuous
 62
     2
100
AcDbCircle
 10
-159.4619226222184
 20
-300.1995129883889
 30
0.0
 40
0.5115800601948293
100
AcDbArc
 50
113.3722778881945
 51
151.4785267423156
  0
ARC
  5
1DC
102
{ACAD_REACTORS
330
224
330
225
102
}
330
81
100
AcDbEntity
  8
0
  6
Continuous
 62
     2
100
AcDbCircle
 10
-159.7236503231772
 20
-301.8150507831361
 30
0.0
 40
2.227384008973465
100
AcDbArc
 50
58.06909105003707
 51
71.55192388186676
  0
ARC
  5
1DD
102
{ACAD_REACTORS
330
21C
330
21D
102
}
330
81
100
AcDbEntity
  8
0
  6
Continuous
 62
     2
100
AcDbCircle
 10
-156.6616361876132
 20
-300.2478532396075
 30
0.0
 40
0.5179085730132806
100
AcDbArc
 50
38.12041979716469
 51
141.8795802028567
  0
ARC
  5
1DE
102
{ACAD_REACTORS
330
21C
330
21D
102
}
330
81
100
AcDbEntity
  8
0
  6
Continuous
 62
     2
100
AcDbCircle
 10
-156.4618961512672
 20
-300.404584417728
 30
0.0
 40
0.771799778679551
100
AcDbArc
 50
141.879580202828
 51
218.120419797162
  0
ARC
  5
1DF
102
{ACAD_REACTORS
330
21C
330
21D
102
}
330
81
100
AcDbEntity
  8
0
  6
Continuous
 62
     2
100
AcDbCircle
 10
-156.6616361876132
 20
-300.5613155958479
 30
0.0
 40
0.5179085730138424
100
AcDbArc
 50
218.1204197971879
 51
321.8795802027908
  0
ARC
  5
1E0
102
{ACAD_REACTORS
330
21C
330
21D
102
}
330
81
100
AcDbEntity
  8
0
  6
Continuous
 62
     2
100
AcDbCircle
 10
-156.8613762239596
 20
-300.404584417728
 30
0.0
 40
0.7717997786795351
100
AcDbArc
 50
321.8795802028432
 51
38.1204197971668
  0
CIRCLE
  5
1E1
330
81
100
AcDbEntity
  8
1
  6
Continuous
 62
     2
100
AcDbCircle
 10
-159.5163693363571
 20
-288.0999891796497
 30
0.0
 40
2.5
  0
CIRCLE
  5
1E2
330
81
100
AcDbEntity
  8
1
  6
Continuous
 62
     2
100
AcDbCircle
 10
-159.5163693363571
 20
-288.0999891796497
 30
0.0
 40
1.25
  0
CIRCLE
  5
1E3
102
{ACAD_REACTORS
330
220
330
221
102
}
330
81
100
AcDbEntity
  8
0
  6
Continuous
 62
     2
100
AcDbCircle
 10
-164.9725390704567
 20
-298.2616160234053
 30
0.0
 40
0.470978932778479
  0
MTEXT
  5
1E4
330
81
100
AcDbEntity
  8
1
 62
     3
100
AcDbMText
 10
-439.2855463848165
 20
-309.1980750801484
 30
0.0
 40
1.8
 41
0.0
 71
     7
 72
     1
  3
Weitergabe sowie Vervielfältigung dieses Dokuments, Verwertung und\PMitteilung seines Inhalts sind verboten, soweit nicht ausdrücklich gestattet.\PZuwiderhandlungen verpflichten zu Schadenersatz. Alle Rechte für den Fall\Pder Patent-, Gebrauchsmuste
  1
r- oder Designeintragung vorbehalten.\PBauartbedingtes Spiel ist in den Toleranzangaben nicht berücksichtigt.
  7
CONVERTER_11
 11
0.0
 21
1.0
 31
0.0
 73
     1
 44
0.99639855942377
  0
MTEXT
  5
1E5
330
81
100
AcDbEntity
  8
1
 62
     3
100
AcDbMText
 10
-439.4397526959104
 20
-136.2387050659953
 30
0.0
 40
1.8
 41
0.0
 71
     7
 72
     1
  3
Transfer or duplication of this document as well as the utilisation or\Pcommunication of its content are not permitted unless express consent\Pis granted. Violations give rise to claims for damages. All rights reserved\Pin case of patent, utility mo
  1
del or design patent registrations.\PTolerance specifications do not include clearances inherent in the design.
  7
CONVERTER_11
 11
0.0
 21
1.0
 31
0.0
 73
     1
 44
0.99639855942377
  0
TEXT
  5
1E6
330
81
100
AcDbEntity
  8
1
 62
     2
100
AcDbText
 10
-153.0530242229198
 20
-307.9840063946411
 30
0.0
 40
1.8
  1
of
 41
0.9
  7
CONVERTER_11
100
AcDbText
  0
TEXT
  5
1E7
330
81
100
AcDbEntity
  8
1
 62
     2
100
AcDbText
 10
-171.2530242229196
 20
-307.9840063946413
 30
0.0
 40
1.8
  1
page
 41
0.9
  7
CONVERTER_11
100
AcDbText
  0
TEXT
  5
1E8
330
81
100
AcDbEntity
  8
1
 62
     2
100
AcDbText
 10
-162.6067592525776
 20
-308.0242378334515
 30
0.0
 40
1.8
  1
1
 41
0.9
  7
CONVERTER_11
100
AcDbText
  0
TEXT
  5
1E9
330
81
100
AcDbEntity
  8
1
 62
     2
100
AcDbText
 10
-147.8177154131061
 20
-307.9749891796496
 30
0.0
 40
1.8
  1
1
 41
0.9
  7
CONVERTER_11
100
AcDbText
  0
MTEXT
  5
1EB
330
81
100
AcDbEntity
  8
1
 62
     7
100
AcDbMText
 10
-89.28062195954419
 20
-305.9749891796494
 30
0.0
 40
3.0
 41
0.0
 71
     5
 72
     1
  1
VS-15-A-GC-ST/ST
  7
CONVERTER_12
 73
     1
 44
1.20048019207683
  0
MTEXT
  5
1EC
330
81
100
AcDbEntity
  8
1
 62
     2
100
AcDbMText
 10
-134.8530242229197
 20
-301.7249891796496
 30
0.0
 40
1.8
 41
0.0
 71
     1
 72
     1
  1
description
  7
CONVERTER_11
 73
     1
 44
1.20048019207683
  0
MTEXT
  5
1ED
330
81
100
AcDbEntity
  8
1
 62
     3
100
AcDbMText
 10
-146.0530242229197
 20
-288.0999891796496
 30
0.0
 40
2.5
 41
0.0
 71
     5
 72
     1
  1
DIN A3
  7
CONVERTER_11
 73
     1
 44
1.20048019207683
  0
MTEXT
  5
1EE
330
81
100
AcDbEntity
  8
1
 62
     2
100
AcDbMText
 10
-78.7266279778472
 20
-292.2249891796496
 30
0.0
 40
1.5
 41
0.0
 71
     4
 72
     1
  1
- Simplified representation\P- Document excluded\P  from change process\P- Linear dimensions [mm]\P- EN ISO 291  23/50
  7
CONVERTER_11
 73
     1
 44
1.20048019207683
  0
MTEXT
  5
1EF
330
81
100
AcDbEntity
  8
1
 62
     2
100
AcDbMText
 10
-88.1266279778472
 20
-284.7249891796496
 30
0.0
 40
1.8
 41
0.0
 71
     1
 72
     1
  1
scale
  7
CONVERTER_11
 73
     1
 44
1.20048019207683
  0
MTEXT
  5
1F1
330
81
100
AcDbEntity
  8
1
 62
     3
100
AcDbMText
 10
-84.9674238370077
 20
-290.9249891796495
 30
0.0
 40
2.5
 41
0.0
 71
     8
 72
     1
  1
2:1
  7
CONVERTER_13
 73
     1
 44
1.32052821128451
  0
TEXT
  5
1F2
330
81
100
AcDbEntity
  8
1
 62
     7
100
AcDbText
 10
-134.7530242229197
 20
-290.9249891796496
 30
0.0
 40
2.5
  1
01129895
 41
0.81
  7
CONVERTER_12
100
AcDbText
  0
MTEXT
  5
1F4
330
81
100
AcDbEntity
  8
1
 62
     2
100
AcDbMText
 10
-134.7530242229197
 20
-284.7249891796496
 30
0.0
 40
1.8
 41
0.0
 71
     1
 72
     1
  1
document-No. / RI
  7
CONVERTER_14
 73
     1
 44
1.32052821128451
  0
TEXT
  5
1F5
330
81
100
AcDbEntity
  8
1
 62
     3
100
AcDbText
 10
-134.8530242229197
 20
-299.4249891796496
 30
0.0
 40
2.5
  1
TECDOC 2D_Design_In
 41
0.81
  7
CONVERTER_12
100
AcDbText
  0
MTEXT
  5
1F6
330
81
100
AcDbEntity
  8
1
 62
     2
100
AcDbMText
 10
-134.8530242229197
 20
-293.2249891796496
 30
0.0
 40
1.8
 41
0.0
 71
     1
 72
     1
  1
document-type
  7
CONVERTER_11
 73
     1
 44
1.20048019207683
  0
MTEXT
  5
1F7
330
81
100
AcDbEntity
  8
1
 62
     2
100
AcDbMText
 10
-108.6266279778468
 20
-284.7249891796496
 30
0.0
 40
1.8
 41
0.0
 71
     1
 72
     1
  1
date
  7
CONVERTER_11
 73
     1
 44
1.32052821128451
  0
TEXT
  5
1F8
330
81
100
AcDbEntity
  8
1
 62
     3
100
AcDbText
 10
-108.6266279778468
 20
-290.9249891796496
 30
0.0
 40
2.5
  1
28.08.2019
 41
0.81
  7
CONVERTER_12
100
AcDbText
  0
TEXT
  5
1F9
330
81
100
AcDbEntity
  8
1
 62
     7
100
AcDbText
 10
-114.7231120038639
 20
-290.9249891796496
 30
0.0
 40
2.5
  1
00
 41
0.81
  7
CONVERTER_12
100
AcDbText
  0
TEXT
  5
1FA
330
81
100
AcDbEntity
  8
1
 62
     7
100
AcDbText
 10
-116.8794765009059
 20
-290.9249891796496
 30
0.0
 40
2.5
  1
/
 41
0.9
  7
CONVERTER_11
100
AcDbText
  0
TEXT
  5
1FB
330
81
100
AcDbEntity
  8
1
 62
     7
100
AcDbText
 10
-419.7082196961694
 20
-21.22498917964879
 30
0.0
 40
2.5
  1
1
 41
0.9
  7
CONVERTER_11
100
AcDbText
  0
TEXT
  5
1FC
330
81
100
AcDbEntity
  8
1
 62
     7
100
AcDbText
 10
-351.3748863628363
 20
-21.22498917964879
 30
0.0
 40
2.5
  1
2
 41
0.9
  7
CONVERTER_11
100
AcDbText
  0
TEXT
  5
1FD
330
81
100
AcDbEntity
  8
1
 62
     7
100
AcDbText
 10
-283.0415530295028
 20
-21.22498917964879
 30
0.0
 40
2.5
  1
3
 41
0.9
  7
CONVERTER_11
100
AcDbText
  0
TEXT
  5
1FE
330
81
100
AcDbEntity
  8
1
 62
     7
100
AcDbText
 10
-214.7082196961697
 20
-21.22498917964879
 30
0.0
 40
2.5
  1
4
 41
0.9
  7
CONVERTER_11
100
AcDbText
  0
TEXT
  5
1FF
330
81
100
AcDbEntity
  8
1
 62
     7
100
AcDbText
 10
-146.3748863628363
 20
-21.22498917964879
 30
0.0
 40
2.5
  1
5
 41
0.9
  7
CONVERTER_11
100
AcDbText
  0
TEXT
  5
200
330
81
100
AcDbEntity
  8
1
 62
     7
100
AcDbText
 10
-78.04155302950306
 20
-21.22498917964879
 30
0.0
 40
2.5
  1
6
 41
0.9
  7
CONVERTER_11
100
AcDbText
  0
TEXT
  5
201
330
81
100
AcDbEntity
  8
1
 62
     7
100
AcDbText
 10
-41.70821969616969
 20
-52.12498917964911
 30
0.0
 40
2.5
  1
A
 41
0.9
  7
CONVERTER_11
100
AcDbText
  0
TEXT
  5
202
330
81
100
AcDbEntity
  8
1
 62
     7
100
AcDbText
 10
-41.70821969616969
 20
-109.524989179649
 30
0.0
 40
2.5
  1
B
 41
0.9
  7
CONVERTER_11
100
AcDbText
  0
TEXT
  5
203
330
81
100
AcDbEntity
  8
1
 62
     7
100
AcDbText
 10
-41.70821969616969
 20
-166.9249891796488
 30
0.0
 40
2.5
  1
C
 41
0.9
  7
CONVERTER_11
100
AcDbText
  0
TEXT
  5
204
330
81
100
AcDbEntity
  8
1
 62
     7
100
AcDbText
 10
-41.70821969616969
 20
-224.3249891796489
 30
0.0
 40
2.5
  1
D
 41
0.9
  7
CONVERTER_11
100
AcDbText
  0
TEXT
  5
205
330
81
100
AcDbEntity
  8
1
 62
     7
100
AcDbText
 10
-351.3748863628363
 20
-313.224989179649
 30
0.0
 40
2.5
  1
2
 41
0.9
  7
CONVERTER_11
100
AcDbText
  0
TEXT
  5
206
330
81
100
AcDbEntity
  8
1
 62
     7
100
AcDbText
 10
-419.7082196961694
 20
-313.224989179649
 30
0.0
 40
2.5
  1
1
 41
0.9
  7
CONVERTER_11
100
AcDbText
  0
TEXT
  5
207
330
81
100
AcDbEntity
  8
1
 62
     7
100
AcDbText
 10
-41.70821969616969
 20
-281.724989179649
 30
0.0
 40
2.5
  1
E
 41
0.9
  7
CONVERTER_11
100
AcDbText
  0
TEXT
  5
208
330
81
100
AcDbEntity
  8
1
 62
     7
100
AcDbText
 10
-283.0415530295028
 20
-313.224989179649
 30
0.0
 40
2.5
  1
3
 41
0.9
  7
CONVERTER_11
100
AcDbText
  0
TEXT
  5
209
330
81
100
AcDbEntity
  8
1
 62
     7
100
AcDbText
 10
-214.7082196961697
 20
-313.224989179649
 30
0.0
 40
2.5
  1
4
 41
0.9
  7
CONVERTER_11
100
AcDbText
  0
TEXT
  5
20A
330
81
100
AcDbEntity
  8
1
 62
     7
100
AcDbText
 10
-146.3748863628365
 20
-313.224989179649
 30
0.0
 40
2.5
  1
5
 41
0.9
  7
CONVERTER_11
100
AcDbText
  0
TEXT
  5
20B
330
81
100
AcDbEntity
  8
1
 62
     7
100
AcDbText
 10
-78.04155302950306
 20
-313.224989179649
 30
0.0
 40
2.5
  1
6
 41
0.9
  7
CONVERTER_11
100
AcDbText
  0
HATCH
  5
20C
330
81
100
AcDbEntity
  8
1
  6
Continuous
 62
     2
100
AcDbHatch
 10
0.0
 20
0.0
 30
0.0
210
0.0
220
0.0
230
1.0
  2
CUSTOM0
 70
     0
 71
     1
 91
        1
 92
        1
 93
       12
 72
     1
 10
-154.5855235099585
 20
-298.5722987034589
 11
-155.778316212125
 21
-298.5722987034589
 72
     1
 10
-155.778316212125
 20
-298.5722987034589
 11
-155.778316212125
 21
-297.4380265946152
 72
     1
 10
-155.778316212125
 20
-297.4380265946152
 11
-156.8279737900324
 21
-297.4380265946152
 72
     1
 10
-156.8279737900324
 20
-297.4380265946152
 11
-156.8279737900324
 21
-298.5722987034589
 72
     1
 10
-156.8279737900324
 20
-298.5722987034589
 11
-158.020766492199
 21
-298.5722987034589
 72
     1
 10
-158.020766492199
 20
-298.5722987034589
 11
-158.020766492199
 21
-295.5184891796478
 72
     1
 10
-158.020766492199
 20
-295.5184891796478
 11
-156.8279737900324
 21
-295.5184891796478
 72
     1
 10
-156.8279737900324
 20
-295.5184891796478
 11
-156.8279737900324
 21
-296.5873225129824
 72
     1
 10
-156.8279737900324
 20
-296.5873225129824
 11
-155.778316212125
 21
-296.5873225129824
 72
     1
 10
-155.778316212125
 20
-296.5873225129824
 11
-155.778316212125
 21
-295.5184891796478
 72
     1
 10
-155.778316212125
 20
-295.5184891796478
 11
-154.5855235099585
 21
-295.5184891796478
 72
     1
 10
-154.5855235099585
 20
-295.5184891796478
 11
-154.5855235099585
 21
-298.5722987034589
 97
       12
330
13F
330
140
330
12A
330
129
330
128
330
13C
330
127
330
13D
330
13E
330
126
330
125
330
124
 75
     1
 76
     2
 52
45.0
 41
0.1
 77
     0
 78
     1
 53
45.0
 43
62.7811309658083
 44
-72.3161373035813
 45
-0.1414213562373095
 46
0.0
 79
     0
 98
        1
 10
0.0
 20
0.0
  0
HATCH
  5
20D
330
81
100
AcDbEntity
  8
1
  6
Continuous
 62
     2
100
AcDbHatch
 10
0.0
 20
0.0
 30
0.0
210
0.0
220
0.0
230
1.0
  2
CUSTOM1
 70
     0
 71
     1
 91
        1
 92
        1
 93
       12
 72
     1
 10
-154.5855235099585
 20
-298.5722987034589
 11
-155.778316212125
 21
-298.5722987034589
 72
     1
 10
-155.778316212125
 20
-298.5722987034589
 11
-155.778316212125
 21
-297.4380265946152
 72
     1
 10
-155.778316212125
 20
-297.4380265946152
 11
-156.8279737900324
 21
-297.4380265946152
 72
     1
 10
-156.8279737900324
 20
-297.4380265946152
 11
-156.8279737900324
 21
-298.5722987034589
 72
     1
 10
-156.8279737900324
 20
-298.5722987034589
 11
-158.020766492199
 21
-298.5722987034589
 72
     1
 10
-158.020766492199
 20
-298.5722987034589
 11
-158.020766492199
 21
-295.5184891796478
 72
     1
 10
-158.020766492199
 20
-295.5184891796478
 11
-156.8279737900324
 21
-295.5184891796478
 72
     1
 10
-156.8279737900324
 20
-295.5184891796478
 11
-156.8279737900324
 21
-296.5873225129824
 72
     1
 10
-156.8279737900324
 20
-296.5873225129824
 11
-155.778316212125
 21
-296.5873225129824
 72
     1
 10
-155.778316212125
 20
-296.5873225129824
 11
-155.778316212125
 21
-295.5184891796478
 72
     1
 10
-155.778316212125
 20
-295.5184891796478
 11
-154.5855235099585
 21
-295.5184891796478
 72
     1
 10
-154.5855235099585
 20
-295.5184891796478
 11
-154.5855235099585
 21
-298.5722987034589
 97
       12
330
13F
330
140
330
12A
330
129
330
128
330
13C
330
127
330
13D
330
13E
330
126
330
125
330
124
 75
     1
 76
     2
 52
45.0
 41
0.1
 77
     0
 78
     1
 53
45.0
 43
62.7811309658083
 44
-72.3161373035813
 45
-0.1414213562373095
 46
0.0
 79
     0
 98
        1
 10
0.0
 20
0.0
  0
HATCH
  5
20E
330
81
100
AcDbEntity
  8
1
  6
Continuous
 62
     2
100
AcDbHatch
 10
0.0
 20
0.0
 30
0.0
210
0.0
220
0.0
230
1.0
  2
CUSTOM2
 70
     0
 71
     1
 91
        1
 92
        1
 93
       10
 72
     1
 10
-152.3432241607702
 20
-300.1864551660273
 11
-153.5837285710232
 21
-298.8776796558221
 72
     1
 10
-153.5837285710232
 20
-298.8776796558221
 11
-154.7765212731907
 21
-298.8776796558221
 72
     1
 10
-154.7765212731907
 20
-298.8776796558221
 11
-154.7765212731907
 21
-301.9314891796332
 72
     1
 10
-154.7765212731907
 20
-301.9314891796332
 11
-153.5837285710232
 21
-301.9314891796332
 72
     1
 10
-153.5837285710232
 20
-301.9314891796332
 11
-153.5837285710232
 21
-300.6227136694287
 72
     1
 10
-153.5837285710232
 20
-300.6227136694287
 11
-152.3432241607702
 21
-301.9314891796332
 72
     1
 10
-152.3432241607702
 20
-301.9314891796332
 11
-151.1504314586038
 21
-301.9314891796332
 72
     1
 10
-151.1504314586038
 20
-301.9314891796332
 11
-151.1504314586038
 21
-298.8776796558221
 72
     1
 10
-151.1504314586038
 20
-298.8776796558221
 11
-152.3432241607702
 21
-298.8776796558221
 72
     1
 10
-152.3432241607702
 20
-298.8776796558221
 11
-152.3432241607702
 21
-300.1864551660273
 97
       10
330
14D
330
11D
330
11C
330
11F
330
148
330
149
330
11E
330
14A
330
14B
330
14C
 75
     1
 76
     2
 52
45.0
 41
0.1
 77
     0
 78
     1
 53
45.0
 43
62.7811309658083
 44
-72.3161373035813
 45
-0.1414213562373095
 46
0.0
 79
     0
 98
        1
 10
0.0
 20
0.0
  0
HATCH
  5
20F
330
81
100
AcDbEntity
  8
1
  6
Continuous
 62
     2
100
AcDbHatch
 10
0.0
 20
0.0
 30
0.0
210
0.0
220
0.0
230
1.0
  2
CUSTOM3
 70
     0
 71
     1
 91
        1
 92
        1
 93
       10
 72
     1
 10
-152.3432241607702
 20
-300.1864551660273
 11
-153.5837285710232
 21
-298.8776796558221
 72
     1
 10
-153.5837285710232
 20
-298.8776796558221
 11
-154.7765212731907
 21
-298.8776796558221
 72
     1
 10
-154.7765212731907
 20
-298.8776796558221
 11
-154.7765212731907
 21
-301.9314891796332
 72
     1
 10
-154.7765212731907
 20
-301.9314891796332
 11
-153.5837285710232
 21
-301.9314891796332
 72
     1
 10
-153.5837285710232
 20
-301.9314891796332
 11
-153.5837285710232
 21
-300.6227136694287
 72
     1
 10
-153.5837285710232
 20
-300.6227136694287
 11
-152.3432241607702
 21
-301.9314891796332
 72
     1
 10
-152.3432241607702
 20
-301.9314891796332
 11
-151.1504314586038
 21
-301.9314891796332
 72
     1
 10
-151.1504314586038
 20
-301.9314891796332
 11
-151.1504314586038
 21
-298.8776796558221
 72
     1
 10
-151.1504314586038
 20
-298.8776796558221
 11
-152.3432241607702
 21
-298.8776796558221
 72
     1
 10
-152.3432241607702
 20
-298.8776796558221
 11
-152.3432241607702
 21
-300.1864551660273
 97
       10
330
14D
330
11D
330
11C
330
11F
330
148
330
149
330
11E
330
14A
330
14B
330
14C
 75
     1
 76
     2
 52
45.0
 41
0.1
 77
     0
 78
     1
 53
45.0
 43
62.7811309658083
 44
-72.3161373035813
 45
-0.1414213562373095
 46
0.0
 79
     0
 98
        1
 10
0.0
 20
0.0
  0
HATCH
  5
210
330
81
100
AcDbEntity
  8
1
  6
Continuous
 62
     2
100
AcDbHatch
 10
0.0
 20
0.0
 30
0.0
210
0.0
220
0.0
230
1.0
  2
CUSTOM4
 70
     0
 71
     1
 91
        1
 92
        1
 93
       10
 72
     1
 10
-147.0947853403505
 20
-296.8272646898529
 11
-148.3352897506046
 21
-295.5184891796478
 72
     1
 10
-148.3352897506046
 20
-295.5184891796478
 11
-149.528082452771
 21
-295.5184891796478
 72
     1
 10
-149.528082452771
 20
-295.5184891796478
 11
-149.528082452771
 21
-298.5722987034589
 72
     1
 10
-149.528082452771
 20
-298.5722987034589
 11
-148.3352897506046
 21
-298.5722987034589
 72
     1
 10
-148.3352897506046
 20
-298.5722987034589
 11
-148.3352897506046
 21
-297.2635231932542
 72
     1
 10
-148.3352897506046
 20
-297.2635231932542
 11
-147.0947853403505
 21
-298.5722987034589
 72
     1
 10
-147.0947853403505
 20
-298.5722987034589
 11
-145.9019926381839
 21
-298.5722987034589
 72
     1
 10
-145.9019926381839
 20
-298.5722987034589
 11
-145.9019926381839
 21
-295.5184891796478
 72
     1
 10
-145.9019926381839
 20
-295.5184891796478
 11
-147.0947853403505
 21
-295.5184891796478
 72
     1
 10
-147.0947853403505
 20
-295.5184891796478
 11
-147.0947853403505
 21
-296.8272646898529
 97
       10
330
152
330
11A
330
119
330
153
330
118
330
14E
330
14F
330
150
330
151
330
11B
 75
     1
 76
     2
 52
45.0
 41
0.1
 77
     0
 78
     1
 53
45.0
 43
62.7811309658083
 44
-72.3161373035813
 45
-0.1414213562373095
 46
0.0
 79
     0
 98
        1
 10
0.0
 20
0.0
  0
HATCH
  5
211
330
81
100
AcDbEntity
  8
1
  6
Continuous
 62
     2
100
AcDbHatch
 10
0.0
 20
0.0
 30
0.0
210
0.0
220
0.0
230
1.0
  2
CUSTOM5
 70
     0
 71
     1
 91
        1
 92
        1
 93
       10
 72
     1
 10
-147.0947853403505
 20
-296.8272646898529
 11
-148.3352897506046
 21
-295.5184891796478
 72
     1
 10
-148.3352897506046
 20
-295.5184891796478
 11
-149.528082452771
 21
-295.5184891796478
 72
     1
 10
-149.528082452771
 20
-295.5184891796478
 11
-149.528082452771
 21
-298.5722987034589
 72
     1
 10
-149.528082452771
 20
-298.5722987034589
 11
-148.3352897506046
 21
-298.5722987034589
 72
     1
 10
-148.3352897506046
 20
-298.5722987034589
 11
-148.3352897506046
 21
-297.2635231932542
 72
     1
 10
-148.3352897506046
 20
-297.2635231932542
 11
-147.0947853403505
 21
-298.5722987034589
 72
     1
 10
-147.0947853403505
 20
-298.5722987034589
 11
-145.9019926381839
 21
-298.5722987034589
 72
     1
 10
-145.9019926381839
 20
-298.5722987034589
 11
-145.9019926381839
 21
-295.5184891796478
 72
     1
 10
-145.9019926381839
 20
-295.5184891796478
 11
-147.0947853403505
 21
-295.5184891796478
 72
     1
 10
-147.0947853403505
 20
-295.5184891796478
 11
-147.0947853403505
 21
-296.8272646898529
 97
       10
330
152
330
11A
330
119
330
153
330
118
330
14E
330
14F
330
150
330
151
330
11B
 75
     1
 76
     2
 52
45.0
 41
0.1
 77
     0
 78
     1
 53
45.0
 43
62.7811309658083
 44
-72.3161373035813
 45
-0.1414213562373095
 46
0.0
 79
     0
 98
        1
 10
0.0
 20
0.0
  0
HATCH
  5
212
330
81
100
AcDbEntity
  8
1
  6
Continuous
 62
     2
100
AcDbHatch
 10
0.0
 20
0.0
 30
0.0
210
0.0
220
0.0
230
1.0
  2
CUSTOM6
 70
     0
 71
     1
 91
        1
 92
        1
 93
        8
 72
     1
 10
-148.19230555723
 20
-298.8776796558221
 11
-151.0072963343437
 21
-298.8776796558221
 72
     1
 10
-151.0072963343437
 20
-298.8776796558221
 11
-151.0072963343437
 21
-299.6629449619458
 72
     1
 10
-151.0072963343437
 20
-299.6629449619458
 11
-150.196197296869
 21
-299.6629449619458
 72
     1
 10
-150.196197296869
 20
-299.6629449619458
 11
-150.196197296869
 21
-301.9314891796332
 72
     1
 10
-150.196197296869
 20
-301.9314891796332
 11
-149.0034045947026
 21
-301.9314891796332
 72
     1
 10
-149.0034045947026
 20
-301.9314891796332
 11
-149.0034045947026
 21
-299.6629449619458
 72
     1
 10
-149.0034045947026
 20
-299.6629449619458
 11
-148.19230555723
 21
-299.6629449619458
 72
     1
 10
-148.19230555723
 20
-299.6629449619458
 11
-148.19230555723
 21
-298.8776796558221
 97
        8
330
114
330
154
330
113
330
155
330
156
330
117
330
116
330
115
 75
     1
 76
     2
 52
45.0
 41
0.1
 77
     0
 78
     1
 53
45.0
 43
62.7811309658083
 44
-72.3161373035813
 45
-0.1414213562373095
 46
0.0
 79
     0
 98
        1
 10
0.0
 20
0.0
  0
HATCH
  5
213
330
81
100
AcDbEntity
  8
1
  6
Continuous
 62
     2
100
AcDbHatch
 10
0.0
 20
0.0
 30
0.0
210
0.0
220
0.0
230
1.0
  2
CUSTOM7
 70
     0
 71
     1
 91
        1
 92
        1
 93
        8
 72
     1
 10
-148.19230555723
 20
-298.8776796558221
 11
-151.0072963343437
 21
-298.8776796558221
 72
     1
 10
-151.0072963343437
 20
-298.8776796558221
 11
-151.0072963343437
 21
-299.6629449619458
 72
     1
 10
-151.0072963343437
 20
-299.6629449619458
 11
-150.196197296869
 21
-299.6629449619458
 72
     1
 10
-150.196197296869
 20
-299.6629449619458
 11
-150.196197296869
 21
-301.9314891796332
 72
     1
 10
-150.196197296869
 20
-301.9314891796332
 11
-149.0034045947026
 21
-301.9314891796332
 72
     1
 10
-149.0034045947026
 20
-301.9314891796332
 11
-149.0034045947026
 21
-299.6629449619458
 72
     1
 10
-149.0034045947026
 20
-299.6629449619458
 11
-148.19230555723
 21
-299.6629449619458
 72
     1
 10
-148.19230555723
 20
-299.6629449619458
 11
-148.19230555723
 21
-298.8776796558221
 97
        8
330
114
330
154
330
113
330
155
330
156
330
117
330
116
330
115
 75
     1
 76
     2
 52
45.0
 41
0.1
 77
     0
 78
     1
 53
45.0
 43
62.7811309658083
 44
-72.3161373035813
 45
-0.1414213562373095
 46
0.0
 79
     0
 98
        1
 10
0.0
 20
0.0
  0
HATCH
  5
214
330
81
100
AcDbEntity
  8
1
  6
Continuous
 62
     2
100
AcDbHatch
 10
0.0
 20
0.0
 30
0.0
210
0.0
220
0.0
230
1.0
  2
CUSTOM8
 70
     0
 71
     1
 91
        2
 92
        1
 93
        8
 72
     1
 10
-146.053878101283
 20
-301.9314891796332
 11
-146.2653581547588
 21
-301.3905286354154
 72
     1
 10
-146.2653581547588
 20
-301.3905286354154
 11
-147.3977997314327
 21
-301.3905286354154
 72
     1
 10
-147.3977997314327
 20
-301.3905286354154
 11
-147.6092797849085
 21
-301.9314891796332
 72
     1
 10
-147.6092797849085
 20
-301.9314891796332
 11
-148.8497841951614
 21
-301.9314891796332
 72
     1
 10
-148.8497841951614
 20
-301.9314891796332
 11
-147.4518311482222
 21
-298.8776796558221
 72
     1
 10
-147.4518311482222
 20
-298.8776796558221
 11
-146.2113267379694
 21
-298.8776796558221
 72
     1
 10
-146.2113267379694
 20
-298.8776796558221
 11
-144.8133736910291
 21
-301.9314891796332
 72
     1
 10
-144.8133736910291
 20
-301.9314891796332
 11
-146.053878101283
 21
-301.9314891796332
 97
        8
330
158
330
159
330
110
330
15A
330
10F
330
112
330
157
330
111
 92
       16
 93
        3
 72
     1
 10
-147.1317441802876
 20
-300.7099653701088
 11
-146.8315789430953
 21
-299.9421504041221
 72
     1
 10
-146.8315789430953
 20
-299.9421504041221
 11
-146.5314137059051
 21
-300.7099653701088
 72
     1
 10
-146.5314137059051
 20
-300.7099653701088
 11
-147.1317441802876
 21
-300.7099653701088
 97
        3
330
10E
330
15C
330
15B
 75
     1
 76
     2
 52
45.0
 41
0.1
 77
     0
 78
     1
 53
45.0
 43
62.7811309658083
 44
-72.3161373035813
 45
-0.1414213562373095
 46
0.0
 79
     0
 98
        1
 10
0.0
 20
0.0
  0
HATCH
  5
215
330
81
100
AcDbEntity
  8
1
  6
Continuous
 62
     2
100
AcDbHatch
 10
0.0
 20
0.0
 30
0.0
210
0.0
220
0.0
230
1.0
  2
CUSTOM9
 70
     0
 71
     1
 91
        2
 92
        1
 93
        8
 72
     1
 10
-146.053878101283
 20
-301.9314891796332
 11
-146.2653581547588
 21
-301.3905286354154
 72
     1
 10
-146.2653581547588
 20
-301.3905286354154
 11
-147.3977997314327
 21
-301.3905286354154
 72
     1
 10
-147.3977997314327
 20
-301.3905286354154
 11
-147.6092797849085
 21
-301.9314891796332
 72
     1
 10
-147.6092797849085
 20
-301.9314891796332
 11
-148.8497841951614
 21
-301.9314891796332
 72
     1
 10
-148.8497841951614
 20
-301.9314891796332
 11
-147.4518311482222
 21
-298.8776796558221
 72
     1
 10
-147.4518311482222
 20
-298.8776796558221
 11
-146.2113267379694
 21
-298.8776796558221
 72
     1
 10
-146.2113267379694
 20
-298.8776796558221
 11
-144.8133736910291
 21
-301.9314891796332
 72
     1
 10
-144.8133736910291
 20
-301.9314891796332
 11
-146.053878101283
 21
-301.9314891796332
 97
        8
330
158
330
159
330
110
330
15A
330
10F
330
112
330
157
330
111
 92
       16
 93
        3
 72
     1
 10
-147.1317441802876
 20
-300.7099653701088
 11
-146.8315789430953
 21
-299.9421504041221
 72
     1
 10
-146.8315789430953
 20
-299.9421504041221
 11
-146.5314137059051
 21
-300.7099653701088
 72
     1
 10
-146.5314137059051
 20
-300.7099653701088
 11
-147.1317441802876
 21
-300.7099653701088
 97
        3
330
10E
330
15C
330
15B
 75
     1
 76
     2
 52
45.0
 41
0.1
 77
     0
 78
     1
 53
45.0
 43
62.7811309658083
 44
-72.3161373035813
 45
-0.1414213562373095
 46
0.0
 79
     0
 98
        1
 10
0.0
 20
0.0
  0
HATCH
  5
216
330
81
100
AcDbEntity
  8
1
  6
Continuous
 62
     2
100
AcDbHatch
 10
0.0
 20
0.0
 30
0.0
210
0.0
220
0.0
230
1.0
  2
CUSTOM10
 70
     0
 71
     1
 91
        1
 92
        1
 93
        4
 72
     1
 10
-144.4229296874971
 20
-298.5722987034589
 11
-145.66343409775
 21
-298.5722987034589
 72
     1
 10
-145.66343409775
 20
-298.5722987034589
 11
-145.66343409775
 21
-295.5184891796478
 72
     1
 10
-145.66343409775
 20
-295.5184891796478
 11
-144.4229296874971
 21
-295.5184891796478
 72
     1
 10
-144.4229296874971
 20
-295.5184891796478
 11
-144.4229296874971
 21
-298.5722987034589
 97
        4
330
10B
330
10D
330
15D
330
10C
 75
     1
 76
     2
 52
45.0
 41
0.1
 77
     0
 78
     1
 53
45.0
 43
62.7811309658083
 44
-72.3161373035813
 45
-0.1414213562373095
 46
0.0
 79
     0
 98
        1
 10
0.0
 20
0.0
  0
HATCH
  5
217
330
81
100
AcDbEntity
  8
1
  6
Continuous
 62
     2
100
AcDbHatch
 10
0.0
 20
0.0
 30
0.0
210
0.0
220
0.0
230
1.0
  2
CUSTOM11
 70
     0
 71
     1
 91
        1
 92
        1
 93
        4
 72
     1
 10
-144.4229296874971
 20
-298.5722987034589
 11
-145.66343409775
 21
-298.5722987034589
 72
     1
 10
-145.66343409775
 20
-298.5722987034589
 11
-145.66343409775
 21
-295.5184891796478
 72
     1
 10
-145.66343409775
 20
-295.5184891796478
 11
-144.4229296874971
 21
-295.5184891796478
 72
     1
 10
-144.4229296874971
 20
-295.5184891796478
 11
-144.4229296874971
 21
-298.5722987034589
 97
        4
330
10B
330
10D
330
15D
330
10C
 75
     1
 76
     2
 52
45.0
 41
0.1
 77
     0
 78
     1
 53
45.0
 43
62.7811309658083
 44
-72.3161373035813
 45
-0.1414213562373095
 46
0.0
 79
     0
 98
        1
 10
0.0
 20
0.0
  0
HATCH
  5
218
330
81
100
AcDbEntity
  8
1
  6
Continuous
 62
     2
100
AcDbHatch
 10
0.0
 20
0.0
 30
0.0
210
0.0
220
0.0
230
1.0
  2
CUSTOM12
 70
     0
 71
     1
 91
        1
 92
        1
 93
       12
 72
     1
 10
-140.2004435218263
 20
-295.5184891796478
 11
-141.5029731525929
 21
-296.991439709684
 72
     1
 10
-141.5029731525929
 20
-296.991439709684
 11
-140.1050201056526
 21
-298.5722987034589
 72
     1
 10
-140.1050201056526
 20
-298.5722987034589
 11
-141.5077443234009
 21
-298.5722987034589
 72
     1
 10
-141.5077443234009
 20
-298.5722987034589
 11
-142.2043352614663
 21
-297.7845669181652
 72
     1
 10
-142.2043352614663
 20
-297.7845669181652
 11
-142.9009261995321
 21
-298.5722987034589
 72
     1
 10
-142.9009261995321
 20
-298.5722987034589
 11
-144.3036504172802
 21
-298.5722987034589
 72
     1
 10
-144.3036504172802
 20
-298.5722987034589
 11
-142.9056973703399
 21
-296.991439709684
 72
     1
 10
-142.9056973703399
 20
-296.991439709684
 11
-144.2082270011074
 21
-295.5184891796478
 72
     1
 10
-144.2082270011074
 20
-295.5184891796478
 11
-142.8055027833582
 21
-295.5184891796478
 72
     1
 10
-142.8055027833582
 20
-295.5184891796478
 11
-142.2043352614663
 21
-296.1983125012033
 72
     1
 10
-142.2043352614663
 20
-296.1983125012033
 11
-141.6031677395735
 21
-295.5184891796478
 72
     1
 10
-141.6031677395735
 20
-295.5184891796478
 11
-140.2004435218263
 21
-295.5184891796478
 97
       12
330
106
330
105
330
104
330
161
330
162
330
15E
330
15F
330
10A
330
109
330
108
330
107
330
160
 75
     1
 76
     2
 52
45.0
 41
0.1
 77
     0
 78
     1
 53
45.0
 43
62.7811309658083
 44
-72.3161373035813
 45
-0.1414213562373095
 46
0.0
 79
     0
 98
        1
 10
0.0
 20
0.0
  0
HATCH
  5
219
330
81
100
AcDbEntity
  8
1
  6
Continuous
 62
     2
100
AcDbHatch
 10
0.0
 20
0.0
 30
0.0
210
0.0
220
0.0
230
1.0
  2
CUSTOM13
 70
     0
 71
     1
 91
        1
 92
        1
 93
       12
 72
     1
 10
-140.2004435218263
 20
-295.5184891796478
 11
-141.5029731525929
 21
-296.991439709684
 72
     1
 10
-141.5029731525929
 20
-296.991439709684
 11
-140.1050201056526
 21
-298.5722987034589
 72
     1
 10
-140.1050201056526
 20
-298.5722987034589
 11
-141.5077443234009
 21
-298.5722987034589
 72
     1
 10
-141.5077443234009
 20
-298.5722987034589
 11
-142.2043352614663
 21
-297.7845669181652
 72
     1
 10
-142.2043352614663
 20
-297.7845669181652
 11
-142.9009261995321
 21
-298.5722987034589
 72
     1
 10
-142.9009261995321
 20
-298.5722987034589
 11
-144.3036504172802
 21
-298.5722987034589
 72
     1
 10
-144.3036504172802
 20
-298.5722987034589
 11
-142.9056973703399
 21
-296.991439709684
 72
     1
 10
-142.9056973703399
 20
-296.991439709684
 11
-144.2082270011074
 21
-295.5184891796478
 72
     1
 10
-144.2082270011074
 20
-295.5184891796478
 11
-142.8055027833582
 21
-295.5184891796478
 72
     1
 10
-142.8055027833582
 20
-295.5184891796478
 11
-142.2043352614663
 21
-296.1983125012033
 72
     1
 10
-142.2043352614663
 20
-296.1983125012033
 11
-141.6031677395735
 21
-295.5184891796478
 72
     1
 10
-141.6031677395735
 20
-295.5184891796478
 11
-140.2004435218263
 21
-295.5184891796478
 97
       12
330
106
330
105
330
104
330
161
330
162
330
15E
330
15F
330
10A
330
109
330
108
330
107
330
160
 75
     1
 76
     2
 52
45.0
 41
0.1
 77
     0
 78
     1
 53
45.0
 43
62.7811309658083
 44
-72.3161373035813
 45
-0.1414213562373095
 46
0.0
 79
     0
 98
        1
 10
0.0
 20
0.0
  0
HATCH
  5
21A
330
81
100
AcDbEntity
  8
1
  6
Continuous
 62
     2
100
AcDbHatch
 10
0.0
 20
0.0
 30
0.0
210
0.0
220
0.0
230
1.0
  2
CUSTOM14
 70
     0
 71
     1
 91
        2
 92
        1
 93
        6
 72
     1
 10
-159.2181789359723
 20
-297.6292204623152
 11
-159.9769465237527
 21
-297.6292204623152
 72
     1
 10
-159.9769465237527
 20
-297.6292204623152
 11
-159.9769465237527
 21
-298.5722987034589
 72
     1
 10
-159.9769465237527
 20
-298.5722987034589
 11
-161.2174509340067
 21
-298.5722987034589
 72
     1
 10
-161.2174509340067
 20
-298.5722987034589
 11
-161.2174509340067
 21
-295.5184891796478
 72
     1
 10
-161.2174509340067
 20
-295.5184891796478
 11
-159.2181789359723
 21
-295.5184891796478
 72
     2
 10
-159.2181789359723
 20
-296.5738548209815
 40
1.055365641333651
 50
270.0
 51
450.0
 73
     0
 97
        6
330
12E
330
12D
330
13A
330
139
330
12F
330
1B8
 92
       16
 93
        4
 72
     2
 10
-159.6596514622107
 20
-296.534458849759
 40
0.3528638246710898
 50
270.0
 51
450.0
 73
     1
 72
     1
 10
-159.6596514622107
 20
-296.1815950250878
 11
-159.9769465237527
 21
-296.1815950250878
 72
     1
 10
-159.9769465237527
 20
-296.1815950250878
 11
-159.9769465237527
 21
-296.8873226744301
 72
     1
 10
-159.9769465237527
 20
-296.8873226744301
 11
-159.6596514622107
 21
-296.8873226744301
 97
        4
330
1CC
330
12B
330
13B
330
12C
 75
     1
 76
     2
 52
45.0
 41
0.1
 77
     0
 78
     1
 53
45.0
 43
62.7811309658083
 44
-72.3161373035813
 45
-0.1414213562373095
 46
0.0
 79
     0
 98
        1
 10
0.0
 20
0.0
  0
HATCH
  5
21B
330
81
100
AcDbEntity
  8
1
  6
Continuous
 62
     2
100
AcDbHatch
 10
0.0
 20
0.0
 30
0.0
210
0.0
220
0.0
230
1.0
  2
CUSTOM15
 70
     0
 71
     1
 91
        2
 92
        1
 93
        6
 72
     1
 10
-159.2181789359723
 20
-297.6292204623152
 11
-159.9769465237527
 21
-297.6292204623152
 72
     1
 10
-159.9769465237527
 20
-297.6292204623152
 11
-159.9769465237527
 21
-298.5722987034589
 72
     1
 10
-159.9769465237527
 20
-298.5722987034589
 11
-161.2174509340067
 21
-298.5722987034589
 72
     1
 10
-161.2174509340067
 20
-298.5722987034589
 11
-161.2174509340067
 21
-295.5184891796478
 72
     1
 10
-161.2174509340067
 20
-295.5184891796478
 11
-159.2181789359723
 21
-295.5184891796478
 72
     2
 10
-159.2181789359723
 20
-296.5738548209815
 40
1.055365641333651
 50
270.0
 51
450.0
 73
     0
 97
        6
330
12E
330
12D
330
13A
330
139
330
12F
330
1B8
 92
       16
 93
        4
 72
     2
 10
-159.6596514622107
 20
-296.534458849759
 40
0.3528638246710898
 50
270.0
 51
450.0
 73
     1
 72
     1
 10
-159.6596514622107
 20
-296.1815950250878
 11
-159.9769465237527
 21
-296.1815950250878
 72
     1
 10
-159.9769465237527
 20
-296.1815950250878
 11
-159.9769465237527
 21
-296.8873226744301
 72
     1
 10
-159.9769465237527
 20
-296.8873226744301
 11
-159.6596514622107
 21
-296.8873226744301
 97
        4
330
1CC
330
12B
330
13B
330
12C
 75
     1
 76
     2
 52
45.0
 41
0.1
 77
     0
 78
     1
 53
45.0
 43
62.7811309658083
 44
-72.3161373035813
 45
-0.1414213562373095
 46
0.0
 79
     0
 98
        1
 10
0.0
 20
0.0
  0
HATCH
  5
21C
330
81
100
AcDbEntity
  8
1
  6
Continuous
 62
     2
100
AcDbHatch
 10
0.0
 20
0.0
 30
0.0
210
0.0
220
0.0
230
1.0
  2
CUSTOM16
 70
     0
 71
     1
 91
        2
 92
        1
 93
        4
 72
     2
 10
-156.6616361876132
 20
-300.9431594280308
 40
2.065479772208694
 50
62.45185182430819
 51
117.5481481756674
 73
     1
 72
     2
 10
-156.9425760794466
 20
-300.404584417728
 40
1.458034083651616
 50
117.5481481756598
 51
242.451851824337
 73
     1
 72
     2
 10
-156.6616361876132
 20
-299.8660094074246
 40
2.065479772208637
 50
242.4518518243384
 51
297.548148175686
 73
     1
 72
     2
 10
-156.38069629578
 20
-300.404584417728
 40
1.45803408365203
 50
297.5481481757055
 51
422.4518518242976
 73
     1
 97
        4
330
1C4
330
1C3
330
1C5
330
1C2
 92
       16
 93
        4
 72
     2
 10
-156.8613762239596
 20
-300.404584417728
 40
0.7717997786795351
 50
321.8795802028432
 51
398.1204197971668
 73
     1
 72
     2
 10
-156.6616361876132
 20
-300.2478532396075
 40
0.5179085730132806
 50
38.12041979716469
 51
141.8795802028567
 73
     1
 72
     2
 10
-156.4618961512672
 20
-300.404584417728
 40
0.771799778679551
 50
141.879580202828
 51
218.120419797162
 73
     1
 72
     2
 10
-156.6616361876132
 20
-300.5613155958479
 40
0.5179085730138424
 50
218.1204197971879
 51
321.8795802027908
 73
     1
 97
        4
330
1E0
330
1DD
330
1DE
330
1DF
 75
     1
 76
     2
 52
45.0
 41
0.1
 77
     0
 78
     1
 53
45.0
 43
62.7811309658083
 44
-72.3161373035813
 45
-0.1414213562373095
 46
0.0
 79
     0
 98
        1
 10
0.0
 20
0.0
  0
HATCH
  5
21D
330
81
100
AcDbEntity
  8
1
  6
Continuous
 62
     2
100
AcDbHatch
 10
0.0
 20
0.0
 30
0.0
210
0.0
220
0.0
230
1.0
  2
CUSTOM17
 70
     0
 71
     1
 91
        2
 92
        1
 93
        4
 72
     2
 10
-156.6616361876132
 20
-300.9431594280308
 40
2.065479772208694
 50
62.45185182430819
 51
117.5481481756674
 73
     1
 72
     2
 10
-156.9425760794466
 20
-300.404584417728
 40
1.458034083651616
 50
117.5481481756598
 51
242.451851824337
 73
     1
 72
     2
 10
-156.6616361876132
 20
-299.8660094074246
 40
2.065479772208637
 50
242.4518518243384
 51
297.548148175686
 73
     1
 72
     2
 10
-156.38069629578
 20
-300.404584417728
 40
1.45803408365203
 50
297.5481481757055
 51
422.4518518242976
 73
     1
 97
        4
330
1C4
330
1C3
330
1C5
330
1C2
 92
       16
 93
        4
 72
     2
 10
-156.8613762239596
 20
-300.404584417728
 40
0.7717997786795351
 50
321.8795802028432
 51
398.1204197971668
 73
     1
 72
     2
 10
-156.6616361876132
 20
-300.2478532396075
 40
0.5179085730132806
 50
38.12041979716469
 51
141.8795802028567
 73
     1
 72
     2
 10
-156.4618961512672
 20
-300.404584417728
 40
0.771799778679551
 50
141.879580202828
 51
218.120419797162
 73
     1
 72
     2
 10
-156.6616361876132
 20
-300.5613155958479
 40
0.5179085730138424
 50
218.1204197971879
 51
321.8795802027908
 73
     1
 97
        4
330
1E0
330
1DD
330
1DE
330
1DF
 75
     1
 76
     2
 52
45.0
 41
0.1
 77
     0
 78
     1
 53
45.0
 43
62.7811309658083
 44
-72.3161373035813
 45
-0.1414213562373095
 46
0.0
 79
     0
 98
        1
 10
0.0
 20
0.0
  0
HATCH
  5
21E
330
81
100
AcDbEntity
  8
1
  6
Continuous
 62
     2
100
AcDbHatch
 10
0.0
 20
0.0
 30
0.0
210
0.0
220
0.0
230
1.0
  2
CUSTOM18
 70
     0
 71
     1
 91
        2
 92
        1
 93
       12
 72
     1
 10
-149.766640993204
 20
-296.2165027850907
 11
-151.1025688196316
 21
-296.2165027850907
 72
     1
 10
-151.1025688196316
 20
-296.2165027850907
 11
-151.1025688196316
 21
-296.6963871388324
 72
     1
 10
-151.1025688196316
 20
-296.6963871388324
 11
-149.766640993204
 21
-296.6963871388324
 72
     1
 10
-149.766640993204
 20
-296.6963871388324
 11
-149.766640993204
 21
-297.3944007442748
 72
     1
 10
-149.766640993204
 20
-297.3944007442748
 11
-151.1025688196316
 21
-297.3944007442748
 72
     1
 10
-151.1025688196316
 20
-297.3944007442748
 11
-151.1025688196316
 21
-297.8742850980165
 72
     1
 10
-151.1025688196316
 20
-297.8742850980165
 11
-149.766640993204
 21
-297.8742850980165
 72
     1
 10
-149.766640993204
 20
-297.8742850980165
 11
-149.766640993204
 21
-298.5722987034589
 72
     1
 10
-149.766640993204
 20
-298.5722987034589
 11
-152.9169607169849
 21
-298.5722987034589
 72
     2
 10
-152.9169607169849
 20
-297.0453939415536
 40
1.526904761905769
 50
90.0
 51
270.0
 73
     0
 72
     1
 10
-152.9169607169849
 20
-295.5184891796478
 11
-149.766640993204
 21
-295.5184891796478
 72
     1
 10
-149.766640993204
 20
-295.5184891796478
 11
-149.766640993204
 21
-296.2165027850907
 97
       12
330
142
330
1CD
330
143
330
144
330
145
330
146
330
123
330
122
330
121
330
120
330
147
330
141
 92
       16
 93
        4
 72
     2
 10
-152.7006887068197
 20
-296.8886627634331
 40
0.5179085730133669
 50
38.12041979714121
 51
141.8795802028666
 73
     1
 72
     2
 10
-152.5009486704735
 20
-297.0453939415536
 40
0.7717997786796245
 50
141.8795802028484
 51
218.1204197971549
 73
     1
 72
     2
 10
-152.7006887068197
 20
-297.2021251196741
 40
0.5179085730134564
 50
218.1204197971334
 51
321.8795802028588
 73
     1
 72
     2
 10
-152.9004287431659
 20
-297.0453939415536
 40
0.7717997786795479
 50
321.8795802028385
 51
398.1204197971581
 73
     1
 97
        4
330
1C7
330
1C6
330
1C1
330
1C0
 75
     1
 76
     2
 52
45.0
 41
0.1
 77
     0
 78
     1
 53
45.0
 43
62.7811309658083
 44
-72.3161373035813
 45
-0.1414213562373095
 46
0.0
 79
     0
 98
        1
 10
0.0
 20
0.0
  0
HATCH
  5
21F
330
81
100
AcDbEntity
  8
1
  6
Continuous
 62
     2
100
AcDbHatch
 10
0.0
 20
0.0
 30
0.0
210
0.0
220
0.0
230
1.0
  2
CUSTOM19
 70
     0
 71
     1
 91
        2
 92
        1
 93
       12
 72
     1
 10
-149.766640993204
 20
-296.2165027850907
 11
-151.1025688196316
 21
-296.2165027850907
 72
     1
 10
-151.1025688196316
 20
-296.2165027850907
 11
-151.1025688196316
 21
-296.6963871388324
 72
     1
 10
-151.1025688196316
 20
-296.6963871388324
 11
-149.766640993204
 21
-296.6963871388324
 72
     1
 10
-149.766640993204
 20
-296.6963871388324
 11
-149.766640993204
 21
-297.3944007442748
 72
     1
 10
-149.766640993204
 20
-297.3944007442748
 11
-151.1025688196316
 21
-297.3944007442748
 72
     1
 10
-151.1025688196316
 20
-297.3944007442748
 11
-151.1025688196316
 21
-297.8742850980165
 72
     1
 10
-151.1025688196316
 20
-297.8742850980165
 11
-149.766640993204
 21
-297.8742850980165
 72
     1
 10
-149.766640993204
 20
-297.8742850980165
 11
-149.766640993204
 21
-298.5722987034589
 72
     1
 10
-149.766640993204
 20
-298.5722987034589
 11
-152.9169607169849
 21
-298.5722987034589
 72
     2
 10
-152.9169607169849
 20
-297.0453939415536
 40
1.526904761905769
 50
90.0
 51
270.0
 73
     0
 72
     1
 10
-152.9169607169849
 20
-295.5184891796478
 11
-149.766640993204
 21
-295.5184891796478
 72
     1
 10
-149.766640993204
 20
-295.5184891796478
 11
-149.766640993204
 21
-296.2165027850907
 97
       12
330
142
330
1CD
330
143
330
144
330
145
330
146
330
123
330
122
330
121
330
120
330
147
330
141
 92
       16
 93
        4
 72
     2
 10
-152.7006887068197
 20
-296.8886627634331
 40
0.5179085730133669
 50
38.12041979714121
 51
141.8795802028666
 73
     1
 72
     2
 10
-152.5009486704735
 20
-297.0453939415536
 40
0.7717997786796245
 50
141.8795802028484
 51
218.1204197971549
 73
     1
 72
     2
 10
-152.7006887068197
 20
-297.2021251196741
 40
0.5179085730134564
 50
218.1204197971334
 51
321.8795802028588
 73
     1
 72
     2
 10
-152.9004287431659
 20
-297.0453939415536
 40
0.7717997786795479
 50
321.8795802028385
 51
398.1204197971581
 73
     1
 97
        4
330
1C7
330
1C6
330
1C1
330
1C0
 75
     1
 76
     2
 52
45.0
 41
0.1
 77
     0
 78
     1
 53
45.0
 43
62.7811309658083
 44
-72.3161373035813
 45
-0.1414213562373095
 46
0.0
 79
     0
 98
        1
 10
0.0
 20
0.0
  0
HATCH
  5
220
330
81
100
AcDbEntity
  8
1
  6
Continuous
 62
     2
100
AcDbHatch
 10
0.0
 20
0.0
 30
0.0
210
0.0
220
0.0
230
1.0
  2
CUSTOM20
 70
     0
 71
     1
 91
        4
 92
        1
 93
        8
 72
     1
 10
-161.6945680148735
 20
-295.9427337950498
 11
-161.6945680148735
 21
-301.50724456425
 72
     2
 10
-162.1188126302574
 20
-301.50724456425
 40
0.424244615383202
 50
0.0
 51
90.0
 73
     0
 72
     1
 10
-162.1188126302574
 20
-301.9314891796332
 11
-167.5921247209743
 21
-301.9314891796332
 72
     2
 10
-167.5921247209743
 20
-301.50724456425
 40
0.4242446153827757
 50
90.0
 51
180.0
 73
     0
 72
     1
 10
-168.0163693363571
 20
-301.50724456425
 11
-168.0163693363571
 21
-295.9427337950498
 72
     2
 10
-167.5921247209743
 20
-295.9427337950498
 40
0.4242446153838841
 50
180.0
 51
270.0
 73
     0
 72
     1
 10
-167.5921247209743
 20
-295.5184891796659
 11
-162.1188126302574
 21
-295.5184891796659
 72
     2
 10
-162.1188126302574
 20
-295.9427337950498
 40
0.4242446153838841
 50
270.0
 51
360.0
 73
     0
 97
        8
330
136
330
1BD
330
137
330
1C8
330
134
330
1BF
330
135
330
1BE
 92
       16
 93
       12
 72
     2
 10
-166.9982300442278
 20
-300.9032167009996
 40
0.3157169230755983
 50
180.0
 51
270.0
 73
     1
 72
     1
 10
-166.9982300442278
 20
-301.2189336240763
 11
-165.5223967832182
 21
-301.2189336240763
 72
     2
 10
-165.5223967832182
 20
-300.9032167009996
 40
0.3157169230767067
 50
270.0
 51
360.0
 73
     1
 72
     1
 10
-165.2066798601416
 20
-300.9032167009996
 11
-165.2066798601416
 21
-299.372445769468
 72
     2
 10
-165.5223967832182
 20
-299.372445769468
 40
0.315716923076593
 50
0.0
 51
64.805589351446
 73
     1
 72
     2
 10
-164.9998123356432
 20
-298.2616160234053
 40
0.9118975235576433
 50
115.1944106485089
 51
244.8055893514805
 73
     0
 72
     2
 10
-165.5223967832182
 20
-297.1507862773431
 40
0.3157169230760658
 50
295.1944106485672
 51
360.0
 73
     1
 72
     1
 10
-165.2066798601416
 20
-297.1507862773431
 11
-165.2066798601416
 21
-296.5467616582825
 72
     2
 10
-165.5223967832182
 20
-296.5467616582825
 40
0.315716923076593
 50
0.0
 51
90.0
 73
     1
 72
     1
 10
-165.5223967832182
 20
-296.2310447352064
 11
-166.9982300442278
 21
-296.2310447352064
 72
     2
 10
-166.9982300442278
 20
-296.5467616582825
 40
0.3157169230760815
 50
90.0
 51
180.0
 73
     1
 72
     1
 10
-167.3139469673034
 20
-296.5467616582825
 11
-167.3139469673034
 21
-300.9032167009996
 97
       12
330
1B9
330
138
330
1BC
330
133
330
1C9
330
1CA
330
1BB
330
132
330
1BA
330
131
330
1CB
330
130
 92
       16
 93
        8
 72
     2
 10
-164.422681357696
 20
-299.3707576233736
 40
0.3157169230765328
 50
115.3740086783519
 51
180.0
 73
     1
 72
     1
 10
-164.7383982807728
 20
-299.3707576233736
 11
-164.7383982807728
 21
-299.9526090300687
 72
     2
 10
-164.422681357696
 20
-299.9526090300687
 40
0.315716923076792
 50
180.0
 51
269.8110329574335
 73
     1
 72
     2
 10
-164.417065222386
 20
-298.2497740824997
 40
2.018561131933266
 50
269.8110329575827
 51
450.1889670424174
 73
     1
 72
     2
 10
-164.422681357696
 20
-296.5469391349307
 40
0.3157169230761851
 50
90.1889670425665
 51
180.0
 73
     1
 72
     1
 10
-164.7383982807728
 20
-296.5469391349307
 11
-164.7383982807728
 21
-297.1524744234375
 72
     2
 10
-164.422681357696
 20
-297.1524744234375
 40
0.315716923076792
 50
180.0
 51
244.6259913216349
 73
     1
 72
     2
 10
-164.9487240557839
 20
-298.2616160234053
 40
0.9118481501443941
 50
295.3740086781911
 51
424.6259913218196
 73
     0
 97
        8
330
1D5
330
FD
330
1D2
330
1D3
330
1B1
330
FC
330
1D4
330
1B0
 92
       16
 93
        1
 72
     2
 10
-164.9725390704567
 20
-298.2616160234053
 40
0.470978932778479
 50
0.0
 51
360.0
 73
     1
 97
        1
330
1E3
 75
     1
 76
     2
 52
45.0
 41
0.1
 77
     0
 78
     1
 53
45.0
 43
62.7811309658083
 44
-72.3161373035813
 45
-0.1414213562373095
 46
0.0
 79
     0
 98
        1
 10
0.0
 20
0.0
  0
HATCH
  5
221
330
81
100
AcDbEntity
  8
1
  6
Continuous
 62
     2
100
AcDbHatch
 10
0.0
 20
0.0
 30
0.0
210
0.0
220
0.0
230
1.0
  2
CUSTOM21
 70
     0
 71
     1
 91
        4
 92
        1
 93
        8
 72
     1
 10
-161.6945680148735
 20
-295.9427337950498
 11
-161.6945680148735
 21
-301.50724456425
 72
     2
 10
-162.1188126302574
 20
-301.50724456425
 40
0.424244615383202
 50
0.0
 51
90.0
 73
     0
 72
     1
 10
-162.1188126302574
 20
-301.9314891796332
 11
-167.5921247209743
 21
-301.9314891796332
 72
     2
 10
-167.5921247209743
 20
-301.50724456425
 40
0.4242446153827757
 50
90.0
 51
180.0
 73
     0
 72
     1
 10
-168.0163693363571
 20
-301.50724456425
 11
-168.0163693363571
 21
-295.9427337950498
 72
     2
 10
-167.5921247209743
 20
-295.9427337950498
 40
0.4242446153838841
 50
180.0
 51
270.0
 73
     0
 72
     1
 10
-167.5921247209743
 20
-295.5184891796659
 11
-162.1188126302574
 21
-295.5184891796659
 72
     2
 10
-162.1188126302574
 20
-295.9427337950498
 40
0.4242446153838841
 50
270.0
 51
360.0
 73
     0
 97
        8
330
136
330
1BD
330
137
330
1C8
330
134
330
1BF
330
135
330
1BE
 92
       16
 93
       12
 72
     2
 10
-166.9982300442278
 20
-300.9032167009996
 40
0.3157169230755983
 50
180.0
 51
270.0
 73
     1
 72
     1
 10
-166.9982300442278
 20
-301.2189336240763
 11
-165.5223967832182
 21
-301.2189336240763
 72
     2
 10
-165.5223967832182
 20
-300.9032167009996
 40
0.3157169230767067
 50
270.0
 51
360.0
 73
     1
 72
     1
 10
-165.2066798601416
 20
-300.9032167009996
 11
-165.2066798601416
 21
-299.372445769468
 72
     2
 10
-165.5223967832182
 20
-299.372445769468
 40
0.315716923076593
 50
0.0
 51
64.805589351446
 73
     1
 72
     2
 10
-164.9998123356432
 20
-298.2616160234053
 40
0.9118975235576433
 50
115.1944106485089
 51
244.8055893514805
 73
     0
 72
     2
 10
-165.5223967832182
 20
-297.1507862773431
 40
0.3157169230760658
 50
295.1944106485672
 51
360.0
 73
     1
 72
     1
 10
-165.2066798601416
 20
-297.1507862773431
 11
-165.2066798601416
 21
-296.5467616582825
 72
     2
 10
-165.5223967832182
 20
-296.5467616582825
 40
0.315716923076593
 50
0.0
 51
90.0
 73
     1
 72
     1
 10
-165.5223967832182
 20
-296.2310447352064
 11
-166.9982300442278
 21
-296.2310447352064
 72
     2
 10
-166.9982300442278
 20
-296.5467616582825
 40
0.3157169230760815
 50
90.0
 51
180.0
 73
     1
 72
     1
 10
-167.3139469673034
 20
-296.5467616582825
 11
-167.3139469673034
 21
-300.9032167009996
 97
       12
330
1B9
330
138
330
1BC
330
133
330
1C9
330
1CA
330
1BB
330
132
330
1BA
330
131
330
1CB
330
130
 92
       16
 93
        8
 72
     2
 10
-164.422681357696
 20
-299.3707576233736
 40
0.3157169230765328
 50
115.3740086783519
 51
180.0
 73
     1
 72
     1
 10
-164.7383982807728
 20
-299.3707576233736
 11
-164.7383982807728
 21
-299.9526090300687
 72
     2
 10
-164.422681357696
 20
-299.9526090300687
 40
0.315716923076792
 50
180.0
 51
269.8110329574335
 73
     1
 72
     2
 10
-164.417065222386
 20
-298.2497740824997
 40
2.018561131933266
 50
269.8110329575827
 51
450.1889670424174
 73
     1
 72
     2
 10
-164.422681357696
 20
-296.5469391349307
 40
0.3157169230761851
 50
90.1889670425665
 51
180.0
 73
     1
 72
     1
 10
-164.7383982807728
 20
-296.5469391349307
 11
-164.7383982807728
 21
-297.1524744234375
 72
     2
 10
-164.422681357696
 20
-297.1524744234375
 40
0.315716923076792
 50
180.0
 51
244.6259913216349
 73
     1
 72
     2
 10
-164.9487240557839
 20
-298.2616160234053
 40
0.9118481501443941
 50
295.3740086781911
 51
424.6259913218196
 73
     0
 97
        8
330
1D5
330
FD
330
1D2
330
1D3
330
1B1
330
FC
330
1D4
330
1B0
 92
       16
 93
        1
 72
     2
 10
-164.9725390704567
 20
-298.2616160234053
 40
0.470978932778479
 50
0.0
 51
360.0
 73
     1
 97
        1
330
1E3
 75
     1
 76
     2
 52
45.0
 41
0.1
 77
     0
 78
     1
 53
45.0
 43
62.7811309658083
 44
-72.3161373035813
 45
-0.1414213562373095
 46
0.0
 79
     0
 98
        1
 10
0.0
 20
0.0
  0
HATCH
  5
222
330
81
100
AcDbEntity
  8
1
  6
Continuous
 62
     2
100
AcDbHatch
 10
0.0
 20
0.0
 30
0.0
210
0.0
220
0.0
230
1.0
  2
CUSTOM22
 70
     0
 71
     1
 91
        1
 92
        1
 93
       18
 72
     1
 10
-140.1050201056526
 20
-299.6629449619458
 11
-140.916119143126
 21
-299.6629449619458
 72
     1
 10
-140.916119143126
 20
-299.6629449619458
 11
-140.916119143126
 21
-301.9314891796332
 72
     1
 10
-140.916119143126
 20
-301.9314891796332
 11
-142.1089118452937
 21
-301.9314891796332
 72
     1
 10
-142.1089118452937
 20
-301.9314891796332
 11
-142.1089118452937
 21
-299.6629449619458
 72
     1
 10
-142.1089118452937
 20
-299.6629449619458
 11
-143.2125511448618
 21
-299.6629449619458
 72
     2
 10
-143.2125511448618
 20
-300.6174679687719
 40
0.9545230068260935
 50
90.0
 51
109.3371432194281
 73
     1
 72
     2
 10
-143.3592211429655
 20
-300.1995129883889
 40
0.5115800601944048
 50
109.3371432194823
 51
151.4785267424182
 73
     1
 72
     2
 10
-142.981863884884
 20
-300.404584417728
 40
0.9410597353350352
 50
151.4785267423573
 51
208.521473257667
 73
     1
 72
     2
 10
-143.3592211429655
 20
-300.6096558470665
 40
0.5115800601959967
 50
208.5214732576881
 51
246.6277221118399
 73
     1
 72
     2
 10
-143.2027811102623
 20
-300.2476638283565
 40
0.9059297849852208
 50
246.6277221118088
 51
288.4480761180772
 73
     1
 72
     2
 10
-143.6209488439243
 20
-298.9941180523198
 40
2.227384008972773
 50
288.4480761181333
 51
301.9309089499394
 73
     1
 72
     1
 10
-142.4428938019004
 20
-300.8844687714696
 11
-142.4428938019004
 21
-301.7569857782729
 72
     2
 10
-143.7788217190171
 20
-297.0919034724715
 40
4.852596863498889
 50
74.0200087416617
 51
84.84185523036268
 73
     0
 72
     2
 10
-143.4899656242812
 20
-300.2917940556931
 40
1.639695123940503
 50
84.84185523032279
 51
164.9381082228993
 73
     0
 72
     2
 10
-143.9090934677429
 20
-300.404584417728
 40
1.205656168392975
 50
164.9381082229076
 51
195.0618917770975
 73
     0
 72
     2
 10
-143.4899656242812
 20
-300.5173747797628
 40
1.639695123940101
 50
195.0618917771007
 51
270.0
 73
     0
 72
     1
 10
-143.4899656242812
 20
-298.8776796558227
 11
-140.1050201056526
 21
-298.8776796558221
 72
     1
 10
-140.1050201056526
 20
-298.8776796558221
 11
-140.1050201056526
 21
-299.6629449619458
 97
       18
330
FF
330
1CE
330
1CF
330
1B7
330
1B6
330
163
330
1B5
330
1B4
330
1D0
330
1B3
330
1D1
330
1B2
330
164
330
FE
330
103
330
102
330
101
330
100
 75
     1
 76
     2
 52
45.0
 41
0.1
 77
     0
 78
     1
 53
45.0
 43
62.7811309658083
 44
-72.3161373035813
 45
-0.1414213562373095
 46
0.0
 79
     0
 98
        1
 10
0.0
 20
0.0
  0
HATCH
  5
223
330
81
100
AcDbEntity
  8
1
  6
Continuous
 62
     2
100
AcDbHatch
 10
0.0
 20
0.0
 30
0.0
210
0.0
220
0.0
230
1.0
  2
CUSTOM23
 70
     0
 71
     1
 91
        1
 92
        1
 93
       18
 72
     1
 10
-140.1050201056526
 20
-299.6629449619458
 11
-140.916119143126
 21
-299.6629449619458
 72
     1
 10
-140.916119143126
 20
-299.6629449619458
 11
-140.916119143126
 21
-301.9314891796332
 72
     1
 10
-140.916119143126
 20
-301.9314891796332
 11
-142.1089118452937
 21
-301.9314891796332
 72
     1
 10
-142.1089118452937
 20
-301.9314891796332
 11
-142.1089118452937
 21
-299.6629449619458
 72
     1
 10
-142.1089118452937
 20
-299.6629449619458
 11
-143.2125511448618
 21
-299.6629449619458
 72
     2
 10
-143.2125511448618
 20
-300.6174679687719
 40
0.9545230068260935
 50
90.0
 51
109.3371432194281
 73
     1
 72
     2
 10
-143.3592211429655
 20
-300.1995129883889
 40
0.5115800601944048
 50
109.3371432194823
 51
151.4785267424182
 73
     1
 72
     2
 10
-142.981863884884
 20
-300.404584417728
 40
0.9410597353350352
 50
151.4785267423573
 51
208.521473257667
 73
     1
 72
     2
 10
-143.3592211429655
 20
-300.6096558470665
 40
0.5115800601959967
 50
208.5214732576881
 51
246.6277221118399
 73
     1
 72
     2
 10
-143.2027811102623
 20
-300.2476638283565
 40
0.9059297849852208
 50
246.6277221118088
 51
288.4480761180772
 73
     1
 72
     2
 10
-143.6209488439243
 20
-298.9941180523198
 40
2.227384008972773
 50
288.4480761181333
 51
301.9309089499394
 73
     1
 72
     1
 10
-142.4428938019004
 20
-300.8844687714696
 11
-142.4428938019004
 21
-301.7569857782729
 72
     2
 10
-143.7788217190171
 20
-297.0919034724715
 40
4.852596863498889
 50
74.0200087416617
 51
84.84185523036268
 73
     0
 72
     2
 10
-143.4899656242812
 20
-300.2917940556931
 40
1.639695123940503
 50
84.84185523032279
 51
164.9381082228993
 73
     0
 72
     2
 10
-143.9090934677429
 20
-300.404584417728
 40
1.205656168392975
 50
164.9381082229076
 51
195.0618917770975
 73
     0
 72
     2
 10
-143.4899656242812
 20
-300.5173747797628
 40
1.639695123940101
 50
195.0618917771007
 51
270.0
 73
     0
 72
     1
 10
-143.4899656242812
 20
-298.8776796558227
 11
-140.1050201056526
 21
-298.8776796558221
 72
     1
 10
-140.1050201056526
 20
-298.8776796558221
 11
-140.1050201056526
 21
-299.6629449619458
 97
       18
330
FF
330
1CE
330
1CF
330
1B7
330
1B6
330
163
330
1B5
330
1B4
330
1D0
330
1B3
330
1D1
330
1B2
330
164
330
FE
330
103
330
102
330
101
330
100
 75
     1
 76
     2
 52
45.0
 41
0.1
 77
     0
 78
     1
 53
45.0
 43
62.7811309658083
 44
-72.3161373035813
 45
-0.1414213562373095
 46
0.0
 79
     0
 98
        1
 10
0.0
 20
0.0
  0
HATCH
  5
224
330
81
100
AcDbEntity
  8
1
  6
Continuous
 62
     2
100
AcDbHatch
 10
0.0
 20
0.0
 30
0.0
210
0.0
220
0.0
230
1.0
  2
CUSTOM24
 70
     0
 71
     1
 91
        1
 92
        1
 93
       14
 72
     2
 10
-159.5926671035341
 20
-300.5173747797628
 40
1.639695123940499
 50
84.84185523036533
 51
164.9381082228905
 73
     1
 72
     2
 10
-160.0117949469969
 20
-300.404584417728
 40
1.205656168390971
 50
164.9381082228768
 51
195.0618917770945
 73
     1
 72
     2
 10
-159.5926671035341
 20
-300.2917940556931
 40
1.639695123939437
 50
195.0618917770922
 51
275.1581447696363
 73
     1
 72
     2
 10
-159.88152319827
 20
-297.0919034724715
 40
4.852596863498272
 50
275.1581447696238
 51
285.9799912583526
 73
     1
 72
     1
 10
-158.5455952811522
 20
-301.7569857782724
 11
-158.5455952811522
 21
-300.8844687714691
 72
     2
 10
-159.7236503231772
 20
-298.9941180523193
 40
2.227384008972719
 50
58.06909105003628
 51
71.55192388186632
 73
     0
 72
     2
 10
-159.3054825895163
 20
-300.2476638283565
 40
0.9059297849848262
 50
71.55192388184605
 51
113.3722778881334
 73
     0
 72
     2
 10
-159.4619226222184
 20
-300.6096558470665
 40
0.5115800601947491
 50
113.3722778881718
 51
151.4785267423156
 73
     0
 72
     2
 10
-159.084565364138
 20
-300.404584417728
 40
0.9410597353333294
 50
151.4785267423028
 51
208.5214732577306
 73
     0
 72
     2
 10
-159.4619226222184
 20
-300.1995129883889
 40
0.5115800601948293
 50
208.5214732576844
 51
246.6277221118054
 73
     0
 72
     2
 10
-159.3054825895163
 20
-300.5615050070995
 40
0.9059297849853498
 50
246.6277221118694
 51
288.4480761181403
 73
     0
 72
     2
 10
-159.7236503231772
 20
-301.8150507831361
 40
2.227384008973465
 50
288.4480761181333
 51
301.9309089499629
 73
     0
 72
     1
 10
-158.5455952811522
 20
-299.9247000639863
 11
-158.5455952811522
 21
-299.052183057183
 72
     2
 10
-159.88152319827
 20
-303.7172653629838
 40
4.852596863497986
 50
74.0200087416471
 51
84.84185523037608
 73
     1
 97
       14
330
1D6
330
1D7
330
1D8
330
1D9
330
165
330
1AF
330
1AE
330
1AD
330
1DA
330
1DB
330
1AC
330
1DC
330
166
330
1AB
 75
     1
 76
     2
 52
45.0
 41
0.1
 77
     0
 78
     1
 53
45.0
 43
62.7811309658083
 44
-72.3161373035813
 45
-0.1414213562373095
 46
0.0
 79
     0
 98
        1
 10
0.0
 20
0.0
  0
HATCH
  5
225
330
81
100
AcDbEntity
  8
1
  6
Continuous
 62
     2
100
AcDbHatch
 10
0.0
 20
0.0
 30
0.0
210
0.0
220
0.0
230
1.0
  2
CUSTOM25
 70
     0
 71
     1
 91
        1
 92
        1
 93
       14
 72
     2
 10
-159.5926671035341
 20
-300.5173747797628
 40
1.639695123940499
 50
84.84185523036533
 51
164.9381082228905
 73
     1
 72
     2
 10
-160.0117949469969
 20
-300.404584417728
 40
1.205656168390971
 50
164.9381082228768
 51
195.0618917770945
 73
     1
 72
     2
 10
-159.5926671035341
 20
-300.2917940556931
 40
1.639695123939437
 50
195.0618917770922
 51
275.1581447696363
 73
     1
 72
     2
 10
-159.88152319827
 20
-297.0919034724715
 40
4.852596863498272
 50
275.1581447696238
 51
285.9799912583526
 73
     1
 72
     1
 10
-158.5455952811522
 20
-301.7569857782724
 11
-158.5455952811522
 21
-300.8844687714691
 72
     2
 10
-159.7236503231772
 20
-298.9941180523193
 40
2.227384008972719
 50
58.06909105003628
 51
71.55192388186632
 73
     0
 72
     2
 10
-159.3054825895163
 20
-300.2476638283565
 40
0.9059297849848262
 50
71.55192388184605
 51
113.3722778881334
 73
     0
 72
     2
 10
-159.4619226222184
 20
-300.6096558470665
 40
0.5115800601947491
 50
113.3722778881718
 51
151.4785267423156
 73
     0
 72
     2
 10
-159.084565364138
 20
-300.404584417728
 40
0.9410597353333294
 50
151.4785267423028
 51
208.5214732577306
 73
     0
 72
     2
 10
-159.4619226222184
 20
-300.1995129883889
 40
0.5115800601948293
 50
208.5214732576844
 51
246.6277221118054
 73
     0
 72
     2
 10
-159.3054825895163
 20
-300.5615050070995
 40
0.9059297849853498
 50
246.6277221118694
 51
288.4480761181403
 73
     0
 72
     2
 10
-159.7236503231772
 20
-301.8150507831361
 40
2.227384008973465
 50
288.4480761181333
 51
301.9309089499629
 73
     0
 72
     1
 10
-158.5455952811522
 20
-299.9247000639863
 11
-158.5455952811522
 21
-299.052183057183
 72
     2
 10
-159.88152319827
 20
-303.7172653629838
 40
4.852596863497986
 50
74.0200087416471
 51
84.84185523037608
 73
     1
 97
       14
330
1D6
330
1D7
330
1D8
330
1D9
330
165
330
1AF
330
1AE
330
1AD
330
1DA
330
1DB
330
1AC
330
1DC
330
166
330
1AB
 75
     1
 76
     2
 52
45.0
 41
0.1
 77
     0
 78
     1
 53
45.0
 43
62.7811309658083
 44
-72.3161373035813
 45
-0.1414213562373095
 46
0.0
 79
     0
 98
        1
 10
0.0
 20
0.0
  0
ENDBLK
  5
83
330
81
100
AcDbEntity
  8
0
100
AcDbBlockEnd
  0
BLOCK
  5
85
330
84
100
AcDbEntity
  8
0
100
AcDbBlockBegin
  2
_punkt
 70
     0
 10
-42.70821969616975
 20
-309.2249891796495
 30
0.0
  3
_punkt
  1

  0
LINE
  5
226
330
84
100
AcDbEntity
  8
1
  6
Continuous
 62
     2
100
AcDbLine
 10
-42.70821969616969
 20
-309.2249891796495
 30
0.0
 11
-37.70821969617208
 21
-309.2249891796495
 31
0.0
  0
LINE
  5
227
330
84
100
AcDbEntity
  8
1
  6
Continuous
 62
     2
100
AcDbLine
 10
-42.70821969616969
 20
-309.2249891796495
 30
0.0
 11
-42.70821969616969
 21
-314.224989179649
 31
0.0
  0
ENDBLK
  5
86
330
84
100
AcDbEntity
  8
0
100
AcDbBlockEnd
  0
BLOCK
  5
8A
330
87
100
AcDbEntity
  8
0
100
AcDbBlockBegin
  2
A3I_TD_PRF
 70
     0
 10
-42.70821969616969
 20
-314.224989179649
 30
0.0
  3
A3I_TD_PRF
  1

  0
INSERT
  5
88
330
87
100
AcDbEntity
  8
1
100
AcDbBlockReference
  2
_rahmen
 10
-42.70821969616969
 20
-314.224989179649
 30
0.0
  0
INSERT
  5
89
330
87
100
AcDbEntity
  8
1
100
AcDbBlockReference
  2
_punkt
 10
-42.70821969616975
 20
-309.2249891796495
 30
0.0
  0
ENDBLK
  5
8B
330
87
100
AcDbEntity
  8
0
100
AcDbBlockEnd
  0
BLOCK
  5
8F
330
8C
100
AcDbEntity
  8
0
100
AcDbBlockBegin
  2
1
 70
     0
 10
0.0
 20
0.0
 30
0.0
  3
1
  1

  0
INSERT
  5
8D
330
8C
100
AcDbEntity
  8
0
100
AcDbBlockReference
  2
Vordans1
 10
-249.000002
 20
-158.0
 30
0.0
 41
2.0
 42
2.0
 43
2.0
  0
INSERT
  5
8E
330
8C
100
AcDbEntity
  8
0
100
AcDbBlockReference
  2
A3I_TD_PRF
 10
-42.70821969616969
 20
-314.224989179649
 30
0.0
  0
LINE
  5
228
330
8C
100
AcDbEntity
  8
1
  6
DOT_CENTER
 62
     2
100
AcDbLine
 10
-200.596165741693
 20
-153.5624011914634
 30
0.0
 11
-213.642254029039
 21
-153.5624011914634
 31
0.0
  0
LINE
  5
229
330
8C
100
AcDbEntity
  8
1
  6
DASHED
 62
     2
100
AcDbLine
 10
-311.1268992139571
 20
-130.5624011654406
 30
0.0
 11
-311.1269004110058
 21
-176.5624011654406
 31
0.0
  0
LINE
  5
22A
330
8C
100
AcDbEntity
  8
1
  6
DASHED
 62
     2
100
AcDbLine
 10
-186.5268980689536
 20
-130.5624012174862
 30
0.0
 11
-186.5268992660024
 21
-176.5624012174862
 31
0.0
  0
LINE
  5
22B
330
8C
100
AcDbEntity
  8
1
  6
DASHED
 62
     2
100
AcDbLine
 10
-187.5268980689536
 20
-129.5624011914634
 30
0.0
 11
-310.1268992139571
 21
-129.5624011914634
 31
0.0
  0
LINE
  5
22C
330
8C
100
AcDbEntity
  8
1
  6
DASHED
 62
     2
100
AcDbLine
 10
-310.1269004110058
 20
-177.5624011914634
 30
0.0
 11
-187.5268992660024
 21
-177.5624011914634
 31
0.0
  0
ARC
  5
22D
330
8C
100
AcDbEntity
  8
1
  6
DASHED
 62
     2
100
AcDbCircle
 10
-310.1269004110058
 20
-176.5624011914634
 30
0.0
 40
1.0
100
AcDbArc
 50
179.9999985090032
 51
270.0
  0
ARC
  5
22E
330
8C
100
AcDbEntity
  8
1
  6
DASHED
 62
     2
100
AcDbCircle
 10
-187.5268992660024
 20
-176.5624011914634
 30
0.0
 40
1.0
100
AcDbArc
 50
270.0
 51
359.9999985090032
  0
ARC
  5
22F
330
8C
100
AcDbEntity
  8
1
  6
DASHED
 62
     2
100
AcDbCircle
 10
-187.5268980689536
 20
-130.5624011914634
 30
0.0
 40
1.0
100
AcDbArc
 50
359.9999985090032
 51
90.0
  0
ARC
  5
230
330
8C
100
AcDbEntity
  8
1
  6
DASHED
 62
     2
100
AcDbCircle
 10
-310.1268992139571
 20
-130.5624011914634
 30
0.0
 40
1.0
100
AcDbArc
 50
90.0
 51
179.9999985090032
  0
ENDBLK
  5
90
330
8C
100
AcDbEntity
  8
0
100
AcDbBlockEnd
  0
BLOCK
  5
B5
330
AE
100
AcDbEntity
  8
0
100
AcDbBlockBegin
  2
*D8
 70
     1
 10
0.0
 20
0.0
 30
0.0
  3
*D8
  1

  0
LINE
  5
AF
330
AE
100
AcDbEntity
  8
1
  6
Continuous
 62
     2
100
AcDbLine
 10
-147.413449333739
 20
-93.9812005957317
 30
0.0
 11
-101.413449333739
 21
-93.9812005957317
 31
0.0
  0
LINE
  5
B0
330
AE
100
AcDbEntity
  8
1
  6
Continuous
 62
     2
100
AcDbLine
 10
-147.413449333739
 20
-67.9812005957317
 30
0.0
 11
-147.413449333739
 21
-94.7312005957317
 31
0.0
  0
LINE
  5
B1
330
AE
100
AcDbEntity
  8
1
  6
Continuous
 62
     2
100
AcDbLine
 10
-101.413449333739
 20
-67.9812005957317
 30
0.0
 11
-101.413449333739
 21
-94.7312005957317
 31
0.0
  0
SOLID
  5
B2
330
AE
100
AcDbEntity
  8
1
 62
     2
100
AcDbTrace
 10
-145.663449333739
 20
-93.75080872495377
 30
0.0
 11
-145.663449333739
 21
-94.21159246650964
 31
0.0
 12
-147.413449333739
 22
-93.9812005957317
 32
0.0
 13
-147.413449333739
 23
-93.9812005957317
 33
0.0
  0
SOLID
  5
B3
330
AE
100
AcDbEntity
  8
1
 62
     2
100
AcDbTrace
 10
-103.163449333739
 20
-94.21159246650964
 30
0.0
 11
-103.163449333739
 21
-93.75080872495377
 31
0.0
 12
-101.413449333739
 22
-93.9812005957317
 32
0.0
 13
-101.413449333739
 23
-93.9812005957317
 33
0.0
  0
MTEXT
  5
B4
330
AE
100
AcDbEntity
  8
1
 62
     3
100
AcDbMText
 10
-125.7259493207277
 20
-93.2312005957317
 30
0.0
 40
1.75
 41
0.0
 71
     7
 72
     1
  1
46
  7
CONVERTER_11
 11
0.9999999999970619
 21
2.424068405545306E-6
 31
0.0
 73
     1
 44
0.60024009603842
  0
ENDBLK
  5
B6
330
AE
100
AcDbEntity
  8
0
100
AcDbBlockEnd
  0
BLOCK
  5
C0
330
B9
100
AcDbEntity
  8
0
100
AcDbBlockBegin
  2
*D9
 70
     1
 10
0.0
 20
0.0
 30
0.0
  3
*D9
  1

  0
LINE
  5
BA
330
B9
100
AcDbEntity
  8
1
  6
Continuous
 62
     2
100
AcDbLine
 10
-150.8634496199899
 20
-60.48120059573171
 30
0.0
 11
-97.96344904748815
 21
-60.48120059573171
 31
0.0
  0
LINE
  5
BB
330
B9
100
AcDbEntity
  8
1
  6
Continuous
 62
     2
100
AcDbLine
 10
-150.8634496199899
 20
-66.38120099872063
 30
0.0
 11
-150.8634496199899
 21
-59.73120059573171
 31
0.0
  0
LINE
  5
BC
330
B9
100
AcDbEntity
  8
1
  6
Continuous
 62
     2
100
AcDbLine
 10
-97.96344904748815
 20
-66.22120115615871
 30
0.0
 11
-97.96344904748815
 21
-59.73120059573171
 31
0.0
  0
SOLID
  5
BD
330
B9
100
AcDbEntity
  8
1
 62
     2
100
AcDbTrace
 10
-149.1134496199899
 20
-60.25080872495376
 30
0.0
 11
-149.1134496199899
 21
-60.71159246650965
 31
0.0
 12
-150.8634496199899
 22
-60.48120059573171
 32
0.0
 13
-150.8634496199899
 23
-60.48120059573171
 33
0.0
  0
SOLID
  5
BE
330
B9
100
AcDbEntity
  8
1
 62
     2
100
AcDbTrace
 10
-99.71344904748815
 20
-60.71159246650965
 30
0.0
 11
-99.71344904748815
 21
-60.25080872495376
 31
0.0
 12
-97.96344904748815
 22
-60.48120059573171
 32
0.0
 13
-97.96344904748815
 23
-60.48120059573171
 33
0.0
  0
MTEXT
  5
BF
330
B9
100
AcDbEntity
  8
1
 62
     3
100
AcDbMText
 10
-128.3196993207277
 20
-59.55620059573171
 30
0.0
 40
1.75
 41
0.0
 71
     7
 72
     1
  1
52,9
  7
CONVERTER_11
 11
0.9999999999970619
 21
2.424068405545306E-6
 31
0.0
 73
     1
 44
0.60024009603842
  0
ENDBLK
  5
C1
330
B9
100
AcDbEntity
  8
0
100
AcDbBlockEnd
  0
BLOCK
  5
CB
330
C4
100
AcDbEntity
  8
0
100
AcDbBlockBegin
  2
*D10
 70
     1
 10
0.0
 20
0.0
 30
0.0
  3
*D10
  1

  0
LINE
  5
C5
330
C4
100
AcDbEntity
  8
1
  6
Continuous
 62
     2
100
AcDbLine
 10
-89.3339970517655
 20
-67.98120099872065
 30
0.0
 11
-89.3339970517655
 21
-85.58120099872045
 31
0.0
  0
LINE
  5
C6
330
C4
100
AcDbEntity
  8
1
  6
Continuous
 62
     2
100
AcDbLine
 10
-96.20344999870638
 20
-85.58120099872045
 30
0.0
 11
-88.5839970517655
 21
-85.58120099872045
 31
0.0
  0
LINE
  5
C7
330
C4
100
AcDbEntity
  8
1
  6
Continuous
 62
     2
100
AcDbLine
 10
-96.2034492049262
 20
-67.98120099872065
 30
0.0
 11
-88.5839970517655
 21
-67.98120099872065
 31
0.0
  0
SOLID
  5
C8
330
C4
100
AcDbEntity
  8
1
 62
     2
100
AcDbTrace
 10
-89.10360518098756
 20
-69.73120099872065
 30
0.0
 11
-89.56438892254343
 21
-69.73120099872065
 31
0.0
 12
-89.3339970517655
 22
-67.98120099872065
 32
0.0
 13
-89.3339970517655
 23
-67.98120099872065
 33
0.0
  0
SOLID
  5
C9
330
C4
100
AcDbEntity
  8
1
 62
     2
100
AcDbTrace
 10
-89.56438892254343
 20
-83.83120099872045
 30
0.0
 11
-89.10360518098756
 21
-83.83120099872045
 31
0.0
 12
-89.3339970517655
 22
-85.58120099872045
 32
0.0
 13
-89.3339970517655
 23
-85.58120099872045
 33
0.0
  0
MTEXT
  5
CA
330
C4
100
AcDbEntity
  8
1
 62
     3
100
AcDbMText
 10
-90.2589970517655
 20
-78.700080100545
 30
0.0
 40
1.75
 41
0.0
 71
     7
 72
     1
  1
17,6
  7
CONVERTER_11
 11
0.0
 21
1.0
 31
0.0
 73
     1
 44
0.60024009603842
  0
ENDBLK
  5
CC
330
C4
100
AcDbEntity
  8
0
100
AcDbBlockEnd
  0
BLOCK
  5
D6
330
CF
100
AcDbEntity
  8
0
100
AcDbBlockBegin
  2
*D11
 70
     1
 10
0.0
 20
0.0
 30
0.0
  3
*D11
  1

  0
LINE
  5
D0
330
CF
100
AcDbEntity
  8
1
  6
Continuous
 62
     2
100
AcDbLine
 10
-107.690267245651
 20
-85.5812005957317
 30
0.0
 11
-107.690267245651
 21
-67.9812005957317
 31
0.0
  0
LINE
  5
D1
330
CF
100
AcDbEntity
  8
1
  6
Continuous
 62
     2
100
AcDbLine
 10
-101.413449333739
 20
-67.9812005957317
 30
0.0
 11
-108.440267245651
 21
-67.9812005957317
 31
0.0
  0
LINE
  5
D2
330
CF
100
AcDbEntity
  8
1
  6
Continuous
 62
     2
100
AcDbLine
 10
-101.413449333739
 20
-85.5812005957317
 30
0.0
 11
-108.440267245651
 21
-85.5812005957317
 31
0.0
  0
SOLID
  5
D3
330
CF
100
AcDbEntity
  8
1
 62
     2
100
AcDbTrace
 10
-107.9206591164289
 20
-83.8312005957317
 30
0.0
 11
-107.4598753748731
 21
-83.8312005957317
 31
0.0
 12
-107.690267245651
 22
-85.5812005957317
 32
0.0
 13
-107.690267245651
 23
-85.5812005957317
 33
0.0
  0
SOLID
  5
D4
330
CF
100
AcDbEntity
  8
1
 62
     2
100
AcDbTrace
 10
-107.4598753748731
 20
-69.7312005957317
 30
0.0
 11
-107.9206591164289
 21
-69.7312005957317
 31
0.0
 12
-107.690267245651
 22
-67.9812005957317
 32
0.0
 13
-107.690267245651
 23
-67.9812005957317
 33
0.0
  0
MTEXT
  5
D5
330
CF
100
AcDbEntity
  8
1
 62
     3
100
AcDbMText
 10
-108.615267245651
 20
-79.5011369920945
 30
0.0
 40
1.75
 41
0.0
 71
     7
 72
     1
  1
17,6
  7
CONVERTER_11
 11
0.0
 21
1.0
 31
0.0
 73
     1
 44
0.60024009603842
  0
ENDBLK
  5
D7
330
CF
100
AcDbEntity
  8
0
100
AcDbBlockEnd
  0
BLOCK
  5
DE
330
DA
100
AcDbEntity
  8
0
100
AcDbBlockBegin
  2
*D12
 70
     1
 10
0.0
 20
0.0
 30
0.0
  3
*D12
  1

  0
LINE
  5
DB
330
DA
100
AcDbEntity
  8
1
  6
Continuous
 62
     2
100
AcDbLine
 10
-97.96344904748814
 20
-67.98120099872065
 30
0.0
 11
-83.8712559166828
 21
-61.13348301973724
 31
0.0
  0
SOLID
  5
DC
330
DA
100
AcDbEntity
  8
1
 62
     2
100
AcDbTrace
 10
-95.05103775471626
 20
-66.30984200800218
 30
0.0
 11
-94.84964959229005
 21
-66.72428677454754
 31
0.0
 12
-96.52435394349531
 22
-67.28191187277639
 32
0.0
 13
-96.52435394349531
 23
-67.28191187277639
 33
0.0
  0
MTEXT
  5
DD
330
DA
100
AcDbEntity
  8
1
 62
     3
100
AcDbMText
 10
-94.17605704086994
 20
-65.11239682138607
 30
0.0
 40
1.75
 41
0.0
 71
     7
 72
     1
  1
\C3; {\Fgdt;n}\C3;3,2\C3;/M2
  7
CONVERTER_11
 11
0.8994344399955129
 21
0.4370557037151651
 31
0.0
 73
     1
 44
0.60024009603842
  0
ENDBLK
  5
DF
330
DA
100
AcDbEntity
  8
0
100
AcDbBlockEnd
  0
ENDSEC
  0
SECTION
  2
ENTITIES
  0
INSERT
  5
91
330
1F
100
AcDbEntity
  8
1
100
AcDbBlockReference
  2
1
 10
0.0
 20
0.0
 30
0.0
  0
ENDSEC
  0
SECTION
  2
OBJECTS
  0
DICTIONARY
  5
C
330
0
100
AcDbDictionary
281
     1
  3
ACAD_DETAILVIEWSTYLE
350
276
  3
ACAD_GROUP
350
D
  3
ACAD_LAYOUT
350
1A
  3
ACAD_MATERIAL
350
43
  3
ACAD_MLEADERSTYLE
350
6B
  3
ACAD_MLINESTYLE
350
17
  3
ACAD_PLOTSETTINGS
350
19
  3
ACAD_PLOTSTYLENAME
350
E
  3
ACAD_SCALELIST
350
47
  3
ACAD_SECTIONVIEWSTYLE
350
277
  3
ACAD_TABLESTYLE
350
69
  3
ACAD_VISUALSTYLE
350
2A
  3
ACDB_RECOMPOSE_DATA
350
273
  3
AcDbVariableDictionary
350
233
  0
DICTIONARY
  5
231
330
8
100
AcDbDictionary
280
     1
281
     1
  3
ACAD_XREC_ROUNDTRIP
360
232
  0
DICTIONARY
  5
276
102
{ACAD_REACTORS
330
C
102
}
330
C
100
AcDbDictionary
281
     1
  0
DICTIONARY
  5
D
102
{ACAD_REACTORS
330
C
102
}
330
C
100
AcDbDictionary
281
     1
  0
DICTIONARY
  5
1A
102
{ACAD_REACTORS
330
C
102
}
330
C
100
AcDbDictionary
281
     1
  3
Layout1
350
1E
  3
Layout2
350
26
  3
Model
350
22
  0
DICTIONARY
  5
43
102
{ACAD_REACTORS
330
C
102
}
330
C
100
AcDbDictionary
281
     1
  3
ByBlock
350
45
  3
ByLayer
350
44
  3
Global
350
46
  0
DICTIONARY
  5
6B
102
{ACAD_REACTORS
330
C
102
}
330
C
100
AcDbDictionary
281
     1
  3
Standard
350
6C
  0
DICTIONARY
  5
17
102
{ACAD_REACTORS
330
C
102
}
330
C
100
AcDbDictionary
281
     1
  3
Standard
350
18
  0
DICTIONARY
  5
19
102
{ACAD_REACTORS
330
C
102
}
330
C
100
AcDbDictionary
281
     1
  0
ACDBDICTIONARYWDFLT
  5
E
102
{ACAD_REACTORS
330
C
102
}
330
C
100
AcDbDictionary
281
     1
  3
Normal
350
F
100
AcDbDictionaryWithDefault
340
F
  0
DICTIONARY
  5
47
102
{ACAD_REACTORS
330
C
102
}
330
C
100
AcDbDictionary
281
     1
  3
A0
350
48
  3
A1
350
49
  3
A2
350
4A
  3
A3
350
4B
  3
A4
350
4C
  3
A5
350
4D
  3
A6
350
4E
  3
A7
350
4F
  3
A8
350
50
  3
A9
350
51
  3
B0
350
52
  3
B1
350
53
  3
B2
350
54
  3
B3
350
55
  3
B4
350
56
  3
B5
350
57
  3
B6
350
58
  3
B7
350
59
  3
B8
350
5A
  3
B9
350
5B
  3
C0
350
5C
  3
C1
350
5D
  3
C2
350
5E
  3
C3
350
5F
  3
C4
350
60
  3
C5
350
61
  3
C6
350
62
  3
C7
350
63
  3
C8
350
64
  3
C9
350
65
  3
D0
350
66
  3
D1
350
67
  3
D2
350
68
  0
DICTIONARY
  5
277
102
{ACAD_REACTORS
330
C
102
}
330
C
100
AcDbDictionary
281
     1
  0
DICTIONARY
  5
69
102
{ACAD_REACTORS
330
C
102
}
330
C
100
AcDbDictionary
281
     1
  3
Standard
350
6A
  0
DICTIONARY
  5
2A
102
{ACAD_REACTORS
330
C
102
}
330
C
100
AcDbDictionary
281
     1
  3
2dWireframe
350
2F
  3
Basic
350
32
  3
Brighten
350
36
  3
ColorChange
350
3A
  3
Conceptual
350
34
  3
Dim
350
35
  3
EdgeColorOff
350
3D
  3
Facepattern
350
39
  3
Flat
350
2B
  3
FlatWithEdges
350
2C
  3
Gouraud
350
2D
  3
GouraudWithEdges
350
2E
  3
Hidden
350
31
  3
JitterOff
350
3B
  3
Linepattern
350
38
  3
OverhangOff
350
3C
  3
Realistic
350
33
  3
Shaded
350
42
  3
Shaded with edges
350
41
  3
Shades of Gray
350
3E
  3
Sketchy
350
3F
  3
Thicken
350
37
  3
Wireframe
350
30
  3
X-Ray
350
40
  0
XRECORD
  5
273
102
{ACAD_REACTORS
330
C
102
}
330
C
100
AcDbXrecord
280
     1
 90
        1
330
6A
  0
DICTIONARY
  5
233
102
{ACAD_REACTORS
330
C
102
}
330
C
100
AcDbDictionary
281
     1
  3
CANNOSCALE
350
234
  3
CMLEADERSTYLE
350
275
  3
CTABLESTYLE
350
274
  3
MSLTSCALE
350
235
  3
XCLIPFRAME
350
236
  0
XRECORD
  5
232
102
{ACAD_REACTORS
330
231
102
}
330
231
100
AcDbXrecord
280
     1
102
VTR_0.000_0.000_1.000_1.000_VISUALSTYLE
340
2F
102
VTR_0.000_0.000_1.000_1.000_GRIDDISPLAY
 70
     3
102
VTR_0.000_0.000_1.000_1.000_GRIDMAJOR
 70
     5
102
VTR_0.000_0.000_1.000_1.000_DEFAULTLIGHTING
280
     1
102
VTR_0.000_0.000_1.000_1.000_DEFAULTLIGHTINGTYPE
 70
     1
102
VTR_0.000_0.000_1.000_1.000_BRIGHTNESS
141
0.0
102
VTR_0.000_0.000_1.000_1.000_CONTRAST
142
0.0
  0
LAYOUT
  5
1E
102
{ACAD_REACTORS
330
1A
102
}
330
1A
100
AcDbPlotSettings
  1

  2
none_device
  4

  6

 40
0.0
 41
0.0
 42
0.0
 43
0.0
 44
0.0
 45
0.0
 46
0.0
 47
0.0
 48
0.0
 49
0.0
140
0.0
141
0.0
142
1.0
143
1.0
 70
   688
 72
     0
 73
     0
 74
     5
  7

 75
    16
 76
     0
 77
     2
 78
   300
147
1.0
148
0.0
149
0.0
100
AcDbLayout
  1
Layout1
 70
     1
 71
     1
 10
0.0
 20
0.0
 11
12.0
 21
9.0
 12
0.0
 22
0.0
 32
0.0
 14
1.00000000000000E+20
 24
1.00000000000000E+20
 34
1.00000000000000E+20
 15
-1.00000000000000E+20
 25
-1.00000000000000E+20
 35
-1.00000000000000E+20
146
0.0
 13
0.0
 23
0.0
 33
0.0
 16
1.0
 26
0.0
 36
0.0
 17
0.0
 27
1.0
 37
0.0
 76
     0
330
1B
  0
LAYOUT
  5
26
102
{ACAD_REACTORS
330
1A
102
}
330
1A
100
AcDbPlotSettings
  1

  2
none_device
  4

  6

 40
0.0
 41
0.0
 42
0.0
 43
0.0
 44
0.0
 45
0.0
 46
0.0
 47
0.0
 48
0.0
 49
0.0
140
0.0
141
0.0
142
1.0
143
1.0
 70
   688
 72
     0
 73
     0
 74
     5
  7

 75
    16
 76
     0
 77
     2
 78
   300
147
1.0
148
0.0
149
0.0
100
AcDbLayout
  1
Layout2
 70
     1
 71
     2
 10
0.0
 20
0.0
 11
0.0
 21
0.0
 12
0.0
 22
0.0
 32
0.0
 14
0.0
 24
0.0
 34
0.0
 15
0.0
 25
0.0
 35
0.0
146
0.0
 13
0.0
 23
0.0
 33
0.0
 16
1.0
 26
0.0
 36
0.0
 17
0.0
 27
1.0
 37
0.0
 76
     0
330
23
  0
LAYOUT
  5
22
102
{ACAD_REACTORS
330
1A
102
}
330
1A
100
AcDbPlotSettings
  1

  2
none_device
  4
Letter_(8.50_x_11.00_Inches)
  6

 40
6.35
 41
6.35
 42
6.35000508
 43
6.35000508
 44
215.9
 45
279.4
 46
0.0
 47
0.0
 48
0.0
 49
0.0
140
0.0
141
0.0
142
1.0
143
1.0
 70
  1712
 72
     0
 73
     0
 74
     0
  7

 75
     0
 76
     0
 77
     2
 78
   300
147
1.0
148
0.0
149
0.0
100
AcDbLayout
  1
Model
 70
     1
 71
     0
 10
0.0
 20
0.0
 11
12.0
 21
9.0
 12
0.0
 22
0.0
 32
0.0
 14
-457.7082196961705
 24
-314.224989179649
 34
0.0
 15
-37.70821969617208
 25
-17.22498917964902
 35
0.0
146
0.0
 13
0.0
 23
0.0
 33
0.0
 16
1.0
 26
0.0
 36
0.0
 17
0.0
 27
1.0
 37
0.0
 76
     0
330
1F
331
29
  0
MATERIAL
  5
45
102
{ACAD_REACTORS
330
43
102
}
102
{ACAD_XDICTIONARY
360
269
102
}
330
43
100
AcDbMaterial
  1
ByBlock
  0
MATERIAL
  5
44
102
{ACAD_REACTORS
330
43
102
}
102
{ACAD_XDICTIONARY
360
267
102
}
330
43
100
AcDbMaterial
  1
ByLayer
  0
MATERIAL
  5
46
102
{ACAD_REACTORS
330
43
102
}
102
{ACAD_XDICTIONARY
360
26B
102
}
330
43
100
AcDbMaterial
  1
Global
  0
MLEADERSTYLE
  5
6C
102
{ACAD_REACTORS
330
6B
102
}
102
{ACAD_XDICTIONARY
360
271
102
}
330
6B
100
AcDbMLeaderStyle
170
     2
171
     1
172
     0
 90
        2
 40
0.0
 41
0.0
173
     1
 91
-1056964608
340
14
 92
       -2
290
     1
 42
0.09
291
     1
 43
0.36
  3
Standard
341
0
 44
0.18
300

342
11
174
     1
178
     6
175
     1
176
     0
 93
-1056964608
 45
0.18
292
     0
297
     0
 46
0.18
343
0
 94
-1056964608
 47
1.0
 49
1.0
140
1.0
293
     1
141
0.0
294
     1
177
     0
142
1.0
295
     0
296
     0
143
0.125
1001
ACAD_MLEADERVER
1070
     2
  0
MLINESTYLE
  5
18
102
{ACAD_REACTORS
330
17
102
}
330
17
100
AcDbMlineStyle
  2
Standard
 70
     0
  3

 62
   256
 51
90.0
 52
90.0
 71
     2
 49
0.5
 62
   256
  6
BYLAYER
 49
-0.5
 62
   256
  6
BYLAYER
  0
ACDBPLACEHOLDER
  5
F
102
{ACAD_REACTORS
330
E
102
}
330
E
  0
SCALE
  5
48
102
{ACAD_REACTORS
330
47
102
}
330
47
100
AcDbScale
 70
     0
300
1:1
140
1.0
141
1.0
290
     1
  0
SCALE
  5
49
102
{ACAD_REACTORS
330
47
102
}
330
47
100
AcDbScale
 70
     0
300
1:2
140
1.0
141
2.0
290
     0
  0
SCALE
  5
4A
102
{ACAD_REACTORS
330
47
102
}
330
47
100
AcDbScale
 70
     0
300
1:4
140
1.0
141
4.0
290
     0
  0
SCALE
  5
4B
102
{ACAD_REACTORS
330
47
102
}
330
47
100
AcDbScale
 70
     0
300
1:5
140
1.0
141
5.0
290
     0
  0
SCALE
  5
4C
102
{ACAD_REACTORS
330
47
102
}
330
47
100
AcDbScale
 70
     0
300
1:8
140
1.0
141
8.0
290
     0
  0
SCALE
  5
4D
102
{ACAD_REACTORS
330
47
102
}
330
47
100
AcDbScale
 70
     0
300
1:10
140
1.0
141
10.0
290
     0
  0
SCALE
  5
4E
102
{ACAD_REACTORS
330
47
102
}
330
47
100
AcDbScale
 70
     0
300
1:16
140
1.0
141
16.0
290
     0
  0
SCALE
  5
4F
102
{ACAD_REACTORS
330
47
102
}
330
47
100
AcDbScale
 70
     0
300
1:20
140
1.0
141
20.0
290
     0
  0
SCALE
  5
50
102
{ACAD_REACTORS
330
47
102
}
330
47
100
AcDbScale
 70
     0
300
1:30
140
1.0
141
30.0
290
     0
  0
SCALE
  5
51
102
{ACAD_REACTORS
330
47
102
}
330
47
100
AcDbScale
 70
     0
300
1:40
140
1.0
141
40.0
290
     0
  0
SCALE
  5
52
102
{ACAD_REACTORS
330
47
102
}
330
47
100
AcDbScale
 70
     0
300
1:50
140
1.0
141
50.0
290
     0
  0
SCALE
  5
53
102
{ACAD_REACTORS
330
47
102
}
330
47
100
AcDbScale
 70
     0
300
1:100
140
1.0
141
100.0
290
     0
  0
SCALE
  5
54
102
{ACAD_REACTORS
330
47
102
}
330
47
100
AcDbScale
 70
     0
300
2:1
140
2.0
141
1.0
290
     0
  0
SCALE
  5
55
102
{ACAD_REACTORS
330
47
102
}
330
47
100
AcDbScale
 70
     0
300
4:1
140
4.0
141
1.0
290
     0
  0
SCALE
  5
56
102
{ACAD_REACTORS
330
47
102
}
330
47
100
AcDbScale
 70
     0
300
8:1
140
8.0
141
1.0
290
     0
  0
SCALE
  5
57
102
{ACAD_REACTORS
330
47
102
}
330
47
100
AcDbScale
 70
     0
300
10:1
140
10.0
141
1.0
290
     0
  0
SCALE
  5
58
102
{ACAD_REACTORS
330
47
102
}
330
47
100
AcDbScale
 70
     0
300
100:1
140
100.0
141
1.0
290
     0
  0
SCALE
  5
59
102
{ACAD_REACTORS
330
47
102
}
330
47
100
AcDbScale
 70
     0
300
1/128" = 1'-0"
140
0.0078125
141
12.0
290
     0
  0
SCALE
  5
5A
102
{ACAD_REACTORS
330
47
102
}
330
47
100
AcDbScale
 70
     0
300
1/64" = 1'-0"
140
0.015625
141
12.0
290
     0
  0
SCALE
  5
5B
102
{ACAD_REACTORS
330
47
102
}
330
47
100
AcDbScale
 70
     0
300
1/32" = 1'-0"
140
0.03125
141
12.0
290
     0
  0
SCALE
  5
5C
102
{ACAD_REACTORS
330
47
102
}
330
47
100
AcDbScale
 70
     0
300
1/16" = 1'-0"
140
0.0625
141
12.0
290
     0
  0
SCALE
  5
5D
102
{ACAD_REACTORS
330
47
102
}
330
47
100
AcDbScale
 70
     0
300
3/32" = 1'-0"
140
0.09375
141
12.0
290
     0
  0
SCALE
  5
5E
102
{ACAD_REACTORS
330
47
102
}
330
47
100
AcDbScale
 70
     0
300
1/8" = 1'-0"
140
0.125
141
12.0
290
     0
  0
SCALE
  5
5F
102
{ACAD_REACTORS
330
47
102
}
330
47
100
AcDbScale
 70
     0
300
3/16" = 1'-0"
140
0.1875
141
12.0
290
     0
  0
SCALE
  5
60
102
{ACAD_REACTORS
330
47
102
}
330
47
100
AcDbScale
 70
     0
300
1/4" = 1'-0"
140
0.25
141
12.0
290
     0
  0
SCALE
  5
61
102
{ACAD_REACTORS
330
47
102
}
330
47
100
AcDbScale
 70
     0
300
3/8" = 1'-0"
140
0.375
141
12.0
290
     0
  0
SCALE
  5
62
102
{ACAD_REACTORS
330
47
102
}
330
47
100
AcDbScale
 70
     0
300
1/2" = 1'-0"
140
0.5
141
12.0
290
     0
  0
SCALE
  5
63
102
{ACAD_REACTORS
330
47
102
}
330
47
100
AcDbScale
 70
     0
300
3/4" = 1'-0"
140
0.75
141
12.0
290
     0
  0
SCALE
  5
64
102
{ACAD_REACTORS
330
47
102
}
330
47
100
AcDbScale
 70
     0
300
1" = 1'-0"
140
1.0
141
12.0
290
     0
  0
SCALE
  5
65
102
{ACAD_REACTORS
330
47
102
}
330
47
100
AcDbScale
 70
     0
300
1-1/2" = 1'-0"
140
1.5
141
12.0
290
     0
  0
SCALE
  5
66
102
{ACAD_REACTORS
330
47
102
}
330
47
100
AcDbScale
 70
     0
300
3" = 1'-0"
140
3.0
141
12.0
290
     0
  0
SCALE
  5
67
102
{ACAD_REACTORS
330
47
102
}
330
47
100
AcDbScale
 70
     0
300
6" = 1'-0"
140
6.0
141
12.0
290
     0
  0
SCALE
  5
68
102
{ACAD_REACTORS
330
47
102
}
330
47
100
AcDbScale
 70
     0
300
1'-0" = 1'-0"
140
12.0
141
12.0
290
     0
  0
TABLESTYLE
  5
6A
102
{ACAD_REACTORS
330
69
102
}
102
{ACAD_XDICTIONARY
360
26D
102
}
330
69
100
AcDbTableStyle
  3
Standard
 70
     0
 71
     0
 40
0.06
 41
0.06
280
     0
281
     0
  7
Standard
140
0.18
170
     2
 62
     0
 63
   257
283
     0
274
    -2
284
     1
 64
     0
275
    -2
285
     1
 65
     0
276
    -2
286
     1
 66
     0
277
    -2
287
     1
 67
     0
278
    -2
288
     1
 68
     0
279
    -2
289
     1
 69
     0
  7
Standard
140
0.25
170
     5
 62
     0
 63
   257
283
     0
274
    -2
284
     1
 64
     0
275
    -2
285
     1
 65
     0
276
    -2
286
     1
 66
     0
277
    -2
287
     1
 67
     0
278
    -2
288
     1
 68
     0
279
    -2
289
     1
 69
     0
  7
Standard
140
0.18
170
     5
 62
     0
 63
   257
283
     0
274
    -2
284
     1
 64
     0
275
    -2
285
     1
 65
     0
276
    -2
286
     1
 66
     0
277
    -2
287
     1
 67
     0
278
    -2
288
     1
 68
     0
279
    -2
289
     1
 69
     0
  0
VISUALSTYLE
  5
2F
102
{ACAD_REACTORS
330
2A
102
}
102
{ACAD_XDICTIONARY
360
23F
102
}
330
2A
100
AcDbVisualStyle
  2
2dWireframe
 70
     4
 71
     0
 72
     2
 73
     0
 90
        0
 40
0.6
 41
30.0
 62
     5
 63
     7
421
 16777215
 74
     1
 91
        4
 64
     7
 65
   257
 75
     1
175
     1
 42
1.0
 92
        0
 66
   257
 43
1.0
 76
     1
 77
     6
 78
     2
 67
     7
 79
     5
170
     0
171
     0
290
     0
174
     0
 93
        1
 44
0.0
173
     0
291
     0
 45
0.0
1001
ACAD
1000
AcDbSavedByObjectVersion
1070
     0
  0
VISUALSTYLE
  5
32
102
{ACAD_REACTORS
330
2A
102
}
102
{ACAD_XDICTIONARY
360
245
102
}
330
2A
100
AcDbVisualStyle
  2
Basic
 70
     7
 71
     1
 72
     0
 73
     1
 90
        0
 40
0.6
 41
30.0
 62
     5
 63
     7
421
 16777215
 74
     0
 91
        4
 64
     7
 65
   257
 75
     1
175
     1
 42
1.0
 92
        8
 66
     7
 43
1.0
 76
     1
 77
     6
 78
     2
 67
     7
 79
     5
170
     0
171
     0
290
     0
174
     0
 93
        1
 44
0.0
173
     0
291
     1
 45
0.0
1001
ACAD
1000
AcDbSavedByObjectVersion
1070
     0
  0
VISUALSTYLE
  5
36
102
{ACAD_REACTORS
330
2A
102
}
102
{ACAD_XDICTIONARY
360
24D
102
}
330
2A
100
AcDbVisualStyle
  2
Brighten
 70
    12
 71
     2
 72
     2
 73
     0
 90
        0
 40
0.6
 41
30.0
 62
     5
 63
     7
421
 16777215
 74
     1
 91
        4
 64
     7
 65
   257
 75
     1
175
     1
 42
1.0
 92
        8
 66
     7
 43
1.0
 76
     1
 77
     6
 78
     2
 67
     7
 79
     5
170
     0
171
     0
290
     0
174
     0
 93
        1
 44
50.0
173
     0
291
     1
 45
0.0
1001
ACAD
1000
AcDbSavedByObjectVersion
1070
     0
  0
VISUALSTYLE
  5
3A
102
{ACAD_REACTORS
330
2A
102
}
102
{ACAD_XDICTIONARY
360
255
102
}
330
2A
100
AcDbVisualStyle
  2
ColorChange
 70
    16
 71
     2
 72
     2
 73
     3
 90
        0
 40
0.6
 41
30.0
 62
     5
 63
     8
421
  8421504
 74
     1
 91
        4
 64
     7
 65
   257
 75
     1
175
     1
 42
1.0
 92
        8
 66
     8
424
  8421504
 43
1.0
 76
     1
 77
     6
 78
     2
 67
     7
 79
     5
170
     0
171
     0
290
     0
174
     0
 93
        1
 44
0.0
173
     0
291
     1
 45
0.0
1001
ACAD
1000
AcDbSavedByObjectVersion
1070
     0
  0
VISUALSTYLE
  5
34
102
{ACAD_REACTORS
330
2A
102
}
102
{ACAD_XDICTIONARY
360
249
102
}
330
2A
100
AcDbVisualStyle
  2
Conceptual
 70
     9
 71
     3
 72
     2
 73
     0
 90
        0
 40
0.6
 41
30.0
 62
     5
 63
     7
421
 16777215
 74
     2
 91
        2
 64
     7
 65
   257
 75
     1
175
     1
 42
179.0
 92
        8
 66
     7
 43
1.0
 76
     1
 77
     6
 78
     2
 67
     7
 79
     3
170
     0
171
     0
290
     0
174
     0
 93
        1
 44
0.0
173
     0
291
     0
 45
0.0
1001
ACAD
1000
AcDbSavedByObjectVersion
1070
     0
  0
VISUALSTYLE
  5
35
102
{ACAD_REACTORS
330
2A
102
}
102
{ACAD_XDICTIONARY
360
24B
102
}
330
2A
100
AcDbVisualStyle
  2
Dim
 70
    11
 71
     2
 72
     2
 73
     0
 90
        0
 40
0.6
 41
30.0
 62
     5
 63
     7
421
 16777215
 74
     1
 91
        4
 64
     7
 65
   257
 75
     1
175
     1
 42
1.0
 92
        8
 66
     7
 43
1.0
 76
     1
 77
     6
 78
     2
 67
     7
 79
     5
170
     0
171
     0
290
     0
174
     0
 93
        1
 44
-50.0
173
     0
291
     1
 45
0.0
1001
ACAD
1000
AcDbSavedByObjectVersion
1070
     0
  0
VISUALSTYLE
  5
3D
102
{ACAD_REACTORS
330
2A
102
}
102
{ACAD_XDICTIONARY
360
25B
102
}
330
2A
100
AcDbVisualStyle
  2
EdgeColorOff
 70
    22
 71
     2
 72
     2
 73
     0
 90
        0
 40
0.6
 41
30.0
 62
     5
 63
     7
421
 16777215
 74
     1
 91
        4
 64
     7
 65
   257
 75
     1
175
     1
 42
1.0
 92
        8
 66
     7
 43
1.0
 76
     1
 77
     6
 78
     2
 67
     7
 79
     5
170
     0
171
     0
290
     0
174
     0
 93
        1
 44
0.0
173
     0
291
     1
 45
0.0
1001
ACAD
1000
AcDbSavedByObjectVersion
1070
     0
  0
VISUALSTYLE
  5
39
102
{ACAD_REACTORS
330
2A
102
}
102
{ACAD_XDICTIONARY
360
253
102
}
330
2A
100
AcDbVisualStyle
  2
Facepattern
 70
    15
 71
     2
 72
     2
 73
     0
 90
        0
 40
0.6
 41
30.0
 62
     5
 63
     7
421
 16777215
 74
     1
 91
        4
 64
     7
 65
   257
 75
     1
175
     1
 42
1.0
 92
        8
 66
     7
 43
1.0
 76
     1
 77
     6
 78
     2
 67
     7
 79
     5
170
     0
171
     0
290
     0
174
     0
 93
        1
 44
0.0
173
     0
291
     1
 45
0.0
1001
ACAD
1000
AcDbSavedByObjectVersion
1070
     0
  0
VISUALSTYLE
  5
2B
102
{ACAD_REACTORS
330
2A
102
}
102
{ACAD_XDICTIONARY
360
237
102
}
330
2A
100
AcDbVisualStyle
  2
Flat
 70
     0
 71
     2
 72
     1
 73
     1
 90
        2
 40
0.6
 41
30.0
 62
     5
 63
     7
421
 16777215
 74
     0
 91
        0
 64
     7
 65
   257
 75
     1
175
     1
 42
1.0
 92
        8
 66
     7
 43
1.0
 76
     1
 77
     6
 78
     2
 67
     7
 79
     5
170
     0
171
     0
290
     0
174
     0
 93
       13
 44
0.0
173
     0
291
     1
 45
0.0
1001
ACAD
1000
AcDbSavedByObjectVersion
1070
     0
  0
VISUALSTYLE
  5
2C
102
{ACAD_REACTORS
330
2A
102
}
102
{ACAD_XDICTIONARY
360
239
102
}
330
2A
100
AcDbVisualStyle
  2
FlatWithEdges
 70
     1
 71
     2
 72
     1
 73
     1
 90
        2
 40
0.6
 41
30.0
 62
     5
 63
     7
421
 16777215
 74
     1
 91
        0
 64
     7
 65
   257
 75
     1
175
     1
 42
1.0
 92
        0
 66
   257
 43
1.0
 76
     1
 77
     6
 78
     2
 67
     7
 79
     5
170
     0
171
     0
290
     0
174
     0
 93
       13
 44
0.0
173
     0
291
     1
 45
0.0
1001
ACAD
1000
AcDbSavedByObjectVersion
1070
     0
  0
VISUALSTYLE
  5
2D
102
{ACAD_REACTORS
330
2A
102
}
102
{ACAD_XDICTIONARY
360
23B
102
}
330
2A
100
AcDbVisualStyle
  2
Gouraud
 70
     2
 71
     2
 72
     2
 73
     1
 90
        2
 40
0.6
 41
30.0
 62
     5
 63
     7
421
 16777215
 74
     0
 91
        0
 64
     7
 65
   257
 75
     1
175
     1
 42
1.0
 92
        0
 66
     7
 43
1.0
 76
     1
 77
     6
 78
     2
 67
     7
 79
     5
170
     0
171
     0
290
     0
174
     0
 93
       13
 44
0.0
173
     0
291
     1
 45
0.0
1001
ACAD
1000
AcDbSavedByObjectVersion
1070
     0
  0
VISUALSTYLE
  5
2E
102
{ACAD_REACTORS
330
2A
102
}
102
{ACAD_XDICTIONARY
360
23D
102
}
330
2A
100
AcDbVisualStyle
  2
GouraudWithEdges
 70
     3
 71
     2
 72
     2
 73
     1
 90
        2
 40
0.6
 41
30.0
 62
     5
 63
     7
421
 16777215
 74
     1
 91
        0
 64
     7
 65
   257
 75
     1
175
     1
 42
1.0
 92
        0
 66
   257
 43
1.0
 76
     1
 77
     6
 78
     2
 67
     7
 79
     5
170
     0
171
     0
290
     0
174
     0
 93
       13
 44
0.0
173
     0
291
     1
 45
0.0
1001
ACAD
1000
AcDbSavedByObjectVersion
1070
     0
  0
VISUALSTYLE
  5
31
102
{ACAD_REACTORS
330
2A
102
}
102
{ACAD_XDICTIONARY
360
243
102
}
330
2A
100
AcDbVisualStyle
  2
Hidden
 70
     6
 71
     1
 72
     2
 73
     2
 90
        0
 40
0.6
 41
30.0
 62
     5
 63
     7
421
 16777215
 74
     2
 91
        2
 64
     7
 65
   257
 75
     2
175
     1
 42
40.0
 92
        0
 66
   257
 43
1.0
 76
     1
 77
     6
 78
     2
 67
     7
 79
     3
170
     0
171
     0
290
     0
174
     0
 93
        1
 44
0.0
173
     0
291
     0
 45
0.0
1001
ACAD
1000
AcDbSavedByObjectVersion
1070
     0
  0
VISUALSTYLE
  5
3B
102
{ACAD_REACTORS
330
2A
102
}
102
{ACAD_XDICTIONARY
360
257
102
}
330
2A
100
AcDbVisualStyle
  2
JitterOff
 70
    20
 71
     2
 72
     2
 73
     0
 90
        0
 40
0.6
 41
30.0
 62
     5
 63
     7
421
 16777215
 74
     1
 91
        4
 64
     7
 65
   257
 75
     1
175
     1
 42
1.0
 92
       10
 66
     7
 43
1.0
 76
     1
 77
     6
 78
     2
 67
     7
 79
     5
170
     0
171
     0
290
     0
174
     0
 93
        1
 44
0.0
173
     0
291
     1
 45
0.0
1001
ACAD
1000
AcDbSavedByObjectVersion
1070
     0
  0
VISUALSTYLE
  5
38
102
{ACAD_REACTORS
330
2A
102
}
102
{ACAD_XDICTIONARY
360
251
102
}
330
2A
100
AcDbVisualStyle
  2
Linepattern
 70
    14
 71
     2
 72
     2
 73
     0
 90
        0
 40
0.6
 41
30.0
 62
     5
 63
     7
421
 16777215
 74
     1
 91
        4
 64
     7
 65
   257
 75
     7
175
     7
 42
1.0
 92
        8
 66
     7
 43
1.0
 76
     1
 77
     6
 78
     2
 67
     7
 79
     5
170
     0
171
     0
290
     0
174
     0
 93
        1
 44
0.0
173
     0
291
     1
 45
0.0
1001
ACAD
1000
AcDbSavedByObjectVersion
1070
     0
  0
VISUALSTYLE
  5
3C
102
{ACAD_REACTORS
330
2A
102
}
102
{ACAD_XDICTIONARY
360
259
102
}
330
2A
100
AcDbVisualStyle
  2
OverhangOff
 70
    21
 71
     2
 72
     2
 73
     0
 90
        0
 40
0.6
 41
30.0
 62
     5
 63
     7
421
 16777215
 74
     1
 91
        4
 64
     7
 65
   257
 75
     1
175
     1
 42
1.0
 92
        9
 66
     7
 43
1.0
 76
     1
 77
     6
 78
     2
 67
     7
 79
     5
170
     0
171
     0
290
     0
174
     0
 93
        1
 44
0.0
173
     0
291
     1
 45
0.0
1001
ACAD
1000
AcDbSavedByObjectVersion
1070
     0
  0
VISUALSTYLE
  5
33
102
{ACAD_REACTORS
330
2A
102
}
102
{ACAD_XDICTIONARY
360
247
102
}
330
2A
100
AcDbVisualStyle
  2
Realistic
 70
     8
 71
     2
 72
     3
 73
     0
 90
        2
 40
0.6
 41
30.0
 62
     5
 63
     7
421
 16777215
 74
     0
 91
        0
 64
     7
 65
   257
 75
     1
175
     1
 42
1.0
 92
        8
 66
   257
 43
1.0
 76
     1
 77
     6
 78
     2
 67
     7
 79
     3
170
     0
171
     0
290
     0
174
     0
 93
       13
 44
0.0
173
     0
291
     0
 45
0.0
1001
ACAD
1000
AcDbSavedByObjectVersion
1070
     0
  0
VISUALSTYLE
  5
42
102
{ACAD_REACTORS
330
2A
102
}
102
{ACAD_XDICTIONARY
360
265
102
}
330
2A
100
AcDbVisualStyle
  2
Shaded
 70
    27
 71
     2
 72
     2
 73
     1
 90
        2
 40
0.6
 41
30.0
 62
     5
 63
     7
421
 16777215
 74
     0
 91
        4
 64
     7
 65
   257
 75
     1
175
     1
 42
1.0
 92
        8
 66
   257
 43
1.0
 76
     1
 77
     6
 78
     2
 67
     8
425
  7895160
 79
     3
170
     0
171
     0
290
     0
174
     0
 93
        5
 44
0.0
173
     0
291
     0
 45
0.0
1001
ACAD
1000
AcDbSavedByObjectVersion
1070
     0
  0
VISUALSTYLE
  5
41
102
{ACAD_REACTORS
330
2A
102
}
102
{ACAD_XDICTIONARY
360
263
102
}
330
2A
100
AcDbVisualStyle
  2
Shaded with edges
 70
    26
 71
     2
 72
     2
 73
     1
 90
        2
 40
0.6
 41
30.0
 62
     5
 63
     7
421
 16777215
 74
     1
 91
       10
 64
     7
 65
   257
 75
     2
175
     1
 42
1.0
 92
        8
 66
   257
 43
1.0
 76
     1
 77
     6
 78
     2
 67
     7
 79
     3
170
     0
171
     0
290
     0
174
     0
 93
        5
 44
0.0
173
     0
291
     0
 45
0.0
1001
ACAD
1000
AcDbSavedByObjectVersion
1070
     0
  0
VISUALSTYLE
  5
3E
102
{ACAD_REACTORS
330
2A
102
}
102
{ACAD_XDICTIONARY
360
25D
102
}
330
2A
100
AcDbVisualStyle
  2
Shades of Gray
 70
    23
 71
     2
 72
     2
 73
     3
 90
        0
 40
0.6
 41
30.0
 62
     5
 63
     7
421
 16777215
 74
     2
 91
        2
 64
     7
 65
     7
 75
     1
175
     1
 42
40.0
 92
        8
 66
     7
 43
1.0
 76
     1
 77
     6
 78
     2
 67
     7
 79
     3
170
     0
171
     0
290
     0
174
     0
 93
        1
 44
0.0
173
     0
291
     0
 45
0.0
1001
ACAD
1000
AcDbSavedByObjectVersion
1070
     0
  0
VISUALSTYLE
  5
3F
102
{ACAD_REACTORS
330
2A
102
}
102
{ACAD_XDICTIONARY
360
25F
102
}
330
2A
100
AcDbVisualStyle
  2
Sketchy
 70
    24
 71
     1
 72
     2
 73
     2
 90
        0
 40
0.6
 41
30.0
 62
     5
 63
     7
421
 16777215
 74
     2
 91
        2
 64
     7
 65
     7
 75
     1
175
     1
 42
40.0
 92
       11
 66
     7
 43
1.0
 76
     1
 77
     6
 78
     2
 67
     7
 79
     6
170
     0
171
     0
290
     0
174
     0
 93
        1
 44
0.0
173
     0
291
     0
 45
0.0
1001
ACAD
1000
AcDbSavedByObjectVersion
1070
     0
  0
VISUALSTYLE
  5
37
102
{ACAD_REACTORS
330
2A
102
}
102
{ACAD_XDICTIONARY
360
24F
102
}
330
2A
100
AcDbVisualStyle
  2
Thicken
 70
    13
 71
     2
 72
     2
 73
     0
 90
        0
 40
0.6
 41
30.0
 62
     5
 63
     7
421
 16777215
 74
     1
 91
        4
 64
     7
 65
   257
 75
     1
175
     1
 42
1.0
 92
       12
 66
     7
 43
1.0
 76
     1
 77
     6
 78
     2
 67
     7
 79
     5
170
     0
171
     0
290
     0
174
     0
 93
        1
 44
0.0
173
     0
291
     1
 45
0.0
1001
ACAD
1000
AcDbSavedByObjectVersion
1070
     0
  0
VISUALSTYLE
  5
30
102
{ACAD_REACTORS
330
2A
102
}
102
{ACAD_XDICTIONARY
360
241
102
}
330
2A
100
AcDbVisualStyle
  2
Wireframe
 70
     5
 71
     0
 72
     2
 73
     0
 90
        0
 40
0.6
 41
30.0
 62
     5
 63
     7
421
 16777215
 74
     1
 91
        4
 64
     7
 65
   257
 75
     1
175
     1
 42
1.0
 92
        0
 66
   257
 43
1.0
 76
     1
 77
     6
 78
     2
 67
     7
 79
     3
170
     0
171
     0
290
     0
174
     0
 93
        1
 44
0.0
173
     0
291
     0
 45
0.0
1001
ACAD
1000
AcDbSavedByObjectVersion
1070
     0
  0
VISUALSTYLE
  5
40
102
{ACAD_REACTORS
330
2A
102
}
102
{ACAD_XDICTIONARY
360
261
102
}
330
2A
100
AcDbVisualStyle
  2
X-Ray
 70
    25
 71
     2
 72
     2
 73
     1
 90
        1
 40
0.5
 41
30.0
 62
     5
 63
     7
421
 16777215
 74
     1
 91
        0
 64
     7
 65
   257
 75
     1
175
     1
 42
1.0
 92
        8
 66
     7
 43
1.0
 76
     1
 77
     6
 78
     2
 67
     7
 79
     3
170
     0
171
     0
290
     0
174
     0
 93
       13
 44
0.0
173
     0
291
     0
 45
0.0
1001
ACAD
1000
AcDbSavedByObjectVersion
1070
     0
  0
DICTIONARYVAR
  5
234
102
{ACAD_REACTORS
330
233
102
}
330
233
100
DictionaryVariables
280
     0
  1
1:1
  0
DICTIONARYVAR
  5
275
102
{ACAD_REACTORS
330
233
102
}
330
233
100
DictionaryVariables
280
     0
  1
Standard
  0
DICTIONARYVAR
  5
274
102
{ACAD_REACTORS
330
233
102
}
330
233
100
DictionaryVariables
280
     0
  1
Standard
  0
DICTIONARYVAR
  5
235
102
{ACAD_REACTORS
330
233
102
}
330
233
100
DictionaryVariables
280
     0
  1
1
  0
DICTIONARYVAR
  5
236
102
{ACAD_REACTORS
330
233
102
}
330
233
100
DictionaryVariables
280
     0
  1
2
  0
DICTIONARY
  5
269
330
45
100
AcDbDictionary
280
     1
281
     1
  3
ACAD_XREC_ROUNDTRIP
360
26A
  0
DICTIONARY
  5
267
330
44
100
AcDbDictionary
280
     1
281
     1
  3
ACAD_XREC_ROUNDTRIP
360
268
  0
DICTIONARY
  5
26B
330
46
100
AcDbDictionary
280
     1
281
     1
  3
ACAD_XREC_ROUNDTRIP
360
26C
  0
DICTIONARY
  5
271
330
6C
100
AcDbDictionary
280
     1
281
     1
  3
ACAD_XREC_ROUNDTRIP
360
272
  0
DICTIONARY
  5
26D
330
6A
100
AcDbDictionary
280
     1
281
     1
  3
ACAD_ROUNDTRIP_2008_TABLESTYLE_CELLSTYLEMAP
360
26F
  3
ACAD_XREC_ROUNDTRIP
360
26E
  0
DICTIONARY
  5
23F
330
2F
100
AcDbDictionary
280
     1
281
     1
  3
ACAD_XREC_ROUNDTRIP
360
240
  0
DICTIONARY
  5
245
330
32
100
AcDbDictionary
280
     1
281
     1
  3
ACAD_XREC_ROUNDTRIP
360
246
  0
DICTIONARY
  5
24D
330
36
100
AcDbDictionary
280
     1
281
     1
  3
ACAD_XREC_ROUNDTRIP
360
24E
  0
DICTIONARY
  5
255
330
3A
100
AcDbDictionary
280
     1
281
     1
  3
ACAD_XREC_ROUNDTRIP
360
256
  0
DICTIONARY
  5
249
330
34
100
AcDbDictionary
280
     1
281
     1
  3
ACAD_XREC_ROUNDTRIP
360
24A
  0
DICTIONARY
  5
24B
330
35
100
AcDbDictionary
280
     1
281
     1
  3
ACAD_XREC_ROUNDTRIP
360
24C
  0
DICTIONARY
  5
25B
330
3D
100
AcDbDictionary
280
     1
281
     1
  3
ACAD_XREC_ROUNDTRIP
360
25C
  0
DICTIONARY
  5
253
330
39
100
AcDbDictionary
280
     1
281
     1
  3
ACAD_XREC_ROUNDTRIP
360
254
  0
DICTIONARY
  5
237
330
2B
100
AcDbDictionary
280
     1
281
     1
  3
ACAD_XREC_ROUNDTRIP
360
238
  0
DICTIONARY
  5
239
330
2C
100
AcDbDictionary
280
     1
281
     1
  3
ACAD_XREC_ROUNDTRIP
360
23A
  0
DICTIONARY
  5
23B
330
2D
100
AcDbDictionary
280
     1
281
     1
  3
ACAD_XREC_ROUNDTRIP
360
23C
  0
DICTIONARY
  5
23D
330
2E
100
AcDbDictionary
280
     1
281
     1
  3
ACAD_XREC_ROUNDTRIP
360
23E
  0
DICTIONARY
  5
243
330
31
100
AcDbDictionary
280
     1
281
     1
  3
ACAD_XREC_ROUNDTRIP
360
244
  0
DICTIONARY
  5
257
330
3B
100
AcDbDictionary
280
     1
281
     1
  3
ACAD_XREC_ROUNDTRIP
360
258
  0
DICTIONARY
  5
251
330
38
100
AcDbDictionary
280
     1
281
     1
  3
ACAD_XREC_ROUNDTRIP
360
252
  0
DICTIONARY
  5
259
330
3C
100
AcDbDictionary
280
     1
281
     1
  3
ACAD_XREC_ROUNDTRIP
360
25A
  0
DICTIONARY
  5
247
330
33
100
AcDbDictionary
280
     1
281
     1
  3
ACAD_XREC_ROUNDTRIP
360
248
  0
DICTIONARY
  5
265
330
42
100
AcDbDictionary
280
     1
281
     1
  3
ACAD_XREC_ROUNDTRIP
360
266
  0
DICTIONARY
  5
263
330
41
100
AcDbDictionary
280
     1
281
     1
  3
ACAD_XREC_ROUNDTRIP
360
264
  0
DICTIONARY
  5
25D
330
3E
100
AcDbDictionary
280
     1
281
     1
  3
ACAD_XREC_ROUNDTRIP
360
25E
  0
DICTIONARY
  5
25F
330
3F
100
AcDbDictionary
280
     1
281
     1
  3
ACAD_XREC_ROUNDTRIP
360
260
  0
DICTIONARY
  5
24F
330
37
100
AcDbDictionary
280
     1
281
     1
  3
ACAD_XREC_ROUNDTRIP
360
250
  0
DICTIONARY
  5
241
330
30
100
AcDbDictionary
280
     1
281
     1
  3
ACAD_XREC_ROUNDTRIP
360
242
  0
DICTIONARY
  5
261
330
40
100
AcDbDictionary
280
     1
281
     1
  3
ACAD_XREC_ROUNDTRIP
360
262
  0
XRECORD
  5
26A
102
{ACAD_REACTORS
330
269
102
}
330
269
100
AcDbXrecord
280
     1
102
MATERIAL
148
0.0
149
0.0
149
0.0
 93
        0
 94
      127
282
     0
 72
     1
 77
     1
171
     1
175
     1
179
     1
273
     0
  0
XRECORD
  5
268
102
{ACAD_REACTORS
330
267
102
}
330
267
100
AcDbXrecord
280
     1
102
MATERIAL
148
0.0
149
0.0
149
0.0
 93
        0
 94
      127
282
     0
 72
     1
 77
     1
171
     1
175
     1
179
     1
273
     0
  0
XRECORD
  5
26C
102
{ACAD_REACTORS
330
26B
102
}
330
26B
100
AcDbXrecord
280
     1
102
MATERIAL
148
0.0
149
0.0
149
0.0
 93
        0
 94
      127
282
     0
 72
     1
 77
     1
171
     1
175
     1
179
     1
273
     0
  0
XRECORD
  5
272
102
{ACAD_REACTORS
330
271
102
}
330
271
100
AcDbXrecord
280
     1
102
ACAD_ROUNDTRIP_2010_MLEADER_STYLE
  0
CELLSTYLEMAP
  5
26F
102
{ACAD_REACTORS
330
26D
102
}
330
26D
100
AcDbCellStyleMap
 90
        3
300
CELLSTYLE
  1
TABLEFORMAT_BEGIN
 90
        5
170
     1
 91
        0
 92
    32768
 62
   257
 93
        1
300
CONTENTFORMAT
  1
CONTENTFORMAT_BEGIN
 90
        0
 91
        0
 92
        4
 93
        0
300

 40
0.0
140
1.0
 94
        5
 62
     0
340
11
144
0.25
309
CONTENTFORMAT_END
171
     1
301
MARGIN
  1
CELLMARGIN_BEGIN
 40
0.06
 40
0.06
 40
0.06
 40
0.06
 40
0.06
 40
0.06
309
CELLMARGIN_END
 94
        6
 95
        1
302
GRIDFORMAT
  1
GRIDFORMAT_BEGIN
 90
        0
 91
        1
 62
     0
 92
       -2
340
14
 93
        0
 40
0.045
309
GRIDFORMAT_END
 95
        2
302
GRIDFORMAT
  1
GRIDFORMAT_BEGIN
 90
        0
 91
        1
 62
     0
 92
       -2
340
14
 93
        0
 40
0.045
309
GRIDFORMAT_END
 95
        4
302
GRIDFORMAT
  1
GRIDFORMAT_BEGIN
 90
        0
 91
        1
 62
     0
 92
       -2
340
14
 93
        0
 40
0.045
309
GRIDFORMAT_END
 95
        8
302
GRIDFORMAT
  1
GRIDFORMAT_BEGIN
 90
        0
 91
        1
 62
     0
 92
       -2
340
14
 93
        0
 40
0.045
309
GRIDFORMAT_END
 95
       16
302
GRIDFORMAT
  1
GRIDFORMAT_BEGIN
 90
        0
 91
        1
 62
     0
 92
       -2
340
14
 93
        0
 40
0.045
309
GRIDFORMAT_END
 95
       32
302
GRIDFORMAT
  1
GRIDFORMAT_BEGIN
 90
        0
 91
        1
 62
     0
 92
       -2
340
14
 93
        0
 40
0.045
309
GRIDFORMAT_END
309
TABLEFORMAT_END
  1
CELLSTYLE_BEGIN
 90
        1
 91
        1
300
_TITLE
309
CELLSTYLE_END
300
CELLSTYLE
  1
TABLEFORMAT_BEGIN
 90
        5
170
     1
 91
        0
 92
        0
 62
   257
 93
        1
300
CONTENTFORMAT
  1
CONTENTFORMAT_BEGIN
 90
        0
 91
        0
 92
        4
 93
        0
300

 40
0.0
140
1.0
 94
        5
 62
     0
340
11
144
0.18
309
CONTENTFORMAT_END
171
     1
301
MARGIN
  1
CELLMARGIN_BEGIN
 40
0.06
 40
0.06
 40
0.06
 40
0.06
 40
0.06
 40
0.06
309
CELLMARGIN_END
 94
        6
 95
        1
302
GRIDFORMAT
  1
GRIDFORMAT_BEGIN
 90
        0
 91
        1
 62
     0
 92
       -2
340
14
 93
        0
 40
0.045
309
GRIDFORMAT_END
 95
        2
302
GRIDFORMAT
  1
GRIDFORMAT_BEGIN
 90
        0
 91
        1
 62
     0
 92
       -2
340
14
 93
        0
 40
0.045
309
GRIDFORMAT_END
 95
        4
302
GRIDFORMAT
  1
GRIDFORMAT_BEGIN
 90
        0
 91
        1
 62
     0
 92
       -2
340
14
 93
        0
 40
0.045
309
GRIDFORMAT_END
 95
        8
302
GRIDFORMAT
  1
GRIDFORMAT_BEGIN
 90
        0
 91
        1
 62
     0
 92
       -2
340
14
 93
        0
 40
0.045
309
GRIDFORMAT_END
 95
       16
302
GRIDFORMAT
  1
GRIDFORMAT_BEGIN
 90
        0
 91
        1
 62
     0
 92
       -2
340
14
 93
        0
 40
0.045
309
GRIDFORMAT_END
 95
       32
302
GRIDFORMAT
  1
GRIDFORMAT_BEGIN
 90
        0
 91
        1
 62
     0
 92
       -2
340
14
 93
        0
 40
0.045
309
GRIDFORMAT_END
309
TABLEFORMAT_END
  1
CELLSTYLE_BEGIN
 90
        2
 91
        1
300
_HEADER
309
CELLSTYLE_END
300
CELLSTYLE
  1
TABLEFORMAT_BEGIN
 90
        5
170
     1
 91
        0
 92
        0
 62
   257
 93
        1
300
CONTENTFORMAT
  1
CONTENTFORMAT_BEGIN
 90
        0
 91
        0
 92
        4
 93
        0
300

 40
0.0
140
1.0
 94
        2
 62
     0
340
11
144
0.18
309
CONTENTFORMAT_END
171
     1
301
MARGIN
  1
CELLMARGIN_BEGIN
 40
0.06
 40
0.06
 40
0.06
 40
0.06
 40
0.06
 40
0.06
309
CELLMARGIN_END
 94
        6
 95
        1
302
GRIDFORMAT
  1
GRIDFORMAT_BEGIN
 90
        0
 91
        1
 62
     0
 92
       -2
340
14
 93
        0
 40
0.045
309
GRIDFORMAT_END
 95
        2
302
GRIDFORMAT
  1
GRIDFORMAT_BEGIN
 90
        0
 91
        1
 62
     0
 92
       -2
340
14
 93
        0
 40
0.045
309
GRIDFORMAT_END
 95
        4
302
GRIDFORMAT
  1
GRIDFORMAT_BEGIN
 90
        0
 91
        1
 62
     0
 92
       -2
340
14
 93
        0
 40
0.045
309
GRIDFORMAT_END
 95
        8
302
GRIDFORMAT
  1
GRIDFORMAT_BEGIN
 90
        0
 91
        1
 62
     0
 92
       -2
340
14
 93
        0
 40
0.045
309
GRIDFORMAT_END
 95
       16
302
GRIDFORMAT
  1
GRIDFORMAT_BEGIN
 90
        0
 91
        1
 62
     0
 92
       -2
340
14
 93
        0
 40
0.045
309
GRIDFORMAT_END
 95
       32
302
GRIDFORMAT
  1
GRIDFORMAT_BEGIN
 90
        0
 91
        1
 62
     0
 92
       -2
340
14
 93
        0
 40
0.045
309
GRIDFORMAT_END
309
TABLEFORMAT_END
  1
CELLSTYLE_BEGIN
 90
        3
 91
        2
300
_DATA
309
CELLSTYLE_END
  0
XRECORD
  5
26E
102
{ACAD_REACTORS
330
26D
102
}
330
26D
100
AcDbXrecord
280
     1
102
ACAD_ROUNDTRIP_PRE2007_TABLESTYLE
 90
        4
 91
        0
  1

 92
        4
 93
        0
  2

 94
        4
 95
        0
  3

  0
XRECORD
  5
240
102
{ACAD_REACTORS
330
23F
102
}
330
23F
100
AcDbXrecord
280
     1
102
RTVSPropertyOp0
 70
     1
102
RTVSPropertyOp1
 70
     1
102
RTVSPropertyOp2
 70
     1
102
RTVSPropertyOp3
 70
     1
102
RTVSPropertyOp4
 70
     1
102
RTVSPropertyOp5
 70
     1
102
RTVSPropertyOp6
 70
     1
102
RTVSPropertyOp7
 70
     1
102
RTVSPropertyOp8
 70
     1
102
RTVSPropertyOp9
 70
     1
102
RTVSPropertyOp10
 70
     1
102
RTVSPropertyOp11
 70
     1
102
RTVSPropertyOp12
 70
     1
102
RTVSPropertyOp13
 70
     1
102
RTVSPropertyOp14
 70
     1
102
RTVSPropertyOp15
 70
     1
102
RTVSPropertyOp16
 70
     1
102
RTVSPropertyOp17
 70
     1
102
RTVSPropertyOp18
 70
     1
102
RTVSPropertyOp19
 70
     1
102
RTVSPropertyOp20
 70
     1
102
RTVSPropertyOp21
 70
     1
102
RTVSPropertyOp22
 70
     1
102
RTVSPropertyOp23
 70
     1
102
RTVSPropertyOp24
 70
     1
102
RTVSPropertyOp25
 70
     1
102
RTVSPropertyOp26
 70
     1
102
RTVSPropertyOp27
 70
     1
102
RTVSPropertyOp28
 70
     1
102
RTVSPropertyOp29
 70
     1
102
RTVSPropertyOp30
 70
     1
102
RTVSPropertyOp31
 70
     1
102
RTVSPropertyOp32
 70
     1
102
RTVSPropertyOp33
 70
     1
102
RTVSPropertyOp34
 70
     1
102
RTVSPropertyOp35
 70
     1
102
RTVSPropertyOp36
 70
     1
102
RTVSPropertyOp37
 70
     1
102
RTVSPropertyOp38
 70
     1
102
RTVSPropertyOp39
 70
     1
102
RTVSPropertyOp40
 70
     1
102
RTVSPropertyOp41
 70
     1
102
RTVSPropertyOp42
 70
     1
102
RTVSPropertyOp43
 70
     1
102
RTVSPropertyOp44
 70
     1
102
RTVSPropertyOp45
 70
     1
102
RTVSPropertyOp46
 70
     1
102
RTVSPropertyOp47
 70
     1
102
RTVSPropertyOp48
 70
     1
102
RTVSPropertyOp49
 70
     1
102
RTVSPropertyOp50
 70
     1
102
RTVSPropertyOp51
 70
     0
102
RTVSPropertyOp52
 70
     0
102
RTVSPropertyOp53
 70
     1
102
RTVSPropertyOp54
 70
     1
102
RTVSPropertyOp55
 70
     1
102
RTVSPropertyOp56
 70
     1
102
RTVSPropertyOp57
 70
     1
102
RTVSPost2010Prop28
280
     1
102
RTVSPost2010PropOp28
 70
     1
102
RTVSPost2010Prop29
280
     1
102
RTVSPost2010PropOp29
 70
     1
102
RTVSPost2010Prop30
280
     0
102
RTVSPost2010PropOp30
 70
     1
102
RTVSPost2010Prop31
280
     0
102
RTVSPost2010PropOp31
 70
     1
102
RTVSPost2010Prop32
280
     0
102
RTVSPost2010PropOp32
 70
     1
102
RTVSPost2010Prop33
280
     0
102
RTVSPost2010PropOp33
 70
     1
102
RTVSPost2010Prop34
280
     0
102
RTVSPost2010PropOp34
 70
     1
102
RTVSPost2010Prop35
280
     0
102
RTVSPost2010PropOp35
 70
     1
102
RTVSPost2010Prop36
280
     0
102
RTVSPost2010PropOp36
 70
     1
102
RTVSPost2010Prop37
 90
       50
102
RTVSPost2010PropOp37
 70
     1
102
RTVSPost2010Prop38
140
0.0
102
RTVSPost2010PropOp38
 70
     1
102
RTVSPost2010Prop39
140
1.0
102
RTVSPost2010PropOp39
 70
     1
102
RTVSPost2010Prop40
 90
        0
102
RTVSPost2010PropOp40
 70
     1
102
RTVSPost2010Prop41ColorIndex
 90
       18
102
RTVSPost2010Prop41ColorRGB
 90
        0
102
RTVSPost2010PropOp41
 70
     1
102
RTVSPost2010Prop42
 90
       50
102
RTVSPost2010PropOp42
 70
     1
102
RTVSPost2010Prop43
 90
        3
102
RTVSPost2010PropOp43
 70
     1
102
RTVSPost2010Prop44ColorIndex
 90
        5
102
RTVSPost2010Prop44ColorRGB
 90
      255
102
RTVSPost2010PropOp44
 70
     1
102
RTVSPost2010Prop45
280
     0
102
RTVSPost2010PropOp45
 70
     1
102
RTVSPost2010Prop46
 90
       50
102
RTVSPost2010PropOp46
 70
     1
102
RTVSPost2010Prop47
 90
       50
102
RTVSPost2010PropOp47
 70
     1
102
RTVSPost2010Prop48
 90
       50
102
RTVSPost2010PropOp48
 70
     1
102
RTVSPost2010Prop49
280
     0
102
RTVSPost2010PropOp49
 70
     1
102
RTVSPost2010Prop50
 90
       50
102
RTVSPost2010PropOp50
 70
     1
102
RTVSPost2010Prop51ColorIndex
 90
      256
102
RTVSPost2010Prop51ColorRGB
 90
-16777216
102
RTVSPost2010PropOp51
 70
     0
102
RTVSPost2010Prop52
140
1.0
102
RTVSPost2010PropOp52
 70
     0
102
RTVSPost2010Prop53
 90
        2
102
RTVSPost2010PropOp53
 70
     1
102
RTVSPost2010Prop54
  1
strokes_ogs.tif
102
RTVSPost2010PropOp54
 70
     1
102
RTVSPost2010Prop55
280
     0
102
RTVSPost2010PropOp55
 70
     1
102
RTVSPost2010Prop56
140
1.0
102
RTVSPost2010PropOp56
 70
     1
102
RTVSPost2010Prop57
140
1.0
102
RTVSPost2010PropOp57
 70
     1
  0
XRECORD
  5
246
102
{ACAD_REACTORS
330
245
102
}
330
245
100
AcDbXrecord
280
     1
102
RTVSPropertyOp0
 70
     1
102
RTVSPropertyOp1
 70
     1
102
RTVSPropertyOp2
 70
     1
102
RTVSPropertyOp3
 70
     1
102
RTVSPropertyOp4
 70
     1
102
RTVSPropertyOp5
 70
     1
102
RTVSPropertyOp6
 70
     1
102
RTVSPropertyOp7
 70
     1
102
RTVSPropertyOp8
 70
     1
102
RTVSPropertyOp9
 70
     1
102
RTVSPropertyOp10
 70
     1
102
RTVSPropertyOp11
 70
     1
102
RTVSPropertyOp12
 70
     1
102
RTVSPropertyOp13
 70
     1
102
RTVSPropertyOp14
 70
     1
102
RTVSPropertyOp15
 70
     1
102
RTVSPropertyOp16
 70
     1
102
RTVSPropertyOp17
 70
     1
102
RTVSPropertyOp18
 70
     1
102
RTVSPropertyOp19
 70
     1
102
RTVSPropertyOp20
 70
     1
102
RTVSPropertyOp21
 70
     1
102
RTVSPropertyOp22
 70
     1
102
RTVSPropertyOp23
 70
     1
102
RTVSPropertyOp24
 70
     1
102
RTVSPropertyOp25
 70
     1
102
RTVSPropertyOp26
 70
     1
102
RTVSPropertyOp27
 70
     1
102
RTVSPropertyOp28
 70
     1
102
RTVSPropertyOp29
 70
     1
102
RTVSPropertyOp30
 70
     1
102
RTVSPropertyOp31
 70
     1
102
RTVSPropertyOp32
 70
     1
102
RTVSPropertyOp33
 70
     1
102
RTVSPropertyOp34
 70
     1
102
RTVSPropertyOp35
 70
     1
102
RTVSPropertyOp36
 70
     1
102
RTVSPropertyOp37
 70
     1
102
RTVSPropertyOp38
 70
     1
102
RTVSPropertyOp39
 70
     1
102
RTVSPropertyOp40
 70
     1
102
RTVSPropertyOp41
 70
     1
102
RTVSPropertyOp42
 70
     1
102
RTVSPropertyOp43
 70
     1
102
RTVSPropertyOp44
 70
     1
102
RTVSPropertyOp45
 70
     1
102
RTVSPropertyOp46
 70
     1
102
RTVSPropertyOp47
 70
     1
102
RTVSPropertyOp48
 70
     1
102
RTVSPropertyOp49
 70
     1
102
RTVSPropertyOp50
 70
     1
102
RTVSPropertyOp51
 70
     0
102
RTVSPropertyOp52
 70
     0
102
RTVSPropertyOp53
 70
     1
102
RTVSPropertyOp54
 70
     1
102
RTVSPropertyOp55
 70
     1
102
RTVSPropertyOp56
 70
     1
102
RTVSPropertyOp57
 70
     1
102
RTVSPost2010Prop28
280
     0
102
RTVSPost2010PropOp28
 70
     1
102
RTVSPost2010Prop29
280
     1
102
RTVSPost2010PropOp29
 70
     1
102
RTVSPost2010Prop30
280
     1
102
RTVSPost2010PropOp30
 70
     1
102
RTVSPost2010Prop31
280
     0
102
RTVSPost2010PropOp31
 70
     1
102
RTVSPost2010Prop32
280
     0
102
RTVSPost2010PropOp32
 70
     1
102
RTVSPost2010Prop33
280
     0
102
RTVSPost2010PropOp33
 70
     1
102
RTVSPost2010Prop34
280
     0
102
RTVSPost2010PropOp34
 70
     1
102
RTVSPost2010Prop35
280
     0
102
RTVSPost2010PropOp35
 70
     1
102
RTVSPost2010Prop36
280
     0
102
RTVSPost2010PropOp36
 70
     1
102
RTVSPost2010Prop37
 90
       50
102
RTVSPost2010PropOp37
 70
     1
102
RTVSPost2010Prop38
140
0.0
102
RTVSPost2010PropOp38
 70
     1
102
RTVSPost2010Prop39
140
1.0
102
RTVSPost2010PropOp39
 70
     1
102
RTVSPost2010Prop40
 90
        0
102
RTVSPost2010PropOp40
 70
     1
102
RTVSPost2010Prop41ColorIndex
 90
       18
102
RTVSPost2010Prop41ColorRGB
 90
        0
102
RTVSPost2010PropOp41
 70
     1
102
RTVSPost2010Prop42
 90
       50
102
RTVSPost2010PropOp42
 70
     1
102
RTVSPost2010Prop43
 90
        3
102
RTVSPost2010PropOp43
 70
     1
102
RTVSPost2010Prop44ColorIndex
 90
        5
102
RTVSPost2010Prop44ColorRGB
 90
      255
102
RTVSPost2010PropOp44
 70
     1
102
RTVSPost2010Prop45
280
     0
102
RTVSPost2010PropOp45
 70
     1
102
RTVSPost2010Prop46
 90
       50
102
RTVSPost2010PropOp46
 70
     1
102
RTVSPost2010Prop47
 90
       50
102
RTVSPost2010PropOp47
 70
     1
102
RTVSPost2010Prop48
 90
       50
102
RTVSPost2010PropOp48
 70
     1
102
RTVSPost2010Prop49
280
     0
102
RTVSPost2010PropOp49
 70
     1
102
RTVSPost2010Prop50
 90
       50
102
RTVSPost2010PropOp50
 70
     1
102
RTVSPost2010Prop51ColorIndex
 90
      256
102
RTVSPost2010Prop51ColorRGB
 90
-16777216
102
RTVSPost2010PropOp51
 70
     0
102
RTVSPost2010Prop52
140
1.0
102
RTVSPost2010PropOp52
 70
     0
102
RTVSPost2010Prop53
 90
        2
102
RTVSPost2010PropOp53
 70
     1
102
RTVSPost2010Prop54
  1
strokes_ogs.tif
102
RTVSPost2010PropOp54
 70
     1
102
RTVSPost2010Prop55
280
     0
102
RTVSPost2010PropOp55
 70
     1
102
RTVSPost2010Prop56
140
1.0
102
RTVSPost2010PropOp56
 70
     1
102
RTVSPost2010Prop57
140
1.0
102
RTVSPost2010PropOp57
 70
     1
  0
XRECORD
  5
24E
102
{ACAD_REACTORS
330
24D
102
}
330
24D
100
AcDbXrecord
280
     1
102
RTVSPropertyOp0
 70
     1
102
RTVSPropertyOp1
 70
     1
102
RTVSPropertyOp2
 70
     1
102
RTVSPropertyOp3
 70
     1
102
RTVSPropertyOp4
 70
     1
102
RTVSPropertyOp5
 70
     1
102
RTVSPropertyOp6
 70
     1
102
RTVSPropertyOp7
 70
     1
102
RTVSPropertyOp8
 70
     1
102
RTVSPropertyOp9
 70
     1
102
RTVSPropertyOp10
 70
     1
102
RTVSPropertyOp11
 70
     1
102
RTVSPropertyOp12
 70
     1
102
RTVSPropertyOp13
 70
     1
102
RTVSPropertyOp14
 70
     1
102
RTVSPropertyOp15
 70
     1
102
RTVSPropertyOp16
 70
     1
102
RTVSPropertyOp17
 70
     1
102
RTVSPropertyOp18
 70
     1
102
RTVSPropertyOp19
 70
     1
102
RTVSPropertyOp20
 70
     1
102
RTVSPropertyOp21
 70
     1
102
RTVSPropertyOp22
 70
     1
102
RTVSPropertyOp23
 70
     1
102
RTVSPropertyOp24
 70
     1
102
RTVSPropertyOp25
 70
     1
102
RTVSPropertyOp26
 70
     1
102
RTVSPropertyOp27
 70
     1
102
RTVSPropertyOp28
 70
     1
102
RTVSPropertyOp29
 70
     1
102
RTVSPropertyOp30
 70
     1
102
RTVSPropertyOp31
 70
     1
102
RTVSPropertyOp32
 70
     1
102
RTVSPropertyOp33
 70
     1
102
RTVSPropertyOp34
 70
     1
102
RTVSPropertyOp35
 70
     1
102
RTVSPropertyOp36
 70
     1
102
RTVSPropertyOp37
 70
     1
102
RTVSPropertyOp38
 70
     1
102
RTVSPropertyOp39
 70
     1
102
RTVSPropertyOp40
 70
     1
102
RTVSPropertyOp41
 70
     1
102
RTVSPropertyOp42
 70
     1
102
RTVSPropertyOp43
 70
     1
102
RTVSPropertyOp44
 70
     1
102
RTVSPropertyOp45
 70
     1
102
RTVSPropertyOp46
 70
     1
102
RTVSPropertyOp47
 70
     1
102
RTVSPropertyOp48
 70
     1
102
RTVSPropertyOp49
 70
     1
102
RTVSPropertyOp50
 70
     1
102
RTVSPropertyOp51
 70
     0
102
RTVSPropertyOp52
 70
     0
102
RTVSPropertyOp53
 70
     1
102
RTVSPropertyOp54
 70
     1
102
RTVSPropertyOp55
 70
     1
102
RTVSPropertyOp56
 70
     1
102
RTVSPropertyOp57
 70
     1
102
RTVSPost2010Prop28
280
     0
102
RTVSPost2010PropOp28
 70
     1
102
RTVSPost2010Prop29
280
     1
102
RTVSPost2010PropOp29
 70
     1
102
RTVSPost2010Prop30
280
     1
102
RTVSPost2010PropOp30
 70
     1
102
RTVSPost2010Prop31
280
     0
102
RTVSPost2010PropOp31
 70
     1
102
RTVSPost2010Prop32
280
     0
102
RTVSPost2010PropOp32
 70
     1
102
RTVSPost2010Prop33
280
     0
102
RTVSPost2010PropOp33
 70
     1
102
RTVSPost2010Prop34
280
     0
102
RTVSPost2010PropOp34
 70
     1
102
RTVSPost2010Prop35
280
     0
102
RTVSPost2010PropOp35
 70
     1
102
RTVSPost2010Prop36
280
     0
102
RTVSPost2010PropOp36
 70
     1
102
RTVSPost2010Prop37
 90
       50
102
RTVSPost2010PropOp37
 70
     1
102
RTVSPost2010Prop38
140
0.0
102
RTVSPost2010PropOp38
 70
     1
102
RTVSPost2010Prop39
140
1.0
102
RTVSPost2010PropOp39
 70
     1
102
RTVSPost2010Prop40
 90
        0
102
RTVSPost2010PropOp40
 70
     1
102
RTVSPost2010Prop41ColorIndex
 90
       18
102
RTVSPost2010Prop41ColorRGB
 90
        0
102
RTVSPost2010PropOp41
 70
     1
102
RTVSPost2010Prop42
 90
       50
102
RTVSPost2010PropOp42
 70
     1
102
RTVSPost2010Prop43
 90
        3
102
RTVSPost2010PropOp43
 70
     1
102
RTVSPost2010Prop44ColorIndex
 90
        5
102
RTVSPost2010Prop44ColorRGB
 90
      255
102
RTVSPost2010PropOp44
 70
     1
102
RTVSPost2010Prop45
280
     0
102
RTVSPost2010PropOp45
 70
     1
102
RTVSPost2010Prop46
 90
       50
102
RTVSPost2010PropOp46
 70
     1
102
RTVSPost2010Prop47
 90
       50
102
RTVSPost2010PropOp47
 70
     1
102
RTVSPost2010Prop48
 90
       50
102
RTVSPost2010PropOp48
 70
     1
102
RTVSPost2010Prop49
280
     0
102
RTVSPost2010PropOp49
 70
     1
102
RTVSPost2010Prop50
 90
       50
102
RTVSPost2010PropOp50
 70
     1
102
RTVSPost2010Prop51ColorIndex
 90
      256
102
RTVSPost2010Prop51ColorRGB
 90
-16777216
102
RTVSPost2010PropOp51
 70
     0
102
RTVSPost2010Prop52
140
1.0
102
RTVSPost2010PropOp52
 70
     0
102
RTVSPost2010Prop53
 90
        2
102
RTVSPost2010PropOp53
 70
     1
102
RTVSPost2010Prop54
  1
strokes_ogs.tif
102
RTVSPost2010PropOp54
 70
     1
102
RTVSPost2010Prop55
280
     0
102
RTVSPost2010PropOp55
 70
     1
102
RTVSPost2010Prop56
140
1.0
102
RTVSPost2010PropOp56
 70
     1
102
RTVSPost2010Prop57
140
1.0
102
RTVSPost2010PropOp57
 70
     1
  0
XRECORD
  5
256
102
{ACAD_REACTORS
330
255
102
}
330
255
100
AcDbXrecord
280
     1
102
RTVSPropertyOp0
 70
     1
102
RTVSPropertyOp1
 70
     1
102
RTVSPropertyOp2
 70
     1
102
RTVSPropertyOp3
 70
     1
102
RTVSPropertyOp4
 70
     1
102
RTVSPropertyOp5
 70
     1
102
RTVSPropertyOp6
 70
     1
102
RTVSPropertyOp7
 70
     1
102
RTVSPropertyOp8
 70
     1
102
RTVSPropertyOp9
 70
     1
102
RTVSPropertyOp10
 70
     1
102
RTVSPropertyOp11
 70
     1
102
RTVSPropertyOp12
 70
     1
102
RTVSPropertyOp13
 70
     1
102
RTVSPropertyOp14
 70
     1
102
RTVSPropertyOp15
 70
     1
102
RTVSPropertyOp16
 70
     1
102
RTVSPropertyOp17
 70
     1
102
RTVSPropertyOp18
 70
     1
102
RTVSPropertyOp19
 70
     1
102
RTVSPropertyOp20
 70
     1
102
RTVSPropertyOp21
 70
     1
102
RTVSPropertyOp22
 70
     1
102
RTVSPropertyOp23
 70
     1
102
RTVSPropertyOp24
 70
     1
102
RTVSPropertyOp25
 70
     1
102
RTVSPropertyOp26
 70
     1
102
RTVSPropertyOp27
 70
     1
102
RTVSPropertyOp28
 70
     1
102
RTVSPropertyOp29
 70
     1
102
RTVSPropertyOp30
 70
     1
102
RTVSPropertyOp31
 70
     1
102
RTVSPropertyOp32
 70
     1
102
RTVSPropertyOp33
 70
     1
102
RTVSPropertyOp34
 70
     1
102
RTVSPropertyOp35
 70
     1
102
RTVSPropertyOp36
 70
     1
102
RTVSPropertyOp37
 70
     1
102
RTVSPropertyOp38
 70
     1
102
RTVSPropertyOp39
 70
     1
102
RTVSPropertyOp40
 70
     1
102
RTVSPropertyOp41
 70
     1
102
RTVSPropertyOp42
 70
     1
102
RTVSPropertyOp43
 70
     1
102
RTVSPropertyOp44
 70
     1
102
RTVSPropertyOp45
 70
     1
102
RTVSPropertyOp46
 70
     1
102
RTVSPropertyOp47
 70
     1
102
RTVSPropertyOp48
 70
     1
102
RTVSPropertyOp49
 70
     1
102
RTVSPropertyOp50
 70
     1
102
RTVSPropertyOp51
 70
     0
102
RTVSPropertyOp52
 70
     0
102
RTVSPropertyOp53
 70
     1
102
RTVSPropertyOp54
 70
     1
102
RTVSPropertyOp55
 70
     1
102
RTVSPropertyOp56
 70
     1
102
RTVSPropertyOp57
 70
     1
102
RTVSPost2010Prop28
280
     0
102
RTVSPost2010PropOp28
 70
     1
102
RTVSPost2010Prop29
280
     1
102
RTVSPost2010PropOp29
 70
     1
102
RTVSPost2010Prop30
280
     1
102
RTVSPost2010PropOp30
 70
     1
102
RTVSPost2010Prop31
280
     0
102
RTVSPost2010PropOp31
 70
     1
102
RTVSPost2010Prop32
280
     0
102
RTVSPost2010PropOp32
 70
     1
102
RTVSPost2010Prop33
280
     0
102
RTVSPost2010PropOp33
 70
     1
102
RTVSPost2010Prop34
280
     0
102
RTVSPost2010PropOp34
 70
     1
102
RTVSPost2010Prop35
280
     0
102
RTVSPost2010PropOp35
 70
     1
102
RTVSPost2010Prop36
280
     0
102
RTVSPost2010PropOp36
 70
     1
102
RTVSPost2010Prop37
 90
       50
102
RTVSPost2010PropOp37
 70
     1
102
RTVSPost2010Prop38
140
0.0
102
RTVSPost2010PropOp38
 70
     1
102
RTVSPost2010Prop39
140
1.0
102
RTVSPost2010PropOp39
 70
     1
102
RTVSPost2010Prop40
 90
        0
102
RTVSPost2010PropOp40
 70
     1
102
RTVSPost2010Prop41ColorIndex
 90
       18
102
RTVSPost2010Prop41ColorRGB
 90
        0
102
RTVSPost2010PropOp41
 70
     1
102
RTVSPost2010Prop42
 90
       50
102
RTVSPost2010PropOp42
 70
     1
102
RTVSPost2010Prop43
 90
        3
102
RTVSPost2010PropOp43
 70
     1
102
RTVSPost2010Prop44ColorIndex
 90
        5
102
RTVSPost2010Prop44ColorRGB
 90
      255
102
RTVSPost2010PropOp44
 70
     1
102
RTVSPost2010Prop45
280
     0
102
RTVSPost2010PropOp45
 70
     1
102
RTVSPost2010Prop46
 90
       50
102
RTVSPost2010PropOp46
 70
     1
102
RTVSPost2010Prop47
 90
       50
102
RTVSPost2010PropOp47
 70
     1
102
RTVSPost2010Prop48
 90
       50
102
RTVSPost2010PropOp48
 70
     1
102
RTVSPost2010Prop49
280
     0
102
RTVSPost2010PropOp49
 70
     1
102
RTVSPost2010Prop50
 90
       50
102
RTVSPost2010PropOp50
 70
     1
102
RTVSPost2010Prop51ColorIndex
 90
      256
102
RTVSPost2010Prop51ColorRGB
 90
-16777216
102
RTVSPost2010PropOp51
 70
     0
102
RTVSPost2010Prop52
140
1.0
102
RTVSPost2010PropOp52
 70
     0
102
RTVSPost2010Prop53
 90
        2
102
RTVSPost2010PropOp53
 70
     1
102
RTVSPost2010Prop54
  1
strokes_ogs.tif
102
RTVSPost2010PropOp54
 70
     1
102
RTVSPost2010Prop55
280
     0
102
RTVSPost2010PropOp55
 70
     1
102
RTVSPost2010Prop56
140
1.0
102
RTVSPost2010PropOp56
 70
     1
102
RTVSPost2010Prop57
140
1.0
102
RTVSPost2010PropOp57
 70
     1
  0
XRECORD
  5
24A
102
{ACAD_REACTORS
330
249
102
}
330
249
100
AcDbXrecord
280
     1
102
RTVSPropertyOp0
 70
     1
102
RTVSPropertyOp1
 70
     1
102
RTVSPropertyOp2
 70
     1
102
RTVSPropertyOp3
 70
     1
102
RTVSPropertyOp4
 70
     1
102
RTVSPropertyOp5
 70
     1
102
RTVSPropertyOp6
 70
     1
102
RTVSPropertyOp7
 70
     1
102
RTVSPropertyOp8
 70
     1
102
RTVSPropertyOp9
 70
     1
102
RTVSPropertyOp10
 70
     1
102
RTVSPropertyOp11
 70
     1
102
RTVSPropertyOp12
 70
     1
102
RTVSPropertyOp13
 70
     1
102
RTVSPropertyOp14
 70
     1
102
RTVSPropertyOp15
 70
     1
102
RTVSPropertyOp16
 70
     1
102
RTVSPropertyOp17
 70
     1
102
RTVSPropertyOp18
 70
     1
102
RTVSPropertyOp19
 70
     1
102
RTVSPropertyOp20
 70
     1
102
RTVSPropertyOp21
 70
     1
102
RTVSPropertyOp22
 70
     1
102
RTVSPropertyOp23
 70
     1
102
RTVSPropertyOp24
 70
     1
102
RTVSPropertyOp25
 70
     1
102
RTVSPropertyOp26
 70
     1
102
RTVSPropertyOp27
 70
     1
102
RTVSPropertyOp28
 70
     1
102
RTVSPropertyOp29
 70
     1
102
RTVSPropertyOp30
 70
     1
102
RTVSPropertyOp31
 70
     1
102
RTVSPropertyOp32
 70
     1
102
RTVSPropertyOp33
 70
     1
102
RTVSPropertyOp34
 70
     1
102
RTVSPropertyOp35
 70
     1
102
RTVSPropertyOp36
 70
     1
102
RTVSPropertyOp37
 70
     1
102
RTVSPropertyOp38
 70
     1
102
RTVSPropertyOp39
 70
     1
102
RTVSPropertyOp40
 70
     1
102
RTVSPropertyOp41
 70
     1
102
RTVSPropertyOp42
 70
     1
102
RTVSPropertyOp43
 70
     1
102
RTVSPropertyOp44
 70
     1
102
RTVSPropertyOp45
 70
     1
102
RTVSPropertyOp46
 70
     1
102
RTVSPropertyOp47
 70
     1
102
RTVSPropertyOp48
 70
     1
102
RTVSPropertyOp49
 70
     1
102
RTVSPropertyOp50
 70
     1
102
RTVSPropertyOp51
 70
     0
102
RTVSPropertyOp52
 70
     0
102
RTVSPropertyOp53
 70
     1
102
RTVSPropertyOp54
 70
     1
102
RTVSPropertyOp55
 70
     1
102
RTVSPropertyOp56
 70
     1
102
RTVSPropertyOp57
 70
     1
102
RTVSPost2010Prop28
280
     0
102
RTVSPost2010PropOp28
 70
     1
102
RTVSPost2010Prop29
280
     1
102
RTVSPost2010PropOp29
 70
     1
102
RTVSPost2010Prop30
280
     1
102
RTVSPost2010PropOp30
 70
     1
102
RTVSPost2010Prop31
280
     0
102
RTVSPost2010PropOp31
 70
     1
102
RTVSPost2010Prop32
280
     0
102
RTVSPost2010PropOp32
 70
     1
102
RTVSPost2010Prop33
280
     0
102
RTVSPost2010PropOp33
 70
     1
102
RTVSPost2010Prop34
280
     0
102
RTVSPost2010PropOp34
 70
     1
102
RTVSPost2010Prop35
280
     0
102
RTVSPost2010PropOp35
 70
     1
102
RTVSPost2010Prop36
280
     0
102
RTVSPost2010PropOp36
 70
     1
102
RTVSPost2010Prop37
 90
       50
102
RTVSPost2010PropOp37
 70
     1
102
RTVSPost2010Prop38
140
0.0
102
RTVSPost2010PropOp38
 70
     1
102
RTVSPost2010Prop39
140
1.0
102
RTVSPost2010PropOp39
 70
     1
102
RTVSPost2010Prop40
 90
        0
102
RTVSPost2010PropOp40
 70
     1
102
RTVSPost2010Prop41ColorIndex
 90
       18
102
RTVSPost2010Prop41ColorRGB
 90
        0
102
RTVSPost2010PropOp41
 70
     1
102
RTVSPost2010Prop42
 90
       50
102
RTVSPost2010PropOp42
 70
     1
102
RTVSPost2010Prop43
 90
        3
102
RTVSPost2010PropOp43
 70
     1
102
RTVSPost2010Prop44ColorIndex
 90
        5
102
RTVSPost2010Prop44ColorRGB
 90
      255
102
RTVSPost2010PropOp44
 70
     1
102
RTVSPost2010Prop45
280
     0
102
RTVSPost2010PropOp45
 70
     1
102
RTVSPost2010Prop46
 90
       50
102
RTVSPost2010PropOp46
 70
     1
102
RTVSPost2010Prop47
 90
       50
102
RTVSPost2010PropOp47
 70
     1
102
RTVSPost2010Prop48
 90
       50
102
RTVSPost2010PropOp48
 70
     1
102
RTVSPost2010Prop49
280
     0
102
RTVSPost2010PropOp49
 70
     1
102
RTVSPost2010Prop50
 90
       50
102
RTVSPost2010PropOp50
 70
     1
102
RTVSPost2010Prop51ColorIndex
 90
      256
102
RTVSPost2010Prop51ColorRGB
 90
-16777216
102
RTVSPost2010PropOp51
 70
     0
102
RTVSPost2010Prop52
140
1.0
102
RTVSPost2010PropOp52
 70
     0
102
RTVSPost2010Prop53
 90
        2
102
RTVSPost2010PropOp53
 70
     1
102
RTVSPost2010Prop54
  1
strokes_ogs.tif
102
RTVSPost2010PropOp54
 70
     1
102
RTVSPost2010Prop55
280
     0
102
RTVSPost2010PropOp55
 70
     1
102
RTVSPost2010Prop56
140
1.0
102
RTVSPost2010PropOp56
 70
     1
102
RTVSPost2010Prop57
140
1.0
102
RTVSPost2010PropOp57
 70
     1
  0
XRECORD
  5
24C
102
{ACAD_REACTORS
330
24B
102
}
330
24B
100
AcDbXrecord
280
     1
102
RTVSPropertyOp0
 70
     1
102
RTVSPropertyOp1
 70
     1
102
RTVSPropertyOp2
 70
     1
102
RTVSPropertyOp3
 70
     1
102
RTVSPropertyOp4
 70
     1
102
RTVSPropertyOp5
 70
     1
102
RTVSPropertyOp6
 70
     1
102
RTVSPropertyOp7
 70
     1
102
RTVSPropertyOp8
 70
     1
102
RTVSPropertyOp9
 70
     1
102
RTVSPropertyOp10
 70
     1
102
RTVSPropertyOp11
 70
     1
102
RTVSPropertyOp12
 70
     1
102
RTVSPropertyOp13
 70
     1
102
RTVSPropertyOp14
 70
     1
102
RTVSPropertyOp15
 70
     1
102
RTVSPropertyOp16
 70
     1
102
RTVSPropertyOp17
 70
     1
102
RTVSPropertyOp18
 70
     1
102
RTVSPropertyOp19
 70
     1
102
RTVSPropertyOp20
 70
     1
102
RTVSPropertyOp21
 70
     1
102
RTVSPropertyOp22
 70
     1
102
RTVSPropertyOp23
 70
     1
102
RTVSPropertyOp24
 70
     1
102
RTVSPropertyOp25
 70
     1
102
RTVSPropertyOp26
 70
     1
102
RTVSPropertyOp27
 70
     1
102
RTVSPropertyOp28
 70
     1
102
RTVSPropertyOp29
 70
     1
102
RTVSPropertyOp30
 70
     1
102
RTVSPropertyOp31
 70
     1
102
RTVSPropertyOp32
 70
     1
102
RTVSPropertyOp33
 70
     1
102
RTVSPropertyOp34
 70
     1
102
RTVSPropertyOp35
 70
     1
102
RTVSPropertyOp36
 70
     1
102
RTVSPropertyOp37
 70
     1
102
RTVSPropertyOp38
 70
     1
102
RTVSPropertyOp39
 70
     1
102
RTVSPropertyOp40
 70
     1
102
RTVSPropertyOp41
 70
     1
102
RTVSPropertyOp42
 70
     1
102
RTVSPropertyOp43
 70
     1
102
RTVSPropertyOp44
 70
     1
102
RTVSPropertyOp45
 70
     1
102
RTVSPropertyOp46
 70
     1
102
RTVSPropertyOp47
 70
     1
102
RTVSPropertyOp48
 70
     1
102
RTVSPropertyOp49
 70
     1
102
RTVSPropertyOp50
 70
     1
102
RTVSPropertyOp51
 70
     0
102
RTVSPropertyOp52
 70
     0
102
RTVSPropertyOp53
 70
     1
102
RTVSPropertyOp54
 70
     1
102
RTVSPropertyOp55
 70
     1
102
RTVSPropertyOp56
 70
     1
102
RTVSPropertyOp57
 70
     1
102
RTVSPost2010Prop28
280
     0
102
RTVSPost2010PropOp28
 70
     1
102
RTVSPost2010Prop29
280
     1
102
RTVSPost2010PropOp29
 70
     1
102
RTVSPost2010Prop30
280
     1
102
RTVSPost2010PropOp30
 70
     1
102
RTVSPost2010Prop31
280
     0
102
RTVSPost2010PropOp31
 70
     1
102
RTVSPost2010Prop32
280
     0
102
RTVSPost2010PropOp32
 70
     1
102
RTVSPost2010Prop33
280
     0
102
RTVSPost2010PropOp33
 70
     1
102
RTVSPost2010Prop34
280
     0
102
RTVSPost2010PropOp34
 70
     1
102
RTVSPost2010Prop35
280
     0
102
RTVSPost2010PropOp35
 70
     1
102
RTVSPost2010Prop36
280
     0
102
RTVSPost2010PropOp36
 70
     1
102
RTVSPost2010Prop37
 90
       50
102
RTVSPost2010PropOp37
 70
     1
102
RTVSPost2010Prop38
140
0.0
102
RTVSPost2010PropOp38
 70
     1
102
RTVSPost2010Prop39
140
1.0
102
RTVSPost2010PropOp39
 70
     1
102
RTVSPost2010Prop40
 90
        0
102
RTVSPost2010PropOp40
 70
     1
102
RTVSPost2010Prop41ColorIndex
 90
       18
102
RTVSPost2010Prop41ColorRGB
 90
        0
102
RTVSPost2010PropOp41
 70
     1
102
RTVSPost2010Prop42
 90
       50
102
RTVSPost2010PropOp42
 70
     1
102
RTVSPost2010Prop43
 90
        3
102
RTVSPost2010PropOp43
 70
     1
102
RTVSPost2010Prop44ColorIndex
 90
        5
102
RTVSPost2010Prop44ColorRGB
 90
      255
102
RTVSPost2010PropOp44
 70
     1
102
RTVSPost2010Prop45
280
     0
102
RTVSPost2010PropOp45
 70
     1
102
RTVSPost2010Prop46
 90
       50
102
RTVSPost2010PropOp46
 70
     1
102
RTVSPost2010Prop47
 90
       50
102
RTVSPost2010PropOp47
 70
     1
102
RTVSPost2010Prop48
 90
       50
102
RTVSPost2010PropOp48
 70
     1
102
RTVSPost2010Prop49
280
     0
102
RTVSPost2010PropOp49
 70
     1
102
RTVSPost2010Prop50
 90
       50
102
RTVSPost2010PropOp50
 70
     1
102
RTVSPost2010Prop51ColorIndex
 90
      256
102
RTVSPost2010Prop51ColorRGB
 90
-16777216
102
RTVSPost2010PropOp51
 70
     0
102
RTVSPost2010Prop52
140
1.0
102
RTVSPost2010PropOp52
 70
     0
102
RTVSPost2010Prop53
 90
        2
102
RTVSPost2010PropOp53
 70
     1
102
RTVSPost2010Prop54
  1
strokes_ogs.tif
102
RTVSPost2010PropOp54
 70
     1
102
RTVSPost2010Prop55
280
     0
102
RTVSPost2010PropOp55
 70
     1
102
RTVSPost2010Prop56
140
1.0
102
RTVSPost2010PropOp56
 70
     1
102
RTVSPost2010Prop57
140
1.0
102
RTVSPost2010PropOp57
 70
     1
  0
XRECORD
  5
25C
102
{ACAD_REACTORS
330
25B
102
}
330
25B
100
AcDbXrecord
280
     1
102
RTVSPropertyOp0
 70
     0
102
RTVSPropertyOp1
 70
     0
102
RTVSPropertyOp2
 70
     0
102
RTVSPropertyOp3
 70
     0
102
RTVSPropertyOp4
 70
     0
102
RTVSPropertyOp5
 70
     0
102
RTVSPropertyOp6
 70
     0
102
RTVSPropertyOp7
 70
     0
102
RTVSPropertyOp8
 70
     0
102
RTVSPropertyOp9
 70
     0
102
RTVSPropertyOp10
 70
     0
102
RTVSPropertyOp11
 70
     0
102
RTVSPropertyOp12
 70
     0
102
RTVSPropertyOp13
 70
     0
102
RTVSPropertyOp14
 70
     2
102
RTVSPropertyOp15
 70
     0
102
RTVSPropertyOp16
 70
     0
102
RTVSPropertyOp17
 70
     0
102
RTVSPropertyOp18
 70
     0
102
RTVSPropertyOp19
 70
     0
102
RTVSPropertyOp20
 70
     0
102
RTVSPropertyOp21
 70
     0
102
RTVSPropertyOp22
 70
     0
102
RTVSPropertyOp23
 70
     0
102
RTVSPropertyOp24
 70
     0
102
RTVSPropertyOp25
 70
     0
102
RTVSPropertyOp26
 70
     0
102
RTVSPropertyOp27
 70
     0
102
RTVSPropertyOp28
 70
     0
102
RTVSPropertyOp29
 70
     0
102
RTVSPropertyOp30
 70
     0
102
RTVSPropertyOp31
 70
     0
102
RTVSPropertyOp32
 70
     0
102
RTVSPropertyOp33
 70
     0
102
RTVSPropertyOp34
 70
     0
102
RTVSPropertyOp35
 70
     0
102
RTVSPropertyOp36
 70
     0
102
RTVSPropertyOp37
 70
     0
102
RTVSPropertyOp38
 70
     0
102
RTVSPropertyOp39
 70
     0
102
RTVSPropertyOp40
 70
     0
102
RTVSPropertyOp41
 70
     0
102
RTVSPropertyOp42
 70
     0
102
RTVSPropertyOp43
 70
     0
102
RTVSPropertyOp44
 70
     0
102
RTVSPropertyOp45
 70
     0
102
RTVSPropertyOp46
 70
     0
102
RTVSPropertyOp47
 70
     0
102
RTVSPropertyOp48
 70
     0
102
RTVSPropertyOp49
 70
     0
102
RTVSPropertyOp50
 70
     0
102
RTVSPropertyOp51
 70
     0
102
RTVSPropertyOp52
 70
     0
102
RTVSPropertyOp53
 70
     0
102
RTVSPropertyOp54
 70
     0
102
RTVSPropertyOp55
 70
     0
102
RTVSPropertyOp56
 70
     0
102
RTVSPropertyOp57
 70
     0
102
RTVSPost2010Prop28
280
     0
102
RTVSPost2010PropOp28
 70
     0
102
RTVSPost2010Prop29
280
     1
102
RTVSPost2010PropOp29
 70
     0
102
RTVSPost2010Prop30
280
     1
102
RTVSPost2010PropOp30
 70
     0
102
RTVSPost2010Prop31
280
     0
102
RTVSPost2010PropOp31
 70
     0
102
RTVSPost2010Prop32
280
     0
102
RTVSPost2010PropOp32
 70
     0
102
RTVSPost2010Prop33
280
     0
102
RTVSPost2010PropOp33
 70
     0
102
RTVSPost2010Prop34
280
     0
102
RTVSPost2010PropOp34
 70
     0
102
RTVSPost2010Prop35
280
     0
102
RTVSPost2010PropOp35
 70
     0
102
RTVSPost2010Prop36
280
     0
102
RTVSPost2010PropOp36
 70
     0
102
RTVSPost2010Prop37
 90
       50
102
RTVSPost2010PropOp37
 70
     0
102
RTVSPost2010Prop38
140
0.0
102
RTVSPost2010PropOp38
 70
     0
102
RTVSPost2010Prop39
140
1.0
102
RTVSPost2010PropOp39
 70
     0
102
RTVSPost2010Prop40
 90
        0
102
RTVSPost2010PropOp40
 70
     0
102
RTVSPost2010Prop41ColorIndex
 90
       18
102
RTVSPost2010Prop41ColorRGB
 90
        0
102
RTVSPost2010PropOp41
 70
     0
102
RTVSPost2010Prop42
 90
       50
102
RTVSPost2010PropOp42
 70
     0
102
RTVSPost2010Prop43
 90
        3
102
RTVSPost2010PropOp43
 70
     0
102
RTVSPost2010Prop44ColorIndex
 90
        5
102
RTVSPost2010Prop44ColorRGB
 90
      255
102
RTVSPost2010PropOp44
 70
     0
102
RTVSPost2010Prop45
280
     0
102
RTVSPost2010PropOp45
 70
     0
102
RTVSPost2010Prop46
 90
       50
102
RTVSPost2010PropOp46
 70
     0
102
RTVSPost2010Prop47
 90
       50
102
RTVSPost2010PropOp47
 70
     0
102
RTVSPost2010Prop48
 90
       50
102
RTVSPost2010PropOp48
 70
     0
102
RTVSPost2010Prop49
280
     0
102
RTVSPost2010PropOp49
 70
     0
102
RTVSPost2010Prop50
 90
       50
102
RTVSPost2010PropOp50
 70
     0
102
RTVSPost2010Prop51ColorIndex
 90
      256
102
RTVSPost2010Prop51ColorRGB
 90
-16777216
102
RTVSPost2010PropOp51
 70
     0
102
RTVSPost2010Prop52
140
1.0
102
RTVSPost2010PropOp52
 70
     0
102
RTVSPost2010Prop53
 90
        2
102
RTVSPost2010PropOp53
 70
     0
102
RTVSPost2010Prop54
  1
strokes_ogs.tif
102
RTVSPost2010PropOp54
 70
     0
102
RTVSPost2010Prop55
280
     0
102
RTVSPost2010PropOp55
 70
     0
102
RTVSPost2010Prop56
140
1.0
102
RTVSPost2010PropOp56
 70
     0
102
RTVSPost2010Prop57
140
1.0
102
RTVSPost2010PropOp57
 70
     0
  0
XRECORD
  5
254
102
{ACAD_REACTORS
330
253
102
}
330
253
100
AcDbXrecord
280
     1
102
RTVSPropertyOp0
 70
     1
102
RTVSPropertyOp1
 70
     1
102
RTVSPropertyOp2
 70
     1
102
RTVSPropertyOp3
 70
     1
102
RTVSPropertyOp4
 70
     1
102
RTVSPropertyOp5
 70
     1
102
RTVSPropertyOp6
 70
     1
102
RTVSPropertyOp7
 70
     1
102
RTVSPropertyOp8
 70
     1
102
RTVSPropertyOp9
 70
     1
102
RTVSPropertyOp10
 70
     1
102
RTVSPropertyOp11
 70
     1
102
RTVSPropertyOp12
 70
     1
102
RTVSPropertyOp13
 70
     1
102
RTVSPropertyOp14
 70
     1
102
RTVSPropertyOp15
 70
     1
102
RTVSPropertyOp16
 70
     1
102
RTVSPropertyOp17
 70
     1
102
RTVSPropertyOp18
 70
     1
102
RTVSPropertyOp19
 70
     1
102
RTVSPropertyOp20
 70
     1
102
RTVSPropertyOp21
 70
     1
102
RTVSPropertyOp22
 70
     1
102
RTVSPropertyOp23
 70
     1
102
RTVSPropertyOp24
 70
     1
102
RTVSPropertyOp25
 70
     1
102
RTVSPropertyOp26
 70
     1
102
RTVSPropertyOp27
 70
     1
102
RTVSPropertyOp28
 70
     1
102
RTVSPropertyOp29
 70
     1
102
RTVSPropertyOp30
 70
     1
102
RTVSPropertyOp31
 70
     1
102
RTVSPropertyOp32
 70
     1
102
RTVSPropertyOp33
 70
     1
102
RTVSPropertyOp34
 70
     1
102
RTVSPropertyOp35
 70
     1
102
RTVSPropertyOp36
 70
     1
102
RTVSPropertyOp37
 70
     1
102
RTVSPropertyOp38
 70
     1
102
RTVSPropertyOp39
 70
     1
102
RTVSPropertyOp40
 70
     1
102
RTVSPropertyOp41
 70
     1
102
RTVSPropertyOp42
 70
     1
102
RTVSPropertyOp43
 70
     1
102
RTVSPropertyOp44
 70
     1
102
RTVSPropertyOp45
 70
     1
102
RTVSPropertyOp46
 70
     1
102
RTVSPropertyOp47
 70
     1
102
RTVSPropertyOp48
 70
     1
102
RTVSPropertyOp49
 70
     1
102
RTVSPropertyOp50
 70
     1
102
RTVSPropertyOp51
 70
     0
102
RTVSPropertyOp52
 70
     0
102
RTVSPropertyOp53
 70
     1
102
RTVSPropertyOp54
 70
     1
102
RTVSPropertyOp55
 70
     1
102
RTVSPropertyOp56
 70
     1
102
RTVSPropertyOp57
 70
     1
102
RTVSPost2010Prop28
280
     0
102
RTVSPost2010PropOp28
 70
     1
102
RTVSPost2010Prop29
280
     1
102
RTVSPost2010PropOp29
 70
     1
102
RTVSPost2010Prop30
280
     1
102
RTVSPost2010PropOp30
 70
     1
102
RTVSPost2010Prop31
280
     0
102
RTVSPost2010PropOp31
 70
     1
102
RTVSPost2010Prop32
280
     0
102
RTVSPost2010PropOp32
 70
     1
102
RTVSPost2010Prop33
280
     0
102
RTVSPost2010PropOp33
 70
     1
102
RTVSPost2010Prop34
280
     0
102
RTVSPost2010PropOp34
 70
     1
102
RTVSPost2010Prop35
280
     0
102
RTVSPost2010PropOp35
 70
     1
102
RTVSPost2010Prop36
280
     0
102
RTVSPost2010PropOp36
 70
     1
102
RTVSPost2010Prop37
 90
       50
102
RTVSPost2010PropOp37
 70
     1
102
RTVSPost2010Prop38
140
0.0
102
RTVSPost2010PropOp38
 70
     1
102
RTVSPost2010Prop39
140
1.0
102
RTVSPost2010PropOp39
 70
     1
102
RTVSPost2010Prop40
 90
        0
102
RTVSPost2010PropOp40
 70
     1
102
RTVSPost2010Prop41ColorIndex
 90
       18
102
RTVSPost2010Prop41ColorRGB
 90
        0
102
RTVSPost2010PropOp41
 70
     1
102
RTVSPost2010Prop42
 90
       50
102
RTVSPost2010PropOp42
 70
     1
102
RTVSPost2010Prop43
 90
        3
102
RTVSPost2010PropOp43
 70
     1
102
RTVSPost2010Prop44ColorIndex
 90
        5
102
RTVSPost2010Prop44ColorRGB
 90
      255
102
RTVSPost2010PropOp44
 70
     1
102
RTVSPost2010Prop45
280
     0
102
RTVSPost2010PropOp45
 70
     1
102
RTVSPost2010Prop46
 90
       50
102
RTVSPost2010PropOp46
 70
     1
102
RTVSPost2010Prop47
 90
       50
102
RTVSPost2010PropOp47
 70
     1
102
RTVSPost2010Prop48
 90
       50
102
RTVSPost2010PropOp48
 70
     1
102
RTVSPost2010Prop49
280
     0
102
RTVSPost2010PropOp49
 70
     1
102
RTVSPost2010Prop50
 90
       50
102
RTVSPost2010PropOp50
 70
     1
102
RTVSPost2010Prop51ColorIndex
 90
      256
102
RTVSPost2010Prop51ColorRGB
 90
-16777216
102
RTVSPost2010PropOp51
 70
     0
102
RTVSPost2010Prop52
140
1.0
102
RTVSPost2010PropOp52
 70
     0
102
RTVSPost2010Prop53
 90
        2
102
RTVSPost2010PropOp53
 70
     1
102
RTVSPost2010Prop54
  1
strokes_ogs.tif
102
RTVSPost2010PropOp54
 70
     1
102
RTVSPost2010Prop55
280
     0
102
RTVSPost2010PropOp55
 70
     1
102
RTVSPost2010Prop56
140
1.0
102
RTVSPost2010PropOp56
 70
     1
102
RTVSPost2010Prop57
140
1.0
102
RTVSPost2010PropOp57
 70
     1
  0
XRECORD
  5
238
102
{ACAD_REACTORS
330
237
102
}
330
237
100
AcDbXrecord
280
     1
102
RTVSPropertyOp0
 70
     1
102
RTVSPropertyOp1
 70
     1
102
RTVSPropertyOp2
 70
     1
102
RTVSPropertyOp3
 70
     1
102
RTVSPropertyOp4
 70
     1
102
RTVSPropertyOp5
 70
     1
102
RTVSPropertyOp6
 70
     1
102
RTVSPropertyOp7
 70
     1
102
RTVSPropertyOp8
 70
     1
102
RTVSPropertyOp9
 70
     1
102
RTVSPropertyOp10
 70
     1
102
RTVSPropertyOp11
 70
     1
102
RTVSPropertyOp12
 70
     1
102
RTVSPropertyOp13
 70
     1
102
RTVSPropertyOp14
 70
     1
102
RTVSPropertyOp15
 70
     1
102
RTVSPropertyOp16
 70
     1
102
RTVSPropertyOp17
 70
     1
102
RTVSPropertyOp18
 70
     1
102
RTVSPropertyOp19
 70
     1
102
RTVSPropertyOp20
 70
     1
102
RTVSPropertyOp21
 70
     1
102
RTVSPropertyOp22
 70
     1
102
RTVSPropertyOp23
 70
     1
102
RTVSPropertyOp24
 70
     1
102
RTVSPropertyOp25
 70
     1
102
RTVSPropertyOp26
 70
     1
102
RTVSPropertyOp27
 70
     1
102
RTVSPropertyOp28
 70
     1
102
RTVSPropertyOp29
 70
     1
102
RTVSPropertyOp30
 70
     1
102
RTVSPropertyOp31
 70
     1
102
RTVSPropertyOp32
 70
     1
102
RTVSPropertyOp33
 70
     1
102
RTVSPropertyOp34
 70
     1
102
RTVSPropertyOp35
 70
     1
102
RTVSPropertyOp36
 70
     1
102
RTVSPropertyOp37
 70
     1
102
RTVSPropertyOp38
 70
     1
102
RTVSPropertyOp39
 70
     1
102
RTVSPropertyOp40
 70
     1
102
RTVSPropertyOp41
 70
     1
102
RTVSPropertyOp42
 70
     1
102
RTVSPropertyOp43
 70
     1
102
RTVSPropertyOp44
 70
     1
102
RTVSPropertyOp45
 70
     1
102
RTVSPropertyOp46
 70
     1
102
RTVSPropertyOp47
 70
     1
102
RTVSPropertyOp48
 70
     1
102
RTVSPropertyOp49
 70
     1
102
RTVSPropertyOp50
 70
     1
102
RTVSPropertyOp51
 70
     0
102
RTVSPropertyOp52
 70
     0
102
RTVSPropertyOp53
 70
     1
102
RTVSPropertyOp54
 70
     1
102
RTVSPropertyOp55
 70
     1
102
RTVSPropertyOp56
 70
     1
102
RTVSPropertyOp57
 70
     1
102
RTVSPost2010Prop28
280
     0
102
RTVSPost2010PropOp28
 70
     1
102
RTVSPost2010Prop29
280
     1
102
RTVSPost2010PropOp29
 70
     1
102
RTVSPost2010Prop30
280
     1
102
RTVSPost2010PropOp30
 70
     1
102
RTVSPost2010Prop31
280
     0
102
RTVSPost2010PropOp31
 70
     1
102
RTVSPost2010Prop32
280
     0
102
RTVSPost2010PropOp32
 70
     1
102
RTVSPost2010Prop33
280
     0
102
RTVSPost2010PropOp33
 70
     1
102
RTVSPost2010Prop34
280
     0
102
RTVSPost2010PropOp34
 70
     1
102
RTVSPost2010Prop35
280
     0
102
RTVSPost2010PropOp35
 70
     1
102
RTVSPost2010Prop36
280
     0
102
RTVSPost2010PropOp36
 70
     1
102
RTVSPost2010Prop37
 90
       50
102
RTVSPost2010PropOp37
 70
     1
102
RTVSPost2010Prop38
140
0.0
102
RTVSPost2010PropOp38
 70
     1
102
RTVSPost2010Prop39
140
1.0
102
RTVSPost2010PropOp39
 70
     1
102
RTVSPost2010Prop40
 90
        0
102
RTVSPost2010PropOp40
 70
     1
102
RTVSPost2010Prop41ColorIndex
 90
       18
102
RTVSPost2010Prop41ColorRGB
 90
        0
102
RTVSPost2010PropOp41
 70
     1
102
RTVSPost2010Prop42
 90
       50
102
RTVSPost2010PropOp42
 70
     1
102
RTVSPost2010Prop43
 90
        3
102
RTVSPost2010PropOp43
 70
     1
102
RTVSPost2010Prop44ColorIndex
 90
        5
102
RTVSPost2010Prop44ColorRGB
 90
      255
102
RTVSPost2010PropOp44
 70
     1
102
RTVSPost2010Prop45
280
     0
102
RTVSPost2010PropOp45
 70
     1
102
RTVSPost2010Prop46
 90
       50
102
RTVSPost2010PropOp46
 70
     1
102
RTVSPost2010Prop47
 90
       50
102
RTVSPost2010PropOp47
 70
     1
102
RTVSPost2010Prop48
 90
       50
102
RTVSPost2010PropOp48
 70
     1
102
RTVSPost2010Prop49
280
     0
102
RTVSPost2010PropOp49
 70
     1
102
RTVSPost2010Prop50
 90
       50
102
RTVSPost2010PropOp50
 70
     1
102
RTVSPost2010Prop51ColorIndex
 90
      256
102
RTVSPost2010Prop51ColorRGB
 90
-16777216
102
RTVSPost2010PropOp51
 70
     0
102
RTVSPost2010Prop52
140
1.0
102
RTVSPost2010PropOp52
 70
     0
102
RTVSPost2010Prop53
 90
        2
102
RTVSPost2010PropOp53
 70
     1
102
RTVSPost2010Prop54
  1
strokes_ogs.tif
102
RTVSPost2010PropOp54
 70
     1
102
RTVSPost2010Prop55
280
     0
102
RTVSPost2010PropOp55
 70
     1
102
RTVSPost2010Prop56
140
1.0
102
RTVSPost2010PropOp56
 70
     1
102
RTVSPost2010Prop57
140
1.0
102
RTVSPost2010PropOp57
 70
     1
  0
XRECORD
  5
23A
102
{ACAD_REACTORS
330
239
102
}
330
239
100
AcDbXrecord
280
     1
102
RTVSPropertyOp0
 70
     1
102
RTVSPropertyOp1
 70
     1
102
RTVSPropertyOp2
 70
     1
102
RTVSPropertyOp3
 70
     1
102
RTVSPropertyOp4
 70
     1
102
RTVSPropertyOp5
 70
     1
102
RTVSPropertyOp6
 70
     1
102
RTVSPropertyOp7
 70
     1
102
RTVSPropertyOp8
 70
     1
102
RTVSPropertyOp9
 70
     1
102
RTVSPropertyOp10
 70
     1
102
RTVSPropertyOp11
 70
     1
102
RTVSPropertyOp12
 70
     1
102
RTVSPropertyOp13
 70
     1
102
RTVSPropertyOp14
 70
     1
102
RTVSPropertyOp15
 70
     1
102
RTVSPropertyOp16
 70
     1
102
RTVSPropertyOp17
 70
     1
102
RTVSPropertyOp18
 70
     1
102
RTVSPropertyOp19
 70
     1
102
RTVSPropertyOp20
 70
     1
102
RTVSPropertyOp21
 70
     1
102
RTVSPropertyOp22
 70
     1
102
RTVSPropertyOp23
 70
     1
102
RTVSPropertyOp24
 70
     1
102
RTVSPropertyOp25
 70
     1
102
RTVSPropertyOp26
 70
     1
102
RTVSPropertyOp27
 70
     1
102
RTVSPropertyOp28
 70
     1
102
RTVSPropertyOp29
 70
     1
102
RTVSPropertyOp30
 70
     1
102
RTVSPropertyOp31
 70
     1
102
RTVSPropertyOp32
 70
     1
102
RTVSPropertyOp33
 70
     1
102
RTVSPropertyOp34
 70
     1
102
RTVSPropertyOp35
 70
     1
102
RTVSPropertyOp36
 70
     1
102
RTVSPropertyOp37
 70
     1
102
RTVSPropertyOp38
 70
     1
102
RTVSPropertyOp39
 70
     1
102
RTVSPropertyOp40
 70
     1
102
RTVSPropertyOp41
 70
     1
102
RTVSPropertyOp42
 70
     1
102
RTVSPropertyOp43
 70
     1
102
RTVSPropertyOp44
 70
     1
102
RTVSPropertyOp45
 70
     1
102
RTVSPropertyOp46
 70
     1
102
RTVSPropertyOp47
 70
     1
102
RTVSPropertyOp48
 70
     1
102
RTVSPropertyOp49
 70
     1
102
RTVSPropertyOp50
 70
     1
102
RTVSPropertyOp51
 70
     0
102
RTVSPropertyOp52
 70
     0
102
RTVSPropertyOp53
 70
     1
102
RTVSPropertyOp54
 70
     1
102
RTVSPropertyOp55
 70
     1
102
RTVSPropertyOp56
 70
     1
102
RTVSPropertyOp57
 70
     1
102
RTVSPost2010Prop28
280
     0
102
RTVSPost2010PropOp28
 70
     1
102
RTVSPost2010Prop29
280
     1
102
RTVSPost2010PropOp29
 70
     1
102
RTVSPost2010Prop30
280
     1
102
RTVSPost2010PropOp30
 70
     1
102
RTVSPost2010Prop31
280
     0
102
RTVSPost2010PropOp31
 70
     1
102
RTVSPost2010Prop32
280
     0
102
RTVSPost2010PropOp32
 70
     1
102
RTVSPost2010Prop33
280
     0
102
RTVSPost2010PropOp33
 70
     1
102
RTVSPost2010Prop34
280
     0
102
RTVSPost2010PropOp34
 70
     1
102
RTVSPost2010Prop35
280
     0
102
RTVSPost2010PropOp35
 70
     1
102
RTVSPost2010Prop36
280
     0
102
RTVSPost2010PropOp36
 70
     1
102
RTVSPost2010Prop37
 90
       50
102
RTVSPost2010PropOp37
 70
     1
102
RTVSPost2010Prop38
140
0.0
102
RTVSPost2010PropOp38
 70
     1
102
RTVSPost2010Prop39
140
1.0
102
RTVSPost2010PropOp39
 70
     1
102
RTVSPost2010Prop40
 90
        0
102
RTVSPost2010PropOp40
 70
     1
102
RTVSPost2010Prop41ColorIndex
 90
       18
102
RTVSPost2010Prop41ColorRGB
 90
        0
102
RTVSPost2010PropOp41
 70
     1
102
RTVSPost2010Prop42
 90
       50
102
RTVSPost2010PropOp42
 70
     1
102
RTVSPost2010Prop43
 90
        3
102
RTVSPost2010PropOp43
 70
     1
102
RTVSPost2010Prop44ColorIndex
 90
        5
102
RTVSPost2010Prop44ColorRGB
 90
      255
102
RTVSPost2010PropOp44
 70
     1
102
RTVSPost2010Prop45
280
     0
102
RTVSPost2010PropOp45
 70
     1
102
RTVSPost2010Prop46
 90
       50
102
RTVSPost2010PropOp46
 70
     1
102
RTVSPost2010Prop47
 90
       50
102
RTVSPost2010PropOp47
 70
     1
102
RTVSPost2010Prop48
 90
       50
102
RTVSPost2010PropOp48
 70
     1
102
RTVSPost2010Prop49
280
     0
102
RTVSPost2010PropOp49
 70
     1
102
RTVSPost2010Prop50
 90
       50
102
RTVSPost2010PropOp50
 70
     1
102
RTVSPost2010Prop51ColorIndex
 90
      256
102
RTVSPost2010Prop51ColorRGB
 90
-16777216
102
RTVSPost2010PropOp51
 70
     0
102
RTVSPost2010Prop52
140
1.0
102
RTVSPost2010PropOp52
 70
     0
102
RTVSPost2010Prop53
 90
        2
102
RTVSPost2010PropOp53
 70
     1
102
RTVSPost2010Prop54
  1
strokes_ogs.tif
102
RTVSPost2010PropOp54
 70
     1
102
RTVSPost2010Prop55
280
     0
102
RTVSPost2010PropOp55
 70
     1
102
RTVSPost2010Prop56
140
1.0
102
RTVSPost2010PropOp56
 70
     1
102
RTVSPost2010Prop57
140
1.0
102
RTVSPost2010PropOp57
 70
     1
  0
XRECORD
  5
23C
102
{ACAD_REACTORS
330
23B
102
}
330
23B
100
AcDbXrecord
280
     1
102
RTVSPropertyOp0
 70
     1
102
RTVSPropertyOp1
 70
     1
102
RTVSPropertyOp2
 70
     1
102
RTVSPropertyOp3
 70
     1
102
RTVSPropertyOp4
 70
     1
102
RTVSPropertyOp5
 70
     1
102
RTVSPropertyOp6
 70
     1
102
RTVSPropertyOp7
 70
     1
102
RTVSPropertyOp8
 70
     1
102
RTVSPropertyOp9
 70
     1
102
RTVSPropertyOp10
 70
     1
102
RTVSPropertyOp11
 70
     1
102
RTVSPropertyOp12
 70
     1
102
RTVSPropertyOp13
 70
     1
102
RTVSPropertyOp14
 70
     1
102
RTVSPropertyOp15
 70
     1
102
RTVSPropertyOp16
 70
     1
102
RTVSPropertyOp17
 70
     1
102
RTVSPropertyOp18
 70
     1
102
RTVSPropertyOp19
 70
     1
102
RTVSPropertyOp20
 70
     1
102
RTVSPropertyOp21
 70
     1
102
RTVSPropertyOp22
 70
     1
102
RTVSPropertyOp23
 70
     1
102
RTVSPropertyOp24
 70
     1
102
RTVSPropertyOp25
 70
     1
102
RTVSPropertyOp26
 70
     1
102
RTVSPropertyOp27
 70
     1
102
RTVSPropertyOp28
 70
     1
102
RTVSPropertyOp29
 70
     1
102
RTVSPropertyOp30
 70
     1
102
RTVSPropertyOp31
 70
     1
102
RTVSPropertyOp32
 70
     1
102
RTVSPropertyOp33
 70
     1
102
RTVSPropertyOp34
 70
     1
102
RTVSPropertyOp35
 70
     1
102
RTVSPropertyOp36
 70
     1
102
RTVSPropertyOp37
 70
     1
102
RTVSPropertyOp38
 70
     1
102
RTVSPropertyOp39
 70
     1
102
RTVSPropertyOp40
 70
     1
102
RTVSPropertyOp41
 70
     1
102
RTVSPropertyOp42
 70
     1
102
RTVSPropertyOp43
 70
     1
102
RTVSPropertyOp44
 70
     1
102
RTVSPropertyOp45
 70
     1
102
RTVSPropertyOp46
 70
     1
102
RTVSPropertyOp47
 70
     1
102
RTVSPropertyOp48
 70
     1
102
RTVSPropertyOp49
 70
     1
102
RTVSPropertyOp50
 70
     1
102
RTVSPropertyOp51
 70
     0
102
RTVSPropertyOp52
 70
     0
102
RTVSPropertyOp53
 70
     1
102
RTVSPropertyOp54
 70
     1
102
RTVSPropertyOp55
 70
     1
102
RTVSPropertyOp56
 70
     1
102
RTVSPropertyOp57
 70
     1
102
RTVSPost2010Prop28
280
     0
102
RTVSPost2010PropOp28
 70
     1
102
RTVSPost2010Prop29
280
     1
102
RTVSPost2010PropOp29
 70
     1
102
RTVSPost2010Prop30
280
     1
102
RTVSPost2010PropOp30
 70
     1
102
RTVSPost2010Prop31
280
     0
102
RTVSPost2010PropOp31
 70
     1
102
RTVSPost2010Prop32
280
     0
102
RTVSPost2010PropOp32
 70
     1
102
RTVSPost2010Prop33
280
     0
102
RTVSPost2010PropOp33
 70
     1
102
RTVSPost2010Prop34
280
     0
102
RTVSPost2010PropOp34
 70
     1
102
RTVSPost2010Prop35
280
     0
102
RTVSPost2010PropOp35
 70
     1
102
RTVSPost2010Prop36
280
     0
102
RTVSPost2010PropOp36
 70
     1
102
RTVSPost2010Prop37
 90
       50
102
RTVSPost2010PropOp37
 70
     1
102
RTVSPost2010Prop38
140
0.0
102
RTVSPost2010PropOp38
 70
     1
102
RTVSPost2010Prop39
140
1.0
102
RTVSPost2010PropOp39
 70
     1
102
RTVSPost2010Prop40
 90
        0
102
RTVSPost2010PropOp40
 70
     1
102
RTVSPost2010Prop41ColorIndex
 90
       18
102
RTVSPost2010Prop41ColorRGB
 90
        0
102
RTVSPost2010PropOp41
 70
     1
102
RTVSPost2010Prop42
 90
       50
102
RTVSPost2010PropOp42
 70
     1
102
RTVSPost2010Prop43
 90
        3
102
RTVSPost2010PropOp43
 70
     1
102
RTVSPost2010Prop44ColorIndex
 90
        5
102
RTVSPost2010Prop44ColorRGB
 90
      255
102
RTVSPost2010PropOp44
 70
     1
102
RTVSPost2010Prop45
280
     0
102
RTVSPost2010PropOp45
 70
     1
102
RTVSPost2010Prop46
 90
       50
102
RTVSPost2010PropOp46
 70
     1
102
RTVSPost2010Prop47
 90
       50
102
RTVSPost2010PropOp47
 70
     1
102
RTVSPost2010Prop48
 90
       50
102
RTVSPost2010PropOp48
 70
     1
102
RTVSPost2010Prop49
280
     0
102
RTVSPost2010PropOp49
 70
     1
102
RTVSPost2010Prop50
 90
       50
102
RTVSPost2010PropOp50
 70
     1
102
RTVSPost2010Prop51ColorIndex
 90
      256
102
RTVSPost2010Prop51ColorRGB
 90
-16777216
102
RTVSPost2010PropOp51
 70
     0
102
RTVSPost2010Prop52
140
1.0
102
RTVSPost2010PropOp52
 70
     0
102
RTVSPost2010Prop53
 90
        2
102
RTVSPost2010PropOp53
 70
     1
102
RTVSPost2010Prop54
  1
strokes_ogs.tif
102
RTVSPost2010PropOp54
 70
     1
102
RTVSPost2010Prop55
280
     0
102
RTVSPost2010PropOp55
 70
     1
102
RTVSPost2010Prop56
140
1.0
102
RTVSPost2010PropOp56
 70
     1
102
RTVSPost2010Prop57
140
1.0
102
RTVSPost2010PropOp57
 70
     1
  0
XRECORD
  5
23E
102
{ACAD_REACTORS
330
23D
102
}
330
23D
100
AcDbXrecord
280
     1
102
RTVSPropertyOp0
 70
     1
102
RTVSPropertyOp1
 70
     1
102
RTVSPropertyOp2
 70
     1
102
RTVSPropertyOp3
 70
     1
102
RTVSPropertyOp4
 70
     1
102
RTVSPropertyOp5
 70
     1
102
RTVSPropertyOp6
 70
     1
102
RTVSPropertyOp7
 70
     1
102
RTVSPropertyOp8
 70
     1
102
RTVSPropertyOp9
 70
     1
102
RTVSPropertyOp10
 70
     1
102
RTVSPropertyOp11
 70
     1
102
RTVSPropertyOp12
 70
     1
102
RTVSPropertyOp13
 70
     1
102
RTVSPropertyOp14
 70
     1
102
RTVSPropertyOp15
 70
     1
102
RTVSPropertyOp16
 70
     1
102
RTVSPropertyOp17
 70
     1
102
RTVSPropertyOp18
 70
     1
102
RTVSPropertyOp19
 70
     1
102
RTVSPropertyOp20
 70
     1
102
RTVSPropertyOp21
 70
     1
102
RTVSPropertyOp22
 70
     1
102
RTVSPropertyOp23
 70
     1
102
RTVSPropertyOp24
 70
     1
102
RTVSPropertyOp25
 70
     1
102
RTVSPropertyOp26
 70
     1
102
RTVSPropertyOp27
 70
     1
102
RTVSPropertyOp28
 70
     1
102
RTVSPropertyOp29
 70
     1
102
RTVSPropertyOp30
 70
     1
102
RTVSPropertyOp31
 70
     1
102
RTVSPropertyOp32
 70
     1
102
RTVSPropertyOp33
 70
     1
102
RTVSPropertyOp34
 70
     1
102
RTVSPropertyOp35
 70
     1
102
RTVSPropertyOp36
 70
     1
102
RTVSPropertyOp37
 70
     1
102
RTVSPropertyOp38
 70
     1
102
RTVSPropertyOp39
 70
     1
102
RTVSPropertyOp40
 70
     1
102
RTVSPropertyOp41
 70
     1
102
RTVSPropertyOp42
 70
     1
102
RTVSPropertyOp43
 70
     1
102
RTVSPropertyOp44
 70
     1
102
RTVSPropertyOp45
 70
     1
102
RTVSPropertyOp46
 70
     1
102
RTVSPropertyOp47
 70
     1
102
RTVSPropertyOp48
 70
     1
102
RTVSPropertyOp49
 70
     1
102
RTVSPropertyOp50
 70
     1
102
RTVSPropertyOp51
 70
     0
102
RTVSPropertyOp52
 70
     0
102
RTVSPropertyOp53
 70
     1
102
RTVSPropertyOp54
 70
     1
102
RTVSPropertyOp55
 70
     1
102
RTVSPropertyOp56
 70
     1
102
RTVSPropertyOp57
 70
     1
102
RTVSPost2010Prop28
280
     0
102
RTVSPost2010PropOp28
 70
     1
102
RTVSPost2010Prop29
280
     1
102
RTVSPost2010PropOp29
 70
     1
102
RTVSPost2010Prop30
280
     1
102
RTVSPost2010PropOp30
 70
     1
102
RTVSPost2010Prop31
280
     0
102
RTVSPost2010PropOp31
 70
     1
102
RTVSPost2010Prop32
280
     0
102
RTVSPost2010PropOp32
 70
     1
102
RTVSPost2010Prop33
280
     0
102
RTVSPost2010PropOp33
 70
     1
102
RTVSPost2010Prop34
280
     0
102
RTVSPost2010PropOp34
 70
     1
102
RTVSPost2010Prop35
280
     0
102
RTVSPost2010PropOp35
 70
     1
102
RTVSPost2010Prop36
280
     0
102
RTVSPost2010PropOp36
 70
     1
102
RTVSPost2010Prop37
 90
       50
102
RTVSPost2010PropOp37
 70
     1
102
RTVSPost2010Prop38
140
0.0
102
RTVSPost2010PropOp38
 70
     1
102
RTVSPost2010Prop39
140
1.0
102
RTVSPost2010PropOp39
 70
     1
102
RTVSPost2010Prop40
 90
        0
102
RTVSPost2010PropOp40
 70
     1
102
RTVSPost2010Prop41ColorIndex
 90
       18
102
RTVSPost2010Prop41ColorRGB
 90
        0
102
RTVSPost2010PropOp41
 70
     1
102
RTVSPost2010Prop42
 90
       50
102
RTVSPost2010PropOp42
 70
     1
102
RTVSPost2010Prop43
 90
        3
102
RTVSPost2010PropOp43
 70
     1
102
RTVSPost2010Prop44ColorIndex
 90
        5
102
RTVSPost2010Prop44ColorRGB
 90
      255
102
RTVSPost2010PropOp44
 70
     1
102
RTVSPost2010Prop45
280
     0
102
RTVSPost2010PropOp45
 70
     1
102
RTVSPost2010Prop46
 90
       50
102
RTVSPost2010PropOp46
 70
     1
102
RTVSPost2010Prop47
 90
       50
102
RTVSPost2010PropOp47
 70
     1
102
RTVSPost2010Prop48
 90
       50
102
RTVSPost2010PropOp48
 70
     1
102
RTVSPost2010Prop49
280
     0
102
RTVSPost2010PropOp49
 70
     1
102
RTVSPost2010Prop50
 90
       50
102
RTVSPost2010PropOp50
 70
     1
102
RTVSPost2010Prop51ColorIndex
 90
      256
102
RTVSPost2010Prop51ColorRGB
 90
-16777216
102
RTVSPost2010PropOp51
 70
     0
102
RTVSPost2010Prop52
140
1.0
102
RTVSPost2010PropOp52
 70
     0
102
RTVSPost2010Prop53
 90
        2
102
RTVSPost2010PropOp53
 70
     1
102
RTVSPost2010Prop54
  1
strokes_ogs.tif
102
RTVSPost2010PropOp54
 70
     1
102
RTVSPost2010Prop55
280
     0
102
RTVSPost2010PropOp55
 70
     1
102
RTVSPost2010Prop56
140
1.0
102
RTVSPost2010PropOp56
 70
     1
102
RTVSPost2010Prop57
140
1.0
102
RTVSPost2010PropOp57
 70
     1
  0
XRECORD
  5
244
102
{ACAD_REACTORS
330
243
102
}
330
243
100
AcDbXrecord
280
     1
102
RTVSPropertyOp0
 70
     1
102
RTVSPropertyOp1
 70
     1
102
RTVSPropertyOp2
 70
     1
102
RTVSPropertyOp3
 70
     1
102
RTVSPropertyOp4
 70
     1
102
RTVSPropertyOp5
 70
     1
102
RTVSPropertyOp6
 70
     1
102
RTVSPropertyOp7
 70
     1
102
RTVSPropertyOp8
 70
     1
102
RTVSPropertyOp9
 70
     1
102
RTVSPropertyOp10
 70
     1
102
RTVSPropertyOp11
 70
     1
102
RTVSPropertyOp12
 70
     1
102
RTVSPropertyOp13
 70
     1
102
RTVSPropertyOp14
 70
     1
102
RTVSPropertyOp15
 70
     1
102
RTVSPropertyOp16
 70
     1
102
RTVSPropertyOp17
 70
     1
102
RTVSPropertyOp18
 70
     1
102
RTVSPropertyOp19
 70
     1
102
RTVSPropertyOp20
 70
     1
102
RTVSPropertyOp21
 70
     1
102
RTVSPropertyOp22
 70
     1
102
RTVSPropertyOp23
 70
     1
102
RTVSPropertyOp24
 70
     1
102
RTVSPropertyOp25
 70
     1
102
RTVSPropertyOp26
 70
     1
102
RTVSPropertyOp27
 70
     1
102
RTVSPropertyOp28
 70
     1
102
RTVSPropertyOp29
 70
     1
102
RTVSPropertyOp30
 70
     1
102
RTVSPropertyOp31
 70
     1
102
RTVSPropertyOp32
 70
     1
102
RTVSPropertyOp33
 70
     1
102
RTVSPropertyOp34
 70
     1
102
RTVSPropertyOp35
 70
     1
102
RTVSPropertyOp36
 70
     1
102
RTVSPropertyOp37
 70
     1
102
RTVSPropertyOp38
 70
     1
102
RTVSPropertyOp39
 70
     1
102
RTVSPropertyOp40
 70
     1
102
RTVSPropertyOp41
 70
     1
102
RTVSPropertyOp42
 70
     1
102
RTVSPropertyOp43
 70
     1
102
RTVSPropertyOp44
 70
     1
102
RTVSPropertyOp45
 70
     1
102
RTVSPropertyOp46
 70
     1
102
RTVSPropertyOp47
 70
     1
102
RTVSPropertyOp48
 70
     1
102
RTVSPropertyOp49
 70
     1
102
RTVSPropertyOp50
 70
     1
102
RTVSPropertyOp51
 70
     0
102
RTVSPropertyOp52
 70
     0
102
RTVSPropertyOp53
 70
     1
102
RTVSPropertyOp54
 70
     1
102
RTVSPropertyOp55
 70
     1
102
RTVSPropertyOp56
 70
     1
102
RTVSPropertyOp57
 70
     1
102
RTVSPost2010Prop28
280
     0
102
RTVSPost2010PropOp28
 70
     1
102
RTVSPost2010Prop29
280
     1
102
RTVSPost2010PropOp29
 70
     1
102
RTVSPost2010Prop30
280
     1
102
RTVSPost2010PropOp30
 70
     1
102
RTVSPost2010Prop31
280
     0
102
RTVSPost2010PropOp31
 70
     1
102
RTVSPost2010Prop32
280
     0
102
RTVSPost2010PropOp32
 70
     1
102
RTVSPost2010Prop33
280
     0
102
RTVSPost2010PropOp33
 70
     1
102
RTVSPost2010Prop34
280
     0
102
RTVSPost2010PropOp34
 70
     1
102
RTVSPost2010Prop35
280
     0
102
RTVSPost2010PropOp35
 70
     1
102
RTVSPost2010Prop36
280
     0
102
RTVSPost2010PropOp36
 70
     1
102
RTVSPost2010Prop37
 90
       50
102
RTVSPost2010PropOp37
 70
     1
102
RTVSPost2010Prop38
140
0.0
102
RTVSPost2010PropOp38
 70
     1
102
RTVSPost2010Prop39
140
1.0
102
RTVSPost2010PropOp39
 70
     1
102
RTVSPost2010Prop40
 90
        0
102
RTVSPost2010PropOp40
 70
     1
102
RTVSPost2010Prop41ColorIndex
 90
       18
102
RTVSPost2010Prop41ColorRGB
 90
        0
102
RTVSPost2010PropOp41
 70
     1
102
RTVSPost2010Prop42
 90
       50
102
RTVSPost2010PropOp42
 70
     1
102
RTVSPost2010Prop43
 90
        3
102
RTVSPost2010PropOp43
 70
     1
102
RTVSPost2010Prop44ColorIndex
 90
        5
102
RTVSPost2010Prop44ColorRGB
 90
      255
102
RTVSPost2010PropOp44
 70
     1
102
RTVSPost2010Prop45
280
     0
102
RTVSPost2010PropOp45
 70
     1
102
RTVSPost2010Prop46
 90
       50
102
RTVSPost2010PropOp46
 70
     1
102
RTVSPost2010Prop47
 90
       50
102
RTVSPost2010PropOp47
 70
     1
102
RTVSPost2010Prop48
 90
       50
102
RTVSPost2010PropOp48
 70
     1
102
RTVSPost2010Prop49
280
     0
102
RTVSPost2010PropOp49
 70
     1
102
RTVSPost2010Prop50
 90
       50
102
RTVSPost2010PropOp50
 70
     1
102
RTVSPost2010Prop51ColorIndex
 90
      256
102
RTVSPost2010Prop51ColorRGB
 90
-16777216
102
RTVSPost2010PropOp51
 70
     0
102
RTVSPost2010Prop52
140
1.0
102
RTVSPost2010PropOp52
 70
     0
102
RTVSPost2010Prop53
 90
        2
102
RTVSPost2010PropOp53
 70
     1
102
RTVSPost2010Prop54
  1
strokes_ogs.tif
102
RTVSPost2010PropOp54
 70
     1
102
RTVSPost2010Prop55
280
     0
102
RTVSPost2010PropOp55
 70
     1
102
RTVSPost2010Prop56
140
1.0
102
RTVSPost2010PropOp56
 70
     1
102
RTVSPost2010Prop57
140
1.0
102
RTVSPost2010PropOp57
 70
     1
  0
XRECORD
  5
258
102
{ACAD_REACTORS
330
257
102
}
330
257
100
AcDbXrecord
280
     1
102
RTVSPropertyOp0
 70
     0
102
RTVSPropertyOp1
 70
     0
102
RTVSPropertyOp2
 70
     0
102
RTVSPropertyOp3
 70
     0
102
RTVSPropertyOp4
 70
     0
102
RTVSPropertyOp5
 70
     0
102
RTVSPropertyOp6
 70
     0
102
RTVSPropertyOp7
 70
     0
102
RTVSPropertyOp8
 70
     0
102
RTVSPropertyOp9
 70
     0
102
RTVSPropertyOp10
 70
     0
102
RTVSPropertyOp11
 70
     0
102
RTVSPropertyOp12
 70
     0
102
RTVSPropertyOp13
 70
     0
102
RTVSPropertyOp14
 70
     2
102
RTVSPropertyOp15
 70
     0
102
RTVSPropertyOp16
 70
     0
102
RTVSPropertyOp17
 70
     0
102
RTVSPropertyOp18
 70
     0
102
RTVSPropertyOp19
 70
     0
102
RTVSPropertyOp20
 70
     0
102
RTVSPropertyOp21
 70
     0
102
RTVSPropertyOp22
 70
     0
102
RTVSPropertyOp23
 70
     0
102
RTVSPropertyOp24
 70
     0
102
RTVSPropertyOp25
 70
     0
102
RTVSPropertyOp26
 70
     0
102
RTVSPropertyOp27
 70
     0
102
RTVSPropertyOp28
 70
     0
102
RTVSPropertyOp29
 70
     0
102
RTVSPropertyOp30
 70
     0
102
RTVSPropertyOp31
 70
     0
102
RTVSPropertyOp32
 70
     0
102
RTVSPropertyOp33
 70
     0
102
RTVSPropertyOp34
 70
     0
102
RTVSPropertyOp35
 70
     0
102
RTVSPropertyOp36
 70
     0
102
RTVSPropertyOp37
 70
     0
102
RTVSPropertyOp38
 70
     0
102
RTVSPropertyOp39
 70
     0
102
RTVSPropertyOp40
 70
     0
102
RTVSPropertyOp41
 70
     0
102
RTVSPropertyOp42
 70
     0
102
RTVSPropertyOp43
 70
     0
102
RTVSPropertyOp44
 70
     0
102
RTVSPropertyOp45
 70
     0
102
RTVSPropertyOp46
 70
     0
102
RTVSPropertyOp47
 70
     0
102
RTVSPropertyOp48
 70
     0
102
RTVSPropertyOp49
 70
     0
102
RTVSPropertyOp50
 70
     0
102
RTVSPropertyOp51
 70
     0
102
RTVSPropertyOp52
 70
     0
102
RTVSPropertyOp53
 70
     0
102
RTVSPropertyOp54
 70
     0
102
RTVSPropertyOp55
 70
     0
102
RTVSPropertyOp56
 70
     0
102
RTVSPropertyOp57
 70
     0
102
RTVSPost2010Prop28
280
     0
102
RTVSPost2010PropOp28
 70
     0
102
RTVSPost2010Prop29
280
     1
102
RTVSPost2010PropOp29
 70
     0
102
RTVSPost2010Prop30
280
     1
102
RTVSPost2010PropOp30
 70
     0
102
RTVSPost2010Prop31
280
     0
102
RTVSPost2010PropOp31
 70
     0
102
RTVSPost2010Prop32
280
     0
102
RTVSPost2010PropOp32
 70
     0
102
RTVSPost2010Prop33
280
     0
102
RTVSPost2010PropOp33
 70
     0
102
RTVSPost2010Prop34
280
     0
102
RTVSPost2010PropOp34
 70
     0
102
RTVSPost2010Prop35
280
     0
102
RTVSPost2010PropOp35
 70
     0
102
RTVSPost2010Prop36
280
     0
102
RTVSPost2010PropOp36
 70
     0
102
RTVSPost2010Prop37
 90
       50
102
RTVSPost2010PropOp37
 70
     0
102
RTVSPost2010Prop38
140
0.0
102
RTVSPost2010PropOp38
 70
     0
102
RTVSPost2010Prop39
140
1.0
102
RTVSPost2010PropOp39
 70
     0
102
RTVSPost2010Prop40
 90
        0
102
RTVSPost2010PropOp40
 70
     0
102
RTVSPost2010Prop41ColorIndex
 90
       18
102
RTVSPost2010Prop41ColorRGB
 90
        0
102
RTVSPost2010PropOp41
 70
     0
102
RTVSPost2010Prop42
 90
       50
102
RTVSPost2010PropOp42
 70
     0
102
RTVSPost2010Prop43
 90
        3
102
RTVSPost2010PropOp43
 70
     0
102
RTVSPost2010Prop44ColorIndex
 90
        5
102
RTVSPost2010Prop44ColorRGB
 90
      255
102
RTVSPost2010PropOp44
 70
     0
102
RTVSPost2010Prop45
280
     0
102
RTVSPost2010PropOp45
 70
     0
102
RTVSPost2010Prop46
 90
       50
102
RTVSPost2010PropOp46
 70
     0
102
RTVSPost2010Prop47
 90
       50
102
RTVSPost2010PropOp47
 70
     0
102
RTVSPost2010Prop48
 90
       50
102
RTVSPost2010PropOp48
 70
     0
102
RTVSPost2010Prop49
280
     0
102
RTVSPost2010PropOp49
 70
     0
102
RTVSPost2010Prop50
 90
       50
102
RTVSPost2010PropOp50
 70
     0
102
RTVSPost2010Prop51ColorIndex
 90
      256
102
RTVSPost2010Prop51ColorRGB
 90
-16777216
102
RTVSPost2010PropOp51
 70
     0
102
RTVSPost2010Prop52
140
1.0
102
RTVSPost2010PropOp52
 70
     0
102
RTVSPost2010Prop53
 90
        2
102
RTVSPost2010PropOp53
 70
     0
102
RTVSPost2010Prop54
  1
strokes_ogs.tif
102
RTVSPost2010PropOp54
 70
     0
102
RTVSPost2010Prop55
280
     0
102
RTVSPost2010PropOp55
 70
     0
102
RTVSPost2010Prop56
140
1.0
102
RTVSPost2010PropOp56
 70
     0
102
RTVSPost2010Prop57
140
1.0
102
RTVSPost2010PropOp57
 70
     0
  0
XRECORD
  5
252
102
{ACAD_REACTORS
330
251
102
}
330
251
100
AcDbXrecord
280
     1
102
RTVSPropertyOp0
 70
     1
102
RTVSPropertyOp1
 70
     1
102
RTVSPropertyOp2
 70
     1
102
RTVSPropertyOp3
 70
     1
102
RTVSPropertyOp4
 70
     1
102
RTVSPropertyOp5
 70
     1
102
RTVSPropertyOp6
 70
     1
102
RTVSPropertyOp7
 70
     1
102
RTVSPropertyOp8
 70
     1
102
RTVSPropertyOp9
 70
     1
102
RTVSPropertyOp10
 70
     1
102
RTVSPropertyOp11
 70
     1
102
RTVSPropertyOp12
 70
     1
102
RTVSPropertyOp13
 70
     1
102
RTVSPropertyOp14
 70
     1
102
RTVSPropertyOp15
 70
     1
102
RTVSPropertyOp16
 70
     1
102
RTVSPropertyOp17
 70
     1
102
RTVSPropertyOp18
 70
     1
102
RTVSPropertyOp19
 70
     1
102
RTVSPropertyOp20
 70
     1
102
RTVSPropertyOp21
 70
     1
102
RTVSPropertyOp22
 70
     1
102
RTVSPropertyOp23
 70
     1
102
RTVSPropertyOp24
 70
     1
102
RTVSPropertyOp25
 70
     1
102
RTVSPropertyOp26
 70
     1
102
RTVSPropertyOp27
 70
     1
102
RTVSPropertyOp28
 70
     1
102
RTVSPropertyOp29
 70
     1
102
RTVSPropertyOp30
 70
     1
102
RTVSPropertyOp31
 70
     1
102
RTVSPropertyOp32
 70
     1
102
RTVSPropertyOp33
 70
     1
102
RTVSPropertyOp34
 70
     1
102
RTVSPropertyOp35
 70
     1
102
RTVSPropertyOp36
 70
     1
102
RTVSPropertyOp37
 70
     1
102
RTVSPropertyOp38
 70
     1
102
RTVSPropertyOp39
 70
     1
102
RTVSPropertyOp40
 70
     1
102
RTVSPropertyOp41
 70
     1
102
RTVSPropertyOp42
 70
     1
102
RTVSPropertyOp43
 70
     1
102
RTVSPropertyOp44
 70
     1
102
RTVSPropertyOp45
 70
     1
102
RTVSPropertyOp46
 70
     1
102
RTVSPropertyOp47
 70
     1
102
RTVSPropertyOp48
 70
     1
102
RTVSPropertyOp49
 70
     1
102
RTVSPropertyOp50
 70
     1
102
RTVSPropertyOp51
 70
     0
102
RTVSPropertyOp52
 70
     0
102
RTVSPropertyOp53
 70
     1
102
RTVSPropertyOp54
 70
     1
102
RTVSPropertyOp55
 70
     1
102
RTVSPropertyOp56
 70
     1
102
RTVSPropertyOp57
 70
     1
102
RTVSPost2010Prop28
280
     0
102
RTVSPost2010PropOp28
 70
     1
102
RTVSPost2010Prop29
280
     1
102
RTVSPost2010PropOp29
 70
     1
102
RTVSPost2010Prop30
280
     1
102
RTVSPost2010PropOp30
 70
     1
102
RTVSPost2010Prop31
280
     0
102
RTVSPost2010PropOp31
 70
     1
102
RTVSPost2010Prop32
280
     0
102
RTVSPost2010PropOp32
 70
     1
102
RTVSPost2010Prop33
280
     0
102
RTVSPost2010PropOp33
 70
     1
102
RTVSPost2010Prop34
280
     0
102
RTVSPost2010PropOp34
 70
     1
102
RTVSPost2010Prop35
280
     0
102
RTVSPost2010PropOp35
 70
     1
102
RTVSPost2010Prop36
280
     0
102
RTVSPost2010PropOp36
 70
     1
102
RTVSPost2010Prop37
 90
       50
102
RTVSPost2010PropOp37
 70
     1
102
RTVSPost2010Prop38
140
0.0
102
RTVSPost2010PropOp38
 70
     1
102
RTVSPost2010Prop39
140
1.0
102
RTVSPost2010PropOp39
 70
     1
102
RTVSPost2010Prop40
 90
        0
102
RTVSPost2010PropOp40
 70
     1
102
RTVSPost2010Prop41ColorIndex
 90
       18
102
RTVSPost2010Prop41ColorRGB
 90
        0
102
RTVSPost2010PropOp41
 70
     1
102
RTVSPost2010Prop42
 90
       50
102
RTVSPost2010PropOp42
 70
     1
102
RTVSPost2010Prop43
 90
        3
102
RTVSPost2010PropOp43
 70
     1
102
RTVSPost2010Prop44ColorIndex
 90
        5
102
RTVSPost2010Prop44ColorRGB
 90
      255
102
RTVSPost2010PropOp44
 70
     1
102
RTVSPost2010Prop45
280
     0
102
RTVSPost2010PropOp45
 70
     1
102
RTVSPost2010Prop46
 90
       50
102
RTVSPost2010PropOp46
 70
     1
102
RTVSPost2010Prop47
 90
       50
102
RTVSPost2010PropOp47
 70
     1
102
RTVSPost2010Prop48
 90
       50
102
RTVSPost2010PropOp48
 70
     1
102
RTVSPost2010Prop49
280
     0
102
RTVSPost2010PropOp49
 70
     1
102
RTVSPost2010Prop50
 90
       50
102
RTVSPost2010PropOp50
 70
     1
102
RTVSPost2010Prop51ColorIndex
 90
      256
102
RTVSPost2010Prop51ColorRGB
 90
-16777216
102
RTVSPost2010PropOp51
 70
     0
102
RTVSPost2010Prop52
140
1.0
102
RTVSPost2010PropOp52
 70
     0
102
RTVSPost2010Prop53
 90
        2
102
RTVSPost2010PropOp53
 70
     1
102
RTVSPost2010Prop54
  1
strokes_ogs.tif
102
RTVSPost2010PropOp54
 70
     1
102
RTVSPost2010Prop55
280
     0
102
RTVSPost2010PropOp55
 70
     1
102
RTVSPost2010Prop56
140
1.0
102
RTVSPost2010PropOp56
 70
     1
102
RTVSPost2010Prop57
140
1.0
102
RTVSPost2010PropOp57
 70
     1
  0
XRECORD
  5
25A
102
{ACAD_REACTORS
330
259
102
}
330
259
100
AcDbXrecord
280
     1
102
RTVSPropertyOp0
 70
     0
102
RTVSPropertyOp1
 70
     0
102
RTVSPropertyOp2
 70
     0
102
RTVSPropertyOp3
 70
     0
102
RTVSPropertyOp4
 70
     0
102
RTVSPropertyOp5
 70
     0
102
RTVSPropertyOp6
 70
     0
102
RTVSPropertyOp7
 70
     0
102
RTVSPropertyOp8
 70
     0
102
RTVSPropertyOp9
 70
     0
102
RTVSPropertyOp10
 70
     0
102
RTVSPropertyOp11
 70
     0
102
RTVSPropertyOp12
 70
     0
102
RTVSPropertyOp13
 70
     0
102
RTVSPropertyOp14
 70
     2
102
RTVSPropertyOp15
 70
     0
102
RTVSPropertyOp16
 70
     0
102
RTVSPropertyOp17
 70
     0
102
RTVSPropertyOp18
 70
     0
102
RTVSPropertyOp19
 70
     0
102
RTVSPropertyOp20
 70
     0
102
RTVSPropertyOp21
 70
     0
102
RTVSPropertyOp22
 70
     0
102
RTVSPropertyOp23
 70
     0
102
RTVSPropertyOp24
 70
     0
102
RTVSPropertyOp25
 70
     0
102
RTVSPropertyOp26
 70
     0
102
RTVSPropertyOp27
 70
     0
102
RTVSPropertyOp28
 70
     0
102
RTVSPropertyOp29
 70
     0
102
RTVSPropertyOp30
 70
     0
102
RTVSPropertyOp31
 70
     0
102
RTVSPropertyOp32
 70
     0
102
RTVSPropertyOp33
 70
     0
102
RTVSPropertyOp34
 70
     0
102
RTVSPropertyOp35
 70
     0
102
RTVSPropertyOp36
 70
     0
102
RTVSPropertyOp37
 70
     0
102
RTVSPropertyOp38
 70
     0
102
RTVSPropertyOp39
 70
     0
102
RTVSPropertyOp40
 70
     0
102
RTVSPropertyOp41
 70
     0
102
RTVSPropertyOp42
 70
     0
102
RTVSPropertyOp43
 70
     0
102
RTVSPropertyOp44
 70
     0
102
RTVSPropertyOp45
 70
     0
102
RTVSPropertyOp46
 70
     0
102
RTVSPropertyOp47
 70
     0
102
RTVSPropertyOp48
 70
     0
102
RTVSPropertyOp49
 70
     0
102
RTVSPropertyOp50
 70
     0
102
RTVSPropertyOp51
 70
     0
102
RTVSPropertyOp52
 70
     0
102
RTVSPropertyOp53
 70
     0
102
RTVSPropertyOp54
 70
     0
102
RTVSPropertyOp55
 70
     0
102
RTVSPropertyOp56
 70
     0
102
RTVSPropertyOp57
 70
     0
102
RTVSPost2010Prop28
280
     0
102
RTVSPost2010PropOp28
 70
     0
102
RTVSPost2010Prop29
280
     1
102
RTVSPost2010PropOp29
 70
     0
102
RTVSPost2010Prop30
280
     1
102
RTVSPost2010PropOp30
 70
     0
102
RTVSPost2010Prop31
280
     0
102
RTVSPost2010PropOp31
 70
     0
102
RTVSPost2010Prop32
280
     0
102
RTVSPost2010PropOp32
 70
     0
102
RTVSPost2010Prop33
280
     0
102
RTVSPost2010PropOp33
 70
     0
102
RTVSPost2010Prop34
280
     0
102
RTVSPost2010PropOp34
 70
     0
102
RTVSPost2010Prop35
280
     0
102
RTVSPost2010PropOp35
 70
     0
102
RTVSPost2010Prop36
280
     0
102
RTVSPost2010PropOp36
 70
     0
102
RTVSPost2010Prop37
 90
       50
102
RTVSPost2010PropOp37
 70
     0
102
RTVSPost2010Prop38
140
0.0
102
RTVSPost2010PropOp38
 70
     0
102
RTVSPost2010Prop39
140
1.0
102
RTVSPost2010PropOp39
 70
     0
102
RTVSPost2010Prop40
 90
        0
102
RTVSPost2010PropOp40
 70
     0
102
RTVSPost2010Prop41ColorIndex
 90
       18
102
RTVSPost2010Prop41ColorRGB
 90
        0
102
RTVSPost2010PropOp41
 70
     0
102
RTVSPost2010Prop42
 90
       50
102
RTVSPost2010PropOp42
 70
     0
102
RTVSPost2010Prop43
 90
        3
102
RTVSPost2010PropOp43
 70
     0
102
RTVSPost2010Prop44ColorIndex
 90
        5
102
RTVSPost2010Prop44ColorRGB
 90
      255
102
RTVSPost2010PropOp44
 70
     0
102
RTVSPost2010Prop45
280
     0
102
RTVSPost2010PropOp45
 70
     0
102
RTVSPost2010Prop46
 90
       50
102
RTVSPost2010PropOp46
 70
     0
102
RTVSPost2010Prop47
 90
       50
102
RTVSPost2010PropOp47
 70
     0
102
RTVSPost2010Prop48
 90
       50
102
RTVSPost2010PropOp48
 70
     0
102
RTVSPost2010Prop49
280
     0
102
RTVSPost2010PropOp49
 70
     0
102
RTVSPost2010Prop50
 90
       50
102
RTVSPost2010PropOp50
 70
     0
102
RTVSPost2010Prop51ColorIndex
 90
      256
102
RTVSPost2010Prop51ColorRGB
 90
-16777216
102
RTVSPost2010PropOp51
 70
     0
102
RTVSPost2010Prop52
140
1.0
102
RTVSPost2010PropOp52
 70
     0
102
RTVSPost2010Prop53
 90
        2
102
RTVSPost2010PropOp53
 70
     0
102
RTVSPost2010Prop54
  1
strokes_ogs.tif
102
RTVSPost2010PropOp54
 70
     0
102
RTVSPost2010Prop55
280
     0
102
RTVSPost2010PropOp55
 70
     0
102
RTVSPost2010Prop56
140
1.0
102
RTVSPost2010PropOp56
 70
     0
102
RTVSPost2010Prop57
140
1.0
102
RTVSPost2010PropOp57
 70
     0
  0
XRECORD
  5
248
102
{ACAD_REACTORS
330
247
102
}
330
247
100
AcDbXrecord
280
     1
102
RTVSPropertyOp0
 70
     1
102
RTVSPropertyOp1
 70
     1
102
RTVSPropertyOp2
 70
     1
102
RTVSPropertyOp3
 70
     1
102
RTVSPropertyOp4
 70
     1
102
RTVSPropertyOp5
 70
     1
102
RTVSPropertyOp6
 70
     1
102
RTVSPropertyOp7
 70
     1
102
RTVSPropertyOp8
 70
     1
102
RTVSPropertyOp9
 70
     1
102
RTVSPropertyOp10
 70
     1
102
RTVSPropertyOp11
 70
     1
102
RTVSPropertyOp12
 70
     1
102
RTVSPropertyOp13
 70
     1
102
RTVSPropertyOp14
 70
     1
102
RTVSPropertyOp15
 70
     1
102
RTVSPropertyOp16
 70
     1
102
RTVSPropertyOp17
 70
     1
102
RTVSPropertyOp18
 70
     1
102
RTVSPropertyOp19
 70
     1
102
RTVSPropertyOp20
 70
     1
102
RTVSPropertyOp21
 70
     1
102
RTVSPropertyOp22
 70
     1
102
RTVSPropertyOp23
 70
     1
102
RTVSPropertyOp24
 70
     1
102
RTVSPropertyOp25
 70
     1
102
RTVSPropertyOp26
 70
     1
102
RTVSPropertyOp27
 70
     1
102
RTVSPropertyOp28
 70
     1
102
RTVSPropertyOp29
 70
     1
102
RTVSPropertyOp30
 70
     1
102
RTVSPropertyOp31
 70
     1
102
RTVSPropertyOp32
 70
     1
102
RTVSPropertyOp33
 70
     1
102
RTVSPropertyOp34
 70
     1
102
RTVSPropertyOp35
 70
     1
102
RTVSPropertyOp36
 70
     1
102
RTVSPropertyOp37
 70
     1
102
RTVSPropertyOp38
 70
     1
102
RTVSPropertyOp39
 70
     1
102
RTVSPropertyOp40
 70
     1
102
RTVSPropertyOp41
 70
     1
102
RTVSPropertyOp42
 70
     1
102
RTVSPropertyOp43
 70
     1
102
RTVSPropertyOp44
 70
     1
102
RTVSPropertyOp45
 70
     1
102
RTVSPropertyOp46
 70
     1
102
RTVSPropertyOp47
 70
     1
102
RTVSPropertyOp48
 70
     1
102
RTVSPropertyOp49
 70
     1
102
RTVSPropertyOp50
 70
     1
102
RTVSPropertyOp51
 70
     0
102
RTVSPropertyOp52
 70
     0
102
RTVSPropertyOp53
 70
     1
102
RTVSPropertyOp54
 70
     1
102
RTVSPropertyOp55
 70
     1
102
RTVSPropertyOp56
 70
     1
102
RTVSPropertyOp57
 70
     1
102
RTVSPost2010Prop28
280
     0
102
RTVSPost2010PropOp28
 70
     1
102
RTVSPost2010Prop29
280
     1
102
RTVSPost2010PropOp29
 70
     1
102
RTVSPost2010Prop30
280
     1
102
RTVSPost2010PropOp30
 70
     1
102
RTVSPost2010Prop31
280
     0
102
RTVSPost2010PropOp31
 70
     1
102
RTVSPost2010Prop32
280
     0
102
RTVSPost2010PropOp32
 70
     1
102
RTVSPost2010Prop33
280
     0
102
RTVSPost2010PropOp33
 70
     1
102
RTVSPost2010Prop34
280
     0
102
RTVSPost2010PropOp34
 70
     1
102
RTVSPost2010Prop35
280
     0
102
RTVSPost2010PropOp35
 70
     1
102
RTVSPost2010Prop36
280
     0
102
RTVSPost2010PropOp36
 70
     1
102
RTVSPost2010Prop37
 90
       50
102
RTVSPost2010PropOp37
 70
     1
102
RTVSPost2010Prop38
140
0.0
102
RTVSPost2010PropOp38
 70
     1
102
RTVSPost2010Prop39
140
1.0
102
RTVSPost2010PropOp39
 70
     1
102
RTVSPost2010Prop40
 90
        0
102
RTVSPost2010PropOp40
 70
     1
102
RTVSPost2010Prop41ColorIndex
 90
       18
102
RTVSPost2010Prop41ColorRGB
 90
        0
102
RTVSPost2010PropOp41
 70
     1
102
RTVSPost2010Prop42
 90
       50
102
RTVSPost2010PropOp42
 70
     1
102
RTVSPost2010Prop43
 90
        3
102
RTVSPost2010PropOp43
 70
     1
102
RTVSPost2010Prop44ColorIndex
 90
        5
102
RTVSPost2010Prop44ColorRGB
 90
      255
102
RTVSPost2010PropOp44
 70
     1
102
RTVSPost2010Prop45
280
     0
102
RTVSPost2010PropOp45
 70
     1
102
RTVSPost2010Prop46
 90
       50
102
RTVSPost2010PropOp46
 70
     1
102
RTVSPost2010Prop47
 90
       50
102
RTVSPost2010PropOp47
 70
     1
102
RTVSPost2010Prop48
 90
       50
102
RTVSPost2010PropOp48
 70
     1
102
RTVSPost2010Prop49
280
     0
102
RTVSPost2010PropOp49
 70
     1
102
RTVSPost2010Prop50
 90
       50
102
RTVSPost2010PropOp50
 70
     1
102
RTVSPost2010Prop51ColorIndex
 90
      256
102
RTVSPost2010Prop51ColorRGB
 90
-16777216
102
RTVSPost2010PropOp51
 70
     0
102
RTVSPost2010Prop52
140
1.0
102
RTVSPost2010PropOp52
 70
     0
102
RTVSPost2010Prop53
 90
        2
102
RTVSPost2010PropOp53
 70
     1
102
RTVSPost2010Prop54
  1
strokes_ogs.tif
102
RTVSPost2010PropOp54
 70
     1
102
RTVSPost2010Prop55
280
     0
102
RTVSPost2010PropOp55
 70
     1
102
RTVSPost2010Prop56
140
1.0
102
RTVSPost2010PropOp56
 70
     1
102
RTVSPost2010Prop57
140
1.0
102
RTVSPost2010PropOp57
 70
     1
  0
XRECORD
  5
266
102
{ACAD_REACTORS
330
265
102
}
330
265
100
AcDbXrecord
280
     1
102
RTVSPropertyOp0
 70
     1
102
RTVSPropertyOp1
 70
     1
102
RTVSPropertyOp2
 70
     1
102
RTVSPropertyOp3
 70
     1
102
RTVSPropertyOp4
 70
     1
102
RTVSPropertyOp5
 70
     1
102
RTVSPropertyOp6
 70
     1
102
RTVSPropertyOp7
 70
     1
102
RTVSPropertyOp8
 70
     1
102
RTVSPropertyOp9
 70
     1
102
RTVSPropertyOp10
 70
     1
102
RTVSPropertyOp11
 70
     1
102
RTVSPropertyOp12
 70
     1
102
RTVSPropertyOp13
 70
     1
102
RTVSPropertyOp14
 70
     1
102
RTVSPropertyOp15
 70
     1
102
RTVSPropertyOp16
 70
     1
102
RTVSPropertyOp17
 70
     1
102
RTVSPropertyOp18
 70
     1
102
RTVSPropertyOp19
 70
     1
102
RTVSPropertyOp20
 70
     1
102
RTVSPropertyOp21
 70
     1
102
RTVSPropertyOp22
 70
     1
102
RTVSPropertyOp23
 70
     1
102
RTVSPropertyOp24
 70
     1
102
RTVSPropertyOp25
 70
     1
102
RTVSPropertyOp26
 70
     1
102
RTVSPropertyOp27
 70
     1
102
RTVSPropertyOp28
 70
     1
102
RTVSPropertyOp29
 70
     1
102
RTVSPropertyOp30
 70
     1
102
RTVSPropertyOp31
 70
     1
102
RTVSPropertyOp32
 70
     1
102
RTVSPropertyOp33
 70
     1
102
RTVSPropertyOp34
 70
     1
102
RTVSPropertyOp35
 70
     1
102
RTVSPropertyOp36
 70
     1
102
RTVSPropertyOp37
 70
     1
102
RTVSPropertyOp38
 70
     1
102
RTVSPropertyOp39
 70
     1
102
RTVSPropertyOp40
 70
     1
102
RTVSPropertyOp41
 70
     1
102
RTVSPropertyOp42
 70
     1
102
RTVSPropertyOp43
 70
     1
102
RTVSPropertyOp44
 70
     1
102
RTVSPropertyOp45
 70
     1
102
RTVSPropertyOp46
 70
     1
102
RTVSPropertyOp47
 70
     1
102
RTVSPropertyOp48
 70
     1
102
RTVSPropertyOp49
 70
     1
102
RTVSPropertyOp50
 70
     1
102
RTVSPropertyOp51
 70
     0
102
RTVSPropertyOp52
 70
     0
102
RTVSPropertyOp53
 70
     1
102
RTVSPropertyOp54
 70
     1
102
RTVSPropertyOp55
 70
     1
102
RTVSPropertyOp56
 70
     1
102
RTVSPropertyOp57
 70
     1
102
RTVSPost2010Prop28
280
     0
102
RTVSPost2010PropOp28
 70
     1
102
RTVSPost2010Prop29
280
     1
102
RTVSPost2010PropOp29
 70
     1
102
RTVSPost2010Prop30
280
     1
102
RTVSPost2010PropOp30
 70
     1
102
RTVSPost2010Prop31
280
     0
102
RTVSPost2010PropOp31
 70
     1
102
RTVSPost2010Prop32
280
     0
102
RTVSPost2010PropOp32
 70
     1
102
RTVSPost2010Prop33
280
     0
102
RTVSPost2010PropOp33
 70
     1
102
RTVSPost2010Prop34
280
     0
102
RTVSPost2010PropOp34
 70
     1
102
RTVSPost2010Prop35
280
     0
102
RTVSPost2010PropOp35
 70
     1
102
RTVSPost2010Prop36
280
     0
102
RTVSPost2010PropOp36
 70
     1
102
RTVSPost2010Prop37
 90
       50
102
RTVSPost2010PropOp37
 70
     1
102
RTVSPost2010Prop38
140
0.0
102
RTVSPost2010PropOp38
 70
     1
102
RTVSPost2010Prop39
140
1.0
102
RTVSPost2010PropOp39
 70
     1
102
RTVSPost2010Prop40
 90
        0
102
RTVSPost2010PropOp40
 70
     1
102
RTVSPost2010Prop41ColorIndex
 90
       18
102
RTVSPost2010Prop41ColorRGB
 90
        0
102
RTVSPost2010PropOp41
 70
     1
102
RTVSPost2010Prop42
 90
       50
102
RTVSPost2010PropOp42
 70
     1
102
RTVSPost2010Prop43
 90
        3
102
RTVSPost2010PropOp43
 70
     1
102
RTVSPost2010Prop44ColorIndex
 90
        5
102
RTVSPost2010Prop44ColorRGB
 90
      255
102
RTVSPost2010PropOp44
 70
     1
102
RTVSPost2010Prop45
280
     0
102
RTVSPost2010PropOp45
 70
     1
102
RTVSPost2010Prop46
 90
       50
102
RTVSPost2010PropOp46
 70
     1
102
RTVSPost2010Prop47
 90
       50
102
RTVSPost2010PropOp47
 70
     1
102
RTVSPost2010Prop48
 90
       50
102
RTVSPost2010PropOp48
 70
     1
102
RTVSPost2010Prop49
280
     0
102
RTVSPost2010PropOp49
 70
     1
102
RTVSPost2010Prop50
 90
       50
102
RTVSPost2010PropOp50
 70
     1
102
RTVSPost2010Prop51ColorIndex
 90
      256
102
RTVSPost2010Prop51ColorRGB
 90
-16777216
102
RTVSPost2010PropOp51
 70
     0
102
RTVSPost2010Prop52
140
1.0
102
RTVSPost2010PropOp52
 70
     0
102
RTVSPost2010Prop53
 90
        2
102
RTVSPost2010PropOp53
 70
     1
102
RTVSPost2010Prop54
  1
strokes_ogs.tif
102
RTVSPost2010PropOp54
 70
     1
102
RTVSPost2010Prop55
280
     0
102
RTVSPost2010PropOp55
 70
     1
102
RTVSPost2010Prop56
140
1.0
102
RTVSPost2010PropOp56
 70
     1
102
RTVSPost2010Prop57
140
1.0
102
RTVSPost2010PropOp57
 70
     1
  0
XRECORD
  5
264
102
{ACAD_REACTORS
330
263
102
}
330
263
100
AcDbXrecord
280
     1
102
RTVSPropertyOp0
 70
     1
102
RTVSPropertyOp1
 70
     1
102
RTVSPropertyOp2
 70
     1
102
RTVSPropertyOp3
 70
     1
102
RTVSPropertyOp4
 70
     1
102
RTVSPropertyOp5
 70
     1
102
RTVSPropertyOp6
 70
     1
102
RTVSPropertyOp7
 70
     1
102
RTVSPropertyOp8
 70
     1
102
RTVSPropertyOp9
 70
     1
102
RTVSPropertyOp10
 70
     1
102
RTVSPropertyOp11
 70
     1
102
RTVSPropertyOp12
 70
     1
102
RTVSPropertyOp13
 70
     1
102
RTVSPropertyOp14
 70
     1
102
RTVSPropertyOp15
 70
     1
102
RTVSPropertyOp16
 70
     1
102
RTVSPropertyOp17
 70
     1
102
RTVSPropertyOp18
 70
     1
102
RTVSPropertyOp19
 70
     1
102
RTVSPropertyOp20
 70
     1
102
RTVSPropertyOp21
 70
     1
102
RTVSPropertyOp22
 70
     1
102
RTVSPropertyOp23
 70
     1
102
RTVSPropertyOp24
 70
     1
102
RTVSPropertyOp25
 70
     1
102
RTVSPropertyOp26
 70
     1
102
RTVSPropertyOp27
 70
     1
102
RTVSPropertyOp28
 70
     1
102
RTVSPropertyOp29
 70
     1
102
RTVSPropertyOp30
 70
     1
102
RTVSPropertyOp31
 70
     1
102
RTVSPropertyOp32
 70
     1
102
RTVSPropertyOp33
 70
     1
102
RTVSPropertyOp34
 70
     1
102
RTVSPropertyOp35
 70
     1
102
RTVSPropertyOp36
 70
     1
102
RTVSPropertyOp37
 70
     1
102
RTVSPropertyOp38
 70
     1
102
RTVSPropertyOp39
 70
     1
102
RTVSPropertyOp40
 70
     1
102
RTVSPropertyOp41
 70
     1
102
RTVSPropertyOp42
 70
     1
102
RTVSPropertyOp43
 70
     1
102
RTVSPropertyOp44
 70
     1
102
RTVSPropertyOp45
 70
     1
102
RTVSPropertyOp46
 70
     1
102
RTVSPropertyOp47
 70
     1
102
RTVSPropertyOp48
 70
     1
102
RTVSPropertyOp49
 70
     1
102
RTVSPropertyOp50
 70
     1
102
RTVSPropertyOp51
 70
     0
102
RTVSPropertyOp52
 70
     0
102
RTVSPropertyOp53
 70
     1
102
RTVSPropertyOp54
 70
     1
102
RTVSPropertyOp55
 70
     1
102
RTVSPropertyOp56
 70
     1
102
RTVSPropertyOp57
 70
     1
102
RTVSPost2010Prop28
280
     0
102
RTVSPost2010PropOp28
 70
     1
102
RTVSPost2010Prop29
280
     1
102
RTVSPost2010PropOp29
 70
     1
102
RTVSPost2010Prop30
280
     1
102
RTVSPost2010PropOp30
 70
     1
102
RTVSPost2010Prop31
280
     0
102
RTVSPost2010PropOp31
 70
     1
102
RTVSPost2010Prop32
280
     0
102
RTVSPost2010PropOp32
 70
     1
102
RTVSPost2010Prop33
280
     0
102
RTVSPost2010PropOp33
 70
     1
102
RTVSPost2010Prop34
280
     0
102
RTVSPost2010PropOp34
 70
     1
102
RTVSPost2010Prop35
280
     0
102
RTVSPost2010PropOp35
 70
     1
102
RTVSPost2010Prop36
280
     0
102
RTVSPost2010PropOp36
 70
     1
102
RTVSPost2010Prop37
 90
       50
102
RTVSPost2010PropOp37
 70
     1
102
RTVSPost2010Prop38
140
0.0
102
RTVSPost2010PropOp38
 70
     1
102
RTVSPost2010Prop39
140
1.0
102
RTVSPost2010PropOp39
 70
     1
102
RTVSPost2010Prop40
 90
        0
102
RTVSPost2010PropOp40
 70
     1
102
RTVSPost2010Prop41ColorIndex
 90
       18
102
RTVSPost2010Prop41ColorRGB
 90
        0
102
RTVSPost2010PropOp41
 70
     1
102
RTVSPost2010Prop42
 90
       50
102
RTVSPost2010PropOp42
 70
     1
102
RTVSPost2010Prop43
 90
        3
102
RTVSPost2010PropOp43
 70
     1
102
RTVSPost2010Prop44ColorIndex
 90
        5
102
RTVSPost2010Prop44ColorRGB
 90
      255
102
RTVSPost2010PropOp44
 70
     1
102
RTVSPost2010Prop45
280
     0
102
RTVSPost2010PropOp45
 70
     1
102
RTVSPost2010Prop46
 90
       50
102
RTVSPost2010PropOp46
 70
     1
102
RTVSPost2010Prop47
 90
       50
102
RTVSPost2010PropOp47
 70
     1
102
RTVSPost2010Prop48
 90
       50
102
RTVSPost2010PropOp48
 70
     1
102
RTVSPost2010Prop49
280
     0
102
RTVSPost2010PropOp49
 70
     1
102
RTVSPost2010Prop50
 90
       50
102
RTVSPost2010PropOp50
 70
     1
102
RTVSPost2010Prop51ColorIndex
 90
      256
102
RTVSPost2010Prop51ColorRGB
 90
-16777216
102
RTVSPost2010PropOp51
 70
     0
102
RTVSPost2010Prop52
140
1.0
102
RTVSPost2010PropOp52
 70
     0
102
RTVSPost2010Prop53
 90
        2
102
RTVSPost2010PropOp53
 70
     1
102
RTVSPost2010Prop54
  1
strokes_ogs.tif
102
RTVSPost2010PropOp54
 70
     1
102
RTVSPost2010Prop55
280
     0
102
RTVSPost2010PropOp55
 70
     1
102
RTVSPost2010Prop56
140
1.0
102
RTVSPost2010PropOp56
 70
     1
102
RTVSPost2010Prop57
140
1.0
102
RTVSPost2010PropOp57
 70
     1
  0
XRECORD
  5
25E
102
{ACAD_REACTORS
330
25D
102
}
330
25D
100
AcDbXrecord
280
     1
102
RTVSPropertyOp0
 70
     1
102
RTVSPropertyOp1
 70
     1
102
RTVSPropertyOp2
 70
     1
102
RTVSPropertyOp3
 70
     1
102
RTVSPropertyOp4
 70
     1
102
RTVSPropertyOp5
 70
     1
102
RTVSPropertyOp6
 70
     1
102
RTVSPropertyOp7
 70
     1
102
RTVSPropertyOp8
 70
     1
102
RTVSPropertyOp9
 70
     1
102
RTVSPropertyOp10
 70
     1
102
RTVSPropertyOp11
 70
     1
102
RTVSPropertyOp12
 70
     1
102
RTVSPropertyOp13
 70
     1
102
RTVSPropertyOp14
 70
     1
102
RTVSPropertyOp15
 70
     1
102
RTVSPropertyOp16
 70
     1
102
RTVSPropertyOp17
 70
     1
102
RTVSPropertyOp18
 70
     1
102
RTVSPropertyOp19
 70
     1
102
RTVSPropertyOp20
 70
     1
102
RTVSPropertyOp21
 70
     1
102
RTVSPropertyOp22
 70
     1
102
RTVSPropertyOp23
 70
     1
102
RTVSPropertyOp24
 70
     1
102
RTVSPropertyOp25
 70
     1
102
RTVSPropertyOp26
 70
     1
102
RTVSPropertyOp27
 70
     1
102
RTVSPropertyOp28
 70
     1
102
RTVSPropertyOp29
 70
     1
102
RTVSPropertyOp30
 70
     1
102
RTVSPropertyOp31
 70
     1
102
RTVSPropertyOp32
 70
     1
102
RTVSPropertyOp33
 70
     1
102
RTVSPropertyOp34
 70
     1
102
RTVSPropertyOp35
 70
     1
102
RTVSPropertyOp36
 70
     1
102
RTVSPropertyOp37
 70
     1
102
RTVSPropertyOp38
 70
     1
102
RTVSPropertyOp39
 70
     1
102
RTVSPropertyOp40
 70
     1
102
RTVSPropertyOp41
 70
     1
102
RTVSPropertyOp42
 70
     1
102
RTVSPropertyOp43
 70
     1
102
RTVSPropertyOp44
 70
     1
102
RTVSPropertyOp45
 70
     1
102
RTVSPropertyOp46
 70
     1
102
RTVSPropertyOp47
 70
     1
102
RTVSPropertyOp48
 70
     1
102
RTVSPropertyOp49
 70
     1
102
RTVSPropertyOp50
 70
     1
102
RTVSPropertyOp51
 70
     0
102
RTVSPropertyOp52
 70
     0
102
RTVSPropertyOp53
 70
     1
102
RTVSPropertyOp54
 70
     1
102
RTVSPropertyOp55
 70
     1
102
RTVSPropertyOp56
 70
     1
102
RTVSPropertyOp57
 70
     1
102
RTVSPost2010Prop28
280
     0
102
RTVSPost2010PropOp28
 70
     1
102
RTVSPost2010Prop29
280
     1
102
RTVSPost2010PropOp29
 70
     1
102
RTVSPost2010Prop30
280
     1
102
RTVSPost2010PropOp30
 70
     1
102
RTVSPost2010Prop31
280
     0
102
RTVSPost2010PropOp31
 70
     1
102
RTVSPost2010Prop32
280
     0
102
RTVSPost2010PropOp32
 70
     1
102
RTVSPost2010Prop33
280
     0
102
RTVSPost2010PropOp33
 70
     1
102
RTVSPost2010Prop34
280
     0
102
RTVSPost2010PropOp34
 70
     1
102
RTVSPost2010Prop35
280
     0
102
RTVSPost2010PropOp35
 70
     1
102
RTVSPost2010Prop36
280
     0
102
RTVSPost2010PropOp36
 70
     1
102
RTVSPost2010Prop37
 90
       50
102
RTVSPost2010PropOp37
 70
     1
102
RTVSPost2010Prop38
140
0.0
102
RTVSPost2010PropOp38
 70
     1
102
RTVSPost2010Prop39
140
1.0
102
RTVSPost2010PropOp39
 70
     1
102
RTVSPost2010Prop40
 90
        0
102
RTVSPost2010PropOp40
 70
     1
102
RTVSPost2010Prop41ColorIndex
 90
       18
102
RTVSPost2010Prop41ColorRGB
 90
        0
102
RTVSPost2010PropOp41
 70
     1
102
RTVSPost2010Prop42
 90
       50
102
RTVSPost2010PropOp42
 70
     1
102
RTVSPost2010Prop43
 90
        3
102
RTVSPost2010PropOp43
 70
     1
102
RTVSPost2010Prop44ColorIndex
 90
        5
102
RTVSPost2010Prop44ColorRGB
 90
      255
102
RTVSPost2010PropOp44
 70
     1
102
RTVSPost2010Prop45
280
     0
102
RTVSPost2010PropOp45
 70
     1
102
RTVSPost2010Prop46
 90
       50
102
RTVSPost2010PropOp46
 70
     1
102
RTVSPost2010Prop47
 90
       50
102
RTVSPost2010PropOp47
 70
     1
102
RTVSPost2010Prop48
 90
       50
102
RTVSPost2010PropOp48
 70
     1
102
RTVSPost2010Prop49
280
     0
102
RTVSPost2010PropOp49
 70
     1
102
RTVSPost2010Prop50
 90
       50
102
RTVSPost2010PropOp50
 70
     1
102
RTVSPost2010Prop51ColorIndex
 90
      256
102
RTVSPost2010Prop51ColorRGB
 90
-16777216
102
RTVSPost2010PropOp51
 70
     0
102
RTVSPost2010Prop52
140
1.0
102
RTVSPost2010PropOp52
 70
     0
102
RTVSPost2010Prop53
 90
        2
102
RTVSPost2010PropOp53
 70
     1
102
RTVSPost2010Prop54
  1
strokes_ogs.tif
102
RTVSPost2010PropOp54
 70
     1
102
RTVSPost2010Prop55
280
     0
102
RTVSPost2010PropOp55
 70
     1
102
RTVSPost2010Prop56
140
1.0
102
RTVSPost2010PropOp56
 70
     1
102
RTVSPost2010Prop57
140
1.0
102
RTVSPost2010PropOp57
 70
     1
  0
XRECORD
  5
260
102
{ACAD_REACTORS
330
25F
102
}
330
25F
100
AcDbXrecord
280
     1
102
RTVSPropertyOp0
 70
     1
102
RTVSPropertyOp1
 70
     1
102
RTVSPropertyOp2
 70
     1
102
RTVSPropertyOp3
 70
     1
102
RTVSPropertyOp4
 70
     1
102
RTVSPropertyOp5
 70
     1
102
RTVSPropertyOp6
 70
     1
102
RTVSPropertyOp7
 70
     1
102
RTVSPropertyOp8
 70
     1
102
RTVSPropertyOp9
 70
     1
102
RTVSPropertyOp10
 70
     1
102
RTVSPropertyOp11
 70
     1
102
RTVSPropertyOp12
 70
     1
102
RTVSPropertyOp13
 70
     1
102
RTVSPropertyOp14
 70
     1
102
RTVSPropertyOp15
 70
     1
102
RTVSPropertyOp16
 70
     1
102
RTVSPropertyOp17
 70
     1
102
RTVSPropertyOp18
 70
     1
102
RTVSPropertyOp19
 70
     1
102
RTVSPropertyOp20
 70
     1
102
RTVSPropertyOp21
 70
     1
102
RTVSPropertyOp22
 70
     1
102
RTVSPropertyOp23
 70
     1
102
RTVSPropertyOp24
 70
     1
102
RTVSPropertyOp25
 70
     1
102
RTVSPropertyOp26
 70
     1
102
RTVSPropertyOp27
 70
     1
102
RTVSPropertyOp28
 70
     1
102
RTVSPropertyOp29
 70
     1
102
RTVSPropertyOp30
 70
     1
102
RTVSPropertyOp31
 70
     1
102
RTVSPropertyOp32
 70
     1
102
RTVSPropertyOp33
 70
     1
102
RTVSPropertyOp34
 70
     1
102
RTVSPropertyOp35
 70
     1
102
RTVSPropertyOp36
 70
     1
102
RTVSPropertyOp37
 70
     1
102
RTVSPropertyOp38
 70
     1
102
RTVSPropertyOp39
 70
     1
102
RTVSPropertyOp40
 70
     1
102
RTVSPropertyOp41
 70
     1
102
RTVSPropertyOp42
 70
     1
102
RTVSPropertyOp43
 70
     1
102
RTVSPropertyOp44
 70
     1
102
RTVSPropertyOp45
 70
     1
102
RTVSPropertyOp46
 70
     1
102
RTVSPropertyOp47
 70
     1
102
RTVSPropertyOp48
 70
     1
102
RTVSPropertyOp49
 70
     1
102
RTVSPropertyOp50
 70
     1
102
RTVSPropertyOp51
 70
     0
102
RTVSPropertyOp52
 70
     0
102
RTVSPropertyOp53
 70
     1
102
RTVSPropertyOp54
 70
     1
102
RTVSPropertyOp55
 70
     1
102
RTVSPropertyOp56
 70
     1
102
RTVSPropertyOp57
 70
     1
102
RTVSPost2010Prop28
280
     0
102
RTVSPost2010PropOp28
 70
     1
102
RTVSPost2010Prop29
280
     1
102
RTVSPost2010PropOp29
 70
     1
102
RTVSPost2010Prop30
280
     1
102
RTVSPost2010PropOp30
 70
     1
102
RTVSPost2010Prop31
280
     0
102
RTVSPost2010PropOp31
 70
     1
102
RTVSPost2010Prop32
280
     0
102
RTVSPost2010PropOp32
 70
     1
102
RTVSPost2010Prop33
280
     0
102
RTVSPost2010PropOp33
 70
     1
102
RTVSPost2010Prop34
280
     0
102
RTVSPost2010PropOp34
 70
     1
102
RTVSPost2010Prop35
280
     0
102
RTVSPost2010PropOp35
 70
     1
102
RTVSPost2010Prop36
280
     0
102
RTVSPost2010PropOp36
 70
     1
102
RTVSPost2010Prop37
 90
       50
102
RTVSPost2010PropOp37
 70
     1
102
RTVSPost2010Prop38
140
0.0
102
RTVSPost2010PropOp38
 70
     1
102
RTVSPost2010Prop39
140
1.0
102
RTVSPost2010PropOp39
 70
     1
102
RTVSPost2010Prop40
 90
        0
102
RTVSPost2010PropOp40
 70
     1
102
RTVSPost2010Prop41ColorIndex
 90
       18
102
RTVSPost2010Prop41ColorRGB
 90
        0
102
RTVSPost2010PropOp41
 70
     1
102
RTVSPost2010Prop42
 90
       50
102
RTVSPost2010PropOp42
 70
     1
102
RTVSPost2010Prop43
 90
        3
102
RTVSPost2010PropOp43
 70
     1
102
RTVSPost2010Prop44ColorIndex
 90
        5
102
RTVSPost2010Prop44ColorRGB
 90
      255
102
RTVSPost2010PropOp44
 70
     1
102
RTVSPost2010Prop45
280
     0
102
RTVSPost2010PropOp45
 70
     1
102
RTVSPost2010Prop46
 90
       50
102
RTVSPost2010PropOp46
 70
     1
102
RTVSPost2010Prop47
 90
       50
102
RTVSPost2010PropOp47
 70
     1
102
RTVSPost2010Prop48
 90
       50
102
RTVSPost2010PropOp48
 70
     1
102
RTVSPost2010Prop49
280
     0
102
RTVSPost2010PropOp49
 70
     1
102
RTVSPost2010Prop50
 90
       50
102
RTVSPost2010PropOp50
 70
     1
102
RTVSPost2010Prop51ColorIndex
 90
      256
102
RTVSPost2010Prop51ColorRGB
 90
-16777216
102
RTVSPost2010PropOp51
 70
     0
102
RTVSPost2010Prop52
140
1.0
102
RTVSPost2010PropOp52
 70
     0
102
RTVSPost2010Prop53
 90
        2
102
RTVSPost2010PropOp53
 70
     1
102
RTVSPost2010Prop54
  1
strokes_ogs.tif
102
RTVSPost2010PropOp54
 70
     1
102
RTVSPost2010Prop55
280
     0
102
RTVSPost2010PropOp55
 70
     1
102
RTVSPost2010Prop56
140
1.0
102
RTVSPost2010PropOp56
 70
     1
102
RTVSPost2010Prop57
140
1.0
102
RTVSPost2010PropOp57
 70
     1
  0
XRECORD
  5
250
102
{ACAD_REACTORS
330
24F
102
}
330
24F
100
AcDbXrecord
280
     1
102
RTVSPropertyOp0
 70
     1
102
RTVSPropertyOp1
 70
     1
102
RTVSPropertyOp2
 70
     1
102
RTVSPropertyOp3
 70
     1
102
RTVSPropertyOp4
 70
     1
102
RTVSPropertyOp5
 70
     1
102
RTVSPropertyOp6
 70
     1
102
RTVSPropertyOp7
 70
     1
102
RTVSPropertyOp8
 70
     1
102
RTVSPropertyOp9
 70
     1
102
RTVSPropertyOp10
 70
     1
102
RTVSPropertyOp11
 70
     1
102
RTVSPropertyOp12
 70
     1
102
RTVSPropertyOp13
 70
     1
102
RTVSPropertyOp14
 70
     1
102
RTVSPropertyOp15
 70
     1
102
RTVSPropertyOp16
 70
     1
102
RTVSPropertyOp17
 70
     1
102
RTVSPropertyOp18
 70
     1
102
RTVSPropertyOp19
 70
     1
102
RTVSPropertyOp20
 70
     1
102
RTVSPropertyOp21
 70
     1
102
RTVSPropertyOp22
 70
     1
102
RTVSPropertyOp23
 70
     1
102
RTVSPropertyOp24
 70
     1
102
RTVSPropertyOp25
 70
     1
102
RTVSPropertyOp26
 70
     1
102
RTVSPropertyOp27
 70
     1
102
RTVSPropertyOp28
 70
     1
102
RTVSPropertyOp29
 70
     1
102
RTVSPropertyOp30
 70
     1
102
RTVSPropertyOp31
 70
     1
102
RTVSPropertyOp32
 70
     1
102
RTVSPropertyOp33
 70
     1
102
RTVSPropertyOp34
 70
     1
102
RTVSPropertyOp35
 70
     1
102
RTVSPropertyOp36
 70
     1
102
RTVSPropertyOp37
 70
     1
102
RTVSPropertyOp38
 70
     1
102
RTVSPropertyOp39
 70
     1
102
RTVSPropertyOp40
 70
     1
102
RTVSPropertyOp41
 70
     1
102
RTVSPropertyOp42
 70
     1
102
RTVSPropertyOp43
 70
     1
102
RTVSPropertyOp44
 70
     1
102
RTVSPropertyOp45
 70
     1
102
RTVSPropertyOp46
 70
     1
102
RTVSPropertyOp47
 70
     1
102
RTVSPropertyOp48
 70
     1
102
RTVSPropertyOp49
 70
     1
102
RTVSPropertyOp50
 70
     1
102
RTVSPropertyOp51
 70
     0
102
RTVSPropertyOp52
 70
     0
102
RTVSPropertyOp53
 70
     1
102
RTVSPropertyOp54
 70
     1
102
RTVSPropertyOp55
 70
     1
102
RTVSPropertyOp56
 70
     1
102
RTVSPropertyOp57
 70
     1
102
RTVSPost2010Prop28
280
     0
102
RTVSPost2010PropOp28
 70
     1
102
RTVSPost2010Prop29
280
     1
102
RTVSPost2010PropOp29
 70
     1
102
RTVSPost2010Prop30
280
     1
102
RTVSPost2010PropOp30
 70
     1
102
RTVSPost2010Prop31
280
     0
102
RTVSPost2010PropOp31
 70
     1
102
RTVSPost2010Prop32
280
     0
102
RTVSPost2010PropOp32
 70
     1
102
RTVSPost2010Prop33
280
     0
102
RTVSPost2010PropOp33
 70
     1
102
RTVSPost2010Prop34
280
     0
102
RTVSPost2010PropOp34
 70
     1
102
RTVSPost2010Prop35
280
     0
102
RTVSPost2010PropOp35
 70
     1
102
RTVSPost2010Prop36
280
     0
102
RTVSPost2010PropOp36
 70
     1
102
RTVSPost2010Prop37
 90
       50
102
RTVSPost2010PropOp37
 70
     1
102
RTVSPost2010Prop38
140
0.0
102
RTVSPost2010PropOp38
 70
     1
102
RTVSPost2010Prop39
140
1.0
102
RTVSPost2010PropOp39
 70
     1
102
RTVSPost2010Prop40
 90
        0
102
RTVSPost2010PropOp40
 70
     1
102
RTVSPost2010Prop41ColorIndex
 90
       18
102
RTVSPost2010Prop41ColorRGB
 90
        0
102
RTVSPost2010PropOp41
 70
     1
102
RTVSPost2010Prop42
 90
       50
102
RTVSPost2010PropOp42
 70
     1
102
RTVSPost2010Prop43
 90
        3
102
RTVSPost2010PropOp43
 70
     1
102
RTVSPost2010Prop44ColorIndex
 90
        5
102
RTVSPost2010Prop44ColorRGB
 90
      255
102
RTVSPost2010PropOp44
 70
     1
102
RTVSPost2010Prop45
280
     0
102
RTVSPost2010PropOp45
 70
     1
102
RTVSPost2010Prop46
 90
       50
102
RTVSPost2010PropOp46
 70
     1
102
RTVSPost2010Prop47
 90
       50
102
RTVSPost2010PropOp47
 70
     1
102
RTVSPost2010Prop48
 90
       50
102
RTVSPost2010PropOp48
 70
     1
102
RTVSPost2010Prop49
280
     0
102
RTVSPost2010PropOp49
 70
     1
102
RTVSPost2010Prop50
 90
       50
102
RTVSPost2010PropOp50
 70
     1
102
RTVSPost2010Prop51ColorIndex
 90
      256
102
RTVSPost2010Prop51ColorRGB
 90
-16777216
102
RTVSPost2010PropOp51
 70
     0
102
RTVSPost2010Prop52
140
1.0
102
RTVSPost2010PropOp52
 70
     0
102
RTVSPost2010Prop53
 90
        2
102
RTVSPost2010PropOp53
 70
     1
102
RTVSPost2010Prop54
  1
strokes_ogs.tif
102
RTVSPost2010PropOp54
 70
     1
102
RTVSPost2010Prop55
280
     0
102
RTVSPost2010PropOp55
 70
     1
102
RTVSPost2010Prop56
140
1.0
102
RTVSPost2010PropOp56
 70
     1
102
RTVSPost2010Prop57
140
1.0
102
RTVSPost2010PropOp57
 70
     1
  0
XRECORD
  5
242
102
{ACAD_REACTORS
330
241
102
}
330
241
100
AcDbXrecord
280
     1
102
RTVSPropertyOp0
 70
     1
102
RTVSPropertyOp1
 70
     1
102
RTVSPropertyOp2
 70
     1
102
RTVSPropertyOp3
 70
     1
102
RTVSPropertyOp4
 70
     1
102
RTVSPropertyOp5
 70
     1
102
RTVSPropertyOp6
 70
     1
102
RTVSPropertyOp7
 70
     1
102
RTVSPropertyOp8
 70
     1
102
RTVSPropertyOp9
 70
     1
102
RTVSPropertyOp10
 70
     1
102
RTVSPropertyOp11
 70
     1
102
RTVSPropertyOp12
 70
     1
102
RTVSPropertyOp13
 70
     1
102
RTVSPropertyOp14
 70
     1
102
RTVSPropertyOp15
 70
     1
102
RTVSPropertyOp16
 70
     1
102
RTVSPropertyOp17
 70
     1
102
RTVSPropertyOp18
 70
     1
102
RTVSPropertyOp19
 70
     1
102
RTVSPropertyOp20
 70
     1
102
RTVSPropertyOp21
 70
     1
102
RTVSPropertyOp22
 70
     1
102
RTVSPropertyOp23
 70
     1
102
RTVSPropertyOp24
 70
     1
102
RTVSPropertyOp25
 70
     1
102
RTVSPropertyOp26
 70
     1
102
RTVSPropertyOp27
 70
     1
102
RTVSPropertyOp28
 70
     1
102
RTVSPropertyOp29
 70
     1
102
RTVSPropertyOp30
 70
     1
102
RTVSPropertyOp31
 70
     1
102
RTVSPropertyOp32
 70
     1
102
RTVSPropertyOp33
 70
     1
102
RTVSPropertyOp34
 70
     1
102
RTVSPropertyOp35
 70
     1
102
RTVSPropertyOp36
 70
     1
102
RTVSPropertyOp37
 70
     1
102
RTVSPropertyOp38
 70
     1
102
RTVSPropertyOp39
 70
     1
102
RTVSPropertyOp40
 70
     1
102
RTVSPropertyOp41
 70
     1
102
RTVSPropertyOp42
 70
     1
102
RTVSPropertyOp43
 70
     1
102
RTVSPropertyOp44
 70
     1
102
RTVSPropertyOp45
 70
     1
102
RTVSPropertyOp46
 70
     1
102
RTVSPropertyOp47
 70
     1
102
RTVSPropertyOp48
 70
     1
102
RTVSPropertyOp49
 70
     1
102
RTVSPropertyOp50
 70
     1
102
RTVSPropertyOp51
 70
     0
102
RTVSPropertyOp52
 70
     0
102
RTVSPropertyOp53
 70
     1
102
RTVSPropertyOp54
 70
     1
102
RTVSPropertyOp55
 70
     1
102
RTVSPropertyOp56
 70
     1
102
RTVSPropertyOp57
 70
     1
102
RTVSPost2010Prop28
280
     0
102
RTVSPost2010PropOp28
 70
     1
102
RTVSPost2010Prop29
280
     1
102
RTVSPost2010PropOp29
 70
     1
102
RTVSPost2010Prop30
280
     1
102
RTVSPost2010PropOp30
 70
     1
102
RTVSPost2010Prop31
280
     0
102
RTVSPost2010PropOp31
 70
     1
102
RTVSPost2010Prop32
280
     0
102
RTVSPost2010PropOp32
 70
     1
102
RTVSPost2010Prop33
280
     0
102
RTVSPost2010PropOp33
 70
     1
102
RTVSPost2010Prop34
280
     0
102
RTVSPost2010PropOp34
 70
     1
102
RTVSPost2010Prop35
280
     0
102
RTVSPost2010PropOp35
 70
     1
102
RTVSPost2010Prop36
280
     0
102
RTVSPost2010PropOp36
 70
     1
102
RTVSPost2010Prop37
 90
       50
102
RTVSPost2010PropOp37
 70
     1
102
RTVSPost2010Prop38
140
0.0
102
RTVSPost2010PropOp38
 70
     1
102
RTVSPost2010Prop39
140
1.0
102
RTVSPost2010PropOp39
 70
     1
102
RTVSPost2010Prop40
 90
        0
102
RTVSPost2010PropOp40
 70
     1
102
RTVSPost2010Prop41ColorIndex
 90
       18
102
RTVSPost2010Prop41ColorRGB
 90
        0
102
RTVSPost2010PropOp41
 70
     1
102
RTVSPost2010Prop42
 90
       50
102
RTVSPost2010PropOp42
 70
     1
102
RTVSPost2010Prop43
 90
        3
102
RTVSPost2010PropOp43
 70
     1
102
RTVSPost2010Prop44ColorIndex
 90
        5
102
RTVSPost2010Prop44ColorRGB
 90
      255
102
RTVSPost2010PropOp44
 70
     1
102
RTVSPost2010Prop45
280
     0
102
RTVSPost2010PropOp45
 70
     1
102
RTVSPost2010Prop46
 90
       50
102
RTVSPost2010PropOp46
 70
     1
102
RTVSPost2010Prop47
 90
       50
102
RTVSPost2010PropOp47
 70
     1
102
RTVSPost2010Prop48
 90
       50
102
RTVSPost2010PropOp48
 70
     1
102
RTVSPost2010Prop49
280
     0
102
RTVSPost2010PropOp49
 70
     1
102
RTVSPost2010Prop50
 90
       50
102
RTVSPost2010PropOp50
 70
     1
102
RTVSPost2010Prop51ColorIndex
 90
      256
102
RTVSPost2010Prop51ColorRGB
 90
-16777216
102
RTVSPost2010PropOp51
 70
     0
102
RTVSPost2010Prop52
140
1.0
102
RTVSPost2010PropOp52
 70
     0
102
RTVSPost2010Prop53
 90
        2
102
RTVSPost2010PropOp53
 70
     1
102
RTVSPost2010Prop54
  1
strokes_ogs.tif
102
RTVSPost2010PropOp54
 70
     1
102
RTVSPost2010Prop55
280
     0
102
RTVSPost2010PropOp55
 70
     1
102
RTVSPost2010Prop56
140
1.0
102
RTVSPost2010PropOp56
 70
     1
102
RTVSPost2010Prop57
140
1.0
102
RTVSPost2010PropOp57
 70
     1
  0
XRECORD
  5
262
102
{ACAD_REACTORS
330
261
102
}
330
261
100
AcDbXrecord
280
     1
102
RTVSPropertyOp0
 70
     1
102
RTVSPropertyOp1
 70
     1
102
RTVSPropertyOp2
 70
     1
102
RTVSPropertyOp3
 70
     1
102
RTVSPropertyOp4
 70
     1
102
RTVSPropertyOp5
 70
     1
102
RTVSPropertyOp6
 70
     1
102
RTVSPropertyOp7
 70
     1
102
RTVSPropertyOp8
 70
     1
102
RTVSPropertyOp9
 70
     1
102
RTVSPropertyOp10
 70
     1
102
RTVSPropertyOp11
 70
     1
102
RTVSPropertyOp12
 70
     1
102
RTVSPropertyOp13
 70
     1
102
RTVSPropertyOp14
 70
     1
102
RTVSPropertyOp15
 70
     1
102
RTVSPropertyOp16
 70
     1
102
RTVSPropertyOp17
 70
     1
102
RTVSPropertyOp18
 70
     1
102
RTVSPropertyOp19
 70
     1
102
RTVSPropertyOp20
 70
     1
102
RTVSPropertyOp21
 70
     1
102
RTVSPropertyOp22
 70
     1
102
RTVSPropertyOp23
 70
     1
102
RTVSPropertyOp24
 70
     1
102
RTVSPropertyOp25
 70
     1
102
RTVSPropertyOp26
 70
     1
102
RTVSPropertyOp27
 70
     1
102
RTVSPropertyOp28
 70
     1
102
RTVSPropertyOp29
 70
     1
102
RTVSPropertyOp30
 70
     1
102
RTVSPropertyOp31
 70
     1
102
RTVSPropertyOp32
 70
     1
102
RTVSPropertyOp33
 70
     1
102
RTVSPropertyOp34
 70
     1
102
RTVSPropertyOp35
 70
     1
102
RTVSPropertyOp36
 70
     1
102
RTVSPropertyOp37
 70
     1
102
RTVSPropertyOp38
 70
     1
102
RTVSPropertyOp39
 70
     1
102
RTVSPropertyOp40
 70
     1
102
RTVSPropertyOp41
 70
     1
102
RTVSPropertyOp42
 70
     1
102
RTVSPropertyOp43
 70
     1
102
RTVSPropertyOp44
 70
     1
102
RTVSPropertyOp45
 70
     1
102
RTVSPropertyOp46
 70
     1
102
RTVSPropertyOp47
 70
     1
102
RTVSPropertyOp48
 70
     1
102
RTVSPropertyOp49
 70
     1
102
RTVSPropertyOp50
 70
     1
102
RTVSPropertyOp51
 70
     0
102
RTVSPropertyOp52
 70
     0
102
RTVSPropertyOp53
 70
     1
102
RTVSPropertyOp54
 70
     1
102
RTVSPropertyOp55
 70
     1
102
RTVSPropertyOp56
 70
     1
102
RTVSPropertyOp57
 70
     1
102
RTVSPost2010Prop28
280
     0
102
RTVSPost2010PropOp28
 70
     1
102
RTVSPost2010Prop29
280
     1
102
RTVSPost2010PropOp29
 70
     1
102
RTVSPost2010Prop30
280
     1
102
RTVSPost2010PropOp30
 70
     1
102
RTVSPost2010Prop31
280
     0
102
RTVSPost2010PropOp31
 70
     1
102
RTVSPost2010Prop32
280
     0
102
RTVSPost2010PropOp32
 70
     1
102
RTVSPost2010Prop33
280
     0
102
RTVSPost2010PropOp33
 70
     1
102
RTVSPost2010Prop34
280
     0
102
RTVSPost2010PropOp34
 70
     1
102
RTVSPost2010Prop35
280
     0
102
RTVSPost2010PropOp35
 70
     1
102
RTVSPost2010Prop36
280
     0
102
RTVSPost2010PropOp36
 70
     1
102
RTVSPost2010Prop37
 90
       50
102
RTVSPost2010PropOp37
 70
     1
102
RTVSPost2010Prop38
140
0.0
102
RTVSPost2010PropOp38
 70
     1
102
RTVSPost2010Prop39
140
1.0
102
RTVSPost2010PropOp39
 70
     1
102
RTVSPost2010Prop40
 90
        0
102
RTVSPost2010PropOp40
 70
     1
102
RTVSPost2010Prop41ColorIndex
 90
       18
102
RTVSPost2010Prop41ColorRGB
 90
        0
102
RTVSPost2010PropOp41
 70
     1
102
RTVSPost2010Prop42
 90
       50
102
RTVSPost2010PropOp42
 70
     1
102
RTVSPost2010Prop43
 90
        3
102
RTVSPost2010PropOp43
 70
     1
102
RTVSPost2010Prop44ColorIndex
 90
        5
102
RTVSPost2010Prop44ColorRGB
 90
      255
102
RTVSPost2010PropOp44
 70
     1
102
RTVSPost2010Prop45
280
     0
102
RTVSPost2010PropOp45
 70
     1
102
RTVSPost2010Prop46
 90
       50
102
RTVSPost2010PropOp46
 70
     1
102
RTVSPost2010Prop47
 90
       50
102
RTVSPost2010PropOp47
 70
     1
102
RTVSPost2010Prop48
 90
       50
102
RTVSPost2010PropOp48
 70
     1
102
RTVSPost2010Prop49
280
     0
102
RTVSPost2010PropOp49
 70
     1
102
RTVSPost2010Prop50
 90
       50
102
RTVSPost2010PropOp50
 70
     1
102
RTVSPost2010Prop51ColorIndex
 90
      256
102
RTVSPost2010Prop51ColorRGB
 90
-16777216
102
RTVSPost2010PropOp51
 70
     0
102
RTVSPost2010Prop52
140
1.0
102
RTVSPost2010PropOp52
 70
     0
102
RTVSPost2010Prop53
 90
        2
102
RTVSPost2010PropOp53
 70
     1
102
RTVSPost2010Prop54
  1
strokes_ogs.tif
102
RTVSPost2010PropOp54
 70
     1
102
RTVSPost2010Prop55
280
     0
102
RTVSPost2010PropOp55
 70
     1
102
RTVSPost2010Prop56
140
1.0
102
RTVSPost2010PropOp56
 70
     1
102
RTVSPost2010Prop57
140
1.0
102
RTVSPost2010PropOp57
 70
     1
  0
ENDSEC
  0
EOF
