  0
SECTION
  2
HEADER
  9
$ACADVER
  1
AC1018
  9
$ACADMAINTVER
 70
     0
  9
$DWGCODEPAGE
  3
ANSI_1252
  9
$INSBASE
 10
0.0
 20
0.0
 30
0.0
  9
$EXTMIN
 10
-415.499999999989
 20
-267.0000000000051
 30
0.0
  9
$EXTMAX
 10
-118.4999999999909
 20
-57.000000000005
 30
0.0
  9
$LIMMIN
 10
0.0
 20
0.0
  9
$LIMMAX
 10
12.0
 20
9.0
  9
$ORTHOMODE
 70
     0
  9
$REGENMODE
 70
     1
  9
$FILLMODE
 70
     1
  9
$QTEXTMODE
 70
     0
  9
$MIRRTEXT
 70
     1
  9
$LTSCALE
 40
1.0
  9
$ATTMODE
 70
     1
  9
$TEXTSIZE
 40
0.2
  9
$TRACEWID
 40
0.05
  9
$TEXTSTYLE
  7
Standard
  9
$CLAYER
  8
0
  9
$CELTYPE
  6
ByLayer
  9
$CECOLOR
 62
   256
  9
$CELTSCALE
 40
1.0
  9
$DISPSILH
 70
     0
  9
$DIMSCALE
 40
1.0
  9
$DIMASZ
 40
0.18
  9
$DIMEXO
 40
0.0625
  9
$DIMDLI
 40
0.38
  9
$DIMRND
 40
0.0
  9
$DIMDLE
 40
0.0
  9
$DIMEXE
 40
0.18
  9
$DIMTP
 40
0.0
  9
$DIMTM
 40
0.0
  9
$DIMTXT
 40
0.18
  9
$DIMCEN
 40
0.09
  9
$DIMTSZ
 40
0.0
  9
$DIMTOL
 70
     0
  9
$DIMLIM
 70
     0
  9
$DIMTIH
 70
     1
  9
$DIMTOH
 70
     1
  9
$DIMSE1
 70
     0
  9
$DIMSE2
 70
     0
  9
$DIMTAD
 70
     0
  9
$DIMZIN
 70
     0
  9
$DIMBLK
  1

  9
$DIMASO
 70
     1
  9
$DIMSHO
 70
     1
  9
$DIMPOST
  1

  9
$DIMAPOST
  1

  9
$DIMALT
 70
     0
  9
$DIMALTD
 70
     2
  9
$DIMALTF
 40
25.4
  9
$DIMLFAC
 40
1.0
  9
$DIMTOFL
 70
     0
  9
$DIMTVP
 40
0.0
  9
$DIMTIX
 70
     0
  9
$DIMSOXD
 70
     0
  9
$DIMSAH
 70
     0
  9
$DIMBLK1
  1

  9
$DIMBLK2
  1

  9
$DIMSTYLE
  2
Standard
  9
$DIMCLRD
 70
     0
  9
$DIMCLRE
 70
     0
  9
$DIMCLRT
 70
     0
  9
$DIMTFAC
 40
1.0
  9
$DIMGAP
 40
0.09
  9
$DIMJUST
 70
     0
  9
$DIMSD1
 70
     0
  9
$DIMSD2
 70
     0
  9
$DIMTOLJ
 70
     1
  9
$DIMTZIN
 70
     0
  9
$DIMALTZ
 70
     0
  9
$DIMALTTZ
 70
     0
  9
$DIMUPT
 70
     0
  9
$DIMDEC
 70
     4
  9
$DIMTDEC
 70
     4
  9
$DIMALTU
 70
     2
  9
$DIMALTTD
 70
     2
  9
$DIMTXSTY
  7
Standard
  9
$DIMAUNIT
 70
     0
  9
$DIMADEC
 70
     0
  9
$DIMALTRND
 40
0.0
  9
$DIMAZIN
 70
     0
  9
$DIMDSEP
 70
    46
  9
$DIMATFIT
 70
     3
  9
$DIMFRAC
 70
     0
  9
$DIMLDRBLK
  1

  9
$DIMLUNIT
 70
     2
  9
$DIMLWD
 70
    -2
  9
$DIMLWE
 70
    -2
  9
$DIMTMOVE
 70
     0
  9
$LUNITS
 70
     2
  9
$LUPREC
 70
     4
  9
$SKETCHINC
 40
0.1
  9
$FILLETRAD
 40
0.5
  9
$AUNITS
 70
     0
  9
$AUPREC
 70
     0
  9
$MENU
  1
.
  9
$ELEVATION
 40
0.0
  9
$PELEVATION
 40
0.0
  9
$THICKNESS
 40
0.0
  9
$LIMCHECK
 70
     0
  9
$CHAMFERA
 40
0.5
  9
$CHAMFERB
 40
0.5
  9
$CHAMFERC
 40
1.0
  9
$CHAMFERD
 40
0.0
  9
$SKPOLY
 70
     0
  9
$TDCREATE
 40
2458375.585618102
  9
$TDUCREATE
 40
2458375.502284769
  9
$TDUPDATE
 40
2458375.585618646
  9
$TDUUPDATE
 40
2458375.502285312
  9
$TDINDWG
 40
0.0000000116
  9
$TDUSRTIMER
 40
0.0000000116
  9
$USRTIMER
 70
     1
  9
$ANGBASE
 50
0.0
  9
$ANGDIR
 70
     0
  9
$PDMODE
 70
     0
  9
$PDSIZE
 40
0.0
  9
$PLINEWID
 40
0.0
  9
$SPLFRAME
 70
     0
  9
$SPLINETYPE
 70
     6
  9
$SPLINESEGS
 70
     8
  9
$HANDSEED
  5
371
  9
$SURFTAB1
 70
     6
  9
$SURFTAB2
 70
     6
  9
$SURFTYPE
 70
     6
  9
$SURFU
 70
     6
  9
$SURFV
 70
     6
  9
$UCSBASE
  2

  9
$UCSNAME
  2

  9
$UCSORG
 10
0.0
 20
0.0
 30
0.0
  9
$UCSXDIR
 10
1.0
 20
0.0
 30
0.0
  9
$UCSYDIR
 10
0.0
 20
1.0
 30
0.0
  9
$UCSORTHOREF
  2

  9
$UCSORTHOVIEW
 70
     0
  9
$UCSORGTOP
 10
0.0
 20
0.0
 30
0.0
  9
$UCSORGBOTTOM
 10
0.0
 20
0.0
 30
0.0
  9
$UCSORGLEFT
 10
0.0
 20
0.0
 30
0.0
  9
$UCSORGRIGHT
 10
0.0
 20
0.0
 30
0.0
  9
$UCSORGFRONT
 10
0.0
 20
0.0
 30
0.0
  9
$UCSORGBACK
 10
0.0
 20
0.0
 30
0.0
  9
$PUCSBASE
  2

  9
$PUCSNAME
  2

  9
$PUCSORG
 10
0.0
 20
0.0
 30
0.0
  9
$PUCSXDIR
 10
1.0
 20
0.0
 30
0.0
  9
$PUCSYDIR
 10
0.0
 20
1.0
 30
0.0
  9
$PUCSORTHOREF
  2

  9
$PUCSORTHOVIEW
 70
     0
  9
$PUCSORGTOP
 10
0.0
 20
0.0
 30
0.0
  9
$PUCSORGBOTTOM
 10
0.0
 20
0.0
 30
0.0
  9
$PUCSORGLEFT
 10
0.0
 20
0.0
 30
0.0
  9
$PUCSORGRIGHT
 10
0.0
 20
0.0
 30
0.0
  9
$PUCSORGFRONT
 10
0.0
 20
0.0
 30
0.0
  9
$PUCSORGBACK
 10
0.0
 20
0.0
 30
0.0
  9
$USERI1
 70
     0
  9
$USERI2
 70
     0
  9
$USERI3
 70
     0
  9
$USERI4
 70
     0
  9
$USERI5
 70
     0
  9
$USERR1
 40
18.1
  9
$USERR2
 40
0.0
  9
$USERR3
 40
0.0
  9
$USERR4
 40
0.0
  9
$USERR5
 40
0.0
  9
$WORLDVIEW
 70
     1
  9
$SHADEDGE
 70
     3
  9
$SHADEDIF
 70
    70
  9
$TILEMODE
 70
     1
  9
$MAXACTVP
 70
    64
  9
$PINSBASE
 10
0.0
 20
0.0
 30
0.0
  9
$PLIMCHECK
 70
     0
  9
$PEXTMIN
 10
1.00000000000000E+20
 20
1.00000000000000E+20
 30
1.00000000000000E+20
  9
$PEXTMAX
 10
-1.00000000000000E+20
 20
-1.00000000000000E+20
 30
-1.00000000000000E+20
  9
$PLIMMIN
 10
0.0
 20
0.0
  9
$PLIMMAX
 10
12.0
 20
9.0
  9
$UNITMODE
 70
     0
  9
$VISRETAIN
 70
     1
  9
$PLINEGEN
 70
     0
  9
$PSLTSCALE
 70
     1
  9
$TREEDEPTH
 70
  3020
  9
$CMLSTYLE
  2
Standard
  9
$CMLJUST
 70
     0
  9
$CMLSCALE
 40
1.0
  9
$PROXYGRAPHICS
 70
     1
  9
$MEASUREMENT
 70
     1
  9
$CELWEIGHT
370
    -1
  9
$ENDCAPS
280
     0
  9
$JOINSTYLE
280
     0
  9
$LWDISPLAY
290
     0
  9
$INSUNITS
 70
     4
  9
$HYPERLINKBASE
  1

  9
$STYLESHEET
  1

  9
$XEDIT
290
     1
  9
$CEPSNTYPE
380
     0
  9
$PSTYLEMODE
290
     1
  9
$FINGERPRINTGUID
  2
{0171FDCF-A467-4B2C-B10D-2027B2B7E575}
  9
$VERSIONGUID
  2
{FAEB1C32-E019-11D5-929B-00C0DF256EC4}
  9
$EXTNAMES
290
     1
  9
$PSVPSCALE
 40
0.0
  9
$OLESTARTUP
290
     0
  9
$SORTENTS
280
   127
  9
$INDEXCTL
280
     0
  9
$HIDETEXT
280
     1
  9
$XCLIPFRAME
290
     0
  9
$HALOGAP
280
     0
  9
$OBSCOLOR
 70
   257
  9
$OBSLTYPE
280
     0
  9
$INTERSECTIONDISPLAY
280
     0
  9
$INTERSECTIONCOLOR
 70
   257
  9
$DIMASSOC
280
     2
  9
$PROJECTNAME
  1

  0
ENDSEC
  0
SECTION
  2
CLASSES
  0
CLASS
  1
ACDBDICTIONARYWDFLT
  2
AcDbDictionaryWithDefault
  3
ObjectDBX Classes
 90
        0
 91
        4
280
     0
281
     0
  0
CLASS
  1
VISUALSTYLE
  2
AcDbVisualStyle
  3
ObjectDBX Classes
 90
     4095
 91
        4
280
     0
281
     0
  0
CLASS
  1
MATERIAL
  2
AcDbMaterial
  3
ObjectDBX Classes
 90
     1153
 91
        4
280
     0
281
     0
  0
ENDSEC
  0
SECTION
  2
TABLES
  0
TABLE
  2
VPORT
  5
8
330
0
100
AcDbSymbolTable
 70
     1
  0
VPORT
  5
29
330
8
100
AcDbSymbolTableRecord
100
AcDbViewportTableRecord
  2
*Active
 70
     0
 10
0.0
 20
0.0
 11
1.0
 21
1.0
 12
-266.9999999999899
 22
-162.0000000000051
 13
0.0
 23
0.0
 14
0.5
 24
0.5
 15
0.5
 25
0.5
 16
0.0
 26
0.0
 36
1.0
 17
0.0
 27
0.0
 37
0.0
 40
231.0000000000001
 41
1.60267857142857
 42
50.0
 43
0.0
 44
0.0
 50
0.0
 51
0.0
 71
     0
 72
   100
 73
     1
 74
     3
 75
     0
 76
     0
 77
     0
 78
     0
281
     0
 65
     1
110
0.0
120
0.0
130
0.0
111
1.0
121
0.0
131
0.0
112
0.0
122
1.0
132
0.0
 79
     0
146
0.0
  0
ENDTAB
  0
TABLE
  2
LTYPE
  5
5
330
0
100
AcDbSymbolTable
 70
     8
  0
LTYPE
  5
14
330
5
100
AcDbSymbolTableRecord
100
AcDbLinetypeTableRecord
  2
ByBlock
 70
     0
  3

 72
    65
 73
     0
 40
0.0
  0
LTYPE
  5
15
330
5
100
AcDbSymbolTableRecord
100
AcDbLinetypeTableRecord
  2
ByLayer
 70
     0
  3

 72
    65
 73
     0
 40
0.0
  0
LTYPE
  5
16
330
5
100
AcDbSymbolTableRecord
100
AcDbLinetypeTableRecord
  2
Continuous
 70
     0
  3
Solid line
 72
    65
 73
     0
 40
0.0
  0
LTYPE
  5
3F
330
5
100
AcDbSymbolTableRecord
100
AcDbLinetypeTableRecord
  2
DASHED
 70
     0
  3
Dashed
 72
    65
 73
     2
 40
15.0
 49
7.0
 74
     0
 49
-8.0
 74
     0
  0
LTYPE
  5
40
330
5
100
AcDbSymbolTableRecord
100
AcDbLinetypeTableRecord
  2
DOTTED
 70
     0
  3
Dotted
 72
    65
 73
     2
 40
1.0
 49
0.0
 74
     0
 49
-1.0
 74
     0
  0
LTYPE
  5
41
330
5
100
AcDbSymbolTableRecord
100
AcDbLinetypeTableRecord
  2
DOT_CENTER
 70
     0
  3
Dot_Center
 72
    65
 73
     4
 40
14.0
 49
12.0
 74
     0
 49
-1.0
 74
     0
 49
0.0
 74
     0
 49
-1.0
 74
     0
  0
LTYPE
  5
42
330
5
100
AcDbSymbolTableRecord
100
AcDbLinetypeTableRecord
  2
LONG_DASHED
 70
     0
  3
Long_Dashed
 72
    65
 73
     2
 40
15.0
 49
10.0
 74
     0
 49
-5.0
 74
     0
  0
LTYPE
  5
43
330
5
100
AcDbSymbolTableRecord
100
AcDbLinetypeTableRecord
  2
DASH_CENTER
 70
     0
  3
Dash_Center
 72
    65
 73
     4
 40
14.0
 49
11.0
 74
     0
 49
-1.0
 74
     0
 49
1.0
 74
     0
 49
-1.0
 74
     0
  0
LTYPE
  5
44
330
5
100
AcDbSymbolTableRecord
100
AcDbLinetypeTableRecord
  2
PHANTOM
 70
     0
  3
Phantom
 72
    65
 73
     6
 40
13.0
 49
10.0
 74
     0
 49
-1.0
 74
     0
 49
0.0
 74
     0
 49
-1.0
 74
     0
 49
0.0
 74
     0
 49
-1.0
 74
     0
  0
LTYPE
  5
45
330
5
100
AcDbSymbolTableRecord
100
AcDbLinetypeTableRecord
  2
CENTER_DASH_DASH
 70
     0
  3
Center_Dash_Dash
 72
    65
 73
     6
 40
14.0
 49
9.0
 74
     0
 49
-1.0
 74
     0
 49
1.0
 74
     0
 49
-1.0
 74
     0
 49
1.0
 74
     0
 49
-1.0
 74
     0
  0
ENDTAB
  0
TABLE
  2
LAYER
  5
2
330
0
100
AcDbSymbolTable
 70
     2
  0
LAYER
  5
10
330
2
100
AcDbSymbolTableRecord
100
AcDbLayerTableRecord
  2
0
 70
     0
 62
     7
  6
Continuous
370
    -3
390
F
  0
LAYER
  5
46
330
2
100
AcDbSymbolTableRecord
100
AcDbLayerTableRecord
  2
1
 70
     0
 62
     7
  6
Continuous
370
    -3
390
F
  0
ENDTAB
  0
TABLE
  2
STYLE
  5
3
330
0
100
AcDbSymbolTable
 70
     5
  0
STYLE
  5
11
330
3
100
AcDbSymbolTableRecord
100
AcDbTextStyleTableRecord
  2
Standard
 70
     0
 40
0.0
 41
1.0
 50
0.0
 71
     0
 42
0.2
  3
txt
  4

  0
STYLE
  5
BE
330
3
100
AcDbSymbolTableRecord
100
AcDbTextStyleTableRecord
  2
CONVERTER_11
 70
     0
 40
0.0
 41
0.9
 50
0.0
 71
     0
 42
0.2
  3
txt.shx
  4

  0
STYLE
  5
30C
330
3
100
AcDbSymbolTableRecord
100
AcDbTextStyleTableRecord
  2
CONVERTER_12
 70
     0
 40
0.0
 41
0.81
 50
0.0
 71
     0
 42
0.2
  3
txt.shx
  4

  0
STYLE
  5
322
330
3
100
AcDbSymbolTableRecord
100
AcDbTextStyleTableRecord
  2
CONVERTER_13
 70
     0
 40
0.0
 41
0.72
 50
0.0
 71
     0
 42
0.2
  3
txt.shx
  4

  0
STYLE
  5
325
330
3
100
AcDbSymbolTableRecord
100
AcDbTextStyleTableRecord
  2
CONVERTER_14
 70
     0
 40
0.0
 41
0.855
 50
0.0
 71
     0
 42
0.2
  3
txt.shx
  4

  0
ENDTAB
  0
TABLE
  2
VIEW
  5
6
330
0
100
AcDbSymbolTable
 70
     0
  0
ENDTAB
  0
TABLE
  2
UCS
  5
7
330
0
100
AcDbSymbolTable
 70
     0
  0
ENDTAB
  0
TABLE
  2
APPID
  5
9
330
0
100
AcDbSymbolTable
 70
     1
  0
APPID
  5
12
330
9
100
AcDbSymbolTableRecord
100
AcDbRegAppTableRecord
  2
ACAD
 70
     0
  0
ENDTAB
  0
TABLE
  2
DIMSTYLE
  5
A
330
0
100
AcDbSymbolTable
 70
     4
100
AcDbDimStyleTable
  0
DIMSTYLE
105
27
330
A
100
AcDbSymbolTableRecord
100
AcDbDimStyleTableRecord
  2
Standard
 70
     0
178
     0
340
11
  0
DIMSTYLE
105
10C
102
{ACAD_REACTORS
330
10D
102
}
330
A
100
AcDbSymbolTableRecord
100
AcDbDimStyleTableRecord
  2
ME10_DIM_10
 70
     0
 41
3.5
 42
0.0
 44
1.5
 73
     0
 74
     0
 77
     1
 78
     8
140
3.5
147
1.5
172
     1
173
     1
174
     1
175
     1
176
     2
177
     2
178
     3
340
BE
  0
DIMSTYLE
105
13C
102
{ACAD_REACTORS
330
13D
102
}
330
A
100
AcDbSymbolTableRecord
100
AcDbDimStyleTableRecord
  2
ME10_DIM_11
 70
     0
 41
3.5
 42
0.0
 44
1.5
 73
     0
 74
     0
 77
     1
 78
     8
140
3.5
147
1.5
172
     1
173
     1
174
     1
175
     1
176
     2
177
     2
178
     3
340
BE
  0
DIMSTYLE
105
147
102
{ACAD_REACTORS
330
148
102
}
330
A
100
AcDbSymbolTableRecord
100
AcDbDimStyleTableRecord
  2
ME10_DIM_12
 70
     0
 41
3.5
 42
0.0
 44
1.5
 73
     0
 74
     0
 77
     1
 78
     8
140
3.5
147
1.5
172
     1
173
     1
174
     1
175
     1
176
     2
177
     2
178
     3
340
BE
  0
ENDTAB
  0
TABLE
  2
BLOCK_RECORD
  5
1
330
0
100
AcDbSymbolTable
 70
    20
  0
BLOCK_RECORD
  5
1F
330
1
100
AcDbSymbolTableRecord
100
AcDbBlockTableRecord
  2
*Model_Space
340
22
  0
BLOCK_RECORD
  5
1B
330
1
100
AcDbSymbolTableRecord
100
AcDbBlockTableRecord
  2
*Paper_Space
340
1E
  0
BLOCK_RECORD
  5
23
330
1
100
AcDbSymbolTableRecord
100
AcDbBlockTableRecord
  2
*Paper_Space0
340
26
  0
BLOCK_RECORD
  5
47
330
1
100
AcDbSymbolTableRecord
100
AcDbBlockTableRecord
  2
HC_B_AF-select__1
340
0
102
{BLKREFS
331
4B
102
}
  0
BLOCK_RECORD
  5
4A
330
1
100
AcDbSymbolTableRecord
100
AcDbBlockTableRecord
  2
SA_Links1
340
0
102
{BLKREFS
331
7D
102
}
  0
BLOCK_RECORD
  5
4E
330
1
100
AcDbSymbolTableRecord
100
AcDbBlockTableRecord
  2
HC_B_AF-select__2
340
0
102
{BLKREFS
331
52
102
}
  0
BLOCK_RECORD
  5
51
330
1
100
AcDbSymbolTableRecord
100
AcDbBlockTableRecord
  2
Drfsicht1
340
0
102
{BLKREFS
331
7E
102
}
  0
BLOCK_RECORD
  5
55
330
1
100
AcDbSymbolTableRecord
100
AcDbBlockTableRecord
  2
HC_B_AF-select__3
340
0
102
{BLKREFS
331
59
102
}
  0
BLOCK_RECORD
  5
58
330
1
100
AcDbSymbolTableRecord
100
AcDbBlockTableRecord
  2
Vordans1
340
0
102
{BLKREFS
331
7F
102
}
  0
BLOCK_RECORD
  5
5C
330
1
100
AcDbSymbolTableRecord
100
AcDbBlockTableRecord
  2
HC_B_AF-select__4
340
0
102
{BLKREFS
331
60
102
}
  0
BLOCK_RECORD
  5
5F
330
1
100
AcDbSymbolTableRecord
100
AcDbBlockTableRecord
  2
SA_Rechts1
340
0
102
{BLKREFS
331
80
102
}
  0
BLOCK_RECORD
  5
63
330
1
100
AcDbSymbolTableRecord
100
AcDbBlockTableRecord
  2
HC_B_AF-select__5
340
0
102
{BLKREFS
331
67
102
}
  0
BLOCK_RECORD
  5
66
330
1
100
AcDbSymbolTableRecord
100
AcDbBlockTableRecord
  2
Rckans1
340
0
102
{BLKREFS
331
81
102
}
  0
BLOCK_RECORD
  5
6A
330
1
100
AcDbSymbolTableRecord
100
AcDbBlockTableRecord
  2
HC_B_AF-select__6
340
0
102
{BLKREFS
331
6E
102
}
  0
BLOCK_RECORD
  5
6D
330
1
100
AcDbSymbolTableRecord
100
AcDbBlockTableRecord
  2
Allg1
340
0
102
{BLKREFS
331
82
102
}
  0
BLOCK_RECORD
  5
71
330
1
100
AcDbSymbolTableRecord
100
AcDbBlockTableRecord
  2
_rahmen
340
0
102
{BLKREFS
331
78
102
}
  0
BLOCK_RECORD
  5
74
330
1
100
AcDbSymbolTableRecord
100
AcDbBlockTableRecord
  2
_punkt
340
0
102
{BLKREFS
331
79
102
}
  0
BLOCK_RECORD
  5
77
330
1
100
AcDbSymbolTableRecord
100
AcDbBlockTableRecord
  2
A4I_CS
340
0
102
{BLKREFS
331
83
102
}
  0
BLOCK_RECORD
  5
7C
330
1
100
AcDbSymbolTableRecord
100
AcDbBlockTableRecord
  2
1
340
0
102
{BLKREFS
331
86
102
}
  0
BLOCK_RECORD
  5
103
330
1
100
AcDbSymbolTableRecord
100
AcDbBlockTableRecord
  2
*D17
340
0
  0
BLOCK_RECORD
  5
133
330
1
100
AcDbSymbolTableRecord
100
AcDbBlockTableRecord
  2
*D18
340
0
  0
BLOCK_RECORD
  5
13E
330
1
100
AcDbSymbolTableRecord
100
AcDbBlockTableRecord
  2
*D19
340
0
  0
ENDTAB
  0
ENDSEC
  0
SECTION
  2
BLOCKS
  0
BLOCK
  5
20
330
1F
100
AcDbEntity
  8
0
100
AcDbBlockBegin
  2
*Model_Space
 70
     0
 10
0.0
 20
0.0
 30
0.0
  3
*Model_Space
  1

  0
ENDBLK
  5
21
330
1F
100
AcDbEntity
  8
0
100
AcDbBlockEnd
  0
BLOCK
  5
1C
330
1B
100
AcDbEntity
 67
     1
  8
0
100
AcDbBlockBegin
  2
*Paper_Space
 70
     0
 10
0.0
 20
0.0
 30
0.0
  3
*Paper_Space
  1

  0
ENDBLK
  5
1D
330
1B
100
AcDbEntity
 67
     1
  8
0
100
AcDbBlockEnd
  0
BLOCK
  5
24
330
23
100
AcDbEntity
  8
0
100
AcDbBlockBegin
  2
*Paper_Space0
 70
     0
 10
0.0
 20
0.0
 30
0.0
  3
*Paper_Space0
  1

  0
ENDBLK
  5
25
330
23
100
AcDbEntity
  8
0
100
AcDbBlockEnd
  0
BLOCK
  5
48
330
47
100
AcDbEntity
  8
0
100
AcDbBlockBegin
  2
HC_B_AF-select__1
 70
     0
 10
-270.9999999999399
 20
-112.99999999997
 30
0.0
  3
HC_B_AF-select__1
  1

  0
LINE
  5
87
330
47
100
AcDbEntity
  8
0
  6
Continuous
 62
     7
100
AcDbLine
 10
-251.2679364833398
 20
-102.99999999997
 30
0.0
 11
-252.1499999999399
 21
-102.99999999997
 31
0.0
  0
LINE
  5
88
330
47
100
AcDbEntity
  8
0
  6
Continuous
 62
     7
100
AcDbLine
 10
-248.342778128246
 20
-98.99999999996999
 30
0.0
 11
-248.342778128246
 21
-102.99999999997
 31
0.0
  0
LINE
  5
89
330
47
100
AcDbEntity
  8
0
  6
Continuous
 62
     7
100
AcDbLine
 10
-248.342778128246
 20
-98.99999999996999
 30
0.0
 11
-249.3427781298187
 21
-98.99999999996999
 31
0.0
  0
LINE
  5
8A
330
47
100
AcDbEntity
  8
0
  6
Continuous
 62
     2
100
AcDbLine
 10
-249.3427781298187
 20
-98.99999999996999
 30
0.0
 11
-249.3427781298187
 21
-102.99999999997
 31
0.0
  0
LINE
  5
8B
330
47
100
AcDbEntity
  8
0
  6
Continuous
 62
     2
100
AcDbLine
 10
-251.2679364833398
 20
-98.99999999996999
 30
0.0
 11
-251.2679364833398
 21
-102.99999999997
 31
0.0
  0
LINE
  5
8C
330
47
100
AcDbEntity
  8
0
  6
Continuous
 62
     7
100
AcDbLine
 10
-250.3832389028354
 20
-98.99999999996999
 30
0.0
 11
-251.2679364833398
 21
-98.99999999996999
 31
0.0
  0
LINE
  5
8D
330
47
100
AcDbEntity
  8
0
  6
Continuous
 62
     7
100
AcDbLine
 10
-248.342778128246
 20
-102.99999999997
 30
0.0
 11
-249.3427781298187
 21
-102.99999999997
 31
0.0
  0
LINE
  5
8E
330
47
100
AcDbEntity
  8
0
  6
Continuous
 62
     2
100
AcDbLine
 10
-250.3832389028354
 20
-98.99999999996999
 30
0.0
 11
-250.3832389028354
 21
-102.99999999997
 31
0.0
  0
LINE
  5
8F
330
47
100
AcDbEntity
  8
0
  6
Continuous
 62
     7
100
AcDbLine
 10
-250.3832389028354
 20
-98.99999999996999
 30
0.0
 11
-249.3427781298187
 21
-98.99999999996999
 31
0.0
  0
LINE
  5
90
330
47
100
AcDbEntity
  8
0
  6
Continuous
 62
     7
100
AcDbLine
 10
-250.3832389028354
 20
-102.99999999997
 30
0.0
 11
-251.2679364833398
 21
-102.99999999997
 31
0.0
  0
LINE
  5
91
330
47
100
AcDbEntity
  8
0
  6
Continuous
 62
     7
100
AcDbLine
 10
-252.1499999999399
 20
-98.99999999996999
 30
0.0
 11
-251.2679364833398
 21
-98.99999999996999
 31
0.0
  0
LINE
  5
92
330
47
100
AcDbEntity
  8
0
  6
Continuous
 62
     7
100
AcDbLine
 10
-265.9999999999399
 20
-104.99999999997
 30
0.0
 11
-268.9999999995499
 21
-104.99999999997
 31
0.0
  0
LINE
  5
93
330
47
100
AcDbEntity
  8
0
  6
Continuous
 62
     7
100
AcDbLine
 10
-268.9999999995499
 20
-104.99999999997
 30
0.0
 11
-270.9999999999399
 21
-104.99999999997
 31
0.0
  0
LINE
  5
94
330
47
100
AcDbEntity
  8
0
  6
Continuous
 62
     7
100
AcDbLine
 10
-261.9999999999399
 20
-104.99999999997
 30
0.0
 11
-261.9999999999399
 21
-102.99999999997
 31
0.0
  0
LINE
  5
95
330
47
100
AcDbEntity
  8
0
  6
Continuous
 62
     7
100
AcDbLine
 10
-252.1499999999399
 20
-102.99999999997
 30
0.0
 11
-252.1499999999399
 21
-98.99999999996999
 31
0.0
  0
LINE
  5
96
330
47
100
AcDbEntity
  8
0
  6
Continuous
 62
     7
100
AcDbLine
 10
-240.6572218716299
 20
-98.99999999996999
 30
0.0
 11
-248.342778128246
 21
-98.99999999996999
 31
0.0
  0
LINE
  5
97
330
47
100
AcDbEntity
  8
0
  6
Continuous
 62
     7
100
AcDbLine
 10
-228.9999999999399
 20
-107.99999999997
 30
0.0
 11
-230.9999999999399
 21
-107.99999999997
 31
0.0
  0
LINE
  5
98
330
47
100
AcDbEntity
  8
0
  6
Continuous
 62
     7
100
AcDbLine
 10
-237.9999999999399
 20
-104.99999999997
 30
0.0
 11
-237.9999999999399
 21
-107.99999999997
 31
0.0
  0
LINE
  5
99
330
47
100
AcDbEntity
  8
0
  6
Continuous
 62
     7
100
AcDbLine
 10
-237.9999999999399
 20
-98.99999999996999
 30
0.0
 11
-237.9999999999399
 21
-104.99999999997
 31
0.0
  0
LINE
  5
9A
330
47
100
AcDbEntity
  8
0
  6
Continuous
 62
     2
100
AcDbLine
 10
-233.9999999999399
 20
-104.99999999997
 30
0.0
 11
-233.9999999999399
 21
-107.99999999997
 31
0.0
  0
LINE
  5
9B
330
47
100
AcDbEntity
  8
0
  6
Continuous
 62
     2
100
AcDbLine
 10
-231.0000000007099
 20
-104.99999999997
 30
0.0
 11
-230.9999999999399
 21
-107.99999999997
 31
0.0
  0
LINE
  5
9C
330
47
100
AcDbEntity
  8
0
  6
Continuous
 62
     7
100
AcDbLine
 10
-228.9999999999399
 20
-104.99999999997
 30
0.0
 11
-228.9999999999399
 21
-107.99999999997
 31
0.0
  0
LINE
  5
9D
330
47
100
AcDbEntity
  8
0
  6
Continuous
 62
     7
100
AcDbLine
 10
-228.9999999999399
 20
-107.99999999997
 30
0.0
 11
-228.9999999999399
 21
-112.99999999997
 31
0.0
  0
LINE
  5
9E
330
47
100
AcDbEntity
  8
0
  6
Continuous
 62
     7
100
AcDbLine
 10
-270.9999999999399
 20
-107.99999999997
 30
0.0
 11
-270.9999999999399
 21
-112.99999999997
 31
0.0
  0
LINE
  5
9F
330
47
100
AcDbEntity
  8
0
  6
Continuous
 62
     7
100
AcDbLine
 10
-270.9999999999399
 20
-104.99999999997
 30
0.0
 11
-270.9999999999399
 21
-107.99999999997
 31
0.0
  0
LINE
  5
A0
330
47
100
AcDbEntity
  8
0
  6
Continuous
 62
     7
100
AcDbLine
 10
-240.6572218716299
 20
-102.99999999997
 30
0.0
 11
-248.342778128246
 21
-102.99999999997
 31
0.0
  0
LINE
  5
A1
330
47
100
AcDbEntity
  8
0
  6
Continuous
 62
     7
100
AcDbLine
 10
-228.9999999999399
 20
-104.99999999997
 30
0.0
 11
-231.0000000007099
 21
-104.99999999997
 31
0.0
  0
LINE
  5
A2
330
47
100
AcDbEntity
  8
0
  6
Continuous
 62
     7
100
AcDbLine
 10
-265.9999999999399
 20
-104.99999999997
 30
0.0
 11
-261.9999999999399
 21
-104.99999999997
 31
0.0
  0
LINE
  5
A3
330
47
100
AcDbEntity
  8
0
  6
Continuous
 62
     7
100
AcDbLine
 10
-237.9999999999399
 20
-104.99999999997
 30
0.0
 11
-233.9999999999399
 21
-104.99999999997
 31
0.0
  0
LINE
  5
A4
330
47
100
AcDbEntity
  8
0
  6
Continuous
 62
     7
100
AcDbLine
 10
-233.9999999999399
 20
-104.99999999997
 30
0.0
 11
-231.0000000007099
 21
-104.99999999997
 31
0.0
  0
LINE
  5
A5
330
47
100
AcDbEntity
  8
0
  6
Continuous
 62
     7
100
AcDbLine
 10
-252.1499999999399
 20
-102.99999999997
 30
0.0
 11
-260.9999999999399
 21
-102.99999999997
 31
0.0
  0
LINE
  5
A6
330
47
100
AcDbEntity
  8
0
  6
Continuous
 62
     7
100
AcDbLine
 10
-261.9999999999399
 20
-107.99999999997
 30
0.0
 11
-260.9999999999399
 21
-107.99999999997
 31
0.0
  0
LINE
  5
A7
330
47
100
AcDbEntity
  8
0
  6
Continuous
 62
     7
100
AcDbLine
 10
-261.9999999999399
 20
-102.99999999997
 30
0.0
 11
-260.9999999999399
 21
-102.99999999997
 31
0.0
  0
LINE
  5
A8
330
47
100
AcDbEntity
  8
0
  6
Continuous
 62
     7
100
AcDbLine
 10
-261.9999999999399
 20
-107.99999999997
 30
0.0
 11
-261.9999999999399
 21
-104.99999999997
 31
0.0
  0
LINE
  5
A9
330
47
100
AcDbEntity
  8
0
  6
Continuous
 62
     2
100
AcDbLine
 10
-265.9999999999399
 20
-104.99999999997
 30
0.0
 11
-265.9999999999399
 21
-107.99999999997
 31
0.0
  0
LINE
  5
AA
330
47
100
AcDbEntity
  8
0
  6
Continuous
 62
     7
100
AcDbLine
 10
-265.9999999999399
 20
-107.99999999997
 30
0.0
 11
-261.9999999999399
 21
-107.99999999997
 31
0.0
  0
LINE
  5
AB
330
47
100
AcDbEntity
  8
0
  6
Continuous
 62
     2
100
AcDbLine
 10
-260.9999999999399
 20
-102.99999999997
 30
0.0
 11
-260.9999999999399
 21
-107.99999999997
 31
0.0
  0
LINE
  5
AC
330
47
100
AcDbEntity
  8
0
  6
Continuous
 62
     7
100
AcDbLine
 10
-268.9999999995499
 20
-107.99999999997
 30
0.0
 11
-270.9999999999399
 21
-107.99999999997
 31
0.0
  0
LINE
  5
AD
330
47
100
AcDbEntity
  8
0
  6
Continuous
 62
     7
100
AcDbLine
 10
-268.9999999995499
 20
-107.99999999997
 30
0.0
 11
-265.9999999999399
 21
-107.99999999997
 31
0.0
  0
LINE
  5
AE
330
47
100
AcDbEntity
  8
0
  6
Continuous
 62
     2
100
AcDbLine
 10
-268.9999999995499
 20
-107.99999999997
 30
0.0
 11
-268.9999999996399
 21
-112.99999999997
 31
0.0
  0
LINE
  5
AF
330
47
100
AcDbEntity
  8
0
  6
Continuous
 62
     2
100
AcDbLine
 10
-268.9999999995499
 20
-104.99999999997
 30
0.0
 11
-268.9999999995499
 21
-107.99999999997
 31
0.0
  0
LINE
  5
B0
330
47
100
AcDbEntity
  8
0
  6
Continuous
 62
     7
100
AcDbLine
 10
-239.6572218708499
 20
-102.99999999997
 30
0.0
 11
-240.6572218716299
 21
-102.99999999997
 31
0.0
  0
LINE
  5
B1
330
47
100
AcDbEntity
  8
0
  6
Continuous
 62
     7
100
AcDbLine
 10
-239.6572218708499
 20
-98.99999999996999
 30
0.0
 11
-238.9999999999399
 21
-98.99999999996999
 31
0.0
  0
LINE
  5
B2
330
47
100
AcDbEntity
  8
0
  6
Continuous
 62
     7
100
AcDbLine
 10
-240.6572218716299
 20
-102.99999999997
 30
0.0
 11
-240.6572218716299
 21
-98.99999999996999
 31
0.0
  0
LINE
  5
B3
330
47
100
AcDbEntity
  8
0
  6
Continuous
 62
     2
100
AcDbLine
 10
-239.6572218708499
 20
-98.99999999996999
 30
0.0
 11
-239.6572218708499
 21
-102.99999999997
 31
0.0
  0
LINE
  5
B4
330
47
100
AcDbEntity
  8
0
  6
Continuous
 62
     7
100
AcDbLine
 10
-240.6572218716299
 20
-98.99999999996999
 30
0.0
 11
-239.6572218708499
 21
-98.99999999996999
 31
0.0
  0
LINE
  5
B5
330
47
100
AcDbEntity
  8
0
  6
Continuous
 62
     7
100
AcDbLine
 10
-238.9999999999399
 20
-107.99999999997
 30
0.0
 11
-237.9999999999399
 21
-107.99999999997
 31
0.0
  0
LINE
  5
B6
330
47
100
AcDbEntity
  8
0
  6
Continuous
 62
     7
100
AcDbLine
 10
-237.9999999999399
 20
-107.99999999997
 30
0.0
 11
-233.9999999999399
 21
-107.99999999997
 31
0.0
  0
LINE
  5
B7
330
47
100
AcDbEntity
  8
0
  6
Continuous
 62
     7
100
AcDbLine
 10
-233.9999999999399
 20
-107.99999999997
 30
0.0
 11
-230.9999999999399
 21
-107.99999999997
 31
0.0
  0
LINE
  5
B8
330
47
100
AcDbEntity
  8
0
  6
Continuous
 62
     7
100
AcDbLine
 10
-237.9999999999399
 20
-98.99999999996999
 30
0.0
 11
-238.9999999999399
 21
-98.99999999996999
 31
0.0
  0
LINE
  5
B9
330
47
100
AcDbEntity
  8
0
  6
Continuous
 62
     2
100
AcDbLine
 10
-230.9999999999399
 20
-107.99999999997
 30
0.0
 11
-230.9999999999399
 21
-112.99999999997
 31
0.0
  0
LINE
  5
BA
330
47
100
AcDbEntity
  8
0
  6
Continuous
 62
     2
100
AcDbLine
 10
-238.9999999999399
 20
-98.99999999996999
 30
0.0
 11
-238.9999999999399
 21
-107.99999999997
 31
0.0
  0
LINE
  5
BB
330
47
100
AcDbEntity
  8
0
  6
Continuous
 62
     7
100
AcDbLine
 10
-268.9999999996399
 20
-112.99999999997
 30
0.0
 11
-270.9999999999399
 21
-112.99999999997
 31
0.0
  0
LINE
  5
BC
330
47
100
AcDbEntity
  8
0
  6
Continuous
 62
     7
100
AcDbLine
 10
-228.9999999999399
 20
-112.99999999997
 30
0.0
 11
-230.9999999999399
 21
-112.99999999997
 31
0.0
  0
LINE
  5
BD
330
47
100
AcDbEntity
  8
0
  6
Continuous
 62
     7
100
AcDbLine
 10
-230.9999999999399
 20
-112.99999999997
 30
0.0
 11
-268.9999999996399
 21
-112.99999999997
 31
0.0
  0
ENDBLK
  5
49
330
47
100
AcDbEntity
  8
0
100
AcDbBlockEnd
  0
BLOCK
  5
4C
330
4A
100
AcDbEntity
  8
0
100
AcDbBlockBegin
  2
SA_Links1
 70
     0
 10
-249.99999999996
 20
-105.99999999998
 30
0.0
  3
SA_Links1
  1

  0
INSERT
  5
4B
330
4A
100
AcDbEntity
  8
0
100
AcDbBlockReference
  2
HC_B_AF-select__1
 10
-270.9999999999399
 20
-112.99999999997
 30
0.0
  0
MTEXT
  5
BF
330
4A
100
AcDbEntity
  8
1
 62
     6
100
AcDbMText
 10
-249.99999999996
 20
-117.99999999998
 30
0.0
 40
5.0
 41
0.0
 71
     2
 72
     1
  1
 
  7
CONVERTER_11
 73
     1
 44
1.32052821128451
  0
ENDBLK
  5
4D
330
4A
100
AcDbEntity
  8
0
100
AcDbBlockEnd
  0
BLOCK
  5
4F
330
4E
100
AcDbEntity
  8
0
100
AcDbBlockBegin
  2
HC_B_AF-select__2
 70
     0
 10
-311.5000006184289
 20
-195.7179443278693
 30
0.0
  3
HC_B_AF-select__2
  1

  0
LINE
  5
C0
330
4E
100
AcDbEntity
  8
0
  6
Continuous
 62
     7
100
AcDbLine
 10
-298.9000006184288
 20
-153.7179443278693
 30
0.0
 11
-293.0000006184225
 21
-153.7179443278694
 31
0.0
  0
LINE
  5
C1
330
4E
100
AcDbEntity
  8
0
  6
Continuous
 62
     7
100
AcDbLine
 10
-291.0000006184259
 20
-155.7179443278693
 30
0.0
 11
-291.0000006184256
 21
-162.7179443278693
 31
0.0
  0
LINE
  5
C2
330
4E
100
AcDbEntity
  8
0
  6
Continuous
 62
     7
100
AcDbLine
 10
-310.5000006184256
 20
-162.7179443278693
 30
0.0
 11
-304.9000006184256
 21
-162.7179443278693
 31
0.0
  0
LINE
  5
C3
330
4E
100
AcDbEntity
  8
0
  6
Continuous
 62
     7
100
AcDbLine
 10
-304.9000006184256
 20
-162.7179443278693
 30
0.0
 11
-300.5000006184256
 21
-162.7179443278693
 31
0.0
  0
LINE
  5
C4
330
4E
100
AcDbEntity
  8
0
  6
Continuous
 62
     7
100
AcDbLine
 10
-311.5000006184256
 20
-174.3347054249738
 30
0.0
 11
-311.5000006184256
 21
-175.3751661979905
 31
0.0
  0
LINE
  5
C5
330
4E
100
AcDbEntity
  8
0
  6
Continuous
 62
     7
100
AcDbLine
 10
-311.5000006184256
 20
-185.0607224569593
 30
0.0
 11
-311.5000006184256
 21
-185.7179443278693
 31
0.0
  0
LINE
  5
C6
330
4E
100
AcDbEntity
  8
0
  6
Continuous
 62
     7
100
AcDbLine
 10
-311.5000006184256
 20
-185.7179443278693
 30
0.0
 11
-311.5000006184256
 21
-193.7179443278693
 31
0.0
  0
LINE
  5
C7
330
4E
100
AcDbEntity
  8
0
  6
Continuous
 62
     7
100
AcDbLine
 10
-311.5000006184256
 20
-185.0607224569593
 30
0.0
 11
-311.5000006184256
 21
-175.3751661979905
 31
0.0
  0
LINE
  5
C8
330
4E
100
AcDbEntity
  8
0
  6
Continuous
 62
     7
100
AcDbLine
 10
-298.5000006184256
 20
-181.7179443278693
 30
0.0
 11
-298.5000006184256
 21
-184.7179443258571
 31
0.0
  0
LINE
  5
C9
330
4E
100
AcDbEntity
  8
0
  6
Continuous
 62
     7
100
AcDbLine
 10
-293.000000618425
 20
-184.7179443278695
 30
0.0
 11
-295.5000006184256
 21
-184.7179443278693
 31
0.0
  0
LINE
  5
CA
330
4E
100
AcDbEntity
  8
0
  6
Continuous
 62
     7
100
AcDbLine
 10
-300.5000006184256
 20
-186.7179443278696
 30
0.0
 11
-303.6620198801156
 21
-186.7179443278693
 31
0.0
  0
LINE
  5
CB
330
4E
100
AcDbEntity
  8
0
  6
Continuous
 62
     7
100
AcDbLine
 10
-291.0000006184256
 20
-186.7179443278693
 30
0.0
 11
-291.0000006184256
 21
-193.7179443278693
 31
0.0
  0
LINE
  5
CC
330
4E
100
AcDbEntity
  8
0
  6
Continuous
 62
     7
100
AcDbLine
 10
-300.9000006184256
 20
-190.7179443278693
 30
0.0
 11
-300.9000006184256
 21
-193.7179443270993
 31
0.0
  0
LINE
  5
CD
330
4E
100
AcDbEntity
  8
0
  6
Continuous
 62
     7
100
AcDbLine
 10
-309.5000006184256
 20
-195.7179443278693
 30
0.0
 11
-298.9000006184256
 21
-195.7179443278693
 31
0.0
  0
LINE
  5
CE
330
4E
100
AcDbEntity
  8
0
  6
Continuous
 62
     7
100
AcDbLine
 10
-304.9000006184256
 20
-186.7179443278693
 30
0.0
 11
-303.6620198801156
 21
-186.7179443278693
 31
0.0
  0
LINE
  5
CF
330
4E
100
AcDbEntity
  8
0
  6
Continuous
 62
     7
100
AcDbLine
 10
-310.5000006184256
 20
-186.7179443278693
 30
0.0
 11
-304.9000006184256
 21
-186.7179443278693
 31
0.0
  0
LINE
  5
D0
330
4E
100
AcDbEntity
  8
0
  6
Continuous
 62
     7
100
AcDbLine
 10
-298.5000006184256
 20
-164.7179443298815
 30
0.0
 11
-298.5000006184256
 21
-167.7179443278693
 31
0.0
  0
LINE
  5
D1
330
4E
100
AcDbEntity
  8
0
  6
Continuous
 62
     7
100
AcDbLine
 10
-300.9000006184256
 20
-158.7179443278693
 30
0.0
 11
-300.9000006184256
 21
-155.7179443282593
 31
0.0
  0
LINE
  5
D2
330
4E
100
AcDbEntity
  8
0
  6
Continuous
 62
     7
100
AcDbLine
 10
-298.9000006184288
 20
-153.7179443278693
 30
0.0
 11
-309.5000006184256
 21
-153.7179443278693
 31
0.0
  0
LINE
  5
D3
330
4E
100
AcDbEntity
  8
0
  6
Continuous
 62
     7
100
AcDbLine
 10
-298.5000006184256
 20
-167.7179443278693
 30
0.0
 11
-298.5000006184256
 21
-181.7179443278693
 31
0.0
  0
LINE
  5
D4
330
4E
100
AcDbEntity
  8
0
  6
Continuous
 62
     7
100
AcDbLine
 10
-311.5000006184256
 20
-174.3347054249738
 30
0.0
 11
-311.5000006184256
 21
-163.7179443278693
 31
0.0
  0
LINE
  5
D5
330
4E
100
AcDbEntity
  8
0
  6
Continuous
 62
     7
100
AcDbLine
 10
-311.5000006184256
 20
-155.7179443281693
 30
0.0
 11
-311.5000006184256
 21
-163.7179443278693
 31
0.0
  0
LINE
  5
D6
330
4E
100
AcDbEntity
  8
0
  6
Continuous
 62
     7
100
AcDbLine
 10
-295.5000006184256
 20
-164.7179443278693
 30
0.0
 11
-293.0000006184256
 21
-164.7179443278693
 31
0.0
  0
LINE
  5
D7
330
4E
100
AcDbEntity
  8
0
  6
Continuous
 62
     7
100
AcDbLine
 10
-298.9000006184256
 20
-195.7179443278693
 30
0.0
 11
-293.0000006184256
 21
-195.7179443278693
 31
0.0
  0
LINE
  5
D8
330
4E
100
AcDbEntity
  8
1
  6
DOT_CENTER
 62
     2
100
AcDbLine
 10
-291.5900006184256
 20
-188.2179443278693
 30
0.0
 11
-296.2100006184257
 21
-188.2179443278693
 31
0.0
  0
LINE
  5
D9
330
4E
100
AcDbEntity
  8
1
  6
DOT_CENTER
 62
     2
100
AcDbLine
 10
-293.9000006184256
 20
-185.9079443278692
 30
0.0
 11
-293.9000006184256
 21
-190.5279443278693
 31
0.0
  0
LINE
  5
DA
330
4E
100
AcDbEntity
  8
1
  6
DOT_CENTER
 62
     2
100
AcDbLine
 10
-291.5900006184257
 20
-161.2179443278693
 30
0.0
 11
-296.2100006184257
 21
-161.2179443278693
 31
0.0
  0
LINE
  5
DB
330
4E
100
AcDbEntity
  8
1
  6
DOT_CENTER
 62
     2
100
AcDbLine
 10
-293.9000006184257
 20
-158.9079443278693
 30
0.0
 11
-293.9000006184257
 21
-163.5279443278693
 31
0.0
  0
LINE
  5
DC
330
4E
100
AcDbEntity
  8
1
  6
DOT_CENTER
 62
     2
100
AcDbLine
 10
-304.0400006184257
 20
-158.7179443278693
 30
0.0
 11
-309.7600006184256
 21
-158.7179443278693
 31
0.0
  0
LINE
  5
DD
330
4E
100
AcDbEntity
  8
1
  6
DOT_CENTER
 62
     2
100
AcDbLine
 10
-306.9000006184256
 20
-155.8579443278693
 30
0.0
 11
-306.9000006184256
 21
-161.5779443278693
 31
0.0
  0
LINE
  5
DE
330
4E
100
AcDbEntity
  8
1
  6
DOT_CENTER
 62
     2
100
AcDbLine
 10
-304.1000006184256
 20
-180.2179443278693
 30
0.0
 11
-310.7000006184256
 21
-180.2179443278693
 31
0.0
  0
LINE
  5
DF
330
4E
100
AcDbEntity
  8
1
  6
DOT_CENTER
 62
     2
100
AcDbLine
 10
-307.4000006184256
 20
-176.9179443278693
 30
0.0
 11
-307.4000006184256
 21
-183.5179443278693
 31
0.0
  0
LINE
  5
E0
330
4E
100
AcDbEntity
  8
1
  6
DOT_CENTER
 62
     2
100
AcDbLine
 10
-304.0400006184257
 20
-190.7179443278693
 30
0.0
 11
-309.7600006184256
 21
-190.7179443278693
 31
0.0
  0
LINE
  5
E1
330
4E
100
AcDbEntity
  8
1
  6
DOT_CENTER
 62
     2
100
AcDbLine
 10
-306.9000006184256
 20
-187.8579443278693
 30
0.0
 11
-306.9000006184256
 21
-193.5779443278693
 31
0.0
  0
ARC
  5
E2
330
4E
100
AcDbEntity
  8
0
  6
Continuous
 62
     7
100
AcDbCircle
 10
-309.5000006184256
 20
-155.7179443278693
 30
0.0
 40
2.0
100
AcDbArc
 50
90.0
 51
180.0000000085941
  0
ARC
  5
E3
330
4E
100
AcDbEntity
  8
0
  6
Continuous
 62
     7
100
AcDbCircle
 10
-304.9000006184256
 20
-158.7179443278693
 30
0.0
 40
4.0
100
AcDbArc
 50
270.0
 51
0.0
  0
ARC
  5
E4
330
4E
100
AcDbEntity
  8
0
  6
Continuous
 62
     7
100
AcDbCircle
 10
-293.0000006184225
 20
-155.717944327866
 30
0.0
 40
1.999999999996646
100
AcDbArc
 50
359.9999999999056
 51
90.0
  0
ARC
  5
E5
330
4E
100
AcDbEntity
  8
0
  6
Continuous
 62
     7
100
AcDbCircle
 10
-298.9000006184288
 20
-155.7179443278661
 30
0.0
 40
1.999999999996788
100
AcDbArc
 50
90.0
 51
180.0000000112647
  0
ARC
  5
E6
330
4E
100
AcDbEntity
  8
0
  6
Continuous
 62
     7
100
AcDbCircle
 10
-310.5000006184256
 20
-185.7179443278693
 30
0.0
 40
1.0
100
AcDbArc
 50
180.0
 51
270.0
  0
ARC
  5
E7
330
4E
100
AcDbEntity
  8
0
  6
Continuous
 62
     7
100
AcDbCircle
 10
-310.5000006184239
 20
-185.0607224561784
 30
0.0
 40
1.000000000001656
100
AcDbArc
 50
57.37553662565521
 51
180.0000000447415
  0
ARC
  5
E8
330
4E
100
AcDbEntity
  8
0
  6
Continuous
 62
     7
100
AcDbCircle
 10
-310.5000006184256
 20
-175.3751661995632
 30
0.0
 40
1.0
100
AcDbArc
 50
179.9999999098901
 51
302.624463374521
  0
ARC
  5
E9
330
4E
100
AcDbEntity
  8
0
  6
Continuous
 62
     7
100
AcDbCircle
 10
-295.5000006184256
 20
-181.7179443278693
 30
0.0
 40
3.0
100
AcDbArc
 50
180.0
 51
270.0
  0
ARC
  5
EA
330
4E
100
AcDbEntity
  8
0
  6
Continuous
 62
     7
100
AcDbCircle
 10
-303.6620198799419
 20
-185.7179443278158
 30
0.0
 40
1.000000000053518
100
AcDbArc
 50
269.9999999900469
 51
304.2004243581319
  0
ARC
  5
EB
330
4E
100
AcDbEntity
  8
0
  6
Continuous
 62
     7
100
AcDbCircle
 10
-307.4000006184256
 20
-180.2179443278693
 30
0.0
 40
4.749999999999932
100
AcDbArc
 50
237.3755366253121
 51
122.6244633746878
  0
ARC
  5
EC
330
4E
100
AcDbEntity
  8
0
  6
Continuous
 62
     7
100
AcDbCircle
 10
-304.9000006184256
 20
-190.7179443278693
 30
0.0
 40
4.0
100
AcDbArc
 50
0.0
 51
90.0
  0
ARC
  5
ED
330
4E
100
AcDbEntity
  8
0
  6
Continuous
 62
     7
100
AcDbCircle
 10
-293.000000618425
 20
-186.7179443278699
 30
0.0
 40
1.999999999999432
100
AcDbArc
 50
0.0000000000171
 51
90.0
  0
ARC
  5
EE
330
4E
100
AcDbEntity
  8
0
  6
Continuous
 62
     7
100
AcDbCircle
 10
-298.9000006184256
 20
-193.7179443278693
 30
0.0
 40
2.0
100
AcDbArc
 50
179.9999999779411
 51
270.0
  0
ARC
  5
EF
330
4E
100
AcDbEntity
  8
0
  6
Continuous
 62
     7
100
AcDbCircle
 10
-300.5000006184242
 20
-184.7179443278711
 30
0.0
 40
1.999999999998494
100
AcDbArc
 50
269.9999999999609
 51
0.00000005769659
  0
ARC
  5
F0
330
4E
100
AcDbEntity
  8
0
  6
Continuous
 62
     7
100
AcDbCircle
 10
-300.5000006184256
 20
-164.7179443278693
 30
0.0
 40
2.0
100
AcDbArc
 50
359.9999999423547
 51
90.0
  0
ARC
  5
F1
330
4E
100
AcDbEntity
  8
0
  6
Continuous
 62
     7
100
AcDbCircle
 10
-310.5000006184256
 20
-174.3347054240001
 30
0.0
 40
1.000000000000013
100
AcDbArc
 50
117.7856717164596
 51
180.0000000557889
  0
ARC
  5
F2
330
4E
100
AcDbEntity
  8
0
  6
Continuous
 62
     7
100
AcDbCircle
 10
-310.5000006184256
 20
-163.7179443278693
 30
0.0
 40
1.0
100
AcDbArc
 50
90.0
 51
180.0
  0
ARC
  5
F3
330
4E
100
AcDbEntity
  8
0
  6
Continuous
 62
     7
100
AcDbCircle
 10
-295.5000006184256
 20
-167.7179443278693
 30
0.0
 40
3.0
100
AcDbArc
 50
90.0
 51
180.0
  0
ARC
  5
F4
330
4E
100
AcDbEntity
  8
0
  6
Continuous
 62
     7
100
AcDbCircle
 10
-293.0000006184256
 20
-162.7179443278693
 30
0.0
 40
2.0
100
AcDbArc
 50
270.0
 51
0.0
  0
ARC
  5
F5
330
4E
100
AcDbEntity
  8
0
  6
Continuous
 62
     7
100
AcDbCircle
 10
-309.5000006184256
 20
-193.7179443278693
 30
0.0
 40
2.0
100
AcDbArc
 50
180.0
 51
270.0
  0
ARC
  5
F6
330
4E
100
AcDbEntity
  8
0
  6
Continuous
 62
     7
100
AcDbCircle
 10
-293.0000006184256
 20
-193.7179443278693
 30
0.0
 40
2.0
100
AcDbArc
 50
270.0
 51
0.0
  0
ARC
  5
F7
330
4E
100
AcDbEntity
  8
0
  6
Continuous
 62
     7
100
AcDbCircle
 10
-307.4000006184256
 20
-180.2179443278693
 30
0.0
 40
7.649999999999995
100
AcDbArc
 50
304.2011989729976
 51
117.7856717166176
  0
CIRCLE
  5
F8
330
4E
100
AcDbEntity
  8
0
  6
Continuous
 62
     7
100
AcDbCircle
 10
-307.4000006184256
 20
-180.2179443278693
 30
0.0
 40
2.5
  0
CIRCLE
  5
F9
330
4E
100
AcDbEntity
  8
0
  6
Continuous
 62
     7
100
AcDbCircle
 10
-293.9000006184256
 20
-188.2179443278693
 30
0.0
 40
1.379999999999995
  0
CIRCLE
  5
FA
330
4E
100
AcDbEntity
  8
0
  6
Continuous
 62
     7
100
AcDbCircle
 10
-293.9000006184256
 20
-188.2179443278693
 30
0.0
 40
2.100000000000108
  0
CIRCLE
  5
FB
330
4E
100
AcDbEntity
  8
0
  6
Continuous
 62
     7
100
AcDbCircle
 10
-293.9000006184256
 20
-188.2179443278693
 30
0.0
 40
1.599999999999994
  0
CIRCLE
  5
FC
330
4E
100
AcDbEntity
  8
0
  6
Continuous
 62
     7
100
AcDbCircle
 10
-306.9000006184256
 20
-190.7179443278693
 30
0.0
 40
2.599999999999994
  0
CIRCLE
  5
FD
330
4E
100
AcDbEntity
  8
0
  6
Continuous
 62
     7
100
AcDbCircle
 10
-307.4000006184256
 20
-180.2179443278693
 30
0.0
 40
3.0
  0
CIRCLE
  5
FE
330
4E
100
AcDbEntity
  8
0
  6
Continuous
 62
     7
100
AcDbCircle
 10
-293.9000006184257
 20
-161.2179443278693
 30
0.0
 40
1.379999999999939
  0
CIRCLE
  5
FF
330
4E
100
AcDbEntity
  8
0
  6
Continuous
 62
     7
100
AcDbCircle
 10
-293.9000006184257
 20
-161.2179443278693
 30
0.0
 40
1.600000000000136
  0
CIRCLE
  5
100
330
4E
100
AcDbEntity
  8
0
  6
Continuous
 62
     7
100
AcDbCircle
 10
-306.9000006184256
 20
-158.7179443278693
 30
0.0
 40
2.599999999999994
  0
CIRCLE
  5
101
330
4E
100
AcDbEntity
  8
0
  6
Continuous
 62
     7
100
AcDbCircle
 10
-293.9000006184257
 20
-161.2179443278693
 30
0.0
 40
2.099999999999966
  0
ENDBLK
  5
50
330
4E
100
AcDbEntity
  8
0
100
AcDbBlockEnd
  0
BLOCK
  5
53
330
51
100
AcDbEntity
  8
0
100
AcDbBlockBegin
  2
Drfsicht1
 70
     0
 10
-301.250000046256
 20
-174.7179443278492
 30
0.0
  3
Drfsicht1
  1

  0
INSERT
  5
52
330
51
100
AcDbEntity
  8
0
100
AcDbBlockReference
  2
HC_B_AF-select__2
 10
-311.5000006184289
 20
-195.7179443278693
 30
0.0
  0
MTEXT
  5
102
330
51
100
AcDbEntity
  8
1
 62
     6
100
AcDbMText
 10
-301.2500000462558
 20
-200.7179443278492
 30
0.0
 40
5.0
 41
0.0
 71
     2
 72
     1
  1
 
  7
CONVERTER_11
 73
     1
 44
1.32052821128451
  0
DIMENSION
  5
10D
330
51
100
AcDbEntity
  8
1
100
AcDbDimension
  2
*D17
 10
-321.890909615653
 20
-153.7179443278693
 30
0.0
 11
-325.140909615653
 21
-173.4500078444694
 31
0.0
 70
    32
  1
<>
 71
     5
 42
-1.0
 53
90.0
  3
ME10_DIM_10
100
AcDbAlignedDimension
 13
-309.5000006184256
 23
-195.7179443278693
 33
0.0
 14
-309.5000006184256
 24
-153.7179443278693
 34
0.0
 50
90.0
100
AcDbRotatedDimension
  0
ENDBLK
  5
54
330
51
100
AcDbEntity
  8
0
100
AcDbBlockEnd
  0
BLOCK
  5
56
330
55
100
AcDbEntity
  8
0
100
AcDbBlockBegin
  2
HC_B_AF-select__3
 70
     0
 10
-311.4999996879138
 20
-112.99999999998
 30
0.0
  3
HC_B_AF-select__3
  1

  0
LINE
  5
10E
330
55
100
AcDbEntity
  8
0
  6
Continuous
 62
     7
100
AcDbLine
 10
-303.0999294458352
 20
-98.99999999997998
 30
0.0
 11
-299.7499996879138
 21
-98.99999999997998
 31
0.0
  0
LINE
  5
10F
330
55
100
AcDbEntity
  8
0
  6
Continuous
 62
     2
100
AcDbLine
 10
-303.0999294458352
 20
-98.99999999997998
 30
0.0
 11
-303.0999294458352
 21
-102.99999999998
 31
0.0
  0
LINE
  5
110
330
55
100
AcDbEntity
  8
0
  6
Continuous
 62
     7
100
AcDbLine
 10
-299.7499996879138
 20
-102.99999999998
 30
0.0
 11
-299.7499996879138
 21
-98.99999999997998
 31
0.0
  0
LINE
  5
111
330
55
100
AcDbEntity
  8
0
  6
Continuous
 62
     7
100
AcDbLine
 10
-303.0999294458352
 20
-98.99999999997998
 30
0.0
 11
-303.6620189496039
 21
-98.99999999997998
 31
0.0
  0
LINE
  5
112
330
55
100
AcDbEntity
  8
0
  6
Continuous
 62
     7
100
AcDbLine
 10
-303.6620189496039
 20
-98.99999999997998
 30
0.0
 11
-310.4999996879138
 21
-98.99999999997998
 31
0.0
  0
LINE
  5
113
330
55
100
AcDbEntity
  8
0
  6
Continuous
 62
     2
100
AcDbLine
 10
-300.4999996879138
 20
-102.99999999998
 30
0.0
 11
-300.4999996879125
 21
-104.99999999998
 31
0.0
  0
LINE
  5
114
330
55
100
AcDbEntity
  8
0
  6
Continuous
 62
     2
100
AcDbLine
 10
-298.8999996879139
 20
-104.99999999998
 30
0.0
 11
-298.8999996879139
 21
-107.99999999998
 31
0.0
  0
LINE
  5
115
330
55
100
AcDbEntity
  8
0
  6
Continuous
 62
     7
100
AcDbLine
 10
-300.8999996879139
 20
-104.99999999998
 30
0.0
 11
-300.8999996879139
 21
-107.99999999998
 31
0.0
  0
LINE
  5
116
330
55
100
AcDbEntity
  8
0
  6
Continuous
 62
     7
100
AcDbLine
 10
-300.8999996879139
 20
-107.99999999998
 30
0.0
 11
-298.8999996879139
 21
-107.99999999998
 31
0.0
  0
LINE
  5
117
330
55
100
AcDbEntity
  8
0
  6
Continuous
 62
     2
100
AcDbLine
 10
-304.8999996879139
 20
-104.99999999998
 30
0.0
 11
-304.8999996879139
 21
-107.99999999998
 31
0.0
  0
LINE
  5
118
330
55
100
AcDbEntity
  8
0
  6
Continuous
 62
     7
100
AcDbLine
 10
-304.8999996879139
 20
-107.99999999998
 30
0.0
 11
-300.8999996879139
 21
-107.99999999998
 31
0.0
  0
LINE
  5
119
330
55
100
AcDbEntity
  8
0
  6
Continuous
 62
     7
100
AcDbLine
 10
-309.4999996879138
 20
-107.99999999998
 30
0.0
 11
-304.8999996879139
 21
-107.99999999998
 31
0.0
  0
LINE
  5
11A
330
55
100
AcDbEntity
  8
0
  6
Continuous
 62
     2
100
AcDbLine
 10
-303.6620189496039
 20
-98.99999999997998
 30
0.0
 11
-303.6620189496039
 21
-102.99999999998
 31
0.0
  0
LINE
  5
11B
330
55
100
AcDbEntity
  8
0
  6
Continuous
 62
     7
100
AcDbLine
 10
-303.0999294458352
 20
-102.99999999998
 30
0.0
 11
-303.6620189496039
 21
-102.99999999998
 31
0.0
  0
LINE
  5
11C
330
55
100
AcDbEntity
  8
0
  6
Continuous
 62
     7
100
AcDbLine
 10
-300.4999996879138
 20
-102.99999999998
 30
0.0
 11
-299.7499996879138
 21
-102.99999999998
 31
0.0
  0
LINE
  5
11D
330
55
100
AcDbEntity
  8
0
  6
Continuous
 62
     7
100
AcDbLine
 10
-299.7499996879138
 20
-102.99999999998
 30
0.0
 11
-298.4999996879139
 21
-102.99999999998
 31
0.0
  0
LINE
  5
11E
330
55
100
AcDbEntity
  8
0
  6
Continuous
 62
     7
100
AcDbLine
 10
-300.4999996879138
 20
-102.99999999998
 30
0.0
 11
-303.0999294458352
 21
-102.99999999998
 31
0.0
  0
LINE
  5
11F
330
55
100
AcDbEntity
  8
0
  6
Continuous
 62
     7
100
AcDbLine
 10
-298.8999996879139
 20
-104.99999999998
 30
0.0
 11
-298.4999996879139
 21
-104.99999999998
 31
0.0
  0
LINE
  5
120
330
55
100
AcDbEntity
  8
0
  6
Continuous
 62
     7
100
AcDbLine
 10
-298.8999996879139
 20
-104.99999999998
 30
0.0
 11
-300.4999996879125
 21
-104.99999999998
 31
0.0
  0
LINE
  5
121
330
55
100
AcDbEntity
  8
0
  6
Continuous
 62
     7
100
AcDbLine
 10
-300.4999996879125
 20
-104.99999999998
 30
0.0
 11
-300.8999996879139
 21
-104.99999999998
 31
0.0
  0
LINE
  5
122
330
55
100
AcDbEntity
  8
0
  6
Continuous
 62
     7
100
AcDbLine
 10
-304.8999996879139
 20
-104.99999999998
 30
0.0
 11
-300.8999996879139
 21
-104.99999999998
 31
0.0
  0
LINE
  5
123
330
55
100
AcDbEntity
  8
0
  6
Continuous
 62
     7
100
AcDbLine
 10
-309.4999996879138
 20
-112.99999999998
 30
0.0
 11
-311.4999996879138
 21
-112.99999999998
 31
0.0
  0
LINE
  5
124
330
55
100
AcDbEntity
  8
0
  6
Continuous
 62
     7
100
AcDbLine
 10
-311.4999996879138
 20
-98.99999999997998
 30
0.0
 11
-311.4999996879138
 21
-107.99999999998
 31
0.0
  0
LINE
  5
125
330
55
100
AcDbEntity
  8
0
  6
Continuous
 62
     7
100
AcDbLine
 10
-310.4999996879138
 20
-107.99999999998
 30
0.0
 11
-311.4999996879138
 21
-107.99999999998
 31
0.0
  0
LINE
  5
126
330
55
100
AcDbEntity
  8
0
  6
Continuous
 62
     7
100
AcDbLine
 10
-310.4999996879138
 20
-98.99999999997998
 30
0.0
 11
-311.4999996879138
 21
-98.99999999997998
 31
0.0
  0
LINE
  5
127
330
55
100
AcDbEntity
  8
0
  6
Continuous
 62
     7
100
AcDbLine
 10
-311.4999996879138
 20
-107.99999999998
 30
0.0
 11
-311.4999996879138
 21
-112.99999999998
 31
0.0
  0
LINE
  5
128
330
55
100
AcDbEntity
  8
0
  6
Continuous
 62
     7
100
AcDbLine
 10
-309.4999996879138
 20
-107.99999999998
 30
0.0
 11
-310.4999996879138
 21
-107.99999999998
 31
0.0
  0
LINE
  5
129
330
55
100
AcDbEntity
  8
0
  6
Continuous
 62
     2
100
AcDbLine
 10
-310.4999996879138
 20
-98.99999999997998
 30
0.0
 11
-310.4999996879138
 21
-107.99999999998
 31
0.0
  0
LINE
  5
12A
330
55
100
AcDbEntity
  8
0
  6
Continuous
 62
     2
100
AcDbLine
 10
-309.4999996879138
 20
-107.99999999998
 30
0.0
 11
-309.4999996879138
 21
-112.99999999998
 31
0.0
  0
LINE
  5
12B
330
55
100
AcDbEntity
  8
0
  6
Continuous
 62
     7
100
AcDbLine
 10
-290.9999996879138
 20
-104.99999999998
 30
0.0
 11
-292.9999996879138
 21
-104.99999999998
 31
0.0
  0
LINE
  5
12C
330
55
100
AcDbEntity
  8
0
  6
Continuous
 62
     7
100
AcDbLine
 10
-290.9999996879138
 20
-112.99999999998
 30
0.0
 11
-292.9999996879138
 21
-112.99999999998
 31
0.0
  0
LINE
  5
12D
330
55
100
AcDbEntity
  8
0
  6
Continuous
 62
     7
100
AcDbLine
 10
-292.9999996879138
 20
-112.99999999998
 30
0.0
 11
-309.4999996879138
 21
-112.99999999998
 31
0.0
  0
LINE
  5
12E
330
55
100
AcDbEntity
  8
0
  6
Continuous
 62
     7
100
AcDbLine
 10
-298.4999996879139
 20
-104.99999999998
 30
0.0
 11
-292.9999996879138
 21
-104.99999999998
 31
0.0
  0
LINE
  5
12F
330
55
100
AcDbEntity
  8
0
  6
Continuous
 62
     7
100
AcDbLine
 10
-298.4999996879139
 20
-104.99999999998
 30
0.0
 11
-298.4999996879139
 21
-102.99999999998
 31
0.0
  0
LINE
  5
130
330
55
100
AcDbEntity
  8
0
  6
Continuous
 62
     2
100
AcDbLine
 10
-292.9999996879138
 20
-104.99999999998
 30
0.0
 11
-292.9999996879138
 21
-112.99999999998
 31
0.0
  0
LINE
  5
131
330
55
100
AcDbEntity
  8
0
  6
Continuous
 62
     7
100
AcDbLine
 10
-290.9999996879138
 20
-104.99999999998
 30
0.0
 11
-290.9999996879138
 21
-112.99999999998
 31
0.0
  0
ENDBLK
  5
57
330
55
100
AcDbEntity
  8
0
100
AcDbBlockEnd
  0
BLOCK
  5
5A
330
58
100
AcDbEntity
  8
0
100
AcDbBlockBegin
  2
Vordans1
 70
     0
 10
-301.2499991157442
 20
-105.99999999999
 30
0.0
  3
Vordans1
  1

  0
INSERT
  5
59
330
58
100
AcDbEntity
  8
0
100
AcDbBlockReference
  2
HC_B_AF-select__3
 10
-311.4999996879138
 20
-112.99999999998
 30
0.0
  0
MTEXT
  5
132
330
58
100
AcDbEntity
  8
1
 62
     6
100
AcDbMText
 10
-301.2499991157442
 20
-117.99999999999
 30
0.0
 40
5.0
 41
0.0
 71
     2
 72
     1
  1
 
  7
CONVERTER_11
 73
     1
 44
1.32052821128451
  0
DIMENSION
  5
13D
330
58
100
AcDbEntity
  8
1
100
AcDbDimension
  2
*D18
 10
-321.4999996879138
 20
-98.99999999997998
 30
0.0
 11
-324.7499996879138
 21
-105.985312540079
 31
0.0
 70
    32
  1
<>
 71
     5
 42
-1.0
 53
90.0
  3
ME10_DIM_11
100
AcDbAlignedDimension
 13
-311.4999996879138
 23
-112.99999999998
 33
0.0
 14
-310.4999996879138
 24
-98.99999999997998
 34
0.0
 50
90.0
100
AcDbRotatedDimension
  0
DIMENSION
  5
148
330
58
100
AcDbEntity
  8
1
100
AcDbDimension
  2
*D19
 10
-311.4999996879138
 20
-122.99999999998
 30
0.0
 11
-301.2499991157442
 21
-119.57499999998
 31
0.0
 70
    32
  1
<>
 71
     5
 42
-1.0
 53
0.00013888888889
  3
ME10_DIM_12
100
AcDbAlignedDimension
 13
-290.9999996879138
 23
-112.99999999998
 33
0.0
 14
-311.4999996879138
 24
-112.99999999998
 34
0.0
100
AcDbRotatedDimension
  0
ENDBLK
  5
5B
330
58
100
AcDbEntity
  8
0
100
AcDbBlockEnd
  0
BLOCK
  5
5D
330
5C
100
AcDbEntity
  8
0
100
AcDbBlockBegin
  2
HC_B_AF-select__4
 70
     0
 10
-388.5000000694386
 20
-112.99999999998
 30
0.0
  3
HC_B_AF-select__4
  1

  0
LINE
  5
149
330
5C
100
AcDbEntity
  8
0
  6
Continuous
 62
     7
100
AcDbLine
 10
-365.3500000694386
 20
-102.99999999998
 30
0.0
 11
-365.3500000694386
 21
-98.99999999997998
 31
0.0
  0
LINE
  5
14A
330
5C
100
AcDbEntity
  8
0
  6
Continuous
 62
     7
100
AcDbLine
 10
-379.3270764806407
 20
-98.99999999997998
 30
0.0
 11
-365.3500000694386
 21
-98.99999999997998
 31
0.0
  0
LINE
  5
14B
330
5C
100
AcDbEntity
  8
0
  6
Continuous
 62
     7
100
AcDbLine
 10
-365.3500000694386
 20
-102.99999999998
 30
0.0
 11
-377.5000000674264
 21
-102.99999999998
 31
0.0
  0
LINE
  5
14C
330
5C
100
AcDbEntity
  8
0
  6
Continuous
 62
     7
100
AcDbLine
 10
-379.3270764806407
 20
-98.99999999997998
 30
0.0
 11
-379.5000000694386
 21
-98.99999999997998
 31
0.0
  0
LINE
  5
14D
330
5C
100
AcDbEntity
  8
0
  6
Continuous
 62
     2
100
AcDbLine
 10
-379.3270764806407
 20
-98.99999999997998
 30
0.0
 11
-379.3270764806407
 21
-102.99999999998
 31
0.0
  0
LINE
  5
14E
330
5C
100
AcDbEntity
  8
0
  6
Continuous
 62
     7
100
AcDbLine
 10
-379.500000069439
 20
-104.99999999998
 30
0.0
 11
-377.5000000674264
 21
-104.99999999998
 31
0.0
  0
LINE
  5
14F
330
5C
100
AcDbEntity
  8
0
  6
Continuous
 62
     7
100
AcDbLine
 10
-379.500000069439
 20
-102.99999999998
 30
0.0
 11
-379.3270764806407
 21
-102.99999999998
 31
0.0
  0
LINE
  5
150
330
5C
100
AcDbEntity
  8
0
  6
Continuous
 62
     7
100
AcDbLine
 10
-379.3270764806407
 20
-102.99999999998
 30
0.0
 11
-377.5000000674264
 21
-102.99999999998
 31
0.0
  0
LINE
  5
151
330
5C
100
AcDbEntity
  8
0
  6
Continuous
 62
     2
100
AcDbLine
 10
-377.5000000674264
 20
-104.99999999998
 30
0.0
 11
-377.5000000674264
 21
-102.99999999998
 31
0.0
  0
LINE
  5
152
330
5C
100
AcDbEntity
  8
0
  6
Continuous
 62
     7
100
AcDbLine
 10
-386.5000000694386
 20
-104.99999999998
 30
0.0
 11
-388.5000000694386
 21
-104.99999999998
 31
0.0
  0
LINE
  5
153
330
5C
100
AcDbEntity
  8
0
  6
Continuous
 62
     7
100
AcDbLine
 10
-379.500000069439
 20
-104.99999999998
 30
0.0
 11
-379.500000069439
 21
-102.99999999998
 31
0.0
  0
LINE
  5
154
330
5C
100
AcDbEntity
  8
0
  6
Continuous
 62
     7
100
AcDbLine
 10
-379.5000000694386
 20
-98.99999999997998
 30
0.0
 11
-379.500000069439
 21
-102.99999999998
 31
0.0
  0
LINE
  5
155
330
5C
100
AcDbEntity
  8
0
  6
Continuous
 62
     2
100
AcDbLine
 10
-379.500000069439
 20
-104.99999999998
 30
0.0
 11
-379.5000000694386
 21
-112.99999999998
 31
0.0
  0
LINE
  5
156
330
5C
100
AcDbEntity
  8
0
  6
Continuous
 62
     2
100
AcDbLine
 10
-360.5000000694386
 20
-112.99999999998
 30
0.0
 11
-360.5000000694386
 21
-104.99999999998
 31
0.0
  0
LINE
  5
157
330
5C
100
AcDbEntity
  8
0
  6
Continuous
 62
     7
100
AcDbLine
 10
-355.5000000694386
 20
-112.99999999998
 30
0.0
 11
-357.5000000694386
 21
-112.99999999998
 31
0.0
  0
LINE
  5
158
330
5C
100
AcDbEntity
  8
0
  6
Continuous
 62
     7
100
AcDbLine
 10
-360.5000000694386
 20
-112.99999999998
 30
0.0
 11
-374.5000000694386
 21
-112.99999999998
 31
0.0
  0
LINE
  5
159
330
5C
100
AcDbEntity
  8
0
  6
Continuous
 62
     7
100
AcDbLine
 10
-374.5000000694386
 20
-112.99999999998
 30
0.0
 11
-377.5000000694386
 21
-112.99999999998
 31
0.0
  0
LINE
  5
15A
330
5C
100
AcDbEntity
  8
0
  6
Continuous
 62
     7
100
AcDbLine
 10
-379.5000000694386
 20
-112.99999999998
 30
0.0
 11
-377.5000000694386
 21
-112.99999999998
 31
0.0
  0
LINE
  5
15B
330
5C
100
AcDbEntity
  8
0
  6
Continuous
 62
     7
100
AcDbLine
 10
-357.5000000694386
 20
-112.99999999998
 30
0.0
 11
-360.5000000694386
 21
-112.99999999998
 31
0.0
  0
LINE
  5
15C
330
5C
100
AcDbEntity
  8
0
  6
Continuous
 62
     7
100
AcDbLine
 10
-348.5000000694386
 20
-112.99999999998
 30
0.0
 11
-355.5000000694386
 21
-112.99999999998
 31
0.0
  0
LINE
  5
15D
330
5C
100
AcDbEntity
  8
0
  6
Continuous
 62
     7
100
AcDbLine
 10
-357.5000000694386
 20
-104.99999999998
 30
0.0
 11
-357.5000000694386
 21
-112.99999999998
 31
0.0
  0
LINE
  5
15E
330
5C
100
AcDbEntity
  8
0
  6
Continuous
 62
     7
100
AcDbLine
 10
-386.5000000694386
 20
-112.99999999998
 30
0.0
 11
-388.5000000694386
 21
-112.99999999998
 31
0.0
  0
LINE
  5
15F
330
5C
100
AcDbEntity
  8
0
  6
Continuous
 62
     7
100
AcDbLine
 10
-379.5000000694386
 20
-112.99999999998
 30
0.0
 11
-386.5000000694386
 21
-112.99999999998
 31
0.0
  0
LINE
  5
160
330
5C
100
AcDbEntity
  8
0
  6
Continuous
 62
     7
100
AcDbLine
 10
-379.500000069439
 20
-104.99999999998
 30
0.0
 11
-386.5000000694386
 21
-104.99999999998
 31
0.0
  0
LINE
  5
161
330
5C
100
AcDbEntity
  8
0
  6
Continuous
 62
     2
100
AcDbLine
 10
-386.5000000694386
 20
-104.99999999998
 30
0.0
 11
-386.5000000694386
 21
-112.99999999998
 31
0.0
  0
LINE
  5
162
330
5C
100
AcDbEntity
  8
0
  6
Continuous
 62
     7
100
AcDbLine
 10
-388.5000000694386
 20
-104.99999999998
 30
0.0
 11
-388.5000000694386
 21
-112.99999999998
 31
0.0
  0
LINE
  5
163
330
5C
100
AcDbEntity
  8
0
  6
Continuous
 62
     7
100
AcDbLine
 10
-374.5000000694386
 20
-104.99999999998
 30
0.0
 11
-377.5000000674264
 21
-104.99999999998
 31
0.0
  0
LINE
  5
164
330
5C
100
AcDbEntity
  8
0
  6
Continuous
 62
     2
100
AcDbLine
 10
-374.5000000694386
 20
-112.99999999998
 30
0.0
 11
-374.5000000694386
 21
-104.99999999998
 31
0.0
  0
LINE
  5
165
330
5C
100
AcDbEntity
  8
0
  6
Continuous
 62
     7
100
AcDbLine
 10
-377.5000000694386
 20
-112.99999999998
 30
0.0
 11
-377.5000000674264
 21
-104.99999999998
 31
0.0
  0
LINE
  5
166
330
5C
100
AcDbEntity
  8
0
  6
Continuous
 62
     7
100
AcDbLine
 10
-357.5000000714508
 20
-102.99999999998
 30
0.0
 11
-355.5000000694386
 21
-102.99999999998
 31
0.0
  0
LINE
  5
167
330
5C
100
AcDbEntity
  8
0
  6
Continuous
 62
     2
100
AcDbLine
 10
-357.5000000714508
 20
-102.99999999998
 30
0.0
 11
-357.5000000694386
 21
-104.99999999998
 31
0.0
  0
LINE
  5
168
330
5C
100
AcDbEntity
  8
0
  6
Continuous
 62
     7
100
AcDbLine
 10
-355.5000000694386
 20
-104.99999999998
 30
0.0
 11
-357.5000000694386
 21
-104.99999999998
 31
0.0
  0
LINE
  5
169
330
5C
100
AcDbEntity
  8
0
  6
Continuous
 62
     7
100
AcDbLine
 10
-357.5000000694386
 20
-104.99999999998
 30
0.0
 11
-360.5000000694386
 21
-104.99999999998
 31
0.0
  0
LINE
  5
16A
330
5C
100
AcDbEntity
  8
0
  6
Continuous
 62
     2
100
AcDbLine
 10
-355.5000000694386
 20
-104.99999999998
 30
0.0
 11
-355.5000000694386
 21
-112.99999999998
 31
0.0
  0
LINE
  5
16B
330
5C
100
AcDbEntity
  8
0
  6
Continuous
 62
     7
100
AcDbLine
 10
-346.5000000694387
 20
-112.99999999998
 30
0.0
 11
-346.5000000694387
 21
-104.99999999998
 31
0.0
  0
LINE
  5
16C
330
5C
100
AcDbEntity
  8
0
  6
Continuous
 62
     7
100
AcDbLine
 10
-348.5000000694386
 20
-112.99999999998
 30
0.0
 11
-346.5000000694387
 21
-112.99999999998
 31
0.0
  0
LINE
  5
16D
330
5C
100
AcDbEntity
  8
0
  6
Continuous
 62
     7
100
AcDbLine
 10
-348.5000000694386
 20
-104.99999999998
 30
0.0
 11
-346.5000000694387
 21
-104.99999999998
 31
0.0
  0
LINE
  5
16E
330
5C
100
AcDbEntity
  8
0
  6
Continuous
 62
     7
100
AcDbLine
 10
-355.5000000694386
 20
-104.99999999998
 30
0.0
 11
-355.5000000694386
 21
-102.99999999998
 31
0.0
  0
LINE
  5
16F
330
5C
100
AcDbEntity
  8
0
  6
Continuous
 62
     7
100
AcDbLine
 10
-348.5000000694386
 20
-104.99999999998
 30
0.0
 11
-355.5000000694386
 21
-104.99999999998
 31
0.0
  0
LINE
  5
170
330
5C
100
AcDbEntity
  8
0
  6
Continuous
 62
     2
100
AcDbLine
 10
-348.5000000694386
 20
-104.99999999998
 30
0.0
 11
-348.5000000694386
 21
-112.99999999998
 31
0.0
  0
LINE
  5
171
330
5C
100
AcDbEntity
  8
0
  6
Continuous
 62
     7
100
AcDbLine
 10
-357.5000000714508
 20
-102.99999999998
 30
0.0
 11
-365.3500000694386
 21
-102.99999999998
 31
0.0
  0
ENDBLK
  5
5E
330
5C
100
AcDbEntity
  8
0
100
AcDbBlockEnd
  0
BLOCK
  5
61
330
5F
100
AcDbEntity
  8
0
100
AcDbBlockBegin
  2
SA_Rechts1
 70
     0
 10
-367.5000000694186
 20
-105.99999999999
 30
0.0
  3
SA_Rechts1
  1

  0
INSERT
  5
60
330
5F
100
AcDbEntity
  8
0
100
AcDbBlockReference
  2
HC_B_AF-select__4
 10
-388.5000000694386
 20
-112.99999999998
 30
0.0
  0
MTEXT
  5
172
330
5F
100
AcDbEntity
  8
1
 62
     6
100
AcDbMText
 10
-367.5000000694186
 20
-117.99999999999
 30
0.0
 40
5.0
 41
0.0
 71
     2
 72
     1
  1
 
  7
CONVERTER_11
 73
     1
 44
1.32052821128451
  0
ENDBLK
  5
62
330
5F
100
AcDbEntity
  8
0
100
AcDbBlockEnd
  0
BLOCK
  5
64
330
63
100
AcDbEntity
  8
0
100
AcDbBlockBegin
  2
HC_B_AF-select__5
 70
     0
 10
-209.0000004741572
 20
-112.99999999998
 30
0.0
  3
HC_B_AF-select__5
  1

  0
LINE
  5
173
330
63
100
AcDbEntity
  8
0
  6
Continuous
 62
     2
100
AcDbLine
 10
-195.1000004741562
 20
-107.99999999998
 30
0.0
 11
-195.1000004741562
 21
-104.99999999998
 31
0.0
  0
LINE
  5
174
330
63
100
AcDbEntity
  8
0
  6
Continuous
 62
     7
100
AcDbLine
 10
-195.1000004741562
 20
-107.99999999998
 30
0.0
 11
-190.5000004741562
 21
-107.99999999998
 31
0.0
  0
LINE
  5
175
330
63
100
AcDbEntity
  8
0
  6
Continuous
 62
     7
100
AcDbLine
 10
-188.5000004741562
 20
-112.99999999998
 30
0.0
 11
-190.5000004741562
 21
-112.99999999998
 31
0.0
  0
LINE
  5
176
330
63
100
AcDbEntity
  8
0
  6
Continuous
 62
     7
100
AcDbLine
 10
-188.5000004741562
 20
-107.99999999998
 30
0.0
 11
-188.5000004741562
 21
-112.99999999998
 31
0.0
  0
LINE
  5
177
330
63
100
AcDbEntity
  8
0
  6
Continuous
 62
     2
100
AcDbLine
 10
-190.5000004741562
 20
-107.99999999998
 30
0.0
 11
-190.5000004741562
 21
-112.99999999998
 31
0.0
  0
LINE
  5
178
330
63
100
AcDbEntity
  8
0
  6
Continuous
 62
     7
100
AcDbLine
 10
-199.1000004741562
 20
-104.99999999998
 30
0.0
 11
-199.5000004741562
 21
-104.99999999998
 31
0.0
  0
LINE
  5
179
330
63
100
AcDbEntity
  8
0
  6
Continuous
 62
     2
100
AcDbLine
 10
-199.5000004741562
 20
-104.99999999998
 30
0.0
 11
-199.5000004741562
 21
-102.99999999998
 31
0.0
  0
LINE
  5
17A
330
63
100
AcDbEntity
  8
0
  6
Continuous
 62
     7
100
AcDbLine
 10
-199.1000004741562
 20
-104.99999999998
 30
0.0
 11
-199.1000004741562
 21
-107.99999999998
 31
0.0
  0
LINE
  5
17B
330
63
100
AcDbEntity
  8
0
  6
Continuous
 62
     7
100
AcDbLine
 10
-201.100000474153
 20
-104.99999999998
 30
0.0
 11
-201.5000004741562
 21
-104.99999999998
 31
0.0
  0
LINE
  5
17C
330
63
100
AcDbEntity
  8
0
  6
Continuous
 62
     7
100
AcDbLine
 10
-201.5000004741562
 20
-104.99999999998
 30
0.0
 11
-201.5000004741562
 21
-102.99999999998
 31
0.0
  0
LINE
  5
17D
330
63
100
AcDbEntity
  8
0
  6
Continuous
 62
     2
100
AcDbLine
 10
-201.100000474153
 20
-104.99999999998
 30
0.0
 11
-201.100000474153
 21
-107.99999999998
 31
0.0
  0
LINE
  5
17E
330
63
100
AcDbEntity
  8
0
  6
Continuous
 62
     7
100
AcDbLine
 10
-190.5000004741562
 20
-112.99999999998
 30
0.0
 11
-207.0000004741568
 21
-112.99999999998
 31
0.0
  0
LINE
  5
17F
330
63
100
AcDbEntity
  8
0
  6
Continuous
 62
     2
100
AcDbLine
 10
-207.0000004741568
 20
-112.99999999998
 30
0.0
 11
-207.0000004741568
 21
-104.99999999998
 31
0.0
  0
LINE
  5
180
330
63
100
AcDbEntity
  8
0
  6
Continuous
 62
     7
100
AcDbLine
 10
-209.0000004741572
 20
-112.99999999998
 30
0.0
 11
-207.0000004741568
 21
-112.99999999998
 31
0.0
  0
LINE
  5
181
330
63
100
AcDbEntity
  8
0
  6
Continuous
 62
     7
100
AcDbLine
 10
-207.0000004741568
 20
-104.99999999998
 30
0.0
 11
-201.5000004741562
 21
-104.99999999998
 31
0.0
  0
LINE
  5
182
330
63
100
AcDbEntity
  8
0
  6
Continuous
 62
     7
100
AcDbLine
 10
-209.0000004741572
 20
-104.99999999998
 30
0.0
 11
-207.0000004741568
 21
-104.99999999998
 31
0.0
  0
LINE
  5
183
330
63
100
AcDbEntity
  8
0
  6
Continuous
 62
     7
100
AcDbLine
 10
-209.0000004741572
 20
-112.99999999998
 30
0.0
 11
-209.0000004741572
 21
-104.99999999998
 31
0.0
  0
LINE
  5
184
330
63
100
AcDbEntity
  8
0
  6
Continuous
 62
     7
100
AcDbLine
 10
-200.2500004741562
 20
-98.99999999997999
 30
0.0
 11
-189.0338350606252
 21
-98.99999999997999
 31
0.0
  0
LINE
  5
185
330
63
100
AcDbEntity
  8
0
  6
Continuous
 62
     7
100
AcDbLine
 10
-200.2500004741562
 20
-102.99999999998
 30
0.0
 11
-200.2500004741562
 21
-98.99999999997999
 31
0.0
  0
LINE
  5
186
330
63
100
AcDbEntity
  8
0
  6
Continuous
 62
     7
100
AcDbLine
 10
-189.5000004741562
 20
-102.99999999998
 30
0.0
 11
-199.5000004741562
 21
-102.99999999998
 31
0.0
  0
LINE
  5
187
330
63
100
AcDbEntity
  8
0
  6
Continuous
 62
     7
100
AcDbLine
 10
-200.2500004741562
 20
-102.99999999998
 30
0.0
 11
-199.5000004741562
 21
-102.99999999998
 31
0.0
  0
LINE
  5
188
330
63
100
AcDbEntity
  8
0
  6
Continuous
 62
     7
100
AcDbLine
 10
-201.5000004741562
 20
-102.99999999998
 30
0.0
 11
-200.2500004741562
 21
-102.99999999998
 31
0.0
  0
LINE
  5
189
330
63
100
AcDbEntity
  8
0
  6
Continuous
 62
     7
100
AcDbLine
 10
-201.100000474153
 20
-107.99999999998
 30
0.0
 11
-199.1000004741562
 21
-107.99999999998
 31
0.0
  0
LINE
  5
18A
330
63
100
AcDbEntity
  8
0
  6
Continuous
 62
     7
100
AcDbLine
 10
-199.1000004741562
 20
-104.99999999998
 30
0.0
 11
-195.1000004741562
 21
-104.99999999998
 31
0.0
  0
LINE
  5
18B
330
63
100
AcDbEntity
  8
0
  6
Continuous
 62
     7
100
AcDbLine
 10
-199.5000004741562
 20
-104.99999999998
 30
0.0
 11
-201.100000474153
 21
-104.99999999998
 31
0.0
  0
LINE
  5
18C
330
63
100
AcDbEntity
  8
0
  6
Continuous
 62
     7
100
AcDbLine
 10
-199.1000004741562
 20
-107.99999999998
 30
0.0
 11
-195.1000004741562
 21
-107.99999999998
 31
0.0
  0
LINE
  5
18D
330
63
100
AcDbEntity
  8
0
  6
Continuous
 62
     2
100
AcDbLine
 10
-189.0338350606252
 20
-98.99999999997999
 30
0.0
 11
-189.0338350606252
 21
-102.99999999998
 31
0.0
  0
LINE
  5
18E
330
63
100
AcDbEntity
  8
0
  6
Continuous
 62
     7
100
AcDbLine
 10
-188.5000004741562
 20
-102.99999999998
 30
0.0
 11
-188.5000004741562
 21
-98.99999999997999
 31
0.0
  0
LINE
  5
18F
330
63
100
AcDbEntity
  8
0
  6
Continuous
 62
     7
100
AcDbLine
 10
-189.0338350606252
 20
-98.99999999997999
 30
0.0
 11
-188.5000004741562
 21
-98.99999999997999
 31
0.0
  0
LINE
  5
190
330
63
100
AcDbEntity
  8
0
  6
Continuous
 62
     7
100
AcDbLine
 10
-189.5000004741562
 20
-102.99999999998
 30
0.0
 11
-189.0338350606252
 21
-102.99999999998
 31
0.0
  0
LINE
  5
191
330
63
100
AcDbEntity
  8
0
  6
Continuous
 62
     7
100
AcDbLine
 10
-189.0338350606252
 20
-102.99999999998
 30
0.0
 11
-188.5000004741562
 21
-102.99999999998
 31
0.0
  0
LINE
  5
192
330
63
100
AcDbEntity
  8
0
  6
Continuous
 62
     7
100
AcDbLine
 10
-188.5000004741562
 20
-107.99999999998
 30
0.0
 11
-188.5000004741562
 21
-102.99999999998
 31
0.0
  0
LINE
  5
193
330
63
100
AcDbEntity
  8
0
  6
Continuous
 62
     7
100
AcDbLine
 10
-188.5000004741562
 20
-107.99999999998
 30
0.0
 11
-189.5000004741562
 21
-107.99999999998
 31
0.0
  0
LINE
  5
194
330
63
100
AcDbEntity
  8
0
  6
Continuous
 62
     7
100
AcDbLine
 10
-189.5000004741562
 20
-107.99999999998
 30
0.0
 11
-190.5000004741562
 21
-107.99999999998
 31
0.0
  0
LINE
  5
195
330
63
100
AcDbEntity
  8
0
  6
Continuous
 62
     2
100
AcDbLine
 10
-189.5000004741562
 20
-107.99999999998
 30
0.0
 11
-189.5000004741562
 21
-102.99999999998
 31
0.0
  0
ENDBLK
  5
65
330
63
100
AcDbEntity
  8
0
100
AcDbBlockEnd
  0
BLOCK
  5
68
330
66
100
AcDbEntity
  8
0
100
AcDbBlockBegin
  2
Rckans1
 70
     0
 10
-198.7500010463258
 20
-105.99999999999
 30
0.0
  3
Rckans1
  1

  0
INSERT
  5
67
330
66
100
AcDbEntity
  8
0
100
AcDbBlockReference
  2
HC_B_AF-select__5
 10
-209.0000004741572
 20
-112.99999999998
 30
0.0
  0
MTEXT
  5
196
330
66
100
AcDbEntity
  8
1
 62
     6
100
AcDbMText
 10
-198.7500010463257
 20
-117.99999999999
 30
0.0
 40
5.0
 41
0.0
 71
     2
 72
     1
  1
 
  7
CONVERTER_11
 73
     1
 44
1.32052821128451
  0
ENDBLK
  5
69
330
66
100
AcDbEntity
  8
0
100
AcDbBlockEnd
  0
BLOCK
  5
6B
330
6A
100
AcDbEntity
  8
0
100
AcDbBlockBegin
  2
HC_B_AF-select__6
 70
     0
 10
-173.7679524211894
 20
-216.3519190194098
 30
0.0
  3
HC_B_AF-select__6
  1

  0
LINE
  5
197
330
6A
100
AcDbEntity
  8
0
  6
Continuous
 62
     7
100
AcDbLine
 10
-151.9785332587455
 20
-212.3208301061647
 30
0.0
 11
-151.9785332587455
 21
-205.3926268758892
 31
0.0
  0
LINE
  5
198
330
6A
100
AcDbEntity
  8
0
  6
Continuous
 62
     2
100
AcDbLine
 10
-152.2464824511764
 20
-205.892626875889
 30
0.0
 11
-152.2464824511764
 21
-212.8208301061645
 31
0.0
  0
LINE
  5
199
330
6A
100
AcDbEntity
  8
0
  6
Continuous
 62
     2
100
AcDbLine
 10
-156.2416729795606
 20
-203.3525633664277
 30
0.0
 11
-156.2416729795606
 21
-201.8525633664277
 31
0.0
  0
LINE
  5
19A
330
6A
100
AcDbEntity
  8
0
  6
Continuous
 62
     7
100
AcDbLine
 10
-152.2464824511764
 20
-205.892626875889
 30
0.0
 11
-155.7464824511773
 21
-208.9237157891343
 31
0.0
  0
LINE
  5
19B
330
6A
100
AcDbEntity
  8
0
  6
Continuous
 62
     7
100
AcDbLine
 10
-152.2464824511764
 20
-212.8208301061645
 30
0.0
 11
-155.7464824511773
 21
-215.8519190194098
 31
0.0
  0
LINE
  5
19C
330
6A
100
AcDbEntity
  8
0
  6
Continuous
 62
     7
100
AcDbLine
 10
-152.9785332587457
 20
-204.5266014721046
 30
0.0
 11
-155.1435967682073
 21
-203.9016014721043
 31
0.0
  0
LINE
  5
19D
330
6A
100
AcDbEntity
  8
0
  6
Continuous
 62
     7
100
AcDbLine
 10
-149.2416729795606
 20
-202.7185887702121
 30
0.0
 11
-152.041630921354
 21
-205.1434234773332
 31
0.0
  0
LINE
  5
19E
330
6A
100
AcDbEntity
  8
0
  6
Continuous
 62
     7
100
AcDbLine
 10
-156.2416729795606
 20
-201.8525633664277
 30
0.0
 11
-157.7416729785545
 21
-203.151601471233
 31
0.0
  0
LINE
  5
19F
330
6A
100
AcDbEntity
  8
0
  6
Continuous
 62
     7
100
AcDbLine
 10
-169.1713922933033
 20
-194.8538763332245
 30
0.0
 11
-169.5000032287583
 21
-195.1384617512899
 31
0.0
  0
LINE
  5
1A0
330
6A
100
AcDbEntity
  8
0
  6
Continuous
 62
     2
100
AcDbLine
 10
-169.1339778249738
 20
-195.8214744531821
 30
0.0
 11
-169.1339778249738
 21
-203.6157030872421
 31
0.0
  0
LINE
  5
1A1
330
6A
100
AcDbEntity
  8
0
  6
Continuous
 62
     7
100
AcDbLine
 10
-163.8083837773105
 20
-190.2093747176625
 30
0.0
 11
-164.3286141638189
 21
-190.6599074481993
 31
0.0
  0
LINE
  5
1A2
330
6A
100
AcDbEntity
  8
0
  6
Continuous
 62
     2
100
AcDbLine
 10
-164.284235563781
 20
-202.4176268758887
 30
0.0
 11
-164.284235563781
 21
-205.0157030872421
 31
0.0
  0
LINE
  5
1A3
330
6A
100
AcDbEntity
  8
0
  6
Continuous
 62
     2
100
AcDbLine
 10
-163.2121127950087
 20
-197.5309696377596
 30
0.0
 11
-163.2121127950087
 21
-200.9950712528974
 31
0.0
  0
LINE
  5
1A4
330
6A
100
AcDbEntity
  8
0
  6
Continuous
 62
     2
100
AcDbLine
 10
-162.6388672111456
 20
-197.5966139032955
 30
0.0
 11
-162.6388672111456
 21
-201.0607155184333
 31
0.0
  0
LINE
  5
1A5
330
6A
100
AcDbEntity
  8
0
  6
Continuous
 62
     7
100
AcDbLine
 10
-169.1339778249738
 20
-195.8214744531821
 30
0.0
 11
-163.2121127950087
 21
-197.5309696377596
 31
0.0
  0
LINE
  5
1A6
330
6A
100
AcDbEntity
  8
0
  6
Continuous
 62
     7
100
AcDbLine
 10
-169.6339778249738
 20
-195.3884617512899
 30
0.0
 11
-169.6339778249738
 21
-203.1826903853499
 31
0.0
  0
LINE
  5
1A7
330
6A
100
AcDbEntity
  8
0
  6
Continuous
 62
     7
100
AcDbLine
 10
-163.5880831410743
 20
-207.8147411929188
 30
0.0
 11
-158.4785332587462
 21
-209.2897411929187
 31
0.0
  0
LINE
  5
1A8
330
6A
100
AcDbEntity
  8
0
  6
Continuous
 62
     7
100
AcDbLine
 10
-160.4737237871296
 20
-201.78557606832
 30
0.0
 11
-163.2121127950087
 21
-200.9950712528974
 31
0.0
  0
LINE
  5
1A9
330
6A
100
AcDbEntity
  8
0
  6
Continuous
 62
     7
100
AcDbLine
 10
-160.4737237871284
 20
-203.5176268758893
 30
0.0
 11
-164.284235563781
 21
-202.4176268758887
 31
0.0
  0
LINE
  5
1AA
330
6A
100
AcDbEntity
  8
0
  6
Continuous
 62
     2
100
AcDbLine
 10
-172.7679524211894
 20
-207.762817404272
 30
0.0
 11
-172.7679524211894
 21
-212.0929444231942
 31
0.0
  0
LINE
  5
1AB
330
6A
100
AcDbEntity
  8
0
  6
Continuous
 62
     7
100
AcDbLine
 10
-162.8201339486432
 20
-205.1496776834576
 30
0.0
 11
-164.3201339482582
 21
-206.4487157888009
 31
0.0
  0
LINE
  5
1AC
330
6A
100
AcDbEntity
  8
0
  6
Continuous
 62
     2
100
AcDbLine
 10
-163.5880831410743
 20
-207.8147411929188
 30
0.0
 11
-163.5880831410743
 21
-210.4128174042721
 31
0.0
  0
LINE
  5
1AD
330
6A
100
AcDbEntity
  8
0
  6
Continuous
 62
     7
100
AcDbLine
 10
-164.284235563781
 20
-205.0157030872421
 30
0.0
 11
-169.1339778249738
 21
-203.6157030872421
 31
0.0
  0
LINE
  5
1AE
330
6A
100
AcDbEntity
  8
0
  6
Continuous
 62
     2
100
AcDbLine
 10
-160.4737237871296
 20
-201.78557606832
 30
0.0
 11
-160.4737237871284
 21
-203.5176268758893
 31
0.0
  0
LINE
  5
1AF
330
6A
100
AcDbEntity
  8
0
  6
Continuous
 62
     7
100
AcDbLine
 10
-172.7679524211894
 20
-207.762817404272
 30
0.0
 11
-163.5880831410743
 21
-210.4128174042721
 31
0.0
  0
LINE
  5
1B0
330
6A
100
AcDbEntity
  8
0
  6
Continuous
 62
     7
100
AcDbLine
 10
-158.4785332587462
 20
-216.2179444231942
 30
0.0
 11
-172.7679524211894
 21
-212.0929444231942
 31
0.0
  0
LINE
  5
1B1
330
6A
100
AcDbEntity
  8
0
  6
Continuous
 62
     7
100
AcDbLine
 10
-164.5880831410743
 20
-206.9487157891343
 30
0.0
 11
-164.5880831410743
 21
-209.5467920004876
 31
0.0
  0
LINE
  5
1B2
330
6A
100
AcDbEntity
  8
0
  6
Continuous
 62
     7
100
AcDbLine
 10
-169.6339778249738
 20
-203.0487157891343
 30
0.0
 11
-173.5000032287583
 21
-206.3967920004876
 31
0.0
  0
LINE
  5
1B3
330
6A
100
AcDbEntity
  8
0
  6
Continuous
 62
     7
100
AcDbLine
 10
-173.7679524211894
 20
-206.8967920004876
 30
0.0
 11
-173.7679524211894
 21
-211.2269190194098
 31
0.0
  0
LINE
  5
1B4
330
6A
100
AcDbEntity
  8
0
  6
Continuous
 62
     7
100
AcDbLine
 10
-155.5492990732421
 20
-197.2459935060205
 30
0.0
 11
-155.5492990732421
 21
-193.7818918908827
 31
0.0
  0
LINE
  5
1B5
330
6A
100
AcDbEntity
  8
0
  6
Continuous
 62
     2
100
AcDbLine
 10
-149.2416729795606
 20
-202.7185887702121
 30
0.0
 11
-149.2416729795606
 21
-195.7903855399366
 31
0.0
  0
LINE
  5
1B6
330
6A
100
AcDbEntity
  8
0
  6
Continuous
 62
     7
100
AcDbLine
 10
-136.4785332587452
 20
-198.8974363475048
 30
0.0
 11
-136.4785332587452
 21
-191.9692331172293
 31
0.0
  0
LINE
  5
1B7
330
6A
100
AcDbEntity
  8
0
  6
Continuous
 62
     2
100
AcDbLine
 10
-136.7464824511775
 20
-192.4692331172299
 30
0.0
 11
-136.7464824511775
 21
-199.3974363475054
 31
0.0
  0
LINE
  5
1B8
330
6A
100
AcDbEntity
  8
0
  6
Continuous
 62
     7
100
AcDbLine
 10
-142.5880831410771
 20
-189.6282077134447
 30
0.0
 11
-137.4785332587435
 21
-191.1032077134464
 31
0.0
  0
LINE
  5
1B9
330
6A
100
AcDbEntity
  8
0
  6
Continuous
 62
     7
100
AcDbLine
 10
-142.9785332587462
 20
-202.7945506645355
 30
0.0
 11
-145.1435967682073
 21
-202.1695506645355
 31
0.0
  0
LINE
  5
1BA
330
6A
100
AcDbEntity
  8
0
  6
Continuous
 62
     2
100
AcDbLine
 10
-145.1435967682073
 20
-202.1695506645355
 30
0.0
 11
-145.1435967682073
 21
-195.2413474342599
 31
0.0
  0
LINE
  5
1BB
330
6A
100
AcDbEntity
  8
0
  6
Continuous
 62
     2
100
AcDbLine
 10
-142.9785332587462
 20
-195.8663474342599
 30
0.0
 11
-142.9785332587462
 21
-202.7945506645355
 31
0.0
  0
LINE
  5
1BC
330
6A
100
AcDbEntity
  8
0
  6
Continuous
 62
     2
100
AcDbLine
 10
-140.2464824511773
 20
-195.5003220304755
 30
0.0
 11
-140.2464824511773
 21
-202.428525260751
 31
0.0
  0
LINE
  5
1BD
330
6A
100
AcDbEntity
  8
0
  6
Continuous
 62
     7
100
AcDbLine
 10
-145.1435967682073
 20
-195.2413474342599
 30
0.0
 11
-142.9785332587462
 21
-195.8663474342599
 31
0.0
  0
LINE
  5
1BE
330
6A
100
AcDbEntity
  8
0
  6
Continuous
 62
     2
100
AcDbLine
 10
-147.7416729805667
 20
-192.7592966275624
 30
0.0
 11
-147.7416729795606
 21
-194.4913474342599
 31
0.0
  0
LINE
  5
1BF
330
6A
100
AcDbEntity
  8
0
  6
Continuous
 62
     7
100
AcDbLine
 10
-146.5701339486432
 20
-191.0767648719605
 30
0.0
 11
-151.7679524211894
 21
-189.5762839247988
 31
0.0
  0
LINE
  5
1C0
330
6A
100
AcDbEntity
  8
0
  6
Continuous
 62
     7
100
AcDbLine
 10
-146.8201339486432
 20
-191.2932712229066
 30
0.0
 11
-145.3201339488383
 21
-189.9942331173988
 31
0.0
  0
LINE
  5
1C1
330
6A
100
AcDbEntity
  8
0
  6
Continuous
 62
     7
100
AcDbLine
 10
-136.7464824511775
 20
-192.4692331172299
 30
0.0
 11
-140.2464824511773
 21
-195.5003220304755
 31
0.0
  0
LINE
  5
1C2
330
6A
100
AcDbEntity
  8
0
  6
Continuous
 62
     7
100
AcDbLine
 10
-136.7464824511775
 20
-199.3974363475054
 30
0.0
 11
-140.2464824511773
 21
-202.428525260751
 31
0.0
  0
LINE
  5
1C3
330
6A
100
AcDbEntity
  8
0
  6
Continuous
 62
     7
100
AcDbLine
 10
-147.4737237871294
 20
-193.9913474342599
 30
0.0
 11
-147.4737237871294
 21
-192.2592966266911
 31
0.0
  0
LINE
  5
1C4
330
6A
100
AcDbEntity
  8
0
  6
Continuous
 62
     7
100
AcDbLine
 10
-159.9382407347101
 20
-190.3218341416287
 30
0.0
 11
-158.5000032287583
 21
-189.0762839247989
 31
0.0
  0
LINE
  5
1C5
330
6A
100
AcDbEntity
  8
0
  6
Continuous
 62
     7
100
AcDbLine
 10
-164.4625887608208
 20
-190.9099074488804
 30
0.0
 11
-164.4625887608208
 21
-194.3740090640181
 31
0.0
  0
LINE
  5
1C6
330
6A
100
AcDbEntity
  8
0
  6
Continuous
 62
     2
100
AcDbLine
 10
-163.4167992499399
 20
-191.4093830040112
 30
0.0
 11
-163.4167992499399
 21
-194.873484619149
 31
0.0
  0
LINE
  5
1C7
330
6A
100
AcDbEntity
  8
0
  6
Continuous
 62
     7
100
AcDbLine
 10
-147.7416729795606
 20
-194.4913474342599
 30
0.0
 11
-149.2416729795606
 21
-195.7903855399366
 31
0.0
  0
LINE
  5
1C8
330
6A
100
AcDbEntity
  8
0
  6
Continuous
 62
     7
100
AcDbLine
 10
-157.1339778249738
 20
-188.8932712229066
 30
0.0
 11
-148.4737237871294
 21
-191.3932712229066
 31
0.0
  0
LINE
  5
1C9
330
6A
100
AcDbEntity
  8
0
  6
Continuous
 62
     7
100
AcDbLine
 10
-166.1036245472869
 20
-195.6612131474016
 30
0.0
 11
-164.4625887608208
 21
-194.2400344678025
 31
0.0
  0
LINE
  5
1CA
330
6A
100
AcDbEntity
  8
0
  6
Continuous
 62
     2
100
AcDbLine
 10
-158.4785332587462
 20
-209.2897411929187
 30
0.0
 11
-158.4785332587462
 21
-216.2179444231942
 31
0.0
  0
LINE
  5
1CB
330
6A
100
AcDbEntity
  8
0
  6
Continuous
 62
     2
100
AcDbLine
 10
-155.7464824511773
 20
-208.9237157891343
 30
0.0
 11
-155.7464824511773
 21
-215.8519190194098
 31
0.0
  0
LINE
  5
1CC
330
6A
100
AcDbEntity
  8
0
  6
Continuous
 62
     2
100
AcDbLine
 10
-157.7416729785545
 20
-203.151601471233
 30
0.0
 11
-157.7416729785545
 21
-201.4195506636642
 31
0.0
  0
LINE
  5
1CD
330
6A
100
AcDbEntity
  8
0
  6
Continuous
 62
     7
100
AcDbLine
 10
-147.7416729805667
 20
-192.7592966275624
 30
0.0
 11
-157.7416729785545
 21
-201.4195506636642
 31
0.0
  0
SPLINE
  5
1CE
330
6A
100
AcDbEntity
  8
0
  6
Continuous
 62
     7
100
AcDbSpline
210
0.0
220
0.0
230
1.0
 70
     8
 71
     3
 72
     9
 73
     5
 74
     3
 42
0.000000001
 43
0.0000000001
 44
0.00000001
 40
0.0
 40
0.0
 40
0.0
 40
0.0
 40
0.3131907674155531
 40
0.5808314382619986
 40
0.5808314382619986
 40
0.5808314382619986
 40
0.5808314382619986
 10
-152.2464824511764
 20
-212.8208301061645
 30
0.0
 10
-152.169093344851
 20
-212.7459801220226
 30
0.0
 10
-152.0255705289746
 20
-212.6071662369918
 30
0.0
 10
-151.9933706135075
 20
-212.4111515145987
 30
0.0
 10
-151.9785332587455
 20
-212.3208301061647
 30
0.0
 11
-152.2464824511764
 21
-212.8208301061645
 31
0.0
 11
-152.0466821212101
 21
-212.5796490822645
 31
0.0
 11
-151.9785332587455
 21
-212.3208301061647
 31
0.0
  0
SPLINE
  5
1CF
330
6A
100
AcDbEntity
  8
0
  6
Continuous
 62
     7
100
AcDbSpline
210
0.0
220
0.0
230
1.0
 70
     8
 71
     3
 72
     9
 73
     5
 74
     3
 42
0.000000001
 43
0.0000000001
 44
0.00000001
 40
0.0
 40
0.0
 40
0.0
 40
0.0
 40
0.1838517503536291
 40
0.3493530425444752
 40
0.3493530425444752
 40
0.3493530425444752
 40
0.3493530425444752
 10
-154.0393967373581
 20
-206.5677012786736
 30
0.0
 10
-154.0012704778551
 20
-206.5180661595812
 30
0.0
 10
-153.9288234027898
 20
-206.4237500519515
 30
0.0
 10
-153.9146639588653
 20
-206.3059600554215
 30
0.0
 10
-153.9079561221521
 20
-206.2501586306193
 30
0.0
 11
-154.0393967373581
 21
-206.5677012786736
 31
0.0
 11
-153.9411609172187
 21
-206.412294745957
 31
0.0
 11
-153.9079561221521
 21
-206.2501586306193
 31
0.0
  0
SPLINE
  5
1D0
330
6A
100
AcDbEntity
  8
0
  6
Continuous
 62
     7
100
AcDbSpline
210
0.0
220
0.0
230
1.0
 70
     8
 71
     3
 72
    11
 73
     7
 74
     5
 42
0.000000001
 43
0.0000000001
 44
0.00000001
 40
0.0
 40
0.0
 40
0.0
 40
0.0
 40
0.4014610056788788
 40
0.8712471530816669
 40
1.440286922914198
 40
2.105766034724865
 40
2.105766034724865
 40
2.105766034724865
 40
2.105766034724865
 10
-156.6435967682073
 20
-202.6025633664277
 30
0.0
 10
-156.6207482154008
 20
-202.7370285446627
 30
0.0
 10
-156.5711624722752
 20
-203.0288436909186
 30
0.0
 10
-156.2269831323836
 20
-203.3931648654711
 30
0.0
 10
-155.7472856745544
 20
-203.6999645097647
 30
0.0
 10
-155.3550403389542
 20
-203.8309776186467
 30
0.0
 10
-155.1435967682073
 20
-203.9016014721043
 30
0.0
 11
-156.6435967682073
 21
-202.6025633664277
 31
0.0
 11
-156.5413734745103
 21
-202.9907918305775
 31
0.0
 11
-156.2416729795606
 21
-203.3525633664277
 31
0.0
 11
-155.7649165462107
 21
-203.6632232554293
 31
0.0
 11
-155.1435967682073
 21
-203.9016014721043
 31
0.0
  0
SPLINE
  5
1D1
330
6A
100
AcDbEntity
  8
0
  6
Continuous
 62
     7
100
AcDbSpline
210
0.0
220
0.0
230
1.0
 70
     8
 71
     3
 72
    11
 73
     7
 74
     5
 42
0.000000001
 43
0.0000000001
 44
0.00000001
 40
0.0
 40
0.0
 40
0.0
 40
0.0
 40
0.2676406691783058
 40
0.580831431795827
 40
0.9601912772601771
 40
1.403844020354006
 40
1.403844020354006
 40
1.403844020354006
 40
1.403844020354006
 10
-151.9785332587455
 20
-205.3926268758892
 30
0.0
 10
-151.9937656272106
 20
-205.3029834241593
 30
0.0
 10
-152.0268227938375
 20
-205.1084399958849
 30
0.0
 10
-152.2562756827052
 20
-204.8655592125199
 30
0.0
 10
-152.5760739884689
 20
-204.6610261173284
 30
0.0
 10
-152.8375708776483
 20
-204.5736840412765
 30
0.0
 10
-152.9785332587457
 20
-204.5266014721046
 30
0.0
 11
-151.9785332587455
 21
-205.3926268758892
 31
0.0
 11
-152.0466821212102
 21
-205.1338078997892
 31
0.0
 11
-152.2464824511767
 21
-204.8926268758891
 31
0.0
 11
-152.56432007341
 21
-204.6855202832213
 31
0.0
 11
-152.9785332587457
 21
-204.5266014721046
 31
0.0
  0
SPLINE
  5
1D2
330
6A
100
AcDbEntity
  8
0
  6
Continuous
 62
     7
100
AcDbSpline
210
0.0
220
0.0
230
1.0
 70
     8
 71
     3
 72
     9
 73
     5
 74
     3
 42
0.000000001
 43
0.0000000001
 44
0.00000001
 40
0.0
 40
0.0
 40
0.0
 40
0.0
 40
0.3131907674156331
 40
0.5808314382620091
 40
0.5808314382620091
 40
0.5808314382620091
 40
0.5808314382620091
 10
-152.2464824511764
 20
-205.892626875889
 30
0.0
 10
-152.169093344851
 20
-205.8177768917471
 30
0.0
 10
-152.0255705289746
 20
-205.6789630067163
 30
0.0
 10
-151.9933706135074
 20
-205.4829482843232
 30
0.0
 10
-151.9785332587455
 20
-205.3926268758892
 30
0.0
 11
-152.2464824511764
 21
-205.892626875889
 31
0.0
 11
-152.0466821212101
 21
-205.6514458519889
 31
0.0
 11
-151.9785332587455
 21
-205.3926268758892
 31
0.0
  0
SPLINE
  5
1D3
330
6A
100
AcDbEntity
  8
0
  6
Continuous
 62
     7
100
AcDbSpline
210
0.0
220
0.0
230
1.0
 70
     8
 71
     3
 72
    13
 73
     9
 74
     7
 42
0.000000001
 43
0.0000000001
 44
0.00000001
 40
0.0
 40
0.0
 40
0.0
 40
0.0
 40
0.370542790543651
 40
0.6772422313635066
 40
0.9698637655385982
 40
1.308266831434279
 40
1.723097300817985
 40
2.214110272984086
 40
2.214110272984086
 40
2.214110272984086
 40
2.214110272984086
 10
-153.7933133022039
 20
-206.4233637113762
 30
0.0
 10
-153.6964227090705
 20
-206.3448705341139
 30
0.0
 10
-153.5193354728908
 20
-206.2014082980113
 30
0.0
 10
-153.382408281587
 20
-205.8897860314173
 30
0.0
 10
-153.4380619624138
 20
-205.5655458586215
 30
0.0
 10
-153.6646636710328
 20
-205.287728878832
 30
0.0
 10
-154.015255380122
 20
-205.0571140965113
 30
0.0
 10
-154.3023411230285
 20
-204.9602983048134
 30
0.0
 10
-154.4579561221521
 20
-204.9078192547534
 30
0.0
 11
-153.7933133022039
 21
-206.4233637113762
 31
0.0
 11
-153.5270309632827
 21
-206.1656901179392
 31
0.0
 11
-153.411894539896
 21
-205.8814223695708
 31
0.0
 11
-153.4566920424712
 21
-205.5922501930032
 31
0.0
 11
-153.6580023673196
 21
-205.3202377116032
 31
0.0
 11
-154.0004680710762
 21
-205.0861403767236
 31
0.0
 11
-154.4579561221521
 21
-204.9078192547534
 31
0.0
  0
SPLINE
  5
1D4
330
6A
100
AcDbEntity
  8
0
  6
Continuous
 62
     7
100
AcDbSpline
210
0.0
220
0.0
230
1.0
 70
     8
 71
     3
 72
    19
 73
    15
 74
    13
 42
0.000000001
 43
0.0000000001
 44
0.00000001
 40
0.0
 40
0.0
 40
0.0
 40
0.0
 40
0.2141125340768161
 40
0.4646651460976712
 40
0.7681530276311683
 40
1.123075220021767
 40
1.517153946655207
 40
1.932160546068671
 40
2.347167145482052
 40
2.741245872115486
 40
3.096168064506111
 40
3.399655946039656
 40
3.650208558060474
 40
3.864321092137291
 40
3.864321092137291
 40
3.864321092137291
 40
3.864321092137291
 10
-153.9079561221521
 20
-206.2501586306193
 30
0.0
 10
-153.9201477592349
 20
-206.1784672207285
 30
0.0
 10
-153.9466059615067
 20
-206.022883158365
 30
0.0
 10
-154.1300547235352
 20
-205.8281168645599
 30
0.0
 10
-154.3864609618194
 20
-205.6667984413519
 30
0.0
 10
-154.7182153190851
 20
-205.5443096223951
 30
0.0
 10
-155.0995400704389
 20
-205.4674748149399
 30
0.0
 10
-155.5079561221521
 20
-205.4412765723501
 30
0.0
 10
-155.9163721738654
 20
-205.46747481494
 30
0.0
 10
-156.2976969252191
 20
-205.544309622395
 30
0.0
 10
-156.629451282485
 20
-205.6667984413519
 30
0.0
 10
-156.8858575207692
 20
-205.8281168645598
 30
0.0
 10
-157.0693062827975
 20
-206.022883158365
 30
0.0
 10
-157.0957644850694
 20
-206.1784672207285
 30
0.0
 10
-157.1079561221522
 20
-206.2501586306193
 30
0.0
 11
-153.9079561221521
 21
-206.2501586306193
 31
0.0
 11
-153.9624752121238
 21
-206.0431034497394
 31
0.0
 11
-154.122315476097
 21
-205.8501586306193
 31
0.0
 11
-154.3765855738836
 21
-205.6844733564851
 31
0.0
 11
-154.7079561221521
 21
-205.5573383075917
 31
0.0
 11
-155.0938457603923
 21
-205.4774181756052
 31
0.0
 11
-155.5079561221522
 21
-205.4501586306193
 31
0.0
 11
-155.9220664839119
 21
-205.4774181756052
 31
0.0
 11
-156.3079561221521
 21
-205.5573383075917
 31
0.0
 11
-156.6393266704207
 21
-205.6844733564851
 31
0.0
 11
-156.8935967682073
 21
-205.8501586306193
 31
0.0
 11
-157.0534370321805
 21
-206.0431034497394
 31
0.0
 11
-157.1079561221522
 21
-206.2501586306193
 31
0.0
  0
SPLINE
  5
1D5
330
6A
100
AcDbEntity
  8
0
  6
Continuous
 62
     7
100
AcDbSpline
210
0.0
220
0.0
230
1.0
 70
     8
 71
     3
 72
    17
 73
    13
 74
    11
 42
0.000000001
 43
0.0000000001
 44
0.00000001
 40
0.0
 40
0.0
 40
0.0
 40
0.0
 40
0.5360002727822025
 40
1.100421849644177
 40
1.662736113244049
 40
2.192692470997001
 40
2.664571654076736
 40
3.062471353923358
 40
3.388442271393115
 40
3.673737601988165
 40
3.975165738663531
 40
4.338401572394051
 40
4.338401572394051
 40
4.338401572394051
 40
4.338401572394051
 10
-154.4579561221521
 20
-204.9078192547534
 30
0.0
 10
-154.6321641411217
 20
-204.8667532457047
 30
0.0
 10
-154.9898175259048
 20
-204.7824437233287
 30
0.0
 10
-155.5462572437471
 20
-204.7559887970412
 30
0.0
 10
-156.0982220910112
 20
-204.7962399243343
 30
0.0
 10
-156.6094779287225
 20
-204.9086621330792
 30
0.0
 10
-157.0450786340015
 20
-205.0836009688097
 30
0.0
 10
-157.3770583567448
 20
-205.3111293473022
 30
0.0
 10
-157.5865226745236
 20
-205.5872764622014
 30
0.0
 10
-157.6298614246012
 20
-205.9038501288784
 30
0.0
 10
-157.4913823909727
 20
-206.205972479883
 30
0.0
 10
-157.317580750177
 20
-206.3465427184221
 30
0.0
 10
-157.2225989421004
 20
-206.4233637113762
 30
0.0
 11
-154.4579561221521
 21
-204.9078192547534
 31
0.0
 11
-154.9830965143292
 21
-204.8004700339941
 31
0.0
 11
-155.5465439422072
 21
-204.7673232079614
 31
0.0
 11
-156.1071749777098
 21
-204.8107993345071
 31
0.0
 11
-156.624071845541
 21
-204.9277239686872
 31
0.0
 11
-157.0595072623542
 21
-205.1095644551521
 31
0.0
 11
-157.3817022544262
 21
-205.3430479874248
 31
0.0
 11
-157.5671389556008
 21
-205.611134299153
 31
0.0
 11
-157.6022855808392
 21
-205.8942564313772
 31
0.0
 11
-157.4845742962399
 21
-206.1717505330101
 31
0.0
 11
-157.2225989421004
 21
-206.4233637113762
 31
0.0
  0
SPLINE
  5
1D6
330
6A
100
AcDbEntity
  8
0
  6
Continuous
 62
     7
100
AcDbSpline
210
0.0
220
0.0
230
1.0
 70
     8
 71
     3
 72
    15
 73
    11
 74
     9
 42
0.000000001
 43
0.0000000001
 44
0.00000001
 40
0.0
 40
0.0
 40
0.0
 40
0.0
 40
0.3834088611647654
 40
0.8204432326718012
 40
1.297167939879016
 40
1.794847941968117
 40
2.292527944057194
 40
2.769252651264436
 40
3.206287022771427
 40
3.589695883936142
 40
3.589695883936142
 40
3.589695883936142
 40
3.589695883936142
 10
-157.2225989421004
 20
-206.4233637113762
 30
0.0
 10
-157.1128039487234
 20
-206.4895130148754
 30
0.0
 10
-156.8778574677267
 20
-206.6310635817565
 30
0.0
 10
-156.4622000435573
 20
-206.7618855534686
 30
0.0
 10
-155.9991876607054
 20
-206.8484617091181
 30
0.0
 10
-155.5079561221521
 20
-206.876688962629
 30
0.0
 10
-155.0167245835988
 20
-206.8484617091179
 30
0.0
 10
-154.553712200747
 20
-206.7618855534686
 30
0.0
 10
-154.1380547765775
 20
-206.6310635817563
 30
0.0
 10
-153.9031082955808
 20
-206.4895130148754
 30
0.0
 10
-153.7933133022039
 20
-206.4233637113762
 30
0.0
 11
-157.2225989421004
 21
-206.4233637113762
 31
0.0
 11
-156.8871096261174
 21
-206.6089688662213
 31
0.0
 11
-156.4733278932522
 21
-206.7496234544031
 31
0.0
 11
-156.0047429177124
 21
-206.837342175121
 31
0.0
 11
-155.5079561221521
 21
-206.8671459287271
 31
0.0
 11
-155.0111693265918
 21
-206.837342175121
 31
0.0
 11
-154.542584351052
 21
-206.749623454403
 31
0.0
 11
-154.1288026181869
 21
-206.6089688662213
 31
0.0
 11
-153.7933133022039
 21
-206.4233637113762
 31
0.0
  0
SPLINE
  5
1D7
330
6A
100
AcDbEntity
  8
0
  6
Continuous
 62
     7
100
AcDbSpline
210
0.0
220
0.0
230
1.0
 70
     8
 71
     3
 72
    13
 73
     9
 74
     7
 42
0.000000001
 43
0.0000000001
 44
0.00000001
 40
0.0
 40
0.0
 40
0.0
 40
0.0
 40
0.3793598466622968
 40
0.8230125772160237
 40
1.315610977696645
 40
1.834369222940036
 40
2.353127471103722
 40
2.845725878675899
 40
2.845725878675899
 40
2.845725878675899
 40
2.845725878675899
 10
-140.2464824511773
 20
-202.428525260751
 30
0.0
 10
-140.3497570117478
 20
-202.5024295543575
 30
0.0
 10
-140.5738088353655
 20
-202.6627632289798
 30
0.0
 10
-140.9922570036365
 20
-202.8091682992238
 30
0.0
 10
-141.4678058184805
 20
-202.9076143161519
 30
0.0
 10
-141.9783571657218
 20
-202.9384811897656
 30
0.0
 10
-142.489947270724
 20
-202.9106165671942
 30
0.0
 10
-142.8185040902705
 20
-202.832566352283
 30
0.0
 10
-142.9785332587462
 20
-202.7945506645355
 30
0.0
 11
-140.2464824511773
 21
-202.428525260751
 31
0.0
 11
-140.5643200734106
 21
-202.6356318534188
 31
0.0
 11
-140.9785332587462
 21
-202.7945506645354
 31
0.0
 11
-141.4608953065464
 21
-202.8944508295187
 31
0.0
 11
-141.9785332587462
 21
-202.928525260751
 31
0.0
 11
-142.4961712109459
 21
-202.8944508295187
 31
0.0
 11
-142.9785332587462
 21
-202.7945506645355
 31
0.0
  0
SPLINE
  5
1D8
330
6A
100
AcDbEntity
  8
0
  6
Continuous
 62
     7
100
AcDbSpline
210
0.0
220
0.0
230
1.0
 70
     8
 71
     3
 72
    11
 73
     7
 74
     5
 42
0.000000001
 43
0.0000000001
 44
0.00000001
 40
0.0
 40
0.0
 40
0.0
 40
0.0
 40
0.221826374376795
 40
0.4115062954728863
 40
0.5681016733050421
 40
0.7019220059826087
 40
0.7019220059826087
 40
0.7019220059826087
 40
0.7019220059826087
 10
-169.1339778249738
 20
-195.8214744531821
 30
0.0
 10
-169.2044590164217
 20
-195.7979331682959
 30
0.0
 10
-169.3352074591801
 20
-195.7542621250741
 30
0.0
 10
-169.4951066128782
 20
-195.6519955789848
 30
0.0
 10
-169.609833050722
 20
-195.5305551868074
 30
0.0
 10
-169.62636164085
 20
-195.4332834765145
 30
0.0
 10
-169.6339778249738
 20
-195.3884617512899
 30
0.0
 11
-169.1339778249738
 21
-195.8214744531821
 31
0.0
 11
-169.3410844176416
 21
-195.7420150476238
 31
0.0
 11
-169.5000032287583
 21
-195.6384617512899
 31
0.0
 11
-169.5999033937415
 21
-195.5178712393399
 31
0.0
 11
-169.6339778249738
 21
-195.3884617512899
 31
0.0
  0
SPLINE
  5
1D9
330
6A
100
AcDbEntity
  8
0
  6
Continuous
 62
     7
100
AcDbSpline
210
0.0
220
0.0
230
1.0
 70
     8
 71
     3
 72
     9
 73
     5
 74
     3
 42
0.000000001
 43
0.0000000001
 44
0.00000001
 40
0.0
 40
0.0
 40
0.0
 40
0.0
 40
0.1338203343458104
 40
0.2904157169762966
 40
0.2904157169762966
 40
0.2904157169762966
 40
0.2904157169762966
 10
-169.6339778249738
 20
-195.3884617512899
 30
0.0
 10
-169.6265591476526
 20
-195.3433010474365
 30
0.0
 10
-169.6104591809396
 20
-195.2452936902728
 30
0.0
 10
-169.5386977816548
 20
-195.1758867431033
 30
0.0
 10
-169.5000032287583
 20
-195.1384617512899
 30
0.0
 11
-169.6339778249738
 21
-195.3884617512899
 31
0.0
 11
-169.5999033937415
 21
-195.25905226324
 31
0.0
 11
-169.5000032287583
 21
-195.1384617512899
 31
0.0
  0
SPLINE
  5
1DA
330
6A
100
AcDbEntity
  8
0
  6
Continuous
 62
     7
100
AcDbSpline
210
0.0
220
0.0
230
1.0
 70
     8
 71
     3
 72
    15
 73
    11
 74
     9
 42
0.000000001
 43
0.0000000001
 44
0.00000001
 40
0.0
 40
0.0
 40
0.0
 40
0.0
 40
0.1880820047186094
 40
0.4104203395051023
 40
0.659629094132973
 40
0.9239108699309612
 40
1.189411752787052
 40
1.442121155576837
 40
1.669742444210152
 40
1.863926863184765
 40
1.863926863184765
 40
1.863926863184765
 40
1.863926863184765
 10
-167.4173550950611
 20
-194.8739659951445
 30
0.0
 10
-167.4668906837236
 20
-194.8350338004579
 30
0.0
 10
-167.574984040639
 20
-194.7500785113863
 30
0.0
 10
-167.783404849727
 20
-194.6717327829387
 30
0.0
 10
-168.0229317830801
 20
-194.6178993492049
 30
0.0
 10
-168.2828182638313
 20
-194.598352580488
 30
0.0
 10
-168.5441965803546
 20
-194.6120998083919
 30
0.0
 10
-168.7883250996344
 20
-194.6604995116407
 30
0.0
 10
-169.0034284311834
 20
-194.7342120305748
 30
0.0
 10
-169.1184434528205
 20
-194.8161534126026
 30
0.0
 10
-169.1713922933033
 20
-194.8538763332245
 30
0.0
 11
-167.4173550950611
 21
-194.8739659951445
 31
0.0
 11
-167.5704950640692
 21
-194.764773548473
 31
0.0
 11
-167.7759162014241
 21
-194.6797059752211
 31
0.0
 11
-168.0190048002883
 21
-194.6248157555771
 31
0.0
 11
-168.2824661281985
 21
-194.6040074612943
 31
0.0
 11
-168.5475567174372
 21
-194.6187620474039
 31
0.0
 11
-168.7954171357068
 21
-194.6680292393353
 31
0.0
 11
-169.0084132139549
 21
-194.748304519464
 31
0.0
 11
-169.1713922933033
 21
-194.8538763332245
 31
0.0
  0
SPLINE
  5
1DB
330
6A
100
AcDbEntity
  8
0
  6
Continuous
 62
     7
100
AcDbSpline
210
0.0
220
0.0
230
1.0
 70
     8
 71
     3
 72
    13
 73
     9
 74
     7
 42
0.000000001
 43
0.0000000001
 44
0.00000001
 40
0.0
 40
0.0
 40
0.0
 40
0.0
 40
0.2678239608881031
 40
0.5237527669827123
 40
0.7550253998666978
 40
0.9527550791301955
 40
1.115258985469811
 40
1.253155078510984
 40
1.253155078510984
 40
1.253155078510984
 40
1.253155078510984
 10
-163.4167992499399
 20
-191.4093830040112
 30
0.0
 10
-163.5062144319782
 20
-191.408020387698
 30
0.0
 10
-163.6810735026007
 20
-191.4053556701636
 30
0.0
 10
-163.9293559929943
 20
-191.3583020522947
 30
0.0
 10
-164.1466919845644
 20
-191.2829388127226
 30
0.0
 10
-164.3153163750578
 20
-191.1809283879729
 30
0.0
 10
-164.4367634976573
 20
-191.0566339380133
 30
0.0
 10
-164.4544636577846
 20
-190.9560703298464
 30
0.0
 10
-164.4625887608208
 20
-190.9099074488804
 30
0.0
 11
-163.4167992499399
 21
-191.4093830040112
 31
0.0
 11
-163.6843575380553
 21
-191.3974569273521
 31
0.0
 11
-163.9359139282085
 21
-191.3503513402891
 31
0.0
 11
-164.1533165959775
 21
-191.2714646449532
 31
0.0
 11
-164.3208792615803
 21
-191.1664895099768
 31
0.0
 11
-164.4265102626366
 21
-191.0430001841497
 31
0.0
 11
-164.4625887608208
 21
-190.9099074488804
 31
0.0
  0
SPLINE
  5
1DC
330
6A
100
AcDbEntity
  8
0
  6
Continuous
 62
     7
100
AcDbSpline
210
0.0
220
0.0
230
1.0
 70
     8
 71
     3
 72
     9
 73
     5
 74
     3
 42
0.000000001
 43
0.0000000001
 44
0.00000001
 40
0.0
 40
0.0
 40
0.0
 40
0.0
 40
0.1338203347649773
 40
0.2904157179992506
 40
0.2904157179992506
 40
0.2904157179992506
 40
0.2904157179992506
 10
-164.4625887608208
 20
-190.9099074488804
 30
0.0
 10
-164.455170083448
 20
-190.864746744886
 30
0.0
 10
-164.439070116617
 20
-190.7667393873782
 30
0.0
 10
-164.3673087169399
 20
-190.6973324400895
 30
0.0
 10
-164.3286141638189
 20
-190.6599074481993
 30
0.0
 11
-164.4625887608208
 21
-190.9099074488804
 31
0.0
 11
-164.4285143293849
 21
-190.7804979604506
 31
0.0
 11
-164.3286141638189
 21
-190.6599074481993
 31
0.0
  0
SPLINE
  5
1DD
330
6A
100
AcDbEntity
  8
0
  6
Continuous
 62
     7
100
AcDbSpline
210
0.0
220
0.0
230
1.0
 70
     8
 71
     3
 72
    11
 73
     7
 74
     5
 42
0.000000001
 43
0.0000000001
 44
0.00000001
 40
0.0
 40
0.0
 40
0.0
 40
0.0
 40
0.1972894111079047
 40
0.428912122712534
 40
0.6860320889611817
 40
0.9557052910115453
 40
0.9557052910115453
 40
0.9557052910115453
 40
0.9557052910115453
 10
-163.8083837773105
 20
-190.2093747176625
 30
0.0
 10
-163.7545282755391
 20
-190.1711002851183
 30
0.0
 10
-163.63744505707
 20
-190.0878907229375
 30
0.0
 10
-163.4182932268429
 20
-190.014299020472
 30
0.0
 10
-163.1697519216721
 20
-189.9645734580886
 30
0.0
 10
-162.9937954106261
 20
-189.9613818820349
 30
0.0
 10
-162.9037206737574
 20
-189.9597480745881
 30
0.0
 11
-163.8083837773105
 21
-190.2093747176625
 31
0.0
 11
-163.642600079318
 21
-190.1024220277939
 31
0.0
 11
-163.4255312867301
 21
-190.0216122429825
 31
0.0
 11
-163.1730747124347
 21
-189.9728643607319
 31
0.0
 11
-162.9037206737574
 21
-189.9597480745881
 31
0.0
  0
SPLINE
  5
1DE
330
6A
100
AcDbEntity
  8
0
  6
Continuous
 62
     7
100
AcDbSpline
210
0.0
220
0.0
230
1.0
 70
     8
 71
     3
 72
     9
 73
     5
 74
     3
 42
0.000000001
 43
0.0000000001
 44
0.00000001
 40
0.0
 40
0.0
 40
0.0
 40
0.0
 40
0.2967063112408301
 40
0.5787496593318286
 40
0.5787496593318286
 40
0.5787496593318286
 40
0.5787496593318286
 10
-162.6388672111456
 20
-197.5966139032955
 30
0.0
 10
-162.7381550248749
 20
-197.5967786267557
 30
0.0
 10
-162.9318239349348
 20
-197.5970999133463
 30
0.0
 10
-163.1202746794941
 20
-197.552637576186
 30
0.0
 10
-163.2121127950087
 20
-197.5309696377596
 30
0.0
 11
-162.6388672111456
 21
-197.5966139032955
 31
0.0
 11
-162.935359170485
 21
-197.5853376610343
 31
0.0
 11
-163.2121127950087
 21
-197.5309696377596
 31
0.0
  0
SPLINE
  5
1DF
330
6A
100
AcDbEntity
  8
0
  6
Continuous
 62
     7
100
AcDbSpline
210
0.0
220
0.0
230
1.0
 70
     8
 71
     3
 72
     9
 73
     5
 74
     3
 42
0.000000001
 43
0.0000000001
 44
0.00000001
 40
0.0
 40
0.0
 40
0.0
 40
0.0
 40
0.2967063112408323
 40
0.5787496593318253
 40
0.5787496593318253
 40
0.5787496593318253
 40
0.5787496593318253
 10
-162.6388672111456
 20
-201.0607155184333
 30
0.0
 10
-162.7381550248749
 20
-201.0608802418935
 30
0.0
 10
-162.9318239349349
 20
-201.061201528484
 30
0.0
 10
-163.1202746794941
 20
-201.0167391913238
 30
0.0
 10
-163.2121127950087
 20
-200.9950712528974
 30
0.0
 11
-162.6388672111456
 21
-201.0607155184333
 31
0.0
 11
-162.935359170485
 21
-201.0494392761721
 31
0.0
 11
-163.2121127950087
 21
-200.9950712528974
 31
0.0
  0
SPLINE
  5
1E0
330
6A
100
AcDbEntity
  8
0
  6
Continuous
 62
     7
100
AcDbSpline
210
0.0
220
0.0
230
1.0
 70
     8
 71
     3
 72
    11
 73
     7
 74
     5
 42
0.000000001
 43
0.0000000001
 44
0.00000001
 40
0.0
 40
0.0
 40
0.0
 40
0.0
 40
0.4436527430937757
 40
0.823012588558071
 40
1.136203351175596
 40
1.403844020353797
 40
1.403844020353797
 40
1.403844020353797
 40
1.403844020353797
 10
-163.5880831410743
 20
-210.4128174042721
 30
0.0
 10
-163.7290455221717
 20
-210.3657348351002
 30
0.0
 10
-163.9905424113511
 20
-210.2783927590484
 30
0.0
 10
-164.3103407171146
 20
-210.0738596638567
 30
0.0
 10
-164.5397936059824
 20
-209.8309788804919
 30
0.0
 10
-164.5728507726091
 20
-209.6364354522175
 30
0.0
 10
-164.5880831410743
 20
-209.5467920004876
 30
0.0
 11
-163.5880831410743
 21
-210.4128174042721
 31
0.0
 11
-164.0022963264099
 21
-210.2538985931554
 31
0.0
 11
-164.3201339486432
 21
-210.0467920004876
 31
0.0
 11
-164.5199342786097
 21
-209.8056109765875
 31
0.0
 11
-164.5880831410743
 21
-209.5467920004876
 31
0.0
  0
SPLINE
  5
1E1
330
6A
100
AcDbEntity
  8
0
  6
Continuous
 62
     7
100
AcDbSpline
210
0.0
220
0.0
230
1.0
 70
     8
 71
     3
 72
    13
 73
     9
 74
     7
 42
0.000000001
 43
0.0000000001
 44
0.00000001
 40
0.0
 40
0.0
 40
0.0
 40
0.0
 40
0.2678239608881031
 40
0.5237527669827176
 40
0.7550253998666934
 40
0.952755079130161
 40
1.115258985469819
 40
1.253155078511075
 40
1.253155078511075
 40
1.253155078511075
 40
1.253155078511075
 10
-163.4167992499399
 20
-194.873484619149
 30
0.0
 10
-163.5062144319782
 20
-194.8721220028358
 30
0.0
 10
-163.6810735026007
 20
-194.8694572853015
 30
0.0
 10
-163.9293559929943
 20
-194.8224036674324
 30
0.0
 10
-164.1466919845643
 20
-194.7470404278604
 30
0.0
 10
-164.3153163750578
 20
-194.6450300031108
 30
0.0
 10
-164.4367634976573
 20
-194.520735553151
 30
0.0
 10
-164.4544636577845
 20
-194.4201719449842
 30
0.0
 10
-164.4625887608208
 20
-194.3740090640181
 30
0.0
 11
-163.4167992499399
 21
-194.873484619149
 31
0.0
 11
-163.6843575380553
 21
-194.8615585424899
 31
0.0
 11
-163.9359139282085
 21
-194.8144529554269
 31
0.0
 11
-164.1533165959775
 21
-194.735566260091
 31
0.0
 11
-164.3208792615803
 21
-194.6305911251147
 31
0.0
 11
-164.4265102626366
 21
-194.5071017992875
 31
0.0
 11
-164.4625887608208
 21
-194.3740090640181
 31
0.0
  0
SPLINE
  5
1E2
330
6A
100
AcDbEntity
  8
0
  6
Continuous
 62
     7
100
AcDbSpline
210
0.0
220
0.0
230
1.0
 70
     8
 71
     3
 72
    11
 73
     7
 74
     5
 42
0.000000001
 43
0.0000000001
 44
0.00000001
 40
0.0
 40
0.0
 40
0.0
 40
0.0
 40
0.2632857635824789
 40
0.5394302158689874
 40
0.8388560017331066
 40
1.168410710496928
 40
1.168410710496928
 40
1.168410710496928
 40
1.168410710496928
 10
-162.284235563781
 20
-204.1496776834576
 30
0.0
 10
-162.2910791818534
 20
-204.2376881361327
 30
0.0
 10
-162.3051006701
 20
-204.4180074070567
 30
0.0
 10
-162.4162691028532
 20
-204.6789717109353
 30
0.0
 10
-162.5864231008861
 20
-204.9304017742334
 30
0.0
 10
-162.7397816427947
 20
-205.0742882717163
 30
0.0
 10
-162.8201339486432
 20
-205.1496776834576
 30
0.0
 11
-162.284235563781
 21
-204.1496776834576
 31
0.0
 11
-162.3184561347945
 21
-204.410730066811
 31
0.0
 11
-162.4205322586247
 21
-204.6673157736627
 31
0.0
 11
-162.5887174491195
 21
-204.9150445450017
 31
0.0
 11
-162.8201339486432
 21
-205.1496776834576
 31
0.0
  0
SPLINE
  5
1E3
330
6A
100
AcDbEntity
  8
0
  6
Continuous
 62
     7
100
AcDbSpline
210
0.0
220
0.0
230
1.0
 70
     8
 71
     3
 72
    13
 73
     9
 74
     7
 42
0.000000001
 43
0.0000000001
 44
0.00000001
 40
0.0
 40
0.0
 40
0.0
 40
0.0
 40
0.4925984078981815
 40
1.011356656405165
 40
1.530114901957701
 40
2.02271330266605
 40
2.466366033334383
 40
2.84572587999808
 40
2.84572587999808
 40
2.84572587999808
 40
2.84572587999808
 10
-160.4737237871296
 20
-201.78557606832
 30
0.0
 10
-160.3136946185465
 20
-201.823591756088
 30
0.0
 10
-159.9851377987796
 20
-201.9016419710409
 30
0.0
 10
-159.4735476934441
 20
-201.9295065935627
 30
0.0
 10
-158.9629963459123
 20
-201.8986397198285
 30
0.0
 10
-158.4874475308882
 20
-201.8001937027028
 30
0.0
 10
-158.0689993625585
 20
-201.6537886322281
 30
0.0
 10
-157.8449475390572
 20
-201.4934549573695
 30
0.0
 10
-157.7416729785545
 20
-201.4195506636642
 30
0.0
 11
-160.4737237871296
 21
-201.78557606832
 31
0.0
 11
-159.9913617390054
 21
-201.8854762333468
 31
0.0
 11
-159.4737237864587
 21
-201.9195506645358
 31
0.0
 11
-158.9560858339578
 21
-201.8854762331733
 31
0.0
 11
-158.4737237859675
 21
-201.7855760679848
 31
0.0
 11
-158.059510600608
 21
-201.6266572566106
 31
0.0
 11
-157.7416729785545
 21
-201.4195506636642
 31
0.0
  0
SPLINE
  5
1E4
330
6A
100
AcDbEntity
  8
0
  6
Continuous
 62
     7
100
AcDbSpline
210
0.0
220
0.0
230
1.0
 70
     8
 71
     3
 72
    13
 73
     9
 74
     7
 42
0.000000001
 43
0.0000000001
 44
0.00000001
 40
0.0
 40
0.0
 40
0.0
 40
0.0
 40
0.3793598466622503
 40
0.823012577216018
 40
1.315610977696655
 40
1.834369222940019
 40
2.353127471103708
 40
2.845725878675896
 40
2.845725878675896
 40
2.845725878675896
 40
2.845725878675896
 10
-155.7464824511773
 20
-208.9237157891343
 30
0.0
 10
-155.8497570117479
 20
-208.9976200827408
 30
0.0
 10
-156.0738088353655
 20
-209.1579537573629
 30
0.0
 10
-156.4922570036364
 20
-209.3043588276071
 30
0.0
 10
-156.9678058184806
 20
-209.4028048445352
 30
0.0
 10
-157.4783571657218
 20
-209.4336717181489
 30
0.0
 10
-157.989947270724
 20
-209.4058070955774
 30
0.0
 10
-158.3185040902705
 20
-209.3277568806663
 30
0.0
 10
-158.4785332587462
 20
-209.2897411929187
 30
0.0
 11
-155.7464824511773
 21
-208.9237157891343
 31
0.0
 11
-156.0643200734106
 21
-209.130822381802
 31
0.0
 11
-156.4785332587462
 21
-209.2897411929188
 31
0.0
 11
-156.9608953065465
 21
-209.389641357902
 31
0.0
 11
-157.4785332587462
 21
-209.4237157891343
 31
0.0
 11
-157.9961712109459
 21
-209.389641357902
 31
0.0
 11
-158.4785332587462
 21
-209.2897411929187
 31
0.0
  0
SPLINE
  5
1E5
330
6A
100
AcDbEntity
  8
0
  6
Continuous
 62
     7
100
AcDbSpline
210
0.0
220
0.0
230
1.0
 70
     8
 71
     3
 72
    11
 73
     7
 74
     5
 42
0.000000001
 43
0.0000000001
 44
0.00000001
 40
0.0
 40
0.0
 40
0.0
 40
0.0
 40
0.221826374376795
 40
0.4115062954728863
 40
0.5681016733050859
 40
0.7019220059825975
 40
0.7019220059825975
 40
0.7019220059825975
 40
0.7019220059825975
 10
-169.1339778249738
 20
-203.6157030872421
 30
0.0
 10
-169.2044590164217
 20
-203.5921618023558
 30
0.0
 10
-169.3352074591801
 20
-203.5484907591342
 30
0.0
 10
-169.4951066128783
 20
-203.4462242130448
 30
0.0
 10
-169.6098330507219
 20
-203.3247838208674
 30
0.0
 10
-169.6263616408501
 20
-203.2275121105745
 30
0.0
 10
-169.6339778249738
 20
-203.1826903853499
 30
0.0
 11
-169.1339778249738
 21
-203.6157030872421
 31
0.0
 11
-169.3410844176416
 21
-203.5362436816838
 31
0.0
 11
-169.5000032287583
 21
-203.4326903853499
 31
0.0
 11
-169.5999033937415
 21
-203.3120998733998
 31
0.0
 11
-169.6339778249738
 21
-203.1826903853499
 31
0.0
  0
SPLINE
  5
1E6
330
6A
100
AcDbEntity
  8
0
  6
Continuous
 62
     7
100
AcDbSpline
210
0.0
220
0.0
230
1.0
 70
     8
 71
     3
 72
     9
 73
     5
 74
     3
 42
0.000000001
 43
0.0000000001
 44
0.00000001
 40
0.0
 40
0.0
 40
0.0
 40
0.0
 40
0.6200806049515294
 40
1.183206800379241
 40
1.183206800379241
 40
1.183206800379241
 40
1.183206800379241
 10
-164.284235563781
 20
-205.0157030872421
 30
0.0
 10
-164.0864739935906
 20
-205.077783698284
 30
0.0
 10
-163.7091152626305
 20
-205.1962428342337
 30
0.0
 10
-163.36213384495
 20
-205.3858216083906
 30
0.0
 10
-163.1969942254227
 20
-205.4760482568259
 30
0.0
 11
-164.284235563781
 21
-205.0157030872421
 31
0.0
 11
-163.6992938972255
 21
-205.2214777313918
 31
0.0
 11
-163.1969942254227
 21
-205.4760482568259
 31
0.0
  0
SPLINE
  5
1E7
330
6A
100
AcDbEntity
  8
0
  6
Continuous
 62
     7
100
AcDbSpline
210
0.0
220
0.0
230
1.0
 70
     8
 71
     3
 72
    19
 73
    15
 74
    13
 42
0.000000001
 43
0.0000000001
 44
0.00000001
 40
0.0
 40
0.0
 40
0.0
 40
0.0
 40
0.3479328705774657
 40
0.7550808673835695
 40
1.248248673285335
 40
1.824997234392871
 40
2.465375163279266
 40
3.139760885031641
 40
3.814146606784045
 40
4.454524535670407
 40
5.031273096777933
 40
5.524440902679713
 40
5.931588899485759
 40
6.279521770063238
 40
6.279521770063238
 40
6.279521770063238
 40
6.279521770063238
 10
-165.4162863713498
 20
-206.247753894811
 30
0.0
 10
-165.4360977817634
 20
-206.3642524367885
 30
0.0
 10
-165.4790923493271
 20
-206.6170765444543
 30
0.0
 10
-165.7771966087474
 20
-206.9335717583076
 30
0.0
 10
-166.1938567393114
 20
-207.195714199954
 30
0.0
 10
-166.7329575708411
 20
-207.3947585278532
 30
0.0
 10
-167.3526102893296
 20
-207.5196150894553
 30
0.0
 10
-168.0162863713498
 20
-207.5621872330322
 30
0.0
 10
-168.6799624533701
 20
-207.5196150894552
 30
0.0
 10
-169.2996151718586
 20
-207.3947585278533
 30
0.0
 10
-169.8387160033883
 20
-207.1957141999539
 30
0.0
 10
-170.2553761339523
 20
-206.9335717583078
 30
0.0
 10
-170.5534803933725
 20
-206.6170765444543
 30
0.0
 10
-170.5964749609363
 20
-206.3642524367885
 30
0.0
 10
-170.6162863713498
 20
-206.247753894811
 30
0.0
 11
-165.4162863713498
 21
-206.247753894811
 31
0.0
 11
-165.5048798925539
 21
-206.5842185637408
 31
0.0
 11
-165.7646203215103
 21
-206.8977538948109
 31
0.0
 11
-166.1778092304136
 21
-207.166992465279
 31
0.0
 11
-166.7162863713498
 21
-207.3735869197307
 31
0.0
 11
-167.3433570334902
 21
-207.503457134209
 31
0.0
 11
-168.0162863713498
 21
-207.547753894811
 31
0.0
 11
-168.6892157092095
 21
-207.5034571342089
 31
0.0
 11
-169.3162863713499
 21
-207.3735869197307
 31
0.0
 11
-169.8547635122861
 21
-207.1669924652791
 31
0.0
 11
-170.2679524211894
 21
-206.8977538948109
 31
0.0
 11
-170.5276928501457
 21
-206.5842185637408
 31
0.0
 11
-170.6162863713498
 21
-206.247753894811
 31
0.0
  0
SPLINE
  5
1E8
330
6A
100
AcDbEntity
  8
0
  6
Continuous
 62
     7
100
AcDbSpline
210
0.0
220
0.0
230
1.0
 70
     8
 71
     3
 72
    11
 73
     7
 74
     5
 42
0.000000001
 43
0.0000000001
 44
0.00000001
 40
0.0
 40
0.0
 40
0.0
 40
0.0
 40
0.5767485643238458
 40
1.069916364409117
 40
1.477064357897803
 40
1.82499722897649
 40
1.82499722897649
 40
1.82499722897649
 40
1.82499722897649
 10
-166.7162863713498
 20
-205.1219208698912
 30
0.0
 10
-166.5330352764628
 20
-205.1831282096346
 30
0.0
 10
-166.193089319431
 20
-205.2966729053845
 30
0.0
 10
-165.7773515224279
 20
-205.5625659300372
 30
0.0
 10
-165.4790627629458
 20
-205.8783109481147
 30
0.0
 10
-165.4360884504197
 20
-206.131217407178
 30
0.0
 10
-165.4162863713498
 20
-206.247753894811
 30
0.0
 11
-166.7162863713498
 21
-205.1219208698912
 31
0.0
 11
-166.1778092304136
 21
-205.3285153243428
 31
0.0
 11
-165.7646203215103
 21
-205.5977538948109
 31
0.0
 11
-165.5048798925539
 21
-205.9112892258811
 31
0.0
 11
-165.4162863713498
 21
-206.247753894811
 31
0.0
  0
SPLINE
  5
1E9
330
6A
100
AcDbEntity
  8
0
  6
Continuous
 62
     7
100
AcDbSpline
210
0.0
220
0.0
230
1.0
 70
     8
 71
     3
 72
    15
 73
    11
 74
     9
 42
0.000000001
 43
0.0000000001
 44
0.00000001
 40
0.0
 40
0.0
 40
0.0
 40
0.0
 40
0.3479328666971707
 40
0.7550808641196634
 40
1.248248668711451
 40
1.824997227855875
 40
2.465375153859985
 40
3.139760871853457
 40
3.814146590123459
 40
4.454524525384215
 40
4.454524525384215
 40
4.454524525384215
 40
4.454524525384215
 10
-170.6162863713498
 20
-206.247753894811
 30
0.0
 10
-170.5964749101942
 20
-206.1312551468945
 30
0.0
 10
-170.5534802381094
 20
-205.878430588368
 30
0.0
 10
-170.2553769780646
 20
-205.561939479073
 30
0.0
 10
-169.8387118150901
 20
-205.2997765506791
 30
0.0
 10
-169.2996345408115
 20
-205.1008280170314
 30
0.0
 10
-168.679879914348
 20
-204.9755570410505
 30
0.0
 10
-168.0166114034907
 20
-204.9346422492654
 30
0.0
 10
-167.3514255358677
 20
-204.9710749395822
 30
0.0
 10
-166.9243168835274
 20
-205.072513497207
 30
0.0
 10
-166.7162863713498
 20
-205.1219208698912
 30
0.0
 11
-170.6162863713498
 21
-206.247753894811
 31
0.0
 11
-170.5276928501457
 21
-205.9112892258811
 31
0.0
 11
-170.2679524211894
 21
-205.5977538948109
 31
0.0
 11
-169.8547635122861
 21
-205.3285153243428
 31
0.0
 11
-169.3162863713499
 21
-205.1219208698912
 31
0.0
 11
-168.6892157092095
 21
-204.992050655413
 31
0.0
 11
-168.0162863713498
 21
-204.9477538948109
 31
0.0
 11
-167.3433570334902
 21
-204.992050655413
 31
0.0
 11
-166.7162863713498
 21
-205.1219208698912
 31
0.0
  0
SPLINE
  5
1EA
330
6A
100
AcDbEntity
  8
0
  6
Continuous
 62
     7
100
AcDbSpline
210
0.0
220
0.0
230
1.0
 70
     8
 71
     3
 72
     9
 73
     5
 74
     3
 42
0.000000001
 43
0.0000000001
 44
0.00000001
 40
0.0
 40
0.0
 40
0.0
 40
0.0
 40
0.267640671051707
 40
0.5808314387630655
 40
0.5808314387630655
 40
0.5808314387630655
 40
0.5808314387630655
 10
-164.5880831410743
 20
-206.9487157891343
 30
0.0
 10
-164.5732457862871
 20
-206.8583943806313
 30
0.0
 10
-164.5410458707622
 20
-206.6623796580695
 30
0.0
 10
-164.3975230546936
 20
-206.5235657729804
 30
0.0
 10
-164.3201339482582
 20
-206.4487157888009
 30
0.0
 11
-164.5880831410743
 21
-206.9487157891343
 31
0.0
 11
-164.51993427851
 21
-206.6898968128485
 31
0.0
 11
-164.3201339482582
 21
-206.4487157888009
 31
0.0
  0
SPLINE
  5
1EB
330
6A
100
AcDbEntity
  8
0
  6
Continuous
 62
     7
100
AcDbSpline
210
0.0
220
0.0
230
1.0
 70
     8
 71
     3
 72
    11
 73
     7
 74
     5
 42
0.000000001
 43
0.0000000001
 44
0.00000001
 40
0.0
 40
0.0
 40
0.0
 40
0.0
 40
0.4436527430937859
 40
0.8230125885580967
 40
1.1362033511756
 40
1.403844020353801
 40
1.403844020353801
 40
1.403844020353801
 40
1.403844020353801
 10
-163.5880831410743
 20
-207.8147411929188
 30
0.0
 10
-163.7290455221716
 20
-207.7676586237468
 30
0.0
 10
-163.9905424113511
 20
-207.680316547695
 30
0.0
 10
-164.3103407171147
 20
-207.4757834525035
 30
0.0
 10
-164.5397936059824
 20
-207.2329026691385
 30
0.0
 10
-164.5728507726092
 20
-207.0383592408642
 30
0.0
 10
-164.5880831410743
 20
-206.9487157891343
 30
0.0
 11
-163.5880831410743
 21
-207.8147411929188
 31
0.0
 11
-164.0022963264099
 21
-207.6558223818021
 31
0.0
 11
-164.3201339486432
 21
-207.4487157891343
 31
0.0
 11
-164.5199342786097
 21
-207.2075347652342
 31
0.0
 11
-164.5880831410743
 21
-206.9487157891343
 31
0.0
  0
SPLINE
  5
1EC
330
6A
100
AcDbEntity
  8
0
  6
Continuous
 62
     7
100
AcDbSpline
210
0.0
220
0.0
230
1.0
 70
     8
 71
     3
 72
    13
 73
     9
 74
     7
 42
0.000000001
 43
0.0000000001
 44
0.00000001
 40
0.0
 40
0.0
 40
0.0
 40
0.0
 40
0.6051425855256504
 40
1.156363940131092
 40
1.647782533047528
 40
2.079824559419746
 40
2.461874876829673
 40
2.81444774958608
 40
2.81444774958608
 40
2.81444774958608
 40
2.81444774958608
 10
-164.284235563781
 20
-202.4176268758887
 30
0.0
 10
-164.0919167207413
 20
-202.479291544235
 30
0.0
 10
-163.7244156085512
 20
-202.5971262591492
 30
0.0
 10
-163.2309490981416
 20
-202.8429198179583
 30
0.0
 10
-162.8248351128474
 20
-203.1249431458189
 30
0.0
 10
-162.523472309984
 20
-203.4414057749738
 30
0.0
 10
-162.3230187332307
 20
-203.7858473240038
 30
0.0
 10
-162.2968127694703
 20
-204.0316891068149
 30
0.0
 10
-162.284235563781
 20
-204.1496776834576
 30
0.0
 11
-164.284235563781
 21
-202.4176268758887
 31
0.0
 11
-163.7130851851832
 21
-202.6175888330607
 31
0.0
 11
-163.2200577913051
 21
-202.8641024640846
 31
0.0
 11
-162.820134029681
 21
-203.1496777068512
 31
0.0
 11
-162.5254650806374
 21
-203.4656373968063
 31
0.0
 11
-162.3450046438848
 21
-203.8023813362483
 31
0.0
 11
-162.284235563781
 21
-204.1496776834576
 31
0.0
  0
SPLINE
  5
1ED
330
6A
100
AcDbEntity
  8
0
  6
Continuous
 62
     7
100
AcDbSpline
210
0.0
220
0.0
230
1.0
 70
     8
 71
     3
 72
    13
 73
     9
 74
     7
 42
0.000000001
 43
0.0000000001
 44
0.00000001
 40
0.0
 40
0.0
 40
0.0
 40
0.0
 40
0.492598407898074
 40
1.011356656404846
 40
1.530114901957104
 40
2.022713302665197
 40
2.466366033333301
 40
2.845725879996863
 40
2.845725879996863
 40
2.845725879996863
 40
2.845725879996863
 10
-160.4737237871284
 20
-203.5176268758893
 30
0.0
 10
-160.3136946185453
 20
-203.5556425636572
 30
0.0
 10
-159.9851377987784
 20
-203.6336927786099
 30
0.0
 10
-159.4735476934433
 20
-203.6615574011316
 30
0.0
 10
-158.9629963459116
 20
-203.6306905273971
 30
0.0
 10
-158.4874475308878
 20
-203.5322445102717
 30
0.0
 10
-158.0689993625583
 20
-203.3858394397968
 30
0.0
 10
-157.8449475390572
 20
-203.2255057649383
 30
0.0
 10
-157.7416729785545
 20
-203.151601471233
 30
0.0
 11
-160.4737237871284
 21
-203.5176268758893
 31
0.0
 11
-159.9913617390043
 21
-203.6175270409159
 31
0.0
 11
-159.4737237864578
 21
-203.6516014721047
 31
0.0
 11
-158.9560858339571
 21
-203.6175270407421
 31
0.0
 11
-158.4737237859671
 21
-203.5176268755536
 31
0.0
 11
-158.0595106006078
 21
-203.3587080641793
 31
0.0
 11
-157.7416729785545
 21
-203.151601471233
 31
0.0
  0
SPLINE
  5
1EE
330
6A
100
AcDbEntity
  8
0
  6
Continuous
 62
     7
100
AcDbSpline
210
0.0
220
0.0
230
1.0
 70
     8
 71
     3
 72
     9
 73
     5
 74
     3
 42
0.000000001
 43
0.0000000001
 44
0.00000001
 40
0.0
 40
0.0
 40
0.0
 40
0.0
 40
0.2676406708465077
 40
0.580831438262279
 40
0.580831438262279
 40
0.580831438262279
 40
0.580831438262279
 10
-173.7679524211894
 20
-206.8967920004876
 30
0.0
 10
-173.7531150664274
 20
-206.8064705920536
 30
0.0
 10
-173.7209151509602
 20
-206.6104558696603
 30
0.0
 10
-173.5773923350837
 20
-206.4716419846295
 30
0.0
 10
-173.5000032287583
 20
-206.3967920004876
 30
0.0
 11
-173.7679524211894
 21
-206.8967920004876
 31
0.0
 11
-173.6998035587247
 21
-206.6379730243877
 31
0.0
 11
-173.5000032287583
 21
-206.3967920004876
 31
0.0
  0
SPLINE
  5
1EF
330
6A
100
AcDbEntity
  8
0
  6
Continuous
 62
     7
100
AcDbSpline
210
0.0
220
0.0
230
1.0
 70
     8
 71
     3
 72
    11
 73
     7
 74
     5
 42
0.000000001
 43
0.0000000001
 44
0.00000001
 40
0.0
 40
0.0
 40
0.0
 40
0.0
 40
0.4436527430936655
 40
0.8230125885579846
 40
1.136203351175528
 40
1.403844020353737
 40
1.403844020353737
 40
1.403844020353737
 40
1.403844020353737
 10
-172.7679524211894
 20
-207.762817404272
 30
0.0
 10
-172.9089148022867
 20
-207.7157348351001
 30
0.0
 10
-173.170411691466
 20
-207.6283927590483
 30
0.0
 10
-173.4902099972298
 20
-207.4238596638568
 30
0.0
 10
-173.7196628860974
 20
-207.1809788804918
 30
0.0
 10
-173.7527200527242
 20
-206.9864354522174
 30
0.0
 10
-173.7679524211894
 20
-206.8967920004876
 30
0.0
 11
-172.7679524211894
 21
-207.762817404272
 31
0.0
 11
-173.182165606525
 21
-207.6038985931554
 31
0.0
 11
-173.5000032287583
 21
-207.3967920004876
 31
0.0
 11
-173.6998035587247
 21
-207.1556109765875
 31
0.0
 11
-173.7679524211894
 21
-206.8967920004876
 31
0.0
  0
SPLINE
  5
1F0
330
6A
100
AcDbEntity
  8
0
  6
Continuous
 62
     7
100
AcDbSpline
210
0.0
220
0.0
230
1.0
 70
     8
 71
     3
 72
    11
 73
     7
 74
     5
 42
0.000000001
 43
0.0000000001
 44
0.00000001
 40
0.0
 40
0.0
 40
0.0
 40
0.0
 40
0.4436527430936757
 40
0.8230125885579793
 40
1.136203351175522
 40
1.403844020353759
 40
1.403844020353759
 40
1.403844020353759
 40
1.403844020353759
 10
-172.7679524211894
 20
-212.0929444231942
 30
0.0
 10
-172.9089148022867
 20
-212.0458618540222
 30
0.0
 10
-173.1704116914661
 20
-211.9585197779706
 30
0.0
 10
-173.4902099972297
 20
-211.7539866827789
 30
0.0
 10
-173.7196628860974
 20
-211.5111058994141
 30
0.0
 10
-173.7527200527242
 20
-211.3165624711396
 30
0.0
 10
-173.7679524211894
 20
-211.2269190194098
 30
0.0
 11
-172.7679524211894
 21
-212.0929444231942
 31
0.0
 11
-173.182165606525
 21
-211.9340256120776
 31
0.0
 11
-173.5000032287583
 21
-211.7269190194098
 31
0.0
 11
-173.6998035587247
 21
-211.4857379955097
 31
0.0
 11
-173.7679524211894
 21
-211.2269190194098
 31
0.0
  0
SPLINE
  5
1F1
330
6A
100
AcDbEntity
  8
0
  6
Continuous
 62
     7
100
AcDbSpline
210
0.0
220
0.0
230
1.0
 70
     8
 71
     3
 72
    15
 73
    11
 74
     9
 42
0.000000001
 43
0.0000000001
 44
0.00000001
 40
0.0
 40
0.0
 40
0.0
 40
0.0
 40
1.414989166379488
 40
2.778864712570695
 40
4.058494473941895
 40
5.226797894933514
 40
6.266194886249971
 40
7.173452108015072
 40
7.966466442194004
 40
8.69070593919308
 40
8.69070593919308
 40
8.69070593919308
 40
8.69070593919308
 10
-162.6388672111456
 20
-197.5966139032955
 30
0.0
 10
-162.167788431059
 20
-197.56674010186
 30
0.0
 10
-161.24264763893
 20
-197.508071625542
 30
0.0
 10
-159.909750926017
 20
-197.2581352535195
 30
0.0
 10
-158.6883840960924
 20
-196.8987155155446
 30
0.0
 10
-157.6207114250074
 20
-196.4309665381192
 30
0.0
 10
-156.7378092008097
 20
-195.8718062587352
 30
0.0
 10
-156.078551291601
 20
-195.2349755095798
 30
0.0
 10
-155.635788725792
 20
-194.5322460522139
 30
0.0
 10
-155.5772443772156
 20
-194.0243356743305
 30
0.0
 10
-155.5492990732421
 20
-193.7818918908827
 30
0.0
 11
-162.6388672111456
 21
-197.5966139032955
 31
0.0
 11
-161.2288724079139
 21
-197.4778327247423
 31
0.0
 11
-159.8877155935438
 21
-197.2299317274054
 31
0.0
 11
-158.6622513160775
 21
-196.861570992762
 31
0.0
 11
-157.5952914115308
 21
-196.3856198973899
 31
0.0
 11
-156.7241115219485
 21
-195.8187057022419
 31
0.0
 11
-156.0791460337319
 21
-195.1806342451026
 31
0.0
 11
-155.6829281834156
 21
-194.4936967236087
 31
0.0
 11
-155.5492990732421
 21
-193.7818918908827
 31
0.0
  0
SPLINE
  5
1F2
330
6A
100
AcDbEntity
  8
0
  6
Continuous
 62
     7
100
AcDbSpline
210
0.0
220
0.0
230
1.0
 70
     8
 71
     3
 72
    15
 73
    11
 74
     9
 42
0.000000001
 43
0.0000000001
 44
0.00000001
 40
0.0
 40
0.0
 40
0.0
 40
0.0
 40
1.414989166379493
 40
2.778864712570695
 40
4.058494473941886
 40
5.226797894933505
 40
6.266194886249977
 40
7.173452108015078
 40
7.966466442193986
 40
8.690705939193062
 40
8.690705939193062
 40
8.690705939193062
 40
8.690705939193062
 10
-162.6388672111456
 20
-201.0607155184333
 30
0.0
 10
-162.167788431059
 20
-201.0308417169978
 30
0.0
 10
-161.24264763893
 20
-200.9721732406798
 30
0.0
 10
-159.909750926017
 20
-200.7222368686573
 30
0.0
 10
-158.6883840960925
 20
-200.3628171306824
 30
0.0
 10
-157.6207114250074
 20
-199.895068153257
 30
0.0
 10
-156.7378092008097
 20
-199.335907873873
 30
0.0
 10
-156.0785512916011
 20
-198.6990771247176
 30
0.0
 10
-155.6357887257919
 20
-197.9963476673518
 30
0.0
 10
-155.5772443772157
 20
-197.4884372894684
 30
0.0
 10
-155.5492990732421
 20
-197.2459935060205
 30
0.0
 11
-162.6388672111456
 21
-201.0607155184333
 31
0.0
 11
-161.2288724079139
 21
-200.9419343398801
 31
0.0
 11
-159.8877155935438
 21
-200.6940333425432
 31
0.0
 11
-158.6622513160775
 21
-200.3256726078998
 31
0.0
 11
-157.5952914115308
 21
-199.8497215125278
 31
0.0
 11
-156.7241115219485
 21
-199.2828073173796
 31
0.0
 11
-156.0791460337319
 21
-198.6447358602404
 31
0.0
 11
-155.6829281834156
 21
-197.9577983387465
 31
0.0
 11
-155.5492990732421
 21
-197.2459935060205
 31
0.0
  0
SPLINE
  5
1F3
330
6A
100
AcDbEntity
  8
0
  6
Continuous
 62
     7
100
AcDbSpline
210
0.0
220
0.0
230
1.0
 70
     8
 71
     3
 72
     9
 73
     5
 74
     3
 42
0.000000001
 43
0.0000000001
 44
0.00000001
 40
0.0
 40
0.0
 40
0.0
 40
0.0
 40
0.3131907674164865
 40
0.5808314382634658
 40
0.5808314382634658
 40
0.5808314382634658
 40
0.5808314382634658
 10
-136.7464824511775
 20
-199.3974363475054
 30
0.0
 10
-136.6690933448517
 20
-199.3225863633635
 30
0.0
 10
-136.5255705289747
 20
-199.1837724783327
 30
0.0
 10
-136.4933706135072
 20
-198.987757755939
 30
0.0
 10
-136.4785332587452
 20
-198.8974363475048
 30
0.0
 11
-136.7464824511775
 21
-199.3974363475054
 31
0.0
 11
-136.5466821212102
 21
-199.1562553236051
 31
0.0
 11
-136.4785332587452
 21
-198.8974363475048
 31
0.0
  0
SPLINE
  5
1F4
330
6A
100
AcDbEntity
  8
0
  6
Continuous
 62
     7
100
AcDbSpline
210
0.0
220
0.0
230
1.0
 70
     8
 71
     3
 72
    11
 73
     7
 74
     5
 42
0.000000001
 43
0.0000000001
 44
0.00000001
 40
0.0
 40
0.0
 40
0.0
 40
0.0
 40
0.2676406691777474
 40
0.5808314317947008
 40
0.9601912772583812
 40
1.403844020351302
 40
1.403844020351302
 40
1.403844020351302
 40
1.403844020351302
 10
-136.4785332587452
 20
-191.9692331172293
 30
0.0
 10
-136.4937656272103
 20
-191.8795896654996
 30
0.0
 10
-136.5268227938371
 20
-191.6850462372256
 30
0.0
 10
-136.7562756827044
 20
-191.442165453861
 30
0.0
 10
-137.0760739884675
 20
-191.2376323586699
 30
0.0
 10
-137.3375708776464
 20
-191.1502902826183
 30
0.0
 10
-137.4785332587435
 20
-191.1032077134464
 30
0.0
 11
-136.4785332587452
 21
-191.9692331172293
 31
0.0
 11
-136.5466821212098
 21
-191.7104141411299
 31
0.0
 11
-136.7464824511759
 21
-191.4692331172302
 31
0.0
 11
-137.0643200734087
 21
-191.2621265245627
 31
0.0
 11
-137.4785332587435
 21
-191.1032077134464
 31
0.0
  0
SPLINE
  5
1F5
330
6A
100
AcDbEntity
  8
0
  6
Continuous
 62
     7
100
AcDbSpline
210
0.0
220
0.0
230
1.0
 70
     8
 71
     3
 72
     9
 73
     5
 74
     3
 42
0.000000001
 43
0.0000000001
 44
0.00000001
 40
0.0
 40
0.0
 40
0.0
 40
0.0
 40
0.3131907674164647
 40
0.5808314382634715
 40
0.5808314382634715
 40
0.5808314382634715
 40
0.5808314382634715
 10
-136.7464824511775
 20
-192.4692331172299
 30
0.0
 10
-136.6690933448517
 20
-192.394383133088
 30
0.0
 10
-136.5255705289746
 20
-192.2555692480572
 30
0.0
 10
-136.4933706135072
 20
-192.0595545256635
 30
0.0
 10
-136.4785332587452
 20
-191.9692331172293
 30
0.0
 11
-136.7464824511775
 21
-192.4692331172299
 31
0.0
 11
-136.5466821212102
 21
-192.2280520933296
 31
0.0
 11
-136.4785332587452
 21
-191.9692331172293
 31
0.0
  0
SPLINE
  5
1F6
330
6A
100
AcDbEntity
  8
0
  6
Continuous
 62
     7
100
AcDbSpline
210
0.0
220
0.0
230
1.0
 70
     8
 71
     3
 72
    13
 73
     9
 74
     7
 42
0.000000001
 43
0.0000000001
 44
0.00000001
 40
0.0
 40
0.0
 40
0.0
 40
0.0
 40
0.7388976098250483
 40
1.517034980327706
 40
2.295172347910122
 40
3.034069950643693
 40
3.699549049914374
 40
4.268588820944852
 40
4.268588820944852
 40
4.268588820944852
 40
4.268588820944852
 10
-145.1435967682073
 20
-202.1695506645355
 30
0.0
 10
-145.3836405204227
 20
-202.1125271330324
 30
0.0
 10
-145.8764757472005
 20
-201.9954518035597
 30
0.0
 10
-146.6438609043012
 20
-201.9536548746189
 30
0.0
 10
-147.4096879248611
 20
-201.999955185468
 30
0.0
 10
-148.1230111489637
 20
-202.1476242083495
 30
0.0
 10
-148.7506834059894
 20
-202.3672318102984
 30
0.0
 10
-149.0867611384224
 20
-202.6077323296003
 30
0.0
 10
-149.2416729795606
 20
-202.7185887702121
 30
0.0
 11
-145.1435967682073
 21
-202.1695506645355
 31
0.0
 11
-145.8671398399076
 21
-202.0197004170606
 31
0.0
 11
-146.6435967682073
 21
-201.9685887702121
 31
0.0
 11
-147.4200536965069
 21
-202.0197004170606
 31
0.0
 11
-148.1435967682073
 21
-202.1695506645355
 31
0.0
 11
-148.7649165462107
 21
-202.4079288812105
 31
0.0
 11
-149.2416729795606
 21
-202.7185887702121
 31
0.0
  0
SPLINE
  5
1F7
330
6A
100
AcDbEntity
  8
0
  6
Continuous
 62
     7
100
AcDbSpline
210
0.0
220
0.0
230
1.0
 70
     8
 71
     3
 72
    15
 73
    11
 74
     9
 42
0.000000001
 43
0.0000000001
 44
0.00000001
 40
0.0
 40
0.0
 40
0.0
 40
0.0
 40
0.3834088611648013
 40
0.8204432326717473
 40
1.29716793987899
 40
1.794847941968038
 40
2.292527944057114
 40
2.769252651264385
 40
3.206287022771358
 40
3.589695883936085
 40
3.589695883936085
 40
3.589695883936085
 40
3.589695883936085
 10
-143.7225989421005
 20
-194.7320207602863
 30
0.0
 10
-143.6128039487235
 20
-194.7981700637855
 30
0.0
 10
-143.3778574677268
 20
-194.9397206306665
 30
0.0
 10
-142.9622000435574
 20
-195.0705426023788
 30
0.0
 10
-142.4991876607056
 20
-195.157118758028
 30
0.0
 10
-142.0079561221522
 20
-195.1853460115391
 30
0.0
 10
-141.5167245835989
 20
-195.1571187580281
 30
0.0
 10
-141.0537122007471
 20
-195.0705426023787
 30
0.0
 10
-140.6380547765777
 20
-194.9397206306665
 30
0.0
 10
-140.403108295581
 20
-194.7981700637856
 30
0.0
 10
-140.293313302204
 20
-194.7320207602863
 30
0.0
 11
-143.7225989421005
 21
-194.7320207602863
 31
0.0
 11
-143.3871096261174
 21
-194.9176259151314
 31
0.0
 11
-142.9733278932523
 21
-195.0582805033131
 31
0.0
 11
-142.5047429177125
 21
-195.1459992240311
 31
0.0
 11
-142.0079561221523
 21
-195.1758029776372
 31
0.0
 11
-141.511169326592
 21
-195.1459992240311
 31
0.0
 11
-141.0425843510521
 21
-195.0582805033131
 31
0.0
 11
-140.628802618187
 21
-194.9176259151314
 31
0.0
 11
-140.293313302204
 21
-194.7320207602863
 31
0.0
  0
SPLINE
  5
1F8
330
6A
100
AcDbEntity
  8
0
  6
Continuous
 62
     7
100
AcDbSpline
210
0.0
220
0.0
230
1.0
 70
     8
 71
     3
 72
    13
 73
     9
 74
     7
 42
0.000000001
 43
0.0000000001
 44
0.00000001
 40
0.0
 40
0.0
 40
0.0
 40
0.0
 40
0.3793598466622813
 40
0.8230125772160184
 40
1.315610977696634
 40
1.834369222940027
 40
2.353127471103715
 40
2.845725878675909
 40
2.845725878675909
 40
2.845725878675909
 40
2.845725878675909
 10
-140.2464824511773
 20
-195.5003220304755
 30
0.0
 10
-140.3497570117479
 20
-195.574226324082
 30
0.0
 10
-140.5738088353655
 20
-195.7345599987042
 30
0.0
 10
-140.9922570036364
 20
-195.8809650689482
 30
0.0
 10
-141.4678058184806
 20
-195.9794110858764
 30
0.0
 10
-141.9783571657218
 20
-196.0102779594901
 30
0.0
 10
-142.489947270724
 20
-195.9824133369186
 30
0.0
 10
-142.8185040902705
 20
-195.9043631220075
 30
0.0
 10
-142.9785332587462
 20
-195.8663474342599
 30
0.0
 11
-140.2464824511773
 21
-195.5003220304755
 31
0.0
 11
-140.5643200734106
 21
-195.7074286231433
 31
0.0
 11
-140.9785332587462
 21
-195.8663474342599
 31
0.0
 11
-141.4608953065464
 21
-195.9662475992432
 31
0.0
 11
-141.9785332587462
 21
-196.0003220304755
 31
0.0
 11
-142.4961712109459
 21
-195.9662475992432
 31
0.0
 11
-142.9785332587462
 21
-195.8663474342599
 31
0.0
  0
SPLINE
  5
1F9
330
6A
100
AcDbEntity
  8
0
  6
Continuous
 62
     7
100
AcDbSpline
210
0.0
220
0.0
230
1.0
 70
     8
 71
     3
 72
     9
 73
     5
 74
     3
 42
0.000000001
 43
0.0000000001
 44
0.00000001
 40
0.0
 40
0.0
 40
0.0
 40
0.0
 40
0.1838517503536531
 40
0.3493530425444435
 40
0.3493530425444435
 40
0.3493530425444435
 40
0.3493530425444435
 10
-140.5393967373582
 20
-194.8763583275837
 30
0.0
 10
-140.5012704778552
 20
-194.8267232084912
 30
0.0
 10
-140.4288234027898
 20
-194.7324071008614
 30
0.0
 10
-140.4146639588655
 20
-194.6146171043316
 30
0.0
 10
-140.4079561221522
 20
-194.5588156795294
 30
0.0
 11
-140.5393967373582
 21
-194.8763583275837
 31
0.0
 11
-140.4411609172188
 21
-194.720951794867
 31
0.0
 11
-140.4079561221522
 21
-194.5588156795294
 31
0.0
  0
SPLINE
  5
1FA
330
6A
100
AcDbEntity
  8
0
  6
Continuous
 62
     7
100
AcDbSpline
210
0.0
220
0.0
230
1.0
 70
     8
 71
     3
 72
     9
 73
     5
 74
     3
 42
0.000000001
 43
0.0000000001
 44
0.00000001
 40
0.0
 40
0.0
 40
0.0
 40
0.0
 40
0.1655012921907904
 40
0.3493530425444435
 40
0.3493530425444435
 40
0.3493530425444435
 40
0.3493530425444435
 10
-143.6079561221523
 20
-194.5588156795294
 30
0.0
 10
-143.601248285439
 20
-194.6146171043316
 30
0.0
 10
-143.5870888415147
 20
-194.7324071008616
 30
0.0
 10
-143.5146417664493
 20
-194.8267232084912
 30
0.0
 10
-143.4765155069463
 20
-194.8763583275837
 30
0.0
 11
-143.6079561221523
 21
-194.5588156795294
 31
0.0
 11
-143.5747513270857
 21
-194.720951794867
 31
0.0
 11
-143.4765155069463
 21
-194.8763583275837
 31
0.0
  0
SPLINE
  5
1FB
330
6A
100
AcDbEntity
  8
0
  6
Continuous
 62
     7
100
AcDbSpline
210
0.0
220
0.0
230
1.0
 70
     8
 71
     3
 72
     9
 73
     5
 74
     3
 42
0.000000001
 43
0.0000000001
 44
0.00000001
 40
0.0
 40
0.0
 40
0.0
 40
0.0
 40
0.2505526135016251
 40
0.4646651497479132
 40
0.4646651497479132
 40
0.4646651497479132
 40
0.4646651497479132
 10
-143.3935967682074
 20
-194.1588156795294
 30
0.0
 10
-143.4555080531613
 20
-194.2186956667399
 30
0.0
 10
-143.5703263024011
 20
-194.3297467766262
 30
0.0
 10
-143.5960862383666
 20
-194.4865585529276
 30
0.0
 10
-143.6079561221523
 20
-194.5588156795294
 30
0.0
 11
-143.3935967682074
 21
-194.1588156795294
 31
0.0
 11
-143.5534370321806
 21
-194.3517604986495
 31
0.0
 11
-143.6079561221523
 21
-194.5588156795294
 31
0.0
  0
SPLINE
  5
1FC
330
6A
100
AcDbEntity
  8
0
  6
Continuous
 62
     7
100
AcDbSpline
210
0.0
220
0.0
230
1.0
 70
     8
 71
     3
 72
     9
 73
     5
 74
     3
 42
0.000000001
 43
0.0000000001
 44
0.00000001
 40
0.0
 40
0.0
 40
0.0
 40
0.0
 40
0.067104578821101
 40
0.1320038205594185
 40
0.1320038205594185
 40
0.1320038205594185
 40
0.1320038205594185
 10
-140.293313302204
 20
-194.7320207602863
 30
0.0
 10
-140.2751844128083
 20
-194.7189034575191
 30
0.0
 10
-140.2395224372595
 20
-194.6930999255089
 30
0.0
 10
-140.2058551690868
 20
-194.6647440551651
 30
0.0
 10
-140.1893027742049
 20
-194.6508029776372
 30
0.0
 11
-140.293313302204
 21
-194.7320207602863
 31
0.0
 11
-140.239442118621
 21
-194.6920092605512
 31
0.0
 11
-140.1893027742049
 21
-194.6508029776372
 31
0.0
  0
SPLINE
  5
1FD
330
6A
100
AcDbEntity
  8
0
  6
Continuous
 62
     7
100
AcDbSpline
210
0.0
220
0.0
230
1.0
 70
     8
 71
     3
 72
    11
 73
     7
 74
     5
 42
0.000000001
 43
0.0000000001
 44
0.00000001
 40
0.0
 40
0.0
 40
0.0
 40
0.0
 40
0.2676406691782783
 40
0.5808314317957994
 40
0.9601912772600709
 40
1.403844020353767
 40
1.403844020353767
 40
1.403844020353767
 40
1.403844020353767
 10
-147.4737237871294
 20
-192.2592966266911
 30
0.0
 10
-147.4889561555945
 20
-192.1696531749612
 30
0.0
 10
-147.5220133222214
 20
-191.9751097466869
 30
0.0
 10
-147.7514662110891
 20
-191.7322289633219
 30
0.0
 10
-148.0712645168527
 20
-191.5276958681304
 30
0.0
 10
-148.332761406032
 20
-191.4403537920785
 30
0.0
 10
-148.4737237871294
 20
-191.3932712229066
 30
0.0
 11
-147.4737237871294
 21
-192.2592966266911
 31
0.0
 11
-147.5418726495941
 21
-192.0004776505912
 31
0.0
 11
-147.7416729795606
 21
-191.7592966266911
 31
0.0
 11
-148.0595106017938
 21
-191.5521900340233
 31
0.0
 11
-148.4737237871294
 21
-191.3932712229066
 31
0.0
  0
SPLINE
  5
1FE
330
6A
100
AcDbEntity
  8
0
  6
Continuous
 62
     7
100
AcDbSpline
210
0.0
220
0.0
230
1.0
 70
     8
 71
     3
 72
     9
 73
     5
 74
     3
 42
0.000000001
 43
0.0000000001
 44
0.00000001
 40
0.0
 40
0.0
 40
0.0
 40
0.0
 40
0.3131907674157819
 40
0.5808314382623518
 40
0.5808314382623518
 40
0.5808314382623518
 40
0.5808314382623518
 10
-147.7416729795606
 20
-194.4913474342599
 30
0.0
 10
-147.6642838732351
 20
-194.416497450118
 30
0.0
 10
-147.5207610573586
 20
-194.2776835650872
 30
0.0
 10
-147.4885611418913
 20
-194.0816688426939
 30
0.0
 10
-147.4737237871294
 20
-193.9913474342599
 30
0.0
 11
-147.7416729795606
 21
-194.4913474342599
 31
0.0
 11
-147.5418726495941
 21
-194.2501664103598
 31
0.0
 11
-147.4737237871294
 21
-193.9913474342599
 31
0.0
  0
SPLINE
  5
1FF
330
6A
100
AcDbEntity
  8
0
  6
Continuous
 62
     7
100
AcDbSpline
210
0.0
220
0.0
230
1.0
 70
     8
 71
     3
 72
     9
 73
     5
 74
     3
 42
0.000000001
 43
0.0000000001
 44
0.00000001
 40
0.0
 40
0.0
 40
0.0
 40
0.0
 40
0.4771974651570915
 40
1.011065874196445
 40
1.011065874196445
 40
1.011065874196445
 40
1.011065874196445
 10
-146.8201339486432
 20
-191.2932712229066
 30
0.0
 10
-146.9463797972954
 20
-191.3909267374748
 30
0.0
 10
-147.2138641909473
 20
-191.5978351087286
 30
0.0
 10
-147.5215005144784
 20
-191.7386562345169
 30
0.0
 10
-147.6839402961163
 20
-191.8130133491373
 30
0.0
 11
-146.8201339486432
 21
-191.2932712229066
 31
0.0
 11
-147.2078157467036
 21
-191.5715161598505
 31
0.0
 11
-147.6839402961163
 21
-191.8130133491373
 31
0.0
  0
SPLINE
  5
200
330
6A
100
AcDbEntity
  8
0
  6
Continuous
 62
     7
100
AcDbSpline
210
0.0
220
0.0
230
1.0
 70
     8
 71
     3
 72
     9
 73
     5
 74
     3
 42
0.000000001
 43
0.0000000001
 44
0.00000001
 40
0.0
 40
0.0
 40
0.0
 40
0.0
 40
0.3131907681883542
 40
0.5808314395710287
 40
0.5808314395710287
 40
0.5808314395710287
 40
0.5808314395710287
 10
-147.7416729805667
 20
-192.7592966275624
 30
0.0
 10
-147.664283873954
 20
-192.6844466433223
 30
0.0
 10
-147.5207610575756
 20
-192.5456327581389
 30
0.0
 10
-147.4885611419573
 20
-192.3496180353054
 30
0.0
 10
-147.4737237871294
 20
-192.2592966266911
 30
0.0
 11
-147.7416729805667
 21
-192.7592966275624
 31
0.0
 11
-147.5418726498545
 21
-192.5181156032768
 31
0.0
 11
-147.4737237871294
 21
-192.2592966266911
 31
0.0
  0
SPLINE
  5
201
330
6A
100
AcDbEntity
  8
0
  6
Continuous
 62
     7
100
AcDbSpline
210
0.0
220
0.0
230
1.0
 70
     8
 71
     3
 72
    23
 73
    19
 74
    17
 42
0.000000001
 43
0.0000000001
 44
0.00000001
 40
0.0
 40
0.0
 40
0.0
 40
0.0
 40
0.3353112893599886
 40
0.6215762718651799
 40
0.9103263404758115
 40
1.251385056230957
 40
1.665597980770159
 40
2.149006223007988
 40
2.683134745001047
 40
3.241679922731577
 40
3.795091528155733
 40
4.314479876659258
 40
4.775646648249796
 40
5.164178357070699
 40
5.483336522918671
 40
5.764611709163696
 40
6.063068227319363
 40
6.422176674740887
 40
6.422176674740887
 40
6.422176674740887
 40
6.422176674740887
 10
-140.1893027742049
 20
-194.6508029776372
 30
0.0
 10
-140.109344464089
 20
-194.5705775134394
 30
0.0
 10
-139.9611234271052
 20
-194.4218612390578
 30
0.0
 10
-139.8799126911753
 20
-194.111497598714
 30
0.0
 10
-139.9779165479871
 20
-193.8081673204755
 30
0.0
 10
-140.2225418024004
 20
-193.5501969011475
 30
0.0
 10
-140.5811260020058
 20
-193.3388960815443
 30
0.0
 10
-141.03440366694
 20
-193.1817910114709
 30
0.0
 10
-141.5531617928123
 20
-193.0882785605823
 30
0.0
 10
-142.1029514405901
 20
-193.0647032474178
 30
0.0
 10
-142.6462544994145
 20
-193.1127482549748
 30
0.0
 10
-143.1461331824148
 20
-193.2289829069335
 30
0.0
 10
-143.5698835264922
 20
-193.4059399300411
 30
0.0
 10
-143.8909886375085
 20
-193.6334284984608
 30
0.0
 10
-144.0910219155757
 20
-193.9081139781442
 30
0.0
 10
-144.1276736879524
 20
-194.2203501260929
 30
0.0
 10
-143.9884635947728
 20
-194.5171953942933
 30
0.0
 10
-143.816507411386
 20
-194.6561403433388
 30
0.0
 10
-143.7225989421005
 20
-194.7320207602863
 30
0.0
 11
-140.1893027742049
 21
-194.6508029776372
 31
0.0
 11
-139.9764247716716
 21
-194.3917342156897
 31
0.0
 11
-139.9080946239291
 21
-194.1137438702908
 31
0.0
 11
-139.9891766290164
 21
-193.8366115706208
 31
0.0
 11
-140.2138991666307
 21
-193.580055865793
 31
0.0
 11
-140.5662748433929
 21
-193.3623318891293
 31
0.0
 11
-141.0212292650449
 21
-193.1989305336808
 31
0.0
 11
-141.5463925952845
 21
-193.10147924559
 31
0.0
 11
-142.1043971699592
 21
-193.0769108091687
 31
0.0
 11
-142.6555396422588
 21
-193.1269745506837
 31
0.0
 11
-143.1606051447853
 21
-193.2481070977016
 31
0.0
 11
-143.5836558229654
 21
-193.4316906354454
 31
0.0
 11
-143.8945920553146
 21
-193.66466176941
 31
0.0
 11
-144.0712878453211
 21
-193.9304446391667
 31
0.0
 11
-144.1011731151575
 21
-194.2101276777467
 31
0.0
 11
-143.982119010883
 21
-194.4838107325227
 31
0.0
 11
-143.7225989421005
 21
-194.7320207602863
 31
0.0
  0
SPLINE
  5
202
330
6A
100
AcDbEntity
  8
0
  6
Continuous
 62
     7
100
AcDbSpline
210
0.0
220
0.0
230
1.0
 70
     8
 71
     3
 72
    17
 73
    13
 74
    11
 42
0.000000001
 43
0.0000000001
 44
0.00000001
 40
0.0
 40
0.0
 40
0.0
 40
0.0
 40
0.2141125294558361
 40
0.4646651450142197
 40
0.7681530255026631
 40
1.123075216275815
 40
1.517153940468599
 40
1.932160536650898
 40
2.347167132610142
 40
2.741245855893871
 40
3.09616804727421
 40
3.399655933436281
 40
3.399655933436281
 40
3.399655933436281
 40
3.399655933436281
 10
-140.4079561221522
 20
-194.5588156795294
 30
0.0
 10
-140.4201477682958
 20
-194.4871242547924
 30
0.0
 10
-140.4466059834369
 20
-194.3315401548474
 30
0.0
 10
-140.630054569415
 20
-194.1367741909389
 30
0.0
 10
-140.8864617261173
 20
-193.9754541448346
 30
0.0
 10
-141.2182117732194
 20
-193.852972905032
 30
0.0
 10
-141.5995551668215
 20
-193.7761053160452
 30
0.0
 10
-142.00789664972
 20
-193.7500381771806
 30
0.0
 10
-142.4165889181412
 20
-193.7757507610448
 30
0.0
 10
-142.796965251481
 20
-193.8542530971319
 30
0.0
 10
-143.1317380145169
 20
-193.9714348758793
 30
0.0
 10
-143.3109778620069
 20
-194.099695264011
 30
0.0
 10
-143.3935967682074
 20
-194.1588156795294
 30
0.0
 11
-140.4079561221522
 21
-194.5588156795294
 31
0.0
 11
-140.4624752121239
 21
-194.3517604986495
 31
0.0
 11
-140.6223154760971
 21
-194.1588156795294
 31
0.0
 11
-140.8765855738837
 21
-193.9931304053951
 31
0.0
 11
-141.2079561221522
 21
-193.8659953565018
 31
0.0
 11
-141.5938457603924
 21
-193.7860752245152
 31
0.0
 11
-142.0079561221523
 21
-193.7588156795293
 31
0.0
 11
-142.4220664839121
 21
-193.7860752245152
 31
0.0
 11
-142.8079561221523
 21
-193.8659953565018
 31
0.0
 11
-143.1393266704208
 21
-193.9931304053951
 31
0.0
 11
-143.3935967682074
 21
-194.1588156795294
 31
0.0
  0
SPLINE
  5
203
330
6A
100
AcDbEntity
  8
0
  6
Continuous
 62
     7
100
AcDbSpline
210
0.0
220
0.0
230
1.0
 70
     8
 71
     3
 72
    13
 73
     9
 74
     7
 42
0.000000001
 43
0.0000000001
 44
0.00000001
 40
0.0
 40
0.0
 40
0.0
 40
0.0
 40
0.7388976098250367
 40
1.517034980327691
 40
2.295172347910105
 40
3.03406995064367
 40
3.699549049914362
 40
4.268588820944855
 40
4.268588820944855
 40
4.268588820944855
 40
4.268588820944855
 10
-145.1435967682073
 20
-195.2413474342599
 30
0.0
 10
-145.3836405204228
 20
-195.1843239027569
 30
0.0
 10
-145.8764757472005
 20
-195.0672485732842
 30
0.0
 10
-146.6438609043012
 20
-195.0254516443435
 30
0.0
 10
-147.4096879248611
 20
-195.0717519551925
 30
0.0
 10
-148.1230111489637
 20
-195.2194209780739
 30
0.0
 10
-148.7506834059894
 20
-195.4390285800229
 30
0.0
 10
-149.0867611384223
 20
-195.6795290993247
 30
0.0
 10
-149.2416729795606
 20
-195.7903855399366
 30
0.0
 11
-145.1435967682073
 21
-195.2413474342599
 31
0.0
 11
-145.8671398399076
 21
-195.0914971867851
 31
0.0
 11
-146.6435967682073
 21
-195.0403855399366
 31
0.0
 11
-147.4200536965069
 21
-195.0914971867851
 31
0.0
 11
-148.1435967682073
 21
-195.2413474342599
 31
0.0
 11
-148.7649165462107
 21
-195.4797256509349
 31
0.0
 11
-149.2416729795606
 21
-195.7903855399366
 31
0.0
  0
SPLINE
  5
204
330
6A
100
AcDbEntity
  8
0
  6
Continuous
 62
     7
100
AcDbSpline
210
0.0
220
0.0
230
1.0
 70
     8
 71
     3
 72
    13
 73
     9
 74
     7
 42
0.000000001
 43
0.0000000001
 44
0.00000001
 40
0.0
 40
0.0
 40
0.0
 40
0.0
 40
0.3793598466620125
 40
0.8230125772374095
 40
1.315610977761719
 40
1.834369223064666
 40
2.353127471294553
 40
2.845725878929653
 40
2.845725878929653
 40
2.845725878929653
 40
2.845725878929653
 10
-145.3201339488383
 20
-189.9942331173988
 30
0.0
 10
-145.2168593882811
 20
-189.9203288237732
 30
0.0
 10
-144.9928075646865
 20
-189.759995149105
 30
0.0
 10
-144.5743593964048
 20
-189.6135900788163
 30
0.0
 10
-144.0988105815262
 20
-189.5151440618497
 30
0.0
 10
-143.588259234229
 20
-189.4842771882124
 30
0.0
 10
-143.0766691291626
 20
-189.5121418107741
 30
0.0
 10
-142.7481123095735
 20
-189.5901920256932
 30
0.0
 10
-142.5880831410771
 20
-189.6282077134447
 30
0.0
 11
-145.3201339488383
 21
-189.9942331173988
 31
0.0
 11
-145.0022963266405
 21
-189.787126524677
 31
0.0
 11
-144.5880831413009
 21
-189.6282077135103
 31
0.0
 11
-144.1057210934643
 21
-189.5283075484871
 31
0.0
 11
-143.5880831412066
 21
-189.4942331172294
 31
0.0
 11
-143.0704451889399
 21
-189.5283075484531
 31
0.0
 11
-142.5880831410771
 21
-189.6282077134447
 31
0.0
  0
SPLINE
  5
205
330
6A
100
AcDbEntity
  8
0
  6
Continuous
 62
     7
100
AcDbSpline
210
0.0
220
0.0
230
1.0
 70
     8
 71
     3
 72
    11
 73
     7
 74
     5
 42
0.000000001
 43
0.0000000001
 44
0.00000001
 40
0.0
 40
0.0
 40
0.0
 40
0.0
 40
0.8055920548336923
 40
1.682272376424703
 40
2.607194381107487
 40
3.553775579372587
 40
3.553775579372587
 40
3.553775579372587
 40
3.553775579372587
 10
-159.9492990732421
 20
-195.5139426984516
 30
0.0
 10
-160.1977986654919
 20
-195.4110731680019
 30
0.0
 10
-160.7167263304513
 20
-195.1962565534563
 30
0.0
 10
-161.5670213985265
 20
-195.001926319934
 30
0.0
 10
-162.4764786487024
 20
-194.8783814921308
 30
0.0
 10
-163.1009500150442
 20
-194.8751294505686
 30
0.0
 10
-163.4167992499399
 20
-194.873484619149
 30
0.0
 11
-159.9492990732421
 21
-195.5139426984516
 31
0.0
 11
-160.7016128948205
 21
-195.2258411989098
 31
0.0
 11
-161.5533342054743
 21
-195.018141420823
 31
0.0
 11
-162.4705649806555
 21
-194.8991102407152
 31
0.0
 11
-163.4167992499399
 21
-194.873484619149
 31
0.0
  0
SPLINE
  5
206
330
6A
100
AcDbEntity
  8
0
  6
Continuous
 62
     7
100
AcDbSpline
210
0.0
220
0.0
230
1.0
 70
     8
 71
     3
 72
    13
 73
     9
 74
     7
 42
0.000000001
 43
0.0000000001
 44
0.00000001
 40
0.0
 40
0.0
 40
0.0
 40
0.0
 40
0.5408798851141309
 40
1.11498239992677
 40
1.706312597834278
 40
2.297642795741842
 40
2.871745310554513
 40
3.41262519566861
 40
3.41262519566861
 40
3.41262519566861
 40
3.41262519566861
 10
-164.8795436514056
 20
-196.0033372625694
 30
0.0
 10
-164.7064504752964
 20
-195.9521758536386
 30
0.0
 10
-164.3496321643913
 20
-195.8467105474118
 30
0.0
 10
-163.7848546925031
 20
-195.7660189466799
 30
0.0
 10
-163.199299073242
 20
-195.7358329038494
 30
0.0
 10
-162.613743453981
 20
-195.7660189466798
 30
0.0
 10
-162.0489659820928
 20
-195.8467105474119
 30
0.0
 10
-161.6921476711876
 20
-195.9521758536386
 30
0.0
 10
-161.5190544950785
 20
-196.0033372625694
 30
0.0
 11
-164.8795436514056
 21
-196.0033372625694
 31
0.0
 11
-164.357385401462
 21
-195.8622634786798
 31
0.0
 11
-163.7899002160843
 21
-195.775348214824
 31
0.0
 11
-163.1992990732421
 21
-195.7459935811983
 31
0.0
 11
-162.6086979303998
 21
-195.775348214824
 31
0.0
 11
-162.0412127450221
 21
-195.8622634786798
 31
0.0
 11
-161.5190544950785
 21
-196.0033372625694
 31
0.0
  0
SPLINE
  5
207
330
6A
100
AcDbEntity
  8
0
  6
Continuous
 62
     7
100
AcDbSpline
210
0.0
220
0.0
230
1.0
 70
     8
 71
     3
 72
    13
 73
     9
 74
     7
 42
0.000000001
 43
0.0000000001
 44
0.00000001
 40
0.0
 40
0.0
 40
0.0
 40
0.0
 40
0.3668749444487457
 40
0.7709502344550727
 40
1.199631980056723
 40
1.638013082797863
 40
2.070343093813646
 40
2.481393839971834
 40
2.481393839971834
 40
2.481393839971834
 40
2.481393839971834
 10
-154.1950034043143
 20
-189.7416800593613
 30
0.0
 10
-154.0829947281779
 20
-189.6920324275096
 30
0.0
 10
-153.8476199267073
 20
-189.5877030126134
 30
0.0
 10
-153.4563642624281
 20
-189.4960550927346
 30
0.0
 10
-153.035407708834
 20
-189.4428898294989
 30
0.0
 10
-152.6015588660029
 20
-189.4386595623612
 30
0.0
 10
-152.1745232084802
 20
-189.4763835210876
 30
0.0
 10
-151.9011770920721
 20
-189.5435486647534
 30
0.0
 10
-151.7679524211894
 20
-189.5762839247988
 30
0.0
 11
-154.1950034043143
 21
-189.7416800593613
 31
0.0
 11
-153.8553387157399
 21
-189.6030253626392
 31
0.0
 11
-153.4634055722052
 21
-189.5047133448646
 31
0.0
 11
-153.0380431527932
 21
-189.451470006059
 31
0.0
 11
-152.5996980194084
 21
-189.445854304977
 31
0.0
 11
-152.1694405951762
 21
-189.488136538982
 31
0.0
 11
-151.7679524211894
 21
-189.5762839247988
 31
0.0
  0
SPLINE
  5
208
330
6A
100
AcDbEntity
  8
0
  6
Continuous
 62
     7
100
AcDbSpline
210
0.0
220
0.0
230
1.0
 70
     8
 71
     3
 72
    15
 73
    11
 74
     9
 42
0.000000001
 43
0.0000000001
 44
0.00000001
 40
0.0
 40
0.0
 40
0.0
 40
0.0
 40
0.7414019305861896
 40
1.556177463656938
 40
2.491953116477311
 40
3.566395598637968
 40
4.774581498771171
 40
6.096431426145067
 40
7.501946405885588
 40
8.95494168923121
 40
8.95494168923121
 40
8.95494168923121
 40
8.95494168923121
 10
-155.5492990732421
 20
-193.7818918908827
 30
0.0
 10
-155.5786564363701
 20
-193.5336778542222
 30
0.0
 10
-155.6402765579969
 20
-193.0126850280033
 30
0.0
 10
-156.1043847890163
 20
-192.2951872056855
 30
0.0
 10
-156.7930358652087
 20
-191.6480122646462
 30
0.0
 10
-157.7135190987404
 20
-191.0833771352643
 30
0.0
 10
-158.8239042974033
 20
-190.6158837056044
 30
0.0
 10
-160.0902442937201
 20
-190.2633468843522
 30
0.0
 10
-161.4669751770019
 20
-190.0266772114192
 30
0.0
 10
-162.4195314715938
 20
-189.9823034704444
 30
0.0
 10
-162.9037206737574
 20
-189.9597480745881
 30
0.0
 11
-155.5492990732421
 21
-193.7818918908827
 31
0.0
 11
-155.6891697090929
 21
-193.05380327109
 31
0.0
 11
-156.1036656944982
 21
-192.3523389052911
 31
0.0
 11
-156.777631157668
 21
-191.7031496989894
 31
0.0
 11
-157.6864198456489
 21
-191.1299745363083
 31
0.0
 11
-158.796800670344
 21
-190.6537733256816
 31
0.0
 11
-160.0681690898176
 21
-190.2919590467258
 31
0.0
 11
-161.4540350626801
 21
-190.057762839924
 31
0.0
 11
-162.9037206737574
 21
-189.9597480745881
 31
0.0
  0
SPLINE
  5
209
330
6A
100
AcDbEntity
  8
0
  6
Continuous
 62
     7
100
AcDbSpline
210
0.0
220
0.0
230
1.0
 70
     8
 71
     3
 72
    15
 73
    11
 74
     9
 42
0.000000001
 43
0.0000000001
 44
0.00000001
 40
0.0
 40
0.0
 40
0.0
 40
0.0
 40
0.4863692588041121
 40
1.025725894310379
 40
1.650905765118605
 40
2.372212395527434
 40
3.183601264160236
 40
4.06836559027948
 40
5.003030983382923
 40
5.960160314086861
 40
5.960160314086861
 40
5.960160314086861
 40
5.960160314086861
 10
-158.4492990732421
 20
-193.7818918908827
 30
0.0
 10
-158.4697701561702
 20
-193.6190257615183
 30
0.0
 10
-158.5129425526588
 20
-193.2755500973393
 30
0.0
 10
-158.8346875023215
 20
-192.8081221472674
 30
0.0
 10
-159.3080066197142
 20
-192.3914194784087
 30
0.0
 10
-159.9376821009787
 20
-192.0337640785862
 30
0.0
 10
-160.6925645746132
 20
-191.745604576487
 30
0.0
 10
-161.5467534488414
 20
-191.5393787601455
 30
0.0
 10
-162.4663642152018
 20
-191.4150756386827
 30
0.0
 10
-163.0974894924849
 20
-191.4112955098458
 30
0.0
 10
-163.4167992499399
 20
-191.4093830040112
 30
0.0
 11
-158.4492990732421
 21
-193.7818918908827
 31
0.0
 11
-158.545951466875
 21
-193.3052228466105
 31
0.0
 11
-158.8319742789329
 21
-192.8479520987906
 31
0.0
 11
-159.2957286257877
 21
-192.4286887263032
 31
0.0
 11
-159.9183408168263
 21
-192.0644946654528
 31
0.0
 11
-160.6744740473986
 21
-191.7701913636157
 31
0.0
 11
-161.533356354988
 21
-191.5577552685337
 31
0.0
 11
-162.4600354421034
 21
-191.4358320695851
 31
0.0
 11
-163.4167992499399
 21
-191.4093830040112
 31
0.0
  0
SPLINE
  5
20A
330
6A
100
AcDbEntity
  8
0
  6
Continuous
 62
     7
100
AcDbSpline
210
0.0
220
0.0
230
1.0
 70
     8
 71
     3
 72
    19
 73
    15
 74
    13
 42
0.000000001
 43
0.0000000001
 44
0.00000001
 40
0.0
 40
0.0
 40
0.0
 40
0.0
 40
0.7300201303060708
 40
1.574464702922013
 40
2.517418649945098
 40
3.530835715244781
 40
4.579604746882461
 40
5.625421691469733
 40
6.630241456010206
 40
7.55976127822136
 40
8.38741168644124
 40
9.099708161120182
 40
9.704299081532337
 40
10.24002245675259
 40
10.24002245675259
 40
10.24002245675259
 40
10.24002245675259
 10
-167.4173550950611
 20
-194.8739659951445
 30
0.0
 10
-167.2280372973821
 20
-195.0283080334661
 30
0.0
 10
-166.819727740706
 20
-195.3611838998449
 30
0.0
 10
-166.0447667187249
 20
-195.7038473888478
 30
0.0
 10
-165.1488529689828
 20
-195.9695037445217
 30
0.0
 10
-164.1565783767047
 20
-196.1274114826828
 30
0.0
 10
-163.1198362150254
 20
-196.1757334255057
 30
0.0
 10
-162.0866291394738
 20
-196.1104372454541
 30
0.0
 10
-161.1062527930716
 20
-195.9351634916651
 30
0.0
 10
-160.2257968071339
 20
-195.6581756548893
 30
0.0
 10
-159.482012995847
 20
-195.2919182382224
 30
0.0
 10
-158.9178663864796
 20
-194.8502981218133
 30
0.0
 10
-158.5279089419991
 20
-194.3432670563405
 30
0.0
 10
-158.4744256798712
 20
-193.96132807287
 30
0.0
 10
-158.4492990732421
 20
-193.7818918908827
 30
0.0
 11
-167.4173550950611
 21
-194.8739659951445
 31
0.0
 11
-166.83298283078
 21
-195.31150277935
 31
0.0
 11
-166.070289830169
 21
-195.6739748749006
 31
0.0
 11
-165.1667036611169
 21
-195.9435934612824
 31
0.0
 11
-164.166568354006
 21
-196.1071279078544
 31
0.0
 11
-163.118964543775
 21
-196.1565519662219
 31
0.0
 11
-162.0753030998596
 21
-196.0894410805979
 31
0.0
 11
-161.0868014831304
 21
-195.9090877834862
 31
0.0
 11
-160.2019693519424
 21
-195.6243436909181
 31
0.0
 11
-159.4642304429385
 21
-195.2491817273829
 31
0.0
 11
-158.9097876688876
 21
-194.8020134414728
 31
0.0
 11
-158.5658516167292
 21
-194.3047829402417
 31
0.0
 11
-158.4492990732421
 21
-193.7818918908827
 31
0.0
  0
SPLINE
  5
20B
330
6A
100
AcDbEntity
  8
0
  6
Continuous
 62
     7
100
AcDbSpline
210
0.0
220
0.0
230
1.0
 70
     8
 71
     3
 72
     9
 73
     5
 74
     3
 42
0.000000001
 43
0.0000000001
 44
0.00000001
 40
0.0
 40
0.0
 40
0.0
 40
0.0
 40
0.1655012921908461
 40
0.34935304254446
 40
0.34935304254446
 40
0.34935304254446
 40
0.34935304254446
 10
-157.1079561221522
 20
-206.2501586306193
 30
0.0
 10
-157.1012482854389
 20
-206.3059600554215
 30
0.0
 10
-157.0870888415146
 20
-206.4237500519515
 30
0.0
 10
-157.0146417664492
 20
-206.5180661595811
 30
0.0
 10
-156.9765155069462
 20
-206.5677012786736
 30
0.0
 11
-157.1079561221522
 21
-206.2501586306193
 31
0.0
 11
-157.0747513270856
 21
-206.412294745957
 31
0.0
 11
-156.9765155069462
 21
-206.5677012786736
 31
0.0
  0
SPLINE
  5
20C
330
6A
100
AcDbEntity
  8
0
  6
Continuous
 62
     7
100
AcDbSpline
210
0.0
220
0.0
230
1.0
 70
     8
 71
     3
 72
     9
 73
     5
 74
     3
 42
0.000000001
 43
0.0000000001
 44
0.00000001
 40
0.0
 40
0.0
 40
0.0
 40
0.0
 40
0.4697861522010565
 40
0.8712471595482616
 40
0.8712471595482616
 40
0.8712471595482616
 40
0.8712471595482616
 10
-156.2416729795606
 20
-201.8525633664277
 30
0.0
 10
-156.357756639315
 20
-201.964838342898
 30
0.0
 10
-156.5730408717832
 20
-202.1730591657903
 30
0.0
 10
-156.6213407360046
 20
-202.467081253413
 30
0.0
 10
-156.6435967682073
 20
-202.6025633664277
 30
0.0
 11
-156.2416729795606
 21
-201.8525633664277
 31
0.0
 11
-156.5413734745103
 21
-202.2143349022779
 31
0.0
 11
-156.6435967682073
 21
-202.6025633664277
 31
0.0
  0
SPLINE
  5
20D
330
6A
100
AcDbEntity
  8
0
  6
Continuous
 62
     7
100
AcDbSpline
210
0.0
220
0.0
230
1.0
 70
     8
 71
     3
 72
    13
 73
     9
 74
     7
 42
0.000000001
 43
0.0000000001
 44
0.00000001
 40
0.0
 40
0.0
 40
0.0
 40
0.0
 40
0.3793598466623123
 40
0.8230125772160495
 40
1.315610977696687
 40
1.834369222940049
 40
2.353127471103738
 40
2.845725878675926
 40
2.845725878675926
 40
2.845725878675926
 40
2.845725878675926
 10
-155.7464824511773
 20
-215.8519190194098
 30
0.0
 10
-155.8497570117478
 20
-215.9258233130163
 30
0.0
 10
-156.0738088353654
 20
-216.0861569876385
 30
0.0
 10
-156.4922570036365
 20
-216.2325620578827
 30
0.0
 10
-156.9678058184805
 20
-216.3310080748106
 30
0.0
 10
-157.4783571657219
 20
-216.3618749484245
 30
0.0
 10
-157.989947270724
 20
-216.3340103258529
 30
0.0
 10
-158.3185040902705
 20
-216.2559601109418
 30
0.0
 10
-158.4785332587462
 20
-216.2179444231942
 30
0.0
 11
-155.7464824511773
 21
-215.8519190194098
 31
0.0
 11
-156.0643200734106
 21
-216.0590256120776
 31
0.0
 11
-156.4785332587462
 21
-216.2179444231943
 31
0.0
 11
-156.9608953065465
 21
-216.3178445881775
 31
0.0
 11
-157.4785332587462
 21
-216.3519190194098
 31
0.0
 11
-157.9961712109459
 21
-216.3178445881775
 31
0.0
 11
-158.4785332587462
 21
-216.2179444231942
 31
0.0
  0
SPLINE
  5
20E
330
6A
100
AcDbEntity
  8
0
  6
Continuous
 62
     7
100
AcDbSpline
210
0.0
220
0.0
230
1.0
 70
     8
 71
     3
 72
    13
 73
     9
 74
     7
 42
0.000000001
 43
0.0000000001
 44
0.00000001
 40
0.0
 40
0.0
 40
0.0
 40
0.0
 40
0.2462992053192384
 40
0.5056783311439352
 40
0.7650574540484212
 40
1.011356652276093
 40
1.233183014112849
 40
1.422862936406926
 40
1.422862936406926
 40
1.422862936406926
 40
1.422862936406926
 10
-157.1339778249738
 20
-188.8932712229066
 30
0.0
 10
-157.2139924097098
 20
-188.8742633789145
 30
0.0
 10
-157.3782708220249
 20
-188.8352382785651
 30
0.0
 10
-157.6340658749287
 20
-188.8213059623628
 30
0.0
 10
-157.8893415488512
 20
-188.8367393987411
 30
0.0
 10
-158.127115954437
 20
-188.8859624097162
 30
0.0
 10
-158.3363400339531
 20
-188.9591649482551
 30
0.0
 10
-158.4483659487554
 20
-189.0393317781977
 30
0.0
 10
-158.5000032287583
 20
-189.0762839247989
 30
0.0
 11
-157.1339778249738
 21
-188.8932712229066
 31
0.0
 11
-157.375158848874
 21
-188.843321140415
 31
0.0
 11
-157.6339778249738
 21
-188.8262839247988
 31
0.0
 11
-157.8927968010738
 21
-188.843321140415
 31
0.0
 11
-158.1339778249738
 21
-188.8932712229066
 31
0.0
 11
-158.3410844176416
 21
-188.9727306284649
 31
0.0
 11
-158.5000032287583
 21
-189.0762839247989
 31
0.0
  0
ENDBLK
  5
6C
330
6A
100
AcDbEntity
  8
0
100
AcDbBlockEnd
  0
BLOCK
  5
6F
330
6D
100
AcDbEntity
  8
0
100
AcDbBlockBegin
  2
Allg1
 70
     0
 10
-155.1232423444443
 20
-199.000000000009
 30
0.0
  3
Allg1
  1

  0
INSERT
  5
6E
330
6D
100
AcDbEntity
  8
0
100
AcDbBlockReference
  2
HC_B_AF-select__6
 10
-173.7679524211894
 20
-216.3519190194098
 30
0.0
  0
MTEXT
  5
20F
330
6D
100
AcDbEntity
  8
1
 62
     6
100
AcDbMText
 10
-155.1232423444444
 20
-221.717944327818
 30
0.0
 40
5.0
 41
0.0
 71
     2
 72
     1
  1
 
  7
CONVERTER_11
 73
     1
 44
1.32052821128451
  0
ENDBLK
  5
70
330
6D
100
AcDbEntity
  8
0
100
AcDbBlockEnd
  0
BLOCK
  5
72
330
71
100
AcDbEntity
  8
0
100
AcDbBlockBegin
  2
_rahmen
 70
     0
 10
-123.4999999999899
 20
-267.0000000000051
 30
0.0
  3
_rahmen
  1

  0
LINE
  5
210
330
71
100
AcDbEntity
  8
1
  6
Continuous
 62
     6
100
AcDbLine
 10
-253.0448045267399
 20
-236.500000000005
 30
0.0
 11
-123.4999999999882
 21
-236.500000000005
 31
0.0
  0
LINE
  5
211
330
71
100
AcDbEntity
  8
1
  6
Continuous
 62
     7
100
AcDbLine
 10
-234.8448045267399
 20
-257.750000000005
 30
0.0
 11
-216.64480452674
 21
-257.750000000005
 31
0.0
  0
LINE
  5
212
330
71
100
AcDbEntity
  8
1
  6
Continuous
 62
     6
100
AcDbLine
 10
-234.8448045267399
 20
-262.000000000005
 30
0.0
 11
-253.0448045267399
 21
-262.0000000000051
 31
0.0
  0
LINE
  5
213
330
71
100
AcDbEntity
  8
1
  6
Continuous
 62
     7
100
AcDbLine
 10
-234.8448045267399
 20
-257.750000000005
 30
0.0
 11
-234.8448045267399
 21
-262.000000000005
 31
0.0
  0
LINE
  5
214
330
71
100
AcDbEntity
  8
1
  6
Continuous
 62
     7
100
AcDbLine
 10
-216.64480452674
 20
-257.750000000005
 30
0.0
 11
-216.64480452674
 21
-262.0000000000051
 31
0.0
  0
LINE
  5
215
330
71
100
AcDbEntity
  8
1
  6
Continuous
 62
     7
100
AcDbLine
 10
-253.0448045267399
 20
-257.7500000000051
 30
0.0
 11
-253.0448045267399
 21
-262.0000000000051
 31
0.0
  0
LINE
  5
216
330
71
100
AcDbEntity
  8
1
  6
Continuous
 62
     7
100
AcDbLine
 10
-253.0448045267399
 20
-257.7500000000051
 30
0.0
 11
-234.8448045267399
 21
-257.750000000005
 31
0.0
  0
LINE
  5
217
330
71
100
AcDbEntity
  8
1
  6
Continuous
 62
     2
100
AcDbLine
 10
-243.8081496401773
 20
-238.3750000000051
 30
0.0
 11
-243.8081496401773
 21
-243.3750000000051
 31
0.0
  0
LINE
  5
218
330
71
100
AcDbEntity
  8
1
  6
Continuous
 62
     2
100
AcDbLine
 10
-243.8081496401773
 20
-243.3750000000051
 30
0.0
 11
-248.8081496401773
 21
-242.1250000000051
 31
0.0
  0
LINE
  5
219
330
71
100
AcDbEntity
  8
1
  6
Continuous
 62
     2
100
AcDbLine
 10
-248.8081496401773
 20
-242.1250000000051
 30
0.0
 11
-248.8081496401773
 21
-239.6250000000051
 31
0.0
  0
LINE
  5
21A
330
71
100
AcDbEntity
  8
1
  6
Continuous
 62
     2
100
AcDbLine
 10
-248.8081496401773
 20
-239.6250000000051
 30
0.0
 11
-243.8081496401773
 21
-238.3750000000051
 31
0.0
  0
LINE
  5
21B
330
71
100
AcDbEntity
  8
1
  6
Continuous
 62
     6
100
AcDbLine
 10
-375.4999999999881
 20
-262.000000000005
 30
0.0
 11
-410.499999999988
 21
-262.000000000005
 31
0.0
  0
LINE
  5
21C
330
71
100
AcDbEntity
  8
1
  6
Continuous
 62
     6
100
AcDbLine
 10
-123.4999999999882
 20
-245.000000000005
 30
0.0
 11
-123.4999999999886
 21
-253.500000000005
 31
0.0
  0
LINE
  5
21D
330
71
100
AcDbEntity
  8
1
  6
Continuous
 62
     6
100
AcDbLine
 10
-216.64480452674
 20
-262.0000000000051
 30
0.0
 11
-216.9999999999899
 21
-262.000000000005
 31
0.0
  0
LINE
  5
21E
330
71
100
AcDbEntity
  8
1
  6
Continuous
 62
     6
100
AcDbLine
 10
-369.2999999999901
 20
-262.0000000000051
 30
0.0
 11
-375.4999999999881
 21
-262.000000000005
 31
0.0
  0
LINE
  5
21F
330
71
100
AcDbEntity
  8
1
  6
Continuous
 62
     7
100
AcDbLine
 10
-216.64480452674
 20
-245.000000000005
 30
0.0
 11
-216.64480452674
 21
-257.750000000005
 31
0.0
  0
LINE
  5
220
330
71
100
AcDbEntity
  8
1
  6
Continuous
 62
     7
100
AcDbLine
 10
-253.0448045267399
 20
-245.000000000005
 30
0.0
 11
-253.0448045267399
 21
-257.7500000000051
 31
0.0
  0
LINE
  5
221
330
71
100
AcDbEntity
  8
1
  6
Continuous
 62
     6
100
AcDbLine
 10
-266.9999999999899
 20
-262.000000000005
 30
0.0
 11
-316.9999999999901
 21
-262.000000000005
 31
0.0
  0
LINE
  5
222
330
71
100
AcDbEntity
  8
1
  6
Continuous
 62
     6
100
AcDbLine
 10
-369.2999999999901
 20
-262.0000000000051
 30
0.0
 11
-366.9999999999899
 21
-262.000000000005
 31
0.0
  0
LINE
  5
223
330
71
100
AcDbEntity
  8
1
  6
Continuous
 62
     6
100
AcDbLine
 10
-216.64480452674
 20
-262.0000000000051
 30
0.0
 11
-166.9999999999899
 21
-262.000000000005
 31
0.0
  0
LINE
  5
224
330
71
100
AcDbEntity
  8
1
  6
Continuous
 62
     6
100
AcDbLine
 10
-123.4999999999899
 20
-262.000000000005
 30
0.0
 11
-123.4999999999886
 21
-253.500000000005
 31
0.0
  0
LINE
  5
225
330
71
100
AcDbEntity
  8
1
  6
Continuous
 62
     2
100
AcDbLine
 10
-415.499999999989
 20
-262.000000000005
 30
0.0
 11
-415.499999999989
 21
-267.0000000000051
 31
0.0
  0
LINE
  5
226
330
71
100
AcDbEntity
  8
1
  6
Continuous
 62
     2
100
AcDbLine
 10
-410.499999999988
 20
-262.000000000005
 30
0.0
 11
-415.499999999989
 21
-262.000000000005
 31
0.0
  0
LINE
  5
227
330
71
100
AcDbEntity
  8
1
  6
Continuous
 62
     2
100
AcDbLine
 10
-410.499999999988
 20
-267.0000000000051
 30
0.0
 11
-366.9999999999899
 21
-267.0000000000051
 31
0.0
  0
LINE
  5
228
330
71
100
AcDbEntity
  8
1
  6
Continuous
 62
     2
100
AcDbLine
 10
-410.499999999988
 20
-262.000000000005
 30
0.0
 11
-410.499999999988
 21
-267.0000000000051
 31
0.0
  0
LINE
  5
229
330
71
100
AcDbEntity
  8
1
  6
Continuous
 62
     2
100
AcDbLine
 10
-166.9999999999899
 20
-267.0000000000051
 30
0.0
 11
-216.9999999999899
 21
-267.0000000000051
 31
0.0
  0
LINE
  5
22A
330
71
100
AcDbEntity
  8
1
  6
Continuous
 62
     2
100
AcDbLine
 10
-166.9999999999899
 20
-267.0000000000051
 30
0.0
 11
-166.9999999999899
 21
-262.000000000005
 31
0.0
  0
LINE
  5
22B
330
71
100
AcDbEntity
  8
1
  6
Continuous
 62
     2
100
AcDbLine
 10
-216.9999999999899
 20
-267.0000000000051
 30
0.0
 11
-216.9999999999899
 21
-262.000000000005
 31
0.0
  0
LINE
  5
22C
330
71
100
AcDbEntity
  8
1
  6
Continuous
 62
     2
100
AcDbLine
 10
-266.9999999999899
 20
-267.0000000000051
 30
0.0
 11
-216.9999999999899
 21
-267.0000000000051
 31
0.0
  0
LINE
  5
22D
330
71
100
AcDbEntity
  8
1
  6
Continuous
 62
     2
100
AcDbLine
 10
-266.9999999999899
 20
-267.0000000000051
 30
0.0
 11
-266.9999999999899
 21
-262.000000000005
 31
0.0
  0
LINE
  5
22E
330
71
100
AcDbEntity
  8
1
  6
Continuous
 62
     2
100
AcDbLine
 10
-316.9999999999901
 20
-267.0000000000051
 30
0.0
 11
-266.9999999999899
 21
-267.0000000000051
 31
0.0
  0
LINE
  5
22F
330
71
100
AcDbEntity
  8
1
  6
Continuous
 62
     2
100
AcDbLine
 10
-316.9999999999901
 20
-267.0000000000051
 30
0.0
 11
-316.9999999999901
 21
-262.000000000005
 31
0.0
  0
LINE
  5
230
330
71
100
AcDbEntity
  8
1
  6
Continuous
 62
     2
100
AcDbLine
 10
-366.9999999999899
 20
-267.0000000000051
 30
0.0
 11
-316.9999999999901
 21
-267.0000000000051
 31
0.0
  0
LINE
  5
231
330
71
100
AcDbEntity
  8
1
  6
Continuous
 62
     2
100
AcDbLine
 10
-366.9999999999899
 20
-267.0000000000051
 30
0.0
 11
-366.9999999999899
 21
-262.000000000005
 31
0.0
  0
LINE
  5
232
330
71
100
AcDbEntity
  8
1
  6
Continuous
 62
     6
100
AcDbLine
 10
-410.4999999999882
 20
-212.0000000000049
 30
0.0
 11
-410.499999999988
 21
-262.000000000005
 31
0.0
  0
LINE
  5
233
330
71
100
AcDbEntity
  8
1
  6
Continuous
 62
     2
100
AcDbLine
 10
-415.499999999989
 20
-212.0000000000049
 30
0.0
 11
-415.499999999989
 21
-262.000000000005
 31
0.0
  0
LINE
  5
234
330
71
100
AcDbEntity
  8
1
  6
Continuous
 62
     2
100
AcDbLine
 10
-415.499999999989
 20
-212.0000000000049
 30
0.0
 11
-410.4999999999882
 21
-212.0000000000049
 31
0.0
  0
LINE
  5
235
330
71
100
AcDbEntity
  8
1
  6
Continuous
 62
     6
100
AcDbLine
 10
-410.4999999999884
 20
-162.0000000000051
 30
0.0
 11
-410.4999999999882
 21
-212.0000000000049
 31
0.0
  0
LINE
  5
236
330
71
100
AcDbEntity
  8
1
  6
Continuous
 62
     2
100
AcDbLine
 10
-415.499999999989
 20
-162.0000000000051
 30
0.0
 11
-415.499999999989
 21
-212.0000000000049
 31
0.0
  0
LINE
  5
237
330
71
100
AcDbEntity
  8
1
  6
Continuous
 62
     2
100
AcDbLine
 10
-415.499999999989
 20
-162.0000000000051
 30
0.0
 11
-410.4999999999884
 21
-162.0000000000051
 31
0.0
  0
LINE
  5
238
330
71
100
AcDbEntity
  8
1
  6
Continuous
 62
     6
100
AcDbLine
 10
-410.4999999999889
 20
-112.000000000005
 30
0.0
 11
-410.4999999999884
 21
-162.0000000000051
 31
0.0
  0
LINE
  5
239
330
71
100
AcDbEntity
  8
1
  6
Continuous
 62
     2
100
AcDbLine
 10
-415.499999999989
 20
-112.000000000005
 30
0.0
 11
-415.499999999989
 21
-162.0000000000051
 31
0.0
  0
LINE
  5
23A
330
71
100
AcDbEntity
  8
1
  6
Continuous
 62
     2
100
AcDbLine
 10
-415.499999999989
 20
-112.000000000005
 30
0.0
 11
-410.4999999999889
 21
-112.000000000005
 31
0.0
  0
LINE
  5
23B
330
71
100
AcDbEntity
  8
1
  6
Continuous
 62
     6
100
AcDbLine
 10
-410.499999999989
 20
-77.000000000005
 30
0.0
 11
-410.4999999999889
 21
-112.000000000005
 31
0.0
  0
LINE
  5
23C
330
71
100
AcDbEntity
  8
1
  6
Continuous
 62
     2
100
AcDbLine
 10
-415.499999999989
 20
-57.000000000005
 30
0.0
 11
-415.499999999989
 21
-112.000000000005
 31
0.0
  0
LINE
  5
23D
330
71
100
AcDbEntity
  8
1
  6
Continuous
 62
     2
100
AcDbLine
 10
-415.499999999989
 20
-267.0000000000051
 30
0.0
 11
-410.499999999988
 21
-267.0000000000051
 31
0.0
  0
LINE
  5
23E
330
71
100
AcDbEntity
  8
1
  6
Continuous
 62
     2
100
AcDbLine
 10
-266.9999999999899
 20
-57.000000000005
 30
0.0
 11
-266.9999999999899
 21
-66.20869184470632
 31
0.0
  0
LINE
  5
23F
330
71
100
AcDbEntity
  8
1
  6
Continuous
 62
     2
100
AcDbLine
 10
-266.9999999999899
 20
-57.000000000005
 30
0.0
 11
-415.499999999989
 21
-57.000000000005
 31
0.0
  0
LINE
  5
240
330
71
100
AcDbEntity
  8
1
  6
Continuous
 62
     2
100
AcDbLine
 10
-118.4999999999909
 20
-262.000000000005
 30
0.0
 11
-118.4999999999909
 21
-212.0000000000049
 31
0.0
  0
LINE
  5
241
330
71
100
AcDbEntity
  8
1
  6
Continuous
 62
     2
100
AcDbLine
 10
-118.4999999999909
 20
-112.000000000005
 30
0.0
 11
-118.4999999999909
 21
-57.000000000005
 31
0.0
  0
LINE
  5
242
330
71
100
AcDbEntity
  8
1
  6
Continuous
 62
     6
100
AcDbLine
 10
-123.4999999999907
 20
-112.000000000005
 30
0.0
 11
-123.4999999999909
 21
-77.000000000005
 31
0.0
  0
LINE
  5
243
330
71
100
AcDbEntity
  8
1
  6
Continuous
 62
     2
100
AcDbLine
 10
-123.4999999999907
 20
-112.000000000005
 30
0.0
 11
-118.4999999999909
 21
-112.000000000005
 31
0.0
  0
LINE
  5
244
330
71
100
AcDbEntity
  8
1
  6
Continuous
 62
     2
100
AcDbLine
 10
-118.4999999999909
 20
-162.0000000000051
 30
0.0
 11
-118.4999999999909
 21
-112.000000000005
 31
0.0
  0
LINE
  5
245
330
71
100
AcDbEntity
  8
1
  6
Continuous
 62
     6
100
AcDbLine
 10
-123.4999999999895
 20
-162.0000000000051
 30
0.0
 11
-123.4999999999907
 21
-112.000000000005
 31
0.0
  0
LINE
  5
246
330
71
100
AcDbEntity
  8
1
  6
Continuous
 62
     2
100
AcDbLine
 10
-123.4999999999895
 20
-162.0000000000051
 30
0.0
 11
-118.4999999999909
 21
-162.0000000000051
 31
0.0
  0
LINE
  5
247
330
71
100
AcDbEntity
  8
1
  6
Continuous
 62
     2
100
AcDbLine
 10
-118.4999999999909
 20
-212.0000000000049
 30
0.0
 11
-118.4999999999909
 21
-162.0000000000051
 31
0.0
  0
LINE
  5
248
330
71
100
AcDbEntity
  8
1
  6
Continuous
 62
     6
100
AcDbLine
 10
-123.499999999989
 20
-212.0000000000049
 30
0.0
 11
-123.4999999999895
 21
-162.0000000000051
 31
0.0
  0
LINE
  5
249
330
71
100
AcDbEntity
  8
1
  6
Continuous
 62
     2
100
AcDbLine
 10
-123.499999999989
 20
-212.0000000000049
 30
0.0
 11
-118.4999999999909
 21
-212.0000000000049
 31
0.0
  0
LINE
  5
24A
330
71
100
AcDbEntity
  8
1
  6
Continuous
 62
     6
100
AcDbLine
 10
-123.4999999999909
 20
-77.000000000005
 30
0.0
 11
-410.499999999989
 21
-77.000000000005
 31
0.0
  0
LINE
  5
24B
330
71
100
AcDbEntity
  8
1
  6
Continuous
 62
     2
100
AcDbLine
 10
-118.4999999999909
 20
-57.000000000005
 30
0.0
 11
-266.9999999999899
 21
-57.000000000005
 31
0.0
  0
LINE
  5
24C
330
71
100
AcDbEntity
  8
1
  6
Continuous
 62
     6
100
AcDbLine
 10
-123.4999999999882
 20
-245.000000000005
 30
0.0
 11
-123.499999999989
 21
-212.0000000000049
 31
0.0
  0
LINE
  5
24D
330
71
100
AcDbEntity
  8
1
  6
Continuous
 62
     2
100
AcDbLine
 10
-123.4999999999899
 20
-267.0000000000051
 30
0.0
 11
-166.9999999999899
 21
-267.0000000000051
 31
0.0
  0
LINE
  5
24E
330
71
100
AcDbEntity
  8
1
  6
Continuous
 62
     2
100
AcDbLine
 10
-118.4999999999909
 20
-267.0000000000051
 30
0.0
 11
-123.4999999999899
 21
-267.0000000000051
 31
0.0
  0
LINE
  5
24F
330
71
100
AcDbEntity
  8
1
  6
Continuous
 62
     2
100
AcDbLine
 10
-118.4999999999909
 20
-267.0000000000051
 30
0.0
 11
-118.4999999999909
 21
-262.000000000005
 31
0.0
  0
LINE
  5
250
330
71
100
AcDbEntity
  8
1
  6
Continuous
 62
     6
100
AcDbLine
 10
-253.0448045267399
 20
-245.000000000005
 30
0.0
 11
-216.64480452674
 21
-245.000000000005
 31
0.0
  0
LINE
  5
251
330
71
100
AcDbEntity
  8
1
  6
Continuous
 62
     2
100
AcDbLine
 10
-123.4999999999899
 20
-262.000000000005
 30
0.0
 11
-123.4999999999899
 21
-267.0000000000051
 31
0.0
  0
LINE
  5
252
330
71
100
AcDbEntity
  8
1
  6
Continuous
 62
     2
100
AcDbLine
 10
-123.4999999999899
 20
-262.000000000005
 30
0.0
 11
-118.4999999999909
 21
-262.000000000005
 31
0.0
  0
LINE
  5
253
330
71
100
AcDbEntity
  8
1
  6
Continuous
 62
     6
100
AcDbLine
 10
-216.9999999999899
 20
-262.000000000005
 30
0.0
 11
-234.8448045267399
 21
-262.000000000005
 31
0.0
  0
LINE
  5
254
330
71
100
AcDbEntity
  8
1
  6
Continuous
 62
     6
100
AcDbLine
 10
-166.9999999999899
 20
-262.000000000005
 30
0.0
 11
-123.4999999999899
 21
-262.000000000005
 31
0.0
  0
LINE
  5
255
330
71
100
AcDbEntity
  8
1
  6
Continuous
 62
     6
100
AcDbLine
 10
-316.9999999999901
 20
-262.000000000005
 30
0.0
 11
-322.0448045267399
 21
-262.000000000005
 31
0.0
  0
LINE
  5
256
330
71
100
AcDbEntity
  8
1
  6
Continuous
 62
     6
100
AcDbLine
 10
-266.9999999999899
 20
-262.000000000005
 30
0.0
 11
-253.0448045267399
 21
-262.0000000000051
 31
0.0
  0
LINE
  5
257
102
{ACAD_REACTORS
330
341
330
342
102
}
330
71
100
AcDbEntity
  8
0
  6
Continuous
 62
     2
100
AcDbLine
 10
-245.5301785845931
 20
-249.9274852437929
 30
0.0
 11
-245.5301785845931
 21
-249.3219499552861
 31
0.0
  0
LINE
  5
258
102
{ACAD_REACTORS
330
341
330
342
102
}
330
71
100
AcDbEntity
  8
0
  6
Continuous
 62
     2
100
AcDbLine
 10
-245.5301785845931
 20
-252.7276198504242
 30
0.0
 11
-245.5301785845931
 21
-252.1457684437291
 31
0.0
  0
LINE
  5
259
102
{ACAD_REACTORS
330
343
330
344
102
}
330
71
100
AcDbEntity
  8
0
  6
Continuous
 62
     2
100
AcDbLine
 10
-222.9006921491139
 20
-252.4379557823012
 30
0.0
 11
-222.9006921491139
 21
-254.7064999999887
 31
0.0
  0
LINE
  5
25A
102
{ACAD_REACTORS
330
343
330
344
102
}
330
71
100
AcDbEntity
  8
0
  6
Continuous
 62
     2
100
AcDbLine
 10
-224.2817459281015
 20
-251.6526904761781
 30
0.0
 11
-220.8968004094728
 21
-251.6526904761776
 31
0.0
  0
LINE
  5
25B
102
{ACAD_REACTORS
330
343
330
344
102
}
330
71
100
AcDbEntity
  8
0
  6
Continuous
 62
     2
100
AcDbLine
 10
-220.8968004094728
 20
-252.4379557823012
 30
0.0
 11
-220.8968004094728
 21
-251.6526904761776
 31
0.0
  0
LINE
  5
25C
102
{ACAD_REACTORS
330
343
330
344
102
}
330
71
100
AcDbEntity
  8
0
  6
Continuous
 62
     2
100
AcDbLine
 10
-221.7078994469462
 20
-252.4379557823012
 30
0.0
 11
-220.8968004094728
 21
-252.4379557823012
 31
0.0
  0
LINE
  5
25D
102
{ACAD_REACTORS
330
343
330
344
102
}
330
71
100
AcDbEntity
  8
0
  6
Continuous
 62
     2
100
AcDbLine
 10
-221.7078994469462
 20
-254.7064999999887
 30
0.0
 11
-221.7078994469462
 21
-252.4379557823012
 31
0.0
  0
LINE
  5
25E
102
{ACAD_REACTORS
330
343
330
344
102
}
330
71
100
AcDbEntity
  8
0
  6
Continuous
 62
     2
100
AcDbLine
 10
-222.9006921491139
 20
-254.7064999999887
 30
0.0
 11
-221.7078994469462
 21
-254.7064999999887
 31
0.0
  0
LINE
  5
25F
102
{ACAD_REACTORS
330
339
330
33A
102
}
330
71
100
AcDbEntity
  8
0
  6
Continuous
 62
     2
100
AcDbLine
 10
-223.5972830871784
 20
-248.2935000000032
 30
0.0
 11
-225.0000073049277
 21
-248.2935000000032
 31
0.0
  0
LINE
  5
260
102
{ACAD_REACTORS
330
339
330
33A
102
}
330
71
100
AcDbEntity
  8
0
  6
Continuous
 62
     2
100
AcDbLine
 10
-223.5972830871784
 20
-248.2935000000032
 30
0.0
 11
-222.9961155652866
 21
-248.9733233215587
 31
0.0
  0
LINE
  5
261
102
{ACAD_REACTORS
330
339
330
33A
102
}
330
71
100
AcDbEntity
  8
0
  6
Continuous
 62
     2
100
AcDbLine
 10
-222.9961155652866
 20
-248.9733233215587
 30
0.0
 11
-222.3949480433938
 21
-248.2935000000032
 31
0.0
  0
LINE
  5
262
102
{ACAD_REACTORS
330
339
330
33A
102
}
330
71
100
AcDbEntity
  8
0
  6
Continuous
 62
     2
100
AcDbLine
 10
-222.2947534564131
 20
-249.7664505300394
 30
0.0
 11
-220.9922238256466
 21
-248.2935000000032
 31
0.0
  0
LINE
  5
263
102
{ACAD_REACTORS
330
339
330
33A
102
}
330
71
100
AcDbEntity
  8
0
  6
Continuous
 62
     2
100
AcDbLine
 10
-222.2947534564131
 20
-249.7664505300394
 30
0.0
 11
-220.8968004094728
 21
-251.3473095238144
 31
0.0
  0
LINE
  5
264
102
{ACAD_REACTORS
330
339
330
33A
102
}
330
71
100
AcDbEntity
  8
0
  6
Continuous
 62
     2
100
AcDbLine
 10
-222.2995246272211
 20
-251.3473095238144
 30
0.0
 11
-220.8968004094728
 21
-251.3473095238144
 31
0.0
  0
LINE
  5
265
102
{ACAD_REACTORS
330
339
330
33A
102
}
330
71
100
AcDbEntity
  8
0
  6
Continuous
 62
     2
100
AcDbLine
 10
-222.9961155652866
 20
-250.5595777385207
 30
0.0
 11
-222.2995246272211
 21
-251.3473095238144
 31
0.0
  0
LINE
  5
266
102
{ACAD_REACTORS
330
337
330
338
102
}
330
71
100
AcDbEntity
  8
0
  6
Continuous
 62
     2
100
AcDbLine
 10
-226.4552144015703
 20
-248.2935000000032
 30
0.0
 11
-225.2147099913174
 21
-248.2935000000032
 31
0.0
  0
LINE
  5
267
102
{ACAD_REACTORS
330
337
330
338
102
}
330
71
100
AcDbEntity
  8
0
  6
Continuous
 62
     2
100
AcDbLine
 10
-225.2147099913174
 20
-248.2935000000032
 30
0.0
 11
-225.2147099913174
 21
-251.3473095238144
 31
0.0
  0
LINE
  5
268
102
{ACAD_REACTORS
330
337
330
338
102
}
330
71
100
AcDbEntity
  8
0
  6
Continuous
 62
     2
100
AcDbLine
 10
-226.4552144015703
 20
-251.3473095238144
 30
0.0
 11
-226.4552144015703
 21
-248.2935000000032
 31
0.0
  0
LINE
  5
269
102
{ACAD_REACTORS
330
335
330
336
102
}
330
71
100
AcDbEntity
  8
0
  6
Continuous
 62
     2
100
AcDbLine
 10
-227.9235244841079
 20
-253.4849761904642
 30
0.0
 11
-227.6233592469155
 21
-252.7171612244775
 31
0.0
  0
LINE
  5
26A
102
{ACAD_REACTORS
330
335
330
336
102
}
330
71
100
AcDbEntity
  8
0
  6
Continuous
 62
     2
100
AcDbLine
 10
-228.4010600887287
 20
-254.7064999999887
 30
0.0
 11
-228.1895800352529
 21
-254.1655394557708
 31
0.0
  0
LINE
  5
26B
102
{ACAD_REACTORS
330
335
330
336
102
}
330
71
100
AcDbEntity
  8
0
  6
Continuous
 62
     2
100
AcDbLine
 10
-228.2436114520424
 20
-251.6526904761776
 30
0.0
 11
-229.6415644989817
 21
-254.7064999999887
 31
0.0
  0
LINE
  5
26C
102
{ACAD_REACTORS
330
335
330
336
102
}
330
71
100
AcDbEntity
  8
0
  6
Continuous
 62
     2
100
AcDbLine
 10
-225.6051539948494
 20
-254.7064999999887
 30
0.0
 11
-226.8456584051033
 21
-254.7064999999887
 31
0.0
  0
LINE
  5
26D
102
{ACAD_REACTORS
330
335
330
336
102
}
330
71
100
AcDbEntity
  8
0
  6
Continuous
 62
     2
100
AcDbLine
 10
-228.1895800352529
 20
-254.1655394557708
 30
0.0
 11
-227.0571384585791
 21
-254.1655394557708
 31
0.0
  0
LINE
  5
26E
102
{ACAD_REACTORS
330
333
330
334
102
}
330
71
100
AcDbEntity
  8
0
  6
Continuous
 62
     2
100
AcDbLine
 10
-231.7990766381639
 20
-252.4379557823012
 30
0.0
 11
-230.9879776006893
 21
-252.4379557823012
 31
0.0
  0
LINE
  5
26F
102
{ACAD_REACTORS
330
333
330
334
102
}
330
71
100
AcDbEntity
  8
0
  6
Continuous
 62
     2
100
AcDbLine
 10
-228.9840858610503
 20
-251.6526904761776
 30
0.0
 11
-231.7990766381639
 21
-251.6526904761776
 31
0.0
  0
LINE
  5
270
102
{ACAD_REACTORS
330
333
330
334
102
}
330
71
100
AcDbEntity
  8
0
  6
Continuous
 62
     2
100
AcDbLine
 10
-228.9840858610503
 20
-252.4379557823012
 30
0.0
 11
-228.9840858610503
 21
-251.6526904761776
 31
0.0
  0
LINE
  5
271
102
{ACAD_REACTORS
330
333
330
334
102
}
330
71
100
AcDbEntity
  8
0
  6
Continuous
 62
     2
100
AcDbLine
 10
-229.7951848985228
 20
-252.4379557823012
 30
0.0
 11
-228.9840858610503
 21
-252.4379557823012
 31
0.0
  0
LINE
  5
272
102
{ACAD_REACTORS
330
333
330
334
102
}
330
71
100
AcDbEntity
  8
0
  6
Continuous
 62
     2
100
AcDbLine
 10
-229.7951848985228
 20
-254.7064999999887
 30
0.0
 11
-229.7951848985228
 21
-252.4379557823012
 31
0.0
  0
LINE
  5
273
102
{ACAD_REACTORS
330
331
330
332
102
}
330
71
100
AcDbEntity
  8
0
  6
Continuous
 62
     2
100
AcDbLine
 10
-229.1270700544248
 20
-251.3473095238144
 30
0.0
 11
-229.1270700544248
 21
-250.0385340136097
 31
0.0
  0
LINE
  5
274
102
{ACAD_REACTORS
330
331
330
332
102
}
330
71
100
AcDbEntity
  8
0
  6
Continuous
 62
     2
100
AcDbLine
 10
-230.3198627565913
 20
-248.2935000000032
 30
0.0
 11
-230.3198627565913
 21
-251.3473095238144
 31
0.0
  0
LINE
  5
275
102
{ACAD_REACTORS
330
331
330
332
102
}
330
71
100
AcDbEntity
  8
0
  6
Continuous
 62
     2
100
AcDbLine
 10
-229.1270700544248
 20
-248.2935000000032
 30
0.0
 11
-230.3198627565913
 21
-248.2935000000032
 31
0.0
  0
LINE
  5
276
102
{ACAD_REACTORS
330
331
330
332
102
}
330
71
100
AcDbEntity
  8
0
  6
Continuous
 62
     2
100
AcDbLine
 10
-227.8865656441708
 20
-248.2935000000032
 30
0.0
 11
-227.8865656441708
 21
-249.6022755102084
 31
0.0
  0
LINE
  5
277
102
{ACAD_REACTORS
330
32F
330
330
102
}
330
71
100
AcDbEntity
  8
0
  6
Continuous
 62
     2
100
AcDbLine
 10
-235.568301577011
 20
-251.6526904761776
 30
0.0
 11
-235.568301577011
 21
-254.7064999999887
 31
0.0
  0
LINE
  5
278
102
{ACAD_REACTORS
330
32F
330
330
102
}
330
71
100
AcDbEntity
  8
0
  6
Continuous
 62
     2
100
AcDbLine
 10
-234.3755088748434
 20
-251.6526904761776
 30
0.0
 11
-235.568301577011
 21
-251.6526904761776
 31
0.0
  0
LINE
  5
279
102
{ACAD_REACTORS
330
32F
330
330
102
}
330
71
100
AcDbEntity
  8
0
  6
Continuous
 62
     2
100
AcDbLine
 10
-233.1350044645905
 20
-254.7064999999887
 30
0.0
 11
-231.9422117624241
 21
-254.7064999999887
 31
0.0
  0
LINE
  5
27A
102
{ACAD_REACTORS
330
32F
330
330
102
}
330
71
100
AcDbEntity
  8
0
  6
Continuous
 62
     2
100
AcDbLine
 10
-235.568301577011
 20
-254.7064999999887
 30
0.0
 11
-234.3755088748434
 21
-254.7064999999887
 31
0.0
  0
LINE
  5
27B
102
{ACAD_REACTORS
330
33F
330
340
102
}
330
71
100
AcDbEntity
  8
0
  6
Continuous
 62
     2
100
AcDbLine
 10
-231.8943491234519
 20
-249.4713979591879
 30
0.0
 11
-231.8943491234519
 21
-248.9915136054462
 31
0.0
  0
LINE
  5
27C
102
{ACAD_REACTORS
330
33F
330
340
102
}
330
71
100
AcDbEntity
  8
0
  6
Continuous
 62
     2
100
AcDbLine
 10
-230.5584212970242
 20
-249.4713979591879
 30
0.0
 11
-231.8943491234519
 21
-249.4713979591879
 31
0.0
  0
LINE
  5
27D
102
{ACAD_REACTORS
330
33F
330
340
102
}
330
71
100
AcDbEntity
  8
0
  6
Continuous
 62
     2
100
AcDbLine
 10
-230.5584212970242
 20
-250.1694115646302
 30
0.0
 11
-230.5584212970242
 21
-249.4713979591879
 31
0.0
  0
LINE
  5
27E
102
{ACAD_REACTORS
330
33F
330
340
102
}
330
71
100
AcDbEntity
  8
0
  6
Continuous
 62
     2
100
AcDbLine
 10
-231.8943491234519
 20
-250.1694115646302
 30
0.0
 11
-230.5584212970242
 21
-250.1694115646302
 31
0.0
  0
LINE
  5
27F
102
{ACAD_REACTORS
330
32D
330
32E
102
}
330
71
100
AcDbEntity
  8
0
  6
Continuous
 62
     2
100
AcDbLine
 10
-235.3773038137788
 20
-248.2935000000032
 30
0.0
 11
-235.3773038137788
 21
-251.3473095238144
 31
0.0
  0
LINE
  5
280
102
{ACAD_REACTORS
330
32D
330
32E
102
}
330
71
100
AcDbEntity
  8
0
  6
Continuous
 62
     2
100
AcDbLine
 10
-235.3773038137788
 20
-251.3473095238144
 30
0.0
 11
-236.5700965159452
 21
-251.3473095238144
 31
0.0
  0
LINE
  5
281
102
{ACAD_REACTORS
330
32D
330
32E
102
}
330
71
100
AcDbEntity
  8
0
  6
Continuous
 62
     2
100
AcDbLine
 10
-236.5700965159452
 20
-251.3473095238144
 30
0.0
 11
-236.5700965159452
 21
-250.2130374149706
 31
0.0
  0
LINE
  5
282
102
{ACAD_REACTORS
330
32D
330
32E
102
}
330
71
100
AcDbEntity
  8
0
  6
Continuous
 62
     2
100
AcDbLine
 10
-237.6197540938527
 20
-251.3473095238144
 30
0.0
 11
-238.8125467960193
 21
-251.3473095238144
 31
0.0
  0
LINE
  5
283
102
{ACAD_REACTORS
330
32D
330
32E
102
}
330
71
100
AcDbEntity
  8
0
  6
Continuous
 62
     2
100
AcDbLine
 10
-238.8125467960193
 20
-248.2935000000032
 30
0.0
 11
-237.6197540938527
 21
-248.2935000000032
 31
0.0
  0
LINE
  5
284
102
{ACAD_REACTORS
330
32D
330
32E
102
}
330
71
100
AcDbEntity
  8
0
  6
Continuous
 62
     2
100
AcDbLine
 10
-237.6197540938527
 20
-248.2935000000032
 30
0.0
 11
-237.6197540938527
 21
-249.3623333333378
 31
0.0
  0
LINE
  5
285
102
{ACAD_REACTORS
330
32D
330
32E
102
}
330
71
100
AcDbEntity
  8
0
  6
Continuous
 62
     2
100
AcDbLine
 10
-237.6197540938527
 20
-249.3623333333378
 30
0.0
 11
-236.5700965159452
 21
-249.3623333333378
 31
0.0
  0
LINE
  5
286
102
{ACAD_REACTORS
330
33B
330
33C
102
}
330
71
100
AcDbEntity
  8
0
  6
Continuous
 62
     2
100
AcDbLine
 10
-240.7687268275729
 20
-248.9566058454433
 30
0.0
 11
-240.451431766031
 21
-248.9566058454433
 31
0.0
  0
LINE
  5
287
102
{ACAD_REACTORS
330
33B
330
33C
102
}
330
71
100
AcDbEntity
  8
0
  6
Continuous
 62
     2
100
AcDbLine
 10
-240.7687268275729
 20
-249.6623334947855
 30
0.0
 11
-240.451431766031
 21
-249.6623334947855
 31
0.0
  0
LINE
  5
288
102
{ACAD_REACTORS
330
33B
330
33C
102
}
330
71
100
AcDbEntity
  8
0
  6
Continuous
 62
     2
100
AcDbLine
 10
-242.009231237827
 20
-248.2935000000032
 30
0.0
 11
-242.009231237827
 21
-251.3473095238144
 31
0.0
  0
LINE
  5
289
102
{ACAD_REACTORS
330
33B
330
33C
102
}
330
71
100
AcDbEntity
  8
0
  6
Continuous
 62
     2
100
AcDbLine
 10
-242.009231237827
 20
-248.2935000000032
 30
0.0
 11
-240.0099592397926
 21
-248.2935000000032
 31
0.0
  0
LINE
  5
28A
102
{ACAD_REACTORS
330
33B
330
33C
102
}
330
71
100
AcDbEntity
  8
0
  6
Continuous
 62
     2
100
AcDbLine
 10
-240.7687268275729
 20
-250.4042312826706
 30
0.0
 11
-240.0099592397926
 21
-250.4042312826706
 31
0.0
  0
LINE
  5
28B
102
{ACAD_REACTORS
330
341
330
342
102
}
330
71
100
AcDbEntity
  8
0
  6
Continuous
 62
     2
100
AcDbLine
 10
-248.1057272711237
 20
-249.321772478638
 30
0.0
 11
-248.1057272711237
 21
-253.6782275213551
 31
0.0
  0
LINE
  5
28C
102
{ACAD_REACTORS
330
341
330
342
102
}
330
71
100
AcDbEntity
  8
0
  6
Continuous
 62
     2
100
AcDbLine
 10
-247.790010348048
 20
-249.0060555555618
 30
0.0
 11
-246.3141770870384
 21
-249.0060555555618
 31
0.0
  0
LINE
  5
28D
102
{ACAD_REACTORS
330
341
330
342
102
}
330
71
100
AcDbEntity
  8
0
  6
Continuous
 62
     2
100
AcDbLine
 10
-245.9984601639618
 20
-249.9257970976985
 30
0.0
 11
-245.9984601639618
 21
-249.321772478638
 31
0.0
  0
LINE
  5
28E
102
{ACAD_REACTORS
330
341
330
342
102
}
330
71
100
AcDbEntity
  8
0
  6
Continuous
 62
     2
100
AcDbLine
 10
-245.9984601639618
 20
-253.6782275213551
 30
0.0
 11
-245.9984601639618
 21
-252.1474565898235
 31
0.0
  0
LINE
  5
28F
102
{ACAD_REACTORS
330
341
330
342
102
}
330
71
100
AcDbEntity
  8
0
  6
Continuous
 62
     2
100
AcDbLine
 10
-242.9105929340777
 20
-254.7064999999887
 30
0.0
 11
-248.3839050247945
 21
-254.7064999999887
 31
0.0
  0
LINE
  5
290
102
{ACAD_REACTORS
330
341
330
342
102
}
330
71
100
AcDbEntity
  8
0
  6
Continuous
 62
     2
100
AcDbLine
 10
-242.4863483186938
 20
-248.7177446154052
 30
0.0
 11
-242.4863483186938
 21
-254.2822553846054
 31
0.0
  0
LINE
  5
291
102
{ACAD_REACTORS
330
341
330
342
102
}
330
71
100
AcDbEntity
  8
0
  6
Continuous
 62
     2
100
AcDbLine
 10
-248.3839050247945
 20
-248.2935000000214
 30
0.0
 11
-242.9105929340777
 21
-248.2935000000214
 31
0.0
  0
LINE
  5
292
102
{ACAD_REACTORS
330
341
330
342
102
}
330
71
100
AcDbEntity
  8
0
  6
Continuous
 62
     2
100
AcDbLine
 10
-248.8081496401773
 20
-248.7177446154052
 30
0.0
 11
-248.8081496401773
 21
-254.2822553846054
 31
0.0
  0
LINE
  5
293
102
{ACAD_REACTORS
330
341
330
342
102
}
330
71
100
AcDbEntity
  8
0
  6
Continuous
 62
     2
100
AcDbLine
 10
-246.3141770870384
 20
-253.9939444444318
 30
0.0
 11
-247.790010348048
 21
-253.9939444444318
 31
0.0
  0
LINE
  5
294
102
{ACAD_REACTORS
330
33B
330
33C
102
}
330
71
100
AcDbEntity
  8
0
  6
Continuous
 62
     2
100
AcDbLine
 10
-240.7687268275729
 20
-251.3473095238144
 30
0.0
 11
-240.7687268275729
 21
-250.4042312826706
 31
0.0
  0
LINE
  5
295
102
{ACAD_REACTORS
330
33B
330
33C
102
}
330
71
100
AcDbEntity
  8
0
  6
Continuous
 62
     2
100
AcDbLine
 10
-242.009231237827
 20
-251.3473095238144
 30
0.0
 11
-240.7687268275729
 21
-251.3473095238144
 31
0.0
  0
LINE
  5
296
102
{ACAD_REACTORS
330
33B
330
33C
102
}
330
71
100
AcDbEntity
  8
0
  6
Continuous
 62
     2
100
AcDbLine
 10
-240.7687268275729
 20
-249.6623334947855
 30
0.0
 11
-240.7687268275729
 21
-248.9566058454433
 31
0.0
  0
LINE
  5
297
102
{ACAD_REACTORS
330
32D
330
32E
102
}
330
71
100
AcDbEntity
  8
0
  6
Continuous
 62
     2
100
AcDbLine
 10
-238.8125467960193
 20
-248.2935000000032
 30
0.0
 11
-238.8125467960193
 21
-251.3473095238144
 31
0.0
  0
LINE
  5
298
102
{ACAD_REACTORS
330
32D
330
32E
102
}
330
71
100
AcDbEntity
  8
0
  6
Continuous
 62
     2
100
AcDbLine
 10
-237.6197540938527
 20
-250.2130374149706
 30
0.0
 11
-237.6197540938527
 21
-251.3473095238144
 31
0.0
  0
LINE
  5
299
102
{ACAD_REACTORS
330
32D
330
32E
102
}
330
71
100
AcDbEntity
  8
0
  6
Continuous
 62
     2
100
AcDbLine
 10
-236.5700965159452
 20
-250.2130374149706
 30
0.0
 11
-237.6197540938527
 21
-250.2130374149706
 31
0.0
  0
LINE
  5
29A
102
{ACAD_REACTORS
330
32D
330
32E
102
}
330
71
100
AcDbEntity
  8
0
  6
Continuous
 62
     2
100
AcDbLine
 10
-236.5700965159452
 20
-248.2935000000032
 30
0.0
 11
-235.3773038137788
 21
-248.2935000000032
 31
0.0
  0
LINE
  5
29B
102
{ACAD_REACTORS
330
32D
330
32E
102
}
330
71
100
AcDbEntity
  8
0
  6
Continuous
 62
     2
100
AcDbLine
 10
-236.5700965159452
 20
-249.3623333333378
 30
0.0
 11
-236.5700965159452
 21
-248.2935000000032
 31
0.0
  0
LINE
  5
29C
102
{ACAD_REACTORS
330
33F
330
340
102
}
330
71
100
AcDbEntity
  8
0
  6
Continuous
 62
     2
100
AcDbLine
 10
-230.5584212970242
 20
-248.9915136054462
 30
0.0
 11
-230.5584212970242
 21
-248.2935000000032
 31
0.0
  0
LINE
  5
29D
102
{ACAD_REACTORS
330
33F
330
340
102
}
330
71
100
AcDbEntity
  8
0
  6
Continuous
 62
     2
100
AcDbLine
 10
-233.7087410208052
 20
-248.2935000000032
 30
0.0
 11
-230.5584212970242
 21
-248.2935000000032
 31
0.0
  0
LINE
  5
29E
102
{ACAD_REACTORS
330
33F
330
340
102
}
330
71
100
AcDbEntity
  8
0
  6
Continuous
 62
     2
100
AcDbLine
 10
-233.7087410208052
 20
-251.3473095238144
 30
0.0
 11
-230.5584212970242
 21
-251.3473095238144
 31
0.0
  0
LINE
  5
29F
102
{ACAD_REACTORS
330
33F
330
340
102
}
330
71
100
AcDbEntity
  8
0
  6
Continuous
 62
     2
100
AcDbLine
 10
-230.5584212970242
 20
-251.3473095238144
 30
0.0
 11
-230.5584212970242
 21
-250.6492959183719
 31
0.0
  0
LINE
  5
2A0
102
{ACAD_REACTORS
330
33F
330
340
102
}
330
71
100
AcDbEntity
  8
0
  6
Continuous
 62
     2
100
AcDbLine
 10
-230.5584212970242
 20
-250.6492959183719
 30
0.0
 11
-231.8943491234519
 21
-250.6492959183719
 31
0.0
  0
LINE
  5
2A1
102
{ACAD_REACTORS
330
33F
330
340
102
}
330
71
100
AcDbEntity
  8
0
  6
Continuous
 62
     2
100
AcDbLine
 10
-231.8943491234519
 20
-250.6492959183719
 30
0.0
 11
-231.8943491234519
 21
-250.1694115646302
 31
0.0
  0
LINE
  5
2A2
102
{ACAD_REACTORS
330
33F
330
340
102
}
330
71
100
AcDbEntity
  8
0
  6
Continuous
 62
     2
100
AcDbLine
 10
-231.8943491234519
 20
-248.9915136054462
 30
0.0
 11
-230.5584212970242
 21
-248.9915136054462
 31
0.0
  0
LINE
  5
2A3
102
{ACAD_REACTORS
330
32F
330
330
102
}
330
71
100
AcDbEntity
  8
0
  6
Continuous
 62
     2
100
AcDbLine
 10
-234.3755088748434
 20
-254.7064999999887
 30
0.0
 11
-234.3755088748434
 21
-253.3977244897841
 31
0.0
  0
LINE
  5
2A4
102
{ACAD_REACTORS
330
32F
330
330
102
}
330
71
100
AcDbEntity
  8
0
  6
Continuous
 62
     2
100
AcDbLine
 10
-234.3755088748434
 20
-253.3977244897841
 30
0.0
 11
-233.1350044645905
 21
-254.7064999999887
 31
0.0
  0
LINE
  5
2A5
102
{ACAD_REACTORS
330
32F
330
330
102
}
330
71
100
AcDbEntity
  8
0
  6
Continuous
 62
     2
100
AcDbLine
 10
-231.9422117624241
 20
-254.7064999999887
 30
0.0
 11
-231.9422117624241
 21
-251.6526904761776
 31
0.0
  0
LINE
  5
2A6
102
{ACAD_REACTORS
330
32F
330
330
102
}
330
71
100
AcDbEntity
  8
0
  6
Continuous
 62
     2
100
AcDbLine
 10
-231.9422117624241
 20
-251.6526904761776
 30
0.0
 11
-233.1350044645905
 21
-251.6526904761776
 31
0.0
  0
LINE
  5
2A7
102
{ACAD_REACTORS
330
32F
330
330
102
}
330
71
100
AcDbEntity
  8
0
  6
Continuous
 62
     2
100
AcDbLine
 10
-233.1350044645905
 20
-251.6526904761776
 30
0.0
 11
-233.1350044645905
 21
-252.9614659863827
 31
0.0
  0
LINE
  5
2A8
102
{ACAD_REACTORS
330
32F
330
330
102
}
330
71
100
AcDbEntity
  8
0
  6
Continuous
 62
     2
100
AcDbLine
 10
-233.1350044645905
 20
-252.9614659863827
 30
0.0
 11
-234.3755088748434
 21
-251.6526904761776
 31
0.0
  0
LINE
  5
2A9
102
{ACAD_REACTORS
330
331
330
332
102
}
330
71
100
AcDbEntity
  8
0
  6
Continuous
 62
     2
100
AcDbLine
 10
-229.1270700544248
 20
-250.0385340136097
 30
0.0
 11
-227.8865656441708
 21
-251.3473095238144
 31
0.0
  0
LINE
  5
2AA
102
{ACAD_REACTORS
330
331
330
332
102
}
330
71
100
AcDbEntity
  8
0
  6
Continuous
 62
     2
100
AcDbLine
 10
-227.8865656441708
 20
-251.3473095238144
 30
0.0
 11
-226.6937729420042
 21
-251.3473095238144
 31
0.0
  0
LINE
  5
2AB
102
{ACAD_REACTORS
330
331
330
332
102
}
330
71
100
AcDbEntity
  8
0
  6
Continuous
 62
     2
100
AcDbLine
 10
-226.6937729420042
 20
-251.3473095238144
 30
0.0
 11
-226.6937729420042
 21
-248.2935000000032
 31
0.0
  0
LINE
  5
2AC
102
{ACAD_REACTORS
330
331
330
332
102
}
330
71
100
AcDbEntity
  8
0
  6
Continuous
 62
     2
100
AcDbLine
 10
-226.6937729420042
 20
-248.2935000000032
 30
0.0
 11
-227.8865656441708
 21
-248.2935000000032
 31
0.0
  0
LINE
  5
2AD
102
{ACAD_REACTORS
330
331
330
332
102
}
330
71
100
AcDbEntity
  8
0
  6
Continuous
 62
     2
100
AcDbLine
 10
-227.8865656441708
 20
-249.6022755102084
 30
0.0
 11
-229.1270700544248
 21
-248.2935000000032
 31
0.0
  0
LINE
  5
2AE
102
{ACAD_REACTORS
330
331
330
332
102
}
330
71
100
AcDbEntity
  8
0
  6
Continuous
 62
     2
100
AcDbLine
 10
-230.3198627565913
 20
-251.3473095238144
 30
0.0
 11
-229.1270700544248
 21
-251.3473095238144
 31
0.0
  0
LINE
  5
2AF
102
{ACAD_REACTORS
330
333
330
334
102
}
330
71
100
AcDbEntity
  8
0
  6
Continuous
 62
     2
100
AcDbLine
 10
-231.7990766381639
 20
-251.6526904761776
 30
0.0
 11
-231.7990766381639
 21
-252.4379557823012
 31
0.0
  0
LINE
  5
2B0
102
{ACAD_REACTORS
330
333
330
334
102
}
330
71
100
AcDbEntity
  8
0
  6
Continuous
 62
     2
100
AcDbLine
 10
-230.9879776006893
 20
-252.4379557823012
 30
0.0
 11
-230.9879776006893
 21
-254.7064999999887
 31
0.0
  0
LINE
  5
2B1
102
{ACAD_REACTORS
330
333
330
334
102
}
330
71
100
AcDbEntity
  8
0
  6
Continuous
 62
     2
100
AcDbLine
 10
-230.9879776006893
 20
-254.7064999999887
 30
0.0
 11
-229.7951848985228
 21
-254.7064999999887
 31
0.0
  0
LINE
  5
2B2
102
{ACAD_REACTORS
330
335
330
336
102
}
330
71
100
AcDbEntity
  8
0
  6
Continuous
 62
     2
100
AcDbLine
 10
-226.8456584051033
 20
-254.7064999999887
 30
0.0
 11
-227.0571384585791
 21
-254.1655394557708
 31
0.0
  0
LINE
  5
2B3
102
{ACAD_REACTORS
330
335
330
336
102
}
330
71
100
AcDbEntity
  8
0
  6
Continuous
 62
     2
100
AcDbLine
 10
-227.0031070417897
 20
-251.6526904761776
 30
0.0
 11
-225.6051539948494
 21
-254.7064999999887
 31
0.0
  0
LINE
  5
2B4
102
{ACAD_REACTORS
330
335
330
336
102
}
330
71
100
AcDbEntity
  8
0
  6
Continuous
 62
     2
100
AcDbLine
 10
-228.2436114520424
 20
-251.6526904761776
 30
0.0
 11
-227.0031070417897
 21
-251.6526904761776
 31
0.0
  0
LINE
  5
2B5
102
{ACAD_REACTORS
330
335
330
336
102
}
330
71
100
AcDbEntity
  8
0
  6
Continuous
 62
     2
100
AcDbLine
 10
-229.6415644989817
 20
-254.7064999999887
 30
0.0
 11
-228.4010600887287
 21
-254.7064999999887
 31
0.0
  0
LINE
  5
2B6
102
{ACAD_REACTORS
330
335
330
336
102
}
330
71
100
AcDbEntity
  8
0
  6
Continuous
 62
     2
100
AcDbLine
 10
-227.9235244841079
 20
-253.4849761904642
 30
0.0
 11
-227.3231940097254
 21
-253.4849761904642
 31
0.0
  0
LINE
  5
2B7
102
{ACAD_REACTORS
330
335
330
336
102
}
330
71
100
AcDbEntity
  8
0
  6
Continuous
 62
     2
100
AcDbLine
 10
-227.3231940097254
 20
-253.4849761904642
 30
0.0
 11
-227.6233592469155
 21
-252.7171612244775
 31
0.0
  0
LINE
  5
2B8
102
{ACAD_REACTORS
330
337
330
338
102
}
330
71
100
AcDbEntity
  8
0
  6
Continuous
 62
     2
100
AcDbLine
 10
-225.2147099913174
 20
-251.3473095238144
 30
0.0
 11
-226.4552144015703
 21
-251.3473095238144
 31
0.0
  0
LINE
  5
2B9
102
{ACAD_REACTORS
330
339
330
33A
102
}
330
71
100
AcDbEntity
  8
0
  6
Continuous
 62
     2
100
AcDbLine
 10
-223.6927065033523
 20
-251.3473095238144
 30
0.0
 11
-225.0954307211005
 21
-251.3473095238144
 31
0.0
  0
LINE
  5
2BA
102
{ACAD_REACTORS
330
339
330
33A
102
}
330
71
100
AcDbEntity
  8
0
  6
Continuous
 62
     2
100
AcDbLine
 10
-223.6927065033523
 20
-251.3473095238144
 30
0.0
 11
-222.9961155652866
 21
-250.5595777385207
 31
0.0
  0
LINE
  5
2BB
102
{ACAD_REACTORS
330
339
330
33A
102
}
330
71
100
AcDbEntity
  8
0
  6
Continuous
 62
     2
100
AcDbLine
 10
-222.3949480433938
 20
-248.2935000000032
 30
0.0
 11
-220.9922238256466
 21
-248.2935000000032
 31
0.0
  0
LINE
  5
2BC
102
{ACAD_REACTORS
330
339
330
33A
102
}
330
71
100
AcDbEntity
  8
0
  6
Continuous
 62
     2
100
AcDbLine
 10
-225.0000073049277
 20
-248.2935000000032
 30
0.0
 11
-223.6974776741602
 21
-249.7664505300394
 31
0.0
  0
LINE
  5
2BD
102
{ACAD_REACTORS
330
339
330
33A
102
}
330
71
100
AcDbEntity
  8
0
  6
Continuous
 62
     2
100
AcDbLine
 10
-225.0954307211005
 20
-251.3473095238144
 30
0.0
 11
-223.6974776741602
 21
-249.7664505300394
 31
0.0
  0
LINE
  5
2BE
102
{ACAD_REACTORS
330
343
330
344
102
}
330
71
100
AcDbEntity
  8
0
  6
Continuous
 62
     2
100
AcDbLine
 10
-223.2346741057206
 20
-253.6594795918251
 30
0.0
 11
-223.2346741057206
 21
-254.5319965986284
 31
0.0
  0
LINE
  5
2BF
102
{ACAD_REACTORS
330
343
330
344
102
}
330
71
100
AcDbEntity
  8
0
  6
Continuous
 62
     2
100
AcDbLine
 10
-224.004331448682
 20
-252.4379557823012
 30
0.0
 11
-222.9006921491139
 21
-252.4379557823012
 31
0.0
  0
LINE
  5
2C0
102
{ACAD_REACTORS
330
345
330
346
102
}
330
71
100
AcDbEntity
  8
0
  6
Continuous
 62
     2
100
AcDbLine
 10
-239.3373755849725
 20
-253.6594795918246
 30
0.0
 11
-239.3373755849725
 21
-254.5319965986278
 31
0.0
  0
LINE
  5
2C1
102
{ACAD_REACTORS
330
345
330
346
102
}
330
71
100
AcDbEntity
  8
0
  6
Continuous
 62
     2
100
AcDbLine
 10
-239.3373755849725
 20
-252.6997108843417
 30
0.0
 11
-239.3373755849725
 21
-251.8271938775384
 31
0.0
  0
LINE
  5
2C2
330
71
100
AcDbEntity
  8
1
  6
Continuous
 62
     7
100
AcDbLine
 10
-123.4999999999886
 20
-253.500000000005
 30
0.0
 11
-216.64480452674
 21
-253.500000000005
 31
0.0
  0
LINE
  5
2C3
330
71
100
AcDbEntity
  8
1
  6
Continuous
 62
     6
100
AcDbLine
 10
-322.0448045267399
 20
-262.000000000005
 30
0.0
 11
-366.9999999999899
 21
-262.000000000005
 31
0.0
  0
LINE
  5
2C4
330
71
100
AcDbEntity
  8
1
  6
Continuous
 62
     7
100
AcDbLine
 10
-132.4184082816674
 20
-236.500000000005
 30
0.0
 11
-132.4184082816674
 21
-245.000000000005
 31
0.0
  0
LINE
  5
2C5
330
71
100
AcDbEntity
  8
1
  6
Continuous
 62
     7
100
AcDbLine
 10
-158.918408281667
 20
-236.500000000005
 30
0.0
 11
-158.918408281667
 21
-245.000000000005
 31
0.0
  0
LINE
  5
2C6
330
71
100
AcDbEntity
  8
1
  6
Continuous
 62
     7
100
AcDbLine
 10
-216.64480452674
 20
-245.000000000005
 30
0.0
 11
-216.64480452674
 21
-236.500000000005
 31
0.0
  0
LINE
  5
2C7
330
71
100
AcDbEntity
  8
1
  6
Continuous
 62
     7
100
AcDbLine
 10
-253.0448045267399
 20
-245.000000000005
 30
0.0
 11
-253.0448045267399
 21
-236.500000000005
 31
0.0
  0
LINE
  5
2C8
330
71
100
AcDbEntity
  8
1
  6
Continuous
 62
     6
100
AcDbLine
 10
-216.64480452674
 20
-245.000000000005
 30
0.0
 11
-123.4999999999882
 21
-245.000000000005
 31
0.0
  0
LINE
  5
2C9
330
71
100
AcDbEntity
  8
1
  6
Continuous
 62
     7
100
AcDbLine
 10
-188.7448045267399
 20
-253.5000000000051
 30
0.0
 11
-188.7448045267399
 21
-245.000000000005
 31
0.0
  0
LINE
  5
2CA
330
71
100
AcDbEntity
  8
1
  6
PHANTOM
 62
     2
100
AcDbLine
 10
-237.5581496401773
 20
-240.8750000000051
 30
0.0
 11
-243.0581496401773
 21
-240.8750000000051
 31
0.0
  0
LINE
  5
2CB
330
71
100
AcDbEntity
  8
1
  6
PHANTOM
 62
     2
100
AcDbLine
 10
-240.3081496401773
 20
-238.1250000000051
 30
0.0
 11
-240.3081496401773
 21
-243.6250000000051
 31
0.0
  0
LINE
  5
2CC
330
71
100
AcDbEntity
  8
1
  6
DOT_CENTER
 62
     2
100
AcDbLine
 10
-249.0581496401773
 20
-240.8750000000051
 30
0.0
 11
-243.5581496401773
 21
-240.8750000000051
 31
0.0
  0
ARC
  5
2CD
102
{ACAD_REACTORS
330
345
330
346
102
}
330
71
100
AcDbEntity
  8
0
  6
Continuous
 62
     2
100
AcDbCircle
 10
-240.6733035020903
 20
-256.4922761833393
 30
0.0
 40
4.852596863498068
100
AcDbArc
 50
74.02000874164739
 51
84.84185523037506
  0
ARC
  5
2CE
102
{ACAD_REACTORS
330
345
330
346
102
}
330
71
100
AcDbEntity
  8
0
  6
Continuous
 62
     2
100
AcDbCircle
 10
-240.0972628933366
 20
-253.336515827455
 30
0.0
 40
0.9059297849853228
100
AcDbArc
 50
71.55192388185348
 51
113.372277888129
  0
ARC
  5
2CF
102
{ACAD_REACTORS
330
345
330
346
102
}
330
71
100
AcDbEntity
  8
0
  6
Continuous
 62
     2
100
AcDbCircle
 10
-240.2537029260386
 20
-253.3846666674219
 30
0.0
 40
0.5115800601948034
100
AcDbArc
 50
208.5214732576956
 51
246.6277221118274
  0
ARC
  5
2D0
102
{ACAD_REACTORS
330
345
330
346
102
}
330
71
100
AcDbEntity
  8
0
  6
Continuous
 62
     2
100
AcDbCircle
 10
-240.0972628933366
 20
-253.0226746487119
 30
0.0
 40
0.9059297849849192
100
AcDbArc
 50
246.627722111871
 51
288.4480761181584
  0
ARC
  5
2D1
102
{ACAD_REACTORS
330
345
330
346
102
}
330
71
100
AcDbEntity
  8
0
  6
Continuous
 62
     2
100
AcDbCircle
 10
-240.5154306269974
 20
-251.7691288726747
 30
0.0
 40
2.227384008972737
100
AcDbArc
 50
288.4480761181328
 51
301.9309089499593
  0
ARC
  5
2D2
102
{ACAD_REACTORS
330
341
330
342
102
}
330
71
100
AcDbEntity
  8
0
  6
Continuous
 62
     2
100
AcDbCircle
 10
-245.7405043596042
 20
-251.0366268437607
 30
0.0
 40
0.911848150144459
100
AcDbArc
 50
295.3740086781764
 51
64.62599132180748
  0
ARC
  5
2D3
102
{ACAD_REACTORS
330
341
330
342
102
}
330
71
100
AcDbEntity
  8
0
  6
Continuous
 62
     2
100
AcDbCircle
 10
-245.2144616615163
 20
-249.3219499552861
 30
0.0
 40
0.3157169230760711
100
AcDbArc
 50
90.18896704254594
 51
180.0
  0
ARC
  5
2D4
102
{ACAD_REACTORS
330
343
330
344
102
}
330
71
100
AcDbEntity
  8
0
  6
Continuous
 62
     2
100
AcDbCircle
 10
-224.004331448682
 20
-253.3924787891273
 30
0.0
 40
0.9545230068260935
100
AcDbArc
 50
90.0
 51
109.337143219432
  0
ARC
  5
2D5
102
{ACAD_REACTORS
330
343
330
344
102
}
330
71
100
AcDbEntity
  8
0
  6
Continuous
 62
     2
100
AcDbCircle
 10
-223.7736441887043
 20
-253.1795952380834
 30
0.0
 40
0.9410597353348924
100
AcDbArc
 50
151.4785267423624
 51
208.5214732576695
  0
ARC
  5
2D6
102
{ACAD_REACTORS
330
343
330
344
102
}
330
71
100
AcDbEntity
  8
0
  6
Continuous
 62
     2
100
AcDbCircle
 10
-223.9945614140826
 20
-253.0226746487119
 30
0.0
 40
0.9059297849852801
100
AcDbArc
 50
246.6277221118183
 51
288.4480761180817
  0
ARC
  5
2D7
102
{ACAD_REACTORS
330
343
330
344
102
}
330
71
100
AcDbEntity
  8
0
  6
Continuous
 62
     2
100
AcDbCircle
 10
-224.4127291477445
 20
-251.7691288726753
 30
0.0
 40
2.227384008972746
100
AcDbArc
 50
288.4480761181335
 51
301.9309089499397
  0
ARC
  5
2D8
102
{ACAD_REACTORS
330
343
330
344
102
}
330
71
100
AcDbEntity
  8
0
  6
Continuous
 62
     2
100
AcDbCircle
 10
-224.5706020228373
 20
-249.866914292827
 30
0.0
 40
4.852596863498825
100
AcDbArc
 50
275.1581447696364
 51
285.9799912583387
  0
ARC
  5
2D9
102
{ACAD_REACTORS
330
343
330
344
102
}
330
71
100
AcDbEntity
  8
0
  6
Continuous
 62
     2
100
AcDbCircle
 10
-224.2817459281015
 20
-253.0668048760486
 30
0.0
 40
1.639695123940448
100
AcDbArc
 50
195.0618917771012
 51
275.1581447696762
  0
ARC
  5
2DA
102
{ACAD_REACTORS
330
33B
330
33C
102
}
330
71
100
AcDbEntity
  8
0
  6
Continuous
 62
     2
100
AcDbCircle
 10
-240.0099592397926
 20
-249.3488656413369
 30
0.0
 40
1.055365641333708
100
AcDbArc
 50
270.0
 51
90.0
  0
ARC
  5
2DB
102
{ACAD_REACTORS
330
341
330
342
102
}
330
71
100
AcDbEntity
  8
0
  6
Continuous
 62
     2
100
AcDbCircle
 10
-247.790010348048
 20
-253.6782275213551
 30
0.0
 40
0.3157169230756836
100
AcDbArc
 50
180.0
 51
270.0
  0
ARC
  5
2DC
102
{ACAD_REACTORS
330
341
330
342
102
}
330
71
100
AcDbEntity
  8
0
  6
Continuous
 62
     2
100
AcDbCircle
 10
-246.3141770870384
 20
-249.321772478638
 30
0.0
 40
0.315716923076593
100
AcDbArc
 50
0.0
 51
90.0
  0
ARC
  5
2DD
102
{ACAD_REACTORS
330
341
330
342
102
}
330
71
100
AcDbEntity
  8
0
  6
Continuous
 62
     2
100
AcDbCircle
 10
-246.3141770870384
 20
-249.9257970976985
 30
0.0
 40
0.3157169230761203
100
AcDbArc
 50
295.1944106485397
 51
0.0
  0
ARC
  5
2DE
102
{ACAD_REACTORS
330
341
330
342
102
}
330
71
100
AcDbEntity
  8
0
  6
Continuous
 62
     2
100
AcDbCircle
 10
-246.3141770870384
 20
-253.6782275213551
 30
0.0
 40
0.3157169230767067
100
AcDbArc
 50
270.0
 51
0.0
  0
ARC
  5
2DF
102
{ACAD_REACTORS
330
341
330
342
102
}
330
71
100
AcDbEntity
  8
0
  6
Continuous
 62
     2
100
AcDbCircle
 10
-248.3839050247945
 20
-248.7177446154052
 30
0.0
 40
0.4242446153837989
100
AcDbArc
 50
90.0
 51
180.0
  0
ARC
  5
2E0
102
{ACAD_REACTORS
330
341
330
342
102
}
330
71
100
AcDbEntity
  8
0
  6
Continuous
 62
     2
100
AcDbCircle
 10
-242.9105929340777
 20
-248.7177446154052
 30
0.0
 40
0.4242446153838841
100
AcDbArc
 50
0.0
 51
90.0
  0
ARC
  5
2E1
102
{ACAD_REACTORS
330
341
330
342
102
}
330
71
100
AcDbEntity
  8
0
  6
Continuous
 62
     2
100
AcDbCircle
 10
-242.9105929340777
 20
-254.2822553846054
 30
0.0
 40
0.4242446153832873
100
AcDbArc
 50
270.0
 51
0.0
  0
ARC
  5
2E2
102
{ACAD_REACTORS
330
33F
330
340
102
}
330
71
100
AcDbEntity
  8
0
  6
Continuous
 62
     2
100
AcDbCircle
 10
-233.6922090469862
 20
-249.8204047619091
 30
0.0
 40
0.7717997786796373
100
AcDbArc
 50
321.8795802028437
 51
38.12041979715956
  0
ARC
  5
2E3
102
{ACAD_REACTORS
330
33F
330
340
102
}
330
71
100
AcDbEntity
  8
0
  6
Continuous
 62
     2
100
AcDbCircle
 10
-233.49246901064
 20
-249.9771359400295
 30
0.0
 40
0.5179085730134372
100
AcDbArc
 50
218.1204197971511
 51
321.8795802028566
  0
ARC
  5
2E4
102
{ACAD_REACTORS
330
33D
330
33E
102
}
330
71
100
AcDbEntity
  8
0
  6
Continuous
 62
     2
100
AcDbCircle
 10
-237.1724765996002
 20
-253.1795952380834
 30
0.0
 40
1.458034083652003
100
AcDbArc
 50
297.548148175701
 51
62.45185182429896
  0
ARC
  5
2E5
102
{ACAD_REACTORS
330
33D
330
33E
102
}
330
71
100
AcDbEntity
  8
0
  6
Continuous
 62
     2
100
AcDbCircle
 10
-237.7343563832668
 20
-253.1795952380834
 30
0.0
 40
1.45803408365149
100
AcDbArc
 50
117.5481481756624
 51
242.4518518243375
  0
ARC
  5
2E6
102
{ACAD_REACTORS
330
33D
330
33E
102
}
330
71
100
AcDbEntity
  8
0
  6
Continuous
 62
     2
100
AcDbCircle
 10
-237.4534164914335
 20
-253.7181702483862
 30
0.0
 40
2.065479772208568
100
AcDbArc
 50
62.45185182430637
 51
117.5481481756664
  0
ARC
  5
2E7
102
{ACAD_REACTORS
330
33D
330
33E
102
}
330
71
100
AcDbEntity
  8
0
  6
Continuous
 62
     2
100
AcDbCircle
 10
-237.4534164914335
 20
-252.6410202277801
 30
0.0
 40
2.065479772208509
100
AcDbArc
 50
242.4518518243402
 51
297.5481481756871
  0
ARC
  5
2E8
102
{ACAD_REACTORS
330
33F
330
340
102
}
330
71
100
AcDbEntity
  8
0
  6
Continuous
 62
     2
100
AcDbCircle
 10
-233.2927289742937
 20
-249.8204047619091
 30
0.0
 40
0.7717997786796724
100
AcDbArc
 50
141.8795802028404
 51
218.1204197971562
  0
ARC
  5
2E9
102
{ACAD_REACTORS
330
33F
330
340
102
}
330
71
100
AcDbEntity
  8
0
  6
Continuous
 62
     2
100
AcDbCircle
 10
-233.49246901064
 20
-249.6636735837886
 30
0.0
 40
0.5179085730135266
100
AcDbArc
 50
38.12041979714334
 51
141.8795802028489
  0
ARC
  5
2EA
102
{ACAD_REACTORS
330
341
330
342
102
}
330
71
100
AcDbEntity
  8
0
  6
Continuous
 62
     2
100
AcDbCircle
 10
-248.3839050247945
 20
-254.2822553846054
 30
0.0
 40
0.4242446153828041
100
AcDbArc
 50
180.0
 51
270.0
  0
ARC
  5
2EB
102
{ACAD_REACTORS
330
341
330
342
102
}
330
71
100
AcDbEntity
  8
0
  6
Continuous
 62
     2
100
AcDbCircle
 10
-246.3141770870384
 20
-252.1474565898235
 30
0.0
 40
0.315716923076593
100
AcDbArc
 50
0.0
 51
64.80558935146027
  0
ARC
  5
2EC
102
{ACAD_REACTORS
330
341
330
342
102
}
330
71
100
AcDbEntity
  8
0
  6
Continuous
 62
     2
100
AcDbCircle
 10
-245.7915926394634
 20
-251.0366268437607
 30
0.0
 40
0.9118975235576147
100
AcDbArc
 50
115.1944106485282
 51
244.8055893514878
  0
ARC
  5
2ED
102
{ACAD_REACTORS
330
341
330
342
102
}
330
71
100
AcDbEntity
  8
0
  6
Continuous
 62
     2
100
AcDbCircle
 10
-247.790010348048
 20
-249.321772478638
 30
0.0
 40
0.3157169230761951
100
AcDbArc
 50
90.0
 51
180.0
  0
ARC
  5
2EE
102
{ACAD_REACTORS
330
33B
330
33C
102
}
330
71
100
AcDbEntity
  8
0
  6
Continuous
 62
     2
100
AcDbCircle
 10
-240.451431766031
 20
-249.3094696701144
 30
0.0
 40
0.3528638246711182
100
AcDbArc
 50
270.0
 51
90.0
  0
ARC
  5
2EF
102
{ACAD_REACTORS
330
33F
330
340
102
}
330
71
100
AcDbEntity
  8
0
  6
Continuous
 62
     2
100
AcDbCircle
 10
-233.7087410208052
 20
-249.8204047619091
 30
0.0
 40
1.526904761905882
100
AcDbArc
 50
90.0
 51
270.0
  0
ARC
  5
2F0
102
{ACAD_REACTORS
330
343
330
344
102
}
330
71
100
AcDbEntity
  8
0
  6
Continuous
 62
     2
100
AcDbCircle
 10
-224.2817459281015
 20
-253.2923856001183
 30
0.0
 40
1.639695123940214
100
AcDbArc
 50
90.0
 51
164.938108222895
  0
ARC
  5
2F1
102
{ACAD_REACTORS
330
343
330
344
102
}
330
71
100
AcDbEntity
  8
0
  6
Continuous
 62
     2
100
AcDbCircle
 10
-224.7008737715631
 20
-253.1795952380834
 30
0.0
 40
1.205656168393002
100
AcDbArc
 50
164.9381082229028
 51
195.0618917770959
  0
ARC
  5
2F2
102
{ACAD_REACTORS
330
343
330
344
102
}
330
71
100
AcDbEntity
  8
0
  6
Continuous
 62
     2
100
AcDbCircle
 10
-224.1510014467857
 20
-253.3846666674219
 30
0.0
 40
0.5115800601960215
100
AcDbArc
 50
208.5214732576866
 51
246.6277221118449
  0
ARC
  5
2F3
102
{ACAD_REACTORS
330
343
330
344
102
}
330
71
100
AcDbEntity
  8
0
  6
Continuous
 62
     2
100
AcDbCircle
 10
-224.1510014467857
 20
-252.9745238087444
 30
0.0
 40
0.5115800601944143
100
AcDbArc
 50
109.3371432194853
 51
151.4785267424225
  0
ARC
  5
2F4
102
{ACAD_REACTORS
330
341
330
342
102
}
330
71
100
AcDbEntity
  8
0
  6
Continuous
 62
     2
100
AcDbCircle
 10
-245.2144616615163
 20
-252.7276198504242
 30
0.0
 40
0.315716923076792
100
AcDbArc
 50
180.0
 51
269.8110329574542
  0
ARC
  5
2F5
102
{ACAD_REACTORS
330
341
330
342
102
}
330
71
100
AcDbEntity
  8
0
  6
Continuous
 62
     2
100
AcDbCircle
 10
-245.2088455262063
 20
-251.0247849028552
 30
0.0
 40
2.018561131933266
100
AcDbArc
 50
269.8110329575858
 51
90.18896704241416
  0
ARC
  5
2F6
102
{ACAD_REACTORS
330
341
330
342
102
}
330
71
100
AcDbEntity
  8
0
  6
Continuous
 62
     2
100
AcDbCircle
 10
-245.2144616615163
 20
-249.9274852437929
 30
0.0
 40
0.315716923076792
100
AcDbArc
 50
180.0
 51
244.6259913216482
  0
ARC
  5
2F7
102
{ACAD_REACTORS
330
341
330
342
102
}
330
71
100
AcDbEntity
  8
0
  6
Continuous
 62
     2
100
AcDbCircle
 10
-245.2144616615163
 20
-252.1457684437291
 30
0.0
 40
0.3157169230765328
100
AcDbArc
 50
115.3740086783519
 51
180.0
  0
ARC
  5
2F8
102
{ACAD_REACTORS
330
345
330
346
102
}
330
71
100
AcDbEntity
  8
0
  6
Continuous
 62
     2
100
AcDbCircle
 10
-240.3844474073544
 20
-253.2923856001183
 30
0.0
 40
1.639695123940507
100
AcDbArc
 50
84.84185523036236
 51
164.9381082228864
  0
ARC
  5
2F9
102
{ACAD_REACTORS
330
345
330
346
102
}
330
71
100
AcDbEntity
  8
0
  6
Continuous
 62
     2
100
AcDbCircle
 10
-240.8035752508172
 20
-253.1795952380834
 30
0.0
 40
1.205656168390944
100
AcDbArc
 50
164.9381082228765
 51
195.0618917770948
  0
ARC
  5
2FA
102
{ACAD_REACTORS
330
345
330
346
102
}
330
71
100
AcDbEntity
  8
0
  6
Continuous
 62
     2
100
AcDbCircle
 10
-240.3844474073544
 20
-253.0668048760486
 30
0.0
 40
1.639695123939387
100
AcDbArc
 50
195.0618917770896
 51
275.1581447696395
  0
ARC
  5
2FB
102
{ACAD_REACTORS
330
345
330
346
102
}
330
71
100
AcDbEntity
  8
0
  6
Continuous
 62
     2
100
AcDbCircle
 10
-240.6733035020903
 20
-249.866914292827
 30
0.0
 40
4.852596863498138
100
AcDbArc
 50
275.1581447696249
 51
285.9799912583529
  0
ARC
  5
2FC
102
{ACAD_REACTORS
330
345
330
346
102
}
330
71
100
AcDbEntity
  8
0
  6
Continuous
 62
     2
100
AcDbCircle
 10
-239.8763456679583
 20
-253.1795952380834
 30
0.0
 40
0.9410597353332545
100
AcDbArc
 50
151.4785267422669
 51
208.5214732577057
  0
ARC
  5
2FD
102
{ACAD_REACTORS
330
345
330
346
102
}
330
71
100
AcDbEntity
  8
0
  6
Continuous
 62
     2
100
AcDbCircle
 10
-240.2537029260386
 20
-252.9745238087444
 30
0.0
 40
0.5115800601948779
100
AcDbArc
 50
113.3722778881992
 51
151.4785267423044
  0
ARC
  5
2FE
102
{ACAD_REACTORS
330
345
330
346
102
}
330
71
100
AcDbEntity
  8
0
  6
Continuous
 62
     2
100
AcDbCircle
 10
-240.5154306269974
 20
-254.5900616034916
 30
0.0
 40
2.227384008973478
100
AcDbArc
 50
58.06909105004071
 51
71.55192388186722
  0
ARC
  5
2FF
102
{ACAD_REACTORS
330
33D
330
33E
102
}
330
71
100
AcDbEntity
  8
0
  6
Continuous
 62
     2
100
AcDbCircle
 10
-237.4534164914335
 20
-253.0228640599629
 30
0.0
 40
0.5179085730132998
100
AcDbArc
 50
38.12041979714704
 51
141.8795802028588
  0
ARC
  5
300
102
{ACAD_REACTORS
330
33D
330
33E
102
}
330
71
100
AcDbEntity
  8
0
  6
Continuous
 62
     2
100
AcDbCircle
 10
-237.2536764550874
 20
-253.1795952380834
 30
0.0
 40
0.7717997786794633
100
AcDbArc
 50
141.8795802028363
 51
218.1204197971687
  0
ARC
  5
301
102
{ACAD_REACTORS
330
33D
330
33E
102
}
330
71
100
AcDbEntity
  8
0
  6
Continuous
 62
     2
100
AcDbCircle
 10
-237.4534164914335
 20
-253.3363264162034
 30
0.0
 40
0.5179085730137354
100
AcDbArc
 50
218.1204197971931
 51
321.879580202801
  0
ARC
  5
302
102
{ACAD_REACTORS
330
33D
330
33E
102
}
330
71
100
AcDbEntity
  8
0
  6
Continuous
 62
     2
100
AcDbCircle
 10
-237.6531565277799
 20
-253.1795952380834
 30
0.0
 40
0.7717997786796947
100
AcDbArc
 50
321.8795802028417
 51
38.12041979715329
  0
CIRCLE
  5
303
330
71
100
AcDbEntity
  8
1
  6
Continuous
 62
     2
100
AcDbCircle
 10
-240.3081496401773
 20
-240.8750000000051
 30
0.0
 40
2.5
  0
CIRCLE
  5
304
330
71
100
AcDbEntity
  8
1
  6
Continuous
 62
     2
100
AcDbCircle
 10
-240.3081496401773
 20
-240.8750000000051
 30
0.0
 40
1.249999999999915
  0
CIRCLE
  5
305
102
{ACAD_REACTORS
330
341
330
342
102
}
330
71
100
AcDbEntity
  8
0
  6
Continuous
 62
     2
100
AcDbCircle
 10
-245.764319374277
 20
-251.0366268437607
 30
0.0
 40
0.4709789327785074
  0
MTEXT
  5
306
330
71
100
AcDbEntity
  8
1
 62
     3
100
AcDbMText
 10
-410.4949322139181
 20
-75.20869184470621
 30
0.0
 40
1.8
 41
0.0
 71
     7
 72
     1
  3
Weitergabe sowie Vervielf\U+00e4ltigung dieses Dokuments, Verwertung und \PMitteilung seines Inhalts sind verboten, soweit nicht ausdr\U+00fccklich gestattet. \PZuwiderhandlungen verpflichten zu Schadenersatz. Alle Rechte f\U+00fcr den Fall\Pder Pat
  1
ent-, Gebrauchsmuster- oder Designeintragung vorbehalten.
  7
CONVERTER_11
 73
     1
 44
0.99639855942377
  0
MTEXT
  5
307
330
71
100
AcDbEntity
  8
1
 62
     3
100
AcDbMText
 10
-227.64182237513
 20
-75.20869184470621
 30
0.0
 40
1.8
 41
0.0
 71
     7
 72
     1
  3
Transfer or duplication of this document as well as the utilisation or\Pcommunication of its content are not permitted unless express consent\Pis granted. Violations give rise to claims for damages. All rights reserved\Pin case of patent, utility mo
  1
del or design patent registrations.
  7
CONVERTER_11
 73
     1
 44
0.99639855942377
  0
TEXT
  5
308
330
71
100
AcDbEntity
  8
1
 62
     2
100
AcDbText
 10
-233.8448045267401
 20
-260.7590172149966
 30
0.0
 40
1.8
  1
of
 41
0.9
  7
CONVERTER_11
100
AcDbText
  0
TEXT
  5
309
330
71
100
AcDbEntity
  8
1
 62
     2
100
AcDbText
 10
-252.0448045267399
 20
-260.7590172149967
 30
0.0
 40
1.8
  1
page
 41
0.9
  7
CONVERTER_11
100
AcDbText
  0
TEXT
  5
30A
330
71
100
AcDbEntity
  8
1
 62
     2
100
AcDbText
 10
-243.3985395563979
 20
-260.799248653807
 30
0.0
 40
1.8
  1
1
 41
0.9
  7
CONVERTER_11
100
AcDbText
  0
TEXT
  5
30B
330
71
100
AcDbEntity
  8
1
 62
     2
100
AcDbText
 10
-228.6094957169264
 20
-260.7500000000051
 30
0.0
 40
1.8
  1
1
 41
0.9
  7
CONVERTER_11
100
AcDbText
  0
MTEXT
  5
30D
330
71
100
AcDbEntity
  8
1
 62
     7
100
AcDbMText
 10
-170.0724022633644
 20
-258.7500000000048
 30
0.0
 40
3.0
 41
0.0
 71
     5
 72
     1
  1
HC-B-AF
  7
CONVERTER_12
 73
     1
 44
1.20048019207683
  0
MTEXT
  5
30E
330
71
100
AcDbEntity
  8
1
 62
     2
100
AcDbMText
 10
-215.64480452674
 20
-254.500000000005
 30
0.0
 40
1.8
 41
0.0
 71
     1
 72
     1
  1
description
  7
CONVERTER_11
 73
     1
 44
1.20048019207683
  0
MTEXT
  5
30F
330
71
100
AcDbEntity
  8
1
 62
     3
100
AcDbMText
 10
-226.84480452674
 20
-240.875000000005
 30
0.0
 40
2.5
 41
0.0
 71
     5
 72
     1
  1
DIN A4
  7
CONVERTER_11
 73
     1
 44
1.20048019207683
  0
MTEXT
  5
310
330
71
100
AcDbEntity
  8
1
 62
     7
100
AcDbMText
 10
-412.999999999989
 20
-239.500000000005
 30
0.0
 40
3.5
 41
0.0
 71
     5
 72
     1
  1
D
  7
CONVERTER_11
 73
     1
 44
1.20048019207683
  0
MTEXT
  5
311
330
71
100
AcDbEntity
  8
1
 62
     7
100
AcDbMText
 10
-412.999999999989
 20
-187.000000000005
 30
0.0
 40
3.5
 41
0.0
 71
     5
 72
     1
  1
C
  7
CONVERTER_11
 73
     1
 44
1.20048019207683
  0
MTEXT
  5
312
330
71
100
AcDbEntity
  8
1
 62
     7
100
AcDbMText
 10
-412.999999999989
 20
-137.000000000005
 30
0.0
 40
3.5
 41
0.0
 71
     5
 72
     1
  1
B
  7
CONVERTER_11
 73
     1
 44
1.20048019207683
  0
MTEXT
  5
313
330
71
100
AcDbEntity
  8
1
 62
     7
100
AcDbMText
 10
-412.999999999989
 20
-84.500000000005
 30
0.0
 40
3.5
 41
0.0
 71
     5
 72
     1
  1
A
  7
CONVERTER_11
 73
     1
 44
1.20048019207683
  0
MTEXT
  5
314
330
71
100
AcDbEntity
  8
1
 62
     7
100
AcDbMText
 10
-142.7499999999907
 20
-264.5000000000051
 30
0.0
 40
3.5
 41
0.0
 71
     5
 72
     1
  1
6
  7
CONVERTER_11
 73
     1
 44
1.20048019207683
  0
MTEXT
  5
315
330
71
100
AcDbEntity
  8
1
 62
     7
100
AcDbMText
 10
-191.9999999999899
 20
-264.5000000000051
 30
0.0
 40
3.5
 41
0.0
 71
     5
 72
     1
  1
5
  7
CONVERTER_11
 73
     1
 44
1.20048019207683
  0
MTEXT
  5
316
330
71
100
AcDbEntity
  8
1
 62
     7
100
AcDbMText
 10
-241.99999999999
 20
-264.5000000000051
 30
0.0
 40
3.5
 41
0.0
 71
     5
 72
     1
  1
4
  7
CONVERTER_11
 73
     1
 44
1.20048019207683
  0
MTEXT
  5
317
330
71
100
AcDbEntity
  8
1
 62
     7
100
AcDbMText
 10
-291.9999999999899
 20
-264.5000000000051
 30
0.0
 40
3.5
 41
0.0
 71
     5
 72
     1
  1
3
  7
CONVERTER_11
 73
     1
 44
1.20048019207683
  0
MTEXT
  5
318
330
71
100
AcDbEntity
  8
1
 62
     7
100
AcDbMText
 10
-341.9999999999899
 20
-264.5000000000051
 30
0.0
 40
3.5
 41
0.0
 71
     5
 72
     1
  1
2
  7
CONVERTER_11
 73
     1
 44
1.20048019207683
  0
MTEXT
  5
319
330
71
100
AcDbEntity
  8
1
 62
     7
100
AcDbMText
 10
-391.2499999999895
 20
-264.5000000000051
 30
0.0
 40
3.5
 41
0.0
 71
     5
 72
     1
  1
1
  7
CONVERTER_11
 73
     1
 44
1.20048019207683
  0
MTEXT
  5
31A
330
71
100
AcDbEntity
  8
1
 62
     7
100
AcDbMText
 10
-120.9999999999909
 20
-239.500000000005
 30
0.0
 40
3.5
 41
0.0
 71
     5
 72
     1
  1
D
  7
CONVERTER_11
 73
     1
 44
1.20048019207683
  0
MTEXT
  5
31B
330
71
100
AcDbEntity
  8
1
 62
     7
100
AcDbMText
 10
-120.9999999999909
 20
-137.0000000000031
 30
0.0
 40
3.5
 41
0.0
 71
     5
 72
     1
  1
B
  7
CONVERTER_11
 73
     1
 44
1.20048019207683
  0
MTEXT
  5
31C
330
71
100
AcDbEntity
  8
1
 62
     7
100
AcDbMText
 10
-120.9999999999909
 20
-84.500000000005
 30
0.0
 40
3.5
 41
0.0
 71
     5
 72
     1
  1
A
  7
CONVERTER_11
 73
     1
 44
1.20048019207683
  0
MTEXT
  5
31D
330
71
100
AcDbEntity
  8
1
 62
     7
100
AcDbMText
 10
-120.9999999999909
 20
-187.0000000000031
 30
0.0
 40
3.5
 41
0.0
 71
     5
 72
     1
  1
C
  7
CONVERTER_11
 73
     1
 44
1.20048019207683
  0
MTEXT
  5
31E
330
71
100
AcDbEntity
  8
1
 62
     2
100
AcDbMText
 10
-287.4828192517874
 20
-249.2500000000051
 30
0.0
 40
2.0
 41
0.0
 71
     5
 72
     1
  1
General Information\P- Simplified representation\P- Document excluded from change process\P- Linear dimensions [mm]
  7
CONVERTER_11
 73
     1
 44
1.20048019207683
  0
TEXT
  5
31F
330
71
100
AcDbEntity
  8
1
 62
     7
100
AcDbText
 10
-215.1448045267402
 20
-252.2000000000051
 30
0.0
 40
2.5
  1
1686533
 41
0.81
  7
CONVERTER_12
100
AcDbText
  0
MTEXT
  5
320
330
71
100
AcDbEntity
  8
1
 62
     2
100
AcDbMText
 10
-215.5448045267399
 20
-246.000000000005
 30
0.0
 40
1.8
 41
0.0
 71
     1
 72
     1
  1
ident.-No.
  7
CONVERTER_11
 73
     1
 44
1.20048019207683
  0
MTEXT
  5
321
330
71
100
AcDbEntity
  8
1
 62
     2
100
AcDbMText
 10
-131.3184082816672
 20
-237.500000000005
 30
0.0
 40
1.8
 41
0.0
 71
     1
 72
     1
  1
scale
  7
CONVERTER_11
 73
     1
 44
1.20048019207683
  0
MTEXT
  5
323
330
71
100
AcDbEntity
  8
1
 62
     3
100
AcDbMText
 10
-127.9592041408276
 20
-243.7000000000049
 30
0.0
 40
2.5
 41
0.0
 71
     8
 72
     1
  1
1:1
  7
CONVERTER_13
 73
     1
 44
1.32052821128451
  0
TEXT
  5
324
330
71
100
AcDbEntity
  8
1
 62
     7
100
AcDbText
 10
-215.5448045267399
 20
-243.7000000000051
 30
0.0
 40
2.5
  1
01158479
 41
0.81
  7
CONVERTER_12
100
AcDbText
  0
MTEXT
  5
326
330
71
100
AcDbEntity
  8
1
 62
     2
100
AcDbMText
 10
-215.5448045267399
 20
-237.500000000005
 30
0.0
 40
1.8
 41
0.0
 71
     1
 72
     1
  1
document-No. / RI
  7
CONVERTER_14
 73
     1
 44
1.32052821128451
  0
TEXT
  5
327
330
71
100
AcDbEntity
  8
1
 62
     3
100
AcDbText
 10
-187.7448045267399
 20
-252.2000000000051
 30
0.0
 40
2.5
  1
TECDOC 2D_Productdrawing
 41
0.81
  7
CONVERTER_12
100
AcDbText
  0
MTEXT
  5
328
330
71
100
AcDbEntity
  8
1
 62
     2
100
AcDbMText
 10
-187.7448045267399
 20
-246.0000000000051
 30
0.0
 40
1.8
 41
0.0
 71
     1
 72
     1
  1
document-type
  7
CONVERTER_11
 73
     1
 44
1.20048019207683
  0
MTEXT
  5
329
330
71
100
AcDbEntity
  8
1
 62
     2
100
AcDbMText
 10
-157.918408281667
 20
-237.5000000000051
 30
0.0
 40
1.8
 41
0.0
 71
     1
 72
     1
  1
date
  7
CONVERTER_11
 73
     1
 44
1.32052821128451
  0
TEXT
  5
32A
330
71
100
AcDbEntity
  8
1
 62
     3
100
AcDbText
 10
-157.918408281667
 20
-243.7000000000051
 30
0.0
 40
2.5
  1
13.09.2018
 41
0.81
  7
CONVERTER_12
100
AcDbText
  0
TEXT
  5
32B
330
71
100
AcDbEntity
  8
1
 62
     7
100
AcDbText
 10
-195.5148923076841
 20
-243.7000000000051
 30
0.0
 40
2.5
  1
00
 41
0.81
  7
CONVERTER_12
100
AcDbText
  0
TEXT
  5
32C
330
71
100
AcDbEntity
  8
1
 62
     7
100
AcDbText
 10
-197.6712568047261
 20
-243.7000000000051
 30
0.0
 40
2.5
  1
/
 41
0.9
  7
CONVERTER_11
100
AcDbText
  0
HATCH
  5
32D
330
71
100
AcDbEntity
  8
1
  6
Continuous
 62
     2
100
AcDbHatch
 10
0.0
 20
0.0
 30
0.0
210
0.0
220
0.0
230
1.0
  2
_USER
 70
     0
 71
     1
 91
        1
 92
        1
 93
       12
 72
     1
 10
-235.3773038137788
 20
-251.3473095238144
 11
-236.5700965159452
 21
-251.3473095238144
 72
     1
 10
-236.5700965159452
 20
-251.3473095238144
 11
-236.5700965159452
 21
-250.2130374149706
 72
     1
 10
-236.5700965159452
 20
-250.2130374149706
 11
-237.6197540938527
 21
-250.2130374149706
 72
     1
 10
-237.6197540938527
 20
-250.2130374149706
 11
-237.6197540938527
 21
-251.3473095238144
 72
     1
 10
-237.6197540938527
 20
-251.3473095238144
 11
-238.8125467960193
 21
-251.3473095238144
 72
     1
 10
-238.8125467960193
 20
-251.3473095238144
 11
-238.8125467960193
 21
-248.2935000000032
 72
     1
 10
-238.8125467960193
 20
-248.2935000000032
 11
-237.6197540938527
 21
-248.2935000000032
 72
     1
 10
-237.6197540938527
 20
-248.2935000000032
 11
-237.6197540938527
 21
-249.3623333333378
 72
     1
 10
-237.6197540938527
 20
-249.3623333333378
 11
-236.5700965159452
 21
-249.3623333333378
 72
     1
 10
-236.5700965159452
 20
-249.3623333333378
 11
-236.5700965159452
 21
-248.2935000000032
 72
     1
 10
-236.5700965159452
 20
-248.2935000000032
 11
-235.3773038137788
 21
-248.2935000000032
 72
     1
 10
-235.3773038137788
 20
-248.2935000000032
 11
-235.3773038137788
 21
-251.3473095238144
 97
       12
330
29A
330
29B
330
285
330
284
330
283
330
297
330
282
330
298
330
299
330
281
330
280
330
27F
 75
     1
 76
     0
 52
45.0
 41
0.1
 77
     0
 78
     1
 53
45.0
 43
0.0
 44
0.0
 45
-0.0707106781186548
 46
0.0707106781186548
 79
     0
 98
        1
 10
0.0
 20
0.0
  0
HATCH
  5
32E
330
71
100
AcDbEntity
  8
1
  6
Continuous
 62
     2
100
AcDbHatch
 10
0.0
 20
0.0
 30
0.0
210
0.0
220
0.0
230
1.0
  2
_USER
 70
     0
 71
     1
 91
        1
 92
        1
 93
       12
 72
     1
 10
-235.3773038137788
 20
-251.3473095238144
 11
-236.5700965159452
 21
-251.3473095238144
 72
     1
 10
-236.5700965159452
 20
-251.3473095238144
 11
-236.5700965159452
 21
-250.2130374149706
 72
     1
 10
-236.5700965159452
 20
-250.2130374149706
 11
-237.6197540938527
 21
-250.2130374149706
 72
     1
 10
-237.6197540938527
 20
-250.2130374149706
 11
-237.6197540938527
 21
-251.3473095238144
 72
     1
 10
-237.6197540938527
 20
-251.3473095238144
 11
-238.8125467960193
 21
-251.3473095238144
 72
     1
 10
-238.8125467960193
 20
-251.3473095238144
 11
-238.8125467960193
 21
-248.2935000000032
 72
     1
 10
-238.8125467960193
 20
-248.2935000000032
 11
-237.6197540938527
 21
-248.2935000000032
 72
     1
 10
-237.6197540938527
 20
-248.2935000000032
 11
-237.6197540938527
 21
-249.3623333333378
 72
     1
 10
-237.6197540938527
 20
-249.3623333333378
 11
-236.5700965159452
 21
-249.3623333333378
 72
     1
 10
-236.5700965159452
 20
-249.3623333333378
 11
-236.5700965159452
 21
-248.2935000000032
 72
     1
 10
-236.5700965159452
 20
-248.2935000000032
 11
-235.3773038137788
 21
-248.2935000000032
 72
     1
 10
-235.3773038137788
 20
-248.2935000000032
 11
-235.3773038137788
 21
-251.3473095238144
 97
       12
330
29A
330
29B
330
285
330
284
330
283
330
297
330
282
330
298
330
299
330
281
330
280
330
27F
 75
     1
 76
     0
 52
45.0
 41
0.1
 77
     0
 78
     1
 53
45.0
 43
0.0
 44
0.0
 45
-0.0707106781186548
 46
0.0707106781186548
 79
     0
 98
        1
 10
0.0
 20
0.0
  0
HATCH
  5
32F
330
71
100
AcDbEntity
  8
1
  6
Continuous
 62
     2
100
AcDbHatch
 10
0.0
 20
0.0
 30
0.0
210
0.0
220
0.0
230
1.0
  2
_USER
 70
     0
 71
     1
 91
        1
 92
        1
 93
       10
 72
     1
 10
-233.1350044645905
 20
-252.9614659863827
 11
-234.3755088748434
 21
-251.6526904761776
 72
     1
 10
-234.3755088748434
 20
-251.6526904761776
 11
-235.568301577011
 21
-251.6526904761776
 72
     1
 10
-235.568301577011
 20
-251.6526904761776
 11
-235.568301577011
 21
-254.7064999999887
 72
     1
 10
-235.568301577011
 20
-254.7064999999887
 11
-234.3755088748434
 21
-254.7064999999887
 72
     1
 10
-234.3755088748434
 20
-254.7064999999887
 11
-234.3755088748434
 21
-253.3977244897841
 72
     1
 10
-234.3755088748434
 20
-253.3977244897841
 11
-233.1350044645905
 21
-254.7064999999887
 72
     1
 10
-233.1350044645905
 20
-254.7064999999887
 11
-231.9422117624241
 21
-254.7064999999887
 72
     1
 10
-231.9422117624241
 20
-254.7064999999887
 11
-231.9422117624241
 21
-251.6526904761776
 72
     1
 10
-231.9422117624241
 20
-251.6526904761776
 11
-233.1350044645905
 21
-251.6526904761776
 72
     1
 10
-233.1350044645905
 20
-251.6526904761776
 11
-233.1350044645905
 21
-252.9614659863827
 97
       10
330
2A8
330
278
330
277
330
27A
330
2A3
330
2A4
330
279
330
2A5
330
2A6
330
2A7
 75
     1
 76
     0
 52
45.0
 41
0.1
 77
     0
 78
     1
 53
45.0
 43
0.0
 44
0.0
 45
-0.0707106781186548
 46
0.0707106781186548
 79
     0
 98
        1
 10
0.0
 20
0.0
  0
HATCH
  5
330
330
71
100
AcDbEntity
  8
1
  6
Continuous
 62
     2
100
AcDbHatch
 10
0.0
 20
0.0
 30
0.0
210
0.0
220
0.0
230
1.0
  2
_USER
 70
     0
 71
     1
 91
        1
 92
        1
 93
       10
 72
     1
 10
-233.1350044645905
 20
-252.9614659863827
 11
-234.3755088748434
 21
-251.6526904761776
 72
     1
 10
-234.3755088748434
 20
-251.6526904761776
 11
-235.568301577011
 21
-251.6526904761776
 72
     1
 10
-235.568301577011
 20
-251.6526904761776
 11
-235.568301577011
 21
-254.7064999999887
 72
     1
 10
-235.568301577011
 20
-254.7064999999887
 11
-234.3755088748434
 21
-254.7064999999887
 72
     1
 10
-234.3755088748434
 20
-254.7064999999887
 11
-234.3755088748434
 21
-253.3977244897841
 72
     1
 10
-234.3755088748434
 20
-253.3977244897841
 11
-233.1350044645905
 21
-254.7064999999887
 72
     1
 10
-233.1350044645905
 20
-254.7064999999887
 11
-231.9422117624241
 21
-254.7064999999887
 72
     1
 10
-231.9422117624241
 20
-254.7064999999887
 11
-231.9422117624241
 21
-251.6526904761776
 72
     1
 10
-231.9422117624241
 20
-251.6526904761776
 11
-233.1350044645905
 21
-251.6526904761776
 72
     1
 10
-233.1350044645905
 20
-251.6526904761776
 11
-233.1350044645905
 21
-252.9614659863827
 97
       10
330
2A8
330
278
330
277
330
27A
330
2A3
330
2A4
330
279
330
2A5
330
2A6
330
2A7
 75
     1
 76
     0
 52
45.0
 41
0.1
 77
     0
 78
     1
 53
45.0
 43
0.0
 44
0.0
 45
-0.0707106781186548
 46
0.0707106781186548
 79
     0
 98
        1
 10
0.0
 20
0.0
  0
HATCH
  5
331
330
71
100
AcDbEntity
  8
1
  6
Continuous
 62
     2
100
AcDbHatch
 10
0.0
 20
0.0
 30
0.0
210
0.0
220
0.0
230
1.0
  2
_USER
 70
     0
 71
     1
 91
        1
 92
        1
 93
       10
 72
     1
 10
-227.8865656441708
 20
-249.6022755102084
 11
-229.1270700544248
 21
-248.2935000000032
 72
     1
 10
-229.1270700544248
 20
-248.2935000000032
 11
-230.3198627565913
 21
-248.2935000000032
 72
     1
 10
-230.3198627565913
 20
-248.2935000000032
 11
-230.3198627565913
 21
-251.3473095238144
 72
     1
 10
-230.3198627565913
 20
-251.3473095238144
 11
-229.1270700544248
 21
-251.3473095238144
 72
     1
 10
-229.1270700544248
 20
-251.3473095238144
 11
-229.1270700544248
 21
-250.0385340136097
 72
     1
 10
-229.1270700544248
 20
-250.0385340136097
 11
-227.8865656441708
 21
-251.3473095238144
 72
     1
 10
-227.8865656441708
 20
-251.3473095238144
 11
-226.6937729420042
 21
-251.3473095238144
 72
     1
 10
-226.6937729420042
 20
-251.3473095238144
 11
-226.6937729420042
 21
-248.2935000000032
 72
     1
 10
-226.6937729420042
 20
-248.2935000000032
 11
-227.8865656441708
 21
-248.2935000000032
 72
     1
 10
-227.8865656441708
 20
-248.2935000000032
 11
-227.8865656441708
 21
-249.6022755102084
 97
       10
330
2AD
330
275
330
274
330
2AE
330
273
330
2A9
330
2AA
330
2AB
330
2AC
330
276
 75
     1
 76
     0
 52
45.0
 41
0.1
 77
     0
 78
     1
 53
45.0
 43
0.0
 44
0.0
 45
-0.0707106781186548
 46
0.0707106781186548
 79
     0
 98
        1
 10
0.0
 20
0.0
  0
HATCH
  5
332
330
71
100
AcDbEntity
  8
1
  6
Continuous
 62
     2
100
AcDbHatch
 10
0.0
 20
0.0
 30
0.0
210
0.0
220
0.0
230
1.0
  2
_USER
 70
     0
 71
     1
 91
        1
 92
        1
 93
       10
 72
     1
 10
-227.8865656441708
 20
-249.6022755102084
 11
-229.1270700544248
 21
-248.2935000000032
 72
     1
 10
-229.1270700544248
 20
-248.2935000000032
 11
-230.3198627565913
 21
-248.2935000000032
 72
     1
 10
-230.3198627565913
 20
-248.2935000000032
 11
-230.3198627565913
 21
-251.3473095238144
 72
     1
 10
-230.3198627565913
 20
-251.3473095238144
 11
-229.1270700544248
 21
-251.3473095238144
 72
     1
 10
-229.1270700544248
 20
-251.3473095238144
 11
-229.1270700544248
 21
-250.0385340136097
 72
     1
 10
-229.1270700544248
 20
-250.0385340136097
 11
-227.8865656441708
 21
-251.3473095238144
 72
     1
 10
-227.8865656441708
 20
-251.3473095238144
 11
-226.6937729420042
 21
-251.3473095238144
 72
     1
 10
-226.6937729420042
 20
-251.3473095238144
 11
-226.6937729420042
 21
-248.2935000000032
 72
     1
 10
-226.6937729420042
 20
-248.2935000000032
 11
-227.8865656441708
 21
-248.2935000000032
 72
     1
 10
-227.8865656441708
 20
-248.2935000000032
 11
-227.8865656441708
 21
-249.6022755102084
 97
       10
330
2AD
330
275
330
274
330
2AE
330
273
330
2A9
330
2AA
330
2AB
330
2AC
330
276
 75
     1
 76
     0
 52
45.0
 41
0.1
 77
     0
 78
     1
 53
45.0
 43
0.0
 44
0.0
 45
-0.0707106781186548
 46
0.0707106781186548
 79
     0
 98
        1
 10
0.0
 20
0.0
  0
HATCH
  5
333
330
71
100
AcDbEntity
  8
1
  6
Continuous
 62
     2
100
AcDbHatch
 10
0.0
 20
0.0
 30
0.0
210
0.0
220
0.0
230
1.0
  2
_USER
 70
     0
 71
     1
 91
        1
 92
        1
 93
        8
 72
     1
 10
-228.9840858610503
 20
-251.6526904761776
 11
-231.7990766381639
 21
-251.6526904761776
 72
     1
 10
-231.7990766381639
 20
-251.6526904761776
 11
-231.7990766381639
 21
-252.4379557823012
 72
     1
 10
-231.7990766381639
 20
-252.4379557823012
 11
-230.9879776006893
 21
-252.4379557823012
 72
     1
 10
-230.9879776006893
 20
-252.4379557823012
 11
-230.9879776006893
 21
-254.7064999999887
 72
     1
 10
-230.9879776006893
 20
-254.7064999999887
 11
-229.7951848985228
 21
-254.7064999999887
 72
     1
 10
-229.7951848985228
 20
-254.7064999999887
 11
-229.7951848985228
 21
-252.4379557823012
 72
     1
 10
-229.7951848985228
 20
-252.4379557823012
 11
-228.9840858610503
 21
-252.4379557823012
 72
     1
 10
-228.9840858610503
 20
-252.4379557823012
 11
-228.9840858610503
 21
-251.6526904761776
 97
        8
330
26F
330
2AF
330
26E
330
2B0
330
2B1
330
272
330
271
330
270
 75
     1
 76
     0
 52
45.0
 41
0.1
 77
     0
 78
     1
 53
45.0
 43
0.0
 44
0.0
 45
-0.0707106781186548
 46
0.0707106781186548
 79
     0
 98
        1
 10
0.0
 20
0.0
  0
HATCH
  5
334
330
71
100
AcDbEntity
  8
1
  6
Continuous
 62
     2
100
AcDbHatch
 10
0.0
 20
0.0
 30
0.0
210
0.0
220
0.0
230
1.0
  2
_USER
 70
     0
 71
     1
 91
        1
 92
        1
 93
        8
 72
     1
 10
-228.9840858610503
 20
-251.6526904761776
 11
-231.7990766381639
 21
-251.6526904761776
 72
     1
 10
-231.7990766381639
 20
-251.6526904761776
 11
-231.7990766381639
 21
-252.4379557823012
 72
     1
 10
-231.7990766381639
 20
-252.4379557823012
 11
-230.9879776006893
 21
-252.4379557823012
 72
     1
 10
-230.9879776006893
 20
-252.4379557823012
 11
-230.9879776006893
 21
-254.7064999999887
 72
     1
 10
-230.9879776006893
 20
-254.7064999999887
 11
-229.7951848985228
 21
-254.7064999999887
 72
     1
 10
-229.7951848985228
 20
-254.7064999999887
 11
-229.7951848985228
 21
-252.4379557823012
 72
     1
 10
-229.7951848985228
 20
-252.4379557823012
 11
-228.9840858610503
 21
-252.4379557823012
 72
     1
 10
-228.9840858610503
 20
-252.4379557823012
 11
-228.9840858610503
 21
-251.6526904761776
 97
        8
330
26F
330
2AF
330
26E
330
2B0
330
2B1
330
272
330
271
330
270
 75
     1
 76
     0
 52
45.0
 41
0.1
 77
     0
 78
     1
 53
45.0
 43
0.0
 44
0.0
 45
-0.0707106781186548
 46
0.0707106781186548
 79
     0
 98
        1
 10
0.0
 20
0.0
  0
HATCH
  5
335
330
71
100
AcDbEntity
  8
1
  6
Continuous
 62
     2
100
AcDbHatch
 10
0.0
 20
0.0
 30
0.0
210
0.0
220
0.0
230
1.0
  2
_USER
 70
     0
 71
     1
 91
        2
 92
        1
 93
        8
 72
     1
 10
-226.8456584051033
 20
-254.7064999999887
 11
-227.0571384585791
 21
-254.1655394557708
 72
     1
 10
-227.0571384585791
 20
-254.1655394557708
 11
-228.1895800352529
 21
-254.1655394557708
 72
     1
 10
-228.1895800352529
 20
-254.1655394557708
 11
-228.4010600887287
 21
-254.7064999999887
 72
     1
 10
-228.4010600887287
 20
-254.7064999999887
 11
-229.6415644989817
 21
-254.7064999999887
 72
     1
 10
-229.6415644989817
 20
-254.7064999999887
 11
-228.2436114520424
 21
-251.6526904761776
 72
     1
 10
-228.2436114520424
 20
-251.6526904761776
 11
-227.0031070417897
 21
-251.6526904761776
 72
     1
 10
-227.0031070417897
 20
-251.6526904761776
 11
-225.6051539948494
 21
-254.7064999999887
 72
     1
 10
-225.6051539948494
 20
-254.7064999999887
 11
-226.8456584051033
 21
-254.7064999999887
 97
        8
330
2B3
330
2B4
330
26B
330
2B5
330
26A
330
26D
330
2B2
330
26C
 92
       16
 93
        3
 72
     1
 10
-227.9235244841079
 20
-253.4849761904642
 11
-227.6233592469155
 21
-252.7171612244775
 72
     1
 10
-227.6233592469155
 20
-252.7171612244775
 11
-227.3231940097254
 21
-253.4849761904642
 72
     1
 10
-227.3231940097254
 20
-253.4849761904642
 11
-227.9235244841079
 21
-253.4849761904642
 97
        3
330
269
330
2B7
330
2B6
 75
     1
 76
     0
 52
45.0
 41
0.1
 77
     0
 78
     1
 53
45.0
 43
0.0
 44
0.0
 45
-0.0707106781186548
 46
0.0707106781186548
 79
     0
 98
        1
 10
0.0
 20
0.0
  0
HATCH
  5
336
330
71
100
AcDbEntity
  8
1
  6
Continuous
 62
     2
100
AcDbHatch
 10
0.0
 20
0.0
 30
0.0
210
0.0
220
0.0
230
1.0
  2
_USER
 70
     0
 71
     1
 91
        2
 92
        1
 93
        8
 72
     1
 10
-226.8456584051033
 20
-254.7064999999887
 11
-227.0571384585791
 21
-254.1655394557708
 72
     1
 10
-227.0571384585791
 20
-254.1655394557708
 11
-228.1895800352529
 21
-254.1655394557708
 72
     1
 10
-228.1895800352529
 20
-254.1655394557708
 11
-228.4010600887287
 21
-254.7064999999887
 72
     1
 10
-228.4010600887287
 20
-254.7064999999887
 11
-229.6415644989817
 21
-254.7064999999887
 72
     1
 10
-229.6415644989817
 20
-254.7064999999887
 11
-228.2436114520424
 21
-251.6526904761776
 72
     1
 10
-228.2436114520424
 20
-251.6526904761776
 11
-227.0031070417897
 21
-251.6526904761776
 72
     1
 10
-227.0031070417897
 20
-251.6526904761776
 11
-225.6051539948494
 21
-254.7064999999887
 72
     1
 10
-225.6051539948494
 20
-254.7064999999887
 11
-226.8456584051033
 21
-254.7064999999887
 97
        8
330
2B3
330
2B4
330
26B
330
2B5
330
26A
330
26D
330
2B2
330
26C
 92
       16
 93
        3
 72
     1
 10
-227.9235244841079
 20
-253.4849761904642
 11
-227.6233592469155
 21
-252.7171612244775
 72
     1
 10
-227.6233592469155
 20
-252.7171612244775
 11
-227.3231940097254
 21
-253.4849761904642
 72
     1
 10
-227.3231940097254
 20
-253.4849761904642
 11
-227.9235244841079
 21
-253.4849761904642
 97
        3
330
269
330
2B7
330
2B6
 75
     1
 76
     0
 52
45.0
 41
0.1
 77
     0
 78
     1
 53
45.0
 43
0.0
 44
0.0
 45
-0.0707106781186548
 46
0.0707106781186548
 79
     0
 98
        1
 10
0.0
 20
0.0
  0
HATCH
  5
337
330
71
100
AcDbEntity
  8
1
  6
Continuous
 62
     2
100
AcDbHatch
 10
0.0
 20
0.0
 30
0.0
210
0.0
220
0.0
230
1.0
  2
_USER
 70
     0
 71
     1
 91
        1
 92
        1
 93
        4
 72
     1
 10
-225.2147099913174
 20
-251.3473095238144
 11
-226.4552144015703
 21
-251.3473095238144
 72
     1
 10
-226.4552144015703
 20
-251.3473095238144
 11
-226.4552144015703
 21
-248.2935000000032
 72
     1
 10
-226.4552144015703
 20
-248.2935000000032
 11
-225.2147099913174
 21
-248.2935000000032
 72
     1
 10
-225.2147099913174
 20
-248.2935000000032
 11
-225.2147099913174
 21
-251.3473095238144
 97
        4
330
266
330
268
330
2B8
330
267
 75
     1
 76
     0
 52
45.0
 41
0.1
 77
     0
 78
     1
 53
45.0
 43
0.0
 44
0.0
 45
-0.0707106781186548
 46
0.0707106781186548
 79
     0
 98
        1
 10
0.0
 20
0.0
  0
HATCH
  5
338
330
71
100
AcDbEntity
  8
1
  6
Continuous
 62
     2
100
AcDbHatch
 10
0.0
 20
0.0
 30
0.0
210
0.0
220
0.0
230
1.0
  2
_USER
 70
     0
 71
     1
 91
        1
 92
        1
 93
        4
 72
     1
 10
-225.2147099913174
 20
-251.3473095238144
 11
-226.4552144015703
 21
-251.3473095238144
 72
     1
 10
-226.4552144015703
 20
-251.3473095238144
 11
-226.4552144015703
 21
-248.2935000000032
 72
     1
 10
-226.4552144015703
 20
-248.2935000000032
 11
-225.2147099913174
 21
-248.2935000000032
 72
     1
 10
-225.2147099913174
 20
-248.2935000000032
 11
-225.2147099913174
 21
-251.3473095238144
 97
        4
330
266
330
268
330
2B8
330
267
 75
     1
 76
     0
 52
45.0
 41
0.1
 77
     0
 78
     1
 53
45.0
 43
0.0
 44
0.0
 45
-0.0707106781186548
 46
0.0707106781186548
 79
     0
 98
        1
 10
0.0
 20
0.0
  0
HATCH
  5
339
330
71
100
AcDbEntity
  8
1
  6
Continuous
 62
     2
100
AcDbHatch
 10
0.0
 20
0.0
 30
0.0
210
0.0
220
0.0
230
1.0
  2
_USER
 70
     0
 71
     1
 91
        1
 92
        1
 93
       12
 72
     1
 10
-220.9922238256466
 20
-248.2935000000032
 11
-222.2947534564131
 21
-249.7664505300394
 72
     1
 10
-222.2947534564131
 20
-249.7664505300394
 11
-220.8968004094728
 21
-251.3473095238144
 72
     1
 10
-220.8968004094728
 20
-251.3473095238144
 11
-222.2995246272211
 21
-251.3473095238144
 72
     1
 10
-222.2995246272211
 20
-251.3473095238144
 11
-222.9961155652866
 21
-250.5595777385207
 72
     1
 10
-222.9961155652866
 20
-250.5595777385207
 11
-223.6927065033523
 21
-251.3473095238144
 72
     1
 10
-223.6927065033523
 20
-251.3473095238144
 11
-225.0954307211005
 21
-251.3473095238144
 72
     1
 10
-225.0954307211005
 20
-251.3473095238144
 11
-223.6974776741602
 21
-249.7664505300394
 72
     1
 10
-223.6974776741602
 20
-249.7664505300394
 11
-225.0000073049277
 21
-248.2935000000032
 72
     1
 10
-225.0000073049277
 20
-248.2935000000032
 11
-223.5972830871784
 21
-248.2935000000032
 72
     1
 10
-223.5972830871784
 20
-248.2935000000032
 11
-222.9961155652866
 21
-248.9733233215587
 72
     1
 10
-222.9961155652866
 20
-248.9733233215587
 11
-222.3949480433938
 21
-248.2935000000032
 72
     1
 10
-222.3949480433938
 20
-248.2935000000032
 11
-220.9922238256466
 21
-248.2935000000032
 97
       12
330
261
330
260
330
25F
330
2BC
330
2BD
330
2B9
330
2BA
330
265
330
264
330
263
330
262
330
2BB
 75
     1
 76
     0
 52
45.0
 41
0.1
 77
     0
 78
     1
 53
45.0
 43
0.0
 44
0.0
 45
-0.0707106781186548
 46
0.0707106781186548
 79
     0
 98
        1
 10
0.0
 20
0.0
  0
HATCH
  5
33A
330
71
100
AcDbEntity
  8
1
  6
Continuous
 62
     2
100
AcDbHatch
 10
0.0
 20
0.0
 30
0.0
210
0.0
220
0.0
230
1.0
  2
_USER
 70
     0
 71
     1
 91
        1
 92
        1
 93
       12
 72
     1
 10
-220.9922238256466
 20
-248.2935000000032
 11
-222.2947534564131
 21
-249.7664505300394
 72
     1
 10
-222.2947534564131
 20
-249.7664505300394
 11
-220.8968004094728
 21
-251.3473095238144
 72
     1
 10
-220.8968004094728
 20
-251.3473095238144
 11
-222.2995246272211
 21
-251.3473095238144
 72
     1
 10
-222.2995246272211
 20
-251.3473095238144
 11
-222.9961155652866
 21
-250.5595777385207
 72
     1
 10
-222.9961155652866
 20
-250.5595777385207
 11
-223.6927065033523
 21
-251.3473095238144
 72
     1
 10
-223.6927065033523
 20
-251.3473095238144
 11
-225.0954307211005
 21
-251.3473095238144
 72
     1
 10
-225.0954307211005
 20
-251.3473095238144
 11
-223.6974776741602
 21
-249.7664505300394
 72
     1
 10
-223.6974776741602
 20
-249.7664505300394
 11
-225.0000073049277
 21
-248.2935000000032
 72
     1
 10
-225.0000073049277
 20
-248.2935000000032
 11
-223.5972830871784
 21
-248.2935000000032
 72
     1
 10
-223.5972830871784
 20
-248.2935000000032
 11
-222.9961155652866
 21
-248.9733233215587
 72
     1
 10
-222.9961155652866
 20
-248.9733233215587
 11
-222.3949480433938
 21
-248.2935000000032
 72
     1
 10
-222.3949480433938
 20
-248.2935000000032
 11
-220.9922238256466
 21
-248.2935000000032
 97
       12
330
261
330
260
330
25F
330
2BC
330
2BD
330
2B9
330
2BA
330
265
330
264
330
263
330
262
330
2BB
 75
     1
 76
     0
 52
45.0
 41
0.1
 77
     0
 78
     1
 53
45.0
 43
0.0
 44
0.0
 45
-0.0707106781186548
 46
0.0707106781186548
 79
     0
 98
        1
 10
0.0
 20
0.0
  0
HATCH
  5
33B
330
71
100
AcDbEntity
  8
1
  6
Continuous
 62
     2
100
AcDbHatch
 10
0.0
 20
0.0
 30
0.0
210
0.0
220
0.0
230
1.0
  2
_USER
 70
     0
 71
     1
 91
        2
 92
        1
 93
        6
 72
     1
 10
-240.0099592397926
 20
-250.4042312826706
 11
-240.7687268275729
 21
-250.4042312826706
 72
     1
 10
-240.7687268275729
 20
-250.4042312826706
 11
-240.7687268275729
 21
-251.3473095238144
 72
     1
 10
-240.7687268275729
 20
-251.3473095238144
 11
-242.009231237827
 21
-251.3473095238144
 72
     1
 10
-242.009231237827
 20
-251.3473095238144
 11
-242.009231237827
 21
-248.2935000000032
 72
     1
 10
-242.009231237827
 20
-248.2935000000032
 11
-240.0099592397926
 21
-248.2935000000032
 72
     2
 10
-240.0099592397926
 20
-249.3488656413369
 40
1.055365641333708
 50
270.0
 51
450.0
 73
     0
 97
        6
330
289
330
288
330
295
330
294
330
28A
330
2DA
 92
       16
 93
        4
 72
     2
 10
-240.451431766031
 20
-249.3094696701144
 40
0.3528638246711182
 50
270.0
 51
450.0
 73
     1
 72
     1
 10
-240.451431766031
 20
-248.9566058454433
 11
-240.7687268275729
 21
-248.9566058454433
 72
     1
 10
-240.7687268275729
 20
-248.9566058454433
 11
-240.7687268275729
 21
-249.6623334947855
 72
     1
 10
-240.7687268275729
 20
-249.6623334947855
 11
-240.451431766031
 21
-249.6623334947855
 97
        4
330
2EE
330
286
330
296
330
287
 75
     1
 76
     0
 52
45.0
 41
0.1
 77
     0
 78
     1
 53
45.0
 43
0.0
 44
0.0
 45
-0.0707106781186548
 46
0.0707106781186548
 79
     0
 98
        1
 10
0.0
 20
0.0
  0
HATCH
  5
33C
330
71
100
AcDbEntity
  8
1
  6
Continuous
 62
     2
100
AcDbHatch
 10
0.0
 20
0.0
 30
0.0
210
0.0
220
0.0
230
1.0
  2
_USER
 70
     0
 71
     1
 91
        2
 92
        1
 93
        6
 72
     1
 10
-240.0099592397926
 20
-250.4042312826706
 11
-240.7687268275729
 21
-250.4042312826706
 72
     1
 10
-240.7687268275729
 20
-250.4042312826706
 11
-240.7687268275729
 21
-251.3473095238144
 72
     1
 10
-240.7687268275729
 20
-251.3473095238144
 11
-242.009231237827
 21
-251.3473095238144
 72
     1
 10
-242.009231237827
 20
-251.3473095238144
 11
-242.009231237827
 21
-248.2935000000032
 72
     1
 10
-242.009231237827
 20
-248.2935000000032
 11
-240.0099592397926
 21
-248.2935000000032
 72
     2
 10
-240.0099592397926
 20
-249.3488656413369
 40
1.055365641333708
 50
270.0
 51
450.0
 73
     0
 97
        6
330
289
330
288
330
295
330
294
330
28A
330
2DA
 92
       16
 93
        4
 72
     2
 10
-240.451431766031
 20
-249.3094696701144
 40
0.3528638246711182
 50
270.0
 51
450.0
 73
     1
 72
     1
 10
-240.451431766031
 20
-248.9566058454433
 11
-240.7687268275729
 21
-248.9566058454433
 72
     1
 10
-240.7687268275729
 20
-248.9566058454433
 11
-240.7687268275729
 21
-249.6623334947855
 72
     1
 10
-240.7687268275729
 20
-249.6623334947855
 11
-240.451431766031
 21
-249.6623334947855
 97
        4
330
2EE
330
286
330
296
330
287
 75
     1
 76
     0
 52
45.0
 41
0.1
 77
     0
 78
     1
 53
45.0
 43
0.0
 44
0.0
 45
-0.0707106781186548
 46
0.0707106781186548
 79
     0
 98
        1
 10
0.0
 20
0.0
  0
HATCH
  5
33D
330
71
100
AcDbEntity
  8
1
  6
Continuous
 62
     2
100
AcDbHatch
 10
0.0
 20
0.0
 30
0.0
210
0.0
220
0.0
230
1.0
  2
_USER
 70
     0
 71
     1
 91
        2
 92
        1
 93
        4
 72
     2
 10
-237.4534164914335
 20
-253.7181702483862
 40
2.065479772208568
 50
62.45185182430637
 51
117.5481481756664
 73
     1
 72
     2
 10
-237.7343563832668
 20
-253.1795952380834
 40
1.45803408365149
 50
117.5481481756624
 51
242.4518518243375
 73
     1
 72
     2
 10
-237.4534164914335
 20
-252.6410202277801
 40
2.065479772208509
 50
242.4518518243402
 51
297.5481481756871
 73
     1
 72
     2
 10
-237.1724765996002
 20
-253.1795952380834
 40
1.458034083652003
 50
297.548148175701
 51
422.451851824299
 73
     1
 97
        4
330
2E6
330
2E5
330
2E7
330
2E4
 92
       16
 93
        4
 72
     2
 10
-237.6531565277799
 20
-253.1795952380834
 40
0.7717997786796947
 50
321.8795802028417
 51
398.1204197971533
 73
     1
 72
     2
 10
-237.4534164914335
 20
-253.0228640599629
 40
0.5179085730132998
 50
38.12041979714704
 51
141.8795802028588
 73
     1
 72
     2
 10
-237.2536764550874
 20
-253.1795952380834
 40
0.7717997786794633
 50
141.8795802028363
 51
218.1204197971687
 73
     1
 72
     2
 10
-237.4534164914335
 20
-253.3363264162034
 40
0.5179085730137354
 50
218.1204197971931
 51
321.879580202801
 73
     1
 97
        4
330
302
330
2FF
330
300
330
301
 75
     1
 76
     0
 52
45.0
 41
0.1
 77
     0
 78
     1
 53
45.0
 43
0.0
 44
0.0
 45
-0.0707106781186548
 46
0.0707106781186548
 79
     0
 98
        1
 10
0.0
 20
0.0
  0
HATCH
  5
33E
330
71
100
AcDbEntity
  8
1
  6
Continuous
 62
     2
100
AcDbHatch
 10
0.0
 20
0.0
 30
0.0
210
0.0
220
0.0
230
1.0
  2
_USER
 70
     0
 71
     1
 91
        2
 92
        1
 93
        4
 72
     2
 10
-237.4534164914335
 20
-253.7181702483862
 40
2.065479772208568
 50
62.45185182430637
 51
117.5481481756664
 73
     1
 72
     2
 10
-237.7343563832668
 20
-253.1795952380834
 40
1.45803408365149
 50
117.5481481756624
 51
242.4518518243375
 73
     1
 72
     2
 10
-237.4534164914335
 20
-252.6410202277801
 40
2.065479772208509
 50
242.4518518243402
 51
297.5481481756871
 73
     1
 72
     2
 10
-237.1724765996002
 20
-253.1795952380834
 40
1.458034083652003
 50
297.548148175701
 51
422.451851824299
 73
     1
 97
        4
330
2E6
330
2E5
330
2E7
330
2E4
 92
       16
 93
        4
 72
     2
 10
-237.6531565277799
 20
-253.1795952380834
 40
0.7717997786796947
 50
321.8795802028417
 51
398.1204197971533
 73
     1
 72
     2
 10
-237.4534164914335
 20
-253.0228640599629
 40
0.5179085730132998
 50
38.12041979714704
 51
141.8795802028588
 73
     1
 72
     2
 10
-237.2536764550874
 20
-253.1795952380834
 40
0.7717997786794633
 50
141.8795802028363
 51
218.1204197971687
 73
     1
 72
     2
 10
-237.4534164914335
 20
-253.3363264162034
 40
0.5179085730137354
 50
218.1204197971931
 51
321.879580202801
 73
     1
 97
        4
330
302
330
2FF
330
300
330
301
 75
     1
 76
     0
 52
45.0
 41
0.1
 77
     0
 78
     1
 53
45.0
 43
0.0
 44
0.0
 45
-0.0707106781186548
 46
0.0707106781186548
 79
     0
 98
        1
 10
0.0
 20
0.0
  0
HATCH
  5
33F
330
71
100
AcDbEntity
  8
1
  6
Continuous
 62
     2
100
AcDbHatch
 10
0.0
 20
0.0
 30
0.0
210
0.0
220
0.0
230
1.0
  2
_USER
 70
     0
 71
     1
 91
        2
 92
        1
 93
       12
 72
     1
 10
-230.5584212970242
 20
-248.9915136054462
 11
-231.8943491234519
 21
-248.9915136054462
 72
     1
 10
-231.8943491234519
 20
-248.9915136054462
 11
-231.8943491234519
 21
-249.4713979591879
 72
     1
 10
-231.8943491234519
 20
-249.4713979591879
 11
-230.5584212970242
 21
-249.4713979591879
 72
     1
 10
-230.5584212970242
 20
-249.4713979591879
 11
-230.5584212970242
 21
-250.1694115646302
 72
     1
 10
-230.5584212970242
 20
-250.1694115646302
 11
-231.8943491234519
 21
-250.1694115646302
 72
     1
 10
-231.8943491234519
 20
-250.1694115646302
 11
-231.8943491234519
 21
-250.6492959183719
 72
     1
 10
-231.8943491234519
 20
-250.6492959183719
 11
-230.5584212970242
 21
-250.6492959183719
 72
     1
 10
-230.5584212970242
 20
-250.6492959183719
 11
-230.5584212970242
 21
-251.3473095238144
 72
     1
 10
-230.5584212970242
 20
-251.3473095238144
 11
-233.7087410208052
 21
-251.3473095238144
 72
     2
 10
-233.7087410208052
 20
-249.8204047619091
 40
1.526904761905882
 50
90.0
 51
270.0
 73
     0
 72
     1
 10
-233.7087410208052
 20
-248.2935000000032
 11
-230.5584212970242
 21
-248.2935000000032
 72
     1
 10
-230.5584212970242
 20
-248.2935000000032
 11
-230.5584212970242
 21
-248.9915136054462
 97
       12
330
29D
330
2EF
330
29E
330
29F
330
2A0
330
2A1
330
27E
330
27D
330
27C
330
27B
330
2A2
330
29C
 92
       16
 93
        4
 72
     2
 10
-233.49246901064
 20
-249.6636735837886
 40
0.5179085730135266
 50
38.12041979714334
 51
141.8795802028489
 73
     1
 72
     2
 10
-233.2927289742937
 20
-249.8204047619091
 40
0.7717997786796724
 50
141.8795802028404
 51
218.1204197971562
 73
     1
 72
     2
 10
-233.49246901064
 20
-249.9771359400295
 40
0.5179085730134372
 50
218.1204197971511
 51
321.8795802028566
 73
     1
 72
     2
 10
-233.6922090469862
 20
-249.8204047619091
 40
0.7717997786796373
 50
321.8795802028437
 51
398.1204197971596
 73
     1
 97
        4
330
2E9
330
2E8
330
2E3
330
2E2
 75
     1
 76
     0
 52
45.0
 41
0.1
 77
     0
 78
     1
 53
45.0
 43
0.0
 44
0.0
 45
-0.0707106781186548
 46
0.0707106781186548
 79
     0
 98
        1
 10
0.0
 20
0.0
  0
HATCH
  5
340
330
71
100
AcDbEntity
  8
1
  6
Continuous
 62
     2
100
AcDbHatch
 10
0.0
 20
0.0
 30
0.0
210
0.0
220
0.0
230
1.0
  2
_USER
 70
     0
 71
     1
 91
        2
 92
        1
 93
       12
 72
     1
 10
-230.5584212970242
 20
-248.9915136054462
 11
-231.8943491234519
 21
-248.9915136054462
 72
     1
 10
-231.8943491234519
 20
-248.9915136054462
 11
-231.8943491234519
 21
-249.4713979591879
 72
     1
 10
-231.8943491234519
 20
-249.4713979591879
 11
-230.5584212970242
 21
-249.4713979591879
 72
     1
 10
-230.5584212970242
 20
-249.4713979591879
 11
-230.5584212970242
 21
-250.1694115646302
 72
     1
 10
-230.5584212970242
 20
-250.1694115646302
 11
-231.8943491234519
 21
-250.1694115646302
 72
     1
 10
-231.8943491234519
 20
-250.1694115646302
 11
-231.8943491234519
 21
-250.6492959183719
 72
     1
 10
-231.8943491234519
 20
-250.6492959183719
 11
-230.5584212970242
 21
-250.6492959183719
 72
     1
 10
-230.5584212970242
 20
-250.6492959183719
 11
-230.5584212970242
 21
-251.3473095238144
 72
     1
 10
-230.5584212970242
 20
-251.3473095238144
 11
-233.7087410208052
 21
-251.3473095238144
 72
     2
 10
-233.7087410208052
 20
-249.8204047619091
 40
1.526904761905882
 50
90.0
 51
270.0
 73
     0
 72
     1
 10
-233.7087410208052
 20
-248.2935000000032
 11
-230.5584212970242
 21
-248.2935000000032
 72
     1
 10
-230.5584212970242
 20
-248.2935000000032
 11
-230.5584212970242
 21
-248.9915136054462
 97
       12
330
29D
330
2EF
330
29E
330
29F
330
2A0
330
2A1
330
27E
330
27D
330
27C
330
27B
330
2A2
330
29C
 92
       16
 93
        4
 72
     2
 10
-233.49246901064
 20
-249.6636735837886
 40
0.5179085730135266
 50
38.12041979714334
 51
141.8795802028489
 73
     1
 72
     2
 10
-233.2927289742937
 20
-249.8204047619091
 40
0.7717997786796724
 50
141.8795802028404
 51
218.1204197971562
 73
     1
 72
     2
 10
-233.49246901064
 20
-249.9771359400295
 40
0.5179085730134372
 50
218.1204197971511
 51
321.8795802028566
 73
     1
 72
     2
 10
-233.6922090469862
 20
-249.8204047619091
 40
0.7717997786796373
 50
321.8795802028437
 51
398.1204197971596
 73
     1
 97
        4
330
2E9
330
2E8
330
2E3
330
2E2
 75
     1
 76
     0
 52
45.0
 41
0.1
 77
     0
 78
     1
 53
45.0
 43
0.0
 44
0.0
 45
-0.0707106781186548
 46
0.0707106781186548
 79
     0
 98
        1
 10
0.0
 20
0.0
  0
HATCH
  5
341
330
71
100
AcDbEntity
  8
1
  6
Continuous
 62
     2
100
AcDbHatch
 10
0.0
 20
0.0
 30
0.0
210
0.0
220
0.0
230
1.0
  2
_USER
 70
     0
 71
     1
 91
        4
 92
        1
 93
        8
 72
     1
 10
-242.4863483186938
 20
-248.7177446154052
 11
-242.4863483186938
 21
-254.2822553846054
 72
     2
 10
-242.9105929340777
 20
-254.2822553846054
 40
0.4242446153832873
 50
0.0
 51
90.0
 73
     0
 72
     1
 10
-242.9105929340777
 20
-254.7064999999887
 11
-248.3839050247945
 21
-254.7064999999887
 72
     2
 10
-248.3839050247945
 20
-254.2822553846054
 40
0.4242446153828041
 50
90.0
 51
180.0
 73
     0
 72
     1
 10
-248.8081496401773
 20
-254.2822553846054
 11
-248.8081496401773
 21
-248.7177446154052
 72
     2
 10
-248.3839050247945
 20
-248.7177446154052
 40
0.4242446153837989
 50
180.0
 51
270.0
 73
     0
 72
     1
 10
-248.3839050247945
 20
-248.2935000000214
 11
-242.9105929340777
 21
-248.2935000000214
 72
     2
 10
-242.9105929340777
 20
-248.7177446154052
 40
0.4242446153838841
 50
270.0
 51
360.0
 73
     0
 97
        8
330
291
330
2DF
330
292
330
2EA
330
28F
330
2E1
330
290
330
2E0
 92
       16
 93
        1
 72
     2
 10
-245.764319374277
 20
-251.0366268437607
 40
0.4709789327785074
 50
0.0
 51
360.0
 73
     1
 97
        1
330
305
 92
       16
 93
        8
 72
     2
 10
-245.2144616615163
 20
-252.1457684437291
 40
0.3157169230765328
 50
115.3740086783519
 51
180.0
 73
     1
 72
     1
 10
-245.5301785845931
 20
-252.1457684437291
 11
-245.5301785845931
 21
-252.7276198504242
 72
     2
 10
-245.2144616615163
 20
-252.7276198504242
 40
0.315716923076792
 50
180.0
 51
269.8110329574542
 73
     1
 72
     2
 10
-245.2088455262063
 20
-251.0247849028552
 40
2.018561131933266
 50
269.8110329575858
 51
450.1889670424142
 73
     1
 72
     2
 10
-245.2144616615163
 20
-249.3219499552861
 40
0.3157169230760711
 50
90.18896704254594
 51
180.0
 73
     1
 72
     1
 10
-245.5301785845931
 20
-249.3219499552861
 11
-245.5301785845931
 21
-249.9274852437929
 72
     2
 10
-245.2144616615163
 20
-249.9274852437929
 40
0.315716923076792
 50
180.0
 51
244.6259913216482
 73
     1
 72
     2
 10
-245.7405043596042
 20
-251.0366268437607
 40
0.911848150144459
 50
295.3740086781925
 51
424.6259913218236
 73
     0
 97
        8
330
2F7
330
258
330
2F4
330
2F5
330
2D3
330
257
330
2F6
330
2D2
 92
       16
 93
       12
 72
     2
 10
-247.790010348048
 20
-253.6782275213551
 40
0.3157169230756836
 50
180.0
 51
270.0
 73
     1
 72
     1
 10
-247.790010348048
 20
-253.9939444444318
 11
-246.3141770870384
 21
-253.9939444444318
 72
     2
 10
-246.3141770870384
 20
-253.6782275213551
 40
0.3157169230767067
 50
270.0
 51
360.0
 73
     1
 72
     1
 10
-245.9984601639618
 20
-253.6782275213551
 11
-245.9984601639618
 21
-252.1474565898235
 72
     2
 10
-246.3141770870384
 20
-252.1474565898235
 40
0.315716923076593
 50
0.0
 51
64.80558935146027
 73
     1
 72
     2
 10
-245.7915926394634
 20
-251.0366268437607
 40
0.9118975235576147
 50
115.1944106485122
 51
244.8055893514718
 73
     0
 72
     2
 10
-246.3141770870384
 20
-249.9257970976985
 40
0.3157169230761203
 50
295.1944106485397
 51
360.0
 73
     1
 72
     1
 10
-245.9984601639618
 20
-249.9257970976985
 11
-245.9984601639618
 21
-249.321772478638
 72
     2
 10
-246.3141770870384
 20
-249.321772478638
 40
0.315716923076593
 50
0.0
 51
90.0
 73
     1
 72
     1
 10
-246.3141770870384
 20
-249.0060555555618
 11
-247.790010348048
 21
-249.0060555555618
 72
     2
 10
-247.790010348048
 20
-249.321772478638
 40
0.3157169230761951
 50
90.0
 51
180.0
 73
     1
 72
     1
 10
-248.1057272711237
 20
-249.321772478638
 11
-248.1057272711237
 21
-253.6782275213551
 97
       12
330
2DB
330
293
330
2DE
330
28E
330
2EB
330
2EC
330
2DD
330
28D
330
2DC
330
28C
330
2ED
330
28B
 75
     1
 76
     0
 52
45.0
 41
0.1
 77
     0
 78
     1
 53
45.0
 43
0.0
 44
0.0
 45
-0.0707106781186548
 46
0.0707106781186548
 79
     0
 98
        1
 10
0.0
 20
0.0
  0
HATCH
  5
342
330
71
100
AcDbEntity
  8
1
  6
Continuous
 62
     2
100
AcDbHatch
 10
0.0
 20
0.0
 30
0.0
210
0.0
220
0.0
230
1.0
  2
_USER
 70
     0
 71
     1
 91
        4
 92
        1
 93
        8
 72
     1
 10
-242.4863483186938
 20
-248.7177446154052
 11
-242.4863483186938
 21
-254.2822553846054
 72
     2
 10
-242.9105929340777
 20
-254.2822553846054
 40
0.4242446153832873
 50
0.0
 51
90.0
 73
     0
 72
     1
 10
-242.9105929340777
 20
-254.7064999999887
 11
-248.3839050247945
 21
-254.7064999999887
 72
     2
 10
-248.3839050247945
 20
-254.2822553846054
 40
0.4242446153828041
 50
90.0
 51
180.0
 73
     0
 72
     1
 10
-248.8081496401773
 20
-254.2822553846054
 11
-248.8081496401773
 21
-248.7177446154052
 72
     2
 10
-248.3839050247945
 20
-248.7177446154052
 40
0.4242446153837989
 50
180.0
 51
270.0
 73
     0
 72
     1
 10
-248.3839050247945
 20
-248.2935000000214
 11
-242.9105929340777
 21
-248.2935000000214
 72
     2
 10
-242.9105929340777
 20
-248.7177446154052
 40
0.4242446153838841
 50
270.0
 51
360.0
 73
     0
 97
        8
330
291
330
2DF
330
292
330
2EA
330
28F
330
2E1
330
290
330
2E0
 92
       16
 93
        1
 72
     2
 10
-245.764319374277
 20
-251.0366268437607
 40
0.4709789327785074
 50
0.0
 51
360.0
 73
     1
 97
        1
330
305
 92
       16
 93
        8
 72
     2
 10
-245.2144616615163
 20
-252.1457684437291
 40
0.3157169230765328
 50
115.3740086783519
 51
180.0
 73
     1
 72
     1
 10
-245.5301785845931
 20
-252.1457684437291
 11
-245.5301785845931
 21
-252.7276198504242
 72
     2
 10
-245.2144616615163
 20
-252.7276198504242
 40
0.315716923076792
 50
180.0
 51
269.8110329574542
 73
     1
 72
     2
 10
-245.2088455262063
 20
-251.0247849028552
 40
2.018561131933266
 50
269.8110329575858
 51
450.1889670424142
 73
     1
 72
     2
 10
-245.2144616615163
 20
-249.3219499552861
 40
0.3157169230760711
 50
90.18896704254594
 51
180.0
 73
     1
 72
     1
 10
-245.5301785845931
 20
-249.3219499552861
 11
-245.5301785845931
 21
-249.9274852437929
 72
     2
 10
-245.2144616615163
 20
-249.9274852437929
 40
0.315716923076792
 50
180.0
 51
244.6259913216482
 73
     1
 72
     2
 10
-245.7405043596042
 20
-251.0366268437607
 40
0.911848150144459
 50
295.3740086781925
 51
424.6259913218236
 73
     0
 97
        8
330
2F7
330
258
330
2F4
330
2F5
330
2D3
330
257
330
2F6
330
2D2
 92
       16
 93
       12
 72
     2
 10
-247.790010348048
 20
-253.6782275213551
 40
0.3157169230756836
 50
180.0
 51
270.0
 73
     1
 72
     1
 10
-247.790010348048
 20
-253.9939444444318
 11
-246.3141770870384
 21
-253.9939444444318
 72
     2
 10
-246.3141770870384
 20
-253.6782275213551
 40
0.3157169230767067
 50
270.0
 51
360.0
 73
     1
 72
     1
 10
-245.9984601639618
 20
-253.6782275213551
 11
-245.9984601639618
 21
-252.1474565898235
 72
     2
 10
-246.3141770870384
 20
-252.1474565898235
 40
0.315716923076593
 50
0.0
 51
64.80558935146027
 73
     1
 72
     2
 10
-245.7915926394634
 20
-251.0366268437607
 40
0.9118975235576147
 50
115.1944106485122
 51
244.8055893514718
 73
     0
 72
     2
 10
-246.3141770870384
 20
-249.9257970976985
 40
0.3157169230761203
 50
295.1944106485397
 51
360.0
 73
     1
 72
     1
 10
-245.9984601639618
 20
-249.9257970976985
 11
-245.9984601639618
 21
-249.321772478638
 72
     2
 10
-246.3141770870384
 20
-249.321772478638
 40
0.315716923076593
 50
0.0
 51
90.0
 73
     1
 72
     1
 10
-246.3141770870384
 20
-249.0060555555618
 11
-247.790010348048
 21
-249.0060555555618
 72
     2
 10
-247.790010348048
 20
-249.321772478638
 40
0.3157169230761951
 50
90.0
 51
180.0
 73
     1
 72
     1
 10
-248.1057272711237
 20
-249.321772478638
 11
-248.1057272711237
 21
-253.6782275213551
 97
       12
330
2DB
330
293
330
2DE
330
28E
330
2EB
330
2EC
330
2DD
330
28D
330
2DC
330
28C
330
2ED
330
28B
 75
     1
 76
     0
 52
45.0
 41
0.1
 77
     0
 78
     1
 53
45.0
 43
0.0
 44
0.0
 45
-0.0707106781186548
 46
0.0707106781186548
 79
     0
 98
        1
 10
0.0
 20
0.0
  0
HATCH
  5
343
330
71
100
AcDbEntity
  8
1
  6
Continuous
 62
     2
100
AcDbHatch
 10
0.0
 20
0.0
 30
0.0
210
0.0
220
0.0
230
1.0
  2
_USER
 70
     0
 71
     1
 91
        1
 92
        1
 93
       18
 72
     1
 10
-220.8968004094728
 20
-252.4379557823012
 11
-221.7078994469462
 21
-252.4379557823012
 72
     1
 10
-221.7078994469462
 20
-252.4379557823012
 11
-221.7078994469462
 21
-254.7064999999887
 72
     1
 10
-221.7078994469462
 20
-254.7064999999887
 11
-222.9006921491139
 21
-254.7064999999887
 72
     1
 10
-222.9006921491139
 20
-254.7064999999887
 11
-222.9006921491139
 21
-252.4379557823012
 72
     1
 10
-222.9006921491139
 20
-252.4379557823012
 11
-224.004331448682
 21
-252.4379557823012
 72
     2
 10
-224.004331448682
 20
-253.3924787891273
 40
0.9545230068260935
 50
90.0
 51
109.337143219432
 73
     1
 72
     2
 10
-224.1510014467857
 20
-252.9745238087444
 40
0.5115800601944143
 50
109.3371432194853
 51
151.4785267424225
 73
     1
 72
     2
 10
-223.7736441887043
 20
-253.1795952380834
 40
0.9410597353348924
 50
151.4785267423624
 51
208.5214732576695
 73
     1
 72
     2
 10
-224.1510014467857
 20
-253.3846666674219
 40
0.5115800601960215
 50
208.5214732576866
 51
246.6277221118449
 73
     1
 72
     2
 10
-223.9945614140826
 20
-253.0226746487119
 40
0.9059297849852801
 50
246.6277221118183
 51
288.4480761180817
 73
     1
 72
     2
 10
-224.4127291477445
 20
-251.7691288726753
 40
2.227384008972746
 50
288.4480761181335
 51
301.9309089499397
 73
     1
 72
     1
 10
-223.2346741057206
 20
-253.6594795918251
 11
-223.2346741057206
 21
-254.5319965986284
 72
     2
 10
-224.5706020228373
 20
-249.866914292827
 40
4.852596863498825
 50
74.02000874166129
 51
84.84185523036365
 73
     0
 72
     2
 10
-224.2817459281015
 20
-253.0668048760486
 40
1.639695123940448
 50
84.8418552303238
 51
164.9381082228988
 73
     0
 72
     2
 10
-224.7008737715631
 20
-253.1795952380834
 40
1.205656168393002
 50
164.9381082229041
 51
195.0618917770972
 73
     0
 72
     2
 10
-224.2817459281015
 20
-253.2923856001183
 40
1.639695123940214
 50
195.061891777105
 51
270.0
 73
     0
 72
     1
 10
-224.2817459281015
 20
-251.6526904761781
 11
-220.8968004094728
 21
-251.6526904761776
 72
     1
 10
-220.8968004094728
 20
-251.6526904761776
 11
-220.8968004094728
 21
-252.4379557823012
 97
       18
330
25A
330
2F0
330
2F1
330
2D9
330
2D8
330
2BE
330
2D7
330
2D6
330
2F2
330
2D5
330
2F3
330
2D4
330
2BF
330
259
330
25E
330
25D
330
25C
330
25B
 75
     1
 76
     0
 52
45.0
 41
0.1
 77
     0
 78
     1
 53
45.0
 43
0.0
 44
0.0
 45
-0.0707106781186548
 46
0.0707106781186548
 79
     0
 98
        1
 10
0.0
 20
0.0
  0
HATCH
  5
344
330
71
100
AcDbEntity
  8
1
  6
Continuous
 62
     2
100
AcDbHatch
 10
0.0
 20
0.0
 30
0.0
210
0.0
220
0.0
230
1.0
  2
_USER
 70
     0
 71
     1
 91
        1
 92
        1
 93
       18
 72
     1
 10
-220.8968004094728
 20
-252.4379557823012
 11
-221.7078994469462
 21
-252.4379557823012
 72
     1
 10
-221.7078994469462
 20
-252.4379557823012
 11
-221.7078994469462
 21
-254.7064999999887
 72
     1
 10
-221.7078994469462
 20
-254.7064999999887
 11
-222.9006921491139
 21
-254.7064999999887
 72
     1
 10
-222.9006921491139
 20
-254.7064999999887
 11
-222.9006921491139
 21
-252.4379557823012
 72
     1
 10
-222.9006921491139
 20
-252.4379557823012
 11
-224.004331448682
 21
-252.4379557823012
 72
     2
 10
-224.004331448682
 20
-253.3924787891273
 40
0.9545230068260935
 50
90.0
 51
109.337143219432
 73
     1
 72
     2
 10
-224.1510014467857
 20
-252.9745238087444
 40
0.5115800601944143
 50
109.3371432194853
 51
151.4785267424225
 73
     1
 72
     2
 10
-223.7736441887043
 20
-253.1795952380834
 40
0.9410597353348924
 50
151.4785267423624
 51
208.5214732576695
 73
     1
 72
     2
 10
-224.1510014467857
 20
-253.3846666674219
 40
0.5115800601960215
 50
208.5214732576866
 51
246.6277221118449
 73
     1
 72
     2
 10
-223.9945614140826
 20
-253.0226746487119
 40
0.9059297849852801
 50
246.6277221118183
 51
288.4480761180817
 73
     1
 72
     2
 10
-224.4127291477445
 20
-251.7691288726753
 40
2.227384008972746
 50
288.4480761181335
 51
301.9309089499397
 73
     1
 72
     1
 10
-223.2346741057206
 20
-253.6594795918251
 11
-223.2346741057206
 21
-254.5319965986284
 72
     2
 10
-224.5706020228373
 20
-249.866914292827
 40
4.852596863498825
 50
74.02000874166129
 51
84.84185523036365
 73
     0
 72
     2
 10
-224.2817459281015
 20
-253.0668048760486
 40
1.639695123940448
 50
84.8418552303238
 51
164.9381082228988
 73
     0
 72
     2
 10
-224.7008737715631
 20
-253.1795952380834
 40
1.205656168393002
 50
164.9381082229041
 51
195.0618917770972
 73
     0
 72
     2
 10
-224.2817459281015
 20
-253.2923856001183
 40
1.639695123940214
 50
195.061891777105
 51
270.0
 73
     0
 72
     1
 10
-224.2817459281015
 20
-251.6526904761781
 11
-220.8968004094728
 21
-251.6526904761776
 72
     1
 10
-220.8968004094728
 20
-251.6526904761776
 11
-220.8968004094728
 21
-252.4379557823012
 97
       18
330
25A
330
2F0
330
2F1
330
2D9
330
2D8
330
2BE
330
2D7
330
2D6
330
2F2
330
2D5
330
2F3
330
2D4
330
2BF
330
259
330
25E
330
25D
330
25C
330
25B
 75
     1
 76
     0
 52
45.0
 41
0.1
 77
     0
 78
     1
 53
45.0
 43
0.0
 44
0.0
 45
-0.0707106781186548
 46
0.0707106781186548
 79
     0
 98
        1
 10
0.0
 20
0.0
  0
HATCH
  5
345
330
71
100
AcDbEntity
  8
1
  6
Continuous
 62
     2
100
AcDbHatch
 10
0.0
 20
0.0
 30
0.0
210
0.0
220
0.0
230
1.0
  2
_USER
 70
     0
 71
     1
 91
        1
 92
        1
 93
       14
 72
     2
 10
-240.3844474073544
 20
-253.2923856001183
 40
1.639695123940507
 50
84.84185523036236
 51
164.9381082228864
 73
     1
 72
     2
 10
-240.8035752508172
 20
-253.1795952380834
 40
1.205656168390944
 50
164.9381082228765
 51
195.0618917770948
 73
     1
 72
     2
 10
-240.3844474073544
 20
-253.0668048760486
 40
1.639695123939387
 50
195.0618917770896
 51
275.1581447696395
 73
     1
 72
     2
 10
-240.6733035020903
 20
-249.866914292827
 40
4.852596863498138
 50
275.1581447696249
 51
285.9799912583529
 73
     1
 72
     1
 10
-239.3373755849725
 20
-254.5319965986278
 11
-239.3373755849725
 21
-253.6594795918246
 72
     2
 10
-240.5154306269974
 20
-251.7691288726747
 40
2.227384008972737
 50
58.0690910500407
 51
71.55192388186722
 73
     0
 72
     2
 10
-240.0972628933366
 20
-253.0226746487119
 40
0.9059297849849192
 50
71.55192388184153
 51
113.372277888129
 73
     0
 72
     2
 10
-240.2537029260386
 20
-253.3846666674219
 40
0.5115800601948034
 50
113.3722778881726
 51
151.4785267423044
 73
     0
 72
     2
 10
-239.8763456679583
 20
-253.1795952380834
 40
0.9410597353332545
 50
151.4785267422943
 51
208.5214732577331
 73
     0
 72
     2
 10
-240.2537029260386
 20
-252.9745238087444
 40
0.5115800601948779
 50
208.5214732576956
 51
246.6277221118009
 73
     0
 72
     2
 10
-240.0972628933366
 20
-253.336515827455
 40
0.9059297849853228
 50
246.627722111871
 51
288.4480761181465
 73
     0
 72
     2
 10
-240.5154306269974
 20
-254.5900616034916
 40
2.227384008973478
 50
288.4480761181328
 51
301.9309089499592
 73
     0
 72
     1
 10
-239.3373755849725
 20
-252.6997108843417
 11
-239.3373755849725
 21
-251.8271938775384
 72
     2
 10
-240.6733035020903
 20
-256.4922761833393
 40
4.852596863498068
 50
74.02000874164739
 51
84.84185523037506
 73
     1
 97
       14
330
2F8
330
2F9
330
2FA
330
2FB
330
2C0
330
2D1
330
2D0
330
2CF
330
2FC
330
2FD
330
2CE
330
2FE
330
2C1
330
2CD
 75
     1
 76
     0
 52
45.0
 41
0.1
 77
     0
 78
     1
 53
45.0
 43
0.0
 44
0.0
 45
-0.0707106781186548
 46
0.0707106781186548
 79
     0
 98
        1
 10
0.0
 20
0.0
  0
HATCH
  5
346
330
71
100
AcDbEntity
  8
1
  6
Continuous
 62
     2
100
AcDbHatch
 10
0.0
 20
0.0
 30
0.0
210
0.0
220
0.0
230
1.0
  2
_USER
 70
     0
 71
     1
 91
        1
 92
        1
 93
       14
 72
     2
 10
-240.3844474073544
 20
-253.2923856001183
 40
1.639695123940507
 50
84.84185523036236
 51
164.9381082228864
 73
     1
 72
     2
 10
-240.8035752508172
 20
-253.1795952380834
 40
1.205656168390944
 50
164.9381082228765
 51
195.0618917770948
 73
     1
 72
     2
 10
-240.3844474073544
 20
-253.0668048760486
 40
1.639695123939387
 50
195.0618917770896
 51
275.1581447696395
 73
     1
 72
     2
 10
-240.6733035020903
 20
-249.866914292827
 40
4.852596863498138
 50
275.1581447696249
 51
285.9799912583529
 73
     1
 72
     1
 10
-239.3373755849725
 20
-254.5319965986278
 11
-239.3373755849725
 21
-253.6594795918246
 72
     2
 10
-240.5154306269974
 20
-251.7691288726747
 40
2.227384008972737
 50
58.0690910500407
 51
71.55192388186722
 73
     0
 72
     2
 10
-240.0972628933366
 20
-253.0226746487119
 40
0.9059297849849192
 50
71.55192388184153
 51
113.372277888129
 73
     0
 72
     2
 10
-240.2537029260386
 20
-253.3846666674219
 40
0.5115800601948034
 50
113.3722778881726
 51
151.4785267423044
 73
     0
 72
     2
 10
-239.8763456679583
 20
-253.1795952380834
 40
0.9410597353332545
 50
151.4785267422943
 51
208.5214732577331
 73
     0
 72
     2
 10
-240.2537029260386
 20
-252.9745238087444
 40
0.5115800601948779
 50
208.5214732576956
 51
246.6277221118009
 73
     0
 72
     2
 10
-240.0972628933366
 20
-253.336515827455
 40
0.9059297849853228
 50
246.627722111871
 51
288.4480761181465
 73
     0
 72
     2
 10
-240.5154306269974
 20
-254.5900616034916
 40
2.227384008973478
 50
288.4480761181328
 51
301.9309089499592
 73
     0
 72
     1
 10
-239.3373755849725
 20
-252.6997108843417
 11
-239.3373755849725
 21
-251.8271938775384
 72
     2
 10
-240.6733035020903
 20
-256.4922761833393
 40
4.852596863498068
 50
74.02000874164739
 51
84.84185523037506
 73
     1
 97
       14
330
2F8
330
2F9
330
2FA
330
2FB
330
2C0
330
2D1
330
2D0
330
2CF
330
2FC
330
2FD
330
2CE
330
2FE
330
2C1
330
2CD
 75
     1
 76
     0
 52
45.0
 41
0.1
 77
     0
 78
     1
 53
45.0
 43
0.0
 44
0.0
 45
-0.0707106781186548
 46
0.0707106781186548
 79
     0
 98
        1
 10
0.0
 20
0.0
  0
ENDBLK
  5
73
330
71
100
AcDbEntity
  8
0
100
AcDbBlockEnd
  0
BLOCK
  5
75
330
74
100
AcDbEntity
  8
0
100
AcDbBlockBegin
  2
_punkt
 70
     0
 10
-123.4999999999899
 20
-262.000000000005
 30
0.0
  3
_punkt
  1

  0
LINE
  5
347
330
74
100
AcDbEntity
  8
1
  6
Continuous
 62
     2
100
AcDbLine
 10
-123.4999999999899
 20
-262.000000000005
 30
0.0
 11
-118.4999999999909
 21
-262.000000000005
 31
0.0
  0
LINE
  5
348
330
74
100
AcDbEntity
  8
1
  6
Continuous
 62
     2
100
AcDbLine
 10
-123.4999999999899
 20
-262.000000000005
 30
0.0
 11
-123.4999999999899
 21
-267.0000000000051
 31
0.0
  0
ENDBLK
  5
76
330
74
100
AcDbEntity
  8
0
100
AcDbBlockEnd
  0
BLOCK
  5
7A
330
77
100
AcDbEntity
  8
0
100
AcDbBlockBegin
  2
A4I_CS
 70
     0
 10
-123.4999999999899
 20
-267.0000000000051
 30
0.0
  3
A4I_CS
  1

  0
INSERT
  5
78
330
77
100
AcDbEntity
  8
1
100
AcDbBlockReference
  2
_rahmen
 10
-123.4999999999899
 20
-267.0000000000051
 30
0.0
  0
INSERT
  5
79
330
77
100
AcDbEntity
  8
1
100
AcDbBlockReference
  2
_punkt
 10
-123.4999999999899
 20
-262.000000000005
 30
0.0
  0
ENDBLK
  5
7B
330
77
100
AcDbEntity
  8
0
100
AcDbBlockEnd
  0
BLOCK
  5
84
330
7C
100
AcDbEntity
  8
0
100
AcDbBlockBegin
  2
1
 70
     0
 10
0.0
 20
0.0
 30
0.0
  3
1
  1

  0
INSERT
  5
7D
330
7C
100
AcDbEntity
  8
0
100
AcDbBlockReference
  2
SA_Links1
 10
-249.99999999996
 20
-105.99999999998
 30
0.0
  0
INSERT
  5
7E
330
7C
100
AcDbEntity
  8
0
100
AcDbBlockReference
  2
Drfsicht1
 10
-301.250000046256
 20
-174.7179443278492
 30
0.0
  0
INSERT
  5
7F
330
7C
100
AcDbEntity
  8
0
100
AcDbBlockReference
  2
Vordans1
 10
-301.2499991157442
 20
-105.99999999999
 30
0.0
  0
INSERT
  5
80
330
7C
100
AcDbEntity
  8
0
100
AcDbBlockReference
  2
SA_Rechts1
 10
-367.5000000694186
 20
-105.99999999999
 30
0.0
  0
INSERT
  5
81
330
7C
100
AcDbEntity
  8
0
100
AcDbBlockReference
  2
Rckans1
 10
-198.7500010463258
 20
-105.99999999999
 30
0.0
  0
INSERT
  5
82
330
7C
100
AcDbEntity
  8
0
100
AcDbBlockReference
  2
Allg1
 10
-155.1232423444443
 20
-199.000000000009
 30
0.0
  0
INSERT
  5
83
330
7C
100
AcDbEntity
  8
0
100
AcDbBlockReference
  2
A4I_CS
 10
-123.4999999999899
 20
-267.0000000000051
 30
0.0
  0
ENDBLK
  5
85
330
7C
100
AcDbEntity
  8
0
100
AcDbBlockEnd
  0
BLOCK
  5
10A
330
103
100
AcDbEntity
  8
0
100
AcDbBlockBegin
  2
*D17
 70
     1
 10
0.0
 20
0.0
 30
0.0
  3
*D17
  1

  0
LINE
  5
104
330
103
100
AcDbEntity
  8
1
  6
Continuous
 62
     2
100
AcDbLine
 10
-321.890909615653
 20
-153.7179443278693
 30
0.0
 11
-321.890909615653
 21
-195.7179443278693
 31
0.0
  0
LINE
  5
105
330
103
100
AcDbEntity
  8
1
  6
Continuous
 62
     2
100
AcDbLine
 10
-309.5000006184256
 20
-153.7179443278693
 30
0.0
 11
-323.390909615653
 21
-153.7179443278693
 31
0.0
  0
LINE
  5
106
330
103
100
AcDbEntity
  8
1
  6
Continuous
 62
     2
100
AcDbLine
 10
-309.5000006184256
 20
-195.7179443278693
 30
0.0
 11
-323.390909615653
 21
-195.7179443278693
 31
0.0
  0
SOLID
  5
107
330
103
100
AcDbEntity
  8
1
 62
     2
100
AcDbTrace
 10
-321.4301258740971
 20
-157.2179443278693
 30
0.0
 11
-322.3516933572089
 21
-157.2179443278693
 31
0.0
 12
-321.890909615653
 22
-153.7179443278693
 32
0.0
 13
-321.890909615653
 23
-153.7179443278693
 33
0.0
  0
SOLID
  5
108
330
103
100
AcDbEntity
  8
1
 62
     2
100
AcDbTrace
 10
-322.3516933572089
 20
-192.2179443278693
 30
0.0
 11
-321.4301258740971
 21
-192.2179443278693
 31
0.0
 12
-321.890909615653
 22
-195.7179443278693
 32
0.0
 13
-321.890909615653
 23
-195.7179443278693
 33
0.0
  0
MTEXT
  5
109
330
103
100
AcDbEntity
  8
1
 62
     3
100
AcDbMText
 10
-323.390909615653
 20
-176.0750078444694
 30
0.0
 40
3.5
 41
0.0
 71
     7
 72
     1
  1
42
  7
CONVERTER_11
 11
0.0
 21
1.0
 31
0.0
 73
     1
 44
0.60024009603842
  0
ENDBLK
  5
10B
330
103
100
AcDbEntity
  8
0
100
AcDbBlockEnd
  0
BLOCK
  5
13A
330
133
100
AcDbEntity
  8
0
100
AcDbBlockBegin
  2
*D18
 70
     1
 10
0.0
 20
0.0
 30
0.0
  3
*D18
  1

  0
LINE
  5
134
330
133
100
AcDbEntity
  8
1
  6
Continuous
 62
     2
100
AcDbLine
 10
-321.4999996879138
 20
-98.99999999997998
 30
0.0
 11
-321.4999996879138
 21
-112.99999999998
 31
0.0
  0
LINE
  5
135
330
133
100
AcDbEntity
  8
1
  6
Continuous
 62
     2
100
AcDbLine
 10
-310.4999996879138
 20
-98.99999999997998
 30
0.0
 11
-322.9999996879138
 21
-98.99999999997998
 31
0.0
  0
LINE
  5
136
330
133
100
AcDbEntity
  8
1
  6
Continuous
 62
     2
100
AcDbLine
 10
-311.4999996879138
 20
-112.99999999998
 30
0.0
 11
-322.9999996879138
 21
-112.99999999998
 31
0.0
  0
SOLID
  5
137
330
133
100
AcDbEntity
  8
1
 62
     2
100
AcDbTrace
 10
-321.039215946358
 20
-102.49999999998
 30
0.0
 11
-321.9607834294697
 21
-102.49999999998
 31
0.0
 12
-321.4999996879138
 22
-98.99999999997998
 32
0.0
 13
-321.4999996879138
 23
-98.99999999997998
 33
0.0
  0
SOLID
  5
138
330
133
100
AcDbEntity
  8
1
 62
     2
100
AcDbTrace
 10
-321.9607834294697
 20
-109.49999999998
 30
0.0
 11
-321.039215946358
 21
-109.49999999998
 31
0.0
 12
-321.4999996879138
 22
-112.99999999998
 32
0.0
 13
-321.4999996879138
 23
-112.99999999998
 33
0.0
  0
MTEXT
  5
139
330
133
100
AcDbEntity
  8
1
 62
     3
100
AcDbMText
 10
-322.9999996879138
 20
-108.085312540079
 30
0.0
 40
3.5
 41
0.0
 71
     7
 72
     1
  1
14
  7
CONVERTER_11
 11
0.0
 21
1.0
 31
0.0
 73
     1
 44
0.60024009603842
  0
ENDBLK
  5
13B
330
133
100
AcDbEntity
  8
0
100
AcDbBlockEnd
  0
BLOCK
  5
145
330
13E
100
AcDbEntity
  8
0
100
AcDbBlockBegin
  2
*D19
 70
     1
 10
0.0
 20
0.0
 30
0.0
  3
*D19
  1

  0
LINE
  5
13F
330
13E
100
AcDbEntity
  8
1
  6
Continuous
 62
     2
100
AcDbLine
 10
-311.4999996879138
 20
-122.99999999998
 30
0.0
 11
-290.9999996879138
 21
-122.99999999998
 31
0.0
  0
LINE
  5
140
330
13E
100
AcDbEntity
  8
1
  6
Continuous
 62
     2
100
AcDbLine
 10
-311.4999996879138
 20
-112.99999999998
 30
0.0
 11
-311.4999996879138
 21
-124.49999999998
 31
0.0
  0
LINE
  5
141
330
13E
100
AcDbEntity
  8
1
  6
Continuous
 62
     2
100
AcDbLine
 10
-290.9999996879138
 20
-112.99999999998
 30
0.0
 11
-290.9999996879138
 21
-124.49999999998
 31
0.0
  0
SOLID
  5
142
330
13E
100
AcDbEntity
  8
1
 62
     2
100
AcDbTrace
 10
-307.9999996879138
 20
-122.5392162584241
 30
0.0
 11
-307.9999996879138
 21
-123.4607837415359
 31
0.0
 12
-311.4999996879138
 22
-122.99999999998
 32
0.0
 13
-311.4999996879138
 23
-122.99999999998
 33
0.0
  0
SOLID
  5
143
330
13E
100
AcDbEntity
  8
1
 62
     2
100
AcDbTrace
 10
-294.4999996879138
 20
-123.4607837415359
 30
0.0
 11
-294.4999996879138
 21
-122.5392162584241
 31
0.0
 12
-290.9999996879138
 22
-122.99999999998
 32
0.0
 13
-290.9999996879138
 23
-122.99999999998
 33
0.0
  0
MTEXT
  5
144
330
13E
100
AcDbEntity
  8
1
 62
     3
100
AcDbMText
 10
-306.0624991157442
 20
-121.14999999998
 30
0.0
 40
3.5
 41
0.0
 71
     7
 72
     1
  1
20,5
  7
CONVERTER_11
 11
0.9999999999970619
 21
2.424068405545306E-6
 31
0.0
 73
     1
 44
0.60024009603842
  0
ENDBLK
  5
146
330
13E
100
AcDbEntity
  8
0
100
AcDbBlockEnd
  0
ENDSEC
  0
SECTION
  2
ENTITIES
  0
INSERT
  5
86
330
1F
100
AcDbEntity
  8
1
100
AcDbBlockReference
  2
1
 10
0.0
 20
0.0
 30
0.0
  0
ENDSEC
  0
SECTION
  2
OBJECTS
  0
DICTIONARY
  5
C
330
0
100
AcDbDictionary
281
     1
  3
ACAD_GROUP
350
D
  3
ACAD_LAYOUT
350
1A
  3
ACAD_MATERIAL
350
3B
  3
ACAD_MLEADERSTYLE
350
370
  3
ACAD_MLINESTYLE
350
17
  3
ACAD_PLOTSETTINGS
350
19
  3
ACAD_PLOTSTYLENAME
350
E
  3
ACAD_TABLESTYLE
350
36F
  3
ACAD_VISUALSTYLE
350
2A
  0
DICTIONARY
  5
D
102
{ACAD_REACTORS
330
C
102
}
330
C
100
AcDbDictionary
281
     1
  0
DICTIONARY
  5
1A
102
{ACAD_REACTORS
330
C
102
}
330
C
100
AcDbDictionary
281
     1
  3
Layout1
350
1E
  3
Layout2
350
26
  3
Model
350
22
  0
DICTIONARY
  5
3B
102
{ACAD_REACTORS
330
C
102
}
330
C
100
AcDbDictionary
281
     1
  3
ByBlock
350
3D
  3
ByLayer
350
3C
  3
Global
350
3E
  0
DICTIONARY
  5
370
102
{ACAD_REACTORS
330
C
102
}
330
C
100
AcDbDictionary
281
     1
  0
DICTIONARY
  5
17
102
{ACAD_REACTORS
330
C
102
}
330
C
100
AcDbDictionary
281
     1
  3
Standard
350
18
  0
DICTIONARY
  5
19
102
{ACAD_REACTORS
330
C
102
}
330
C
100
AcDbDictionary
281
     1
  0
ACDBDICTIONARYWDFLT
  5
E
102
{ACAD_REACTORS
330
C
102
}
330
C
100
AcDbDictionary
281
     1
  3
Normal
350
F
100
AcDbDictionaryWithDefault
340
F
  0
DICTIONARY
  5
36F
102
{ACAD_REACTORS
330
C
102
}
330
C
100
AcDbDictionary
281
     1
  0
DICTIONARY
  5
2A
102
{ACAD_REACTORS
330
C
102
}
330
C
100
AcDbDictionary
281
     1
  3
2dWireframe
350
2F
  3
3D Hidden
350
31
  3
3dWireframe
350
30
  3
Basic
350
32
  3
Brighten
350
36
  3
ColorChange
350
3A
  3
Conceptual
350
34
  3
Dim
350
35
  3
Facepattern
350
39
  3
Flat
350
2B
  3
FlatWithEdges
350
2C
  3
Gouraud
350
2D
  3
GouraudWithEdges
350
2E
  3
Linepattern
350
38
  3
Realistic
350
33
  3
Thicken
350
37
  0
LAYOUT
  5
1E
102
{ACAD_REACTORS
330
1A
102
}
330
1A
100
AcDbPlotSettings
  1

  2
none_device
  4

  6

 40
0.0
 41
0.0
 42
0.0
 43
0.0
 44
0.0
 45
0.0
 46
0.0
 47
0.0
 48
0.0
 49
0.0
140
0.0
141
0.0
142
1.0
143
1.0
 70
   688
 72
     0
 73
     0
 74
     5
  7

 75
    16
 76
     0
 77
     2
 78
   300
147
1.0
148
0.0
149
0.0
100
AcDbLayout
  1
Layout1
 70
     1
 71
     1
 10
0.0
 20
0.0
 11
12.0
 21
9.0
 12
0.0
 22
0.0
 32
0.0
 14
1.00000000000000E+20
 24
1.00000000000000E+20
 34
1.00000000000000E+20
 15
-1.00000000000000E+20
 25
-1.00000000000000E+20
 35
-1.00000000000000E+20
146
0.0
 13
0.0
 23
0.0
 33
0.0
 16
1.0
 26
0.0
 36
0.0
 17
0.0
 27
1.0
 37
0.0
 76
     0
330
1B
  0
LAYOUT
  5
26
102
{ACAD_REACTORS
330
1A
102
}
330
1A
100
AcDbPlotSettings
  1

  2
none_device
  4

  6

 40
0.0
 41
0.0
 42
0.0
 43
0.0
 44
0.0
 45
0.0
 46
0.0
 47
0.0
 48
0.0
 49
0.0
140
0.0
141
0.0
142
1.0
143
1.0
 70
   688
 72
     0
 73
     0
 74
     5
  7

 75
    16
 76
     0
 77
     2
 78
   300
147
1.0
148
0.0
149
0.0
100
AcDbLayout
  1
Layout2
 70
     1
 71
     2
 10
0.0
 20
0.0
 11
0.0
 21
0.0
 12
0.0
 22
0.0
 32
0.0
 14
0.0
 24
0.0
 34
0.0
 15
0.0
 25
0.0
 35
0.0
146
0.0
 13
0.0
 23
0.0
 33
0.0
 16
1.0
 26
0.0
 36
0.0
 17
0.0
 27
1.0
 37
0.0
 76
     0
330
23
  0
LAYOUT
  5
22
102
{ACAD_REACTORS
330
1A
102
}
330
1A
100
AcDbPlotSettings
  1

  2
none_device
  4

  6

 40
0.0
 41
0.0
 42
0.0
 43
0.0
 44
0.0
 45
0.0
 46
0.0
 47
0.0
 48
0.0
 49
0.0
140
0.0
141
0.0
142
1.0
143
1.0
 70
  1712
 72
     0
 73
     0
 74
     0
  7

 75
     0
 76
     0
 77
     2
 78
   300
147
1.0
148
0.0
149
0.0
100
AcDbLayout
  1
Model
 70
     1
 71
     0
 10
0.0
 20
0.0
 11
12.0
 21
9.0
 12
0.0
 22
0.0
 32
0.0
 14
-415.499999999989
 24
-267.0000000000051
 34
0.0
 15
-118.4999999999909
 25
-57.000000000005
 35
0.0
146
0.0
 13
0.0
 23
0.0
 33
0.0
 16
1.0
 26
0.0
 36
0.0
 17
0.0
 27
1.0
 37
0.0
 76
     0
330
1F
331
29
  0
MATERIAL
  5
3D
102
{ACAD_REACTORS
330
3B
102
}
102
{ACAD_XDICTIONARY
360
36B
102
}
330
3B
100
AcDbMaterial
  1
ByBlock
  0
MATERIAL
  5
3C
102
{ACAD_REACTORS
330
3B
102
}
102
{ACAD_XDICTIONARY
360
369
102
}
330
3B
100
AcDbMaterial
  1
ByLayer
  0
MATERIAL
  5
3E
102
{ACAD_REACTORS
330
3B
102
}
102
{ACAD_XDICTIONARY
360
36D
102
}
330
3B
100
AcDbMaterial
  1
Global
  0
MLINESTYLE
  5
18
102
{ACAD_REACTORS
330
17
102
}
330
17
100
AcDbMlineStyle
  2
Standard
 70
     0
  3

 62
   256
 51
90.0
 52
90.0
 71
     2
 49
0.5
 62
   256
  6
BYLAYER
 49
-0.5
 62
   256
  6
BYLAYER
  0
ACDBPLACEHOLDER
  5
F
102
{ACAD_REACTORS
330
E
102
}
330
E
  0
VISUALSTYLE
  5
2F
102
{ACAD_REACTORS
330
2A
102
}
102
{ACAD_XDICTIONARY
360
351
102
}
330
2A
100
AcDbVisualStyle
  2
2dWireframe
 70
     4
 71
     0
 72
     2
 73
     0
 90
        0
 40
-0.6
 41
-30.0
 62
     5
 63
     7
421
 16777215
 74
     1
 91
        4
 64
     7
 65
   257
 75
     1
175
     1
 42
1.0
 92
        0
 66
   257
 43
1.0
 76
     1
 77
     6
 78
     2
 67
     7
 79
     5
170
     0
171
     0
290
     0
174
     0
 93
        1
 44
0.0
173
     0
291
     0
 45
0.0
1001
ACAD
1000
AcDbSavedByObjectVersion
1070
     0
  0
VISUALSTYLE
  5
31
102
{ACAD_REACTORS
330
2A
102
}
102
{ACAD_XDICTIONARY
360
355
102
}
330
2A
100
AcDbVisualStyle
  2
3D Hidden
 70
     6
 71
     1
 72
     2
 73
     2
 90
        0
 40
-0.6
 41
-30.0
 62
     5
 63
     7
421
 16777215
 74
     2
 91
        2
 64
     7
 65
   257
 75
     2
175
     1
 42
40.0
 92
        0
 66
   257
 43
1.0
 76
     1
 77
     6
 78
     2
 67
     7
 79
     3
170
     0
171
     0
290
     0
174
     0
 93
        1
 44
0.0
173
     0
291
     0
 45
0.0
1001
ACAD
1000
AcDbSavedByObjectVersion
1070
     0
  0
VISUALSTYLE
  5
30
102
{ACAD_REACTORS
330
2A
102
}
102
{ACAD_XDICTIONARY
360
353
102
}
330
2A
100
AcDbVisualStyle
  2
3dWireframe
 70
     5
 71
     0
 72
     2
 73
     0
 90
        0
 40
-0.6
 41
-30.0
 62
     5
 63
     7
421
 16777215
 74
     1
 91
        4
 64
     7
 65
   257
 75
     1
175
     1
 42
1.0
 92
        0
 66
   257
 43
1.0
 76
     1
 77
     6
 78
     2
 67
     7
 79
     5
170
     0
171
     0
290
     0
174
     0
 93
        1
 44
0.0
173
     0
291
     0
 45
0.0
1001
ACAD
1000
AcDbSavedByObjectVersion
1070
     0
  0
VISUALSTYLE
  5
32
102
{ACAD_REACTORS
330
2A
102
}
102
{ACAD_XDICTIONARY
360
357
102
}
330
2A
100
AcDbVisualStyle
  2
Basic
 70
     7
 71
     1
 72
     0
 73
     1
 90
        0
 40
-0.6
 41
-30.0
 62
     5
 63
     7
421
 16777215
 74
     0
 91
        4
 64
     7
 65
   257
 75
     1
175
     1
 42
1.0
 92
        8
 66
     7
 43
1.0
 76
     1
 77
     6
 78
     2
 67
     7
 79
     5
170
     0
171
     0
290
     0
174
     0
 93
        1
 44
0.0
173
     0
291
     1
 45
0.0
1001
ACAD
1000
AcDbSavedByObjectVersion
1070
     0
  0
VISUALSTYLE
  5
36
102
{ACAD_REACTORS
330
2A
102
}
102
{ACAD_XDICTIONARY
360
35F
102
}
330
2A
100
AcDbVisualStyle
  2
Brighten
 70
    12
 71
     2
 72
     2
 73
     0
 90
        0
 40
-0.6
 41
-30.0
 62
     5
 63
     7
421
 16777215
 74
     1
 91
        4
 64
     7
 65
   257
 75
     1
175
     1
 42
1.0
 92
        8
 66
     7
 43
1.0
 76
     1
 77
     6
 78
     2
 67
     7
 79
     5
170
     0
171
     0
290
     0
174
     0
 93
        1
 44
50.0
173
     0
291
     1
 45
0.0
1001
ACAD
1000
AcDbSavedByObjectVersion
1070
     0
  0
VISUALSTYLE
  5
3A
102
{ACAD_REACTORS
330
2A
102
}
102
{ACAD_XDICTIONARY
360
367
102
}
330
2A
100
AcDbVisualStyle
  2
ColorChange
 70
    16
 71
     2
 72
     2
 73
     3
 90
        0
 40
-0.6
 41
-30.0
 62
     5
 63
     8
421
  8421504
 74
     1
 91
        4
 64
     7
 65
   257
 75
     1
175
     1
 42
1.0
 92
        8
 66
     8
424
  8421504
 43
1.0
 76
     1
 77
     6
 78
     2
 67
     7
 79
     5
170
     0
171
     0
290
     0
174
     0
 93
        1
 44
0.0
173
     0
291
     1
 45
0.0
1001
ACAD
1000
AcDbSavedByObjectVersion
1070
     0
  0
VISUALSTYLE
  5
34
102
{ACAD_REACTORS
330
2A
102
}
102
{ACAD_XDICTIONARY
360
35B
102
}
330
2A
100
AcDbVisualStyle
  2
Conceptual
 70
     9
 71
     3
 72
     2
 73
     0
 90
        0
 40
-0.6
 41
-30.0
 62
     5
 63
     7
421
 16777215
 74
     2
 91
        2
 64
     7
 65
   257
 75
     1
175
     1
 42
40.0
 92
        8
 66
     7
 43
1.0
 76
     1
 77
     6
 78
     2
 67
     7
 79
     3
170
     0
171
     0
290
     0
174
     0
 93
        1
 44
0.0
173
     0
291
     0
 45
0.0
1001
ACAD
1000
AcDbSavedByObjectVersion
1070
     0
  0
VISUALSTYLE
  5
35
102
{ACAD_REACTORS
330
2A
102
}
102
{ACAD_XDICTIONARY
360
35D
102
}
330
2A
100
AcDbVisualStyle
  2
Dim
 70
    11
 71
     2
 72
     2
 73
     0
 90
        0
 40
-0.6
 41
-30.0
 62
     5
 63
     7
421
 16777215
 74
     1
 91
        4
 64
     7
 65
   257
 75
     1
175
     1
 42
1.0
 92
        8
 66
     7
 43
1.0
 76
     1
 77
     6
 78
     2
 67
     7
 79
     5
170
     0
171
     0
290
     0
174
     0
 93
        1
 44
-50.0
173
     0
291
     1
 45
0.0
1001
ACAD
1000
AcDbSavedByObjectVersion
1070
     0
  0
VISUALSTYLE
  5
39
102
{ACAD_REACTORS
330
2A
102
}
102
{ACAD_XDICTIONARY
360
365
102
}
330
2A
100
AcDbVisualStyle
  2
Facepattern
 70
    15
 71
     2
 72
     2
 73
     0
 90
        0
 40
-0.6
 41
-30.0
 62
     5
 63
     7
421
 16777215
 74
     1
 91
        4
 64
     7
 65
   257
 75
     1
175
     1
 42
1.0
 92
        8
 66
     7
 43
1.0
 76
     1
 77
     6
 78
     2
 67
     7
 79
     5
170
     0
171
     0
290
     0
174
     0
 93
        1
 44
0.0
173
     0
291
     1
 45
0.0
1001
ACAD
1000
AcDbSavedByObjectVersion
1070
     0
  0
VISUALSTYLE
  5
2B
102
{ACAD_REACTORS
330
2A
102
}
102
{ACAD_XDICTIONARY
360
349
102
}
330
2A
100
AcDbVisualStyle
  2
Flat
 70
     0
 71
     2
 72
     1
 73
     1
 90
        2
 40
-0.6
 41
30.0
 62
     5
 63
     7
421
 16777215
 74
     0
 91
        4
 64
     7
 65
   257
 75
     1
175
     1
 42
1.0
 92
        8
 66
     7
 43
1.0
 76
     1
 77
     6
 78
     2
 67
     7
 79
     5
170
     0
171
     0
290
     0
174
     0
 93
       13
 44
0.0
173
     0
291
     1
 45
0.0
1001
ACAD
1000
AcDbSavedByObjectVersion
1070
     0
  0
VISUALSTYLE
  5
2C
102
{ACAD_REACTORS
330
2A
102
}
102
{ACAD_XDICTIONARY
360
34B
102
}
330
2A
100
AcDbVisualStyle
  2
FlatWithEdges
 70
     1
 71
     2
 72
     1
 73
     1
 90
        2
 40
-0.6
 41
30.0
 62
     5
 63
     7
421
 16777215
 74
     1
 91
        4
 64
     7
 65
   257
 75
     1
175
     1
 42
1.0
 92
        0
 66
   257
 43
1.0
 76
     1
 77
     6
 78
     2
 67
     7
 79
     5
170
     0
171
     0
290
     0
174
     0
 93
       13
 44
0.0
173
     0
291
     1
 45
0.0
1001
ACAD
1000
AcDbSavedByObjectVersion
1070
     0
  0
VISUALSTYLE
  5
2D
102
{ACAD_REACTORS
330
2A
102
}
102
{ACAD_XDICTIONARY
360
34D
102
}
330
2A
100
AcDbVisualStyle
  2
Gouraud
 70
     2
 71
     2
 72
     2
 73
     1
 90
        2
 40
-0.6
 41
30.0
 62
     5
 63
     7
421
 16777215
 74
     0
 91
        4
 64
     7
 65
   257
 75
     1
175
     1
 42
1.0
 92
        0
 66
     7
 43
1.0
 76
     1
 77
     6
 78
     2
 67
     7
 79
     5
170
     0
171
     0
290
     0
174
     0
 93
       13
 44
0.0
173
     0
291
     1
 45
0.0
1001
ACAD
1000
AcDbSavedByObjectVersion
1070
     0
  0
VISUALSTYLE
  5
2E
102
{ACAD_REACTORS
330
2A
102
}
102
{ACAD_XDICTIONARY
360
34F
102
}
330
2A
100
AcDbVisualStyle
  2
GouraudWithEdges
 70
     3
 71
     2
 72
     2
 73
     1
 90
        2
 40
-0.6
 41
30.0
 62
     5
 63
     7
421
 16777215
 74
     1
 91
        4
 64
     7
 65
   257
 75
     1
175
     1
 42
1.0
 92
        0
 66
   257
 43
1.0
 76
     1
 77
     6
 78
     2
 67
     7
 79
     5
170
     0
171
     0
290
     0
174
     0
 93
       13
 44
0.0
173
     0
291
     1
 45
0.0
1001
ACAD
1000
AcDbSavedByObjectVersion
1070
     0
  0
VISUALSTYLE
  5
38
102
{ACAD_REACTORS
330
2A
102
}
102
{ACAD_XDICTIONARY
360
363
102
}
330
2A
100
AcDbVisualStyle
  2
Linepattern
 70
    14
 71
     2
 72
     2
 73
     0
 90
        0
 40
-0.6
 41
-30.0
 62
     5
 63
     7
421
 16777215
 74
     1
 91
        4
 64
     7
 65
   257
 75
     7
175
     7
 42
1.0
 92
        8
 66
     7
 43
1.0
 76
     1
 77
     6
 78
     2
 67
     7
 79
     5
170
     0
171
     0
290
     0
174
     0
 93
        1
 44
0.0
173
     0
291
     1
 45
0.0
1001
ACAD
1000
AcDbSavedByObjectVersion
1070
     0
  0
VISUALSTYLE
  5
33
102
{ACAD_REACTORS
330
2A
102
}
102
{ACAD_XDICTIONARY
360
359
102
}
330
2A
100
AcDbVisualStyle
  2
Realistic
 70
     8
 71
     2
 72
     2
 73
     0
 90
        0
 40
-0.6
 41
-30.0
 62
     5
 63
     7
421
 16777215
 74
     1
 91
        0
 64
     7
 65
   257
 75
     1
175
     1
 42
1.0
 92
        8
 66
     8
424
  7895160
 43
1.0
 76
     1
 77
     6
 78
     2
 67
     7
 79
     5
170
     0
171
     0
290
     0
174
     0
 93
       13
 44
0.0
173
     0
291
     0
 45
0.0
1001
ACAD
1000
AcDbSavedByObjectVersion
1070
     0
  0
VISUALSTYLE
  5
37
102
{ACAD_REACTORS
330
2A
102
}
102
{ACAD_XDICTIONARY
360
361
102
}
330
2A
100
AcDbVisualStyle
  2
Thicken
 70
    13
 71
     2
 72
     2
 73
     0
 90
        0
 40
-0.6
 41
-30.0
 62
     5
 63
     7
421
 16777215
 74
     1
 91
        4
 64
     7
 65
   257
 75
     1
175
     1
 42
1.0
 92
       12
 66
     7
 43
1.0
 76
     1
 77
     6
 78
     2
 67
     7
 79
     5
170
     0
171
     0
290
     0
174
     0
 93
        1
 44
0.0
173
     0
291
     1
 45
0.0
1001
ACAD
1000
AcDbSavedByObjectVersion
1070
     0
  0
DICTIONARY
  5
36B
330
3D
100
AcDbDictionary
280
     1
281
     1
  3
ACAD_XREC_ROUNDTRIP
360
36C
  0
DICTIONARY
  5
369
330
3C
100
AcDbDictionary
280
     1
281
     1
  3
ACAD_XREC_ROUNDTRIP
360
36A
  0
DICTIONARY
  5
36D
330
3E
100
AcDbDictionary
280
     1
281
     1
  3
ACAD_XREC_ROUNDTRIP
360
36E
  0
DICTIONARY
  5
351
330
2F
100
AcDbDictionary
280
     1
281
     1
  3
ACAD_XREC_ROUNDTRIP
360
352
  0
DICTIONARY
  5
355
330
31
100
AcDbDictionary
280
     1
281
     1
  3
ACAD_XREC_ROUNDTRIP
360
356
  0
DICTIONARY
  5
353
330
30
100
AcDbDictionary
280
     1
281
     1
  3
ACAD_XREC_ROUNDTRIP
360
354
  0
DICTIONARY
  5
357
330
32
100
AcDbDictionary
280
     1
281
     1
  3
ACAD_XREC_ROUNDTRIP
360
358
  0
DICTIONARY
  5
35F
330
36
100
AcDbDictionary
280
     1
281
     1
  3
ACAD_XREC_ROUNDTRIP
360
360
  0
DICTIONARY
  5
367
330
3A
100
AcDbDictionary
280
     1
281
     1
  3
ACAD_XREC_ROUNDTRIP
360
368
  0
DICTIONARY
  5
35B
330
34
100
AcDbDictionary
280
     1
281
     1
  3
ACAD_XREC_ROUNDTRIP
360
35C
  0
DICTIONARY
  5
35D
330
35
100
AcDbDictionary
280
     1
281
     1
  3
ACAD_XREC_ROUNDTRIP
360
35E
  0
DICTIONARY
  5
365
330
39
100
AcDbDictionary
280
     1
281
     1
  3
ACAD_XREC_ROUNDTRIP
360
366
  0
DICTIONARY
  5
349
330
2B
100
AcDbDictionary
280
     1
281
     1
  3
ACAD_XREC_ROUNDTRIP
360
34A
  0
DICTIONARY
  5
34B
330
2C
100
AcDbDictionary
280
     1
281
     1
  3
ACAD_XREC_ROUNDTRIP
360
34C
  0
DICTIONARY
  5
34D
330
2D
100
AcDbDictionary
280
     1
281
     1
  3
ACAD_XREC_ROUNDTRIP
360
34E
  0
DICTIONARY
  5
34F
330
2E
100
AcDbDictionary
280
     1
281
     1
  3
ACAD_XREC_ROUNDTRIP
360
350
  0
DICTIONARY
  5
363
330
38
100
AcDbDictionary
280
     1
281
     1
  3
ACAD_XREC_ROUNDTRIP
360
364
  0
DICTIONARY
  5
359
330
33
100
AcDbDictionary
280
     1
281
     1
  3
ACAD_XREC_ROUNDTRIP
360
35A
  0
DICTIONARY
  5
361
330
37
100
AcDbDictionary
280
     1
281
     1
  3
ACAD_XREC_ROUNDTRIP
360
362
  0
XRECORD
  5
36C
102
{ACAD_REACTORS
330
36B
102
}
330
36B
100
AcDbXrecord
280
     1
102
MATERIAL
148
0.0
149
0.0
149
0.0
 93
        0
 94
      127
282
     0
 72
     1
 77
     1
171
     1
175
     1
179
     1
273
     0
  0
XRECORD
  5
36A
102
{ACAD_REACTORS
330
369
102
}
330
369
100
AcDbXrecord
280
     1
102
MATERIAL
148
0.0
149
0.0
149
0.0
 93
        0
 94
      127
282
     0
 72
     1
 77
     1
171
     1
175
     1
179
     1
273
     0
  0
XRECORD
  5
36E
102
{ACAD_REACTORS
330
36D
102
}
330
36D
100
AcDbXrecord
280
     1
102
MATERIAL
148
0.0
149
0.0
149
0.0
 93
        0
 94
      127
282
     0
 72
     1
 77
     1
171
     1
175
     1
179
     1
273
     0
  0
XRECORD
  5
352
102
{ACAD_REACTORS
330
351
102
}
330
351
100
AcDbXrecord
280
     1
102
RTVSPropertyOp0
 70
     1
102
RTVSPropertyOp1
 70
     1
102
RTVSPropertyOp2
 70
     1
102
RTVSPropertyOp3
 70
     1
102
RTVSPropertyOp4
 70
     1
102
RTVSPropertyOp5
 70
     1
102
RTVSPropertyOp6
 70
     1
102
RTVSPropertyOp7
 70
     1
102
RTVSPropertyOp8
 70
     1
102
RTVSPropertyOp9
 70
     1
102
RTVSPropertyOp10
 70
     1
102
RTVSPropertyOp11
 70
     1
102
RTVSPropertyOp12
 70
     1
102
RTVSPropertyOp13
 70
     1
102
RTVSPropertyOp14
 70
     1
102
RTVSPropertyOp15
 70
     1
102
RTVSPropertyOp16
 70
     1
102
RTVSPropertyOp17
 70
     1
102
RTVSPropertyOp18
 70
     1
102
RTVSPropertyOp19
 70
     1
102
RTVSPropertyOp20
 70
     1
102
RTVSPropertyOp21
 70
     1
102
RTVSPropertyOp22
 70
     1
102
RTVSPropertyOp23
 70
     1
102
RTVSPropertyOp24
 70
     1
102
RTVSPropertyOp25
 70
     1
102
RTVSPropertyOp26
 70
     1
102
RTVSPropertyOp27
 70
     1
102
RTVSPropertyOp28
 70
     1
102
RTVSPropertyOp29
 70
     1
102
RTVSPropertyOp30
 70
     1
102
RTVSPropertyOp31
 70
     1
102
RTVSPropertyOp32
 70
     1
  0
XRECORD
  5
356
102
{ACAD_REACTORS
330
355
102
}
330
355
100
AcDbXrecord
280
     1
102
RTVSPropertyOp0
 70
     1
102
RTVSPropertyOp1
 70
     1
102
RTVSPropertyOp2
 70
     1
102
RTVSPropertyOp3
 70
     1
102
RTVSPropertyOp4
 70
     1
102
RTVSPropertyOp5
 70
     1
102
RTVSPropertyOp6
 70
     1
102
RTVSPropertyOp7
 70
     1
102
RTVSPropertyOp8
 70
     1
102
RTVSPropertyOp9
 70
     1
102
RTVSPropertyOp10
 70
     1
102
RTVSPropertyOp11
 70
     1
102
RTVSPropertyOp12
 70
     1
102
RTVSPropertyOp13
 70
     1
102
RTVSPropertyOp14
 70
     1
102
RTVSPropertyOp15
 70
     1
102
RTVSPropertyOp16
 70
     1
102
RTVSPropertyOp17
 70
     1
102
RTVSPropertyOp18
 70
     1
102
RTVSPropertyOp19
 70
     1
102
RTVSPropertyOp20
 70
     1
102
RTVSPropertyOp21
 70
     1
102
RTVSPropertyOp22
 70
     1
102
RTVSPropertyOp23
 70
     1
102
RTVSPropertyOp24
 70
     1
102
RTVSPropertyOp25
 70
     1
102
RTVSPropertyOp26
 70
     1
102
RTVSPropertyOp27
 70
     1
102
RTVSPropertyOp28
 70
     1
102
RTVSPropertyOp29
 70
     1
102
RTVSPropertyOp30
 70
     1
102
RTVSPropertyOp31
 70
     1
102
RTVSPropertyOp32
 70
     1
  0
XRECORD
  5
354
102
{ACAD_REACTORS
330
353
102
}
330
353
100
AcDbXrecord
280
     1
102
RTVSPropertyOp0
 70
     1
102
RTVSPropertyOp1
 70
     1
102
RTVSPropertyOp2
 70
     1
102
RTVSPropertyOp3
 70
     1
102
RTVSPropertyOp4
 70
     1
102
RTVSPropertyOp5
 70
     1
102
RTVSPropertyOp6
 70
     1
102
RTVSPropertyOp7
 70
     1
102
RTVSPropertyOp8
 70
     1
102
RTVSPropertyOp9
 70
     1
102
RTVSPropertyOp10
 70
     1
102
RTVSPropertyOp11
 70
     1
102
RTVSPropertyOp12
 70
     1
102
RTVSPropertyOp13
 70
     1
102
RTVSPropertyOp14
 70
     1
102
RTVSPropertyOp15
 70
     1
102
RTVSPropertyOp16
 70
     1
102
RTVSPropertyOp17
 70
     1
102
RTVSPropertyOp18
 70
     1
102
RTVSPropertyOp19
 70
     1
102
RTVSPropertyOp20
 70
     1
102
RTVSPropertyOp21
 70
     1
102
RTVSPropertyOp22
 70
     1
102
RTVSPropertyOp23
 70
     1
102
RTVSPropertyOp24
 70
     1
102
RTVSPropertyOp25
 70
     1
102
RTVSPropertyOp26
 70
     1
102
RTVSPropertyOp27
 70
     1
102
RTVSPropertyOp28
 70
     1
102
RTVSPropertyOp29
 70
     1
102
RTVSPropertyOp30
 70
     1
102
RTVSPropertyOp31
 70
     1
102
RTVSPropertyOp32
 70
     1
  0
XRECORD
  5
358
102
{ACAD_REACTORS
330
357
102
}
330
357
100
AcDbXrecord
280
     1
102
RTVSPropertyOp0
 70
     1
102
RTVSPropertyOp1
 70
     1
102
RTVSPropertyOp2
 70
     1
102
RTVSPropertyOp3
 70
     1
102
RTVSPropertyOp4
 70
     1
102
RTVSPropertyOp5
 70
     1
102
RTVSPropertyOp6
 70
     1
102
RTVSPropertyOp7
 70
     1
102
RTVSPropertyOp8
 70
     1
102
RTVSPropertyOp9
 70
     1
102
RTVSPropertyOp10
 70
     1
102
RTVSPropertyOp11
 70
     1
102
RTVSPropertyOp12
 70
     1
102
RTVSPropertyOp13
 70
     1
102
RTVSPropertyOp14
 70
     1
102
RTVSPropertyOp15
 70
     1
102
RTVSPropertyOp16
 70
     1
102
RTVSPropertyOp17
 70
     1
102
RTVSPropertyOp18
 70
     1
102
RTVSPropertyOp19
 70
     1
102
RTVSPropertyOp20
 70
     1
102
RTVSPropertyOp21
 70
     1
102
RTVSPropertyOp22
 70
     1
102
RTVSPropertyOp23
 70
     1
102
RTVSPropertyOp24
 70
     1
102
RTVSPropertyOp25
 70
     1
102
RTVSPropertyOp26
 70
     1
102
RTVSPropertyOp27
 70
     1
102
RTVSPropertyOp28
 70
     1
102
RTVSPropertyOp29
 70
     1
102
RTVSPropertyOp30
 70
     1
102
RTVSPropertyOp31
 70
     1
102
RTVSPropertyOp32
 70
     1
  0
XRECORD
  5
360
102
{ACAD_REACTORS
330
35F
102
}
330
35F
100
AcDbXrecord
280
     1
102
RTVSPropertyOp0
 70
     1
102
RTVSPropertyOp1
 70
     1
102
RTVSPropertyOp2
 70
     1
102
RTVSPropertyOp3
 70
     1
102
RTVSPropertyOp4
 70
     1
102
RTVSPropertyOp5
 70
     1
102
RTVSPropertyOp6
 70
     1
102
RTVSPropertyOp7
 70
     1
102
RTVSPropertyOp8
 70
     1
102
RTVSPropertyOp9
 70
     1
102
RTVSPropertyOp10
 70
     1
102
RTVSPropertyOp11
 70
     1
102
RTVSPropertyOp12
 70
     1
102
RTVSPropertyOp13
 70
     1
102
RTVSPropertyOp14
 70
     1
102
RTVSPropertyOp15
 70
     1
102
RTVSPropertyOp16
 70
     1
102
RTVSPropertyOp17
 70
     1
102
RTVSPropertyOp18
 70
     1
102
RTVSPropertyOp19
 70
     1
102
RTVSPropertyOp20
 70
     1
102
RTVSPropertyOp21
 70
     1
102
RTVSPropertyOp22
 70
     1
102
RTVSPropertyOp23
 70
     1
102
RTVSPropertyOp24
 70
     1
102
RTVSPropertyOp25
 70
     1
102
RTVSPropertyOp26
 70
     1
102
RTVSPropertyOp27
 70
     1
102
RTVSPropertyOp28
 70
     1
102
RTVSPropertyOp29
 70
     1
102
RTVSPropertyOp30
 70
     1
102
RTVSPropertyOp31
 70
     1
102
RTVSPropertyOp32
 70
     1
  0
XRECORD
  5
368
102
{ACAD_REACTORS
330
367
102
}
330
367
100
AcDbXrecord
280
     1
102
RTVSPropertyOp0
 70
     1
102
RTVSPropertyOp1
 70
     1
102
RTVSPropertyOp2
 70
     1
102
RTVSPropertyOp3
 70
     1
102
RTVSPropertyOp4
 70
     1
102
RTVSPropertyOp5
 70
     1
102
RTVSPropertyOp6
 70
     1
102
RTVSPropertyOp7
 70
     1
102
RTVSPropertyOp8
 70
     1
102
RTVSPropertyOp9
 70
     1
102
RTVSPropertyOp10
 70
     1
102
RTVSPropertyOp11
 70
     1
102
RTVSPropertyOp12
 70
     1
102
RTVSPropertyOp13
 70
     1
102
RTVSPropertyOp14
 70
     1
102
RTVSPropertyOp15
 70
     1
102
RTVSPropertyOp16
 70
     1
102
RTVSPropertyOp17
 70
     1
102
RTVSPropertyOp18
 70
     1
102
RTVSPropertyOp19
 70
     1
102
RTVSPropertyOp20
 70
     1
102
RTVSPropertyOp21
 70
     1
102
RTVSPropertyOp22
 70
     1
102
RTVSPropertyOp23
 70
     1
102
RTVSPropertyOp24
 70
     1
102
RTVSPropertyOp25
 70
     1
102
RTVSPropertyOp26
 70
     1
102
RTVSPropertyOp27
 70
     1
102
RTVSPropertyOp28
 70
     1
102
RTVSPropertyOp29
 70
     1
102
RTVSPropertyOp30
 70
     1
102
RTVSPropertyOp31
 70
     1
102
RTVSPropertyOp32
 70
     1
  0
XRECORD
  5
35C
102
{ACAD_REACTORS
330
35B
102
}
330
35B
100
AcDbXrecord
280
     1
102
RTVSPropertyOp0
 70
     1
102
RTVSPropertyOp1
 70
     1
102
RTVSPropertyOp2
 70
     1
102
RTVSPropertyOp3
 70
     1
102
RTVSPropertyOp4
 70
     1
102
RTVSPropertyOp5
 70
     1
102
RTVSPropertyOp6
 70
     1
102
RTVSPropertyOp7
 70
     1
102
RTVSPropertyOp8
 70
     1
102
RTVSPropertyOp9
 70
     1
102
RTVSPropertyOp10
 70
     1
102
RTVSPropertyOp11
 70
     1
102
RTVSPropertyOp12
 70
     1
102
RTVSPropertyOp13
 70
     1
102
RTVSPropertyOp14
 70
     1
102
RTVSPropertyOp15
 70
     1
102
RTVSPropertyOp16
 70
     1
102
RTVSPropertyOp17
 70
     1
102
RTVSPropertyOp18
 70
     1
102
RTVSPropertyOp19
 70
     1
102
RTVSPropertyOp20
 70
     1
102
RTVSPropertyOp21
 70
     1
102
RTVSPropertyOp22
 70
     1
102
RTVSPropertyOp23
 70
     1
102
RTVSPropertyOp24
 70
     1
102
RTVSPropertyOp25
 70
     1
102
RTVSPropertyOp26
 70
     1
102
RTVSPropertyOp27
 70
     1
102
RTVSPropertyOp28
 70
     1
102
RTVSPropertyOp29
 70
     1
102
RTVSPropertyOp30
 70
     1
102
RTVSPropertyOp31
 70
     1
102
RTVSPropertyOp32
 70
     1
  0
XRECORD
  5
35E
102
{ACAD_REACTORS
330
35D
102
}
330
35D
100
AcDbXrecord
280
     1
102
RTVSPropertyOp0
 70
     1
102
RTVSPropertyOp1
 70
     1
102
RTVSPropertyOp2
 70
     1
102
RTVSPropertyOp3
 70
     1
102
RTVSPropertyOp4
 70
     1
102
RTVSPropertyOp5
 70
     1
102
RTVSPropertyOp6
 70
     1
102
RTVSPropertyOp7
 70
     1
102
RTVSPropertyOp8
 70
     1
102
RTVSPropertyOp9
 70
     1
102
RTVSPropertyOp10
 70
     1
102
RTVSPropertyOp11
 70
     1
102
RTVSPropertyOp12
 70
     1
102
RTVSPropertyOp13
 70
     1
102
RTVSPropertyOp14
 70
     1
102
RTVSPropertyOp15
 70
     1
102
RTVSPropertyOp16
 70
     1
102
RTVSPropertyOp17
 70
     1
102
RTVSPropertyOp18
 70
     1
102
RTVSPropertyOp19
 70
     1
102
RTVSPropertyOp20
 70
     1
102
RTVSPropertyOp21
 70
     1
102
RTVSPropertyOp22
 70
     1
102
RTVSPropertyOp23
 70
     1
102
RTVSPropertyOp24
 70
     1
102
RTVSPropertyOp25
 70
     1
102
RTVSPropertyOp26
 70
     1
102
RTVSPropertyOp27
 70
     1
102
RTVSPropertyOp28
 70
     1
102
RTVSPropertyOp29
 70
     1
102
RTVSPropertyOp30
 70
     1
102
RTVSPropertyOp31
 70
     1
102
RTVSPropertyOp32
 70
     1
  0
XRECORD
  5
366
102
{ACAD_REACTORS
330
365
102
}
330
365
100
AcDbXrecord
280
     1
102
RTVSPropertyOp0
 70
     1
102
RTVSPropertyOp1
 70
     1
102
RTVSPropertyOp2
 70
     1
102
RTVSPropertyOp3
 70
     1
102
RTVSPropertyOp4
 70
     1
102
RTVSPropertyOp5
 70
     1
102
RTVSPropertyOp6
 70
     1
102
RTVSPropertyOp7
 70
     1
102
RTVSPropertyOp8
 70
     1
102
RTVSPropertyOp9
 70
     1
102
RTVSPropertyOp10
 70
     1
102
RTVSPropertyOp11
 70
     1
102
RTVSPropertyOp12
 70
     1
102
RTVSPropertyOp13
 70
     1
102
RTVSPropertyOp14
 70
     1
102
RTVSPropertyOp15
 70
     1
102
RTVSPropertyOp16
 70
     1
102
RTVSPropertyOp17
 70
     1
102
RTVSPropertyOp18
 70
     1
102
RTVSPropertyOp19
 70
     1
102
RTVSPropertyOp20
 70
     1
102
RTVSPropertyOp21
 70
     1
102
RTVSPropertyOp22
 70
     1
102
RTVSPropertyOp23
 70
     1
102
RTVSPropertyOp24
 70
     1
102
RTVSPropertyOp25
 70
     1
102
RTVSPropertyOp26
 70
     1
102
RTVSPropertyOp27
 70
     1
102
RTVSPropertyOp28
 70
     1
102
RTVSPropertyOp29
 70
     1
102
RTVSPropertyOp30
 70
     1
102
RTVSPropertyOp31
 70
     1
102
RTVSPropertyOp32
 70
     1
  0
XRECORD
  5
34A
102
{ACAD_REACTORS
330
349
102
}
330
349
100
AcDbXrecord
280
     1
102
RTVSPropertyOp0
 70
     1
102
RTVSPropertyOp1
 70
     1
102
RTVSPropertyOp2
 70
     1
102
RTVSPropertyOp3
 70
     1
102
RTVSPropertyOp4
 70
     1
102
RTVSPropertyOp5
 70
     1
102
RTVSPropertyOp6
 70
     1
102
RTVSPropertyOp7
 70
     1
102
RTVSPropertyOp8
 70
     1
102
RTVSPropertyOp9
 70
     1
102
RTVSPropertyOp10
 70
     1
102
RTVSPropertyOp11
 70
     1
102
RTVSPropertyOp12
 70
     1
102
RTVSPropertyOp13
 70
     1
102
RTVSPropertyOp14
 70
     1
102
RTVSPropertyOp15
 70
     1
102
RTVSPropertyOp16
 70
     1
102
RTVSPropertyOp17
 70
     1
102
RTVSPropertyOp18
 70
     1
102
RTVSPropertyOp19
 70
     1
102
RTVSPropertyOp20
 70
     1
102
RTVSPropertyOp21
 70
     1
102
RTVSPropertyOp22
 70
     1
102
RTVSPropertyOp23
 70
     1
102
RTVSPropertyOp24
 70
     1
102
RTVSPropertyOp25
 70
     1
102
RTVSPropertyOp26
 70
     1
102
RTVSPropertyOp27
 70
     1
102
RTVSPropertyOp28
 70
     1
102
RTVSPropertyOp29
 70
     1
102
RTVSPropertyOp30
 70
     1
102
RTVSPropertyOp31
 70
     1
102
RTVSPropertyOp32
 70
     1
  0
XRECORD
  5
34C
102
{ACAD_REACTORS
330
34B
102
}
330
34B
100
AcDbXrecord
280
     1
102
RTVSPropertyOp0
 70
     1
102
RTVSPropertyOp1
 70
     1
102
RTVSPropertyOp2
 70
     1
102
RTVSPropertyOp3
 70
     1
102
RTVSPropertyOp4
 70
     1
102
RTVSPropertyOp5
 70
     1
102
RTVSPropertyOp6
 70
     1
102
RTVSPropertyOp7
 70
     1
102
RTVSPropertyOp8
 70
     1
102
RTVSPropertyOp9
 70
     1
102
RTVSPropertyOp10
 70
     1
102
RTVSPropertyOp11
 70
     1
102
RTVSPropertyOp12
 70
     1
102
RTVSPropertyOp13
 70
     1
102
RTVSPropertyOp14
 70
     1
102
RTVSPropertyOp15
 70
     1
102
RTVSPropertyOp16
 70
     1
102
RTVSPropertyOp17
 70
     1
102
RTVSPropertyOp18
 70
     1
102
RTVSPropertyOp19
 70
     1
102
RTVSPropertyOp20
 70
     1
102
RTVSPropertyOp21
 70
     1
102
RTVSPropertyOp22
 70
     1
102
RTVSPropertyOp23
 70
     1
102
RTVSPropertyOp24
 70
     1
102
RTVSPropertyOp25
 70
     1
102
RTVSPropertyOp26
 70
     1
102
RTVSPropertyOp27
 70
     1
102
RTVSPropertyOp28
 70
     1
102
RTVSPropertyOp29
 70
     1
102
RTVSPropertyOp30
 70
     1
102
RTVSPropertyOp31
 70
     1
102
RTVSPropertyOp32
 70
     1
  0
XRECORD
  5
34E
102
{ACAD_REACTORS
330
34D
102
}
330
34D
100
AcDbXrecord
280
     1
102
RTVSPropertyOp0
 70
     1
102
RTVSPropertyOp1
 70
     1
102
RTVSPropertyOp2
 70
     1
102
RTVSPropertyOp3
 70
     1
102
RTVSPropertyOp4
 70
     1
102
RTVSPropertyOp5
 70
     1
102
RTVSPropertyOp6
 70
     1
102
RTVSPropertyOp7
 70
     1
102
RTVSPropertyOp8
 70
     1
102
RTVSPropertyOp9
 70
     1
102
RTVSPropertyOp10
 70
     1
102
RTVSPropertyOp11
 70
     1
102
RTVSPropertyOp12
 70
     1
102
RTVSPropertyOp13
 70
     1
102
RTVSPropertyOp14
 70
     1
102
RTVSPropertyOp15
 70
     1
102
RTVSPropertyOp16
 70
     1
102
RTVSPropertyOp17
 70
     1
102
RTVSPropertyOp18
 70
     1
102
RTVSPropertyOp19
 70
     1
102
RTVSPropertyOp20
 70
     1
102
RTVSPropertyOp21
 70
     1
102
RTVSPropertyOp22
 70
     1
102
RTVSPropertyOp23
 70
     1
102
RTVSPropertyOp24
 70
     1
102
RTVSPropertyOp25
 70
     1
102
RTVSPropertyOp26
 70
     1
102
RTVSPropertyOp27
 70
     1
102
RTVSPropertyOp28
 70
     1
102
RTVSPropertyOp29
 70
     1
102
RTVSPropertyOp30
 70
     1
102
RTVSPropertyOp31
 70
     1
102
RTVSPropertyOp32
 70
     1
  0
XRECORD
  5
350
102
{ACAD_REACTORS
330
34F
102
}
330
34F
100
AcDbXrecord
280
     1
102
RTVSPropertyOp0
 70
     1
102
RTVSPropertyOp1
 70
     1
102
RTVSPropertyOp2
 70
     1
102
RTVSPropertyOp3
 70
     1
102
RTVSPropertyOp4
 70
     1
102
RTVSPropertyOp5
 70
     1
102
RTVSPropertyOp6
 70
     1
102
RTVSPropertyOp7
 70
     1
102
RTVSPropertyOp8
 70
     1
102
RTVSPropertyOp9
 70
     1
102
RTVSPropertyOp10
 70
     1
102
RTVSPropertyOp11
 70
     1
102
RTVSPropertyOp12
 70
     1
102
RTVSPropertyOp13
 70
     1
102
RTVSPropertyOp14
 70
     1
102
RTVSPropertyOp15
 70
     1
102
RTVSPropertyOp16
 70
     1
102
RTVSPropertyOp17
 70
     1
102
RTVSPropertyOp18
 70
     1
102
RTVSPropertyOp19
 70
     1
102
RTVSPropertyOp20
 70
     1
102
RTVSPropertyOp21
 70
     1
102
RTVSPropertyOp22
 70
     1
102
RTVSPropertyOp23
 70
     1
102
RTVSPropertyOp24
 70
     1
102
RTVSPropertyOp25
 70
     1
102
RTVSPropertyOp26
 70
     1
102
RTVSPropertyOp27
 70
     1
102
RTVSPropertyOp28
 70
     1
102
RTVSPropertyOp29
 70
     1
102
RTVSPropertyOp30
 70
     1
102
RTVSPropertyOp31
 70
     1
102
RTVSPropertyOp32
 70
     1
  0
XRECORD
  5
364
102
{ACAD_REACTORS
330
363
102
}
330
363
100
AcDbXrecord
280
     1
102
RTVSPropertyOp0
 70
     1
102
RTVSPropertyOp1
 70
     1
102
RTVSPropertyOp2
 70
     1
102
RTVSPropertyOp3
 70
     1
102
RTVSPropertyOp4
 70
     1
102
RTVSPropertyOp5
 70
     1
102
RTVSPropertyOp6
 70
     1
102
RTVSPropertyOp7
 70
     1
102
RTVSPropertyOp8
 70
     1
102
RTVSPropertyOp9
 70
     1
102
RTVSPropertyOp10
 70
     1
102
RTVSPropertyOp11
 70
     1
102
RTVSPropertyOp12
 70
     1
102
RTVSPropertyOp13
 70
     1
102
RTVSPropertyOp14
 70
     1
102
RTVSPropertyOp15
 70
     1
102
RTVSPropertyOp16
 70
     1
102
RTVSPropertyOp17
 70
     1
102
RTVSPropertyOp18
 70
     1
102
RTVSPropertyOp19
 70
     1
102
RTVSPropertyOp20
 70
     1
102
RTVSPropertyOp21
 70
     1
102
RTVSPropertyOp22
 70
     1
102
RTVSPropertyOp23
 70
     1
102
RTVSPropertyOp24
 70
     1
102
RTVSPropertyOp25
 70
     1
102
RTVSPropertyOp26
 70
     1
102
RTVSPropertyOp27
 70
     1
102
RTVSPropertyOp28
 70
     1
102
RTVSPropertyOp29
 70
     1
102
RTVSPropertyOp30
 70
     1
102
RTVSPropertyOp31
 70
     1
102
RTVSPropertyOp32
 70
     1
  0
XRECORD
  5
35A
102
{ACAD_REACTORS
330
359
102
}
330
359
100
AcDbXrecord
280
     1
102
RTVSPropertyOp0
 70
     1
102
RTVSPropertyOp1
 70
     1
102
RTVSPropertyOp2
 70
     1
102
RTVSPropertyOp3
 70
     1
102
RTVSPropertyOp4
 70
     1
102
RTVSPropertyOp5
 70
     1
102
RTVSPropertyOp6
 70
     1
102
RTVSPropertyOp7
 70
     1
102
RTVSPropertyOp8
 70
     1
102
RTVSPropertyOp9
 70
     1
102
RTVSPropertyOp10
 70
     1
102
RTVSPropertyOp11
 70
     1
102
RTVSPropertyOp12
 70
     1
102
RTVSPropertyOp13
 70
     1
102
RTVSPropertyOp14
 70
     1
102
RTVSPropertyOp15
 70
     1
102
RTVSPropertyOp16
 70
     1
102
RTVSPropertyOp17
 70
     1
102
RTVSPropertyOp18
 70
     1
102
RTVSPropertyOp19
 70
     1
102
RTVSPropertyOp20
 70
     1
102
RTVSPropertyOp21
 70
     1
102
RTVSPropertyOp22
 70
     1
102
RTVSPropertyOp23
 70
     1
102
RTVSPropertyOp24
 70
     1
102
RTVSPropertyOp25
 70
     1
102
RTVSPropertyOp26
 70
     1
102
RTVSPropertyOp27
 70
     1
102
RTVSPropertyOp28
 70
     1
102
RTVSPropertyOp29
 70
     1
102
RTVSPropertyOp30
 70
     1
102
RTVSPropertyOp31
 70
     1
102
RTVSPropertyOp32
 70
     1
  0
XRECORD
  5
362
102
{ACAD_REACTORS
330
361
102
}
330
361
100
AcDbXrecord
280
     1
102
RTVSPropertyOp0
 70
     1
102
RTVSPropertyOp1
 70
     1
102
RTVSPropertyOp2
 70
     1
102
RTVSPropertyOp3
 70
     1
102
RTVSPropertyOp4
 70
     1
102
RTVSPropertyOp5
 70
     1
102
RTVSPropertyOp6
 70
     1
102
RTVSPropertyOp7
 70
     1
102
RTVSPropertyOp8
 70
     1
102
RTVSPropertyOp9
 70
     1
102
RTVSPropertyOp10
 70
     1
102
RTVSPropertyOp11
 70
     1
102
RTVSPropertyOp12
 70
     1
102
RTVSPropertyOp13
 70
     1
102
RTVSPropertyOp14
 70
     1
102
RTVSPropertyOp15
 70
     1
102
RTVSPropertyOp16
 70
     1
102
RTVSPropertyOp17
 70
     1
102
RTVSPropertyOp18
 70
     1
102
RTVSPropertyOp19
 70
     1
102
RTVSPropertyOp20
 70
     1
102
RTVSPropertyOp21
 70
     1
102
RTVSPropertyOp22
 70
     1
102
RTVSPropertyOp23
 70
     1
102
RTVSPropertyOp24
 70
     1
102
RTVSPropertyOp25
 70
     1
102
RTVSPropertyOp26
 70
     1
102
RTVSPropertyOp27
 70
     1
102
RTVSPropertyOp28
 70
     1
102
RTVSPropertyOp29
 70
     1
102
RTVSPropertyOp30
 70
     1
102
RTVSPropertyOp31
 70
     1
102
RTVSPropertyOp32
 70
     1
  0
ENDSEC
  0
EOF
