  0
SECTION
  2
HEADER
  9
$ACADVER
  1
AC1018
  9
$ACADMAINTVER
 70
     0
  9
$DWGCODEPAGE
  3
ANSI_1252
  9
$INSBASE
 10
0.0
 20
0.0
 30
0.0
  9
$EXTMIN
 10
-390.0000139999891
 20
-263.0000062879215
 30
0.0
  9
$EXTMAX
 10
-93.00001399999098
 20
-53.00000628792137
 30
0.0
  9
$LIMMIN
 10
0.0
 20
0.0
  9
$LIMMAX
 10
12.0
 20
9.0
  9
$ORTHOMODE
 70
     0
  9
$REGENMODE
 70
     1
  9
$FILLMODE
 70
     1
  9
$QTEXTMODE
 70
     0
  9
$MIRRTEXT
 70
     1
  9
$LTSCALE
 40
1.0
  9
$ATTMODE
 70
     1
  9
$TEXTSIZE
 40
0.2
  9
$TRACEWID
 40
0.05
  9
$TEXTSTYLE
  7
Standard
  9
$CLAYER
  8
0
  9
$CELTYPE
  6
ByLayer
  9
$CECOLOR
 62
   256
  9
$CELTSCALE
 40
1.0
  9
$DISPSILH
 70
     0
  9
$DIMSCALE
 40
1.0
  9
$DIMASZ
 40
0.18
  9
$DIMEXO
 40
0.0625
  9
$DIMDLI
 40
0.38
  9
$DIMRND
 40
0.0
  9
$DIMDLE
 40
0.0
  9
$DIMEXE
 40
0.18
  9
$DIMTP
 40
0.0
  9
$DIMTM
 40
0.0
  9
$DIMTXT
 40
0.18
  9
$DIMCEN
 40
0.09
  9
$DIMTSZ
 40
0.0
  9
$DIMTOL
 70
     0
  9
$DIMLIM
 70
     0
  9
$DIMTIH
 70
     1
  9
$DIMTOH
 70
     1
  9
$DIMSE1
 70
     0
  9
$DIMSE2
 70
     0
  9
$DIMTAD
 70
     0
  9
$DIMZIN
 70
     0
  9
$DIMBLK
  1

  9
$DIMASO
 70
     1
  9
$DIMSHO
 70
     1
  9
$DIMPOST
  1

  9
$DIMAPOST
  1

  9
$DIMALT
 70
     0
  9
$DIMALTD
 70
     2
  9
$DIMALTF
 40
25.4
  9
$DIMLFAC
 40
1.0
  9
$DIMTOFL
 70
     0
  9
$DIMTVP
 40
0.0
  9
$DIMTIX
 70
     0
  9
$DIMSOXD
 70
     0
  9
$DIMSAH
 70
     0
  9
$DIMBLK1
  1

  9
$DIMBLK2
  1

  9
$DIMSTYLE
  2
Standard
  9
$DIMCLRD
 70
     0
  9
$DIMCLRE
 70
     0
  9
$DIMCLRT
 70
     0
  9
$DIMTFAC
 40
1.0
  9
$DIMGAP
 40
0.09
  9
$DIMJUST
 70
     0
  9
$DIMSD1
 70
     0
  9
$DIMSD2
 70
     0
  9
$DIMTOLJ
 70
     1
  9
$DIMTZIN
 70
     0
  9
$DIMALTZ
 70
     0
  9
$DIMALTTZ
 70
     0
  9
$DIMUPT
 70
     0
  9
$DIMDEC
 70
     4
  9
$DIMTDEC
 70
     4
  9
$DIMALTU
 70
     2
  9
$DIMALTTD
 70
     2
  9
$DIMTXSTY
  7
Standard
  9
$DIMAUNIT
 70
     0
  9
$DIMADEC
 70
     0
  9
$DIMALTRND
 40
0.0
  9
$DIMAZIN
 70
     0
  9
$DIMDSEP
 70
    46
  9
$DIMATFIT
 70
     3
  9
$DIMFRAC
 70
     0
  9
$DIMLDRBLK
  1

  9
$DIMLUNIT
 70
     2
  9
$DIMLWD
 70
    -2
  9
$DIMLWE
 70
    -2
  9
$DIMTMOVE
 70
     0
  9
$LUNITS
 70
     2
  9
$LUPREC
 70
     4
  9
$SKETCHINC
 40
0.1
  9
$FILLETRAD
 40
0.5
  9
$AUNITS
 70
     0
  9
$AUPREC
 70
     0
  9
$MENU
  1
.
  9
$ELEVATION
 40
0.0
  9
$PELEVATION
 40
0.0
  9
$THICKNESS
 40
0.0
  9
$LIMCHECK
 70
     0
  9
$CHAMFERA
 40
0.5
  9
$CHAMFERB
 40
0.5
  9
$CHAMFERC
 40
1.0
  9
$CHAMFERD
 40
0.0
  9
$SKPOLY
 70
     0
  9
$TDCREATE
 40
2458263.651959016
  9
$TDUCREATE
 40
2458263.568625683
  9
$TDUPDATE
 40
2458263.651959375
  9
$TDUUPDATE
 40
2458263.568626042
  9
$TDINDWG
 40
0.0000000116
  9
$TDUSRTIMER
 40
0.0000000116
  9
$USRTIMER
 70
     1
  9
$ANGBASE
 50
0.0
  9
$ANGDIR
 70
     0
  9
$PDMODE
 70
     0
  9
$PDSIZE
 40
0.0
  9
$PLINEWID
 40
0.0
  9
$SPLFRAME
 70
     0
  9
$SPLINETYPE
 70
     6
  9
$SPLINESEGS
 70
     8
  9
$HANDSEED
  5
279
  9
$SURFTAB1
 70
     6
  9
$SURFTAB2
 70
     6
  9
$SURFTYPE
 70
     6
  9
$SURFU
 70
     6
  9
$SURFV
 70
     6
  9
$UCSBASE
  2

  9
$UCSNAME
  2

  9
$UCSORG
 10
0.0
 20
0.0
 30
0.0
  9
$UCSXDIR
 10
1.0
 20
0.0
 30
0.0
  9
$UCSYDIR
 10
0.0
 20
1.0
 30
0.0
  9
$UCSORTHOREF
  2

  9
$UCSORTHOVIEW
 70
     0
  9
$UCSORGTOP
 10
0.0
 20
0.0
 30
0.0
  9
$UCSORGBOTTOM
 10
0.0
 20
0.0
 30
0.0
  9
$UCSORGLEFT
 10
0.0
 20
0.0
 30
0.0
  9
$UCSORGRIGHT
 10
0.0
 20
0.0
 30
0.0
  9
$UCSORGFRONT
 10
0.0
 20
0.0
 30
0.0
  9
$UCSORGBACK
 10
0.0
 20
0.0
 30
0.0
  9
$PUCSBASE
  2

  9
$PUCSNAME
  2

  9
$PUCSORG
 10
0.0
 20
0.0
 30
0.0
  9
$PUCSXDIR
 10
1.0
 20
0.0
 30
0.0
  9
$PUCSYDIR
 10
0.0
 20
1.0
 30
0.0
  9
$PUCSORTHOREF
  2

  9
$PUCSORTHOVIEW
 70
     0
  9
$PUCSORGTOP
 10
0.0
 20
0.0
 30
0.0
  9
$PUCSORGBOTTOM
 10
0.0
 20
0.0
 30
0.0
  9
$PUCSORGLEFT
 10
0.0
 20
0.0
 30
0.0
  9
$PUCSORGRIGHT
 10
0.0
 20
0.0
 30
0.0
  9
$PUCSORGFRONT
 10
0.0
 20
0.0
 30
0.0
  9
$PUCSORGBACK
 10
0.0
 20
0.0
 30
0.0
  9
$USERI1
 70
     0
  9
$USERI2
 70
     0
  9
$USERI3
 70
     0
  9
$USERI4
 70
     0
  9
$USERI5
 70
     0
  9
$USERR1
 40
18.1
  9
$USERR2
 40
0.0
  9
$USERR3
 40
0.0
  9
$USERR4
 40
0.0
  9
$USERR5
 40
0.0
  9
$WORLDVIEW
 70
     1
  9
$SHADEDGE
 70
     3
  9
$SHADEDIF
 70
    70
  9
$TILEMODE
 70
     1
  9
$MAXACTVP
 70
    64
  9
$PINSBASE
 10
0.0
 20
0.0
 30
0.0
  9
$PLIMCHECK
 70
     0
  9
$PEXTMIN
 10
1.00000000000000E+20
 20
1.00000000000000E+20
 30
1.00000000000000E+20
  9
$PEXTMAX
 10
-1.00000000000000E+20
 20
-1.00000000000000E+20
 30
-1.00000000000000E+20
  9
$PLIMMIN
 10
0.0
 20
0.0
  9
$PLIMMAX
 10
12.0
 20
9.0
  9
$UNITMODE
 70
     0
  9
$VISRETAIN
 70
     1
  9
$PLINEGEN
 70
     0
  9
$PSLTSCALE
 70
     1
  9
$TREEDEPTH
 70
  3020
  9
$CMLSTYLE
  2
Standard
  9
$CMLJUST
 70
     0
  9
$CMLSCALE
 40
1.0
  9
$PROXYGRAPHICS
 70
     1
  9
$MEASUREMENT
 70
     1
  9
$CELWEIGHT
370
    -1
  9
$ENDCAPS
280
     0
  9
$JOINSTYLE
280
     0
  9
$LWDISPLAY
290
     0
  9
$INSUNITS
 70
     4
  9
$HYPERLINKBASE
  1

  9
$STYLESHEET
  1

  9
$XEDIT
290
     1
  9
$CEPSNTYPE
380
     0
  9
$PSTYLEMODE
290
     1
  9
$FINGERPRINTGUID
  2
{24743652-B337-44F4-834D-0C51EDCDE05B}
  9
$VERSIONGUID
  2
{FAEB1C32-E019-11D5-929B-00C0DF256EC4}
  9
$EXTNAMES
290
     1
  9
$PSVPSCALE
 40
0.0
  9
$OLESTARTUP
290
     0
  9
$SORTENTS
280
   127
  9
$INDEXCTL
280
     0
  9
$HIDETEXT
280
     1
  9
$XCLIPFRAME
290
     0
  9
$HALOGAP
280
     0
  9
$OBSCOLOR
 70
   257
  9
$OBSLTYPE
280
     0
  9
$INTERSECTIONDISPLAY
280
     0
  9
$INTERSECTIONCOLOR
 70
   257
  9
$DIMASSOC
280
     2
  9
$PROJECTNAME
  1

  0
ENDSEC
  0
SECTION
  2
CLASSES
  0
CLASS
  1
ACDBDICTIONARYWDFLT
  2
AcDbDictionaryWithDefault
  3
ObjectDBX Classes
 90
        0
 91
        4
280
     0
281
     0
  0
CLASS
  1
VISUALSTYLE
  2
AcDbVisualStyle
  3
ObjectDBX Classes
 90
     4095
 91
        4
280
     0
281
     0
  0
CLASS
  1
MATERIAL
  2
AcDbMaterial
  3
ObjectDBX Classes
 90
     1153
 91
        4
280
     0
281
     0
  0
ENDSEC
  0
SECTION
  2
TABLES
  0
TABLE
  2
VPORT
  5
8
330
0
100
AcDbSymbolTable
 70
     1
  0
VPORT
  5
29
330
8
100
AcDbSymbolTableRecord
100
AcDbViewportTableRecord
  2
*Active
 70
     0
 10
0.0
 20
0.0
 11
1.0
 21
1.0
 12
-241.50001399999
 22
-158.0000062879215
 13
0.0
 23
0.0
 14
0.5
 24
0.5
 15
0.5
 25
0.5
 16
0.0
 26
0.0
 36
1.0
 17
0.0
 27
0.0
 37
0.0
 40
231.0000000000002
 41
1.60267857142857
 42
50.0
 43
0.0
 44
0.0
 50
0.0
 51
0.0
 71
     0
 72
   100
 73
     1
 74
     3
 75
     0
 76
     0
 77
     0
 78
     0
281
     0
 65
     1
110
0.0
120
0.0
130
0.0
111
1.0
121
0.0
131
0.0
112
0.0
122
1.0
132
0.0
 79
     0
146
0.0
  0
ENDTAB
  0
TABLE
  2
LTYPE
  5
5
330
0
100
AcDbSymbolTable
 70
     8
  0
LTYPE
  5
14
330
5
100
AcDbSymbolTableRecord
100
AcDbLinetypeTableRecord
  2
ByBlock
 70
     0
  3

 72
    65
 73
     0
 40
0.0
  0
LTYPE
  5
15
330
5
100
AcDbSymbolTableRecord
100
AcDbLinetypeTableRecord
  2
ByLayer
 70
     0
  3

 72
    65
 73
     0
 40
0.0
  0
LTYPE
  5
16
330
5
100
AcDbSymbolTableRecord
100
AcDbLinetypeTableRecord
  2
Continuous
 70
     0
  3
Solid line
 72
    65
 73
     0
 40
0.0
  0
LTYPE
  5
3F
330
5
100
AcDbSymbolTableRecord
100
AcDbLinetypeTableRecord
  2
DASHED
 70
     0
  3
Dashed
 72
    65
 73
     2
 40
15.0
 49
7.0
 74
     0
 49
-8.0
 74
     0
  0
LTYPE
  5
40
330
5
100
AcDbSymbolTableRecord
100
AcDbLinetypeTableRecord
  2
DOTTED
 70
     0
  3
Dotted
 72
    65
 73
     2
 40
1.0
 49
0.0
 74
     0
 49
-1.0
 74
     0
  0
LTYPE
  5
41
330
5
100
AcDbSymbolTableRecord
100
AcDbLinetypeTableRecord
  2
DOT_CENTER
 70
     0
  3
Dot_Center
 72
    65
 73
     4
 40
14.0
 49
12.0
 74
     0
 49
-1.0
 74
     0
 49
0.0
 74
     0
 49
-1.0
 74
     0
  0
LTYPE
  5
42
330
5
100
AcDbSymbolTableRecord
100
AcDbLinetypeTableRecord
  2
LONG_DASHED
 70
     0
  3
Long_Dashed
 72
    65
 73
     2
 40
15.0
 49
10.0
 74
     0
 49
-5.0
 74
     0
  0
LTYPE
  5
43
330
5
100
AcDbSymbolTableRecord
100
AcDbLinetypeTableRecord
  2
DASH_CENTER
 70
     0
  3
Dash_Center
 72
    65
 73
     4
 40
14.0
 49
11.0
 74
     0
 49
-1.0
 74
     0
 49
1.0
 74
     0
 49
-1.0
 74
     0
  0
LTYPE
  5
44
330
5
100
AcDbSymbolTableRecord
100
AcDbLinetypeTableRecord
  2
PHANTOM
 70
     0
  3
Phantom
 72
    65
 73
     6
 40
13.0
 49
10.0
 74
     0
 49
-1.0
 74
     0
 49
0.0
 74
     0
 49
-1.0
 74
     0
 49
0.0
 74
     0
 49
-1.0
 74
     0
  0
LTYPE
  5
45
330
5
100
AcDbSymbolTableRecord
100
AcDbLinetypeTableRecord
  2
CENTER_DASH_DASH
 70
     0
  3
Center_Dash_Dash
 72
    65
 73
     6
 40
14.0
 49
9.0
 74
     0
 49
-1.0
 74
     0
 49
1.0
 74
     0
 49
-1.0
 74
     0
 49
1.0
 74
     0
 49
-1.0
 74
     0
  0
ENDTAB
  0
TABLE
  2
LAYER
  5
2
330
0
100
AcDbSymbolTable
 70
     2
  0
LAYER
  5
10
330
2
100
AcDbSymbolTableRecord
100
AcDbLayerTableRecord
  2
0
 70
     0
 62
     7
  6
Continuous
370
    -3
390
F
  0
LAYER
  5
46
330
2
100
AcDbSymbolTableRecord
100
AcDbLayerTableRecord
  2
1
 70
     0
 62
     7
  6
Continuous
370
    -3
390
F
  0
ENDTAB
  0
TABLE
  2
STYLE
  5
3
330
0
100
AcDbSymbolTable
 70
     5
  0
STYLE
  5
11
330
3
100
AcDbSymbolTableRecord
100
AcDbTextStyleTableRecord
  2
Standard
 70
     0
 40
0.0
 41
1.0
 50
0.0
 71
     0
 42
0.2
  3
txt
  4

  0
STYLE
  5
98
330
3
100
AcDbSymbolTableRecord
100
AcDbTextStyleTableRecord
  2
CONVERTER_11
 70
     0
 40
0.0
 41
0.9
 50
0.0
 71
     0
 42
0.2
  3
txt.shx
  4

  0
STYLE
  5
216
330
3
100
AcDbSymbolTableRecord
100
AcDbTextStyleTableRecord
  2
CONVERTER_12
 70
     0
 40
0.0
 41
0.81
 50
0.0
 71
     0
 42
0.2
  3
txt.shx
  4

  0
STYLE
  5
22C
330
3
100
AcDbSymbolTableRecord
100
AcDbTextStyleTableRecord
  2
CONVERTER_13
 70
     0
 40
0.0
 41
0.72
 50
0.0
 71
     0
 42
0.2
  3
txt.shx
  4

  0
STYLE
  5
22F
330
3
100
AcDbSymbolTableRecord
100
AcDbTextStyleTableRecord
  2
CONVERTER_14
 70
     0
 40
0.0
 41
0.855
 50
0.0
 71
     0
 42
0.2
  3
txt.shx
  4

  0
ENDTAB
  0
TABLE
  2
VIEW
  5
6
330
0
100
AcDbSymbolTable
 70
     0
  0
ENDTAB
  0
TABLE
  2
UCS
  5
7
330
0
100
AcDbSymbolTable
 70
     0
  0
ENDTAB
  0
TABLE
  2
APPID
  5
9
330
0
100
AcDbSymbolTable
 70
     1
  0
APPID
  5
12
330
9
100
AcDbSymbolTableRecord
100
AcDbRegAppTableRecord
  2
ACAD
 70
     0
  0
ENDTAB
  0
TABLE
  2
DIMSTYLE
  5
A
330
0
100
AcDbSymbolTable
 70
     2
100
AcDbDimStyleTable
  0
DIMSTYLE
105
27
330
A
100
AcDbSymbolTableRecord
100
AcDbDimStyleTableRecord
  2
Standard
 70
     0
178
     0
340
11
  0
DIMSTYLE
105
116
102
{ACAD_REACTORS
330
117
102
}
330
A
100
AcDbSymbolTableRecord
100
AcDbDimStyleTableRecord
  2
ME10_DIM_10
 70
     0
 41
3.5
 42
0.0
 44
1.5
 73
     0
 74
     0
 77
     1
 78
     8
140
3.5
147
1.5
172
     1
173
     1
174
     1
175
     1
176
     2
177
     2
271
     1
178
     3
271
     1
340
98
  0
ENDTAB
  0
TABLE
  2
BLOCK_RECORD
  5
1
330
0
100
AcDbSymbolTable
 70
    19
  0
BLOCK_RECORD
  5
1F
330
1
100
AcDbSymbolTableRecord
100
AcDbBlockTableRecord
  2
*Model_Space
340
22
  0
BLOCK_RECORD
  5
1B
330
1
100
AcDbSymbolTableRecord
100
AcDbBlockTableRecord
  2
*Paper_Space
340
1E
  0
BLOCK_RECORD
  5
23
330
1
100
AcDbSymbolTableRecord
100
AcDbBlockTableRecord
  2
*Paper_Space0
340
26
  0
BLOCK_RECORD
  5
47
330
1
100
AcDbSymbolTableRecord
100
AcDbBlockTableRecord
  2
HC_BS_PG29-select__1
340
0
102
{BLKREFS
331
4B
102
}
  0
BLOCK_RECORD
  5
4A
330
1
100
AcDbSymbolTableRecord
100
AcDbBlockTableRecord
  2
Allg1
340
0
102
{BLKREFS
331
7D
102
}
  0
BLOCK_RECORD
  5
4E
330
1
100
AcDbSymbolTableRecord
100
AcDbBlockTableRecord
  2
HC_BS_PG29-select__2
340
0
102
{BLKREFS
331
52
102
}
  0
BLOCK_RECORD
  5
51
330
1
100
AcDbSymbolTableRecord
100
AcDbBlockTableRecord
  2
Drfsicht1
340
0
102
{BLKREFS
331
7E
102
}
  0
BLOCK_RECORD
  5
55
330
1
100
AcDbSymbolTableRecord
100
AcDbBlockTableRecord
  2
HC_BS_PG29-select__3
340
0
102
{BLKREFS
331
59
102
}
  0
BLOCK_RECORD
  5
58
330
1
100
AcDbSymbolTableRecord
100
AcDbBlockTableRecord
  2
Rckans1
340
0
102
{BLKREFS
331
7F
102
}
  0
BLOCK_RECORD
  5
5C
330
1
100
AcDbSymbolTableRecord
100
AcDbBlockTableRecord
  2
HC_BS_PG29-select__4
340
0
102
{BLKREFS
331
60
102
}
  0
BLOCK_RECORD
  5
5F
330
1
100
AcDbSymbolTableRecord
100
AcDbBlockTableRecord
  2
SA_Links1
340
0
102
{BLKREFS
331
80
102
}
  0
BLOCK_RECORD
  5
63
330
1
100
AcDbSymbolTableRecord
100
AcDbBlockTableRecord
  2
HC_BS_PG29-select__5
340
0
102
{BLKREFS
331
67
102
}
  0
BLOCK_RECORD
  5
66
330
1
100
AcDbSymbolTableRecord
100
AcDbBlockTableRecord
  2
SA_Rechts1
340
0
102
{BLKREFS
331
81
102
}
  0
BLOCK_RECORD
  5
6A
330
1
100
AcDbSymbolTableRecord
100
AcDbBlockTableRecord
  2
HC_BS_PG29-select__6
340
0
102
{BLKREFS
331
6E
102
}
  0
BLOCK_RECORD
  5
6D
330
1
100
AcDbSymbolTableRecord
100
AcDbBlockTableRecord
  2
Vordans1
340
0
102
{BLKREFS
331
82
102
}
  0
BLOCK_RECORD
  5
71
330
1
100
AcDbSymbolTableRecord
100
AcDbBlockTableRecord
  2
_punkt
340
0
102
{BLKREFS
331
78
102
}
  0
BLOCK_RECORD
  5
74
330
1
100
AcDbSymbolTableRecord
100
AcDbBlockTableRecord
  2
_rahmen
340
0
102
{BLKREFS
331
79
102
}
  0
BLOCK_RECORD
  5
77
330
1
100
AcDbSymbolTableRecord
100
AcDbBlockTableRecord
  2
A4I_CS
340
0
102
{BLKREFS
331
83
102
}
  0
BLOCK_RECORD
  5
7C
330
1
100
AcDbSymbolTableRecord
100
AcDbBlockTableRecord
  2
1
340
0
102
{BLKREFS
331
86
102
}
  0
BLOCK_RECORD
  5
A2
330
1
100
AcDbSymbolTableRecord
100
AcDbBlockTableRecord
  2
*D17
340
0
102
{BLKREFS
331
AB
102
}
  0
BLOCK_RECORD
  5
10D
330
1
100
AcDbSymbolTableRecord
100
AcDbBlockTableRecord
  2
*D18
340
0
  0
ENDTAB
  0
ENDSEC
  0
SECTION
  2
BLOCKS
  0
BLOCK
  5
20
330
1F
100
AcDbEntity
  8
0
100
AcDbBlockBegin
  2
*Model_Space
 70
     0
 10
0.0
 20
0.0
 30
0.0
  3
*Model_Space
  1

  0
ENDBLK
  5
21
330
1F
100
AcDbEntity
  8
0
100
AcDbBlockEnd
  0
BLOCK
  5
1C
330
1B
100
AcDbEntity
 67
     1
  8
0
100
AcDbBlockBegin
  2
*Paper_Space
 70
     0
 10
0.0
 20
0.0
 30
0.0
  3
*Paper_Space
  1

  0
ENDBLK
  5
1D
330
1B
100
AcDbEntity
 67
     1
  8
0
100
AcDbBlockEnd
  0
BLOCK
  5
24
330
23
100
AcDbEntity
  8
0
100
AcDbBlockBegin
  2
*Paper_Space0
 70
     0
 10
0.0
 20
0.0
 30
0.0
  3
*Paper_Space0
  1

  0
ENDBLK
  5
25
330
23
100
AcDbEntity
  8
0
100
AcDbBlockEnd
  0
BLOCK
  5
48
330
47
100
AcDbEntity
  8
0
100
AcDbBlockBegin
  2
HC_BS_PG29-select__1
 70
     0
 10
-166.5173830000196
 20
-209.5400217194272
 30
0.0
  3
HC_BS_PG29-select__1
  1

  0
LINE
  5
87
330
47
100
AcDbEntity
  8
0
  6
Continuous
 62
     7
100
AcDbLine
 10
-166.5173830000196
 20
-197.1192395767806
 30
0.0
 11
-166.5173830000196
 21
-196.275059943325
 31
0.0
  0
LINE
  5
88
330
47
100
AcDbEntity
  8
0
  6
Continuous
 62
     7
100
AcDbLine
 10
-141.7258419202003
 20
-187.5096124488905
 30
0.0
 11
-154.0409748874077
 21
-198.1748304494754
 31
0.0
  0
LINE
  5
89
330
47
100
AcDbEntity
  8
0
  6
Continuous
 62
     7
100
AcDbLine
 10
-127.5173830000196
 20
-197.1192395767806
 30
0.0
 11
-127.5173830000196
 21
-196.275059943325
 31
0.0
  0
ARC
  5
8A
330
47
100
AcDbEntity
  8
0
  6
Continuous
 62
     7
100
AcDbCircle
 10
-147.0173830000195
 20
-221.4978546933126
 30
0.0
 40
35.05000000000008
100
AcDbArc
 50
73.63731682929156
 51
106.3626831707087
  0
SPLINE
  5
8B
330
47
100
AcDbEntity
  8
0
  6
Continuous
 62
     7
100
AcDbSpline
210
0.0
220
0.0
230
1.0
 70
     8
 71
     3
 72
    13
 73
     9
 74
     7
 42
0.000000001
 43
0.0000000001
 44
0.00000001
 40
0.0
 40
0.0
 40
0.0
 40
0.0
 40
2.920071598130221
 40
5.579553360415515
 40
7.951151966384215
 40
10.03777725293783
 40
11.88507861976431
 40
13.5915419920469
 40
13.5915419920469
 40
13.5915419920469
 40
13.5915419920469
 10
-156.8915496315215
 20
-187.8674616933292
 30
0.0
 10
-157.8182169611209
 20
-188.1692007817627
 30
0.0
 10
-159.5888549848079
 20
-188.74575149759
 30
0.0
 10
-161.9647350049378
 20
-189.9423392369277
 30
0.0
 10
-163.9188410491127
 20
-191.3121237822163
 30
0.0
 10
-165.3681086138687
 20
-192.8466561355124
 30
0.0
 10
-166.3312069526977
 20
-194.5147849885165
 30
0.0
 10
-166.4569858889394
 20
-195.704011563568
 30
0.0
 10
-166.5173830000196
 20
-196.275059943325
 30
0.0
 11
-156.8915496315215
 21
-187.8674616933292
 31
0.0
 11
-159.6432266950321
 21
-188.8447494865473
 31
0.0
 11
-162.0166405923179
 21
-190.0446451962981
 31
0.0
 11
-163.9406838545608
 21
-191.431201173347
 31
0.0
 11
-165.3577145544083
 21
-192.9628764310822
 31
0.0
 11
-166.2252776298233
 21
-194.5937831340484
 31
0.0
 11
-166.5173830000196
 21
-196.275059943325
 31
0.0
  0
SPLINE
  5
8C
330
47
100
AcDbEntity
  8
0
  6
Continuous
 62
     7
100
AcDbSpline
210
0.0
220
0.0
230
1.0
 70
     8
 71
     3
 72
    13
 73
     9
 74
     7
 42
0.000000001
 43
0.0000000001
 44
0.00000001
 40
0.0
 40
0.0
 40
0.0
 40
0.0
 40
1.706463372282584
 40
3.553764739109049
 40
5.640390025662642
 40
8.011988631631318
 40
10.67147039391666
 40
13.5915419920469
 40
13.5915419920469
 40
13.5915419920469
 40
13.5915419920469
 10
-127.5173830000196
 20
-196.275059943325
 30
0.0
 10
-127.5777801110998
 20
-195.7040115635681
 30
0.0
 10
-127.7035590473415
 20
-194.5147849885166
 30
0.0
 10
-128.6666573861705
 20
-192.8466561355124
 30
0.0
 10
-130.1159249509264
 20
-191.3121237822163
 30
0.0
 10
-132.0700309951013
 20
-189.9423392369276
 30
0.0
 10
-134.4459110152313
 20
-188.7457514975901
 30
0.0
 10
-136.2165490389181
 20
-188.1692007817626
 30
0.0
 10
-137.1432163685176
 20
-187.8674616933291
 30
0.0
 11
-127.5173830000196
 21
-196.275059943325
 31
0.0
 11
-127.8094883702159
 21
-194.5937831340484
 31
0.0
 11
-128.6770514456308
 21
-192.9628764310822
 31
0.0
 11
-130.0940821454783
 21
-191.431201173347
 31
0.0
 11
-132.0181254077212
 21
-190.0446451962981
 31
0.0
 11
-134.3915393050071
 21
-188.8447494865473
 31
0.0
 11
-137.1432163685176
 21
-187.8674616933291
 31
0.0
  0
SPLINE
  5
8D
330
47
100
AcDbEntity
  8
0
  6
Continuous
 62
     7
100
AcDbSpline
210
0.0
220
0.0
230
1.0
 70
     8
 71
     3
 72
    13
 73
     9
 74
     7
 42
0.000000001
 43
0.0000000001
 44
0.00000001
 40
0.0
 40
0.0
 40
0.0
 40
0.0
 40
2.110092151741543
 40
4.465384259178533
 40
7.096200353392854
 40
10.01089960480595
 40
13.20157434337857
 40
16.64828939056213
 40
16.64828939056213
 40
16.64828939056213
 40
16.64828939056213
 10
-139.9937911126314
 20
-188.0096124488905
 30
0.0
 10
-140.671621919127
 20
-188.2056757976708
 30
0.0
 10
-142.1060497952436
 20
-188.620585744053
 30
0.0
 10
-144.1677349349306
 20
-189.8197681457315
 30
0.0
 10
-146.2597414741262
 20
-191.4248631442473
 30
0.0
 10
-148.3404385198093
 20
-193.4714743152117
 30
0.0
 10
-150.402433464252
 20
-195.9042022097474
 30
0.0
 10
-151.6572916376023
 20
-197.7278385026918
 30
0.0
 10
-152.3089240798388
 20
-198.6748304494754
 30
0.0
 11
-139.9937911126314
 21
-188.0096124488905
 31
0.0
 11
-141.9966730615857
 21
-188.6736552173799
 31
0.0
 11
-144.0590374822157
 21
-189.8112201310815
 31
0.0
 11
-146.1513575962351
 21
-191.4060210224062
 31
0.0
 11
-148.2436777102546
 21
-193.4352248742614
 31
0.0
 11
-150.3060421308846
 21
-195.8697799208134
 31
0.0
 11
-152.3089240798388
 21
-198.6748304494754
 31
0.0
  0
SPLINE
  5
8E
330
47
100
AcDbEntity
  8
0
  6
Continuous
 62
     7
100
AcDbSpline
210
0.0
220
0.0
230
1.0
 70
     8
 71
     3
 72
     9
 73
     5
 74
     3
 42
0.000000001
 43
0.0000000001
 44
0.00000001
 40
0.0
 40
0.0
 40
0.0
 40
0.0
 40
0.9162675622428957
 40
1.80333653643713
 40
1.80333653643713
 40
1.80333653643713
 40
1.80333653643713
 10
-141.7258419202003
 20
-187.5096124488905
 30
0.0
 10
-141.4293361219034
 20
-187.5833768320015
 30
0.0
 10
-140.845773245193
 20
-187.7285549767846
 30
0.0
 10
-140.274703007969
 20
-187.916943377459
 30
0.0
 10
-139.9937911126314
 20
-188.0096124488905
 30
0.0
 11
-141.7258419202003
 21
-187.5096124488905
 31
0.0
 11
-140.8395496434023
 21
-187.7420608220055
 31
0.0
 11
-139.9937911126314
 21
-188.0096124488905
 31
0.0
  0
SPLINE
  5
8F
330
47
100
AcDbEntity
  8
0
  6
Continuous
 62
     7
100
AcDbSpline
210
0.0
220
0.0
230
1.0
 70
     8
 71
     3
 72
    13
 73
     9
 74
     7
 42
0.000000001
 43
0.0000000001
 44
0.00000001
 40
0.0
 40
0.0
 40
0.0
 40
0.0
 40
3.446715047183512
 40
6.637389785756152
 40
9.55208903716925
 40
12.18290513138361
 40
14.5381972388206
 40
16.64828939056214
 40
16.64828939056214
 40
16.64828939056214
 40
16.64828939056214
 10
-154.0409748874077
 20
-198.1748304494754
 30
0.0
 10
-153.3893424451711
 20
-197.2278385026918
 30
0.0
 10
-152.1344842718209
 20
-195.4042022097474
 30
0.0
 10
-150.0724893273782
 20
-192.9714743152118
 30
0.0
 10
-147.9917922816951
 20
-190.9248631442473
 30
0.0
 10
-145.8997857424995
 20
-189.3197681457315
 30
0.0
 10
-143.8381006028125
 20
-188.1205857440531
 30
0.0
 10
-142.4036727266959
 20
-187.7056757976708
 30
0.0
 10
-141.7258419202003
 20
-187.5096124488905
 30
0.0
 11
-154.0409748874077
 21
-198.1748304494754
 31
0.0
 11
-152.0380929384535
 21
-195.3697799208135
 31
0.0
 11
-149.9757285178235
 21
-192.9352248742615
 31
0.0
 11
-147.883408403804
 21
-190.9060210224062
 31
0.0
 11
-145.7910882897846
 21
-189.3112201310815
 31
0.0
 11
-143.7287238691545
 21
-188.1736552173799
 31
0.0
 11
-141.7258419202003
 21
-187.5096124488905
 31
0.0
  0
SPLINE
  5
90
330
47
100
AcDbEntity
  8
0
  6
Continuous
 62
     7
100
AcDbSpline
210
0.0
220
0.0
230
1.0
 70
     8
 71
     3
 72
     9
 73
     5
 74
     3
 42
0.000000001
 43
0.0000000001
 44
0.00000001
 40
0.0
 40
0.0
 40
0.0
 40
0.0
 40
0.9162675622429233
 40
1.803336536437158
 40
1.803336536437158
 40
1.803336536437158
 40
1.803336536437158
 10
-152.3089240798388
 20
-198.6748304494754
 30
0.0
 10
-152.6054298781358
 20
-198.6010660663644
 30
0.0
 10
-153.1889927548461
 20
-198.4558879215813
 30
0.0
 10
-153.7600629920701
 20
-198.2674995209069
 30
0.0
 10
-154.0409748874077
 20
-198.1748304494754
 30
0.0
 11
-152.3089240798388
 21
-198.6748304494754
 31
0.0
 11
-153.1952163566368
 21
-198.4423820763604
 31
0.0
 11
-154.0409748874077
 21
-198.1748304494754
 31
0.0
  0
SPLINE
  5
91
330
47
100
AcDbEntity
  8
0
  6
Continuous
 62
     7
100
AcDbSpline
210
0.0
220
0.0
230
1.0
 70
     8
 71
     3
 72
     9
 73
     5
 74
     3
 42
0.000000001
 43
0.0000000001
 44
0.00000001
 40
0.0
 40
0.0
 40
0.0
 40
0.0
 40
1.775527329294174
 40
3.341137427082614
 40
3.341137427082614
 40
3.341137427082614
 40
3.341137427082614
 10
-133.1609765394685
 20
-205.5359691360812
 30
0.0
 10
-132.7243882328142
 20
-205.1259843503746
 30
0.0
 10
-131.9028286431212
 20
-204.3544864909601
 30
0.0
 10
-131.4465341786683
 20
-203.3259986747852
 30
0.0
 10
-131.2327210057291
 20
-202.8440637165687
 30
0.0
 11
-133.1609765394685
 21
-205.5359691360812
 31
0.0
 11
-131.9543628202055
 21
-204.233440581959
 31
0.0
 11
-131.2327210057291
 21
-202.8440637165687
 31
0.0
  0
SPLINE
  5
92
330
47
100
AcDbEntity
  8
0
  6
Continuous
 62
     7
100
AcDbSpline
210
0.0
220
0.0
230
1.0
 70
     8
 71
     3
 72
    21
 73
    17
 74
    15
 42
0.000000001
 43
0.0000000001
 44
0.00000001
 40
0.0
 40
0.0
 40
0.0
 40
0.0
 40
0.3739479563270325
 40
0.764287388211512
 40
1.663844461951847
 40
2.674355906627004
 40
3.726864773887586
 40
4.68177049225191
 40
5.654574322090167
 40
6.741102453688884
 40
7.827630585384858
 40
8.800434415622977
 40
9.755340134916452
 40
10.80784900390915
 40
12.1582065450552
 40
13.4820597586823
 40
13.4820597586823
 40
13.4820597586823
 40
13.4820597586823
 10
-140.3265001369018
 20
-206.2773246183168
 30
0.0
 10
-140.4483140878586
 20
-206.3037693559648
 30
0.0
 10
-140.6972815337307
 20
-206.3578179842563
 30
0.0
 10
-141.2412465927334
 20
-206.4660986410307
 30
0.0
 10
-141.9964802788818
 20
-206.5995077226559
 30
0.0
 10
-142.9742054648669
 20
-206.7396079077116
 30
0.0
 10
-143.9743974220918
 20
-206.8490873962995
 30
0.0
 10
-144.9649673023031
 20
-206.9259760664929
 30
0.0
 10
-145.9687130246415
 20
-206.9739724986692
 30
0.0
 10
-147.0173823303184
 20
-206.991220605307
 30
0.0
 10
-148.0660554930161
 20
-206.9739816316552
 30
0.0
 10
-149.0697909028499
 20
-206.9259441908927
 30
0.0
 10
-150.0603982390208
 20
-206.849209957256
 30
0.0
 10
-151.1730529354139
 20
-206.7267074814181
 30
0.0
 10
-152.402921383243
 20
-206.5470648024339
 30
0.0
 10
-153.2760357517118
 20
-206.366641917149
 30
0.0
 10
-153.7082661795958
 20
-206.2773245605158
 30
0.0
 11
-140.3265001369018
 21
-206.2773246183168
 31
0.0
 11
-140.6921581726685
 21
-206.3556270778039
 31
0.0
 11
-141.0749287407045
 21
-206.4321225985584
 31
0.0
 11
-141.9607825736954
 21
-206.5885384481634
 31
0.0
 11
-142.9610341543226
 21
-206.732170474167
 31
0.0
 11
-144.0072771012154
 21
-206.8468466048107
 31
0.0
 11
-144.9593115180307
 21
-206.9208425598156
 31
0.0
 11
-145.9310023444353
 21
-206.9673638364698
 31
0.0
 11
-147.0173830000196
 21
-206.985264980565
 31
0.0
 11
-148.1037636556007
 21
-206.9673638364698
 31
0.0
 11
-149.0754544820084
 21
-206.9208425598156
 31
0.0
 11
-150.0274888988235
 21
-206.8468466048107
 31
0.0
 11
-151.0737318457166
 21
-206.732170474167
 31
0.0
 11
-152.4092683652291
 21
-206.532651819115
 31
0.0
 11
-153.7082661795958
 21
-206.2773245605158
 31
0.0
  0
SPLINE
  5
93
330
47
100
AcDbEntity
  8
0
  6
Continuous
 62
     7
100
AcDbSpline
210
0.0
220
0.0
230
1.0
 70
     8
 71
     3
 72
    21
 73
    17
 74
    15
 42
0.000000001
 43
0.0000000001
 44
0.00000001
 40
0.0
 40
0.0
 40
0.0
 40
0.0
 40
1.525248495803427
 40
3.248801125418477
 40
5.210900462433999
 40
7.414771717802998
 40
9.837535522042899
 40
12.43847094957028
 40
15.16490349188329
 40
17.95670863769043
 40
20.75013267982147
 40
23.48133395105565
 40
26.08991783216452
 40
28.52273553627894
 40
30.73833964503921
 40
32.71278031059189
 40
32.71278031059189
 40
32.71278031059189
 40
32.71278031059189
 10
-162.80204499431
 20
-202.8440637165687
 30
0.0
 10
-162.5931646791222
 20
-203.311294303986
 30
0.0
 10
-162.1482466053845
 20
-204.3065021338969
 30
0.0
 10
-160.9152576883448
 20
-205.571407094235
 30
0.0
 10
-159.3175659157603
 20
-206.7178491717727
 30
0.0
 10
-157.3422453669914
 20
-207.6995168563791
 30
0.0
 10
-155.0643304603944
 20
-208.4974233062662
 30
0.0
 10
-152.5442824048416
 20
-209.0865309926327
 30
0.0
 10
-149.8586615175053
 20
-209.4499180301337
 30
0.0
 10
-147.0874682119436
 20
-209.5762958887675
 30
0.0
 10
-144.3140342152856
 20
-209.4621038352335
 30
0.0
 10
-141.6225345264586
 20
-209.1099077396905
 30
0.0
 10
-139.0910013019245
 20
-208.5336266251133
 30
0.0
 10
-136.8036503859551
 20
-207.7395178184097
 30
0.0
 10
-134.7973833860154
 20
-206.7865763922038
 30
0.0
 10
-133.6851059641359
 20
-205.936529713571
 30
0.0
 10
-133.1609765394685
 20
-205.5359691360812
 30
0.0
 11
-162.80204499431
 21
-202.8440637165687
 31
0.0
 11
-162.1040337306694
 21
-204.200221256667
 31
0.0
 11
-160.943766256275
 21
-205.4747458941588
 31
0.0
 11
-159.3567919453832
 21
-206.6285857178563
 31
0.0
 11
-157.3917371364496
 21
-207.6263873534932
 31
0.0
 11
-155.1088102890404
 21
-208.4375775019494
 31
0.0
 11
-152.5779614485401
 21
-209.0373018063114
 31
0.0
 11
-149.8767355047241
 21
-209.4071839560858
 31
0.0
 11
-147.0878987665953
 21
-209.535891440808
 31
0.0
 11
-144.2969014129552
 21
-209.4194798967012
 31
0.0
 11
-141.5892598373676
 21
-209.0615169389173
 31
0.0
 11
-139.047936911801
 21
-208.4729698706167
 31
0.0
 11
-136.7507984653688
 21
-207.6718725331547
 31
0.0
 11
-134.7682299778271
 21
-206.6827700345937
 31
0.0
 11
-133.1609765394685
 21
-205.5359691360812
 31
0.0
  0
SPLINE
  5
94
330
47
100
AcDbEntity
  8
0
  6
Continuous
 62
     7
100
AcDbSpline
210
0.0
220
0.0
230
1.0
 70
     8
 71
     3
 72
    21
 73
    17
 74
    15
 42
0.000000001
 43
0.0000000001
 44
0.00000001
 40
0.0
 40
0.0
 40
0.0
 40
0.0
 40
1.844241278763621
 40
3.863302554392152
 40
6.172849072593213
 40
8.81851882099979
 40
11.79224416248841
 40
15.0494743509731
 40
18.52148758994505
 40
22.12415241331345
 40
25.76485561419574
 40
29.34861894796448
 40
32.78402021309302
 40
35.98941679928954
 40
38.90013380040222
 40
41.47778494536134
 40
41.47778494536134
 40
41.47778494536134
 40
41.47778494536134
 10
-166.5173830000196
 20
-196.275059943325
 30
0.0
 10
-166.4463006484288
 20
-196.8924280904588
 30
0.0
 10
-166.2973978732784
 20
-198.1856861699885
 30
0.0
 10
-165.1710738528005
 20
-199.9753584716134
 30
0.0
 10
-163.4937690411422
 20
-201.5974635699482
 30
0.0
 10
-161.2472875947707
 20
-203.0223853430703
 30
0.0
 10
-158.5303415552041
 20
-204.2136544222541
 30
0.0
 10
-155.4220901074719
 20
-205.1348759204854
 30
0.0
 10
-152.0286289600732
 20
-205.7555345314203
 30
0.0
 10
-148.4640248412465
 20
-206.0543038212031
 30
0.0
 10
-144.8498047973683
 20
-206.0211630107996
 30
0.0
 10
-141.3104659532852
 20
-205.6559900568649
 30
0.0
 10
-137.9628833806709
 20
-204.975969305506
 30
0.0
 10
-134.9327590812168
 20
-203.9887508175027
 30
0.0
 10
-132.2785448167791
 20
-202.7777310817397
 30
0.0
 10
-130.8165322335774
 20
-201.6702134725695
 30
0.0
 10
-130.129887626223
 20
-201.150059943325
 30
0.0
 11
-166.5173830000196
 21
-196.275059943325
 31
0.0
 11
-166.177428549961
 21
-198.087698049011
 31
0.0
 11
-165.1694210985815
 21
-199.8371349308973
 31
0.0
 11
-163.5285043006134
 21
-201.4623725057614
 31
0.0
 11
-161.3118945007012
 21
-202.9067441365914
 31
0.0
 11
-158.5968762088842
 21
-204.1198880184077
 31
0.0
 11
-155.478115912812
 21
-205.0595064053736
 31
0.0
 11
-152.0643542008975
 21
-205.6928364163317
 31
0.0
 11
-148.4746198249549
 21
-205.9977969658415
 31
0.0
 11
-144.8340757932762
 21
-205.9637536468842
 31
0.0
 11
-141.269657099007
 21
-205.5918947997399
 31
0.0
 11
-137.9056450711753
 21
-204.8951847249135
 31
0.0
 11
-134.8593318637743
 21
-203.8979168973883
 31
0.0
 11
-132.2369349217893
 21
-202.6348619782021
 31
0.0
 11
-130.129887626223
 21
-201.150059943325
 31
0.0
  0
SPLINE
  5
95
330
47
100
AcDbEntity
  8
0
  6
Continuous
 62
     7
100
AcDbSpline
210
0.0
220
0.0
230
1.0
 70
     8
 71
     3
 72
    11
 73
     7
 74
     5
 42
0.000000001
 43
0.0000000001
 44
0.00000001
 40
0.0
 40
0.0
 40
0.0
 40
0.0
 40
1.606579204312615
 40
3.066279918233671
 40
4.412484133571636
 40
5.696002238614191
 40
5.696002238614191
 40
5.696002238614191
 40
5.696002238614191
 10
-130.129887626223
 20
-201.9942395767806
 30
0.0
 10
-129.7381701354339
 20
-201.6267161947503
 30
0.0
 10
-128.9905472012351
 20
-200.9252695565788
 30
0.0
 10
-128.1610464786993
 20
-199.6995479785103
 30
0.0
 10
-127.6191003370984
 20
-198.4273469959975
 30
0.0
 10
-127.5507456383193
 20
-197.5482905361046
 30
0.0
 10
-127.5173830000196
 20
-197.1192395767806
 30
0.0
 11
-130.129887626223
 21
-201.9942395767806
 31
0.0
 11
-129.0017321910451
 21
-200.8504030268081
 31
0.0
 11
-128.1818293873827
 21
-199.6427252665302
 31
0.0
 11
-127.6842082837105
 21
-198.3918699456284
 31
0.0
 11
-127.5173830000196
 21
-197.1192395767806
 31
0.0
  0
SPLINE
  5
96
330
47
100
AcDbEntity
  8
0
  6
Continuous
 62
     7
100
AcDbSpline
210
0.0
220
0.0
230
1.0
 70
     8
 71
     3
 72
    11
 73
     7
 74
     5
 42
0.000000001
 43
0.0000000001
 44
0.00000001
 40
0.0
 40
0.0
 40
0.0
 40
0.0
 40
1.606579204312615
 40
3.066279918233695
 40
4.412484133571634
 40
5.696002238614188
 40
5.696002238614188
 40
5.696002238614188
 40
5.696002238614188
 10
-130.129887626223
 20
-201.150059943325
 30
0.0
 10
-129.7381701354339
 20
-200.7825365612948
 30
0.0
 10
-128.9905472012352
 20
-200.0810899231232
 30
0.0
 10
-128.1610464786992
 20
-198.8553683450547
 30
0.0
 10
-127.6191003370984
 20
-197.5831673625419
 30
0.0
 10
-127.5507456383193
 20
-196.704110902649
 30
0.0
 10
-127.5173830000196
 20
-196.275059943325
 30
0.0
 11
-130.129887626223
 21
-201.150059943325
 31
0.0
 11
-129.0017321910451
 21
-200.0062233933525
 31
0.0
 11
-128.1818293873827
 21
-198.7985456330746
 31
0.0
 11
-127.6842082837105
 21
-197.5476903121728
 31
0.0
 11
-127.5173830000196
 21
-196.275059943325
 31
0.0
  0
SPLINE
  5
97
330
47
100
AcDbEntity
  8
0
  6
Continuous
 62
     7
100
AcDbSpline
210
0.0
220
0.0
230
1.0
 70
     8
 71
     3
 72
    21
 73
    17
 74
    15
 42
0.000000001
 43
0.0000000001
 44
0.00000001
 40
0.0
 40
0.0
 40
0.0
 40
0.0
 40
1.844241278763621
 40
3.863302554392176
 40
6.172849072593237
 40
8.818518820999815
 40
11.79224416248843
 40
15.04947435097313
 40
18.52148758994507
 40
22.12415241331347
 40
25.76485561419576
 40
29.3486189479645
 40
32.78402021309305
 40
35.98941679928956
 40
38.90013380040226
 40
41.47778494536137
 40
41.47778494536137
 40
41.47778494536137
 40
41.47778494536137
 10
-166.5173830000196
 20
-197.1192395767806
 30
0.0
 10
-166.4463006484288
 20
-197.7366077239144
 30
0.0
 10
-166.2973978732785
 20
-199.0298658034441
 30
0.0
 10
-165.1710738528005
 20
-200.819538105069
 30
0.0
 10
-163.4937690411422
 20
-202.4416432034039
 30
0.0
 10
-161.2472875947707
 20
-203.8665649765259
 30
0.0
 10
-158.5303415552041
 20
-205.0578340557097
 30
0.0
 10
-155.422090107472
 20
-205.979055553941
 30
0.0
 10
-152.0286289600731
 20
-206.5997141648758
 30
0.0
 10
-148.4640248412466
 20
-206.8984834546587
 30
0.0
 10
-144.8498047973683
 20
-206.8653426442553
 30
0.0
 10
-141.3104659532852
 20
-206.5001696903204
 30
0.0
 10
-137.962883380671
 20
-205.8201489389617
 30
0.0
 10
-134.9327590812168
 20
-204.8329304509583
 30
0.0
 10
-132.2785448167791
 20
-203.6219107151953
 30
0.0
 10
-130.8165322335774
 20
-202.514393106025
 30
0.0
 10
-130.129887626223
 20
-201.9942395767806
 30
0.0
 11
-166.5173830000196
 21
-197.1192395767806
 31
0.0
 11
-166.177428549961
 21
-198.9318776824666
 31
0.0
 11
-165.1694210985815
 21
-200.681314564353
 31
0.0
 11
-163.5285043006134
 21
-202.306552139217
 31
0.0
 11
-161.3118945007012
 21
-203.7509237700471
 31
0.0
 11
-158.5968762088842
 21
-204.9640676518633
 31
0.0
 11
-155.478115912812
 21
-205.9036860388292
 31
0.0
 11
-152.0643542008975
 21
-206.5370160497873
 31
0.0
 11
-148.4746198249549
 21
-206.8419765992971
 31
0.0
 11
-144.8340757932762
 21
-206.8079332803398
 31
0.0
 11
-141.269657099007
 21
-206.4360744331954
 31
0.0
 11
-137.9056450711753
 21
-205.7393643583691
 31
0.0
 11
-134.8593318637743
 21
-204.7420965308439
 31
0.0
 11
-132.2369349217893
 21
-203.4790416116577
 31
0.0
 11
-130.129887626223
 21
-201.9942395767806
 31
0.0
  0
ENDBLK
  5
49
330
47
100
AcDbEntity
  8
0
100
AcDbBlockEnd
  0
BLOCK
  5
4C
330
4A
100
AcDbEntity
  8
0
100
AcDbBlockBegin
  2
Allg1
 70
     0
 10
-147.0173830000022
 20
-196.344724
 30
0.0
  3
Allg1
  1

  0
INSERT
  5
4B
330
4A
100
AcDbEntity
  8
0
100
AcDbBlockReference
  2
HC_BS_PG29-select__1
 10
-166.5173830000196
 20
-209.5400217194272
 30
0.0
  0
MTEXT
  5
99
330
4A
100
AcDbEntity
  8
1
 62
     6
100
AcDbMText
 10
-147.0000000000171
 20
-223.7646282425819
 30
0.0
 40
5.0
 41
0.0
 71
     2
 72
     1
  1
 
  7
CONVERTER_11
 73
     1
 44
1.32052821128451
  0
ENDBLK
  5
4D
330
4A
100
AcDbEntity
  8
0
100
AcDbBlockEnd
  0
BLOCK
  5
4F
330
4E
100
AcDbEntity
  8
0
100
AcDbBlockBegin
  2
HC_BS_PG29-select__2
 70
     0
 10
-288.5000231118566
 20
-194.0694506679372
 30
0.0
  3
HC_BS_PG29-select__2
  1

  0
LINE
  5
9A
330
4E
100
AcDbEntity
  8
0
  6
Continuous
 62
     7
100
AcDbLine
 10
-268.0000231118566
 20
-162.2543177007297
 30
0.0
 11
-268.0000231118566
 21
-186.8845836351447
 31
0.0
  0
LINE
  5
9B
330
4E
100
AcDbEntity
  8
0
  6
Continuous
 62
     7
100
AcDbLine
 10
-270.0000231118566
 20
-186.8845836351447
 30
0.0
 11
-270.0000231118566
 21
-162.2543177007298
 31
0.0
  0
LINE
  5
9C
330
4E
100
AcDbEntity
  8
1
  6
DOT_CENTER
 62
     2
100
AcDbLine
 10
-247.5500231118566
 20
-174.5694506679372
 30
0.0
 11
-290.4500231118566
 21
-174.5694506679372
 31
0.0
  0
LINE
  5
9D
330
4E
100
AcDbEntity
  8
1
  6
DOT_CENTER
 62
     2
100
AcDbLine
 10
-269.0000231118566
 20
-153.1194506679372
 30
0.0
 11
-269.0000231118566
 21
-196.0194506679372
 31
0.0
  0
ARC
  5
9E
330
4E
100
AcDbEntity
  8
0
  6
Continuous
 62
     7
100
AcDbCircle
 10
-269.0000231118566
 20
-174.5694506679372
 30
0.0
 40
12.35566671612671
100
AcDbArc
 50
265.3577158060234
 51
274.6422841939766
  0
ARC
  5
9F
330
4E
100
AcDbEntity
  8
0
  6
Continuous
 62
     7
100
AcDbCircle
 10
-269.0000231118566
 20
-174.5694506679372
 30
0.0
 40
12.35566671612668
100
AcDbArc
 50
85.35771580602338
 51
94.64228419397666
  0
CIRCLE
  5
A0
330
4E
100
AcDbEntity
  8
0
  6
Continuous
 62
     7
100
AcDbCircle
 10
-269.0000231118566
 20
-174.5694506679372
 30
0.0
 40
19.5
  0
ENDBLK
  5
50
330
4E
100
AcDbEntity
  8
0
100
AcDbBlockEnd
  0
BLOCK
  5
53
330
51
100
AcDbEntity
  8
0
100
AcDbBlockBegin
  2
Drfsicht1
 70
     0
 10
-269.0000231118366
 20
-174.5694506679372
 30
0.0
  3
Drfsicht1
  1

  0
INSERT
  5
52
330
51
100
AcDbEntity
  8
0
100
AcDbBlockReference
  2
HC_BS_PG29-select__2
 10
-288.5000231118566
 20
-194.0694506679372
 30
0.0
  0
MTEXT
  5
A1
330
51
100
AcDbEntity
  8
1
 62
     6
100
AcDbMText
 10
-269.0000231118366
 20
-204.5694563899831
 30
0.0
 40
5.0
 41
0.0
 71
     2
 72
     1
  1
 
  7
CONVERTER_11
 73
     1
 44
1.32052821128451
  0
INSERT
  5
AB
330
51
100
AcDbEntity
  8
1
100
AcDbBlockReference
  2
*D17
 10
0.0
 20
0.0
 30
0.0
  0
ENDBLK
  5
54
330
51
100
AcDbEntity
  8
0
100
AcDbBlockEnd
  0
BLOCK
  5
56
330
55
100
AcDbEntity
  8
0
100
AcDbBlockBegin
  2
HC_BS_PG29-select__3
 70
     0
 10
-158.49999999998
 20
-118.9928655534974
 30
0.0
  3
HC_BS_PG29-select__3
  1

  0
LINE
  5
AC
330
55
100
AcDbEntity
  8
0
  6
Continuous
 62
     7
100
AcDbLine
 10
-137.99999999998
 20
-109.2428655534974
 30
0.0
 11
-139.99999999998
 21
-109.2428655534974
 31
0.0
  0
LINE
  5
AD
330
55
100
AcDbEntity
  8
0
  6
Continuous
 62
     7
100
AcDbLine
 10
-137.99999999998
 20
-107.0071337929077
 30
0.0
 11
-137.99999999998
 21
-109.2428655534974
 31
0.0
  0
LINE
  5
AE
330
55
100
AcDbEntity
  8
0
  6
Continuous
 62
     7
100
AcDbLine
 10
-139.99999999998
 20
-109.2428655534974
 30
0.0
 11
-139.99999999998
 21
-107.0071337929077
 31
0.0
  0
LINE
  5
AF
330
55
100
AcDbEntity
  8
0
  6
Continuous
 62
     7
100
AcDbLine
 10
-121.99999999998
 20
-113.8928655534974
 30
0.0
 11
-121.99999999998
 21
-114.8928655534974
 31
0.0
  0
LINE
  5
B0
330
55
100
AcDbEntity
  8
0
  6
Continuous
 62
     7
100
AcDbLine
 10
-119.49999999998
 20
-113.8928655534974
 30
0.0
 11
-119.49999999998
 21
-112.9180908762575
 31
0.0
  0
LINE
  5
B1
330
55
100
AcDbEntity
  8
0
  6
Continuous
 62
     7
100
AcDbLine
 10
-158.49999999998
 20
-113.8928655534974
 30
0.0
 11
-155.99999999998
 21
-113.8928655534974
 31
0.0
  0
LINE
  5
B2
330
55
100
AcDbEntity
  8
0
  6
Continuous
 62
     7
100
AcDbLine
 10
-121.99999999998
 20
-113.8928655534974
 30
0.0
 11
-119.49999999998
 21
-113.8928655534974
 31
0.0
  0
LINE
  5
B3
330
55
100
AcDbEntity
  8
0
  6
Continuous
 62
     7
100
AcDbLine
 10
-155.99999999998
 20
-113.8928655534974
 30
0.0
 11
-121.99999999998
 21
-113.8928655534974
 31
0.0
  0
LINE
  5
B4
330
55
100
AcDbEntity
  8
0
  6
Continuous
 62
     7
100
AcDbLine
 10
-158.49999999998
 20
-113.8928655534974
 30
0.0
 11
-158.49999999998
 21
-112.9180908762575
 31
0.0
  0
LINE
  5
B5
330
55
100
AcDbEntity
  8
0
  6
Continuous
 62
     2
100
AcDbLine
 10
-155.99999999998
 20
-114.8928655534974
 30
0.0
 11
-121.99999999998
 21
-114.8928655534974
 31
0.0
  0
LINE
  5
B6
330
55
100
AcDbEntity
  8
0
  6
Continuous
 62
     7
100
AcDbLine
 10
-155.99999999998
 20
-113.8928655534974
 30
0.0
 11
-155.99999999998
 21
-114.8928655534974
 31
0.0
  0
LINE
  5
B7
330
55
100
AcDbEntity
  8
0
  6
Continuous
 62
     7
100
AcDbLine
 10
-158.49999999998
 20
-112.9180908762575
 30
0.0
 11
-119.49999999998
 21
-112.9180908762575
 31
0.0
  0
LINE
  5
B8
330
55
100
AcDbEntity
  8
0
  6
Continuous
 62
     7
100
AcDbLine
 10
-154.99999999998
 20
-115.8928655534974
 30
0.0
 11
-122.99999999998
 21
-115.8928655534974
 31
0.0
  0
LINE
  5
B9
330
55
100
AcDbEntity
  8
0
  6
Continuous
 62
     7
100
AcDbLine
 10
-122.99999999998
 20
-118.9928655534974
 30
0.0
 11
-122.99999999998
 21
-115.8928655534974
 31
0.0
  0
LINE
  5
BA
330
55
100
AcDbEntity
  8
0
  6
Continuous
 62
     7
100
AcDbLine
 10
-154.99999999998
 20
-118.9928655534974
 30
0.0
 11
-122.99999999998
 21
-118.9928655534974
 31
0.0
  0
LINE
  5
BB
330
55
100
AcDbEntity
  8
0
  6
Continuous
 62
     7
100
AcDbLine
 10
-154.99999999998
 20
-118.9928655534974
 30
0.0
 11
-154.99999999998
 21
-115.8928655534974
 31
0.0
  0
LINE
  5
BC
330
55
100
AcDbEntity
  8
1
  6
DOT_CENTER
 62
     2
100
AcDbLine
 10
-138.99999999998
 20
-118.9928655534974
 30
0.0
 11
-138.99999999998
 21
-115.8928655534974
 31
0.0
  0
LINE
  5
BD
330
55
100
AcDbEntity
  8
1
  6
DOT_CENTER
 62
     2
100
AcDbLine
 10
-138.99999999998
 20
-114.8928655534974
 30
0.0
 11
-138.99999999998
 21
-112.9180908762575
 31
0.0
  0
ARC
  5
BE
330
55
100
AcDbEntity
  8
0
  6
Continuous
 62
     7
100
AcDbCircle
 10
-138.99999999998
 20
-142.0428655534975
 30
0.0
 40
35.05000000000003
100
AcDbArc
 50
91.63490885823477
 51
123.8036170645267
  0
ARC
  5
BF
330
55
100
AcDbEntity
  8
0
  6
Continuous
 62
     7
100
AcDbCircle
 10
-154.99999999998
 20
-114.8928655534974
 30
0.0
 40
1.0
100
AcDbArc
 50
180.0
 51
270.0
  0
ARC
  5
C0
330
55
100
AcDbEntity
  8
0
  6
Continuous
 62
     7
100
AcDbCircle
 10
-122.99999999998
 20
-114.8928655534974
 30
0.0
 40
1.0
100
AcDbArc
 50
270.0
 51
0.0
  0
ARC
  5
C1
330
55
100
AcDbEntity
  8
0
  6
Continuous
 62
     7
100
AcDbCircle
 10
-138.99999999998
 20
-142.0428655534975
 30
0.0
 40
35.05
100
AcDbArc
 50
56.19638293547332
 51
88.36509114176522
  0
ENDBLK
  5
57
330
55
100
AcDbEntity
  8
0
100
AcDbBlockEnd
  0
BLOCK
  5
5A
330
58
100
AcDbEntity
  8
0
100
AcDbBlockBegin
  2
Rckans1
 70
     0
 10
-139.0
 20
-112.998532
 30
0.0
  3
Rckans1
  1

  0
INSERT
  5
59
330
58
100
AcDbEntity
  8
0
100
AcDbBlockReference
  2
HC_BS_PG29-select__3
 10
-158.49999999998
 20
-118.9928655534974
 30
0.0
  0
MTEXT
  5
C2
330
58
100
AcDbEntity
  8
1
 62
     6
100
AcDbMText
 10
-138.99999999998
 20
-124.5694456100167
 30
0.0
 40
5.0
 41
0.0
 71
     2
 72
     1
  1
 
  7
CONVERTER_11
 73
     1
 44
1.32052821128451
  0
ENDBLK
  5
5B
330
58
100
AcDbEntity
  8
0
100
AcDbBlockEnd
  0
BLOCK
  5
5D
330
5C
100
AcDbEntity
  8
0
100
AcDbBlockBegin
  2
HC_BS_PG29-select__4
 70
     0
 10
-223.50001
 20
-118.9928655534974
 30
0.0
  3
HC_BS_PG29-select__4
  1

  0
LINE
  5
C3
330
5C
100
AcDbEntity
  8
0
  6
Continuous
 62
     7
100
AcDbLine
 10
-191.6443432838734
 20
-109.2428655534974
 30
0.0
 11
-191.6848770327925
 21
-109.2428655534974
 31
0.0
  0
LINE
  5
C4
330
5C
100
AcDbEntity
  8
0
  6
Continuous
 62
     7
100
AcDbLine
 10
-184.50001
 20
-113.8928655534974
 30
0.0
 11
-184.50001
 21
-112.9180908762574
 31
0.0
  0
LINE
  5
C5
330
5C
100
AcDbEntity
  8
0
  6
Continuous
 62
     7
100
AcDbLine
 10
-223.50001
 20
-113.8928655534974
 30
0.0
 11
-221.00001
 21
-113.8928655534974
 31
0.0
  0
LINE
  5
C6
330
5C
100
AcDbEntity
  8
0
  6
Continuous
 62
     7
100
AcDbLine
 10
-187.00001
 20
-113.8928655534974
 30
0.0
 11
-184.50001
 21
-113.8928655534974
 31
0.0
  0
LINE
  5
C7
330
5C
100
AcDbEntity
  8
0
  6
Continuous
 62
     7
100
AcDbLine
 10
-221.00001
 20
-113.8928655534974
 30
0.0
 11
-187.00001
 21
-113.8928655534974
 31
0.0
  0
LINE
  5
C8
330
5C
100
AcDbEntity
  8
0
  6
Continuous
 62
     7
100
AcDbLine
 10
-223.50001
 20
-113.8928655534974
 30
0.0
 11
-223.50001
 21
-112.9180908762574
 31
0.0
  0
LINE
  5
C9
330
5C
100
AcDbEntity
  8
0
  6
Continuous
 62
     2
100
AcDbLine
 10
-204.00001
 20
-114.8928655534974
 30
0.0
 11
-187.00001
 21
-114.8928655534974
 31
0.0
  0
LINE
  5
CA
330
5C
100
AcDbEntity
  8
0
  6
Continuous
 62
     2
100
AcDbLine
 10
-221.00001
 20
-114.8928655534974
 30
0.0
 11
-204.00001
 21
-114.8928655534974
 31
0.0
  0
LINE
  5
CB
330
5C
100
AcDbEntity
  8
0
  6
Continuous
 62
     7
100
AcDbLine
 10
-223.50001
 20
-112.9180908762574
 30
0.0
 11
-184.50001
 21
-112.9180908762574
 31
0.0
  0
LINE
  5
CC
330
5C
100
AcDbEntity
  8
0
  6
Continuous
 62
     7
100
AcDbLine
 10
-187.00001
 20
-113.8928655534974
 30
0.0
 11
-187.00001
 21
-114.8928655534974
 31
0.0
  0
LINE
  5
CD
330
5C
100
AcDbEntity
  8
0
  6
Continuous
 62
     7
100
AcDbLine
 10
-220.00001
 20
-118.9928655534974
 30
0.0
 11
-188.00001
 21
-118.9928655534974
 31
0.0
  0
LINE
  5
CE
330
5C
100
AcDbEntity
  8
0
  6
Continuous
 62
     7
100
AcDbLine
 10
-221.00001
 20
-113.8928655534974
 30
0.0
 11
-221.00001
 21
-114.8928655534974
 31
0.0
  0
LINE
  5
CF
330
5C
100
AcDbEntity
  8
0
  6
Continuous
 62
     7
100
AcDbLine
 10
-216.3151429672075
 20
-109.2428655534974
 30
0.0
 11
-216.3556767161267
 21
-109.2428655534974
 31
0.0
  0
LINE
  5
D0
330
5C
100
AcDbEntity
  8
0
  6
Continuous
 62
     7
100
AcDbLine
 10
-204.00001
 20
-115.8928655534974
 30
0.0
 11
-188.00001
 21
-115.8928655534974
 31
0.0
  0
LINE
  5
D1
330
5C
100
AcDbEntity
  8
0
  6
Continuous
 62
     7
100
AcDbLine
 10
-188.00001
 20
-118.9928655534974
 30
0.0
 11
-188.00001
 21
-115.8928655534974
 31
0.0
  0
LINE
  5
D2
330
5C
100
AcDbEntity
  8
0
  6
Continuous
 62
     7
100
AcDbLine
 10
-220.00001
 20
-115.8928655534974
 30
0.0
 11
-204.00001
 21
-115.8928655534974
 31
0.0
  0
LINE
  5
D3
330
5C
100
AcDbEntity
  8
0
  6
Continuous
 62
     7
100
AcDbLine
 10
-220.00001
 20
-118.9928655534974
 30
0.0
 11
-220.00001
 21
-115.8928655534974
 31
0.0
  0
LINE
  5
D4
330
5C
100
AcDbEntity
  8
1
  6
DOT_CENTER
 62
     2
100
AcDbLine
 10
-204.00001
 20
-118.9928655534974
 30
0.0
 11
-204.00001
 21
-115.8928655534974
 31
0.0
  0
LINE
  5
D5
330
5C
100
AcDbEntity
  8
1
  6
DOT_CENTER
 62
     2
100
AcDbLine
 10
-204.00001
 20
-114.8928655534974
 30
0.0
 11
-204.00001
 21
-112.9180908762574
 31
0.0
  0
ARC
  5
D6
330
5C
100
AcDbEntity
  8
0
  6
Continuous
 62
     7
100
AcDbCircle
 10
-204.00001
 20
-142.0428655534974
 30
0.0
 40
35.05
100
AcDbArc
 50
56.19638293547329
 51
69.35875098725778
  0
ARC
  5
D7
330
5C
100
AcDbEntity
  8
0
  6
Continuous
 62
     7
100
AcDbCircle
 10
-188.00001
 20
-114.8928655534974
 30
0.0
 40
1.0
100
AcDbArc
 50
270.0
 51
0.0
  0
ARC
  5
D8
330
5C
100
AcDbEntity
  8
0
  6
Continuous
 62
     7
100
AcDbCircle
 10
-220.00001
 20
-114.8928655534974
 30
0.0
 40
1.0
100
AcDbArc
 50
180.0
 51
270.0
  0
ARC
  5
D9
330
5C
100
AcDbEntity
  8
0
  6
Continuous
 62
     7
100
AcDbCircle
 10
-204.00001
 20
-142.0428655534974
 30
0.0
 40
35.05000000000002
100
AcDbArc
 50
110.6412490127424
 51
123.8036170645267
  0
ARC
  5
DA
330
5C
100
AcDbEntity
  8
0
  6
Continuous
 62
     7
100
AcDbCircle
 10
-204.00001
 20
-142.0428655534974
 30
0.0
 40
35.0357317605898
100
AcDbArc
 50
69.4207827494875
 51
110.5792172505125
  0
ENDBLK
  5
5E
330
5C
100
AcDbEntity
  8
0
100
AcDbBlockEnd
  0
BLOCK
  5
61
330
5F
100
AcDbEntity
  8
0
100
AcDbBlockBegin
  2
SA_Links1
 70
     0
 10
-204.00001
 20
-112.998532
 30
0.0
  3
SA_Links1
  1

  0
INSERT
  5
60
330
5F
100
AcDbEntity
  8
0
100
AcDbBlockReference
  2
HC_BS_PG29-select__4
 10
-223.50001
 20
-118.9928655534974
 30
0.0
  0
MTEXT
  5
DB
330
5F
100
AcDbEntity
  8
1
 62
     6
100
AcDbMText
 10
-204.0000105559282
 20
-124.5694456100167
 30
0.0
 40
5.0
 41
0.0
 71
     2
 72
     1
  1
 
  7
CONVERTER_11
 73
     1
 44
1.32052821128451
  0
ENDBLK
  5
62
330
5F
100
AcDbEntity
  8
0
100
AcDbBlockEnd
  0
BLOCK
  5
64
330
63
100
AcDbEntity
  8
0
100
AcDbBlockBegin
  2
HC_BS_PG29-select__5
 70
     0
 10
-363.500028
 20
-118.9928655534974
 30
0.0
  3
HC_BS_PG29-select__5
  1

  0
LINE
  5
DC
330
63
100
AcDbEntity
  8
0
  6
Continuous
 62
     7
100
AcDbLine
 10
-361.000028
 20
-113.8928655534974
 30
0.0
 11
-361.000028
 21
-114.8928655534974
 31
0.0
  0
LINE
  5
DD
330
63
100
AcDbEntity
  8
0
  6
Continuous
 62
     7
100
AcDbLine
 10
-356.3151609672075
 20
-109.2428655534975
 30
0.0
 11
-356.3556947161267
 21
-109.2428655534974
 31
0.0
  0
LINE
  5
DE
330
63
100
AcDbEntity
  8
0
  6
Continuous
 62
     7
100
AcDbLine
 10
-327.000028
 20
-113.8928655534974
 30
0.0
 11
-327.000028
 21
-114.8928655534974
 31
0.0
  0
LINE
  5
DF
330
63
100
AcDbEntity
  8
0
  6
Continuous
 62
     7
100
AcDbLine
 10
-324.500028
 20
-113.8928655534974
 30
0.0
 11
-324.500028
 21
-112.9180908762575
 31
0.0
  0
LINE
  5
E0
330
63
100
AcDbEntity
  8
0
  6
Continuous
 62
     2
100
AcDbLine
 10
-361.000028
 20
-114.8928655534974
 30
0.0
 11
-327.000028
 21
-114.8928655534974
 31
0.0
  0
LINE
  5
E1
330
63
100
AcDbEntity
  8
0
  6
Continuous
 62
     7
100
AcDbLine
 10
-360.000028
 20
-115.8928655534974
 30
0.0
 11
-328.000028
 21
-115.8928655534974
 31
0.0
  0
LINE
  5
E2
330
63
100
AcDbEntity
  8
0
  6
Continuous
 62
     7
100
AcDbLine
 10
-363.500028
 20
-113.8928655534974
 30
0.0
 11
-363.500028
 21
-112.9180908762575
 31
0.0
  0
LINE
  5
E3
330
63
100
AcDbEntity
  8
0
  6
Continuous
 62
     7
100
AcDbLine
 10
-363.500028
 20
-112.9180908762575
 30
0.0
 11
-344.000028
 21
-112.9180908762575
 31
0.0
  0
LINE
  5
E4
330
63
100
AcDbEntity
  8
0
  6
Continuous
 62
     7
100
AcDbLine
 10
-327.000028
 20
-113.8928655534974
 30
0.0
 11
-324.500028
 21
-113.8928655534974
 31
0.0
  0
LINE
  5
E5
330
63
100
AcDbEntity
  8
0
  6
Continuous
 62
     7
100
AcDbLine
 10
-361.000028
 20
-113.8928655534974
 30
0.0
 11
-344.000028
 21
-113.8928655534974
 31
0.0
  0
LINE
  5
E6
330
63
100
AcDbEntity
  8
0
  6
Continuous
 62
     7
100
AcDbLine
 10
-363.500028
 20
-113.8928655534974
 30
0.0
 11
-361.000028
 21
-113.8928655534974
 31
0.0
  0
LINE
  5
E7
330
63
100
AcDbEntity
  8
0
  6
Continuous
 62
     7
100
AcDbLine
 10
-344.000028
 20
-113.8928655534974
 30
0.0
 11
-327.000028
 21
-113.8928655534974
 31
0.0
  0
LINE
  5
E8
330
63
100
AcDbEntity
  8
0
  6
Continuous
 62
     7
100
AcDbLine
 10
-344.000028
 20
-112.9180908762575
 30
0.0
 11
-324.500028
 21
-112.9180908762575
 31
0.0
  0
LINE
  5
E9
330
63
100
AcDbEntity
  8
0
  6
Continuous
 62
     7
100
AcDbLine
 10
-331.6443612838733
 20
-109.2428655534975
 30
0.0
 11
-331.6848950327926
 21
-109.2428655534974
 31
0.0
  0
LINE
  5
EA
330
63
100
AcDbEntity
  8
0
  6
Continuous
 62
     7
100
AcDbLine
 10
-360.000028
 20
-118.9928655534974
 30
0.0
 11
-360.000028
 21
-115.8928655534974
 31
0.0
  0
LINE
  5
EB
330
63
100
AcDbEntity
  8
0
  6
Continuous
 62
     7
100
AcDbLine
 10
-344.000028
 20
-118.9928655534974
 30
0.0
 11
-328.000028
 21
-118.9928655534974
 31
0.0
  0
LINE
  5
EC
330
63
100
AcDbEntity
  8
0
  6
Continuous
 62
     7
100
AcDbLine
 10
-328.000028
 20
-118.9928655534974
 30
0.0
 11
-328.000028
 21
-115.8928655534974
 31
0.0
  0
LINE
  5
ED
330
63
100
AcDbEntity
  8
0
  6
Continuous
 62
     7
100
AcDbLine
 10
-360.000028
 20
-118.9928655534974
 30
0.0
 11
-344.000028
 21
-118.9928655534974
 31
0.0
  0
LINE
  5
EE
330
63
100
AcDbEntity
  8
1
  6
DOT_CENTER
 62
     2
100
AcDbLine
 10
-344.000028
 20
-118.9928655534974
 30
0.0
 11
-344.000028
 21
-115.8928655534974
 31
0.0
  0
LINE
  5
EF
330
63
100
AcDbEntity
  8
1
  6
DOT_CENTER
 62
     2
100
AcDbLine
 10
-344.000028
 20
-114.8928655534974
 30
0.0
 11
-344.000028
 21
-112.9180908762575
 31
0.0
  0
ARC
  5
F0
330
63
100
AcDbEntity
  8
0
  6
Continuous
 62
     7
100
AcDbCircle
 10
-360.000028
 20
-114.8928655534974
 30
0.0
 40
1.0
100
AcDbArc
 50
180.0
 51
270.0
  0
ARC
  5
F1
330
63
100
AcDbEntity
  8
0
  6
Continuous
 62
     7
100
AcDbCircle
 10
-344.000028
 20
-142.0428655534975
 30
0.0
 40
35.05000000000013
100
AcDbArc
 50
110.6412490127424
 51
123.8036170645267
  0
ARC
  5
F2
330
63
100
AcDbEntity
  8
0
  6
Continuous
 62
     7
100
AcDbCircle
 10
-344.000028
 20
-142.0428655534975
 30
0.0
 40
35.05000000000001
100
AcDbArc
 50
56.1963829354733
 51
69.35875098725766
  0
ARC
  5
F3
330
63
100
AcDbEntity
  8
0
  6
Continuous
 62
     7
100
AcDbCircle
 10
-328.000028
 20
-114.8928655534974
 30
0.0
 40
1.0
100
AcDbArc
 50
270.0
 51
0.0
  0
ARC
  5
F4
330
63
100
AcDbEntity
  8
0
  6
Continuous
 62
     7
100
AcDbCircle
 10
-344.000028
 20
-142.0428655534975
 30
0.0
 40
35.03573176058986
100
AcDbArc
 50
69.42078274948774
 51
110.5792172505125
  0
ENDBLK
  5
65
330
63
100
AcDbEntity
  8
0
100
AcDbBlockEnd
  0
BLOCK
  5
68
330
66
100
AcDbEntity
  8
0
100
AcDbBlockBegin
  2
SA_Rechts1
 70
     0
 10
-344.000028
 20
-112.998532
 30
0.0
  3
SA_Rechts1
  1

  0
INSERT
  5
67
330
66
100
AcDbEntity
  8
0
100
AcDbBlockReference
  2
HC_BS_PG29-select__5
 10
-363.500028
 20
-118.9928655534974
 30
0.0
  0
MTEXT
  5
F5
330
66
100
AcDbEntity
  8
1
 62
     6
100
AcDbMText
 10
-344.0000296677044
 20
-124.5694456100167
 30
0.0
 40
5.0
 41
0.0
 71
     2
 72
     1
  1
 
  7
CONVERTER_11
 73
     1
 44
1.32052821128451
  0
ENDBLK
  5
69
330
66
100
AcDbEntity
  8
0
100
AcDbBlockEnd
  0
BLOCK
  5
6B
330
6A
100
AcDbEntity
  8
0
100
AcDbBlockBegin
  2
HC_BS_PG29-select__6
 70
     0
 10
-288.5000230000213
 20
-118.9928655534974
 30
0.0
  3
HC_BS_PG29-select__6
  1

  0
LINE
  5
F6
330
6A
100
AcDbEntity
  8
0
  6
Continuous
 62
     7
100
AcDbLine
 10
-286.0000230000213
 20
-113.8928655534974
 30
0.0
 11
-286.0000230000213
 21
-114.8928655534974
 31
0.0
  0
LINE
  5
F7
330
6A
100
AcDbEntity
  8
0
  6
Continuous
 62
     7
100
AcDbLine
 10
-268.0000230000213
 20
-109.2428655534974
 30
0.0
 11
-270.0000230000213
 21
-109.2428655534975
 31
0.0
  0
LINE
  5
F8
330
6A
100
AcDbEntity
  8
0
  6
Continuous
 62
     7
100
AcDbLine
 10
-288.5000230000213
 20
-113.8928655534974
 30
0.0
 11
-288.5000230000213
 21
-112.9180908762575
 31
0.0
  0
LINE
  5
F9
330
6A
100
AcDbEntity
  8
0
  6
Continuous
 62
     7
100
AcDbLine
 10
-249.5000230000213
 20
-113.8928655534974
 30
0.0
 11
-249.5000230000213
 21
-112.9180908762575
 31
0.0
  0
LINE
  5
FA
330
6A
100
AcDbEntity
  8
0
  6
Continuous
 62
     7
100
AcDbLine
 10
-288.5000230000213
 20
-113.8928655534974
 30
0.0
 11
-286.0000230000213
 21
-113.8928655534974
 31
0.0
  0
LINE
  5
FB
330
6A
100
AcDbEntity
  8
0
  6
Continuous
 62
     7
100
AcDbLine
 10
-252.0000230000213
 20
-113.8928655534974
 30
0.0
 11
-249.5000230000213
 21
-113.8928655534974
 31
0.0
  0
LINE
  5
FC
330
6A
100
AcDbEntity
  8
0
  6
Continuous
 62
     7
100
AcDbLine
 10
-286.0000230000213
 20
-113.8928655534974
 30
0.0
 11
-252.0000230000213
 21
-113.8928655534974
 31
0.0
  0
LINE
  5
FD
330
6A
100
AcDbEntity
  8
0
  6
Continuous
 62
     7
100
AcDbLine
 10
-288.5000230000213
 20
-112.9180908762575
 30
0.0
 11
-249.5000230000213
 21
-112.9180908762575
 31
0.0
  0
LINE
  5
FE
330
6A
100
AcDbEntity
  8
0
  6
Continuous
 62
     2
100
AcDbLine
 10
-286.0000230000213
 20
-114.8928655534974
 30
0.0
 11
-252.0000230000213
 21
-114.8928655534974
 31
0.0
  0
LINE
  5
FF
330
6A
100
AcDbEntity
  8
0
  6
Continuous
 62
     7
100
AcDbLine
 10
-285.0000230000213
 20
-118.9928655534974
 30
0.0
 11
-253.0000230000213
 21
-118.9928655534974
 31
0.0
  0
LINE
  5
100
330
6A
100
AcDbEntity
  8
0
  6
Continuous
 62
     7
100
AcDbLine
 10
-252.0000230000213
 20
-113.8928655534974
 30
0.0
 11
-252.0000230000213
 21
-114.8928655534974
 31
0.0
  0
LINE
  5
101
330
6A
100
AcDbEntity
  8
0
  6
Continuous
 62
     7
100
AcDbLine
 10
-268.0000230000213
 20
-107.0071337929077
 30
0.0
 11
-268.0000230000213
 21
-109.2428655534974
 31
0.0
  0
LINE
  5
102
330
6A
100
AcDbEntity
  8
0
  6
Continuous
 62
     7
100
AcDbLine
 10
-270.0000230000213
 20
-109.2428655534975
 30
0.0
 11
-270.0000230000213
 21
-107.0071337929077
 31
0.0
  0
LINE
  5
103
330
6A
100
AcDbEntity
  8
0
  6
Continuous
 62
     7
100
AcDbLine
 10
-285.0000230000213
 20
-118.9928655534974
 30
0.0
 11
-285.0000230000213
 21
-115.8928655534974
 31
0.0
  0
LINE
  5
104
330
6A
100
AcDbEntity
  8
0
  6
Continuous
 62
     7
100
AcDbLine
 10
-285.0000230000213
 20
-115.8928655534974
 30
0.0
 11
-253.0000230000213
 21
-115.8928655534974
 31
0.0
  0
LINE
  5
105
330
6A
100
AcDbEntity
  8
0
  6
Continuous
 62
     7
100
AcDbLine
 10
-253.0000230000213
 20
-118.9928655534974
 30
0.0
 11
-253.0000230000213
 21
-115.8928655534974
 31
0.0
  0
LINE
  5
106
330
6A
100
AcDbEntity
  8
1
  6
DOT_CENTER
 62
     2
100
AcDbLine
 10
-269.0000230000213
 20
-118.9928655534974
 30
0.0
 11
-269.0000230000213
 21
-115.8928655534974
 31
0.0
  0
LINE
  5
107
330
6A
100
AcDbEntity
  8
1
  6
DOT_CENTER
 62
     2
100
AcDbLine
 10
-269.0000230000205
 20
-114.8928655534974
 30
0.0
 11
-269.0000230000213
 21
-112.9180908762575
 31
0.0
  0
ARC
  5
108
330
6A
100
AcDbEntity
  8
0
  6
Continuous
 62
     7
100
AcDbCircle
 10
-269.0000230000213
 20
-142.0428655534975
 30
0.0
 40
35.05000000000003
100
AcDbArc
 50
91.63490885823477
 51
123.8036170645267
  0
ARC
  5
109
330
6A
100
AcDbEntity
  8
0
  6
Continuous
 62
     7
100
AcDbCircle
 10
-285.0000230000213
 20
-114.8928655534974
 30
0.0
 40
1.0
100
AcDbArc
 50
180.0
 51
270.0
  0
ARC
  5
10A
330
6A
100
AcDbEntity
  8
0
  6
Continuous
 62
     7
100
AcDbCircle
 10
-253.0000230000213
 20
-114.8928655534974
 30
0.0
 40
1.0
100
AcDbArc
 50
270.0
 51
0.0
  0
ARC
  5
10B
330
6A
100
AcDbEntity
  8
0
  6
Continuous
 62
     7
100
AcDbCircle
 10
-269.0000230000213
 20
-142.0428655534975
 30
0.0
 40
35.05000000000003
100
AcDbArc
 50
56.19638293547326
 51
88.36509114176522
  0
ENDBLK
  5
6C
330
6A
100
AcDbEntity
  8
0
100
AcDbBlockEnd
  0
BLOCK
  5
6F
330
6D
100
AcDbEntity
  8
0
100
AcDbBlockBegin
  2
Vordans1
 70
     0
 10
-269.0000230000013
 20
-112.998532
 30
0.0
  3
Vordans1
  1

  0
INSERT
  5
6E
330
6D
100
AcDbEntity
  8
0
100
AcDbBlockReference
  2
HC_BS_PG29-select__6
 10
-288.5000230000213
 20
-118.9928655534974
 30
0.0
  0
MTEXT
  5
10C
330
6D
100
AcDbEntity
  8
1
 62
     6
100
AcDbMText
 10
-269.0000230000002
 20
-124.5694456100207
 30
0.0
 40
5.0
 41
0.0
 71
     2
 72
     1
  1
 
  7
CONVERTER_11
 73
     1
 44
1.32052821128451
  0
DIMENSION
  5
117
330
6D
100
AcDbEntity
  8
1
100
AcDbDimension
  2
*D18
 10
-298.5000230000213
 20
-107.0071337929077
 30
0.0
 11
-301.7500230000213
 21
-112.9999996732026
 31
0.0
 70
    32
  1
<>
 71
     5
 42
-1.0
 53
90.0
  3
ME10_DIM_10
100
AcDbAlignedDimension
 13
-285.0000230000213
 23
-118.9928655534974
 33
0.0
 14
-270.0000230000213
 24
-107.0071337929077
 34
0.0
 50
90.0
100
AcDbRotatedDimension
  0
ENDBLK
  5
70
330
6D
100
AcDbEntity
  8
0
100
AcDbBlockEnd
  0
BLOCK
  5
72
330
71
100
AcDbEntity
  8
0
100
AcDbBlockBegin
  2
_punkt
 70
     0
 10
-98.00001399998997
 20
-258.0000062879213
 30
0.0
  3
_punkt
  1

  0
LINE
  5
118
330
71
100
AcDbEntity
  8
1
  6
Continuous
 62
     2
100
AcDbLine
 10
-98.00001399998997
 20
-258.0000062879213
 30
0.0
 11
-93.00001399999098
 21
-258.0000062879213
 31
0.0
  0
LINE
  5
119
330
71
100
AcDbEntity
  8
1
  6
Continuous
 62
     2
100
AcDbLine
 10
-98.00001399998997
 20
-258.0000062879213
 30
0.0
 11
-98.00001399998997
 21
-263.0000062879215
 31
0.0
  0
ENDBLK
  5
73
330
71
100
AcDbEntity
  8
0
100
AcDbBlockEnd
  0
BLOCK
  5
75
330
74
100
AcDbEntity
  8
0
100
AcDbBlockBegin
  2
_rahmen
 70
     0
 10
-98.00001399998997
 20
-263.0000062879215
 30
0.0
  3
_rahmen
  1

  0
LINE
  5
11A
330
74
100
AcDbEntity
  8
1
  6
Continuous
 62
     6
100
AcDbLine
 10
-227.54481852674
 20
-232.5000062879214
 30
0.0
 11
-98.00001399998828
 21
-232.5000062879214
 31
0.0
  0
LINE
  5
11B
330
74
100
AcDbEntity
  8
1
  6
Continuous
 62
     7
100
AcDbLine
 10
-209.34481852674
 20
-253.7500062879214
 30
0.0
 11
-191.1448185267401
 21
-253.7500062879214
 31
0.0
  0
LINE
  5
11C
330
74
100
AcDbEntity
  8
1
  6
Continuous
 62
     6
100
AcDbLine
 10
-209.34481852674
 20
-258.0000062879213
 30
0.0
 11
-227.54481852674
 21
-258.0000062879215
 31
0.0
  0
LINE
  5
11D
330
74
100
AcDbEntity
  8
1
  6
Continuous
 62
     7
100
AcDbLine
 10
-209.34481852674
 20
-253.7500062879214
 30
0.0
 11
-209.34481852674
 21
-258.0000062879213
 31
0.0
  0
LINE
  5
11E
330
74
100
AcDbEntity
  8
1
  6
Continuous
 62
     7
100
AcDbLine
 10
-191.1448185267401
 20
-253.7500062879214
 30
0.0
 11
-191.1448185267401
 21
-258.0000062879215
 31
0.0
  0
LINE
  5
11F
330
74
100
AcDbEntity
  8
1
  6
Continuous
 62
     7
100
AcDbLine
 10
-227.54481852674
 20
-253.7500062879215
 30
0.0
 11
-227.54481852674
 21
-258.0000062879215
 31
0.0
  0
LINE
  5
120
330
74
100
AcDbEntity
  8
1
  6
Continuous
 62
     7
100
AcDbLine
 10
-227.54481852674
 20
-253.7500062879215
 30
0.0
 11
-209.34481852674
 21
-253.7500062879214
 31
0.0
  0
LINE
  5
121
330
74
100
AcDbEntity
  8
1
  6
Continuous
 62
     2
100
AcDbLine
 10
-218.3081636401774
 20
-234.3750062879215
 30
0.0
 11
-218.3081636401774
 21
-239.3750062879215
 31
0.0
  0
LINE
  5
122
330
74
100
AcDbEntity
  8
1
  6
Continuous
 62
     2
100
AcDbLine
 10
-218.3081636401774
 20
-239.3750062879215
 30
0.0
 11
-223.3081636401774
 21
-238.1250062879215
 31
0.0
  0
LINE
  5
123
330
74
100
AcDbEntity
  8
1
  6
Continuous
 62
     2
100
AcDbLine
 10
-223.3081636401774
 20
-238.1250062879215
 30
0.0
 11
-223.3081636401774
 21
-235.6250062879215
 31
0.0
  0
LINE
  5
124
330
74
100
AcDbEntity
  8
1
  6
Continuous
 62
     2
100
AcDbLine
 10
-223.3081636401774
 20
-235.6250062879215
 30
0.0
 11
-218.3081636401774
 21
-234.3750062879215
 31
0.0
  0
LINE
  5
125
330
74
100
AcDbEntity
  8
1
  6
Continuous
 62
     6
100
AcDbLine
 10
-350.0000139999882
 20
-258.0000062879213
 30
0.0
 11
-385.0000139999881
 21
-258.0000062879213
 31
0.0
  0
LINE
  5
126
330
74
100
AcDbEntity
  8
1
  6
Continuous
 62
     6
100
AcDbLine
 10
-98.00001399998828
 20
-241.0000062879214
 30
0.0
 11
-98.00001399998868
 21
-249.5000062879214
 31
0.0
  0
LINE
  5
127
330
74
100
AcDbEntity
  8
1
  6
Continuous
 62
     6
100
AcDbLine
 10
-191.1448185267401
 20
-258.0000062879215
 30
0.0
 11
-191.50001399999
 21
-258.0000062879213
 31
0.0
  0
LINE
  5
128
330
74
100
AcDbEntity
  8
1
  6
Continuous
 62
     6
100
AcDbLine
 10
-343.8000139999902
 20
-258.0000062879215
 30
0.0
 11
-350.0000139999882
 21
-258.0000062879213
 31
0.0
  0
LINE
  5
129
330
74
100
AcDbEntity
  8
1
  6
Continuous
 62
     7
100
AcDbLine
 10
-191.1448185267401
 20
-241.0000062879214
 30
0.0
 11
-191.1448185267401
 21
-253.7500062879214
 31
0.0
  0
LINE
  5
12A
330
74
100
AcDbEntity
  8
1
  6
Continuous
 62
     7
100
AcDbLine
 10
-227.54481852674
 20
-241.0000062879214
 30
0.0
 11
-227.54481852674
 21
-253.7500062879215
 31
0.0
  0
LINE
  5
12B
330
74
100
AcDbEntity
  8
1
  6
Continuous
 62
     6
100
AcDbLine
 10
-241.50001399999
 20
-258.0000062879213
 30
0.0
 11
-291.5000139999902
 21
-258.0000062879213
 31
0.0
  0
LINE
  5
12C
330
74
100
AcDbEntity
  8
1
  6
Continuous
 62
     6
100
AcDbLine
 10
-343.8000139999902
 20
-258.0000062879215
 30
0.0
 11
-341.50001399999
 21
-258.0000062879213
 31
0.0
  0
LINE
  5
12D
330
74
100
AcDbEntity
  8
1
  6
Continuous
 62
     6
100
AcDbLine
 10
-191.1448185267401
 20
-258.0000062879215
 30
0.0
 11
-141.50001399999
 21
-258.0000062879213
 31
0.0
  0
LINE
  5
12E
330
74
100
AcDbEntity
  8
1
  6
Continuous
 62
     6
100
AcDbLine
 10
-98.00001399998997
 20
-258.0000062879213
 30
0.0
 11
-98.00001399998868
 21
-249.5000062879214
 31
0.0
  0
LINE
  5
12F
330
74
100
AcDbEntity
  8
1
  6
Continuous
 62
     2
100
AcDbLine
 10
-390.0000139999891
 20
-258.0000062879213
 30
0.0
 11
-390.0000139999891
 21
-263.0000062879215
 31
0.0
  0
LINE
  5
130
330
74
100
AcDbEntity
  8
1
  6
Continuous
 62
     2
100
AcDbLine
 10
-385.0000139999881
 20
-258.0000062879213
 30
0.0
 11
-390.0000139999891
 21
-258.0000062879213
 31
0.0
  0
LINE
  5
131
330
74
100
AcDbEntity
  8
1
  6
Continuous
 62
     2
100
AcDbLine
 10
-385.0000139999881
 20
-263.0000062879215
 30
0.0
 11
-341.50001399999
 21
-263.0000062879215
 31
0.0
  0
LINE
  5
132
330
74
100
AcDbEntity
  8
1
  6
Continuous
 62
     2
100
AcDbLine
 10
-385.0000139999881
 20
-258.0000062879213
 30
0.0
 11
-385.0000139999881
 21
-263.0000062879215
 31
0.0
  0
LINE
  5
133
330
74
100
AcDbEntity
  8
1
  6
Continuous
 62
     2
100
AcDbLine
 10
-141.50001399999
 20
-263.0000062879215
 30
0.0
 11
-191.50001399999
 21
-263.0000062879215
 31
0.0
  0
LINE
  5
134
330
74
100
AcDbEntity
  8
1
  6
Continuous
 62
     2
100
AcDbLine
 10
-141.50001399999
 20
-263.0000062879215
 30
0.0
 11
-141.50001399999
 21
-258.0000062879213
 31
0.0
  0
LINE
  5
135
330
74
100
AcDbEntity
  8
1
  6
Continuous
 62
     2
100
AcDbLine
 10
-191.50001399999
 20
-263.0000062879215
 30
0.0
 11
-191.50001399999
 21
-258.0000062879213
 31
0.0
  0
LINE
  5
136
330
74
100
AcDbEntity
  8
1
  6
Continuous
 62
     2
100
AcDbLine
 10
-241.50001399999
 20
-263.0000062879215
 30
0.0
 11
-191.50001399999
 21
-263.0000062879215
 31
0.0
  0
LINE
  5
137
330
74
100
AcDbEntity
  8
1
  6
Continuous
 62
     2
100
AcDbLine
 10
-241.50001399999
 20
-263.0000062879215
 30
0.0
 11
-241.50001399999
 21
-258.0000062879213
 31
0.0
  0
LINE
  5
138
330
74
100
AcDbEntity
  8
1
  6
Continuous
 62
     2
100
AcDbLine
 10
-291.5000139999902
 20
-263.0000062879215
 30
0.0
 11
-241.50001399999
 21
-263.0000062879215
 31
0.0
  0
LINE
  5
139
330
74
100
AcDbEntity
  8
1
  6
Continuous
 62
     2
100
AcDbLine
 10
-291.5000139999902
 20
-263.0000062879215
 30
0.0
 11
-291.5000139999902
 21
-258.0000062879213
 31
0.0
  0
LINE
  5
13A
330
74
100
AcDbEntity
  8
1
  6
Continuous
 62
     2
100
AcDbLine
 10
-341.50001399999
 20
-263.0000062879215
 30
0.0
 11
-291.5000139999902
 21
-263.0000062879215
 31
0.0
  0
LINE
  5
13B
330
74
100
AcDbEntity
  8
1
  6
Continuous
 62
     2
100
AcDbLine
 10
-341.50001399999
 20
-263.0000062879215
 30
0.0
 11
-341.50001399999
 21
-258.0000062879213
 31
0.0
  0
LINE
  5
13C
330
74
100
AcDbEntity
  8
1
  6
Continuous
 62
     6
100
AcDbLine
 10
-385.0000139999883
 20
-208.0000062879213
 30
0.0
 11
-385.0000139999881
 21
-258.0000062879213
 31
0.0
  0
LINE
  5
13D
330
74
100
AcDbEntity
  8
1
  6
Continuous
 62
     2
100
AcDbLine
 10
-390.0000139999891
 20
-208.0000062879213
 30
0.0
 11
-390.0000139999891
 21
-258.0000062879213
 31
0.0
  0
LINE
  5
13E
330
74
100
AcDbEntity
  8
1
  6
Continuous
 62
     2
100
AcDbLine
 10
-390.0000139999891
 20
-208.0000062879213
 30
0.0
 11
-385.0000139999883
 21
-208.0000062879213
 31
0.0
  0
LINE
  5
13F
330
74
100
AcDbEntity
  8
1
  6
Continuous
 62
     6
100
AcDbLine
 10
-385.0000139999885
 20
-158.0000062879215
 30
0.0
 11
-385.0000139999883
 21
-208.0000062879213
 31
0.0
  0
LINE
  5
140
330
74
100
AcDbEntity
  8
1
  6
Continuous
 62
     2
100
AcDbLine
 10
-390.0000139999891
 20
-158.0000062879215
 30
0.0
 11
-390.0000139999891
 21
-208.0000062879213
 31
0.0
  0
LINE
  5
141
330
74
100
AcDbEntity
  8
1
  6
Continuous
 62
     2
100
AcDbLine
 10
-390.0000139999891
 20
-158.0000062879215
 30
0.0
 11
-385.0000139999885
 21
-158.0000062879215
 31
0.0
  0
LINE
  5
142
330
74
100
AcDbEntity
  8
1
  6
Continuous
 62
     6
100
AcDbLine
 10
-385.000013999989
 20
-108.0000062879214
 30
0.0
 11
-385.0000139999885
 21
-158.0000062879215
 31
0.0
  0
LINE
  5
143
330
74
100
AcDbEntity
  8
1
  6
Continuous
 62
     2
100
AcDbLine
 10
-390.0000139999891
 20
-108.0000062879214
 30
0.0
 11
-390.0000139999891
 21
-158.0000062879215
 31
0.0
  0
LINE
  5
144
330
74
100
AcDbEntity
  8
1
  6
Continuous
 62
     2
100
AcDbLine
 10
-390.0000139999891
 20
-108.0000062879214
 30
0.0
 11
-385.000013999989
 21
-108.0000062879214
 31
0.0
  0
LINE
  5
145
330
74
100
AcDbEntity
  8
1
  6
Continuous
 62
     6
100
AcDbLine
 10
-385.0000139999891
 20
-73.00000628792137
 30
0.0
 11
-385.000013999989
 21
-108.0000062879214
 31
0.0
  0
LINE
  5
146
330
74
100
AcDbEntity
  8
1
  6
Continuous
 62
     2
100
AcDbLine
 10
-390.0000139999891
 20
-53.00000628792137
 30
0.0
 11
-390.0000139999891
 21
-108.0000062879214
 31
0.0
  0
LINE
  5
147
330
74
100
AcDbEntity
  8
1
  6
Continuous
 62
     2
100
AcDbLine
 10
-390.0000139999891
 20
-263.0000062879215
 30
0.0
 11
-385.0000139999881
 21
-263.0000062879215
 31
0.0
  0
LINE
  5
148
330
74
100
AcDbEntity
  8
1
  6
Continuous
 62
     2
100
AcDbLine
 10
-241.50001399999
 20
-53.00000628792137
 30
0.0
 11
-241.50001399999
 21
-62.20869813262269
 31
0.0
  0
LINE
  5
149
330
74
100
AcDbEntity
  8
1
  6
Continuous
 62
     2
100
AcDbLine
 10
-241.50001399999
 20
-53.00000628792137
 30
0.0
 11
-390.0000139999891
 21
-53.00000628792137
 31
0.0
  0
LINE
  5
14A
330
74
100
AcDbEntity
  8
1
  6
Continuous
 62
     2
100
AcDbLine
 10
-93.00001399999098
 20
-258.0000062879213
 30
0.0
 11
-93.00001399999098
 21
-208.0000062879213
 31
0.0
  0
LINE
  5
14B
330
74
100
AcDbEntity
  8
1
  6
Continuous
 62
     2
100
AcDbLine
 10
-93.00001399999098
 20
-108.0000062879214
 30
0.0
 11
-93.00001399999098
 21
-53.00000628792137
 31
0.0
  0
LINE
  5
14C
330
74
100
AcDbEntity
  8
1
  6
Continuous
 62
     6
100
AcDbLine
 10
-98.00001399999078
 20
-108.0000062879214
 30
0.0
 11
-98.00001399999098
 21
-73.00000628792137
 31
0.0
  0
LINE
  5
14D
330
74
100
AcDbEntity
  8
1
  6
Continuous
 62
     2
100
AcDbLine
 10
-98.00001399999078
 20
-108.0000062879214
 30
0.0
 11
-93.00001399999098
 21
-108.0000062879214
 31
0.0
  0
LINE
  5
14E
330
74
100
AcDbEntity
  8
1
  6
Continuous
 62
     2
100
AcDbLine
 10
-93.00001399999098
 20
-158.0000062879215
 30
0.0
 11
-93.00001399999098
 21
-108.0000062879214
 31
0.0
  0
LINE
  5
14F
330
74
100
AcDbEntity
  8
1
  6
Continuous
 62
     6
100
AcDbLine
 10
-98.00001399998958
 20
-158.0000062879215
 30
0.0
 11
-98.00001399999078
 21
-108.0000062879214
 31
0.0
  0
LINE
  5
150
330
74
100
AcDbEntity
  8
1
  6
Continuous
 62
     2
100
AcDbLine
 10
-98.00001399998958
 20
-158.0000062879215
 30
0.0
 11
-93.00001399999098
 21
-158.0000062879215
 31
0.0
  0
LINE
  5
151
330
74
100
AcDbEntity
  8
1
  6
Continuous
 62
     2
100
AcDbLine
 10
-93.00001399999098
 20
-208.0000062879213
 30
0.0
 11
-93.00001399999098
 21
-158.0000062879215
 31
0.0
  0
LINE
  5
152
330
74
100
AcDbEntity
  8
1
  6
Continuous
 62
     6
100
AcDbLine
 10
-98.00001399998908
 20
-208.0000062879213
 30
0.0
 11
-98.00001399998958
 21
-158.0000062879215
 31
0.0
  0
LINE
  5
153
330
74
100
AcDbEntity
  8
1
  6
Continuous
 62
     2
100
AcDbLine
 10
-98.00001399998908
 20
-208.0000062879213
 30
0.0
 11
-93.00001399999098
 21
-208.0000062879213
 31
0.0
  0
LINE
  5
154
330
74
100
AcDbEntity
  8
1
  6
Continuous
 62
     6
100
AcDbLine
 10
-98.00001399999098
 20
-73.00000628792137
 30
0.0
 11
-385.0000139999891
 21
-73.00000628792137
 31
0.0
  0
LINE
  5
155
330
74
100
AcDbEntity
  8
1
  6
Continuous
 62
     2
100
AcDbLine
 10
-93.00001399999098
 20
-53.00000628792137
 30
0.0
 11
-241.50001399999
 21
-53.00000628792137
 31
0.0
  0
LINE
  5
156
330
74
100
AcDbEntity
  8
1
  6
Continuous
 62
     6
100
AcDbLine
 10
-98.00001399998828
 20
-241.0000062879214
 30
0.0
 11
-98.00001399998908
 21
-208.0000062879213
 31
0.0
  0
LINE
  5
157
330
74
100
AcDbEntity
  8
1
  6
Continuous
 62
     2
100
AcDbLine
 10
-98.00001399998997
 20
-263.0000062879215
 30
0.0
 11
-141.50001399999
 21
-263.0000062879215
 31
0.0
  0
LINE
  5
158
330
74
100
AcDbEntity
  8
1
  6
Continuous
 62
     2
100
AcDbLine
 10
-93.00001399999098
 20
-263.0000062879215
 30
0.0
 11
-98.00001399998997
 21
-263.0000062879215
 31
0.0
  0
LINE
  5
159
330
74
100
AcDbEntity
  8
1
  6
Continuous
 62
     2
100
AcDbLine
 10
-93.00001399999098
 20
-263.0000062879215
 30
0.0
 11
-93.00001399999098
 21
-258.0000062879213
 31
0.0
  0
LINE
  5
15A
330
74
100
AcDbEntity
  8
1
  6
Continuous
 62
     6
100
AcDbLine
 10
-227.54481852674
 20
-241.0000062879214
 30
0.0
 11
-191.1448185267401
 21
-241.0000062879214
 31
0.0
  0
LINE
  5
15B
330
74
100
AcDbEntity
  8
1
  6
Continuous
 62
     2
100
AcDbLine
 10
-98.00001399998997
 20
-258.0000062879213
 30
0.0
 11
-98.00001399998997
 21
-263.0000062879215
 31
0.0
  0
LINE
  5
15C
330
74
100
AcDbEntity
  8
1
  6
Continuous
 62
     2
100
AcDbLine
 10
-98.00001399998997
 20
-258.0000062879213
 30
0.0
 11
-93.00001399999098
 21
-258.0000062879213
 31
0.0
  0
LINE
  5
15D
330
74
100
AcDbEntity
  8
1
  6
Continuous
 62
     6
100
AcDbLine
 10
-191.50001399999
 20
-258.0000062879213
 30
0.0
 11
-209.34481852674
 21
-258.0000062879213
 31
0.0
  0
LINE
  5
15E
330
74
100
AcDbEntity
  8
1
  6
Continuous
 62
     6
100
AcDbLine
 10
-141.50001399999
 20
-258.0000062879213
 30
0.0
 11
-98.00001399998997
 21
-258.0000062879213
 31
0.0
  0
LINE
  5
15F
330
74
100
AcDbEntity
  8
1
  6
Continuous
 62
     6
100
AcDbLine
 10
-291.5000139999902
 20
-258.0000062879213
 30
0.0
 11
-296.54481852674
 21
-258.0000062879213
 31
0.0
  0
LINE
  5
160
330
74
100
AcDbEntity
  8
1
  6
Continuous
 62
     6
100
AcDbLine
 10
-241.50001399999
 20
-258.0000062879213
 30
0.0
 11
-227.54481852674
 21
-258.0000062879215
 31
0.0
  0
LINE
  5
161
102
{ACAD_REACTORS
330
24B
330
24C
102
}
330
74
100
AcDbEntity
  8
0
  6
Continuous
 62
     2
100
AcDbLine
 10
-220.0301925845932
 20
-245.9274915317093
 30
0.0
 11
-220.0301925845932
 21
-245.3219562432025
 31
0.0
  0
LINE
  5
162
102
{ACAD_REACTORS
330
24B
330
24C
102
}
330
74
100
AcDbEntity
  8
0
  6
Continuous
 62
     2
100
AcDbLine
 10
-220.0301925845932
 20
-248.7276261383406
 30
0.0
 11
-220.0301925845932
 21
-248.1457747316455
 31
0.0
  0
LINE
  5
163
102
{ACAD_REACTORS
330
24D
330
24E
102
}
330
74
100
AcDbEntity
  8
0
  6
Continuous
 62
     2
100
AcDbLine
 10
-197.400706149114
 20
-248.4379620702176
 30
0.0
 11
-197.400706149114
 21
-250.7065062879051
 31
0.0
  0
LINE
  5
164
102
{ACAD_REACTORS
330
24D
330
24E
102
}
330
74
100
AcDbEntity
  8
0
  6
Continuous
 62
     2
100
AcDbLine
 10
-198.7817599281016
 20
-247.6526967640945
 30
0.0
 11
-195.3968144094729
 21
-247.652696764094
 31
0.0
  0
LINE
  5
165
102
{ACAD_REACTORS
330
24D
330
24E
102
}
330
74
100
AcDbEntity
  8
0
  6
Continuous
 62
     2
100
AcDbLine
 10
-195.3968144094729
 20
-248.4379620702176
 30
0.0
 11
-195.3968144094729
 21
-247.652696764094
 31
0.0
  0
LINE
  5
166
102
{ACAD_REACTORS
330
24D
330
24E
102
}
330
74
100
AcDbEntity
  8
0
  6
Continuous
 62
     2
100
AcDbLine
 10
-196.2079134469463
 20
-248.4379620702176
 30
0.0
 11
-195.3968144094729
 21
-248.4379620702176
 31
0.0
  0
LINE
  5
167
102
{ACAD_REACTORS
330
24D
330
24E
102
}
330
74
100
AcDbEntity
  8
0
  6
Continuous
 62
     2
100
AcDbLine
 10
-196.2079134469463
 20
-250.7065062879051
 30
0.0
 11
-196.2079134469463
 21
-248.4379620702176
 31
0.0
  0
LINE
  5
168
102
{ACAD_REACTORS
330
24D
330
24E
102
}
330
74
100
AcDbEntity
  8
0
  6
Continuous
 62
     2
100
AcDbLine
 10
-197.400706149114
 20
-250.7065062879051
 30
0.0
 11
-196.2079134469463
 21
-250.7065062879051
 31
0.0
  0
LINE
  5
169
102
{ACAD_REACTORS
330
243
330
244
102
}
330
74
100
AcDbEntity
  8
0
  6
Continuous
 62
     2
100
AcDbLine
 10
-198.0972970871785
 20
-244.2935062879196
 30
0.0
 11
-199.5000213049278
 21
-244.2935062879196
 31
0.0
  0
LINE
  5
16A
102
{ACAD_REACTORS
330
243
330
244
102
}
330
74
100
AcDbEntity
  8
0
  6
Continuous
 62
     2
100
AcDbLine
 10
-198.0972970871785
 20
-244.2935062879196
 30
0.0
 11
-197.4961295652867
 21
-244.9733296094751
 31
0.0
  0
LINE
  5
16B
102
{ACAD_REACTORS
330
243
330
244
102
}
330
74
100
AcDbEntity
  8
0
  6
Continuous
 62
     2
100
AcDbLine
 10
-197.4961295652867
 20
-244.9733296094751
 30
0.0
 11
-196.8949620433939
 21
-244.2935062879196
 31
0.0
  0
LINE
  5
16C
102
{ACAD_REACTORS
330
243
330
244
102
}
330
74
100
AcDbEntity
  8
0
  6
Continuous
 62
     2
100
AcDbLine
 10
-196.7947674564132
 20
-245.7664568179558
 30
0.0
 11
-195.4922378256467
 21
-244.2935062879196
 31
0.0
  0
LINE
  5
16D
102
{ACAD_REACTORS
330
243
330
244
102
}
330
74
100
AcDbEntity
  8
0
  6
Continuous
 62
     2
100
AcDbLine
 10
-196.7947674564132
 20
-245.7664568179558
 30
0.0
 11
-195.3968144094729
 21
-247.3473158117308
 31
0.0
  0
LINE
  5
16E
102
{ACAD_REACTORS
330
243
330
244
102
}
330
74
100
AcDbEntity
  8
0
  6
Continuous
 62
     2
100
AcDbLine
 10
-196.7995386272212
 20
-247.3473158117308
 30
0.0
 11
-195.3968144094729
 21
-247.3473158117308
 31
0.0
  0
LINE
  5
16F
102
{ACAD_REACTORS
330
243
330
244
102
}
330
74
100
AcDbEntity
  8
0
  6
Continuous
 62
     2
100
AcDbLine
 10
-197.4961295652867
 20
-246.5595840264371
 30
0.0
 11
-196.7995386272212
 21
-247.3473158117308
 31
0.0
  0
LINE
  5
170
102
{ACAD_REACTORS
330
241
330
242
102
}
330
74
100
AcDbEntity
  8
0
  6
Continuous
 62
     2
100
AcDbLine
 10
-200.9552284015704
 20
-244.2935062879196
 30
0.0
 11
-199.7147239913175
 21
-244.2935062879196
 31
0.0
  0
LINE
  5
171
102
{ACAD_REACTORS
330
241
330
242
102
}
330
74
100
AcDbEntity
  8
0
  6
Continuous
 62
     2
100
AcDbLine
 10
-199.7147239913175
 20
-244.2935062879196
 30
0.0
 11
-199.7147239913175
 21
-247.3473158117308
 31
0.0
  0
LINE
  5
172
102
{ACAD_REACTORS
330
241
330
242
102
}
330
74
100
AcDbEntity
  8
0
  6
Continuous
 62
     2
100
AcDbLine
 10
-200.9552284015704
 20
-247.3473158117308
 30
0.0
 11
-200.9552284015704
 21
-244.2935062879196
 31
0.0
  0
LINE
  5
173
102
{ACAD_REACTORS
330
23F
330
240
102
}
330
74
100
AcDbEntity
  8
0
  6
Continuous
 62
     2
100
AcDbLine
 10
-202.423538484108
 20
-249.4849824783806
 30
0.0
 11
-202.1233732469156
 21
-248.7171675123939
 31
0.0
  0
LINE
  5
174
102
{ACAD_REACTORS
330
23F
330
240
102
}
330
74
100
AcDbEntity
  8
0
  6
Continuous
 62
     2
100
AcDbLine
 10
-202.9010740887288
 20
-250.7065062879051
 30
0.0
 11
-202.689594035253
 21
-250.1655457436872
 31
0.0
  0
LINE
  5
175
102
{ACAD_REACTORS
330
23F
330
240
102
}
330
74
100
AcDbEntity
  8
0
  6
Continuous
 62
     2
100
AcDbLine
 10
-202.7436254520425
 20
-247.652696764094
 30
0.0
 11
-204.1415784989818
 21
-250.7065062879051
 31
0.0
  0
LINE
  5
176
102
{ACAD_REACTORS
330
23F
330
240
102
}
330
74
100
AcDbEntity
  8
0
  6
Continuous
 62
     2
100
AcDbLine
 10
-200.1051679948495
 20
-250.7065062879051
 30
0.0
 11
-201.3456724051034
 21
-250.7065062879051
 31
0.0
  0
LINE
  5
177
102
{ACAD_REACTORS
330
23F
330
240
102
}
330
74
100
AcDbEntity
  8
0
  6
Continuous
 62
     2
100
AcDbLine
 10
-202.689594035253
 20
-250.1655457436872
 30
0.0
 11
-201.5571524585792
 21
-250.1655457436872
 31
0.0
  0
LINE
  5
178
102
{ACAD_REACTORS
330
23D
330
23E
102
}
330
74
100
AcDbEntity
  8
0
  6
Continuous
 62
     2
100
AcDbLine
 10
-206.299090638164
 20
-248.4379620702176
 30
0.0
 11
-205.4879916006894
 21
-248.4379620702176
 31
0.0
  0
LINE
  5
179
102
{ACAD_REACTORS
330
23D
330
23E
102
}
330
74
100
AcDbEntity
  8
0
  6
Continuous
 62
     2
100
AcDbLine
 10
-203.4840998610504
 20
-247.652696764094
 30
0.0
 11
-206.299090638164
 21
-247.652696764094
 31
0.0
  0
LINE
  5
17A
102
{ACAD_REACTORS
330
23D
330
23E
102
}
330
74
100
AcDbEntity
  8
0
  6
Continuous
 62
     2
100
AcDbLine
 10
-203.4840998610504
 20
-248.4379620702176
 30
0.0
 11
-203.4840998610504
 21
-247.652696764094
 31
0.0
  0
LINE
  5
17B
102
{ACAD_REACTORS
330
23D
330
23E
102
}
330
74
100
AcDbEntity
  8
0
  6
Continuous
 62
     2
100
AcDbLine
 10
-204.2951988985229
 20
-248.4379620702176
 30
0.0
 11
-203.4840998610504
 21
-248.4379620702176
 31
0.0
  0
LINE
  5
17C
102
{ACAD_REACTORS
330
23D
330
23E
102
}
330
74
100
AcDbEntity
  8
0
  6
Continuous
 62
     2
100
AcDbLine
 10
-204.2951988985229
 20
-250.7065062879051
 30
0.0
 11
-204.2951988985229
 21
-248.4379620702176
 31
0.0
  0
LINE
  5
17D
102
{ACAD_REACTORS
330
23B
330
23C
102
}
330
74
100
AcDbEntity
  8
0
  6
Continuous
 62
     2
100
AcDbLine
 10
-203.6270840544249
 20
-247.3473158117308
 30
0.0
 11
-203.6270840544249
 21
-246.0385403015261
 31
0.0
  0
LINE
  5
17E
102
{ACAD_REACTORS
330
23B
330
23C
102
}
330
74
100
AcDbEntity
  8
0
  6
Continuous
 62
     2
100
AcDbLine
 10
-204.8198767565914
 20
-244.2935062879196
 30
0.0
 11
-204.8198767565914
 21
-247.3473158117308
 31
0.0
  0
LINE
  5
17F
102
{ACAD_REACTORS
330
23B
330
23C
102
}
330
74
100
AcDbEntity
  8
0
  6
Continuous
 62
     2
100
AcDbLine
 10
-203.6270840544249
 20
-244.2935062879196
 30
0.0
 11
-204.8198767565914
 21
-244.2935062879196
 31
0.0
  0
LINE
  5
180
102
{ACAD_REACTORS
330
23B
330
23C
102
}
330
74
100
AcDbEntity
  8
0
  6
Continuous
 62
     2
100
AcDbLine
 10
-202.3865796441709
 20
-244.2935062879196
 30
0.0
 11
-202.3865796441709
 21
-245.6022817981248
 31
0.0
  0
LINE
  5
181
102
{ACAD_REACTORS
330
239
330
23A
102
}
330
74
100
AcDbEntity
  8
0
  6
Continuous
 62
     2
100
AcDbLine
 10
-210.0683155770111
 20
-247.652696764094
 30
0.0
 11
-210.0683155770111
 21
-250.7065062879051
 31
0.0
  0
LINE
  5
182
102
{ACAD_REACTORS
330
239
330
23A
102
}
330
74
100
AcDbEntity
  8
0
  6
Continuous
 62
     2
100
AcDbLine
 10
-208.8755228748435
 20
-247.652696764094
 30
0.0
 11
-210.0683155770111
 21
-247.652696764094
 31
0.0
  0
LINE
  5
183
102
{ACAD_REACTORS
330
239
330
23A
102
}
330
74
100
AcDbEntity
  8
0
  6
Continuous
 62
     2
100
AcDbLine
 10
-207.6350184645906
 20
-250.7065062879051
 30
0.0
 11
-206.4422257624242
 21
-250.7065062879051
 31
0.0
  0
LINE
  5
184
102
{ACAD_REACTORS
330
239
330
23A
102
}
330
74
100
AcDbEntity
  8
0
  6
Continuous
 62
     2
100
AcDbLine
 10
-210.0683155770111
 20
-250.7065062879051
 30
0.0
 11
-208.8755228748435
 21
-250.7065062879051
 31
0.0
  0
LINE
  5
185
102
{ACAD_REACTORS
330
249
330
24A
102
}
330
74
100
AcDbEntity
  8
0
  6
Continuous
 62
     2
100
AcDbLine
 10
-206.394363123452
 20
-245.4714042471043
 30
0.0
 11
-206.394363123452
 21
-244.9915198933626
 31
0.0
  0
LINE
  5
186
102
{ACAD_REACTORS
330
249
330
24A
102
}
330
74
100
AcDbEntity
  8
0
  6
Continuous
 62
     2
100
AcDbLine
 10
-205.0584352970243
 20
-245.4714042471043
 30
0.0
 11
-206.394363123452
 21
-245.4714042471043
 31
0.0
  0
LINE
  5
187
102
{ACAD_REACTORS
330
249
330
24A
102
}
330
74
100
AcDbEntity
  8
0
  6
Continuous
 62
     2
100
AcDbLine
 10
-205.0584352970243
 20
-246.1694178525466
 30
0.0
 11
-205.0584352970243
 21
-245.4714042471043
 31
0.0
  0
LINE
  5
188
102
{ACAD_REACTORS
330
249
330
24A
102
}
330
74
100
AcDbEntity
  8
0
  6
Continuous
 62
     2
100
AcDbLine
 10
-206.394363123452
 20
-246.1694178525466
 30
0.0
 11
-205.0584352970243
 21
-246.1694178525466
 31
0.0
  0
LINE
  5
189
102
{ACAD_REACTORS
330
237
330
238
102
}
330
74
100
AcDbEntity
  8
0
  6
Continuous
 62
     2
100
AcDbLine
 10
-209.8773178137789
 20
-244.2935062879196
 30
0.0
 11
-209.8773178137789
 21
-247.3473158117308
 31
0.0
  0
LINE
  5
18A
102
{ACAD_REACTORS
330
237
330
238
102
}
330
74
100
AcDbEntity
  8
0
  6
Continuous
 62
     2
100
AcDbLine
 10
-209.8773178137789
 20
-247.3473158117308
 30
0.0
 11
-211.0701105159453
 21
-247.3473158117308
 31
0.0
  0
LINE
  5
18B
102
{ACAD_REACTORS
330
237
330
238
102
}
330
74
100
AcDbEntity
  8
0
  6
Continuous
 62
     2
100
AcDbLine
 10
-211.0701105159453
 20
-247.3473158117308
 30
0.0
 11
-211.0701105159453
 21
-246.213043702887
 31
0.0
  0
LINE
  5
18C
102
{ACAD_REACTORS
330
237
330
238
102
}
330
74
100
AcDbEntity
  8
0
  6
Continuous
 62
     2
100
AcDbLine
 10
-212.1197680938528
 20
-247.3473158117308
 30
0.0
 11
-213.3125607960194
 21
-247.3473158117308
 31
0.0
  0
LINE
  5
18D
102
{ACAD_REACTORS
330
237
330
238
102
}
330
74
100
AcDbEntity
  8
0
  6
Continuous
 62
     2
100
AcDbLine
 10
-213.3125607960194
 20
-244.2935062879196
 30
0.0
 11
-212.1197680938528
 21
-244.2935062879196
 31
0.0
  0
LINE
  5
18E
102
{ACAD_REACTORS
330
237
330
238
102
}
330
74
100
AcDbEntity
  8
0
  6
Continuous
 62
     2
100
AcDbLine
 10
-212.1197680938528
 20
-244.2935062879196
 30
0.0
 11
-212.1197680938528
 21
-245.3623396212542
 31
0.0
  0
LINE
  5
18F
102
{ACAD_REACTORS
330
237
330
238
102
}
330
74
100
AcDbEntity
  8
0
  6
Continuous
 62
     2
100
AcDbLine
 10
-212.1197680938528
 20
-245.3623396212542
 30
0.0
 11
-211.0701105159453
 21
-245.3623396212542
 31
0.0
  0
LINE
  5
190
102
{ACAD_REACTORS
330
245
330
246
102
}
330
74
100
AcDbEntity
  8
0
  6
Continuous
 62
     2
100
AcDbLine
 10
-215.268740827573
 20
-244.9566121333597
 30
0.0
 11
-214.9514457660311
 21
-244.9566121333597
 31
0.0
  0
LINE
  5
191
102
{ACAD_REACTORS
330
245
330
246
102
}
330
74
100
AcDbEntity
  8
0
  6
Continuous
 62
     2
100
AcDbLine
 10
-215.268740827573
 20
-245.6623397827019
 30
0.0
 11
-214.9514457660311
 21
-245.6623397827019
 31
0.0
  0
LINE
  5
192
102
{ACAD_REACTORS
330
245
330
246
102
}
330
74
100
AcDbEntity
  8
0
  6
Continuous
 62
     2
100
AcDbLine
 10
-216.5092452378271
 20
-244.2935062879196
 30
0.0
 11
-216.5092452378271
 21
-247.3473158117308
 31
0.0
  0
LINE
  5
193
102
{ACAD_REACTORS
330
245
330
246
102
}
330
74
100
AcDbEntity
  8
0
  6
Continuous
 62
     2
100
AcDbLine
 10
-216.5092452378271
 20
-244.2935062879196
 30
0.0
 11
-214.5099732397927
 21
-244.2935062879196
 31
0.0
  0
LINE
  5
194
102
{ACAD_REACTORS
330
245
330
246
102
}
330
74
100
AcDbEntity
  8
0
  6
Continuous
 62
     2
100
AcDbLine
 10
-215.268740827573
 20
-246.404237570587
 30
0.0
 11
-214.5099732397927
 21
-246.404237570587
 31
0.0
  0
LINE
  5
195
102
{ACAD_REACTORS
330
24B
330
24C
102
}
330
74
100
AcDbEntity
  8
0
  6
Continuous
 62
     2
100
AcDbLine
 10
-222.6057412711238
 20
-245.3217787665544
 30
0.0
 11
-222.6057412711238
 21
-249.6782338092715
 31
0.0
  0
LINE
  5
196
102
{ACAD_REACTORS
330
24B
330
24C
102
}
330
74
100
AcDbEntity
  8
0
  6
Continuous
 62
     2
100
AcDbLine
 10
-222.2900243480481
 20
-245.0060618434782
 30
0.0
 11
-220.8141910870385
 21
-245.0060618434782
 31
0.0
  0
LINE
  5
197
102
{ACAD_REACTORS
330
24B
330
24C
102
}
330
74
100
AcDbEntity
  8
0
  6
Continuous
 62
     2
100
AcDbLine
 10
-220.4984741639619
 20
-245.9258033856149
 30
0.0
 11
-220.4984741639619
 21
-245.3217787665544
 31
0.0
  0
LINE
  5
198
102
{ACAD_REACTORS
330
24B
330
24C
102
}
330
74
100
AcDbEntity
  8
0
  6
Continuous
 62
     2
100
AcDbLine
 10
-220.4984741639619
 20
-249.6782338092715
 30
0.0
 11
-220.4984741639619
 21
-248.1474628777399
 31
0.0
  0
LINE
  5
199
102
{ACAD_REACTORS
330
24B
330
24C
102
}
330
74
100
AcDbEntity
  8
0
  6
Continuous
 62
     2
100
AcDbLine
 10
-217.4106069340778
 20
-250.7065062879051
 30
0.0
 11
-222.8839190247946
 21
-250.7065062879051
 31
0.0
  0
LINE
  5
19A
102
{ACAD_REACTORS
330
24B
330
24C
102
}
330
74
100
AcDbEntity
  8
0
  6
Continuous
 62
     2
100
AcDbLine
 10
-216.9863623186939
 20
-244.7177509033216
 30
0.0
 11
-216.9863623186939
 21
-250.2822616725218
 31
0.0
  0
LINE
  5
19B
102
{ACAD_REACTORS
330
24B
330
24C
102
}
330
74
100
AcDbEntity
  8
0
  6
Continuous
 62
     2
100
AcDbLine
 10
-222.8839190247946
 20
-244.2935062879378
 30
0.0
 11
-217.4106069340778
 21
-244.2935062879378
 31
0.0
  0
LINE
  5
19C
102
{ACAD_REACTORS
330
24B
330
24C
102
}
330
74
100
AcDbEntity
  8
0
  6
Continuous
 62
     2
100
AcDbLine
 10
-223.3081636401774
 20
-244.7177509033216
 30
0.0
 11
-223.3081636401774
 21
-250.2822616725218
 31
0.0
  0
LINE
  5
19D
102
{ACAD_REACTORS
330
24B
330
24C
102
}
330
74
100
AcDbEntity
  8
0
  6
Continuous
 62
     2
100
AcDbLine
 10
-220.8141910870385
 20
-249.9939507323482
 30
0.0
 11
-222.2900243480481
 21
-249.9939507323482
 31
0.0
  0
LINE
  5
19E
102
{ACAD_REACTORS
330
245
330
246
102
}
330
74
100
AcDbEntity
  8
0
  6
Continuous
 62
     2
100
AcDbLine
 10
-215.268740827573
 20
-247.3473158117308
 30
0.0
 11
-215.268740827573
 21
-246.404237570587
 31
0.0
  0
LINE
  5
19F
102
{ACAD_REACTORS
330
245
330
246
102
}
330
74
100
AcDbEntity
  8
0
  6
Continuous
 62
     2
100
AcDbLine
 10
-216.5092452378271
 20
-247.3473158117308
 30
0.0
 11
-215.268740827573
 21
-247.3473158117308
 31
0.0
  0
LINE
  5
1A0
102
{ACAD_REACTORS
330
245
330
246
102
}
330
74
100
AcDbEntity
  8
0
  6
Continuous
 62
     2
100
AcDbLine
 10
-215.268740827573
 20
-245.6623397827019
 30
0.0
 11
-215.268740827573
 21
-244.9566121333597
 31
0.0
  0
LINE
  5
1A1
102
{ACAD_REACTORS
330
237
330
238
102
}
330
74
100
AcDbEntity
  8
0
  6
Continuous
 62
     2
100
AcDbLine
 10
-213.3125607960194
 20
-244.2935062879196
 30
0.0
 11
-213.3125607960194
 21
-247.3473158117308
 31
0.0
  0
LINE
  5
1A2
102
{ACAD_REACTORS
330
237
330
238
102
}
330
74
100
AcDbEntity
  8
0
  6
Continuous
 62
     2
100
AcDbLine
 10
-212.1197680938528
 20
-246.213043702887
 30
0.0
 11
-212.1197680938528
 21
-247.3473158117308
 31
0.0
  0
LINE
  5
1A3
102
{ACAD_REACTORS
330
237
330
238
102
}
330
74
100
AcDbEntity
  8
0
  6
Continuous
 62
     2
100
AcDbLine
 10
-211.0701105159453
 20
-246.213043702887
 30
0.0
 11
-212.1197680938528
 21
-246.213043702887
 31
0.0
  0
LINE
  5
1A4
102
{ACAD_REACTORS
330
237
330
238
102
}
330
74
100
AcDbEntity
  8
0
  6
Continuous
 62
     2
100
AcDbLine
 10
-211.0701105159453
 20
-244.2935062879196
 30
0.0
 11
-209.8773178137789
 21
-244.2935062879196
 31
0.0
  0
LINE
  5
1A5
102
{ACAD_REACTORS
330
237
330
238
102
}
330
74
100
AcDbEntity
  8
0
  6
Continuous
 62
     2
100
AcDbLine
 10
-211.0701105159453
 20
-245.3623396212542
 30
0.0
 11
-211.0701105159453
 21
-244.2935062879196
 31
0.0
  0
LINE
  5
1A6
102
{ACAD_REACTORS
330
249
330
24A
102
}
330
74
100
AcDbEntity
  8
0
  6
Continuous
 62
     2
100
AcDbLine
 10
-205.0584352970243
 20
-244.9915198933626
 30
0.0
 11
-205.0584352970243
 21
-244.2935062879196
 31
0.0
  0
LINE
  5
1A7
102
{ACAD_REACTORS
330
249
330
24A
102
}
330
74
100
AcDbEntity
  8
0
  6
Continuous
 62
     2
100
AcDbLine
 10
-208.2087550208053
 20
-244.2935062879196
 30
0.0
 11
-205.0584352970243
 21
-244.2935062879196
 31
0.0
  0
LINE
  5
1A8
102
{ACAD_REACTORS
330
249
330
24A
102
}
330
74
100
AcDbEntity
  8
0
  6
Continuous
 62
     2
100
AcDbLine
 10
-208.2087550208053
 20
-247.3473158117308
 30
0.0
 11
-205.0584352970243
 21
-247.3473158117308
 31
0.0
  0
LINE
  5
1A9
102
{ACAD_REACTORS
330
249
330
24A
102
}
330
74
100
AcDbEntity
  8
0
  6
Continuous
 62
     2
100
AcDbLine
 10
-205.0584352970243
 20
-247.3473158117308
 30
0.0
 11
-205.0584352970243
 21
-246.6493022062883
 31
0.0
  0
LINE
  5
1AA
102
{ACAD_REACTORS
330
249
330
24A
102
}
330
74
100
AcDbEntity
  8
0
  6
Continuous
 62
     2
100
AcDbLine
 10
-205.0584352970243
 20
-246.6493022062883
 30
0.0
 11
-206.394363123452
 21
-246.6493022062883
 31
0.0
  0
LINE
  5
1AB
102
{ACAD_REACTORS
330
249
330
24A
102
}
330
74
100
AcDbEntity
  8
0
  6
Continuous
 62
     2
100
AcDbLine
 10
-206.394363123452
 20
-246.6493022062883
 30
0.0
 11
-206.394363123452
 21
-246.1694178525466
 31
0.0
  0
LINE
  5
1AC
102
{ACAD_REACTORS
330
249
330
24A
102
}
330
74
100
AcDbEntity
  8
0
  6
Continuous
 62
     2
100
AcDbLine
 10
-206.394363123452
 20
-244.9915198933626
 30
0.0
 11
-205.0584352970243
 21
-244.9915198933626
 31
0.0
  0
LINE
  5
1AD
102
{ACAD_REACTORS
330
239
330
23A
102
}
330
74
100
AcDbEntity
  8
0
  6
Continuous
 62
     2
100
AcDbLine
 10
-208.8755228748435
 20
-250.7065062879051
 30
0.0
 11
-208.8755228748435
 21
-249.3977307777005
 31
0.0
  0
LINE
  5
1AE
102
{ACAD_REACTORS
330
239
330
23A
102
}
330
74
100
AcDbEntity
  8
0
  6
Continuous
 62
     2
100
AcDbLine
 10
-208.8755228748435
 20
-249.3977307777005
 30
0.0
 11
-207.6350184645906
 21
-250.7065062879051
 31
0.0
  0
LINE
  5
1AF
102
{ACAD_REACTORS
330
239
330
23A
102
}
330
74
100
AcDbEntity
  8
0
  6
Continuous
 62
     2
100
AcDbLine
 10
-206.4422257624242
 20
-250.7065062879051
 30
0.0
 11
-206.4422257624242
 21
-247.652696764094
 31
0.0
  0
LINE
  5
1B0
102
{ACAD_REACTORS
330
239
330
23A
102
}
330
74
100
AcDbEntity
  8
0
  6
Continuous
 62
     2
100
AcDbLine
 10
-206.4422257624242
 20
-247.652696764094
 30
0.0
 11
-207.6350184645906
 21
-247.652696764094
 31
0.0
  0
LINE
  5
1B1
102
{ACAD_REACTORS
330
239
330
23A
102
}
330
74
100
AcDbEntity
  8
0
  6
Continuous
 62
     2
100
AcDbLine
 10
-207.6350184645906
 20
-247.652696764094
 30
0.0
 11
-207.6350184645906
 21
-248.9614722742991
 31
0.0
  0
LINE
  5
1B2
102
{ACAD_REACTORS
330
239
330
23A
102
}
330
74
100
AcDbEntity
  8
0
  6
Continuous
 62
     2
100
AcDbLine
 10
-207.6350184645906
 20
-248.9614722742991
 30
0.0
 11
-208.8755228748435
 21
-247.652696764094
 31
0.0
  0
LINE
  5
1B3
102
{ACAD_REACTORS
330
23B
330
23C
102
}
330
74
100
AcDbEntity
  8
0
  6
Continuous
 62
     2
100
AcDbLine
 10
-203.6270840544249
 20
-246.0385403015261
 30
0.0
 11
-202.3865796441709
 21
-247.3473158117308
 31
0.0
  0
LINE
  5
1B4
102
{ACAD_REACTORS
330
23B
330
23C
102
}
330
74
100
AcDbEntity
  8
0
  6
Continuous
 62
     2
100
AcDbLine
 10
-202.3865796441709
 20
-247.3473158117308
 30
0.0
 11
-201.1937869420043
 21
-247.3473158117308
 31
0.0
  0
LINE
  5
1B5
102
{ACAD_REACTORS
330
23B
330
23C
102
}
330
74
100
AcDbEntity
  8
0
  6
Continuous
 62
     2
100
AcDbLine
 10
-201.1937869420043
 20
-247.3473158117308
 30
0.0
 11
-201.1937869420043
 21
-244.2935062879196
 31
0.0
  0
LINE
  5
1B6
102
{ACAD_REACTORS
330
23B
330
23C
102
}
330
74
100
AcDbEntity
  8
0
  6
Continuous
 62
     2
100
AcDbLine
 10
-201.1937869420043
 20
-244.2935062879196
 30
0.0
 11
-202.3865796441709
 21
-244.2935062879196
 31
0.0
  0
LINE
  5
1B7
102
{ACAD_REACTORS
330
23B
330
23C
102
}
330
74
100
AcDbEntity
  8
0
  6
Continuous
 62
     2
100
AcDbLine
 10
-202.3865796441709
 20
-245.6022817981248
 30
0.0
 11
-203.6270840544249
 21
-244.2935062879196
 31
0.0
  0
LINE
  5
1B8
102
{ACAD_REACTORS
330
23B
330
23C
102
}
330
74
100
AcDbEntity
  8
0
  6
Continuous
 62
     2
100
AcDbLine
 10
-204.8198767565914
 20
-247.3473158117308
 30
0.0
 11
-203.6270840544249
 21
-247.3473158117308
 31
0.0
  0
LINE
  5
1B9
102
{ACAD_REACTORS
330
23D
330
23E
102
}
330
74
100
AcDbEntity
  8
0
  6
Continuous
 62
     2
100
AcDbLine
 10
-206.299090638164
 20
-247.652696764094
 30
0.0
 11
-206.299090638164
 21
-248.4379620702176
 31
0.0
  0
LINE
  5
1BA
102
{ACAD_REACTORS
330
23D
330
23E
102
}
330
74
100
AcDbEntity
  8
0
  6
Continuous
 62
     2
100
AcDbLine
 10
-205.4879916006894
 20
-248.4379620702176
 30
0.0
 11
-205.4879916006894
 21
-250.7065062879051
 31
0.0
  0
LINE
  5
1BB
102
{ACAD_REACTORS
330
23D
330
23E
102
}
330
74
100
AcDbEntity
  8
0
  6
Continuous
 62
     2
100
AcDbLine
 10
-205.4879916006894
 20
-250.7065062879051
 30
0.0
 11
-204.2951988985229
 21
-250.7065062879051
 31
0.0
  0
LINE
  5
1BC
102
{ACAD_REACTORS
330
23F
330
240
102
}
330
74
100
AcDbEntity
  8
0
  6
Continuous
 62
     2
100
AcDbLine
 10
-201.3456724051034
 20
-250.7065062879051
 30
0.0
 11
-201.5571524585792
 21
-250.1655457436872
 31
0.0
  0
LINE
  5
1BD
102
{ACAD_REACTORS
330
23F
330
240
102
}
330
74
100
AcDbEntity
  8
0
  6
Continuous
 62
     2
100
AcDbLine
 10
-201.5031210417898
 20
-247.652696764094
 30
0.0
 11
-200.1051679948495
 21
-250.7065062879051
 31
0.0
  0
LINE
  5
1BE
102
{ACAD_REACTORS
330
23F
330
240
102
}
330
74
100
AcDbEntity
  8
0
  6
Continuous
 62
     2
100
AcDbLine
 10
-202.7436254520425
 20
-247.652696764094
 30
0.0
 11
-201.5031210417898
 21
-247.652696764094
 31
0.0
  0
LINE
  5
1BF
102
{ACAD_REACTORS
330
23F
330
240
102
}
330
74
100
AcDbEntity
  8
0
  6
Continuous
 62
     2
100
AcDbLine
 10
-204.1415784989818
 20
-250.7065062879051
 30
0.0
 11
-202.9010740887288
 21
-250.7065062879051
 31
0.0
  0
LINE
  5
1C0
102
{ACAD_REACTORS
330
23F
330
240
102
}
330
74
100
AcDbEntity
  8
0
  6
Continuous
 62
     2
100
AcDbLine
 10
-202.423538484108
 20
-249.4849824783806
 30
0.0
 11
-201.8232080097255
 21
-249.4849824783806
 31
0.0
  0
LINE
  5
1C1
102
{ACAD_REACTORS
330
23F
330
240
102
}
330
74
100
AcDbEntity
  8
0
  6
Continuous
 62
     2
100
AcDbLine
 10
-201.8232080097255
 20
-249.4849824783806
 30
0.0
 11
-202.1233732469156
 21
-248.7171675123939
 31
0.0
  0
LINE
  5
1C2
102
{ACAD_REACTORS
330
241
330
242
102
}
330
74
100
AcDbEntity
  8
0
  6
Continuous
 62
     2
100
AcDbLine
 10
-199.7147239913175
 20
-247.3473158117308
 30
0.0
 11
-200.9552284015704
 21
-247.3473158117308
 31
0.0
  0
LINE
  5
1C3
102
{ACAD_REACTORS
330
243
330
244
102
}
330
74
100
AcDbEntity
  8
0
  6
Continuous
 62
     2
100
AcDbLine
 10
-198.1927205033524
 20
-247.3473158117308
 30
0.0
 11
-199.5954447211006
 21
-247.3473158117308
 31
0.0
  0
LINE
  5
1C4
102
{ACAD_REACTORS
330
243
330
244
102
}
330
74
100
AcDbEntity
  8
0
  6
Continuous
 62
     2
100
AcDbLine
 10
-198.1927205033524
 20
-247.3473158117308
 30
0.0
 11
-197.4961295652867
 21
-246.5595840264371
 31
0.0
  0
LINE
  5
1C5
102
{ACAD_REACTORS
330
243
330
244
102
}
330
74
100
AcDbEntity
  8
0
  6
Continuous
 62
     2
100
AcDbLine
 10
-196.8949620433939
 20
-244.2935062879196
 30
0.0
 11
-195.4922378256467
 21
-244.2935062879196
 31
0.0
  0
LINE
  5
1C6
102
{ACAD_REACTORS
330
243
330
244
102
}
330
74
100
AcDbEntity
  8
0
  6
Continuous
 62
     2
100
AcDbLine
 10
-199.5000213049278
 20
-244.2935062879196
 30
0.0
 11
-198.1974916741603
 21
-245.7664568179558
 31
0.0
  0
LINE
  5
1C7
102
{ACAD_REACTORS
330
243
330
244
102
}
330
74
100
AcDbEntity
  8
0
  6
Continuous
 62
     2
100
AcDbLine
 10
-199.5954447211006
 20
-247.3473158117308
 30
0.0
 11
-198.1974916741603
 21
-245.7664568179558
 31
0.0
  0
LINE
  5
1C8
102
{ACAD_REACTORS
330
24D
330
24E
102
}
330
74
100
AcDbEntity
  8
0
  6
Continuous
 62
     2
100
AcDbLine
 10
-197.7346881057207
 20
-249.6594858797415
 30
0.0
 11
-197.7346881057207
 21
-250.5320028865448
 31
0.0
  0
LINE
  5
1C9
102
{ACAD_REACTORS
330
24D
330
24E
102
}
330
74
100
AcDbEntity
  8
0
  6
Continuous
 62
     2
100
AcDbLine
 10
-198.5043454486821
 20
-248.4379620702176
 30
0.0
 11
-197.400706149114
 21
-248.4379620702176
 31
0.0
  0
LINE
  5
1CA
102
{ACAD_REACTORS
330
24F
330
250
102
}
330
74
100
AcDbEntity
  8
0
  6
Continuous
 62
     2
100
AcDbLine
 10
-213.8373895849726
 20
-249.659485879741
 30
0.0
 11
-213.8373895849726
 21
-250.5320028865442
 31
0.0
  0
LINE
  5
1CB
102
{ACAD_REACTORS
330
24F
330
250
102
}
330
74
100
AcDbEntity
  8
0
  6
Continuous
 62
     2
100
AcDbLine
 10
-213.8373895849726
 20
-248.6997171722581
 30
0.0
 11
-213.8373895849726
 21
-247.8272001654548
 31
0.0
  0
LINE
  5
1CC
330
74
100
AcDbEntity
  8
1
  6
Continuous
 62
     7
100
AcDbLine
 10
-98.00001399998868
 20
-249.5000062879214
 30
0.0
 11
-191.1448185267401
 21
-249.5000062879214
 31
0.0
  0
LINE
  5
1CD
330
74
100
AcDbEntity
  8
1
  6
Continuous
 62
     6
100
AcDbLine
 10
-296.54481852674
 20
-258.0000062879213
 30
0.0
 11
-341.50001399999
 21
-258.0000062879213
 31
0.0
  0
LINE
  5
1CE
330
74
100
AcDbEntity
  8
1
  6
Continuous
 62
     7
100
AcDbLine
 10
-106.9184222816675
 20
-232.5000062879214
 30
0.0
 11
-106.9184222816675
 21
-241.0000062879214
 31
0.0
  0
LINE
  5
1CF
330
74
100
AcDbEntity
  8
1
  6
Continuous
 62
     7
100
AcDbLine
 10
-133.4184222816671
 20
-232.5000062879214
 30
0.0
 11
-133.4184222816671
 21
-241.0000062879214
 31
0.0
  0
LINE
  5
1D0
330
74
100
AcDbEntity
  8
1
  6
Continuous
 62
     7
100
AcDbLine
 10
-191.1448185267401
 20
-241.0000062879214
 30
0.0
 11
-191.1448185267401
 21
-232.5000062879214
 31
0.0
  0
LINE
  5
1D1
330
74
100
AcDbEntity
  8
1
  6
Continuous
 62
     7
100
AcDbLine
 10
-227.54481852674
 20
-241.0000062879214
 30
0.0
 11
-227.54481852674
 21
-232.5000062879214
 31
0.0
  0
LINE
  5
1D2
330
74
100
AcDbEntity
  8
1
  6
Continuous
 62
     6
100
AcDbLine
 10
-191.1448185267401
 20
-241.0000062879214
 30
0.0
 11
-98.00001399998828
 21
-241.0000062879214
 31
0.0
  0
LINE
  5
1D3
330
74
100
AcDbEntity
  8
1
  6
Continuous
 62
     7
100
AcDbLine
 10
-163.24481852674
 20
-249.5000062879215
 30
0.0
 11
-163.24481852674
 21
-241.0000062879214
 31
0.0
  0
LINE
  5
1D4
330
74
100
AcDbEntity
  8
1
  6
PHANTOM
 62
     2
100
AcDbLine
 10
-212.0581636401774
 20
-236.8750062879215
 30
0.0
 11
-217.5581636401774
 21
-236.8750062879215
 31
0.0
  0
LINE
  5
1D5
330
74
100
AcDbEntity
  8
1
  6
PHANTOM
 62
     2
100
AcDbLine
 10
-214.8081636401774
 20
-234.1250062879215
 30
0.0
 11
-214.8081636401774
 21
-239.6250062879215
 31
0.0
  0
LINE
  5
1D6
330
74
100
AcDbEntity
  8
1
  6
DOT_CENTER
 62
     2
100
AcDbLine
 10
-223.5581636401774
 20
-236.8750062879215
 30
0.0
 11
-218.0581636401774
 21
-236.8750062879215
 31
0.0
  0
ARC
  5
1D7
102
{ACAD_REACTORS
330
24F
330
250
102
}
330
74
100
AcDbEntity
  8
0
  6
Continuous
 62
     2
100
AcDbCircle
 10
-215.1733175020904
 20
-252.4922824712557
 30
0.0
 40
4.852596863498068
100
AcDbArc
 50
74.02000874164739
 51
84.84185523037472
  0
ARC
  5
1D8
102
{ACAD_REACTORS
330
24F
330
250
102
}
330
74
100
AcDbEntity
  8
0
  6
Continuous
 62
     2
100
AcDbCircle
 10
-214.5972768933367
 20
-249.3365221153714
 30
0.0
 40
0.9059297849853318
100
AcDbArc
 50
71.55192388185178
 51
113.372277888129
  0
ARC
  5
1D9
102
{ACAD_REACTORS
330
24F
330
250
102
}
330
74
100
AcDbEntity
  8
0
  6
Continuous
 62
     2
100
AcDbCircle
 10
-214.7537169260387
 20
-249.3846729553383
 30
0.0
 40
0.5115800601948034
100
AcDbArc
 50
208.5214732576956
 51
246.6277221118245
  0
ARC
  5
1DA
102
{ACAD_REACTORS
330
24F
330
250
102
}
330
74
100
AcDbEntity
  8
0
  6
Continuous
 62
     2
100
AcDbCircle
 10
-214.5972768933367
 20
-249.0226809366283
 30
0.0
 40
0.9059297849849192
100
AcDbArc
 50
246.627722111871
 51
288.4480761181596
  0
ARC
  5
1DB
102
{ACAD_REACTORS
330
24F
330
250
102
}
330
74
100
AcDbEntity
  8
0
  6
Continuous
 62
     2
100
AcDbCircle
 10
-215.0154446269975
 20
-247.7691351605911
 30
0.0
 40
2.227384008972773
100
AcDbArc
 50
288.4480761181333
 51
301.9309089499593
  0
ARC
  5
1DC
102
{ACAD_REACTORS
330
24B
330
24C
102
}
330
74
100
AcDbEntity
  8
0
  6
Continuous
 62
     2
100
AcDbCircle
 10
-220.2405183596043
 20
-247.0366331316771
 30
0.0
 40
0.9118481501444847
100
AcDbArc
 50
295.3740086781757
 51
64.62599132180748
  0
ARC
  5
1DD
102
{ACAD_REACTORS
330
24B
330
24C
102
}
330
74
100
AcDbEntity
  8
0
  6
Continuous
 62
     2
100
AcDbCircle
 10
-219.7144756615164
 20
-245.3219562432025
 30
0.0
 40
0.3157169230760427
100
AcDbArc
 50
90.18896704255111
 51
180.0
  0
ARC
  5
1DE
102
{ACAD_REACTORS
330
24D
330
24E
102
}
330
74
100
AcDbEntity
  8
0
  6
Continuous
 62
     2
100
AcDbCircle
 10
-198.5043454486821
 20
-249.3924850770437
 30
0.0
 40
0.9545230068260935
100
AcDbArc
 50
90.0
 51
109.337143219432
  0
ARC
  5
1DF
102
{ACAD_REACTORS
330
24D
330
24E
102
}
330
74
100
AcDbEntity
  8
0
  6
Continuous
 62
     2
100
AcDbCircle
 10
-198.2736581887044
 20
-249.1796015259998
 30
0.0
 40
0.9410597353349173
100
AcDbArc
 50
151.4785267423633
 51
208.5214732576687
  0
ARC
  5
1E0
102
{ACAD_REACTORS
330
24D
330
24E
102
}
330
74
100
AcDbEntity
  8
0
  6
Continuous
 62
     2
100
AcDbCircle
 10
-198.4945754140827
 20
-249.0226809366283
 30
0.0
 40
0.9059297849852801
100
AcDbArc
 50
246.6277221118183
 51
288.4480761180811
  0
ARC
  5
1E1
102
{ACAD_REACTORS
330
24D
330
24E
102
}
330
74
100
AcDbEntity
  8
0
  6
Continuous
 62
     2
100
AcDbCircle
 10
-198.9127431477446
 20
-247.7691351605917
 30
0.0
 40
2.227384008972773
100
AcDbArc
 50
288.4480761181333
 51
301.9309089499394
  0
ARC
  5
1E2
102
{ACAD_REACTORS
330
24D
330
24E
102
}
330
74
100
AcDbEntity
  8
0
  6
Continuous
 62
     2
100
AcDbCircle
 10
-199.0706160228374
 20
-245.8669205807434
 30
0.0
 40
4.852596863498825
100
AcDbArc
 50
275.1581447696364
 51
285.9799912583387
  0
ARC
  5
1E3
102
{ACAD_REACTORS
330
24D
330
24E
102
}
330
74
100
AcDbEntity
  8
0
  6
Continuous
 62
     2
100
AcDbCircle
 10
-198.7817599281016
 20
-249.066811163965
 30
0.0
 40
1.639695123940413
100
AcDbArc
 50
195.0618917771005
 51
275.1581447696763
  0
ARC
  5
1E4
102
{ACAD_REACTORS
330
245
330
246
102
}
330
74
100
AcDbEntity
  8
0
  6
Continuous
 62
     2
100
AcDbCircle
 10
-214.5099732397927
 20
-245.3488719292533
 30
0.0
 40
1.05536564133368
100
AcDbArc
 50
270.0
 51
90.0
  0
ARC
  5
1E5
102
{ACAD_REACTORS
330
24B
330
24C
102
}
330
74
100
AcDbEntity
  8
0
  6
Continuous
 62
     2
100
AcDbCircle
 10
-222.2900243480481
 20
-249.6782338092715
 30
0.0
 40
0.315716923075712
100
AcDbArc
 50
180.0
 51
270.0
  0
ARC
  5
1E6
102
{ACAD_REACTORS
330
24B
330
24C
102
}
330
74
100
AcDbEntity
  8
0
  6
Continuous
 62
     2
100
AcDbCircle
 10
-220.8141910870385
 20
-245.3217787665544
 30
0.0
 40
0.315716923076593
100
AcDbArc
 50
0.0
 51
90.0
  0
ARC
  5
1E7
102
{ACAD_REACTORS
330
24B
330
24C
102
}
330
74
100
AcDbEntity
  8
0
  6
Continuous
 62
     2
100
AcDbCircle
 10
-220.8141910870385
 20
-245.9258033856149
 30
0.0
 40
0.315716923076146
100
AcDbArc
 50
295.1944106485375
 51
0.0
  0
ARC
  5
1E8
102
{ACAD_REACTORS
330
24B
330
24C
102
}
330
74
100
AcDbEntity
  8
0
  6
Continuous
 62
     2
100
AcDbCircle
 10
-220.8141910870385
 20
-249.6782338092715
 30
0.0
 40
0.3157169230767067
100
AcDbArc
 50
270.0
 51
0.0
  0
ARC
  5
1E9
102
{ACAD_REACTORS
330
24B
330
24C
102
}
330
74
100
AcDbEntity
  8
0
  6
Continuous
 62
     2
100
AcDbCircle
 10
-222.8839190247946
 20
-244.7177509033216
 30
0.0
 40
0.4242446153837989
100
AcDbArc
 50
90.0
 51
180.0
  0
ARC
  5
1EA
102
{ACAD_REACTORS
330
24B
330
24C
102
}
330
74
100
AcDbEntity
  8
0
  6
Continuous
 62
     2
100
AcDbCircle
 10
-217.4106069340778
 20
-244.7177509033216
 30
0.0
 40
0.4242446153839126
100
AcDbArc
 50
0.0
 51
90.0
  0
ARC
  5
1EB
102
{ACAD_REACTORS
330
24B
330
24C
102
}
330
74
100
AcDbEntity
  8
0
  6
Continuous
 62
     2
100
AcDbCircle
 10
-217.4106069340778
 20
-250.2822616725218
 30
0.0
 40
0.4242446153833157
100
AcDbArc
 50
270.0
 51
0.0
  0
ARC
  5
1EC
102
{ACAD_REACTORS
330
249
330
24A
102
}
330
74
100
AcDbEntity
  8
0
  6
Continuous
 62
     2
100
AcDbCircle
 10
-208.1922230469863
 20
-245.8204110498255
 30
0.0
 40
0.7717997786796198
100
AcDbArc
 50
321.8795802028454
 51
38.12041979716123
  0
ARC
  5
1ED
102
{ACAD_REACTORS
330
249
330
24A
102
}
330
74
100
AcDbEntity
  8
0
  6
Continuous
 62
     2
100
AcDbCircle
 10
-207.9924830106401
 20
-245.9771422279459
 30
0.0
 40
0.5179085730134595
100
AcDbArc
 50
218.1204197971492
 51
321.8795802028547
  0
ARC
  5
1EE
102
{ACAD_REACTORS
330
247
330
248
102
}
330
74
100
AcDbEntity
  8
0
  6
Continuous
 62
     2
100
AcDbCircle
 10
-211.6724905996003
 20
-249.1796015259998
 30
0.0
 40
1.458034083652003
100
AcDbArc
 50
297.548148175701
 51
62.45185182429896
  0
ARC
  5
1EF
102
{ACAD_REACTORS
330
247
330
248
102
}
330
74
100
AcDbEntity
  8
0
  6
Continuous
 62
     2
100
AcDbCircle
 10
-212.2343703832669
 20
-249.1796015259998
 30
0.0
 40
1.45803408365149
100
AcDbArc
 50
117.5481481756624
 51
242.4518518243375
  0
ARC
  5
1F0
102
{ACAD_REACTORS
330
247
330
248
102
}
330
74
100
AcDbEntity
  8
0
  6
Continuous
 62
     2
100
AcDbCircle
 10
-211.9534304914336
 20
-249.7181765363026
 30
0.0
 40
2.065479772208568
100
AcDbArc
 50
62.45185182430637
 51
117.5481481756664
  0
ARC
  5
1F1
102
{ACAD_REACTORS
330
247
330
248
102
}
330
74
100
AcDbEntity
  8
0
  6
Continuous
 62
     2
100
AcDbCircle
 10
-211.9534304914336
 20
-248.6410265156965
 30
0.0
 40
2.065479772208509
100
AcDbArc
 50
242.4518518243402
 51
297.5481481756871
  0
ARC
  5
1F2
102
{ACAD_REACTORS
330
249
330
24A
102
}
330
74
100
AcDbEntity
  8
0
  6
Continuous
 62
     2
100
AcDbCircle
 10
-207.7927429742938
 20
-245.8204110498255
 30
0.0
 40
0.7717997786797123
100
AcDbArc
 50
141.8795802028401
 51
218.1204197971533
  0
ARC
  5
1F3
102
{ACAD_REACTORS
330
249
330
24A
102
}
330
74
100
AcDbEntity
  8
0
  6
Continuous
 62
     2
100
AcDbCircle
 10
-207.9924830106401
 20
-245.663679871705
 30
0.0
 40
0.5179085730135041
100
AcDbArc
 50
38.12041979714528
 51
141.8795802028508
  0
ARC
  5
1F4
102
{ACAD_REACTORS
330
24B
330
24C
102
}
330
74
100
AcDbEntity
  8
0
  6
Continuous
 62
     2
100
AcDbCircle
 10
-222.8839190247946
 20
-250.2822616725218
 30
0.0
 40
0.4242446153828041
100
AcDbArc
 50
180.0
 51
270.0
  0
ARC
  5
1F5
102
{ACAD_REACTORS
330
24B
330
24C
102
}
330
74
100
AcDbEntity
  8
0
  6
Continuous
 62
     2
100
AcDbCircle
 10
-220.8141910870385
 20
-248.1474628777399
 30
0.0
 40
0.315716923076593
100
AcDbArc
 50
0.0
 51
64.80558935146249
  0
ARC
  5
1F6
102
{ACAD_REACTORS
330
24B
330
24C
102
}
330
74
100
AcDbEntity
  8
0
  6
Continuous
 62
     2
100
AcDbCircle
 10
-220.2916066394635
 20
-247.0366331316771
 30
0.0
 40
0.9118975235575889
100
AcDbArc
 50
115.194410648529
 51
244.8055893514878
  0
ARC
  5
1F7
102
{ACAD_REACTORS
330
24B
330
24C
102
}
330
74
100
AcDbEntity
  8
0
  6
Continuous
 62
     2
100
AcDbCircle
 10
-222.2900243480481
 20
-245.3217787665544
 30
0.0
 40
0.3157169230761951
100
AcDbArc
 50
90.0
 51
180.0
  0
ARC
  5
1F8
102
{ACAD_REACTORS
330
245
330
246
102
}
330
74
100
AcDbEntity
  8
0
  6
Continuous
 62
     2
100
AcDbCircle
 10
-214.9514457660311
 20
-245.3094759580308
 30
0.0
 40
0.3528638246711182
100
AcDbArc
 50
270.0
 51
90.0
  0
ARC
  5
1F9
102
{ACAD_REACTORS
330
249
330
24A
102
}
330
74
100
AcDbEntity
  8
0
  6
Continuous
 62
     2
100
AcDbCircle
 10
-208.2087550208053
 20
-245.8204110498255
 30
0.0
 40
1.526904761905911
100
AcDbArc
 50
90.0
 51
270.0
  0
ARC
  5
1FA
102
{ACAD_REACTORS
330
24D
330
24E
102
}
330
74
100
AcDbEntity
  8
0
  6
Continuous
 62
     2
100
AcDbCircle
 10
-198.7817599281016
 20
-249.2923918880347
 30
0.0
 40
1.639695123940214
100
AcDbArc
 50
90.0
 51
164.9381082228957
  0
ARC
  5
1FB
102
{ACAD_REACTORS
330
24D
330
24E
102
}
330
74
100
AcDbEntity
  8
0
  6
Continuous
 62
     2
100
AcDbCircle
 10
-199.2008877715632
 20
-249.1796015259998
 30
0.0
 40
1.205656168392968
100
AcDbArc
 50
164.9381082229037
 51
195.0618917770962
  0
ARC
  5
1FC
102
{ACAD_REACTORS
330
24D
330
24E
102
}
330
74
100
AcDbEntity
  8
0
  6
Continuous
 62
     2
100
AcDbCircle
 10
-198.6510154467858
 20
-249.3846729553383
 30
0.0
 40
0.5115800601960215
100
AcDbArc
 50
208.5214732576866
 51
246.6277221118449
  0
ARC
  5
1FD
102
{ACAD_REACTORS
330
24D
330
24E
102
}
330
74
100
AcDbEntity
  8
0
  6
Continuous
 62
     2
100
AcDbCircle
 10
-198.6510154467858
 20
-248.9745300966608
 30
0.0
 40
0.5115800601944143
100
AcDbArc
 50
109.3371432194853
 51
151.4785267424225
  0
ARC
  5
1FE
102
{ACAD_REACTORS
330
24B
330
24C
102
}
330
74
100
AcDbEntity
  8
0
  6
Continuous
 62
     2
100
AcDbCircle
 10
-219.7144756615164
 20
-248.7276261383406
 30
0.0
 40
0.3157169230768204
100
AcDbArc
 50
180.0
 51
269.811032957449
  0
ARC
  5
1FF
102
{ACAD_REACTORS
330
24B
330
24C
102
}
330
74
100
AcDbEntity
  8
0
  6
Continuous
 62
     2
100
AcDbCircle
 10
-219.7088595262064
 20
-247.0247911907716
 30
0.0
 40
2.018561131933266
100
AcDbArc
 50
269.8110329575858
 51
90.18896704241416
  0
ARC
  5
200
102
{ACAD_REACTORS
330
24B
330
24C
102
}
330
74
100
AcDbEntity
  8
0
  6
Continuous
 62
     2
100
AcDbCircle
 10
-219.7144756615164
 20
-245.9274915317093
 30
0.0
 40
0.3157169230768204
100
AcDbArc
 50
180.0
 51
244.6259913216412
  0
ARC
  5
201
102
{ACAD_REACTORS
330
24B
330
24C
102
}
330
74
100
AcDbEntity
  8
0
  6
Continuous
 62
     2
100
AcDbCircle
 10
-219.7144756615164
 20
-248.1457747316455
 30
0.0
 40
0.3157169230765193
100
AcDbArc
 50
115.3740086783587
 51
180.0
  0
ARC
  5
202
102
{ACAD_REACTORS
330
24F
330
250
102
}
330
74
100
AcDbEntity
  8
0
  6
Continuous
 62
     2
100
AcDbCircle
 10
-214.8844614073545
 20
-249.2923918880347
 30
0.0
 40
1.639695123940509
100
AcDbArc
 50
84.84185523036136
 51
164.9381082228874
  0
ARC
  5
203
102
{ACAD_REACTORS
330
24F
330
250
102
}
330
74
100
AcDbEntity
  8
0
  6
Continuous
 62
     2
100
AcDbCircle
 10
-215.3035892508173
 20
-249.1796015259998
 30
0.0
 40
1.205656168390937
100
AcDbArc
 50
164.9381082228778
 51
195.0618917770948
  0
ARC
  5
204
102
{ACAD_REACTORS
330
24F
330
250
102
}
330
74
100
AcDbEntity
  8
0
  6
Continuous
 62
     2
100
AcDbCircle
 10
-214.8844614073545
 20
-249.066811163965
 30
0.0
 40
1.63969512393938
100
AcDbArc
 50
195.0618917770886
 51
275.1581447696406
  0
ARC
  5
205
102
{ACAD_REACTORS
330
24F
330
250
102
}
330
74
100
AcDbEntity
  8
0
  6
Continuous
 62
     2
100
AcDbCircle
 10
-215.1733175020904
 20
-245.8669205807434
 30
0.0
 40
4.852596863498141
100
AcDbArc
 50
275.1581447696253
 51
285.9799912583529
  0
ARC
  5
206
102
{ACAD_REACTORS
330
24F
330
250
102
}
330
74
100
AcDbEntity
  8
0
  6
Continuous
 62
     2
100
AcDbCircle
 10
-214.3763596679584
 20
-249.1796015259998
 30
0.0
 40
0.9410597353332295
100
AcDbArc
 50
151.4785267422661
 51
208.5214732577066
  0
ARC
  5
207
102
{ACAD_REACTORS
330
24F
330
250
102
}
330
74
100
AcDbEntity
  8
0
  6
Continuous
 62
     2
100
AcDbCircle
 10
-214.7537169260387
 20
-248.9745300966608
 30
0.0
 40
0.5115800601948891
100
AcDbArc
 50
113.3722778882021
 51
151.4785267423044
  0
ARC
  5
208
102
{ACAD_REACTORS
330
24F
330
250
102
}
330
74
100
AcDbEntity
  8
0
  6
Continuous
 62
     2
100
AcDbCircle
 10
-215.0154446269975
 20
-250.590067891408
 30
0.0
 40
2.227384008973501
100
AcDbArc
 50
58.06909105004111
 51
71.55192388186676
  0
ARC
  5
209
102
{ACAD_REACTORS
330
247
330
248
102
}
330
74
100
AcDbEntity
  8
0
  6
Continuous
 62
     2
100
AcDbCircle
 10
-211.9534304914336
 20
-249.0228703478793
 30
0.0
 40
0.5179085730132998
100
AcDbArc
 50
38.12041979714704
 51
141.8795802028588
  0
ARC
  5
20A
102
{ACAD_REACTORS
330
247
330
248
102
}
330
74
100
AcDbEntity
  8
0
  6
Continuous
 62
     2
100
AcDbCircle
 10
-211.7536904550875
 20
-249.1796015259998
 30
0.0
 40
0.7717997786794633
100
AcDbArc
 50
141.8795802028363
 51
218.1204197971703
  0
ARC
  5
20B
102
{ACAD_REACTORS
330
247
330
248
102
}
330
74
100
AcDbEntity
  8
0
  6
Continuous
 62
     2
100
AcDbCircle
 10
-211.9534304914336
 20
-249.3363327041198
 30
0.0
 40
0.5179085730137529
100
AcDbArc
 50
218.1204197971956
 51
321.8795802027985
  0
ARC
  5
20C
102
{ACAD_REACTORS
330
247
330
248
102
}
330
74
100
AcDbEntity
  8
0
  6
Continuous
 62
     2
100
AcDbCircle
 10
-212.15317052778
 20
-249.1796015259998
 30
0.0
 40
0.77179977867969
100
AcDbArc
 50
321.8795802028388
 51
38.12041979715458
  0
CIRCLE
  5
20D
330
74
100
AcDbEntity
  8
1
  6
Continuous
 62
     2
100
AcDbCircle
 10
-214.8081636401774
 20
-236.8750062879215
 30
0.0
 40
2.5
  0
CIRCLE
  5
20E
330
74
100
AcDbEntity
  8
1
  6
Continuous
 62
     2
100
AcDbCircle
 10
-214.8081636401774
 20
-236.8750062879215
 30
0.0
 40
1.249999999999915
  0
CIRCLE
  5
20F
102
{ACAD_REACTORS
330
24B
330
24C
102
}
330
74
100
AcDbEntity
  8
0
  6
Continuous
 62
     2
100
AcDbCircle
 10
-220.2643333742771
 20
-247.0366331316771
 30
0.0
 40
0.4709789327785074
  0
MTEXT
  5
210
330
74
100
AcDbEntity
  8
1
 62
     3
100
AcDbMText
 10
-384.9949462139182
 20
-71.20869813262257
 30
0.0
 40
1.8
 41
0.0
 71
     7
 72
     1
  3
Weitergabe sowie Vervielf\U+00e4ltigung dieses Dokuments, Verwertung und \PMitteilung seines Inhalts sind verboten, soweit nicht ausdr\U+00fccklich gestattet. \PZuwiderhandlungen verpflichten zu Schadenersatz. Alle Rechte f\U+00fcr den Fall\Pder Pat
  1
ent-, Gebrauchsmuster- oder Designeintragung vorbehalten.
  7
CONVERTER_11
 73
     1
 44
0.99639855942377
  0
MTEXT
  5
211
330
74
100
AcDbEntity
  8
1
 62
     3
100
AcDbMText
 10
-202.1418363751301
 20
-71.20869813262257
 30
0.0
 40
1.8
 41
0.0
 71
     7
 72
     1
  3
Transfer or duplication of this document as well as the utilisation or\Pcommunication of its content are not permitted unless express consen\Pis granted. Violations give rise to claims for damages. All rights reserved\Pin case of patent, utility mod
  1
el or design patent registrations.
  7
CONVERTER_11
 73
     1
 44
0.99639855942377
  0
TEXT
  5
212
330
74
100
AcDbEntity
  8
1
 62
     2
100
AcDbText
 10
-208.3448185267402
 20
-256.759023502913
 30
0.0
 40
1.8
  1
of
 41
0.9
  7
CONVERTER_11
100
AcDbText
  0
TEXT
  5
213
330
74
100
AcDbEntity
  8
1
 62
     2
100
AcDbText
 10
-226.54481852674
 20
-256.759023502913
 30
0.0
 40
1.8
  1
page
 41
0.9
  7
CONVERTER_11
100
AcDbText
  0
TEXT
  5
214
330
74
100
AcDbEntity
  8
1
 62
     2
100
AcDbText
 10
-217.898553556398
 20
-256.7992549417234
 30
0.0
 40
1.8
  1
1
 41
0.9
  7
CONVERTER_11
100
AcDbText
  0
TEXT
  5
215
330
74
100
AcDbEntity
  8
1
 62
     2
100
AcDbText
 10
-203.1095097169265
 20
-256.7500062879215
 30
0.0
 40
1.8
  1
1
 41
0.9
  7
CONVERTER_11
100
AcDbText
  0
MTEXT
  5
217
330
74
100
AcDbEntity
  8
1
 62
     7
100
AcDbMText
 10
-144.5724162633645
 20
-254.7500062879211
 30
0.0
 40
3.0
 41
0.0
 71
     5
 72
     1
  1
HC-BS-PG29
  7
CONVERTER_12
 73
     1
 44
1.20048019207683
  0
MTEXT
  5
218
330
74
100
AcDbEntity
  8
1
 62
     2
100
AcDbMText
 10
-190.1448185267401
 20
-250.5000062879214
 30
0.0
 40
1.8
 41
0.0
 71
     1
 72
     1
  1
description
  7
CONVERTER_11
 73
     1
 44
1.20048019207683
  0
MTEXT
  5
219
330
74
100
AcDbEntity
  8
1
 62
     3
100
AcDbMText
 10
-201.3448185267401
 20
-236.8750062879214
 30
0.0
 40
2.5
 41
0.0
 71
     5
 72
     1
  1
DIN A4
  7
CONVERTER_11
 73
     1
 44
1.20048019207683
  0
MTEXT
  5
21A
330
74
100
AcDbEntity
  8
1
 62
     7
100
AcDbMText
 10
-387.5000139999891
 20
-235.5000062879214
 30
0.0
 40
3.5
 41
0.0
 71
     5
 72
     1
  1
D
  7
CONVERTER_11
 73
     1
 44
1.20048019207683
  0
MTEXT
  5
21B
330
74
100
AcDbEntity
  8
1
 62
     7
100
AcDbMText
 10
-387.5000139999891
 20
-183.0000062879214
 30
0.0
 40
3.5
 41
0.0
 71
     5
 72
     1
  1
C
  7
CONVERTER_11
 73
     1
 44
1.20048019207683
  0
MTEXT
  5
21C
330
74
100
AcDbEntity
  8
1
 62
     7
100
AcDbMText
 10
-387.5000139999891
 20
-133.0000062879214
 30
0.0
 40
3.5
 41
0.0
 71
     5
 72
     1
  1
B
  7
CONVERTER_11
 73
     1
 44
1.20048019207683
  0
MTEXT
  5
21D
330
74
100
AcDbEntity
  8
1
 62
     7
100
AcDbMText
 10
-387.5000139999891
 20
-80.50000628792137
 30
0.0
 40
3.5
 41
0.0
 71
     5
 72
     1
  1
A
  7
CONVERTER_11
 73
     1
 44
1.20048019207683
  0
MTEXT
  5
21E
330
74
100
AcDbEntity
  8
1
 62
     7
100
AcDbMText
 10
-117.2500139999908
 20
-260.5000062879215
 30
0.0
 40
3.5
 41
0.0
 71
     5
 72
     1
  1
6
  7
CONVERTER_11
 73
     1
 44
1.20048019207683
  0
MTEXT
  5
21F
330
74
100
AcDbEntity
  8
1
 62
     7
100
AcDbMText
 10
-166.50001399999
 20
-260.5000062879215
 30
0.0
 40
3.5
 41
0.0
 71
     5
 72
     1
  1
5
  7
CONVERTER_11
 73
     1
 44
1.20048019207683
  0
MTEXT
  5
220
330
74
100
AcDbEntity
  8
1
 62
     7
100
AcDbMText
 10
-216.5000139999901
 20
-260.5000062879215
 30
0.0
 40
3.5
 41
0.0
 71
     5
 72
     1
  1
4
  7
CONVERTER_11
 73
     1
 44
1.20048019207683
  0
MTEXT
  5
221
330
74
100
AcDbEntity
  8
1
 62
     7
100
AcDbMText
 10
-266.50001399999
 20
-260.5000062879215
 30
0.0
 40
3.5
 41
0.0
 71
     5
 72
     1
  1
3
  7
CONVERTER_11
 73
     1
 44
1.20048019207683
  0
MTEXT
  5
222
330
74
100
AcDbEntity
  8
1
 62
     7
100
AcDbMText
 10
-316.50001399999
 20
-260.5000062879215
 30
0.0
 40
3.5
 41
0.0
 71
     5
 72
     1
  1
2
  7
CONVERTER_11
 73
     1
 44
1.20048019207683
  0
MTEXT
  5
223
330
74
100
AcDbEntity
  8
1
 62
     7
100
AcDbMText
 10
-365.7500139999896
 20
-260.5000062879215
 30
0.0
 40
3.5
 41
0.0
 71
     5
 72
     1
  1
1
  7
CONVERTER_11
 73
     1
 44
1.20048019207683
  0
MTEXT
  5
224
330
74
100
AcDbEntity
  8
1
 62
     7
100
AcDbMText
 10
-95.50001399999098
 20
-235.5000062879214
 30
0.0
 40
3.5
 41
0.0
 71
     5
 72
     1
  1
D
  7
CONVERTER_11
 73
     1
 44
1.20048019207683
  0
MTEXT
  5
225
330
74
100
AcDbEntity
  8
1
 62
     7
100
AcDbMText
 10
-95.50001399999098
 20
-133.0000062879195
 30
0.0
 40
3.5
 41
0.0
 71
     5
 72
     1
  1
B
  7
CONVERTER_11
 73
     1
 44
1.20048019207683
  0
MTEXT
  5
226
330
74
100
AcDbEntity
  8
1
 62
     7
100
AcDbMText
 10
-95.50001399999098
 20
-80.50000628792137
 30
0.0
 40
3.5
 41
0.0
 71
     5
 72
     1
  1
A
  7
CONVERTER_11
 73
     1
 44
1.20048019207683
  0
MTEXT
  5
227
330
74
100
AcDbEntity
  8
1
 62
     7
100
AcDbMText
 10
-95.50001399999098
 20
-183.0000062879195
 30
0.0
 40
3.5
 41
0.0
 71
     5
 72
     1
  1
C
  7
CONVERTER_11
 73
     1
 44
1.20048019207683
  0
MTEXT
  5
228
330
74
100
AcDbEntity
  8
1
 62
     2
100
AcDbMText
 10
-261.9828332517875
 20
-245.2500062879215
 30
0.0
 40
2.0
 41
0.0
 71
     5
 72
     1
  1
General Information\P- Simplified representation\P- Document excluded from change process\P- Linear dimensions [mm]
  7
CONVERTER_11
 73
     1
 44
1.20048019207683
  0
TEXT
  5
229
330
74
100
AcDbEntity
  8
1
 62
     7
100
AcDbText
 10
-189.6448185267403
 20
-248.2000062879215
 30
0.0
 40
2.5
  1
1674532
 41
0.81
  7
CONVERTER_12
100
AcDbText
  0
MTEXT
  5
22A
330
74
100
AcDbEntity
  8
1
 62
     2
100
AcDbMText
 10
-190.04481852674
 20
-242.0000062879214
 30
0.0
 40
1.8
 41
0.0
 71
     1
 72
     1
  1
ident.-No.
  7
CONVERTER_11
 73
     1
 44
1.20048019207683
  0
MTEXT
  5
22B
330
74
100
AcDbEntity
  8
1
 62
     2
100
AcDbMText
 10
-105.8184222816673
 20
-233.5000062879214
 30
0.0
 40
1.8
 41
0.0
 71
     1
 72
     1
  1
scale
  7
CONVERTER_11
 73
     1
 44
1.20048019207683
  0
MTEXT
  5
22D
330
74
100
AcDbEntity
  8
1
 62
     3
100
AcDbMText
 10
-102.4592181408277
 20
-239.7000062879213
 30
0.0
 40
2.5
 41
0.0
 71
     8
 72
     1
  1
1:1
  7
CONVERTER_13
 73
     1
 44
1.32052821128451
  0
TEXT
  5
22E
330
74
100
AcDbEntity
  8
1
 62
     7
100
AcDbText
 10
-190.04481852674
 20
-239.7000062879215
 30
0.0
 40
2.5
  1
00896120
 41
0.81
  7
CONVERTER_12
100
AcDbText
  0
MTEXT
  5
230
330
74
100
AcDbEntity
  8
1
 62
     2
100
AcDbMText
 10
-190.04481852674
 20
-233.5000062879214
 30
0.0
 40
1.8
 41
0.0
 71
     1
 72
     1
  1
document-No. / RI
  7
CONVERTER_14
 73
     1
 44
1.32052821128451
  0
TEXT
  5
231
330
74
100
AcDbEntity
  8
1
 62
     3
100
AcDbText
 10
-162.24481852674
 20
-248.2000062879215
 30
0.0
 40
2.5
  1
 
 41
0.81
  7
CONVERTER_12
100
AcDbText
  0
MTEXT
  5
232
330
74
100
AcDbEntity
  8
1
 62
     2
100
AcDbMText
 10
-162.24481852674
 20
-242.0000062879215
 30
0.0
 40
1.8
 41
0.0
 71
     1
 72
     1
  1
document-type
  7
CONVERTER_11
 73
     1
 44
1.20048019207683
  0
MTEXT
  5
233
330
74
100
AcDbEntity
  8
1
 62
     2
100
AcDbMText
 10
-132.4184222816671
 20
-233.5000062879215
 30
0.0
 40
1.8
 41
0.0
 71
     1
 72
     1
  1
date
  7
CONVERTER_11
 73
     1
 44
1.32052821128451
  0
TEXT
  5
234
330
74
100
AcDbEntity
  8
1
 62
     3
100
AcDbText
 10
-132.4184222816671
 20
-239.7000062879215
 30
0.0
 40
2.5
  1
24.05.2018
 41
0.81
  7
CONVERTER_12
100
AcDbText
  0
TEXT
  5
235
330
74
100
AcDbEntity
  8
1
 62
     7
100
AcDbText
 10
-170.0149063076842
 20
-239.7000062879215
 30
0.0
 40
2.5
  1
01
 41
0.81
  7
CONVERTER_12
100
AcDbText
  0
TEXT
  5
236
330
74
100
AcDbEntity
  8
1
 62
     7
100
AcDbText
 10
-172.1712708047262
 20
-239.7000062879215
 30
0.0
 40
2.5
  1
/
 41
0.9
  7
CONVERTER_11
100
AcDbText
  0
HATCH
  5
237
330
74
100
AcDbEntity
  8
1
  6
Continuous
 62
     2
100
AcDbHatch
 10
0.0
 20
0.0
 30
0.0
210
0.0
220
0.0
230
1.0
  2
_USER
 70
     0
 71
     1
 91
        1
 92
        1
 93
       12
 72
     1
 10
-209.8773178137789
 20
-247.3473158117308
 11
-211.0701105159453
 21
-247.3473158117308
 72
     1
 10
-211.0701105159453
 20
-247.3473158117308
 11
-211.0701105159453
 21
-246.213043702887
 72
     1
 10
-211.0701105159453
 20
-246.213043702887
 11
-212.1197680938528
 21
-246.213043702887
 72
     1
 10
-212.1197680938528
 20
-246.213043702887
 11
-212.1197680938528
 21
-247.3473158117308
 72
     1
 10
-212.1197680938528
 20
-247.3473158117308
 11
-213.3125607960194
 21
-247.3473158117308
 72
     1
 10
-213.3125607960194
 20
-247.3473158117308
 11
-213.3125607960194
 21
-244.2935062879196
 72
     1
 10
-213.3125607960194
 20
-244.2935062879196
 11
-212.1197680938528
 21
-244.2935062879196
 72
     1
 10
-212.1197680938528
 20
-244.2935062879196
 11
-212.1197680938528
 21
-245.3623396212542
 72
     1
 10
-212.1197680938528
 20
-245.3623396212542
 11
-211.0701105159453
 21
-245.3623396212542
 72
     1
 10
-211.0701105159453
 20
-245.3623396212542
 11
-211.0701105159453
 21
-244.2935062879196
 72
     1
 10
-211.0701105159453
 20
-244.2935062879196
 11
-209.8773178137789
 21
-244.2935062879196
 72
     1
 10
-209.8773178137789
 20
-244.2935062879196
 11
-209.8773178137789
 21
-247.3473158117308
 97
       12
330
1A4
330
1A5
330
18F
330
18E
330
18D
330
1A1
330
18C
330
1A2
330
1A3
330
18B
330
18A
330
189
 75
     1
 76
     0
 52
45.0
 41
0.1
 77
     0
 78
     1
 53
45.0
 43
0.0
 44
0.0
 45
-0.0707106781186548
 46
0.0707106781186548
 79
     0
 98
        1
 10
0.0
 20
0.0
  0
HATCH
  5
238
330
74
100
AcDbEntity
  8
1
  6
Continuous
 62
     2
100
AcDbHatch
 10
0.0
 20
0.0
 30
0.0
210
0.0
220
0.0
230
1.0
  2
_USER
 70
     0
 71
     1
 91
        1
 92
        1
 93
       12
 72
     1
 10
-209.8773178137789
 20
-247.3473158117308
 11
-211.0701105159453
 21
-247.3473158117308
 72
     1
 10
-211.0701105159453
 20
-247.3473158117308
 11
-211.0701105159453
 21
-246.213043702887
 72
     1
 10
-211.0701105159453
 20
-246.213043702887
 11
-212.1197680938528
 21
-246.213043702887
 72
     1
 10
-212.1197680938528
 20
-246.213043702887
 11
-212.1197680938528
 21
-247.3473158117308
 72
     1
 10
-212.1197680938528
 20
-247.3473158117308
 11
-213.3125607960194
 21
-247.3473158117308
 72
     1
 10
-213.3125607960194
 20
-247.3473158117308
 11
-213.3125607960194
 21
-244.2935062879196
 72
     1
 10
-213.3125607960194
 20
-244.2935062879196
 11
-212.1197680938528
 21
-244.2935062879196
 72
     1
 10
-212.1197680938528
 20
-244.2935062879196
 11
-212.1197680938528
 21
-245.3623396212542
 72
     1
 10
-212.1197680938528
 20
-245.3623396212542
 11
-211.0701105159453
 21
-245.3623396212542
 72
     1
 10
-211.0701105159453
 20
-245.3623396212542
 11
-211.0701105159453
 21
-244.2935062879196
 72
     1
 10
-211.0701105159453
 20
-244.2935062879196
 11
-209.8773178137789
 21
-244.2935062879196
 72
     1
 10
-209.8773178137789
 20
-244.2935062879196
 11
-209.8773178137789
 21
-247.3473158117308
 97
       12
330
1A4
330
1A5
330
18F
330
18E
330
18D
330
1A1
330
18C
330
1A2
330
1A3
330
18B
330
18A
330
189
 75
     1
 76
     0
 52
45.0
 41
0.1
 77
     0
 78
     1
 53
45.0
 43
0.0
 44
0.0
 45
-0.0707106781186548
 46
0.0707106781186548
 79
     0
 98
        1
 10
0.0
 20
0.0
  0
HATCH
  5
239
330
74
100
AcDbEntity
  8
1
  6
Continuous
 62
     2
100
AcDbHatch
 10
0.0
 20
0.0
 30
0.0
210
0.0
220
0.0
230
1.0
  2
_USER
 70
     0
 71
     1
 91
        1
 92
        1
 93
       10
 72
     1
 10
-207.6350184645906
 20
-248.9614722742991
 11
-208.8755228748435
 21
-247.652696764094
 72
     1
 10
-208.8755228748435
 20
-247.652696764094
 11
-210.0683155770111
 21
-247.652696764094
 72
     1
 10
-210.0683155770111
 20
-247.652696764094
 11
-210.0683155770111
 21
-250.7065062879051
 72
     1
 10
-210.0683155770111
 20
-250.7065062879051
 11
-208.8755228748435
 21
-250.7065062879051
 72
     1
 10
-208.8755228748435
 20
-250.7065062879051
 11
-208.8755228748435
 21
-249.3977307777005
 72
     1
 10
-208.8755228748435
 20
-249.3977307777005
 11
-207.6350184645906
 21
-250.7065062879051
 72
     1
 10
-207.6350184645906
 20
-250.7065062879051
 11
-206.4422257624242
 21
-250.7065062879051
 72
     1
 10
-206.4422257624242
 20
-250.7065062879051
 11
-206.4422257624242
 21
-247.652696764094
 72
     1
 10
-206.4422257624242
 20
-247.652696764094
 11
-207.6350184645906
 21
-247.652696764094
 72
     1
 10
-207.6350184645906
 20
-247.652696764094
 11
-207.6350184645906
 21
-248.9614722742991
 97
       10
330
1B2
330
182
330
181
330
184
330
1AD
330
1AE
330
183
330
1AF
330
1B0
330
1B1
 75
     1
 76
     0
 52
45.0
 41
0.1
 77
     0
 78
     1
 53
45.0
 43
0.0
 44
0.0
 45
-0.0707106781186548
 46
0.0707106781186548
 79
     0
 98
        1
 10
0.0
 20
0.0
  0
HATCH
  5
23A
330
74
100
AcDbEntity
  8
1
  6
Continuous
 62
     2
100
AcDbHatch
 10
0.0
 20
0.0
 30
0.0
210
0.0
220
0.0
230
1.0
  2
_USER
 70
     0
 71
     1
 91
        1
 92
        1
 93
       10
 72
     1
 10
-207.6350184645906
 20
-248.9614722742991
 11
-208.8755228748435
 21
-247.652696764094
 72
     1
 10
-208.8755228748435
 20
-247.652696764094
 11
-210.0683155770111
 21
-247.652696764094
 72
     1
 10
-210.0683155770111
 20
-247.652696764094
 11
-210.0683155770111
 21
-250.7065062879051
 72
     1
 10
-210.0683155770111
 20
-250.7065062879051
 11
-208.8755228748435
 21
-250.7065062879051
 72
     1
 10
-208.8755228748435
 20
-250.7065062879051
 11
-208.8755228748435
 21
-249.3977307777005
 72
     1
 10
-208.8755228748435
 20
-249.3977307777005
 11
-207.6350184645906
 21
-250.7065062879051
 72
     1
 10
-207.6350184645906
 20
-250.7065062879051
 11
-206.4422257624242
 21
-250.7065062879051
 72
     1
 10
-206.4422257624242
 20
-250.7065062879051
 11
-206.4422257624242
 21
-247.652696764094
 72
     1
 10
-206.4422257624242
 20
-247.652696764094
 11
-207.6350184645906
 21
-247.652696764094
 72
     1
 10
-207.6350184645906
 20
-247.652696764094
 11
-207.6350184645906
 21
-248.9614722742991
 97
       10
330
1B2
330
182
330
181
330
184
330
1AD
330
1AE
330
183
330
1AF
330
1B0
330
1B1
 75
     1
 76
     0
 52
45.0
 41
0.1
 77
     0
 78
     1
 53
45.0
 43
0.0
 44
0.0
 45
-0.0707106781186548
 46
0.0707106781186548
 79
     0
 98
        1
 10
0.0
 20
0.0
  0
HATCH
  5
23B
330
74
100
AcDbEntity
  8
1
  6
Continuous
 62
     2
100
AcDbHatch
 10
0.0
 20
0.0
 30
0.0
210
0.0
220
0.0
230
1.0
  2
_USER
 70
     0
 71
     1
 91
        1
 92
        1
 93
       10
 72
     1
 10
-202.3865796441709
 20
-245.6022817981248
 11
-203.6270840544249
 21
-244.2935062879196
 72
     1
 10
-203.6270840544249
 20
-244.2935062879196
 11
-204.8198767565914
 21
-244.2935062879196
 72
     1
 10
-204.8198767565914
 20
-244.2935062879196
 11
-204.8198767565914
 21
-247.3473158117308
 72
     1
 10
-204.8198767565914
 20
-247.3473158117308
 11
-203.6270840544249
 21
-247.3473158117308
 72
     1
 10
-203.6270840544249
 20
-247.3473158117308
 11
-203.6270840544249
 21
-246.0385403015261
 72
     1
 10
-203.6270840544249
 20
-246.0385403015261
 11
-202.3865796441709
 21
-247.3473158117308
 72
     1
 10
-202.3865796441709
 20
-247.3473158117308
 11
-201.1937869420043
 21
-247.3473158117308
 72
     1
 10
-201.1937869420043
 20
-247.3473158117308
 11
-201.1937869420043
 21
-244.2935062879196
 72
     1
 10
-201.1937869420043
 20
-244.2935062879196
 11
-202.3865796441709
 21
-244.2935062879196
 72
     1
 10
-202.3865796441709
 20
-244.2935062879196
 11
-202.3865796441709
 21
-245.6022817981248
 97
       10
330
1B7
330
17F
330
17E
330
1B8
330
17D
330
1B3
330
1B4
330
1B5
330
1B6
330
180
 75
     1
 76
     0
 52
45.0
 41
0.1
 77
     0
 78
     1
 53
45.0
 43
0.0
 44
0.0
 45
-0.0707106781186548
 46
0.0707106781186548
 79
     0
 98
        1
 10
0.0
 20
0.0
  0
HATCH
  5
23C
330
74
100
AcDbEntity
  8
1
  6
Continuous
 62
     2
100
AcDbHatch
 10
0.0
 20
0.0
 30
0.0
210
0.0
220
0.0
230
1.0
  2
_USER
 70
     0
 71
     1
 91
        1
 92
        1
 93
       10
 72
     1
 10
-202.3865796441709
 20
-245.6022817981248
 11
-203.6270840544249
 21
-244.2935062879196
 72
     1
 10
-203.6270840544249
 20
-244.2935062879196
 11
-204.8198767565914
 21
-244.2935062879196
 72
     1
 10
-204.8198767565914
 20
-244.2935062879196
 11
-204.8198767565914
 21
-247.3473158117308
 72
     1
 10
-204.8198767565914
 20
-247.3473158117308
 11
-203.6270840544249
 21
-247.3473158117308
 72
     1
 10
-203.6270840544249
 20
-247.3473158117308
 11
-203.6270840544249
 21
-246.0385403015261
 72
     1
 10
-203.6270840544249
 20
-246.0385403015261
 11
-202.3865796441709
 21
-247.3473158117308
 72
     1
 10
-202.3865796441709
 20
-247.3473158117308
 11
-201.1937869420043
 21
-247.3473158117308
 72
     1
 10
-201.1937869420043
 20
-247.3473158117308
 11
-201.1937869420043
 21
-244.2935062879196
 72
     1
 10
-201.1937869420043
 20
-244.2935062879196
 11
-202.3865796441709
 21
-244.2935062879196
 72
     1
 10
-202.3865796441709
 20
-244.2935062879196
 11
-202.3865796441709
 21
-245.6022817981248
 97
       10
330
1B7
330
17F
330
17E
330
1B8
330
17D
330
1B3
330
1B4
330
1B5
330
1B6
330
180
 75
     1
 76
     0
 52
45.0
 41
0.1
 77
     0
 78
     1
 53
45.0
 43
0.0
 44
0.0
 45
-0.0707106781186548
 46
0.0707106781186548
 79
     0
 98
        1
 10
0.0
 20
0.0
  0
HATCH
  5
23D
330
74
100
AcDbEntity
  8
1
  6
Continuous
 62
     2
100
AcDbHatch
 10
0.0
 20
0.0
 30
0.0
210
0.0
220
0.0
230
1.0
  2
_USER
 70
     0
 71
     1
 91
        1
 92
        1
 93
        8
 72
     1
 10
-203.4840998610504
 20
-247.652696764094
 11
-206.299090638164
 21
-247.652696764094
 72
     1
 10
-206.299090638164
 20
-247.652696764094
 11
-206.299090638164
 21
-248.4379620702176
 72
     1
 10
-206.299090638164
 20
-248.4379620702176
 11
-205.4879916006894
 21
-248.4379620702176
 72
     1
 10
-205.4879916006894
 20
-248.4379620702176
 11
-205.4879916006894
 21
-250.7065062879051
 72
     1
 10
-205.4879916006894
 20
-250.7065062879051
 11
-204.2951988985229
 21
-250.7065062879051
 72
     1
 10
-204.2951988985229
 20
-250.7065062879051
 11
-204.2951988985229
 21
-248.4379620702176
 72
     1
 10
-204.2951988985229
 20
-248.4379620702176
 11
-203.4840998610504
 21
-248.4379620702176
 72
     1
 10
-203.4840998610504
 20
-248.4379620702176
 11
-203.4840998610504
 21
-247.652696764094
 97
        8
330
179
330
1B9
330
178
330
1BA
330
1BB
330
17C
330
17B
330
17A
 75
     1
 76
     0
 52
45.0
 41
0.1
 77
     0
 78
     1
 53
45.0
 43
0.0
 44
0.0
 45
-0.0707106781186548
 46
0.0707106781186548
 79
     0
 98
        1
 10
0.0
 20
0.0
  0
HATCH
  5
23E
330
74
100
AcDbEntity
  8
1
  6
Continuous
 62
     2
100
AcDbHatch
 10
0.0
 20
0.0
 30
0.0
210
0.0
220
0.0
230
1.0
  2
_USER
 70
     0
 71
     1
 91
        1
 92
        1
 93
        8
 72
     1
 10
-203.4840998610504
 20
-247.652696764094
 11
-206.299090638164
 21
-247.652696764094
 72
     1
 10
-206.299090638164
 20
-247.652696764094
 11
-206.299090638164
 21
-248.4379620702176
 72
     1
 10
-206.299090638164
 20
-248.4379620702176
 11
-205.4879916006894
 21
-248.4379620702176
 72
     1
 10
-205.4879916006894
 20
-248.4379620702176
 11
-205.4879916006894
 21
-250.7065062879051
 72
     1
 10
-205.4879916006894
 20
-250.7065062879051
 11
-204.2951988985229
 21
-250.7065062879051
 72
     1
 10
-204.2951988985229
 20
-250.7065062879051
 11
-204.2951988985229
 21
-248.4379620702176
 72
     1
 10
-204.2951988985229
 20
-248.4379620702176
 11
-203.4840998610504
 21
-248.4379620702176
 72
     1
 10
-203.4840998610504
 20
-248.4379620702176
 11
-203.4840998610504
 21
-247.652696764094
 97
        8
330
179
330
1B9
330
178
330
1BA
330
1BB
330
17C
330
17B
330
17A
 75
     1
 76
     0
 52
45.0
 41
0.1
 77
     0
 78
     1
 53
45.0
 43
0.0
 44
0.0
 45
-0.0707106781186548
 46
0.0707106781186548
 79
     0
 98
        1
 10
0.0
 20
0.0
  0
HATCH
  5
23F
330
74
100
AcDbEntity
  8
1
  6
Continuous
 62
     2
100
AcDbHatch
 10
0.0
 20
0.0
 30
0.0
210
0.0
220
0.0
230
1.0
  2
_USER
 70
     0
 71
     1
 91
        2
 92
        1
 93
        8
 72
     1
 10
-201.3456724051034
 20
-250.7065062879051
 11
-201.5571524585792
 21
-250.1655457436872
 72
     1
 10
-201.5571524585792
 20
-250.1655457436872
 11
-202.689594035253
 21
-250.1655457436872
 72
     1
 10
-202.689594035253
 20
-250.1655457436872
 11
-202.9010740887288
 21
-250.7065062879051
 72
     1
 10
-202.9010740887288
 20
-250.7065062879051
 11
-204.1415784989818
 21
-250.7065062879051
 72
     1
 10
-204.1415784989818
 20
-250.7065062879051
 11
-202.7436254520425
 21
-247.652696764094
 72
     1
 10
-202.7436254520425
 20
-247.652696764094
 11
-201.5031210417898
 21
-247.652696764094
 72
     1
 10
-201.5031210417898
 20
-247.652696764094
 11
-200.1051679948495
 21
-250.7065062879051
 72
     1
 10
-200.1051679948495
 20
-250.7065062879051
 11
-201.3456724051034
 21
-250.7065062879051
 97
        8
330
1BD
330
1BE
330
175
330
1BF
330
174
330
177
330
1BC
330
176
 92
       16
 93
        3
 72
     1
 10
-202.423538484108
 20
-249.4849824783806
 11
-202.1233732469156
 21
-248.7171675123939
 72
     1
 10
-202.1233732469156
 20
-248.7171675123939
 11
-201.8232080097255
 21
-249.4849824783806
 72
     1
 10
-201.8232080097255
 20
-249.4849824783806
 11
-202.423538484108
 21
-249.4849824783806
 97
        3
330
173
330
1C1
330
1C0
 75
     1
 76
     0
 52
45.0
 41
0.1
 77
     0
 78
     1
 53
45.0
 43
0.0
 44
0.0
 45
-0.0707106781186548
 46
0.0707106781186548
 79
     0
 98
        1
 10
0.0
 20
0.0
  0
HATCH
  5
240
330
74
100
AcDbEntity
  8
1
  6
Continuous
 62
     2
100
AcDbHatch
 10
0.0
 20
0.0
 30
0.0
210
0.0
220
0.0
230
1.0
  2
_USER
 70
     0
 71
     1
 91
        2
 92
        1
 93
        8
 72
     1
 10
-201.3456724051034
 20
-250.7065062879051
 11
-201.5571524585792
 21
-250.1655457436872
 72
     1
 10
-201.5571524585792
 20
-250.1655457436872
 11
-202.689594035253
 21
-250.1655457436872
 72
     1
 10
-202.689594035253
 20
-250.1655457436872
 11
-202.9010740887288
 21
-250.7065062879051
 72
     1
 10
-202.9010740887288
 20
-250.7065062879051
 11
-204.1415784989818
 21
-250.7065062879051
 72
     1
 10
-204.1415784989818
 20
-250.7065062879051
 11
-202.7436254520425
 21
-247.652696764094
 72
     1
 10
-202.7436254520425
 20
-247.652696764094
 11
-201.5031210417898
 21
-247.652696764094
 72
     1
 10
-201.5031210417898
 20
-247.652696764094
 11
-200.1051679948495
 21
-250.7065062879051
 72
     1
 10
-200.1051679948495
 20
-250.7065062879051
 11
-201.3456724051034
 21
-250.7065062879051
 97
        8
330
1BD
330
1BE
330
175
330
1BF
330
174
330
177
330
1BC
330
176
 92
       16
 93
        3
 72
     1
 10
-202.423538484108
 20
-249.4849824783806
 11
-202.1233732469156
 21
-248.7171675123939
 72
     1
 10
-202.1233732469156
 20
-248.7171675123939
 11
-201.8232080097255
 21
-249.4849824783806
 72
     1
 10
-201.8232080097255
 20
-249.4849824783806
 11
-202.423538484108
 21
-249.4849824783806
 97
        3
330
173
330
1C1
330
1C0
 75
     1
 76
     0
 52
45.0
 41
0.1
 77
     0
 78
     1
 53
45.0
 43
0.0
 44
0.0
 45
-0.0707106781186548
 46
0.0707106781186548
 79
     0
 98
        1
 10
0.0
 20
0.0
  0
HATCH
  5
241
330
74
100
AcDbEntity
  8
1
  6
Continuous
 62
     2
100
AcDbHatch
 10
0.0
 20
0.0
 30
0.0
210
0.0
220
0.0
230
1.0
  2
_USER
 70
     0
 71
     1
 91
        1
 92
        1
 93
        4
 72
     1
 10
-199.7147239913175
 20
-247.3473158117308
 11
-200.9552284015704
 21
-247.3473158117308
 72
     1
 10
-200.9552284015704
 20
-247.3473158117308
 11
-200.9552284015704
 21
-244.2935062879196
 72
     1
 10
-200.9552284015704
 20
-244.2935062879196
 11
-199.7147239913175
 21
-244.2935062879196
 72
     1
 10
-199.7147239913175
 20
-244.2935062879196
 11
-199.7147239913175
 21
-247.3473158117308
 97
        4
330
170
330
172
330
1C2
330
171
 75
     1
 76
     0
 52
45.0
 41
0.1
 77
     0
 78
     1
 53
45.0
 43
0.0
 44
0.0
 45
-0.0707106781186548
 46
0.0707106781186548
 79
     0
 98
        1
 10
0.0
 20
0.0
  0
HATCH
  5
242
330
74
100
AcDbEntity
  8
1
  6
Continuous
 62
     2
100
AcDbHatch
 10
0.0
 20
0.0
 30
0.0
210
0.0
220
0.0
230
1.0
  2
_USER
 70
     0
 71
     1
 91
        1
 92
        1
 93
        4
 72
     1
 10
-199.7147239913175
 20
-247.3473158117308
 11
-200.9552284015704
 21
-247.3473158117308
 72
     1
 10
-200.9552284015704
 20
-247.3473158117308
 11
-200.9552284015704
 21
-244.2935062879196
 72
     1
 10
-200.9552284015704
 20
-244.2935062879196
 11
-199.7147239913175
 21
-244.2935062879196
 72
     1
 10
-199.7147239913175
 20
-244.2935062879196
 11
-199.7147239913175
 21
-247.3473158117308
 97
        4
330
170
330
172
330
1C2
330
171
 75
     1
 76
     0
 52
45.0
 41
0.1
 77
     0
 78
     1
 53
45.0
 43
0.0
 44
0.0
 45
-0.0707106781186548
 46
0.0707106781186548
 79
     0
 98
        1
 10
0.0
 20
0.0
  0
HATCH
  5
243
330
74
100
AcDbEntity
  8
1
  6
Continuous
 62
     2
100
AcDbHatch
 10
0.0
 20
0.0
 30
0.0
210
0.0
220
0.0
230
1.0
  2
_USER
 70
     0
 71
     1
 91
        1
 92
        1
 93
       12
 72
     1
 10
-195.4922378256467
 20
-244.2935062879196
 11
-196.7947674564132
 21
-245.7664568179558
 72
     1
 10
-196.7947674564132
 20
-245.7664568179558
 11
-195.3968144094729
 21
-247.3473158117308
 72
     1
 10
-195.3968144094729
 20
-247.3473158117308
 11
-196.7995386272212
 21
-247.3473158117308
 72
     1
 10
-196.7995386272212
 20
-247.3473158117308
 11
-197.4961295652867
 21
-246.5595840264371
 72
     1
 10
-197.4961295652867
 20
-246.5595840264371
 11
-198.1927205033524
 21
-247.3473158117308
 72
     1
 10
-198.1927205033524
 20
-247.3473158117308
 11
-199.5954447211006
 21
-247.3473158117308
 72
     1
 10
-199.5954447211006
 20
-247.3473158117308
 11
-198.1974916741603
 21
-245.7664568179558
 72
     1
 10
-198.1974916741603
 20
-245.7664568179558
 11
-199.5000213049278
 21
-244.2935062879196
 72
     1
 10
-199.5000213049278
 20
-244.2935062879196
 11
-198.0972970871785
 21
-244.2935062879196
 72
     1
 10
-198.0972970871785
 20
-244.2935062879196
 11
-197.4961295652867
 21
-244.9733296094751
 72
     1
 10
-197.4961295652867
 20
-244.9733296094751
 11
-196.8949620433939
 21
-244.2935062879196
 72
     1
 10
-196.8949620433939
 20
-244.2935062879196
 11
-195.4922378256467
 21
-244.2935062879196
 97
       12
330
16B
330
16A
330
169
330
1C6
330
1C7
330
1C3
330
1C4
330
16F
330
16E
330
16D
330
16C
330
1C5
 75
     1
 76
     0
 52
45.0
 41
0.1
 77
     0
 78
     1
 53
45.0
 43
0.0
 44
0.0
 45
-0.0707106781186548
 46
0.0707106781186548
 79
     0
 98
        1
 10
0.0
 20
0.0
  0
HATCH
  5
244
330
74
100
AcDbEntity
  8
1
  6
Continuous
 62
     2
100
AcDbHatch
 10
0.0
 20
0.0
 30
0.0
210
0.0
220
0.0
230
1.0
  2
_USER
 70
     0
 71
     1
 91
        1
 92
        1
 93
       12
 72
     1
 10
-195.4922378256467
 20
-244.2935062879196
 11
-196.7947674564132
 21
-245.7664568179558
 72
     1
 10
-196.7947674564132
 20
-245.7664568179558
 11
-195.3968144094729
 21
-247.3473158117308
 72
     1
 10
-195.3968144094729
 20
-247.3473158117308
 11
-196.7995386272212
 21
-247.3473158117308
 72
     1
 10
-196.7995386272212
 20
-247.3473158117308
 11
-197.4961295652867
 21
-246.5595840264371
 72
     1
 10
-197.4961295652867
 20
-246.5595840264371
 11
-198.1927205033524
 21
-247.3473158117308
 72
     1
 10
-198.1927205033524
 20
-247.3473158117308
 11
-199.5954447211006
 21
-247.3473158117308
 72
     1
 10
-199.5954447211006
 20
-247.3473158117308
 11
-198.1974916741603
 21
-245.7664568179558
 72
     1
 10
-198.1974916741603
 20
-245.7664568179558
 11
-199.5000213049278
 21
-244.2935062879196
 72
     1
 10
-199.5000213049278
 20
-244.2935062879196
 11
-198.0972970871785
 21
-244.2935062879196
 72
     1
 10
-198.0972970871785
 20
-244.2935062879196
 11
-197.4961295652867
 21
-244.9733296094751
 72
     1
 10
-197.4961295652867
 20
-244.9733296094751
 11
-196.8949620433939
 21
-244.2935062879196
 72
     1
 10
-196.8949620433939
 20
-244.2935062879196
 11
-195.4922378256467
 21
-244.2935062879196
 97
       12
330
16B
330
16A
330
169
330
1C6
330
1C7
330
1C3
330
1C4
330
16F
330
16E
330
16D
330
16C
330
1C5
 75
     1
 76
     0
 52
45.0
 41
0.1
 77
     0
 78
     1
 53
45.0
 43
0.0
 44
0.0
 45
-0.0707106781186548
 46
0.0707106781186548
 79
     0
 98
        1
 10
0.0
 20
0.0
  0
HATCH
  5
245
330
74
100
AcDbEntity
  8
1
  6
Continuous
 62
     2
100
AcDbHatch
 10
0.0
 20
0.0
 30
0.0
210
0.0
220
0.0
230
1.0
  2
_USER
 70
     0
 71
     1
 91
        2
 92
        1
 93
        6
 72
     1
 10
-214.5099732397927
 20
-246.404237570587
 11
-215.268740827573
 21
-246.404237570587
 72
     1
 10
-215.268740827573
 20
-246.404237570587
 11
-215.268740827573
 21
-247.3473158117308
 72
     1
 10
-215.268740827573
 20
-247.3473158117308
 11
-216.5092452378271
 21
-247.3473158117308
 72
     1
 10
-216.5092452378271
 20
-247.3473158117308
 11
-216.5092452378271
 21
-244.2935062879196
 72
     1
 10
-216.5092452378271
 20
-244.2935062879196
 11
-214.5099732397927
 21
-244.2935062879196
 72
     2
 10
-214.5099732397927
 20
-245.3488719292533
 40
1.05536564133368
 50
270.0
 51
450.0
 73
     0
 97
        6
330
193
330
192
330
19F
330
19E
330
194
330
1E4
 92
       16
 93
        4
 72
     2
 10
-214.9514457660311
 20
-245.3094759580308
 40
0.3528638246711182
 50
270.0
 51
450.0
 73
     1
 72
     1
 10
-214.9514457660311
 20
-244.9566121333597
 11
-215.268740827573
 21
-244.9566121333597
 72
     1
 10
-215.268740827573
 20
-244.9566121333597
 11
-215.268740827573
 21
-245.6623397827019
 72
     1
 10
-215.268740827573
 20
-245.6623397827019
 11
-214.9514457660311
 21
-245.6623397827019
 97
        4
330
1F8
330
190
330
1A0
330
191
 75
     1
 76
     0
 52
45.0
 41
0.1
 77
     0
 78
     1
 53
45.0
 43
0.0
 44
0.0
 45
-0.0707106781186548
 46
0.0707106781186548
 79
     0
 98
        1
 10
0.0
 20
0.0
  0
HATCH
  5
246
330
74
100
AcDbEntity
  8
1
  6
Continuous
 62
     2
100
AcDbHatch
 10
0.0
 20
0.0
 30
0.0
210
0.0
220
0.0
230
1.0
  2
_USER
 70
     0
 71
     1
 91
        2
 92
        1
 93
        6
 72
     1
 10
-214.5099732397927
 20
-246.404237570587
 11
-215.268740827573
 21
-246.404237570587
 72
     1
 10
-215.268740827573
 20
-246.404237570587
 11
-215.268740827573
 21
-247.3473158117308
 72
     1
 10
-215.268740827573
 20
-247.3473158117308
 11
-216.5092452378271
 21
-247.3473158117308
 72
     1
 10
-216.5092452378271
 20
-247.3473158117308
 11
-216.5092452378271
 21
-244.2935062879196
 72
     1
 10
-216.5092452378271
 20
-244.2935062879196
 11
-214.5099732397927
 21
-244.2935062879196
 72
     2
 10
-214.5099732397927
 20
-245.3488719292533
 40
1.05536564133368
 50
270.0
 51
450.0
 73
     0
 97
        6
330
193
330
192
330
19F
330
19E
330
194
330
1E4
 92
       16
 93
        4
 72
     2
 10
-214.9514457660311
 20
-245.3094759580308
 40
0.3528638246711182
 50
270.0
 51
450.0
 73
     1
 72
     1
 10
-214.9514457660311
 20
-244.9566121333597
 11
-215.268740827573
 21
-244.9566121333597
 72
     1
 10
-215.268740827573
 20
-244.9566121333597
 11
-215.268740827573
 21
-245.6623397827019
 72
     1
 10
-215.268740827573
 20
-245.6623397827019
 11
-214.9514457660311
 21
-245.6623397827019
 97
        4
330
1F8
330
190
330
1A0
330
191
 75
     1
 76
     0
 52
45.0
 41
0.1
 77
     0
 78
     1
 53
45.0
 43
0.0
 44
0.0
 45
-0.0707106781186548
 46
0.0707106781186548
 79
     0
 98
        1
 10
0.0
 20
0.0
  0
HATCH
  5
247
330
74
100
AcDbEntity
  8
1
  6
Continuous
 62
     2
100
AcDbHatch
 10
0.0
 20
0.0
 30
0.0
210
0.0
220
0.0
230
1.0
  2
_USER
 70
     0
 71
     1
 91
        2
 92
        1
 93
        4
 72
     2
 10
-211.9534304914336
 20
-249.7181765363026
 40
2.065479772208568
 50
62.45185182430637
 51
117.5481481756664
 73
     1
 72
     2
 10
-212.2343703832669
 20
-249.1796015259998
 40
1.45803408365149
 50
117.5481481756624
 51
242.4518518243375
 73
     1
 72
     2
 10
-211.9534304914336
 20
-248.6410265156965
 40
2.065479772208509
 50
242.4518518243402
 51
297.5481481756871
 73
     1
 72
     2
 10
-211.6724905996003
 20
-249.1796015259998
 40
1.458034083652003
 50
297.548148175701
 51
422.451851824299
 73
     1
 97
        4
330
1F0
330
1EF
330
1F1
330
1EE
 92
       16
 93
        4
 72
     2
 10
-212.15317052778
 20
-249.1796015259998
 40
0.77179977867969
 50
321.8795802028388
 51
398.1204197971546
 73
     1
 72
     2
 10
-211.9534304914336
 20
-249.0228703478793
 40
0.5179085730132998
 50
38.12041979714704
 51
141.8795802028588
 73
     1
 72
     2
 10
-211.7536904550875
 20
-249.1796015259998
 40
0.7717997786794633
 50
141.8795802028363
 51
218.1204197971703
 73
     1
 72
     2
 10
-211.9534304914336
 20
-249.3363327041198
 40
0.5179085730137529
 50
218.1204197971956
 51
321.8795802027985
 73
     1
 97
        4
330
20C
330
209
330
20A
330
20B
 75
     1
 76
     0
 52
45.0
 41
0.1
 77
     0
 78
     1
 53
45.0
 43
0.0
 44
0.0
 45
-0.0707106781186548
 46
0.0707106781186548
 79
     0
 98
        1
 10
0.0
 20
0.0
  0
HATCH
  5
248
330
74
100
AcDbEntity
  8
1
  6
Continuous
 62
     2
100
AcDbHatch
 10
0.0
 20
0.0
 30
0.0
210
0.0
220
0.0
230
1.0
  2
_USER
 70
     0
 71
     1
 91
        2
 92
        1
 93
        4
 72
     2
 10
-211.9534304914336
 20
-249.7181765363026
 40
2.065479772208568
 50
62.45185182430637
 51
117.5481481756664
 73
     1
 72
     2
 10
-212.2343703832669
 20
-249.1796015259998
 40
1.45803408365149
 50
117.5481481756624
 51
242.4518518243375
 73
     1
 72
     2
 10
-211.9534304914336
 20
-248.6410265156965
 40
2.065479772208509
 50
242.4518518243402
 51
297.5481481756871
 73
     1
 72
     2
 10
-211.6724905996003
 20
-249.1796015259998
 40
1.458034083652003
 50
297.548148175701
 51
422.451851824299
 73
     1
 97
        4
330
1F0
330
1EF
330
1F1
330
1EE
 92
       16
 93
        4
 72
     2
 10
-212.15317052778
 20
-249.1796015259998
 40
0.77179977867969
 50
321.8795802028388
 51
398.1204197971546
 73
     1
 72
     2
 10
-211.9534304914336
 20
-249.0228703478793
 40
0.5179085730132998
 50
38.12041979714704
 51
141.8795802028588
 73
     1
 72
     2
 10
-211.7536904550875
 20
-249.1796015259998
 40
0.7717997786794633
 50
141.8795802028363
 51
218.1204197971703
 73
     1
 72
     2
 10
-211.9534304914336
 20
-249.3363327041198
 40
0.5179085730137529
 50
218.1204197971956
 51
321.8795802027985
 73
     1
 97
        4
330
20C
330
209
330
20A
330
20B
 75
     1
 76
     0
 52
45.0
 41
0.1
 77
     0
 78
     1
 53
45.0
 43
0.0
 44
0.0
 45
-0.0707106781186548
 46
0.0707106781186548
 79
     0
 98
        1
 10
0.0
 20
0.0
  0
HATCH
  5
249
330
74
100
AcDbEntity
  8
1
  6
Continuous
 62
     2
100
AcDbHatch
 10
0.0
 20
0.0
 30
0.0
210
0.0
220
0.0
230
1.0
  2
_USER
 70
     0
 71
     1
 91
        2
 92
        1
 93
       12
 72
     1
 10
-205.0584352970243
 20
-244.9915198933626
 11
-206.394363123452
 21
-244.9915198933626
 72
     1
 10
-206.394363123452
 20
-244.9915198933626
 11
-206.394363123452
 21
-245.4714042471043
 72
     1
 10
-206.394363123452
 20
-245.4714042471043
 11
-205.0584352970243
 21
-245.4714042471043
 72
     1
 10
-205.0584352970243
 20
-245.4714042471043
 11
-205.0584352970243
 21
-246.1694178525466
 72
     1
 10
-205.0584352970243
 20
-246.1694178525466
 11
-206.394363123452
 21
-246.1694178525466
 72
     1
 10
-206.394363123452
 20
-246.1694178525466
 11
-206.394363123452
 21
-246.6493022062883
 72
     1
 10
-206.394363123452
 20
-246.6493022062883
 11
-205.0584352970243
 21
-246.6493022062883
 72
     1
 10
-205.0584352970243
 20
-246.6493022062883
 11
-205.0584352970243
 21
-247.3473158117308
 72
     1
 10
-205.0584352970243
 20
-247.3473158117308
 11
-208.2087550208053
 21
-247.3473158117308
 72
     2
 10
-208.2087550208053
 20
-245.8204110498255
 40
1.526904761905911
 50
90.0
 51
270.0
 73
     0
 72
     1
 10
-208.2087550208053
 20
-244.2935062879196
 11
-205.0584352970243
 21
-244.2935062879196
 72
     1
 10
-205.0584352970243
 20
-244.2935062879196
 11
-205.0584352970243
 21
-244.9915198933626
 97
       12
330
1A7
330
1F9
330
1A8
330
1A9
330
1AA
330
1AB
330
188
330
187
330
186
330
185
330
1AC
330
1A6
 92
       16
 93
        4
 72
     2
 10
-207.9924830106401
 20
-245.663679871705
 40
0.5179085730135041
 50
38.12041979714528
 51
141.8795802028508
 73
     1
 72
     2
 10
-207.7927429742938
 20
-245.8204110498255
 40
0.7717997786797123
 50
141.8795802028401
 51
218.1204197971533
 73
     1
 72
     2
 10
-207.9924830106401
 20
-245.9771422279459
 40
0.5179085730134595
 50
218.1204197971492
 51
321.8795802028547
 73
     1
 72
     2
 10
-208.1922230469863
 20
-245.8204110498255
 40
0.7717997786796198
 50
321.8795802028454
 51
398.1204197971612
 73
     1
 97
        4
330
1F3
330
1F2
330
1ED
330
1EC
 75
     1
 76
     0
 52
45.0
 41
0.1
 77
     0
 78
     1
 53
45.0
 43
0.0
 44
0.0
 45
-0.0707106781186548
 46
0.0707106781186548
 79
     0
 98
        1
 10
0.0
 20
0.0
  0
HATCH
  5
24A
330
74
100
AcDbEntity
  8
1
  6
Continuous
 62
     2
100
AcDbHatch
 10
0.0
 20
0.0
 30
0.0
210
0.0
220
0.0
230
1.0
  2
_USER
 70
     0
 71
     1
 91
        2
 92
        1
 93
       12
 72
     1
 10
-205.0584352970243
 20
-244.9915198933626
 11
-206.394363123452
 21
-244.9915198933626
 72
     1
 10
-206.394363123452
 20
-244.9915198933626
 11
-206.394363123452
 21
-245.4714042471043
 72
     1
 10
-206.394363123452
 20
-245.4714042471043
 11
-205.0584352970243
 21
-245.4714042471043
 72
     1
 10
-205.0584352970243
 20
-245.4714042471043
 11
-205.0584352970243
 21
-246.1694178525466
 72
     1
 10
-205.0584352970243
 20
-246.1694178525466
 11
-206.394363123452
 21
-246.1694178525466
 72
     1
 10
-206.394363123452
 20
-246.1694178525466
 11
-206.394363123452
 21
-246.6493022062883
 72
     1
 10
-206.394363123452
 20
-246.6493022062883
 11
-205.0584352970243
 21
-246.6493022062883
 72
     1
 10
-205.0584352970243
 20
-246.6493022062883
 11
-205.0584352970243
 21
-247.3473158117308
 72
     1
 10
-205.0584352970243
 20
-247.3473158117308
 11
-208.2087550208053
 21
-247.3473158117308
 72
     2
 10
-208.2087550208053
 20
-245.8204110498255
 40
1.526904761905911
 50
90.0
 51
270.0
 73
     0
 72
     1
 10
-208.2087550208053
 20
-244.2935062879196
 11
-205.0584352970243
 21
-244.2935062879196
 72
     1
 10
-205.0584352970243
 20
-244.2935062879196
 11
-205.0584352970243
 21
-244.9915198933626
 97
       12
330
1A7
330
1F9
330
1A8
330
1A9
330
1AA
330
1AB
330
188
330
187
330
186
330
185
330
1AC
330
1A6
 92
       16
 93
        4
 72
     2
 10
-207.9924830106401
 20
-245.663679871705
 40
0.5179085730135041
 50
38.12041979714528
 51
141.8795802028508
 73
     1
 72
     2
 10
-207.7927429742938
 20
-245.8204110498255
 40
0.7717997786797123
 50
141.8795802028401
 51
218.1204197971533
 73
     1
 72
     2
 10
-207.9924830106401
 20
-245.9771422279459
 40
0.5179085730134595
 50
218.1204197971492
 51
321.8795802028547
 73
     1
 72
     2
 10
-208.1922230469863
 20
-245.8204110498255
 40
0.7717997786796198
 50
321.8795802028454
 51
398.1204197971612
 73
     1
 97
        4
330
1F3
330
1F2
330
1ED
330
1EC
 75
     1
 76
     0
 52
45.0
 41
0.1
 77
     0
 78
     1
 53
45.0
 43
0.0
 44
0.0
 45
-0.0707106781186548
 46
0.0707106781186548
 79
     0
 98
        1
 10
0.0
 20
0.0
  0
HATCH
  5
24B
330
74
100
AcDbEntity
  8
1
  6
Continuous
 62
     2
100
AcDbHatch
 10
0.0
 20
0.0
 30
0.0
210
0.0
220
0.0
230
1.0
  2
_USER
 70
     0
 71
     1
 91
        4
 92
        1
 93
        8
 72
     1
 10
-216.9863623186939
 20
-244.7177509033216
 11
-216.9863623186939
 21
-250.2822616725218
 72
     2
 10
-217.4106069340778
 20
-250.2822616725218
 40
0.4242446153833157
 50
0.0
 51
90.0
 73
     0
 72
     1
 10
-217.4106069340778
 20
-250.7065062879051
 11
-222.8839190247946
 21
-250.7065062879051
 72
     2
 10
-222.8839190247946
 20
-250.2822616725218
 40
0.4242446153828041
 50
90.0
 51
180.0
 73
     0
 72
     1
 10
-223.3081636401774
 20
-250.2822616725218
 11
-223.3081636401774
 21
-244.7177509033216
 72
     2
 10
-222.8839190247946
 20
-244.7177509033216
 40
0.4242446153837989
 50
180.0
 51
270.0
 73
     0
 72
     1
 10
-222.8839190247946
 20
-244.2935062879378
 11
-217.4106069340778
 21
-244.2935062879378
 72
     2
 10
-217.4106069340778
 20
-244.7177509033216
 40
0.4242446153839126
 50
270.0
 51
360.0
 73
     0
 97
        8
330
19B
330
1E9
330
19C
330
1F4
330
199
330
1EB
330
19A
330
1EA
 92
       16
 93
        1
 72
     2
 10
-220.2643333742771
 20
-247.0366331316771
 40
0.4709789327785074
 50
0.0
 51
360.0
 73
     1
 97
        1
330
20F
 92
       16
 93
        8
 72
     2
 10
-219.7144756615164
 20
-248.1457747316455
 40
0.3157169230765193
 50
115.3740086783587
 51
180.0
 73
     1
 72
     1
 10
-220.0301925845932
 20
-248.1457747316455
 11
-220.0301925845932
 21
-248.7276261383406
 72
     2
 10
-219.7144756615164
 20
-248.7276261383406
 40
0.3157169230768204
 50
180.0
 51
269.811032957449
 73
     1
 72
     2
 10
-219.7088595262064
 20
-247.0247911907716
 40
2.018561131933266
 50
269.8110329575858
 51
450.1889670424142
 73
     1
 72
     2
 10
-219.7144756615164
 20
-245.3219562432025
 40
0.3157169230760427
 50
90.18896704255111
 51
180.0
 73
     1
 72
     1
 10
-220.0301925845932
 20
-245.3219562432025
 11
-220.0301925845932
 21
-245.9274915317093
 72
     2
 10
-219.7144756615164
 20
-245.9274915317093
 40
0.3157169230768204
 50
180.0
 51
244.6259913216412
 73
     1
 72
     2
 10
-220.2405183596043
 20
-247.0366331316771
 40
0.9118481501444847
 50
295.3740086781925
 51
424.6259913218244
 73
     0
 97
        8
330
201
330
162
330
1FE
330
1FF
330
1DD
330
161
330
200
330
1DC
 92
       16
 93
       12
 72
     2
 10
-222.2900243480481
 20
-249.6782338092715
 40
0.315716923075712
 50
180.0
 51
270.0
 73
     1
 72
     1
 10
-222.2900243480481
 20
-249.9939507323482
 11
-220.8141910870385
 21
-249.9939507323482
 72
     2
 10
-220.8141910870385
 20
-249.6782338092715
 40
0.3157169230767067
 50
270.0
 51
360.0
 73
     1
 72
     1
 10
-220.4984741639619
 20
-249.6782338092715
 11
-220.4984741639619
 21
-248.1474628777399
 72
     2
 10
-220.8141910870385
 20
-248.1474628777399
 40
0.315716923076593
 50
0.0
 51
64.80558935146249
 73
     1
 72
     2
 10
-220.2916066394635
 20
-247.0366331316771
 40
0.9118975235575889
 50
115.1944106485122
 51
244.805589351471
 73
     0
 72
     2
 10
-220.8141910870385
 20
-245.9258033856149
 40
0.315716923076146
 50
295.1944106485375
 51
360.0
 73
     1
 72
     1
 10
-220.4984741639619
 20
-245.9258033856149
 11
-220.4984741639619
 21
-245.3217787665544
 72
     2
 10
-220.8141910870385
 20
-245.3217787665544
 40
0.315716923076593
 50
0.0
 51
90.0
 73
     1
 72
     1
 10
-220.8141910870385
 20
-245.0060618434782
 11
-222.2900243480481
 21
-245.0060618434782
 72
     2
 10
-222.2900243480481
 20
-245.3217787665544
 40
0.3157169230761951
 50
90.0
 51
180.0
 73
     1
 72
     1
 10
-222.6057412711238
 20
-245.3217787665544
 11
-222.6057412711238
 21
-249.6782338092715
 97
       12
330
1E5
330
19D
330
1E8
330
198
330
1F5
330
1F6
330
1E7
330
197
330
1E6
330
196
330
1F7
330
195
 75
     1
 76
     0
 52
45.0
 41
0.1
 77
     0
 78
     1
 53
45.0
 43
0.0
 44
0.0
 45
-0.0707106781186548
 46
0.0707106781186548
 79
     0
 98
        1
 10
0.0
 20
0.0
  0
HATCH
  5
24C
330
74
100
AcDbEntity
  8
1
  6
Continuous
 62
     2
100
AcDbHatch
 10
0.0
 20
0.0
 30
0.0
210
0.0
220
0.0
230
1.0
  2
_USER
 70
     0
 71
     1
 91
        4
 92
        1
 93
        8
 72
     1
 10
-216.9863623186939
 20
-244.7177509033216
 11
-216.9863623186939
 21
-250.2822616725218
 72
     2
 10
-217.4106069340778
 20
-250.2822616725218
 40
0.4242446153833157
 50
0.0
 51
90.0
 73
     0
 72
     1
 10
-217.4106069340778
 20
-250.7065062879051
 11
-222.8839190247946
 21
-250.7065062879051
 72
     2
 10
-222.8839190247946
 20
-250.2822616725218
 40
0.4242446153828041
 50
90.0
 51
180.0
 73
     0
 72
     1
 10
-223.3081636401774
 20
-250.2822616725218
 11
-223.3081636401774
 21
-244.7177509033216
 72
     2
 10
-222.8839190247946
 20
-244.7177509033216
 40
0.4242446153837989
 50
180.0
 51
270.0
 73
     0
 72
     1
 10
-222.8839190247946
 20
-244.2935062879378
 11
-217.4106069340778
 21
-244.2935062879378
 72
     2
 10
-217.4106069340778
 20
-244.7177509033216
 40
0.4242446153839126
 50
270.0
 51
360.0
 73
     0
 97
        8
330
19B
330
1E9
330
19C
330
1F4
330
199
330
1EB
330
19A
330
1EA
 92
       16
 93
        1
 72
     2
 10
-220.2643333742771
 20
-247.0366331316771
 40
0.4709789327785074
 50
0.0
 51
360.0
 73
     1
 97
        1
330
20F
 92
       16
 93
        8
 72
     2
 10
-219.7144756615164
 20
-248.1457747316455
 40
0.3157169230765193
 50
115.3740086783587
 51
180.0
 73
     1
 72
     1
 10
-220.0301925845932
 20
-248.1457747316455
 11
-220.0301925845932
 21
-248.7276261383406
 72
     2
 10
-219.7144756615164
 20
-248.7276261383406
 40
0.3157169230768204
 50
180.0
 51
269.811032957449
 73
     1
 72
     2
 10
-219.7088595262064
 20
-247.0247911907716
 40
2.018561131933266
 50
269.8110329575858
 51
450.1889670424142
 73
     1
 72
     2
 10
-219.7144756615164
 20
-245.3219562432025
 40
0.3157169230760427
 50
90.18896704255111
 51
180.0
 73
     1
 72
     1
 10
-220.0301925845932
 20
-245.3219562432025
 11
-220.0301925845932
 21
-245.9274915317093
 72
     2
 10
-219.7144756615164
 20
-245.9274915317093
 40
0.3157169230768204
 50
180.0
 51
244.6259913216412
 73
     1
 72
     2
 10
-220.2405183596043
 20
-247.0366331316771
 40
0.9118481501444847
 50
295.3740086781925
 51
424.6259913218244
 73
     0
 97
        8
330
201
330
162
330
1FE
330
1FF
330
1DD
330
161
330
200
330
1DC
 92
       16
 93
       12
 72
     2
 10
-222.2900243480481
 20
-249.6782338092715
 40
0.315716923075712
 50
180.0
 51
270.0
 73
     1
 72
     1
 10
-222.2900243480481
 20
-249.9939507323482
 11
-220.8141910870385
 21
-249.9939507323482
 72
     2
 10
-220.8141910870385
 20
-249.6782338092715
 40
0.3157169230767067
 50
270.0
 51
360.0
 73
     1
 72
     1
 10
-220.4984741639619
 20
-249.6782338092715
 11
-220.4984741639619
 21
-248.1474628777399
 72
     2
 10
-220.8141910870385
 20
-248.1474628777399
 40
0.315716923076593
 50
0.0
 51
64.80558935146249
 73
     1
 72
     2
 10
-220.2916066394635
 20
-247.0366331316771
 40
0.9118975235575889
 50
115.1944106485122
 51
244.805589351471
 73
     0
 72
     2
 10
-220.8141910870385
 20
-245.9258033856149
 40
0.315716923076146
 50
295.1944106485375
 51
360.0
 73
     1
 72
     1
 10
-220.4984741639619
 20
-245.9258033856149
 11
-220.4984741639619
 21
-245.3217787665544
 72
     2
 10
-220.8141910870385
 20
-245.3217787665544
 40
0.315716923076593
 50
0.0
 51
90.0
 73
     1
 72
     1
 10
-220.8141910870385
 20
-245.0060618434782
 11
-222.2900243480481
 21
-245.0060618434782
 72
     2
 10
-222.2900243480481
 20
-245.3217787665544
 40
0.3157169230761951
 50
90.0
 51
180.0
 73
     1
 72
     1
 10
-222.6057412711238
 20
-245.3217787665544
 11
-222.6057412711238
 21
-249.6782338092715
 97
       12
330
1E5
330
19D
330
1E8
330
198
330
1F5
330
1F6
330
1E7
330
197
330
1E6
330
196
330
1F7
330
195
 75
     1
 76
     0
 52
45.0
 41
0.1
 77
     0
 78
     1
 53
45.0
 43
0.0
 44
0.0
 45
-0.0707106781186548
 46
0.0707106781186548
 79
     0
 98
        1
 10
0.0
 20
0.0
  0
HATCH
  5
24D
330
74
100
AcDbEntity
  8
1
  6
Continuous
 62
     2
100
AcDbHatch
 10
0.0
 20
0.0
 30
0.0
210
0.0
220
0.0
230
1.0
  2
_USER
 70
     0
 71
     1
 91
        1
 92
        1
 93
       18
 72
     1
 10
-195.3968144094729
 20
-248.4379620702176
 11
-196.2079134469463
 21
-248.4379620702176
 72
     1
 10
-196.2079134469463
 20
-248.4379620702176
 11
-196.2079134469463
 21
-250.7065062879051
 72
     1
 10
-196.2079134469463
 20
-250.7065062879051
 11
-197.400706149114
 21
-250.7065062879051
 72
     1
 10
-197.400706149114
 20
-250.7065062879051
 11
-197.400706149114
 21
-248.4379620702176
 72
     1
 10
-197.400706149114
 20
-248.4379620702176
 11
-198.5043454486821
 21
-248.4379620702176
 72
     2
 10
-198.5043454486821
 20
-249.3924850770437
 40
0.9545230068260935
 50
90.0
 51
109.337143219432
 73
     1
 72
     2
 10
-198.6510154467858
 20
-248.9745300966608
 40
0.5115800601944143
 50
109.3371432194853
 51
151.4785267424225
 73
     1
 72
     2
 10
-198.2736581887044
 20
-249.1796015259998
 40
0.9410597353349173
 50
151.4785267423633
 51
208.5214732576687
 73
     1
 72
     2
 10
-198.6510154467858
 20
-249.3846729553383
 40
0.5115800601960215
 50
208.5214732576866
 51
246.6277221118449
 73
     1
 72
     2
 10
-198.4945754140827
 20
-249.0226809366283
 40
0.9059297849852801
 50
246.6277221118183
 51
288.4480761180811
 73
     1
 72
     2
 10
-198.9127431477446
 20
-247.7691351605917
 40
2.227384008972773
 50
288.4480761181333
 51
301.9309089499394
 73
     1
 72
     1
 10
-197.7346881057207
 20
-249.6594858797415
 11
-197.7346881057207
 21
-250.5320028865448
 72
     2
 10
-199.0706160228374
 20
-245.8669205807434
 40
4.852596863498825
 50
74.02000874166129
 51
84.84185523036365
 73
     0
 72
     2
 10
-198.7817599281016
 20
-249.066811163965
 40
1.639695123940413
 50
84.8418552303237
 51
164.9381082228995
 73
     0
 72
     2
 10
-199.2008877715632
 20
-249.1796015259998
 40
1.205656168392968
 50
164.9381082229037
 51
195.0618917770962
 73
     0
 72
     2
 10
-198.7817599281016
 20
-249.2923918880347
 40
1.639695123940214
 50
195.0618917771043
 51
270.0
 73
     0
 72
     1
 10
-198.7817599281016
 20
-247.6526967640945
 11
-195.3968144094729
 21
-247.652696764094
 72
     1
 10
-195.3968144094729
 20
-247.652696764094
 11
-195.3968144094729
 21
-248.4379620702176
 97
       18
330
164
330
1FA
330
1FB
330
1E3
330
1E2
330
1C8
330
1E1
330
1E0
330
1FC
330
1DF
330
1FD
330
1DE
330
1C9
330
163
330
168
330
167
330
166
330
165
 75
     1
 76
     0
 52
45.0
 41
0.1
 77
     0
 78
     1
 53
45.0
 43
0.0
 44
0.0
 45
-0.0707106781186548
 46
0.0707106781186548
 79
     0
 98
        1
 10
0.0
 20
0.0
  0
HATCH
  5
24E
330
74
100
AcDbEntity
  8
1
  6
Continuous
 62
     2
100
AcDbHatch
 10
0.0
 20
0.0
 30
0.0
210
0.0
220
0.0
230
1.0
  2
_USER
 70
     0
 71
     1
 91
        1
 92
        1
 93
       18
 72
     1
 10
-195.3968144094729
 20
-248.4379620702176
 11
-196.2079134469463
 21
-248.4379620702176
 72
     1
 10
-196.2079134469463
 20
-248.4379620702176
 11
-196.2079134469463
 21
-250.7065062879051
 72
     1
 10
-196.2079134469463
 20
-250.7065062879051
 11
-197.400706149114
 21
-250.7065062879051
 72
     1
 10
-197.400706149114
 20
-250.7065062879051
 11
-197.400706149114
 21
-248.4379620702176
 72
     1
 10
-197.400706149114
 20
-248.4379620702176
 11
-198.5043454486821
 21
-248.4379620702176
 72
     2
 10
-198.5043454486821
 20
-249.3924850770437
 40
0.9545230068260935
 50
90.0
 51
109.337143219432
 73
     1
 72
     2
 10
-198.6510154467858
 20
-248.9745300966608
 40
0.5115800601944143
 50
109.3371432194853
 51
151.4785267424225
 73
     1
 72
     2
 10
-198.2736581887044
 20
-249.1796015259998
 40
0.9410597353349173
 50
151.4785267423633
 51
208.5214732576687
 73
     1
 72
     2
 10
-198.6510154467858
 20
-249.3846729553383
 40
0.5115800601960215
 50
208.5214732576866
 51
246.6277221118449
 73
     1
 72
     2
 10
-198.4945754140827
 20
-249.0226809366283
 40
0.9059297849852801
 50
246.6277221118183
 51
288.4480761180811
 73
     1
 72
     2
 10
-198.9127431477446
 20
-247.7691351605917
 40
2.227384008972773
 50
288.4480761181333
 51
301.9309089499394
 73
     1
 72
     1
 10
-197.7346881057207
 20
-249.6594858797415
 11
-197.7346881057207
 21
-250.5320028865448
 72
     2
 10
-199.0706160228374
 20
-245.8669205807434
 40
4.852596863498825
 50
74.02000874166129
 51
84.84185523036365
 73
     0
 72
     2
 10
-198.7817599281016
 20
-249.066811163965
 40
1.639695123940413
 50
84.8418552303237
 51
164.9381082228995
 73
     0
 72
     2
 10
-199.2008877715632
 20
-249.1796015259998
 40
1.205656168392968
 50
164.9381082229037
 51
195.0618917770962
 73
     0
 72
     2
 10
-198.7817599281016
 20
-249.2923918880347
 40
1.639695123940214
 50
195.0618917771043
 51
270.0
 73
     0
 72
     1
 10
-198.7817599281016
 20
-247.6526967640945
 11
-195.3968144094729
 21
-247.652696764094
 72
     1
 10
-195.3968144094729
 20
-247.652696764094
 11
-195.3968144094729
 21
-248.4379620702176
 97
       18
330
164
330
1FA
330
1FB
330
1E3
330
1E2
330
1C8
330
1E1
330
1E0
330
1FC
330
1DF
330
1FD
330
1DE
330
1C9
330
163
330
168
330
167
330
166
330
165
 75
     1
 76
     0
 52
45.0
 41
0.1
 77
     0
 78
     1
 53
45.0
 43
0.0
 44
0.0
 45
-0.0707106781186548
 46
0.0707106781186548
 79
     0
 98
        1
 10
0.0
 20
0.0
  0
HATCH
  5
24F
330
74
100
AcDbEntity
  8
1
  6
Continuous
 62
     2
100
AcDbHatch
 10
0.0
 20
0.0
 30
0.0
210
0.0
220
0.0
230
1.0
  2
_USER
 70
     0
 71
     1
 91
        1
 92
        1
 93
       14
 72
     2
 10
-214.8844614073545
 20
-249.2923918880347
 40
1.639695123940509
 50
84.84185523036136
 51
164.9381082228874
 73
     1
 72
     2
 10
-215.3035892508173
 20
-249.1796015259998
 40
1.205656168390937
 50
164.9381082228778
 51
195.0618917770948
 73
     1
 72
     2
 10
-214.8844614073545
 20
-249.066811163965
 40
1.63969512393938
 50
195.0618917770886
 51
275.1581447696406
 73
     1
 72
     2
 10
-215.1733175020904
 20
-245.8669205807434
 40
4.852596863498141
 50
275.1581447696253
 51
285.9799912583529
 73
     1
 72
     1
 10
-213.8373895849726
 20
-250.5320028865442
 11
-213.8373895849726
 21
-249.659485879741
 72
     2
 10
-215.0154446269975
 20
-247.7691351605911
 40
2.227384008972773
 50
58.0690910500407
 51
71.55192388186677
 73
     0
 72
     2
 10
-214.5972768933367
 20
-249.0226809366283
 40
0.9059297849849192
 50
71.55192388184041
 51
113.372277888129
 73
     0
 72
     2
 10
-214.7537169260387
 20
-249.3846729553383
 40
0.5115800601948034
 50
113.3722778881755
 51
151.4785267423044
 73
     0
 72
     2
 10
-214.3763596679584
 20
-249.1796015259998
 40
0.9410597353332295
 50
151.4785267422934
 51
208.5214732577339
 73
     0
 72
     2
 10
-214.7537169260387
 20
-248.9745300966608
 40
0.5115800601948891
 50
208.5214732576956
 51
246.627722111798
 73
     0
 72
     2
 10
-214.5972768933367
 20
-249.3365221153714
 40
0.9059297849853318
 50
246.627722111871
 51
288.4480761181483
 73
     0
 72
     2
 10
-215.0154446269975
 20
-250.590067891408
 40
2.227384008973501
 50
288.4480761181333
 51
301.9309089499589
 73
     0
 72
     1
 10
-213.8373895849726
 20
-248.6997171722581
 11
-213.8373895849726
 21
-247.8272001654548
 72
     2
 10
-215.1733175020904
 20
-252.4922824712557
 40
4.852596863498068
 50
74.02000874164739
 51
84.84185523037472
 73
     1
 97
       14
330
202
330
203
330
204
330
205
330
1CA
330
1DB
330
1DA
330
1D9
330
206
330
207
330
1D8
330
208
330
1CB
330
1D7
 75
     1
 76
     0
 52
45.0
 41
0.1
 77
     0
 78
     1
 53
45.0
 43
0.0
 44
0.0
 45
-0.0707106781186548
 46
0.0707106781186548
 79
     0
 98
        1
 10
0.0
 20
0.0
  0
HATCH
  5
250
330
74
100
AcDbEntity
  8
1
  6
Continuous
 62
     2
100
AcDbHatch
 10
0.0
 20
0.0
 30
0.0
210
0.0
220
0.0
230
1.0
  2
_USER
 70
     0
 71
     1
 91
        1
 92
        1
 93
       14
 72
     2
 10
-214.8844614073545
 20
-249.2923918880347
 40
1.639695123940509
 50
84.84185523036136
 51
164.9381082228874
 73
     1
 72
     2
 10
-215.3035892508173
 20
-249.1796015259998
 40
1.205656168390937
 50
164.9381082228778
 51
195.0618917770948
 73
     1
 72
     2
 10
-214.8844614073545
 20
-249.066811163965
 40
1.63969512393938
 50
195.0618917770886
 51
275.1581447696406
 73
     1
 72
     2
 10
-215.1733175020904
 20
-245.8669205807434
 40
4.852596863498141
 50
275.1581447696253
 51
285.9799912583529
 73
     1
 72
     1
 10
-213.8373895849726
 20
-250.5320028865442
 11
-213.8373895849726
 21
-249.659485879741
 72
     2
 10
-215.0154446269975
 20
-247.7691351605911
 40
2.227384008972773
 50
58.0690910500407
 51
71.55192388186677
 73
     0
 72
     2
 10
-214.5972768933367
 20
-249.0226809366283
 40
0.9059297849849192
 50
71.55192388184041
 51
113.372277888129
 73
     0
 72
     2
 10
-214.7537169260387
 20
-249.3846729553383
 40
0.5115800601948034
 50
113.3722778881755
 51
151.4785267423044
 73
     0
 72
     2
 10
-214.3763596679584
 20
-249.1796015259998
 40
0.9410597353332295
 50
151.4785267422934
 51
208.5214732577339
 73
     0
 72
     2
 10
-214.7537169260387
 20
-248.9745300966608
 40
0.5115800601948891
 50
208.5214732576956
 51
246.627722111798
 73
     0
 72
     2
 10
-214.5972768933367
 20
-249.3365221153714
 40
0.9059297849853318
 50
246.627722111871
 51
288.4480761181483
 73
     0
 72
     2
 10
-215.0154446269975
 20
-250.590067891408
 40
2.227384008973501
 50
288.4480761181333
 51
301.9309089499589
 73
     0
 72
     1
 10
-213.8373895849726
 20
-248.6997171722581
 11
-213.8373895849726
 21
-247.8272001654548
 72
     2
 10
-215.1733175020904
 20
-252.4922824712557
 40
4.852596863498068
 50
74.02000874164739
 51
84.84185523037472
 73
     1
 97
       14
330
202
330
203
330
204
330
205
330
1CA
330
1DB
330
1DA
330
1D9
330
206
330
207
330
1D8
330
208
330
1CB
330
1D7
 75
     1
 76
     0
 52
45.0
 41
0.1
 77
     0
 78
     1
 53
45.0
 43
0.0
 44
0.0
 45
-0.0707106781186548
 46
0.0707106781186548
 79
     0
 98
        1
 10
0.0
 20
0.0
  0
ENDBLK
  5
76
330
74
100
AcDbEntity
  8
0
100
AcDbBlockEnd
  0
BLOCK
  5
7A
330
77
100
AcDbEntity
  8
0
100
AcDbBlockBegin
  2
A4I_CS
 70
     0
 10
-98.00001399998997
 20
-263.0000062879215
 30
0.0
  3
A4I_CS
  1

  0
INSERT
  5
78
330
77
100
AcDbEntity
  8
1
100
AcDbBlockReference
  2
_punkt
 10
-98.00001399998997
 20
-258.0000062879213
 30
0.0
  0
INSERT
  5
79
330
77
100
AcDbEntity
  8
1
100
AcDbBlockReference
  2
_rahmen
 10
-98.00001399998997
 20
-263.0000062879215
 30
0.0
  0
ENDBLK
  5
7B
330
77
100
AcDbEntity
  8
0
100
AcDbBlockEnd
  0
BLOCK
  5
84
330
7C
100
AcDbEntity
  8
0
100
AcDbBlockBegin
  2
1
 70
     0
 10
0.0
 20
0.0
 30
0.0
  3
1
  1

  0
INSERT
  5
7D
330
7C
100
AcDbEntity
  8
0
100
AcDbBlockReference
  2
Allg1
 10
-147.0173830000022
 20
-196.344724
 30
0.0
  0
INSERT
  5
7E
330
7C
100
AcDbEntity
  8
0
100
AcDbBlockReference
  2
Drfsicht1
 10
-269.0000231118366
 20
-174.5694506679372
 30
0.0
  0
INSERT
  5
7F
330
7C
100
AcDbEntity
  8
0
100
AcDbBlockReference
  2
Rckans1
 10
-139.0
 20
-112.998532
 30
0.0
  0
INSERT
  5
80
330
7C
100
AcDbEntity
  8
0
100
AcDbBlockReference
  2
SA_Links1
 10
-204.00001
 20
-112.998532
 30
0.0
  0
INSERT
  5
81
330
7C
100
AcDbEntity
  8
0
100
AcDbBlockReference
  2
SA_Rechts1
 10
-344.000028
 20
-112.998532
 30
0.0
  0
INSERT
  5
82
330
7C
100
AcDbEntity
  8
0
100
AcDbBlockReference
  2
Vordans1
 10
-269.0000230000013
 20
-112.998532
 30
0.0
  0
INSERT
  5
83
330
7C
100
AcDbEntity
  8
0
100
AcDbBlockReference
  2
A4I_CS
 10
-98.00001399998997
 20
-263.0000062879215
 30
0.0
  0
ENDBLK
  5
85
330
7C
100
AcDbEntity
  8
0
100
AcDbBlockEnd
  0
BLOCK
  5
A9
330
A2
100
AcDbEntity
  8
0
100
AcDbBlockBegin
  2
*D17
 70
     1
 10
0.0
 20
0.0
 30
0.0
  3
*D17
  1

  0
LINE
  5
A3
330
A2
100
AcDbEntity
  8
1
  6
Continuous
 62
     2
100
AcDbLine
 10
-298.5000230000209
 20
-155.0694506679372
 30
0.0
 11
-298.5000230000209
 21
-194.0694506679372
 31
0.0
  0
LINE
  5
A4
330
A2
100
AcDbEntity
  8
1
  6
Continuous
 62
     2
100
AcDbLine
 10
-269.0000231118565
 20
-155.0694506679372
 30
0.0
 11
-300.0000230000209
 21
-155.0694506679372
 31
0.0
  0
LINE
  5
A5
330
A2
100
AcDbEntity
  8
1
  6
Continuous
 62
     2
100
AcDbLine
 10
-269.0000231118565
 20
-194.0694506679372
 30
0.0
 11
-300.0000230000209
 21
-194.0694506679372
 31
0.0
  0
SOLID
  5
A6
330
A2
100
AcDbEntity
  8
1
 62
     2
100
AcDbTrace
 10
-298.039239258465
 20
-158.5694506679372
 30
0.0
 11
-298.9608067415768
 21
-158.5694506679372
 31
0.0
 12
-298.5000230000209
 22
-155.0694506679372
 32
0.0
 13
-298.5000230000209
 23
-155.0694506679372
 33
0.0
  0
SOLID
  5
A7
330
A2
100
AcDbEntity
  8
1
 62
     2
100
AcDbTrace
 10
-298.9608067415768
 20
-190.5694506679372
 30
0.0
 11
-298.039239258465
 21
-190.5694506679372
 31
0.0
 12
-298.5000230000209
 22
-194.0694506679372
 32
0.0
 13
-298.5000230000209
 23
-194.0694506679372
 33
0.0
  0
MTEXT
  5
A8
330
A2
100
AcDbEntity
  8
1
 62
     3
100
AcDbMText
 10
-300.0000230000209
 20
-178.251035912297
 30
0.0
 40
3.5
 41
0.0
 71
     7
 72
     1
  1
\C3;\U+00f8\C3;39
  7
CONVERTER_11
 11
0.0
 21
1.0
 31
0.0
 73
     1
 44
0.60024009603842
  0
ENDBLK
  5
AA
330
A2
100
AcDbEntity
  8
0
100
AcDbBlockEnd
  0
BLOCK
  5
114
330
10D
100
AcDbEntity
  8
0
100
AcDbBlockBegin
  2
*D18
 70
     1
 10
0.0
 20
0.0
 30
0.0
  3
*D18
  1

  0
LINE
  5
10E
330
10D
100
AcDbEntity
  8
1
  6
Continuous
 62
     2
100
AcDbLine
 10
-298.5000230000213
 20
-107.0071337929077
 30
0.0
 11
-298.5000230000213
 21
-118.9928655534975
 31
0.0
  0
LINE
  5
10F
330
10D
100
AcDbEntity
  8
1
  6
Continuous
 62
     2
100
AcDbLine
 10
-270.0000230000213
 20
-107.0071337929077
 30
0.0
 11
-300.0000230000213
 21
-107.0071337929077
 31
0.0
  0
LINE
  5
110
330
10D
100
AcDbEntity
  8
1
  6
Continuous
 62
     2
100
AcDbLine
 10
-285.0000230000213
 20
-118.9928655534975
 30
0.0
 11
-300.0000230000213
 21
-118.9928655534975
 31
0.0
  0
SOLID
  5
111
330
10D
100
AcDbEntity
  8
1
 62
     2
100
AcDbTrace
 10
-298.0392392584654
 20
-110.5071337929077
 30
0.0
 11
-298.9608067415772
 21
-110.5071337929077
 31
0.0
 12
-298.5000230000213
 22
-107.0071337929077
 32
0.0
 13
-298.5000230000213
 23
-107.0071337929077
 33
0.0
  0
SOLID
  5
112
330
10D
100
AcDbEntity
  8
1
 62
     2
100
AcDbTrace
 10
-298.9608067415772
 20
-115.4928655534975
 30
0.0
 11
-298.0392392584654
 21
-115.4928655534975
 31
0.0
 12
-298.5000230000213
 22
-118.9928655534975
 32
0.0
 13
-298.5000230000213
 23
-118.9928655534975
 33
0.0
  0
MTEXT
  5
113
330
10D
100
AcDbEntity
  8
1
 62
     3
100
AcDbMText
 10
-300.0000230000213
 20
-115.0999996732026
 30
0.0
 40
3.5
 41
0.0
 71
     7
 72
     1
  1
12
  7
CONVERTER_11
 11
0.0
 21
1.0
 31
0.0
 73
     1
 44
0.60024009603842
  0
ENDBLK
  5
115
330
10D
100
AcDbEntity
  8
0
100
AcDbBlockEnd
  0
ENDSEC
  0
SECTION
  2
ENTITIES
  0
INSERT
  5
86
330
1F
100
AcDbEntity
  8
1
100
AcDbBlockReference
  2
1
 10
0.0
 20
0.0
 30
0.0
  0
ENDSEC
  0
SECTION
  2
OBJECTS
  0
DICTIONARY
  5
C
330
0
100
AcDbDictionary
281
     1
  3
ACAD_GROUP
350
D
  3
ACAD_LAYOUT
350
1A
  3
ACAD_MATERIAL
350
3B
  3
ACAD_MLEADERSTYLE
350
278
  3
ACAD_MLINESTYLE
350
17
  3
ACAD_PLOTSETTINGS
350
19
  3
ACAD_PLOTSTYLENAME
350
E
  3
ACAD_TABLESTYLE
350
277
  3
ACAD_VISUALSTYLE
350
2A
  0
DICTIONARY
  5
D
102
{ACAD_REACTORS
330
C
102
}
330
C
100
AcDbDictionary
281
     1
  0
DICTIONARY
  5
1A
102
{ACAD_REACTORS
330
C
102
}
330
C
100
AcDbDictionary
281
     1
  3
Layout1
350
1E
  3
Layout2
350
26
  3
Model
350
22
  0
DICTIONARY
  5
3B
102
{ACAD_REACTORS
330
C
102
}
330
C
100
AcDbDictionary
281
     1
  3
ByBlock
350
3D
  3
ByLayer
350
3C
  3
Global
350
3E
  0
DICTIONARY
  5
278
102
{ACAD_REACTORS
330
C
102
}
330
C
100
AcDbDictionary
281
     1
  0
DICTIONARY
  5
17
102
{ACAD_REACTORS
330
C
102
}
330
C
100
AcDbDictionary
281
     1
  3
Standard
350
18
  0
DICTIONARY
  5
19
102
{ACAD_REACTORS
330
C
102
}
330
C
100
AcDbDictionary
281
     1
  0
ACDBDICTIONARYWDFLT
  5
E
102
{ACAD_REACTORS
330
C
102
}
330
C
100
AcDbDictionary
281
     1
  3
Normal
350
F
100
AcDbDictionaryWithDefault
340
F
  0
DICTIONARY
  5
277
102
{ACAD_REACTORS
330
C
102
}
330
C
100
AcDbDictionary
281
     1
  0
DICTIONARY
  5
2A
102
{ACAD_REACTORS
330
C
102
}
330
C
100
AcDbDictionary
281
     1
  3
2dWireframe
350
2F
  3
3D Hidden
350
31
  3
3dWireframe
350
30
  3
Basic
350
32
  3
Brighten
350
36
  3
ColorChange
350
3A
  3
Conceptual
350
34
  3
Dim
350
35
  3
Facepattern
350
39
  3
Flat
350
2B
  3
FlatWithEdges
350
2C
  3
Gouraud
350
2D
  3
GouraudWithEdges
350
2E
  3
Linepattern
350
38
  3
Realistic
350
33
  3
Thicken
350
37
  0
LAYOUT
  5
1E
102
{ACAD_REACTORS
330
1A
102
}
330
1A
100
AcDbPlotSettings
  1

  2
none_device
  4

  6

 40
0.0
 41
0.0
 42
0.0
 43
0.0
 44
0.0
 45
0.0
 46
0.0
 47
0.0
 48
0.0
 49
0.0
140
0.0
141
0.0
142
1.0
143
1.0
 70
   688
 72
     0
 73
     0
 74
     5
  7

 75
    16
 76
     0
 77
     2
 78
   300
147
1.0
148
0.0
149
0.0
100
AcDbLayout
  1
Layout1
 70
     1
 71
     1
 10
0.0
 20
0.0
 11
12.0
 21
9.0
 12
0.0
 22
0.0
 32
0.0
 14
1.00000000000000E+20
 24
1.00000000000000E+20
 34
1.00000000000000E+20
 15
-1.00000000000000E+20
 25
-1.00000000000000E+20
 35
-1.00000000000000E+20
146
0.0
 13
0.0
 23
0.0
 33
0.0
 16
1.0
 26
0.0
 36
0.0
 17
0.0
 27
1.0
 37
0.0
 76
     0
330
1B
  0
LAYOUT
  5
26
102
{ACAD_REACTORS
330
1A
102
}
330
1A
100
AcDbPlotSettings
  1

  2
none_device
  4

  6

 40
0.0
 41
0.0
 42
0.0
 43
0.0
 44
0.0
 45
0.0
 46
0.0
 47
0.0
 48
0.0
 49
0.0
140
0.0
141
0.0
142
1.0
143
1.0
 70
   688
 72
     0
 73
     0
 74
     5
  7

 75
    16
 76
     0
 77
     2
 78
   300
147
1.0
148
0.0
149
0.0
100
AcDbLayout
  1
Layout2
 70
     1
 71
     2
 10
0.0
 20
0.0
 11
0.0
 21
0.0
 12
0.0
 22
0.0
 32
0.0
 14
0.0
 24
0.0
 34
0.0
 15
0.0
 25
0.0
 35
0.0
146
0.0
 13
0.0
 23
0.0
 33
0.0
 16
1.0
 26
0.0
 36
0.0
 17
0.0
 27
1.0
 37
0.0
 76
     0
330
23
  0
LAYOUT
  5
22
102
{ACAD_REACTORS
330
1A
102
}
330
1A
100
AcDbPlotSettings
  1

  2
none_device
  4

  6

 40
0.0
 41
0.0
 42
0.0
 43
0.0
 44
0.0
 45
0.0
 46
0.0
 47
0.0
 48
0.0
 49
0.0
140
0.0
141
0.0
142
1.0
143
1.0
 70
  1712
 72
     0
 73
     0
 74
     0
  7

 75
     0
 76
     0
 77
     2
 78
   300
147
1.0
148
0.0
149
0.0
100
AcDbLayout
  1
Model
 70
     1
 71
     0
 10
0.0
 20
0.0
 11
12.0
 21
9.0
 12
0.0
 22
0.0
 32
0.0
 14
-390.0000139999891
 24
-263.0000062879215
 34
0.0
 15
-93.00001399999098
 25
-53.00000628792137
 35
0.0
146
0.0
 13
0.0
 23
0.0
 33
0.0
 16
1.0
 26
0.0
 36
0.0
 17
0.0
 27
1.0
 37
0.0
 76
     0
330
1F
331
29
  0
MATERIAL
  5
3D
102
{ACAD_REACTORS
330
3B
102
}
102
{ACAD_XDICTIONARY
360
273
102
}
330
3B
100
AcDbMaterial
  1
ByBlock
  0
MATERIAL
  5
3C
102
{ACAD_REACTORS
330
3B
102
}
102
{ACAD_XDICTIONARY
360
271
102
}
330
3B
100
AcDbMaterial
  1
ByLayer
  0
MATERIAL
  5
3E
102
{ACAD_REACTORS
330
3B
102
}
102
{ACAD_XDICTIONARY
360
275
102
}
330
3B
100
AcDbMaterial
  1
Global
  0
MLINESTYLE
  5
18
102
{ACAD_REACTORS
330
17
102
}
330
17
100
AcDbMlineStyle
  2
Standard
 70
     0
  3

 62
   256
 51
90.0
 52
90.0
 71
     2
 49
0.5
 62
   256
  6
BYLAYER
 49
-0.5
 62
   256
  6
BYLAYER
  0
ACDBPLACEHOLDER
  5
F
102
{ACAD_REACTORS
330
E
102
}
330
E
  0
VISUALSTYLE
  5
2F
102
{ACAD_REACTORS
330
2A
102
}
102
{ACAD_XDICTIONARY
360
259
102
}
330
2A
100
AcDbVisualStyle
  2
2dWireframe
 70
     4
 71
     0
 72
     2
 73
     0
 90
        0
 40
-0.6
 41
-30.0
 62
     5
 63
     7
421
 16777215
 74
     1
 91
        4
 64
     7
 65
   257
 75
     1
175
     1
 42
1.0
 92
        0
 66
   257
 43
1.0
 76
     1
 77
     6
 78
     2
 67
     7
 79
     5
170
     0
171
     0
290
     0
174
     0
 93
        1
 44
0.0
173
     0
291
     0
 45
0.0
1001
ACAD
1000
AcDbSavedByObjectVersion
1070
     0
  0
VISUALSTYLE
  5
31
102
{ACAD_REACTORS
330
2A
102
}
102
{ACAD_XDICTIONARY
360
25D
102
}
330
2A
100
AcDbVisualStyle
  2
3D Hidden
 70
     6
 71
     1
 72
     2
 73
     2
 90
        0
 40
-0.6
 41
-30.0
 62
     5
 63
     7
421
 16777215
 74
     2
 91
        2
 64
     7
 65
   257
 75
     2
175
     1
 42
40.0
 92
        0
 66
   257
 43
1.0
 76
     1
 77
     6
 78
     2
 67
     7
 79
     3
170
     0
171
     0
290
     0
174
     0
 93
        1
 44
0.0
173
     0
291
     0
 45
0.0
1001
ACAD
1000
AcDbSavedByObjectVersion
1070
     0
  0
VISUALSTYLE
  5
30
102
{ACAD_REACTORS
330
2A
102
}
102
{ACAD_XDICTIONARY
360
25B
102
}
330
2A
100
AcDbVisualStyle
  2
3dWireframe
 70
     5
 71
     0
 72
     2
 73
     0
 90
        0
 40
-0.6
 41
-30.0
 62
     5
 63
     7
421
 16777215
 74
     1
 91
        4
 64
     7
 65
   257
 75
     1
175
     1
 42
1.0
 92
        0
 66
   257
 43
1.0
 76
     1
 77
     6
 78
     2
 67
     7
 79
     5
170
     0
171
     0
290
     0
174
     0
 93
        1
 44
0.0
173
     0
291
     0
 45
0.0
1001
ACAD
1000
AcDbSavedByObjectVersion
1070
     0
  0
VISUALSTYLE
  5
32
102
{ACAD_REACTORS
330
2A
102
}
102
{ACAD_XDICTIONARY
360
25F
102
}
330
2A
100
AcDbVisualStyle
  2
Basic
 70
     7
 71
     1
 72
     0
 73
     1
 90
        0
 40
-0.6
 41
-30.0
 62
     5
 63
     7
421
 16777215
 74
     0
 91
        4
 64
     7
 65
   257
 75
     1
175
     1
 42
1.0
 92
        8
 66
     7
 43
1.0
 76
     1
 77
     6
 78
     2
 67
     7
 79
     5
170
     0
171
     0
290
     0
174
     0
 93
        1
 44
0.0
173
     0
291
     1
 45
0.0
1001
ACAD
1000
AcDbSavedByObjectVersion
1070
     0
  0
VISUALSTYLE
  5
36
102
{ACAD_REACTORS
330
2A
102
}
102
{ACAD_XDICTIONARY
360
267
102
}
330
2A
100
AcDbVisualStyle
  2
Brighten
 70
    12
 71
     2
 72
     2
 73
     0
 90
        0
 40
-0.6
 41
-30.0
 62
     5
 63
     7
421
 16777215
 74
     1
 91
        4
 64
     7
 65
   257
 75
     1
175
     1
 42
1.0
 92
        8
 66
     7
 43
1.0
 76
     1
 77
     6
 78
     2
 67
     7
 79
     5
170
     0
171
     0
290
     0
174
     0
 93
        1
 44
50.0
173
     0
291
     1
 45
0.0
1001
ACAD
1000
AcDbSavedByObjectVersion
1070
     0
  0
VISUALSTYLE
  5
3A
102
{ACAD_REACTORS
330
2A
102
}
102
{ACAD_XDICTIONARY
360
26F
102
}
330
2A
100
AcDbVisualStyle
  2
ColorChange
 70
    16
 71
     2
 72
     2
 73
     3
 90
        0
 40
-0.6
 41
-30.0
 62
     5
 63
     8
421
  8421504
 74
     1
 91
        4
 64
     7
 65
   257
 75
     1
175
     1
 42
1.0
 92
        8
 66
     8
424
  8421504
 43
1.0
 76
     1
 77
     6
 78
     2
 67
     7
 79
     5
170
     0
171
     0
290
     0
174
     0
 93
        1
 44
0.0
173
     0
291
     1
 45
0.0
1001
ACAD
1000
AcDbSavedByObjectVersion
1070
     0
  0
VISUALSTYLE
  5
34
102
{ACAD_REACTORS
330
2A
102
}
102
{ACAD_XDICTIONARY
360
263
102
}
330
2A
100
AcDbVisualStyle
  2
Conceptual
 70
     9
 71
     3
 72
     2
 73
     0
 90
        0
 40
-0.6
 41
-30.0
 62
     5
 63
     7
421
 16777215
 74
     2
 91
        2
 64
     7
 65
   257
 75
     1
175
     1
 42
40.0
 92
        8
 66
     7
 43
1.0
 76
     1
 77
     6
 78
     2
 67
     7
 79
     3
170
     0
171
     0
290
     0
174
     0
 93
        1
 44
0.0
173
     0
291
     0
 45
0.0
1001
ACAD
1000
AcDbSavedByObjectVersion
1070
     0
  0
VISUALSTYLE
  5
35
102
{ACAD_REACTORS
330
2A
102
}
102
{ACAD_XDICTIONARY
360
265
102
}
330
2A
100
AcDbVisualStyle
  2
Dim
 70
    11
 71
     2
 72
     2
 73
     0
 90
        0
 40
-0.6
 41
-30.0
 62
     5
 63
     7
421
 16777215
 74
     1
 91
        4
 64
     7
 65
   257
 75
     1
175
     1
 42
1.0
 92
        8
 66
     7
 43
1.0
 76
     1
 77
     6
 78
     2
 67
     7
 79
     5
170
     0
171
     0
290
     0
174
     0
 93
        1
 44
-50.0
173
     0
291
     1
 45
0.0
1001
ACAD
1000
AcDbSavedByObjectVersion
1070
     0
  0
VISUALSTYLE
  5
39
102
{ACAD_REACTORS
330
2A
102
}
102
{ACAD_XDICTIONARY
360
26D
102
}
330
2A
100
AcDbVisualStyle
  2
Facepattern
 70
    15
 71
     2
 72
     2
 73
     0
 90
        0
 40
-0.6
 41
-30.0
 62
     5
 63
     7
421
 16777215
 74
     1
 91
        4
 64
     7
 65
   257
 75
     1
175
     1
 42
1.0
 92
        8
 66
     7
 43
1.0
 76
     1
 77
     6
 78
     2
 67
     7
 79
     5
170
     0
171
     0
290
     0
174
     0
 93
        1
 44
0.0
173
     0
291
     1
 45
0.0
1001
ACAD
1000
AcDbSavedByObjectVersion
1070
     0
  0
VISUALSTYLE
  5
2B
102
{ACAD_REACTORS
330
2A
102
}
102
{ACAD_XDICTIONARY
360
251
102
}
330
2A
100
AcDbVisualStyle
  2
Flat
 70
     0
 71
     2
 72
     1
 73
     1
 90
        2
 40
-0.6
 41
30.0
 62
     5
 63
     7
421
 16777215
 74
     0
 91
        4
 64
     7
 65
   257
 75
     1
175
     1
 42
1.0
 92
        8
 66
     7
 43
1.0
 76
     1
 77
     6
 78
     2
 67
     7
 79
     5
170
     0
171
     0
290
     0
174
     0
 93
       13
 44
0.0
173
     0
291
     1
 45
0.0
1001
ACAD
1000
AcDbSavedByObjectVersion
1070
     0
  0
VISUALSTYLE
  5
2C
102
{ACAD_REACTORS
330
2A
102
}
102
{ACAD_XDICTIONARY
360
253
102
}
330
2A
100
AcDbVisualStyle
  2
FlatWithEdges
 70
     1
 71
     2
 72
     1
 73
     1
 90
        2
 40
-0.6
 41
30.0
 62
     5
 63
     7
421
 16777215
 74
     1
 91
        4
 64
     7
 65
   257
 75
     1
175
     1
 42
1.0
 92
        0
 66
   257
 43
1.0
 76
     1
 77
     6
 78
     2
 67
     7
 79
     5
170
     0
171
     0
290
     0
174
     0
 93
       13
 44
0.0
173
     0
291
     1
 45
0.0
1001
ACAD
1000
AcDbSavedByObjectVersion
1070
     0
  0
VISUALSTYLE
  5
2D
102
{ACAD_REACTORS
330
2A
102
}
102
{ACAD_XDICTIONARY
360
255
102
}
330
2A
100
AcDbVisualStyle
  2
Gouraud
 70
     2
 71
     2
 72
     2
 73
     1
 90
        2
 40
-0.6
 41
30.0
 62
     5
 63
     7
421
 16777215
 74
     0
 91
        4
 64
     7
 65
   257
 75
     1
175
     1
 42
1.0
 92
        0
 66
     7
 43
1.0
 76
     1
 77
     6
 78
     2
 67
     7
 79
     5
170
     0
171
     0
290
     0
174
     0
 93
       13
 44
0.0
173
     0
291
     1
 45
0.0
1001
ACAD
1000
AcDbSavedByObjectVersion
1070
     0
  0
VISUALSTYLE
  5
2E
102
{ACAD_REACTORS
330
2A
102
}
102
{ACAD_XDICTIONARY
360
257
102
}
330
2A
100
AcDbVisualStyle
  2
GouraudWithEdges
 70
     3
 71
     2
 72
     2
 73
     1
 90
        2
 40
-0.6
 41
30.0
 62
     5
 63
     7
421
 16777215
 74
     1
 91
        4
 64
     7
 65
   257
 75
     1
175
     1
 42
1.0
 92
        0
 66
   257
 43
1.0
 76
     1
 77
     6
 78
     2
 67
     7
 79
     5
170
     0
171
     0
290
     0
174
     0
 93
       13
 44
0.0
173
     0
291
     1
 45
0.0
1001
ACAD
1000
AcDbSavedByObjectVersion
1070
     0
  0
VISUALSTYLE
  5
38
102
{ACAD_REACTORS
330
2A
102
}
102
{ACAD_XDICTIONARY
360
26B
102
}
330
2A
100
AcDbVisualStyle
  2
Linepattern
 70
    14
 71
     2
 72
     2
 73
     0
 90
        0
 40
-0.6
 41
-30.0
 62
     5
 63
     7
421
 16777215
 74
     1
 91
        4
 64
     7
 65
   257
 75
     7
175
     7
 42
1.0
 92
        8
 66
     7
 43
1.0
 76
     1
 77
     6
 78
     2
 67
     7
 79
     5
170
     0
171
     0
290
     0
174
     0
 93
        1
 44
0.0
173
     0
291
     1
 45
0.0
1001
ACAD
1000
AcDbSavedByObjectVersion
1070
     0
  0
VISUALSTYLE
  5
33
102
{ACAD_REACTORS
330
2A
102
}
102
{ACAD_XDICTIONARY
360
261
102
}
330
2A
100
AcDbVisualStyle
  2
Realistic
 70
     8
 71
     2
 72
     2
 73
     0
 90
        0
 40
-0.6
 41
-30.0
 62
     5
 63
     7
421
 16777215
 74
     1
 91
        0
 64
     7
 65
   257
 75
     1
175
     1
 42
1.0
 92
        8
 66
     8
424
  7895160
 43
1.0
 76
     1
 77
     6
 78
     2
 67
     7
 79
     5
170
     0
171
     0
290
     0
174
     0
 93
       13
 44
0.0
173
     0
291
     0
 45
0.0
1001
ACAD
1000
AcDbSavedByObjectVersion
1070
     0
  0
VISUALSTYLE
  5
37
102
{ACAD_REACTORS
330
2A
102
}
102
{ACAD_XDICTIONARY
360
269
102
}
330
2A
100
AcDbVisualStyle
  2
Thicken
 70
    13
 71
     2
 72
     2
 73
     0
 90
        0
 40
-0.6
 41
-30.0
 62
     5
 63
     7
421
 16777215
 74
     1
 91
        4
 64
     7
 65
   257
 75
     1
175
     1
 42
1.0
 92
       12
 66
     7
 43
1.0
 76
     1
 77
     6
 78
     2
 67
     7
 79
     5
170
     0
171
     0
290
     0
174
     0
 93
        1
 44
0.0
173
     0
291
     1
 45
0.0
1001
ACAD
1000
AcDbSavedByObjectVersion
1070
     0
  0
DICTIONARY
  5
273
330
3D
100
AcDbDictionary
280
     1
281
     1
  3
ACAD_XREC_ROUNDTRIP
360
274
  0
DICTIONARY
  5
271
330
3C
100
AcDbDictionary
280
     1
281
     1
  3
ACAD_XREC_ROUNDTRIP
360
272
  0
DICTIONARY
  5
275
330
3E
100
AcDbDictionary
280
     1
281
     1
  3
ACAD_XREC_ROUNDTRIP
360
276
  0
DICTIONARY
  5
259
330
2F
100
AcDbDictionary
280
     1
281
     1
  3
ACAD_XREC_ROUNDTRIP
360
25A
  0
DICTIONARY
  5
25D
330
31
100
AcDbDictionary
280
     1
281
     1
  3
ACAD_XREC_ROUNDTRIP
360
25E
  0
DICTIONARY
  5
25B
330
30
100
AcDbDictionary
280
     1
281
     1
  3
ACAD_XREC_ROUNDTRIP
360
25C
  0
DICTIONARY
  5
25F
330
32
100
AcDbDictionary
280
     1
281
     1
  3
ACAD_XREC_ROUNDTRIP
360
260
  0
DICTIONARY
  5
267
330
36
100
AcDbDictionary
280
     1
281
     1
  3
ACAD_XREC_ROUNDTRIP
360
268
  0
DICTIONARY
  5
26F
330
3A
100
AcDbDictionary
280
     1
281
     1
  3
ACAD_XREC_ROUNDTRIP
360
270
  0
DICTIONARY
  5
263
330
34
100
AcDbDictionary
280
     1
281
     1
  3
ACAD_XREC_ROUNDTRIP
360
264
  0
DICTIONARY
  5
265
330
35
100
AcDbDictionary
280
     1
281
     1
  3
ACAD_XREC_ROUNDTRIP
360
266
  0
DICTIONARY
  5
26D
330
39
100
AcDbDictionary
280
     1
281
     1
  3
ACAD_XREC_ROUNDTRIP
360
26E
  0
DICTIONARY
  5
251
330
2B
100
AcDbDictionary
280
     1
281
     1
  3
ACAD_XREC_ROUNDTRIP
360
252
  0
DICTIONARY
  5
253
330
2C
100
AcDbDictionary
280
     1
281
     1
  3
ACAD_XREC_ROUNDTRIP
360
254
  0
DICTIONARY
  5
255
330
2D
100
AcDbDictionary
280
     1
281
     1
  3
ACAD_XREC_ROUNDTRIP
360
256
  0
DICTIONARY
  5
257
330
2E
100
AcDbDictionary
280
     1
281
     1
  3
ACAD_XREC_ROUNDTRIP
360
258
  0
DICTIONARY
  5
26B
330
38
100
AcDbDictionary
280
     1
281
     1
  3
ACAD_XREC_ROUNDTRIP
360
26C
  0
DICTIONARY
  5
261
330
33
100
AcDbDictionary
280
     1
281
     1
  3
ACAD_XREC_ROUNDTRIP
360
262
  0
DICTIONARY
  5
269
330
37
100
AcDbDictionary
280
     1
281
     1
  3
ACAD_XREC_ROUNDTRIP
360
26A
  0
XRECORD
  5
274
102
{ACAD_REACTORS
330
273
102
}
330
273
100
AcDbXrecord
280
     1
102
MATERIAL
148
0.0
149
0.0
149
0.0
 93
        0
 94
      127
282
     0
 72
     1
 77
     1
171
     1
175
     1
179
     1
273
     0
  0
XRECORD
  5
272
102
{ACAD_REACTORS
330
271
102
}
330
271
100
AcDbXrecord
280
     1
102
MATERIAL
148
0.0
149
0.0
149
0.0
 93
        0
 94
      127
282
     0
 72
     1
 77
     1
171
     1
175
     1
179
     1
273
     0
  0
XRECORD
  5
276
102
{ACAD_REACTORS
330
275
102
}
330
275
100
AcDbXrecord
280
     1
102
MATERIAL
148
0.0
149
0.0
149
0.0
 93
        0
 94
      127
282
     0
 72
     1
 77
     1
171
     1
175
     1
179
     1
273
     0
  0
XRECORD
  5
25A
102
{ACAD_REACTORS
330
259
102
}
330
259
100
AcDbXrecord
280
     1
102
RTVSPropertyOp0
 70
     1
102
RTVSPropertyOp1
 70
     1
102
RTVSPropertyOp2
 70
     1
102
RTVSPropertyOp3
 70
     1
102
RTVSPropertyOp4
 70
     1
102
RTVSPropertyOp5
 70
     1
102
RTVSPropertyOp6
 70
     1
102
RTVSPropertyOp7
 70
     1
102
RTVSPropertyOp8
 70
     1
102
RTVSPropertyOp9
 70
     1
102
RTVSPropertyOp10
 70
     1
102
RTVSPropertyOp11
 70
     1
102
RTVSPropertyOp12
 70
     1
102
RTVSPropertyOp13
 70
     1
102
RTVSPropertyOp14
 70
     1
102
RTVSPropertyOp15
 70
     1
102
RTVSPropertyOp16
 70
     1
102
RTVSPropertyOp17
 70
     1
102
RTVSPropertyOp18
 70
     1
102
RTVSPropertyOp19
 70
     1
102
RTVSPropertyOp20
 70
     1
102
RTVSPropertyOp21
 70
     1
102
RTVSPropertyOp22
 70
     1
102
RTVSPropertyOp23
 70
     1
102
RTVSPropertyOp24
 70
     1
102
RTVSPropertyOp25
 70
     1
102
RTVSPropertyOp26
 70
     1
102
RTVSPropertyOp27
 70
     1
102
RTVSPropertyOp28
 70
     1
102
RTVSPropertyOp29
 70
     1
102
RTVSPropertyOp30
 70
     1
102
RTVSPropertyOp31
 70
     1
102
RTVSPropertyOp32
 70
     1
  0
XRECORD
  5
25E
102
{ACAD_REACTORS
330
25D
102
}
330
25D
100
AcDbXrecord
280
     1
102
RTVSPropertyOp0
 70
     1
102
RTVSPropertyOp1
 70
     1
102
RTVSPropertyOp2
 70
     1
102
RTVSPropertyOp3
 70
     1
102
RTVSPropertyOp4
 70
     1
102
RTVSPropertyOp5
 70
     1
102
RTVSPropertyOp6
 70
     1
102
RTVSPropertyOp7
 70
     1
102
RTVSPropertyOp8
 70
     1
102
RTVSPropertyOp9
 70
     1
102
RTVSPropertyOp10
 70
     1
102
RTVSPropertyOp11
 70
     1
102
RTVSPropertyOp12
 70
     1
102
RTVSPropertyOp13
 70
     1
102
RTVSPropertyOp14
 70
     1
102
RTVSPropertyOp15
 70
     1
102
RTVSPropertyOp16
 70
     1
102
RTVSPropertyOp17
 70
     1
102
RTVSPropertyOp18
 70
     1
102
RTVSPropertyOp19
 70
     1
102
RTVSPropertyOp20
 70
     1
102
RTVSPropertyOp21
 70
     1
102
RTVSPropertyOp22
 70
     1
102
RTVSPropertyOp23
 70
     1
102
RTVSPropertyOp24
 70
     1
102
RTVSPropertyOp25
 70
     1
102
RTVSPropertyOp26
 70
     1
102
RTVSPropertyOp27
 70
     1
102
RTVSPropertyOp28
 70
     1
102
RTVSPropertyOp29
 70
     1
102
RTVSPropertyOp30
 70
     1
102
RTVSPropertyOp31
 70
     1
102
RTVSPropertyOp32
 70
     1
  0
XRECORD
  5
25C
102
{ACAD_REACTORS
330
25B
102
}
330
25B
100
AcDbXrecord
280
     1
102
RTVSPropertyOp0
 70
     1
102
RTVSPropertyOp1
 70
     1
102
RTVSPropertyOp2
 70
     1
102
RTVSPropertyOp3
 70
     1
102
RTVSPropertyOp4
 70
     1
102
RTVSPropertyOp5
 70
     1
102
RTVSPropertyOp6
 70
     1
102
RTVSPropertyOp7
 70
     1
102
RTVSPropertyOp8
 70
     1
102
RTVSPropertyOp9
 70
     1
102
RTVSPropertyOp10
 70
     1
102
RTVSPropertyOp11
 70
     1
102
RTVSPropertyOp12
 70
     1
102
RTVSPropertyOp13
 70
     1
102
RTVSPropertyOp14
 70
     1
102
RTVSPropertyOp15
 70
     1
102
RTVSPropertyOp16
 70
     1
102
RTVSPropertyOp17
 70
     1
102
RTVSPropertyOp18
 70
     1
102
RTVSPropertyOp19
 70
     1
102
RTVSPropertyOp20
 70
     1
102
RTVSPropertyOp21
 70
     1
102
RTVSPropertyOp22
 70
     1
102
RTVSPropertyOp23
 70
     1
102
RTVSPropertyOp24
 70
     1
102
RTVSPropertyOp25
 70
     1
102
RTVSPropertyOp26
 70
     1
102
RTVSPropertyOp27
 70
     1
102
RTVSPropertyOp28
 70
     1
102
RTVSPropertyOp29
 70
     1
102
RTVSPropertyOp30
 70
     1
102
RTVSPropertyOp31
 70
     1
102
RTVSPropertyOp32
 70
     1
  0
XRECORD
  5
260
102
{ACAD_REACTORS
330
25F
102
}
330
25F
100
AcDbXrecord
280
     1
102
RTVSPropertyOp0
 70
     1
102
RTVSPropertyOp1
 70
     1
102
RTVSPropertyOp2
 70
     1
102
RTVSPropertyOp3
 70
     1
102
RTVSPropertyOp4
 70
     1
102
RTVSPropertyOp5
 70
     1
102
RTVSPropertyOp6
 70
     1
102
RTVSPropertyOp7
 70
     1
102
RTVSPropertyOp8
 70
     1
102
RTVSPropertyOp9
 70
     1
102
RTVSPropertyOp10
 70
     1
102
RTVSPropertyOp11
 70
     1
102
RTVSPropertyOp12
 70
     1
102
RTVSPropertyOp13
 70
     1
102
RTVSPropertyOp14
 70
     1
102
RTVSPropertyOp15
 70
     1
102
RTVSPropertyOp16
 70
     1
102
RTVSPropertyOp17
 70
     1
102
RTVSPropertyOp18
 70
     1
102
RTVSPropertyOp19
 70
     1
102
RTVSPropertyOp20
 70
     1
102
RTVSPropertyOp21
 70
     1
102
RTVSPropertyOp22
 70
     1
102
RTVSPropertyOp23
 70
     1
102
RTVSPropertyOp24
 70
     1
102
RTVSPropertyOp25
 70
     1
102
RTVSPropertyOp26
 70
     1
102
RTVSPropertyOp27
 70
     1
102
RTVSPropertyOp28
 70
     1
102
RTVSPropertyOp29
 70
     1
102
RTVSPropertyOp30
 70
     1
102
RTVSPropertyOp31
 70
     1
102
RTVSPropertyOp32
 70
     1
  0
XRECORD
  5
268
102
{ACAD_REACTORS
330
267
102
}
330
267
100
AcDbXrecord
280
     1
102
RTVSPropertyOp0
 70
     1
102
RTVSPropertyOp1
 70
     1
102
RTVSPropertyOp2
 70
     1
102
RTVSPropertyOp3
 70
     1
102
RTVSPropertyOp4
 70
     1
102
RTVSPropertyOp5
 70
     1
102
RTVSPropertyOp6
 70
     1
102
RTVSPropertyOp7
 70
     1
102
RTVSPropertyOp8
 70
     1
102
RTVSPropertyOp9
 70
     1
102
RTVSPropertyOp10
 70
     1
102
RTVSPropertyOp11
 70
     1
102
RTVSPropertyOp12
 70
     1
102
RTVSPropertyOp13
 70
     1
102
RTVSPropertyOp14
 70
     1
102
RTVSPropertyOp15
 70
     1
102
RTVSPropertyOp16
 70
     1
102
RTVSPropertyOp17
 70
     1
102
RTVSPropertyOp18
 70
     1
102
RTVSPropertyOp19
 70
     1
102
RTVSPropertyOp20
 70
     1
102
RTVSPropertyOp21
 70
     1
102
RTVSPropertyOp22
 70
     1
102
RTVSPropertyOp23
 70
     1
102
RTVSPropertyOp24
 70
     1
102
RTVSPropertyOp25
 70
     1
102
RTVSPropertyOp26
 70
     1
102
RTVSPropertyOp27
 70
     1
102
RTVSPropertyOp28
 70
     1
102
RTVSPropertyOp29
 70
     1
102
RTVSPropertyOp30
 70
     1
102
RTVSPropertyOp31
 70
     1
102
RTVSPropertyOp32
 70
     1
  0
XRECORD
  5
270
102
{ACAD_REACTORS
330
26F
102
}
330
26F
100
AcDbXrecord
280
     1
102
RTVSPropertyOp0
 70
     1
102
RTVSPropertyOp1
 70
     1
102
RTVSPropertyOp2
 70
     1
102
RTVSPropertyOp3
 70
     1
102
RTVSPropertyOp4
 70
     1
102
RTVSPropertyOp5
 70
     1
102
RTVSPropertyOp6
 70
     1
102
RTVSPropertyOp7
 70
     1
102
RTVSPropertyOp8
 70
     1
102
RTVSPropertyOp9
 70
     1
102
RTVSPropertyOp10
 70
     1
102
RTVSPropertyOp11
 70
     1
102
RTVSPropertyOp12
 70
     1
102
RTVSPropertyOp13
 70
     1
102
RTVSPropertyOp14
 70
     1
102
RTVSPropertyOp15
 70
     1
102
RTVSPropertyOp16
 70
     1
102
RTVSPropertyOp17
 70
     1
102
RTVSPropertyOp18
 70
     1
102
RTVSPropertyOp19
 70
     1
102
RTVSPropertyOp20
 70
     1
102
RTVSPropertyOp21
 70
     1
102
RTVSPropertyOp22
 70
     1
102
RTVSPropertyOp23
 70
     1
102
RTVSPropertyOp24
 70
     1
102
RTVSPropertyOp25
 70
     1
102
RTVSPropertyOp26
 70
     1
102
RTVSPropertyOp27
 70
     1
102
RTVSPropertyOp28
 70
     1
102
RTVSPropertyOp29
 70
     1
102
RTVSPropertyOp30
 70
     1
102
RTVSPropertyOp31
 70
     1
102
RTVSPropertyOp32
 70
     1
  0
XRECORD
  5
264
102
{ACAD_REACTORS
330
263
102
}
330
263
100
AcDbXrecord
280
     1
102
RTVSPropertyOp0
 70
     1
102
RTVSPropertyOp1
 70
     1
102
RTVSPropertyOp2
 70
     1
102
RTVSPropertyOp3
 70
     1
102
RTVSPropertyOp4
 70
     1
102
RTVSPropertyOp5
 70
     1
102
RTVSPropertyOp6
 70
     1
102
RTVSPropertyOp7
 70
     1
102
RTVSPropertyOp8
 70
     1
102
RTVSPropertyOp9
 70
     1
102
RTVSPropertyOp10
 70
     1
102
RTVSPropertyOp11
 70
     1
102
RTVSPropertyOp12
 70
     1
102
RTVSPropertyOp13
 70
     1
102
RTVSPropertyOp14
 70
     1
102
RTVSPropertyOp15
 70
     1
102
RTVSPropertyOp16
 70
     1
102
RTVSPropertyOp17
 70
     1
102
RTVSPropertyOp18
 70
     1
102
RTVSPropertyOp19
 70
     1
102
RTVSPropertyOp20
 70
     1
102
RTVSPropertyOp21
 70
     1
102
RTVSPropertyOp22
 70
     1
102
RTVSPropertyOp23
 70
     1
102
RTVSPropertyOp24
 70
     1
102
RTVSPropertyOp25
 70
     1
102
RTVSPropertyOp26
 70
     1
102
RTVSPropertyOp27
 70
     1
102
RTVSPropertyOp28
 70
     1
102
RTVSPropertyOp29
 70
     1
102
RTVSPropertyOp30
 70
     1
102
RTVSPropertyOp31
 70
     1
102
RTVSPropertyOp32
 70
     1
  0
XRECORD
  5
266
102
{ACAD_REACTORS
330
265
102
}
330
265
100
AcDbXrecord
280
     1
102
RTVSPropertyOp0
 70
     1
102
RTVSPropertyOp1
 70
     1
102
RTVSPropertyOp2
 70
     1
102
RTVSPropertyOp3
 70
     1
102
RTVSPropertyOp4
 70
     1
102
RTVSPropertyOp5
 70
     1
102
RTVSPropertyOp6
 70
     1
102
RTVSPropertyOp7
 70
     1
102
RTVSPropertyOp8
 70
     1
102
RTVSPropertyOp9
 70
     1
102
RTVSPropertyOp10
 70
     1
102
RTVSPropertyOp11
 70
     1
102
RTVSPropertyOp12
 70
     1
102
RTVSPropertyOp13
 70
     1
102
RTVSPropertyOp14
 70
     1
102
RTVSPropertyOp15
 70
     1
102
RTVSPropertyOp16
 70
     1
102
RTVSPropertyOp17
 70
     1
102
RTVSPropertyOp18
 70
     1
102
RTVSPropertyOp19
 70
     1
102
RTVSPropertyOp20
 70
     1
102
RTVSPropertyOp21
 70
     1
102
RTVSPropertyOp22
 70
     1
102
RTVSPropertyOp23
 70
     1
102
RTVSPropertyOp24
 70
     1
102
RTVSPropertyOp25
 70
     1
102
RTVSPropertyOp26
 70
     1
102
RTVSPropertyOp27
 70
     1
102
RTVSPropertyOp28
 70
     1
102
RTVSPropertyOp29
 70
     1
102
RTVSPropertyOp30
 70
     1
102
RTVSPropertyOp31
 70
     1
102
RTVSPropertyOp32
 70
     1
  0
XRECORD
  5
26E
102
{ACAD_REACTORS
330
26D
102
}
330
26D
100
AcDbXrecord
280
     1
102
RTVSPropertyOp0
 70
     1
102
RTVSPropertyOp1
 70
     1
102
RTVSPropertyOp2
 70
     1
102
RTVSPropertyOp3
 70
     1
102
RTVSPropertyOp4
 70
     1
102
RTVSPropertyOp5
 70
     1
102
RTVSPropertyOp6
 70
     1
102
RTVSPropertyOp7
 70
     1
102
RTVSPropertyOp8
 70
     1
102
RTVSPropertyOp9
 70
     1
102
RTVSPropertyOp10
 70
     1
102
RTVSPropertyOp11
 70
     1
102
RTVSPropertyOp12
 70
     1
102
RTVSPropertyOp13
 70
     1
102
RTVSPropertyOp14
 70
     1
102
RTVSPropertyOp15
 70
     1
102
RTVSPropertyOp16
 70
     1
102
RTVSPropertyOp17
 70
     1
102
RTVSPropertyOp18
 70
     1
102
RTVSPropertyOp19
 70
     1
102
RTVSPropertyOp20
 70
     1
102
RTVSPropertyOp21
 70
     1
102
RTVSPropertyOp22
 70
     1
102
RTVSPropertyOp23
 70
     1
102
RTVSPropertyOp24
 70
     1
102
RTVSPropertyOp25
 70
     1
102
RTVSPropertyOp26
 70
     1
102
RTVSPropertyOp27
 70
     1
102
RTVSPropertyOp28
 70
     1
102
RTVSPropertyOp29
 70
     1
102
RTVSPropertyOp30
 70
     1
102
RTVSPropertyOp31
 70
     1
102
RTVSPropertyOp32
 70
     1
  0
XRECORD
  5
252
102
{ACAD_REACTORS
330
251
102
}
330
251
100
AcDbXrecord
280
     1
102
RTVSPropertyOp0
 70
     1
102
RTVSPropertyOp1
 70
     1
102
RTVSPropertyOp2
 70
     1
102
RTVSPropertyOp3
 70
     1
102
RTVSPropertyOp4
 70
     1
102
RTVSPropertyOp5
 70
     1
102
RTVSPropertyOp6
 70
     1
102
RTVSPropertyOp7
 70
     1
102
RTVSPropertyOp8
 70
     1
102
RTVSPropertyOp9
 70
     1
102
RTVSPropertyOp10
 70
     1
102
RTVSPropertyOp11
 70
     1
102
RTVSPropertyOp12
 70
     1
102
RTVSPropertyOp13
 70
     1
102
RTVSPropertyOp14
 70
     1
102
RTVSPropertyOp15
 70
     1
102
RTVSPropertyOp16
 70
     1
102
RTVSPropertyOp17
 70
     1
102
RTVSPropertyOp18
 70
     1
102
RTVSPropertyOp19
 70
     1
102
RTVSPropertyOp20
 70
     1
102
RTVSPropertyOp21
 70
     1
102
RTVSPropertyOp22
 70
     1
102
RTVSPropertyOp23
 70
     1
102
RTVSPropertyOp24
 70
     1
102
RTVSPropertyOp25
 70
     1
102
RTVSPropertyOp26
 70
     1
102
RTVSPropertyOp27
 70
     1
102
RTVSPropertyOp28
 70
     1
102
RTVSPropertyOp29
 70
     1
102
RTVSPropertyOp30
 70
     1
102
RTVSPropertyOp31
 70
     1
102
RTVSPropertyOp32
 70
     1
  0
XRECORD
  5
254
102
{ACAD_REACTORS
330
253
102
}
330
253
100
AcDbXrecord
280
     1
102
RTVSPropertyOp0
 70
     1
102
RTVSPropertyOp1
 70
     1
102
RTVSPropertyOp2
 70
     1
102
RTVSPropertyOp3
 70
     1
102
RTVSPropertyOp4
 70
     1
102
RTVSPropertyOp5
 70
     1
102
RTVSPropertyOp6
 70
     1
102
RTVSPropertyOp7
 70
     1
102
RTVSPropertyOp8
 70
     1
102
RTVSPropertyOp9
 70
     1
102
RTVSPropertyOp10
 70
     1
102
RTVSPropertyOp11
 70
     1
102
RTVSPropertyOp12
 70
     1
102
RTVSPropertyOp13
 70
     1
102
RTVSPropertyOp14
 70
     1
102
RTVSPropertyOp15
 70
     1
102
RTVSPropertyOp16
 70
     1
102
RTVSPropertyOp17
 70
     1
102
RTVSPropertyOp18
 70
     1
102
RTVSPropertyOp19
 70
     1
102
RTVSPropertyOp20
 70
     1
102
RTVSPropertyOp21
 70
     1
102
RTVSPropertyOp22
 70
     1
102
RTVSPropertyOp23
 70
     1
102
RTVSPropertyOp24
 70
     1
102
RTVSPropertyOp25
 70
     1
102
RTVSPropertyOp26
 70
     1
102
RTVSPropertyOp27
 70
     1
102
RTVSPropertyOp28
 70
     1
102
RTVSPropertyOp29
 70
     1
102
RTVSPropertyOp30
 70
     1
102
RTVSPropertyOp31
 70
     1
102
RTVSPropertyOp32
 70
     1
  0
XRECORD
  5
256
102
{ACAD_REACTORS
330
255
102
}
330
255
100
AcDbXrecord
280
     1
102
RTVSPropertyOp0
 70
     1
102
RTVSPropertyOp1
 70
     1
102
RTVSPropertyOp2
 70
     1
102
RTVSPropertyOp3
 70
     1
102
RTVSPropertyOp4
 70
     1
102
RTVSPropertyOp5
 70
     1
102
RTVSPropertyOp6
 70
     1
102
RTVSPropertyOp7
 70
     1
102
RTVSPropertyOp8
 70
     1
102
RTVSPropertyOp9
 70
     1
102
RTVSPropertyOp10
 70
     1
102
RTVSPropertyOp11
 70
     1
102
RTVSPropertyOp12
 70
     1
102
RTVSPropertyOp13
 70
     1
102
RTVSPropertyOp14
 70
     1
102
RTVSPropertyOp15
 70
     1
102
RTVSPropertyOp16
 70
     1
102
RTVSPropertyOp17
 70
     1
102
RTVSPropertyOp18
 70
     1
102
RTVSPropertyOp19
 70
     1
102
RTVSPropertyOp20
 70
     1
102
RTVSPropertyOp21
 70
     1
102
RTVSPropertyOp22
 70
     1
102
RTVSPropertyOp23
 70
     1
102
RTVSPropertyOp24
 70
     1
102
RTVSPropertyOp25
 70
     1
102
RTVSPropertyOp26
 70
     1
102
RTVSPropertyOp27
 70
     1
102
RTVSPropertyOp28
 70
     1
102
RTVSPropertyOp29
 70
     1
102
RTVSPropertyOp30
 70
     1
102
RTVSPropertyOp31
 70
     1
102
RTVSPropertyOp32
 70
     1
  0
XRECORD
  5
258
102
{ACAD_REACTORS
330
257
102
}
330
257
100
AcDbXrecord
280
     1
102
RTVSPropertyOp0
 70
     1
102
RTVSPropertyOp1
 70
     1
102
RTVSPropertyOp2
 70
     1
102
RTVSPropertyOp3
 70
     1
102
RTVSPropertyOp4
 70
     1
102
RTVSPropertyOp5
 70
     1
102
RTVSPropertyOp6
 70
     1
102
RTVSPropertyOp7
 70
     1
102
RTVSPropertyOp8
 70
     1
102
RTVSPropertyOp9
 70
     1
102
RTVSPropertyOp10
 70
     1
102
RTVSPropertyOp11
 70
     1
102
RTVSPropertyOp12
 70
     1
102
RTVSPropertyOp13
 70
     1
102
RTVSPropertyOp14
 70
     1
102
RTVSPropertyOp15
 70
     1
102
RTVSPropertyOp16
 70
     1
102
RTVSPropertyOp17
 70
     1
102
RTVSPropertyOp18
 70
     1
102
RTVSPropertyOp19
 70
     1
102
RTVSPropertyOp20
 70
     1
102
RTVSPropertyOp21
 70
     1
102
RTVSPropertyOp22
 70
     1
102
RTVSPropertyOp23
 70
     1
102
RTVSPropertyOp24
 70
     1
102
RTVSPropertyOp25
 70
     1
102
RTVSPropertyOp26
 70
     1
102
RTVSPropertyOp27
 70
     1
102
RTVSPropertyOp28
 70
     1
102
RTVSPropertyOp29
 70
     1
102
RTVSPropertyOp30
 70
     1
102
RTVSPropertyOp31
 70
     1
102
RTVSPropertyOp32
 70
     1
  0
XRECORD
  5
26C
102
{ACAD_REACTORS
330
26B
102
}
330
26B
100
AcDbXrecord
280
     1
102
RTVSPropertyOp0
 70
     1
102
RTVSPropertyOp1
 70
     1
102
RTVSPropertyOp2
 70
     1
102
RTVSPropertyOp3
 70
     1
102
RTVSPropertyOp4
 70
     1
102
RTVSPropertyOp5
 70
     1
102
RTVSPropertyOp6
 70
     1
102
RTVSPropertyOp7
 70
     1
102
RTVSPropertyOp8
 70
     1
102
RTVSPropertyOp9
 70
     1
102
RTVSPropertyOp10
 70
     1
102
RTVSPropertyOp11
 70
     1
102
RTVSPropertyOp12
 70
     1
102
RTVSPropertyOp13
 70
     1
102
RTVSPropertyOp14
 70
     1
102
RTVSPropertyOp15
 70
     1
102
RTVSPropertyOp16
 70
     1
102
RTVSPropertyOp17
 70
     1
102
RTVSPropertyOp18
 70
     1
102
RTVSPropertyOp19
 70
     1
102
RTVSPropertyOp20
 70
     1
102
RTVSPropertyOp21
 70
     1
102
RTVSPropertyOp22
 70
     1
102
RTVSPropertyOp23
 70
     1
102
RTVSPropertyOp24
 70
     1
102
RTVSPropertyOp25
 70
     1
102
RTVSPropertyOp26
 70
     1
102
RTVSPropertyOp27
 70
     1
102
RTVSPropertyOp28
 70
     1
102
RTVSPropertyOp29
 70
     1
102
RTVSPropertyOp30
 70
     1
102
RTVSPropertyOp31
 70
     1
102
RTVSPropertyOp32
 70
     1
  0
XRECORD
  5
262
102
{ACAD_REACTORS
330
261
102
}
330
261
100
AcDbXrecord
280
     1
102
RTVSPropertyOp0
 70
     1
102
RTVSPropertyOp1
 70
     1
102
RTVSPropertyOp2
 70
     1
102
RTVSPropertyOp3
 70
     1
102
RTVSPropertyOp4
 70
     1
102
RTVSPropertyOp5
 70
     1
102
RTVSPropertyOp6
 70
     1
102
RTVSPropertyOp7
 70
     1
102
RTVSPropertyOp8
 70
     1
102
RTVSPropertyOp9
 70
     1
102
RTVSPropertyOp10
 70
     1
102
RTVSPropertyOp11
 70
     1
102
RTVSPropertyOp12
 70
     1
102
RTVSPropertyOp13
 70
     1
102
RTVSPropertyOp14
 70
     1
102
RTVSPropertyOp15
 70
     1
102
RTVSPropertyOp16
 70
     1
102
RTVSPropertyOp17
 70
     1
102
RTVSPropertyOp18
 70
     1
102
RTVSPropertyOp19
 70
     1
102
RTVSPropertyOp20
 70
     1
102
RTVSPropertyOp21
 70
     1
102
RTVSPropertyOp22
 70
     1
102
RTVSPropertyOp23
 70
     1
102
RTVSPropertyOp24
 70
     1
102
RTVSPropertyOp25
 70
     1
102
RTVSPropertyOp26
 70
     1
102
RTVSPropertyOp27
 70
     1
102
RTVSPropertyOp28
 70
     1
102
RTVSPropertyOp29
 70
     1
102
RTVSPropertyOp30
 70
     1
102
RTVSPropertyOp31
 70
     1
102
RTVSPropertyOp32
 70
     1
  0
XRECORD
  5
26A
102
{ACAD_REACTORS
330
269
102
}
330
269
100
AcDbXrecord
280
     1
102
RTVSPropertyOp0
 70
     1
102
RTVSPropertyOp1
 70
     1
102
RTVSPropertyOp2
 70
     1
102
RTVSPropertyOp3
 70
     1
102
RTVSPropertyOp4
 70
     1
102
RTVSPropertyOp5
 70
     1
102
RTVSPropertyOp6
 70
     1
102
RTVSPropertyOp7
 70
     1
102
RTVSPropertyOp8
 70
     1
102
RTVSPropertyOp9
 70
     1
102
RTVSPropertyOp10
 70
     1
102
RTVSPropertyOp11
 70
     1
102
RTVSPropertyOp12
 70
     1
102
RTVSPropertyOp13
 70
     1
102
RTVSPropertyOp14
 70
     1
102
RTVSPropertyOp15
 70
     1
102
RTVSPropertyOp16
 70
     1
102
RTVSPropertyOp17
 70
     1
102
RTVSPropertyOp18
 70
     1
102
RTVSPropertyOp19
 70
     1
102
RTVSPropertyOp20
 70
     1
102
RTVSPropertyOp21
 70
     1
102
RTVSPropertyOp22
 70
     1
102
RTVSPropertyOp23
 70
     1
102
RTVSPropertyOp24
 70
     1
102
RTVSPropertyOp25
 70
     1
102
RTVSPropertyOp26
 70
     1
102
RTVSPropertyOp27
 70
     1
102
RTVSPropertyOp28
 70
     1
102
RTVSPropertyOp29
 70
     1
102
RTVSPropertyOp30
 70
     1
102
RTVSPropertyOp31
 70
     1
102
RTVSPropertyOp32
 70
     1
  0
ENDSEC
  0
EOF
