  0
SECTION
  2
HEADER
  9
$ACADVER
  1
AC1018
  9
$ACADMAINTVER
 70
     0
  9
$DWGCODEPAGE
  3
ANSI_1252
  9
$INSBASE
 10
0.0
 20
0.0
 30
0.0
  9
$EXTMIN
 10
-390.0000139999891
 20
-263.0000062879215
 30
0.0
  9
$EXTMAX
 10
-93.00001399999098
 20
-53.00000628792137
 30
0.0
  9
$LIMMIN
 10
0.0
 20
0.0
  9
$LIMMAX
 10
12.0
 20
9.0
  9
$ORTHOMODE
 70
     0
  9
$REGENMODE
 70
     1
  9
$FILLMODE
 70
     1
  9
$QTEXTMODE
 70
     0
  9
$MIRRTEXT
 70
     1
  9
$LTSCALE
 40
1.0
  9
$ATTMODE
 70
     1
  9
$TEXTSIZE
 40
0.2
  9
$TRACEWID
 40
0.05
  9
$TEXTSTYLE
  7
Standard
  9
$CLAYER
  8
0
  9
$CELTYPE
  6
ByLayer
  9
$CECOLOR
 62
   256
  9
$CELTSCALE
 40
1.0
  9
$DISPSILH
 70
     0
  9
$DIMSCALE
 40
1.0
  9
$DIMASZ
 40
0.18
  9
$DIMEXO
 40
0.0625
  9
$DIMDLI
 40
0.38
  9
$DIMRND
 40
0.0
  9
$DIMDLE
 40
0.0
  9
$DIMEXE
 40
0.18
  9
$DIMTP
 40
0.0
  9
$DIMTM
 40
0.0
  9
$DIMTXT
 40
0.18
  9
$DIMCEN
 40
0.09
  9
$DIMTSZ
 40
0.0
  9
$DIMTOL
 70
     0
  9
$DIMLIM
 70
     0
  9
$DIMTIH
 70
     1
  9
$DIMTOH
 70
     1
  9
$DIMSE1
 70
     0
  9
$DIMSE2
 70
     0
  9
$DIMTAD
 70
     0
  9
$DIMZIN
 70
     0
  9
$DIMBLK
  1

  9
$DIMASO
 70
     1
  9
$DIMSHO
 70
     1
  9
$DIMPOST
  1

  9
$DIMAPOST
  1

  9
$DIMALT
 70
     0
  9
$DIMALTD
 70
     2
  9
$DIMALTF
 40
25.4
  9
$DIMLFAC
 40
1.0
  9
$DIMTOFL
 70
     0
  9
$DIMTVP
 40
0.0
  9
$DIMTIX
 70
     0
  9
$DIMSOXD
 70
     0
  9
$DIMSAH
 70
     0
  9
$DIMBLK1
  1

  9
$DIMBLK2
  1

  9
$DIMSTYLE
  2
Standard
  9
$DIMCLRD
 70
     0
  9
$DIMCLRE
 70
     0
  9
$DIMCLRT
 70
     0
  9
$DIMTFAC
 40
1.0
  9
$DIMGAP
 40
0.09
  9
$DIMJUST
 70
     0
  9
$DIMSD1
 70
     0
  9
$DIMSD2
 70
     0
  9
$DIMTOLJ
 70
     1
  9
$DIMTZIN
 70
     0
  9
$DIMALTZ
 70
     0
  9
$DIMALTTZ
 70
     0
  9
$DIMUPT
 70
     0
  9
$DIMDEC
 70
     4
  9
$DIMTDEC
 70
     4
  9
$DIMALTU
 70
     2
  9
$DIMALTTD
 70
     2
  9
$DIMTXSTY
  7
Standard
  9
$DIMAUNIT
 70
     0
  9
$DIMADEC
 70
     0
  9
$DIMALTRND
 40
0.0
  9
$DIMAZIN
 70
     0
  9
$DIMDSEP
 70
    46
  9
$DIMATFIT
 70
     3
  9
$DIMFRAC
 70
     0
  9
$DIMLDRBLK
  1

  9
$DIMLUNIT
 70
     2
  9
$DIMLWD
 70
    -2
  9
$DIMLWE
 70
    -2
  9
$DIMTMOVE
 70
     0
  9
$LUNITS
 70
     2
  9
$LUPREC
 70
     4
  9
$SKETCHINC
 40
0.1
  9
$FILLETRAD
 40
0.5
  9
$AUNITS
 70
     0
  9
$AUPREC
 70
     0
  9
$MENU
  1
.
  9
$ELEVATION
 40
0.0
  9
$PELEVATION
 40
0.0
  9
$THICKNESS
 40
0.0
  9
$LIMCHECK
 70
     0
  9
$CHAMFERA
 40
0.5
  9
$CHAMFERB
 40
0.5
  9
$CHAMFERC
 40
1.0
  9
$CHAMFERD
 40
0.0
  9
$SKPOLY
 70
     0
  9
$TDCREATE
 40
2458263.655090312
  9
$TDUCREATE
 40
2458263.571756979
  9
$TDUPDATE
 40
2458263.655090671
  9
$TDUUPDATE
 40
2458263.571757338
  9
$TDINDWG
 40
0.0000000116
  9
$TDUSRTIMER
 40
0.0000000116
  9
$USRTIMER
 70
     1
  9
$ANGBASE
 50
0.0
  9
$ANGDIR
 70
     0
  9
$PDMODE
 70
     0
  9
$PDSIZE
 40
0.0
  9
$PLINEWID
 40
0.0
  9
$SPLFRAME
 70
     0
  9
$SPLINETYPE
 70
     6
  9
$SPLINESEGS
 70
     8
  9
$HANDSEED
  5
279
  9
$SURFTAB1
 70
     6
  9
$SURFTAB2
 70
     6
  9
$SURFTYPE
 70
     6
  9
$SURFU
 70
     6
  9
$SURFV
 70
     6
  9
$UCSBASE
  2

  9
$UCSNAME
  2

  9
$UCSORG
 10
0.0
 20
0.0
 30
0.0
  9
$UCSXDIR
 10
1.0
 20
0.0
 30
0.0
  9
$UCSYDIR
 10
0.0
 20
1.0
 30
0.0
  9
$UCSORTHOREF
  2

  9
$UCSORTHOVIEW
 70
     0
  9
$UCSORGTOP
 10
0.0
 20
0.0
 30
0.0
  9
$UCSORGBOTTOM
 10
0.0
 20
0.0
 30
0.0
  9
$UCSORGLEFT
 10
0.0
 20
0.0
 30
0.0
  9
$UCSORGRIGHT
 10
0.0
 20
0.0
 30
0.0
  9
$UCSORGFRONT
 10
0.0
 20
0.0
 30
0.0
  9
$UCSORGBACK
 10
0.0
 20
0.0
 30
0.0
  9
$PUCSBASE
  2

  9
$PUCSNAME
  2

  9
$PUCSORG
 10
0.0
 20
0.0
 30
0.0
  9
$PUCSXDIR
 10
1.0
 20
0.0
 30
0.0
  9
$PUCSYDIR
 10
0.0
 20
1.0
 30
0.0
  9
$PUCSORTHOREF
  2

  9
$PUCSORTHOVIEW
 70
     0
  9
$PUCSORGTOP
 10
0.0
 20
0.0
 30
0.0
  9
$PUCSORGBOTTOM
 10
0.0
 20
0.0
 30
0.0
  9
$PUCSORGLEFT
 10
0.0
 20
0.0
 30
0.0
  9
$PUCSORGRIGHT
 10
0.0
 20
0.0
 30
0.0
  9
$PUCSORGFRONT
 10
0.0
 20
0.0
 30
0.0
  9
$PUCSORGBACK
 10
0.0
 20
0.0
 30
0.0
  9
$USERI1
 70
     0
  9
$USERI2
 70
     0
  9
$USERI3
 70
     0
  9
$USERI4
 70
     0
  9
$USERI5
 70
     0
  9
$USERR1
 40
18.1
  9
$USERR2
 40
0.0
  9
$USERR3
 40
0.0
  9
$USERR4
 40
0.0
  9
$USERR5
 40
0.0
  9
$WORLDVIEW
 70
     1
  9
$SHADEDGE
 70
     3
  9
$SHADEDIF
 70
    70
  9
$TILEMODE
 70
     1
  9
$MAXACTVP
 70
    64
  9
$PINSBASE
 10
0.0
 20
0.0
 30
0.0
  9
$PLIMCHECK
 70
     0
  9
$PEXTMIN
 10
1.00000000000000E+20
 20
1.00000000000000E+20
 30
1.00000000000000E+20
  9
$PEXTMAX
 10
-1.00000000000000E+20
 20
-1.00000000000000E+20
 30
-1.00000000000000E+20
  9
$PLIMMIN
 10
0.0
 20
0.0
  9
$PLIMMAX
 10
12.0
 20
9.0
  9
$UNITMODE
 70
     0
  9
$VISRETAIN
 70
     1
  9
$PLINEGEN
 70
     0
  9
$PSLTSCALE
 70
     1
  9
$TREEDEPTH
 70
  3020
  9
$CMLSTYLE
  2
Standard
  9
$CMLJUST
 70
     0
  9
$CMLSCALE
 40
1.0
  9
$PROXYGRAPHICS
 70
     1
  9
$MEASUREMENT
 70
     1
  9
$CELWEIGHT
370
    -1
  9
$ENDCAPS
280
     0
  9
$JOINSTYLE
280
     0
  9
$LWDISPLAY
290
     0
  9
$INSUNITS
 70
     4
  9
$HYPERLINKBASE
  1

  9
$STYLESHEET
  1

  9
$XEDIT
290
     1
  9
$CEPSNTYPE
380
     0
  9
$PSTYLEMODE
290
     1
  9
$FINGERPRINTGUID
  2
{42C9C343-0A98-47CE-B55C-F18012C04FB4}
  9
$VERSIONGUID
  2
{FAEB1C32-E019-11D5-929B-00C0DF256EC4}
  9
$EXTNAMES
290
     1
  9
$PSVPSCALE
 40
0.0
  9
$OLESTARTUP
290
     0
  9
$SORTENTS
280
   127
  9
$INDEXCTL
280
     0
  9
$HIDETEXT
280
     1
  9
$XCLIPFRAME
290
     0
  9
$HALOGAP
280
     0
  9
$OBSCOLOR
 70
   257
  9
$OBSLTYPE
280
     0
  9
$INTERSECTIONDISPLAY
280
     0
  9
$INTERSECTIONCOLOR
 70
   257
  9
$DIMASSOC
280
     2
  9
$PROJECTNAME
  1

  0
ENDSEC
  0
SECTION
  2
CLASSES
  0
CLASS
  1
ACDBDICTIONARYWDFLT
  2
AcDbDictionaryWithDefault
  3
ObjectDBX Classes
 90
        0
 91
        4
280
     0
281
     0
  0
CLASS
  1
VISUALSTYLE
  2
AcDbVisualStyle
  3
ObjectDBX Classes
 90
     4095
 91
        4
280
     0
281
     0
  0
CLASS
  1
MATERIAL
  2
AcDbMaterial
  3
ObjectDBX Classes
 90
     1153
 91
        4
280
     0
281
     0
  0
ENDSEC
  0
SECTION
  2
TABLES
  0
TABLE
  2
VPORT
  5
8
330
0
100
AcDbSymbolTable
 70
     1
  0
VPORT
  5
29
330
8
100
AcDbSymbolTableRecord
100
AcDbViewportTableRecord
  2
*Active
 70
     0
 10
0.0
 20
0.0
 11
1.0
 21
1.0
 12
-241.50001399999
 22
-158.0000062879215
 13
0.0
 23
0.0
 14
0.5
 24
0.5
 15
0.5
 25
0.5
 16
0.0
 26
0.0
 36
1.0
 17
0.0
 27
0.0
 37
0.0
 40
231.0000000000002
 41
1.60267857142857
 42
50.0
 43
0.0
 44
0.0
 50
0.0
 51
0.0
 71
     0
 72
   100
 73
     1
 74
     3
 75
     0
 76
     0
 77
     0
 78
     0
281
     0
 65
     1
110
0.0
120
0.0
130
0.0
111
1.0
121
0.0
131
0.0
112
0.0
122
1.0
132
0.0
 79
     0
146
0.0
  0
ENDTAB
  0
TABLE
  2
LTYPE
  5
5
330
0
100
AcDbSymbolTable
 70
     8
  0
LTYPE
  5
14
330
5
100
AcDbSymbolTableRecord
100
AcDbLinetypeTableRecord
  2
ByBlock
 70
     0
  3

 72
    65
 73
     0
 40
0.0
  0
LTYPE
  5
15
330
5
100
AcDbSymbolTableRecord
100
AcDbLinetypeTableRecord
  2
ByLayer
 70
     0
  3

 72
    65
 73
     0
 40
0.0
  0
LTYPE
  5
16
330
5
100
AcDbSymbolTableRecord
100
AcDbLinetypeTableRecord
  2
Continuous
 70
     0
  3
Solid line
 72
    65
 73
     0
 40
0.0
  0
LTYPE
  5
3F
330
5
100
AcDbSymbolTableRecord
100
AcDbLinetypeTableRecord
  2
DASHED
 70
     0
  3
Dashed
 72
    65
 73
     2
 40
15.0
 49
7.0
 74
     0
 49
-8.0
 74
     0
  0
LTYPE
  5
40
330
5
100
AcDbSymbolTableRecord
100
AcDbLinetypeTableRecord
  2
DOTTED
 70
     0
  3
Dotted
 72
    65
 73
     2
 40
1.0
 49
0.0
 74
     0
 49
-1.0
 74
     0
  0
LTYPE
  5
41
330
5
100
AcDbSymbolTableRecord
100
AcDbLinetypeTableRecord
  2
DOT_CENTER
 70
     0
  3
Dot_Center
 72
    65
 73
     4
 40
14.0
 49
12.0
 74
     0
 49
-1.0
 74
     0
 49
0.0
 74
     0
 49
-1.0
 74
     0
  0
LTYPE
  5
42
330
5
100
AcDbSymbolTableRecord
100
AcDbLinetypeTableRecord
  2
LONG_DASHED
 70
     0
  3
Long_Dashed
 72
    65
 73
     2
 40
15.0
 49
10.0
 74
     0
 49
-5.0
 74
     0
  0
LTYPE
  5
43
330
5
100
AcDbSymbolTableRecord
100
AcDbLinetypeTableRecord
  2
DASH_CENTER
 70
     0
  3
Dash_Center
 72
    65
 73
     4
 40
14.0
 49
11.0
 74
     0
 49
-1.0
 74
     0
 49
1.0
 74
     0
 49
-1.0
 74
     0
  0
LTYPE
  5
44
330
5
100
AcDbSymbolTableRecord
100
AcDbLinetypeTableRecord
  2
PHANTOM
 70
     0
  3
Phantom
 72
    65
 73
     6
 40
13.0
 49
10.0
 74
     0
 49
-1.0
 74
     0
 49
0.0
 74
     0
 49
-1.0
 74
     0
 49
0.0
 74
     0
 49
-1.0
 74
     0
  0
LTYPE
  5
45
330
5
100
AcDbSymbolTableRecord
100
AcDbLinetypeTableRecord
  2
CENTER_DASH_DASH
 70
     0
  3
Center_Dash_Dash
 72
    65
 73
     6
 40
14.0
 49
9.0
 74
     0
 49
-1.0
 74
     0
 49
1.0
 74
     0
 49
-1.0
 74
     0
 49
1.0
 74
     0
 49
-1.0
 74
     0
  0
ENDTAB
  0
TABLE
  2
LAYER
  5
2
330
0
100
AcDbSymbolTable
 70
     2
  0
LAYER
  5
10
330
2
100
AcDbSymbolTableRecord
100
AcDbLayerTableRecord
  2
0
 70
     0
 62
     7
  6
Continuous
370
    -3
390
F
  0
LAYER
  5
46
330
2
100
AcDbSymbolTableRecord
100
AcDbLayerTableRecord
  2
1
 70
     0
 62
     7
  6
Continuous
370
    -3
390
F
  0
ENDTAB
  0
TABLE
  2
STYLE
  5
3
330
0
100
AcDbSymbolTable
 70
     5
  0
STYLE
  5
11
330
3
100
AcDbSymbolTableRecord
100
AcDbTextStyleTableRecord
  2
Standard
 70
     0
 40
0.0
 41
1.0
 50
0.0
 71
     0
 42
0.2
  3
txt
  4

  0
STYLE
  5
98
330
3
100
AcDbSymbolTableRecord
100
AcDbTextStyleTableRecord
  2
CONVERTER_11
 70
     0
 40
0.0
 41
0.9
 50
0.0
 71
     0
 42
0.2
  3
txt.shx
  4

  0
STYLE
  5
216
330
3
100
AcDbSymbolTableRecord
100
AcDbTextStyleTableRecord
  2
CONVERTER_12
 70
     0
 40
0.0
 41
0.81
 50
0.0
 71
     0
 42
0.2
  3
txt.shx
  4

  0
STYLE
  5
22C
330
3
100
AcDbSymbolTableRecord
100
AcDbTextStyleTableRecord
  2
CONVERTER_13
 70
     0
 40
0.0
 41
0.72
 50
0.0
 71
     0
 42
0.2
  3
txt.shx
  4

  0
STYLE
  5
22F
330
3
100
AcDbSymbolTableRecord
100
AcDbTextStyleTableRecord
  2
CONVERTER_14
 70
     0
 40
0.0
 41
0.855
 50
0.0
 71
     0
 42
0.2
  3
txt.shx
  4

  0
ENDTAB
  0
TABLE
  2
VIEW
  5
6
330
0
100
AcDbSymbolTable
 70
     0
  0
ENDTAB
  0
TABLE
  2
UCS
  5
7
330
0
100
AcDbSymbolTable
 70
     0
  0
ENDTAB
  0
TABLE
  2
APPID
  5
9
330
0
100
AcDbSymbolTable
 70
     1
  0
APPID
  5
12
330
9
100
AcDbSymbolTableRecord
100
AcDbRegAppTableRecord
  2
ACAD
 70
     0
  0
ENDTAB
  0
TABLE
  2
DIMSTYLE
  5
A
330
0
100
AcDbSymbolTable
 70
     2
100
AcDbDimStyleTable
  0
DIMSTYLE
105
27
330
A
100
AcDbSymbolTableRecord
100
AcDbDimStyleTableRecord
  2
Standard
 70
     0
178
     0
340
11
  0
DIMSTYLE
105
116
102
{ACAD_REACTORS
330
117
102
}
330
A
100
AcDbSymbolTableRecord
100
AcDbDimStyleTableRecord
  2
ME10_DIM_10
 70
     0
 41
3.5
 42
0.0
 44
1.5
 73
     0
 74
     0
 77
     1
 78
     8
140
3.5
147
1.5
172
     1
173
     1
174
     1
175
     1
176
     2
177
     2
271
     1
178
     3
271
     1
340
98
  0
ENDTAB
  0
TABLE
  2
BLOCK_RECORD
  5
1
330
0
100
AcDbSymbolTable
 70
    19
  0
BLOCK_RECORD
  5
1F
330
1
100
AcDbSymbolTableRecord
100
AcDbBlockTableRecord
  2
*Model_Space
340
22
  0
BLOCK_RECORD
  5
1B
330
1
100
AcDbSymbolTableRecord
100
AcDbBlockTableRecord
  2
*Paper_Space
340
1E
  0
BLOCK_RECORD
  5
23
330
1
100
AcDbSymbolTableRecord
100
AcDbBlockTableRecord
  2
*Paper_Space0
340
26
  0
BLOCK_RECORD
  5
47
330
1
100
AcDbSymbolTableRecord
100
AcDbBlockTableRecord
  2
HC_BS_PG21-select__1
340
0
102
{BLKREFS
331
4B
102
}
  0
BLOCK_RECORD
  5
4A
330
1
100
AcDbSymbolTableRecord
100
AcDbBlockTableRecord
  2
Allg1
340
0
102
{BLKREFS
331
7D
102
}
  0
BLOCK_RECORD
  5
4E
330
1
100
AcDbSymbolTableRecord
100
AcDbBlockTableRecord
  2
HC_BS_PG21-select__2
340
0
102
{BLKREFS
331
52
102
}
  0
BLOCK_RECORD
  5
51
330
1
100
AcDbSymbolTableRecord
100
AcDbBlockTableRecord
  2
Drfsicht1
340
0
102
{BLKREFS
331
7E
102
}
  0
BLOCK_RECORD
  5
55
330
1
100
AcDbSymbolTableRecord
100
AcDbBlockTableRecord
  2
HC_BS_PG21-select__3
340
0
102
{BLKREFS
331
59
102
}
  0
BLOCK_RECORD
  5
58
330
1
100
AcDbSymbolTableRecord
100
AcDbBlockTableRecord
  2
Rckans1
340
0
102
{BLKREFS
331
7F
102
}
  0
BLOCK_RECORD
  5
5C
330
1
100
AcDbSymbolTableRecord
100
AcDbBlockTableRecord
  2
HC_BS_PG21-select__4
340
0
102
{BLKREFS
331
60
102
}
  0
BLOCK_RECORD
  5
5F
330
1
100
AcDbSymbolTableRecord
100
AcDbBlockTableRecord
  2
SA_Links1
340
0
102
{BLKREFS
331
80
102
}
  0
BLOCK_RECORD
  5
63
330
1
100
AcDbSymbolTableRecord
100
AcDbBlockTableRecord
  2
HC_BS_PG21-select__5
340
0
102
{BLKREFS
331
67
102
}
  0
BLOCK_RECORD
  5
66
330
1
100
AcDbSymbolTableRecord
100
AcDbBlockTableRecord
  2
SA_Rechts1
340
0
102
{BLKREFS
331
81
102
}
  0
BLOCK_RECORD
  5
6A
330
1
100
AcDbSymbolTableRecord
100
AcDbBlockTableRecord
  2
HC_BS_PG21-select__6
340
0
102
{BLKREFS
331
6E
102
}
  0
BLOCK_RECORD
  5
6D
330
1
100
AcDbSymbolTableRecord
100
AcDbBlockTableRecord
  2
Vordans1
340
0
102
{BLKREFS
331
82
102
}
  0
BLOCK_RECORD
  5
71
330
1
100
AcDbSymbolTableRecord
100
AcDbBlockTableRecord
  2
_punkt
340
0
102
{BLKREFS
331
78
102
}
  0
BLOCK_RECORD
  5
74
330
1
100
AcDbSymbolTableRecord
100
AcDbBlockTableRecord
  2
_rahmen
340
0
102
{BLKREFS
331
79
102
}
  0
BLOCK_RECORD
  5
77
330
1
100
AcDbSymbolTableRecord
100
AcDbBlockTableRecord
  2
A4I_CS
340
0
102
{BLKREFS
331
83
102
}
  0
BLOCK_RECORD
  5
7C
330
1
100
AcDbSymbolTableRecord
100
AcDbBlockTableRecord
  2
1
340
0
102
{BLKREFS
331
86
102
}
  0
BLOCK_RECORD
  5
A2
330
1
100
AcDbSymbolTableRecord
100
AcDbBlockTableRecord
  2
*D17
340
0
102
{BLKREFS
331
AB
102
}
  0
BLOCK_RECORD
  5
10D
330
1
100
AcDbSymbolTableRecord
100
AcDbBlockTableRecord
  2
*D18
340
0
  0
ENDTAB
  0
ENDSEC
  0
SECTION
  2
BLOCKS
  0
BLOCK
  5
20
330
1F
100
AcDbEntity
  8
0
100
AcDbBlockBegin
  2
*Model_Space
 70
     0
 10
0.0
 20
0.0
 30
0.0
  3
*Model_Space
  1

  0
ENDBLK
  5
21
330
1F
100
AcDbEntity
  8
0
100
AcDbBlockEnd
  0
BLOCK
  5
1C
330
1B
100
AcDbEntity
 67
     1
  8
0
100
AcDbBlockBegin
  2
*Paper_Space
 70
     0
 10
0.0
 20
0.0
 30
0.0
  3
*Paper_Space
  1

  0
ENDBLK
  5
1D
330
1B
100
AcDbEntity
 67
     1
  8
0
100
AcDbBlockEnd
  0
BLOCK
  5
24
330
23
100
AcDbEntity
  8
0
100
AcDbBlockBegin
  2
*Paper_Space0
 70
     0
 10
0.0
 20
0.0
 30
0.0
  3
*Paper_Space0
  1

  0
ENDBLK
  5
25
330
23
100
AcDbEntity
  8
0
100
AcDbBlockEnd
  0
BLOCK
  5
48
330
47
100
AcDbEntity
  8
0
100
AcDbBlockBegin
  2
HC_BS_PG21-select__1
 70
     0
 10
-162.0796510000204
 20
-208.312480914379
 30
0.0
  3
HC_BS_PG21-select__1
  1

  0
LINE
  5
87
330
47
100
AcDbEntity
  8
0
  6
Continuous
 62
     7
100
AcDbLine
 10
-162.0796510000204
 20
-196.7388050025377
 30
0.0
 11
-162.0796510000204
 21
-195.4154250164924
 31
0.0
  0
LINE
  5
88
330
47
100
AcDbEntity
  8
0
  6
Continuous
 62
     7
100
AcDbLine
 10
-134.5796510000204
 20
-202.0215599656227
 30
0.0
 11
-134.5796510000204
 21
-200.8845859904819
 31
0.0
  0
LINE
  5
89
330
47
100
AcDbEntity
  8
0
  6
Continuous
 62
     7
100
AcDbLine
 10
-159.5796510000204
 20
-202.0215599656227
 30
0.0
 11
-159.5796510000204
 21
-200.8845859904819
 31
0.0
  0
LINE
  5
8A
330
47
100
AcDbEntity
  8
0
  6
Continuous
 62
     7
100
AcDbLine
 10
-132.0796510000204
 20
-196.7388050025377
 30
0.0
 11
-132.0796510000204
 21
-195.4154250164924
 31
0.0
  0
LINE
  5
8B
330
47
100
AcDbEntity
  8
0
  6
Continuous
 62
     7
100
AcDbLine
 10
-143.3342097173806
 20
-189.3341649795755
 30
0.0
 11
-152.557143090229
 21
-197.3214595778734
 31
0.0
  0
SPLINE
  5
8C
330
47
100
AcDbEntity
  8
0
  6
Continuous
 62
     7
100
AcDbSpline
210
0.0
220
0.0
230
1.0
 70
     8
 71
     3
 72
     9
 73
     5
 74
     3
 42
0.000000001
 43
0.0000000001
 44
0.00000001
 40
0.0
 40
0.0
 40
0.0
 40
0.0
 40
0.921350961904797
 40
1.803773216347667
 40
1.803773216347667
 40
1.803773216347667
 40
1.803773216347667
 10
-150.8250922826601
 20
-197.8214595778734
 30
0.0
 10
-151.1242272148662
 20
-197.7509403479509
 30
0.0
 10
-151.7098580941493
 20
-197.6128814309893
 30
0.0
 10
-152.2788077496596
 20
-197.417192426906
 30
0.0
 10
-152.557143090229
 20
-197.3214595778734
 30
0.0
 11
-150.8250922826601
 21
-197.8214595778734
 31
0.0
 11
-151.7181448227487
 21
-197.5948657645044
 31
0.0
 11
-152.557143090229
 21
-197.3214595778734
 31
0.0
  0
SPLINE
  5
8D
330
47
100
AcDbEntity
  8
0
  6
Continuous
 62
     7
100
AcDbSpline
210
0.0
220
0.0
230
1.0
 70
     8
 71
     3
 72
    11
 73
     7
 74
     5
 42
0.000000001
 43
0.0000000001
 44
0.00000001
 40
0.0
 40
0.0
 40
0.0
 40
0.0
 40
1.029858464387355
 40
1.965564049508477
 40
2.828515468629679
 40
3.651283483980599
 40
3.651283483980599
 40
3.651283483980599
 40
3.651283483980599
 10
-136.2543334527149
 20
-205.1465599656227
 30
0.0
 10
-136.0032324970603
 20
-204.9109680540456
 30
0.0
 10
-135.5239870303473
 20
-204.4613227697333
 30
0.0
 10
-134.9922557962968
 20
-203.6756038112387
 30
0.0
 10
-134.6448544264335
 20
-202.8600903610122
 30
0.0
 10
-134.6010373066045
 20
-202.2965926316214
 30
0.0
 10
-134.5796510000204
 20
-202.0215599656227
 30
0.0
 11
-136.2543334527149
 21
-205.1465599656227
 31
0.0
 11
-135.5311568917035
 21
-204.413331407948
 31
0.0
 11
-135.0055781714071
 21
-203.6391789975135
 31
0.0
 11
-134.6865902844377
 21
-202.8373486636021
 31
0.0
 11
-134.5796510000204
 21
-202.0215599656227
 31
0.0
  0
SPLINE
  5
8E
330
47
100
AcDbEntity
  8
0
  6
Continuous
 62
     7
100
AcDbSpline
210
0.0
220
0.0
230
1.0
 70
     8
 71
     3
 72
    21
 73
    17
 74
    15
 42
0.000000001
 43
0.0000000001
 44
0.00000001
 40
0.0
 40
0.0
 40
0.0
 40
0.0
 40
1.418647135257915
 40
2.971771193948151
 40
4.74834543907448
 40
6.783476014973346
 40
9.070957047032113
 40
11.57651873059867
 40
14.2472981452949
 40
17.01857877874982
 40
19.81911970259286
 40
22.57586072863998
 40
25.21847708645424
 40
27.68416676805016
 40
29.9231798462396
 40
31.9059884209225
 40
31.9059884209225
 40
31.9059884209225
 40
31.9059884209225
 10
-162.0796510000204
 20
-195.4154250164924
 30
0.0
 10
-162.0249722681143
 20
-195.8903235904567
 30
0.0
 10
-161.9104316701624
 20
-196.8851374965223
 30
0.0
 10
-161.0440285825148
 20
-198.2618084999914
 30
0.0
 10
-159.7537941106198
 20
-199.5095816523581
 30
0.0
 10
-158.0257314599177
 20
-200.6056753245294
 30
0.0
 10
-155.9357729677296
 20
-201.5220361548205
 30
0.0
 10
-153.5448103155967
 20
-202.2306680767401
 30
0.0
 10
-150.9344555867385
 20
-202.7080977776109
 30
0.0
 10
-148.192452418328
 20
-202.9379203083661
 30
0.0
 10
-145.4122831537299
 20
-202.9124273774056
 30
0.0
 10
-142.6897148120158
 20
-202.6315251053269
 30
0.0
 10
-140.1146512947356
 20
-202.108432219527
 30
0.0
 10
-137.7837864484715
 20
-201.3490333831519
 30
0.0
 10
-135.7420831693838
 20
-200.4174797366198
 30
0.0
 10
-134.6174581031933
 20
-199.5655431162417
 30
0.0
 10
-134.0892699432538
 20
-199.1654250164924
 30
0.0
 11
-162.0796510000204
 21
-195.4154250164924
 31
0.0
 11
-161.8181475768984
 21
-196.8097620208663
 31
0.0
 11
-161.0427572296834
 21
-198.1554826992404
 31
0.0
 11
-159.7805135389387
 21
-199.4056654491358
 31
0.0
 11
-158.0754290774678
 21
-200.5167205497743
 31
0.0
 11
-155.9869534683778
 21
-201.4499081511715
 31
0.0
 11
-153.5879070867837
 21
-202.1726915257606
 31
0.0
 11
-150.9619365391573
 21
-202.6598684572669
 31
0.0
 11
-148.2006024038168
 21
-202.8944534953513
 31
0.0
 11
-145.4001839179101
 21
-202.8682663269226
 31
0.0
 11
-142.6583233838568
 21
-202.5822210598885
 31
0.0
 11
-140.0706218239863
 21
-202.046290233099
 31
0.0
 11
-137.7273039721393
 21
-201.2791611350027
 31
0.0
 11
-135.7100755552278
 21
-200.3075804279364
 31
0.0
 11
-134.0892699432538
 21
-199.1654250164924
 31
0.0
  0
SPLINE
  5
8F
330
47
100
AcDbEntity
  8
0
  6
Continuous
 62
     7
100
AcDbSpline
210
0.0
220
0.0
230
1.0
 70
     8
 71
     3
 72
    11
 73
     7
 74
     5
 42
0.000000001
 43
0.0000000001
 44
0.00000001
 40
0.0
 40
0.0
 40
0.0
 40
0.0
 40
1.235830157217897
 40
2.358676859767567
 40
3.394218563251854
 40
4.381540182064028
 40
4.381540182064028
 40
4.381540182064028
 40
4.381540182064028
 10
-134.0892699432538
 20
-200.4888050025377
 30
0.0
 10
-133.7879487964797
 20
-200.2060947086558
 30
0.0
 10
-133.2128542342362
 20
-199.6665203693937
 30
0.0
 10
-132.5747767542979
 20
-198.7236576181943
 30
0.0
 10
-132.1578951088141
 20
-197.7450414778655
 30
0.0
 10
-132.1053145679315
 20
-197.0688442018669
 30
0.0
 10
-132.0796510000204
 20
-196.7388050025377
 30
0.0
 11
-134.0892699432538
 21
-200.4888050025377
 31
0.0
 11
-133.2214580700401
 21
-199.608930733328
 31
0.0
 11
-132.5907636056843
 21
-198.6799478408066
 31
0.0
 11
-132.2079781413211
 21
-197.7177514401129
 31
0.0
 11
-132.0796510000204
 21
-196.7388050025377
 31
0.0
  0
SPLINE
  5
90
330
47
100
AcDbEntity
  8
0
  6
Continuous
 62
     7
100
AcDbSpline
210
0.0
220
0.0
230
1.0
 70
     8
 71
     3
 72
    11
 73
     7
 74
     5
 42
0.000000001
 43
0.0000000001
 44
0.00000001
 40
0.0
 40
0.0
 40
0.0
 40
0.0
 40
1.235830157217816
 40
2.35867685976751
 40
3.394218563251771
 40
4.381540182064057
 40
4.381540182064057
 40
4.381540182064057
 40
4.381540182064057
 10
-134.0892699432538
 20
-199.1654250164924
 30
0.0
 10
-133.7879487964797
 20
-198.8827147226106
 30
0.0
 10
-133.2128542342361
 20
-198.3431403833485
 30
0.0
 10
-132.574776754298
 20
-197.4002776321491
 30
0.0
 10
-132.157895108814
 20
-196.4216614918203
 30
0.0
 10
-132.1053145679315
 20
-195.7454642158216
 30
0.0
 10
-132.0796510000204
 20
-195.4154250164924
 30
0.0
 11
-134.0892699432538
 21
-199.1654250164924
 31
0.0
 11
-133.2214580700401
 21
-198.2855507472828
 31
0.0
 11
-132.5907636056843
 21
-197.3565678547614
 31
0.0
 11
-132.2079781413211
 21
-196.3943714540677
 31
0.0
 11
-132.0796510000204
 21
-195.4154250164924
 31
0.0
  0
SPLINE
  5
91
330
47
100
AcDbEntity
  8
0
  6
Continuous
 62
     7
100
AcDbSpline
210
0.0
220
0.0
230
1.0
 70
     8
 71
     3
 72
    21
 73
    17
 74
    15
 42
0.000000001
 43
0.0000000001
 44
0.00000001
 40
0.0
 40
0.0
 40
0.0
 40
0.0
 40
1.418647135257859
 40
2.97177119394812
 40
4.748345439074409
 40
6.78347601497329
 40
9.070957047032046
 40
11.5765187305986
 40
14.24729814529481
 40
17.01857877874974
 40
19.81911970259278
 40
22.5758607286399
 40
25.21847708645413
 40
27.68416676805003
 40
29.92317984623948
 40
31.90598842092237
 40
31.90598842092237
 40
31.90598842092237
 40
31.90598842092237
 10
-162.0796510000204
 20
-196.7388050025377
 30
0.0
 10
-162.0249722681143
 20
-197.213703576502
 30
0.0
 10
-161.9104316701624
 20
-198.2085174825676
 30
0.0
 10
-161.0440285825148
 20
-199.5851884860367
 30
0.0
 10
-159.7537941106197
 20
-200.8329616384033
 30
0.0
 10
-158.0257314599177
 20
-201.9290553105747
 30
0.0
 10
-155.9357729677296
 20
-202.8454161408657
 30
0.0
 10
-153.5448103155966
 20
-203.5540480627853
 30
0.0
 10
-150.9344555867385
 20
-204.0314777636559
 30
0.0
 10
-148.192452418328
 20
-204.2613002944114
 30
0.0
 10
-145.4122831537299
 20
-204.2358073634507
 30
0.0
 10
-142.6897148120159
 20
-203.9549050913722
 30
0.0
 10
-140.1146512947356
 20
-203.4318122055721
 30
0.0
 10
-137.7837864484715
 20
-202.6724133691972
 30
0.0
 10
-135.7420831693838
 20
-201.740859722665
 30
0.0
 10
-134.6174581031934
 20
-200.8889231022868
 30
0.0
 10
-134.0892699432538
 20
-200.4888050025377
 30
0.0
 11
-162.0796510000204
 21
-196.7388050025377
 31
0.0
 11
-161.8181475768984
 21
-198.1331420069115
 31
0.0
 11
-161.0427572296834
 21
-199.4788626852857
 31
0.0
 11
-159.7805135389387
 21
-200.729045435181
 31
0.0
 11
-158.0754290774678
 21
-201.8401005358195
 31
0.0
 11
-155.9869534683778
 21
-202.7732881372167
 31
0.0
 11
-153.5879070867837
 21
-203.4960715118058
 31
0.0
 11
-150.9619365391573
 21
-203.983248443312
 31
0.0
 11
-148.2006024038168
 21
-204.2178334813965
 31
0.0
 11
-145.4001839179101
 21
-204.1916463129678
 31
0.0
 11
-142.6583233838568
 21
-203.9056010459337
 31
0.0
 11
-140.0706218239863
 21
-203.3696702191442
 31
0.0
 11
-137.7273039721394
 21
-202.6025411210479
 31
0.0
 11
-135.7100755552279
 21
-201.6309604139816
 31
0.0
 11
-134.0892699432538
 21
-200.4888050025377
 31
0.0
  0
SPLINE
  5
92
330
47
100
AcDbEntity
  8
0
  6
Continuous
 62
     7
100
AcDbSpline
210
0.0
220
0.0
230
1.0
 70
     8
 71
     3
 72
    25
 73
    21
 74
    19
 42
0.000000001
 43
0.0000000001
 44
0.00000001
 40
0.0
 40
0.0
 40
0.0
 40
0.0
 40
0.3777736189176674
 40
0.7600137297361756
 40
1.447505488290489
 40
2.146629757766805
 40
2.88645908951775
 40
3.63578029012502
 40
4.456344207185346
 40
5.200830576243659
 40
6.002503903720428
 40
6.80635592365756
 40
7.653431078986596
 40
8.411880731990884
 40
9.197525927494505
 40
9.976931647111961
 40
11.43586675822555
 40
12.85231919778079
 40
13.22296926774186
 40
13.61233268448262
 40
13.61233268448262
 40
13.61233268448262
 40
13.61233268448262
 10
-140.363062738081
 20
-203.4449112147814
 30
0.0
 10
-140.4837521133634
 20
-203.480857866854
 30
0.0
 10
-140.7265578023073
 20
-203.5531761612471
 30
0.0
 10
-141.192333367935
 20
-203.6792799393142
 30
0.0
 10
-141.7652837300178
 20
-203.818935988877
 30
0.0
 10
-142.4592642189212
 20
-203.9638061346738
 30
0.0
 10
-143.1778566166101
 20
-204.0897953727156
 30
0.0
 10
-143.9401940976335
 20
-204.198374183759
 30
0.0
 10
-144.707229002946
 20
-204.2822431612875
 30
0.0
 10
-145.4938853194678
 20
-204.3432554187189
 30
0.0
 10
-146.2764934531006
 20
-204.3799752824188
 30
0.0
 10
-147.0940573236791
 20
-204.3927286410301
 30
0.0
 10
-147.8972246074395
 20
-204.3795273554586
 30
0.0
 10
-148.6934848149197
 20
-204.3414854195125
 30
0.0
 10
-149.4657522374739
 20
-204.2809649108389
 30
0.0
 10
-150.4678149605655
 20
-204.1705023782558
 30
0.0
 10
-151.6721134883016
 20
-203.9810819282275
 30
0.0
 10
-152.7286565500361
 20
-203.7436790516249
 30
0.0
 10
-153.4290208238461
 20
-203.5542166115271
 30
0.0
 10
-153.671840061389
 20
-203.48193959409
 30
0.0
 10
-153.7962390728535
 20
-203.4449112621319
 30
0.0
 11
-140.363062738081
 21
-203.4449112147814
 31
0.0
 11
-140.7255632590042
 21
-203.5512422048133
 31
0.0
 11
-141.0944012648813
 21
-203.6515718000964
 31
0.0
 11
-141.762349916991
 21
-203.814327778204
 31
0.0
 11
-142.4466680121377
 21
-203.9574483451088
 31
0.0
 11
-143.1753549225241
 21
-204.0853656107067
 31
0.0
 11
-143.9171683314361
 21
-204.1911726415062
 31
0.0
 11
-144.7328555959479
 21
-204.2805002860441
 31
0.0
 11
-145.4751072167734
 21
-204.338141284649
 31
0.0
 11
-146.2758970483759
 21
-204.3757679924944
 31
0.0
 11
-147.0796510000204
 21
-204.388324055376
 31
0.0
 11
-147.9266113830398
 21
-204.374380316362
 31
0.0
 11
-148.6841947832675
 21
-204.3381412846489
 31
0.0
 11
-149.4674313206594
 21
-204.2766685325517
 31
0.0
 11
-150.2421336686046
 21
-204.1911726415062
 31
0.0
 11
-151.6831324985975
 21
-203.9631067968855
 31
0.0
 11
-153.0649007351594
 21
-203.6515718000964
 31
0.0
 11
-153.4225839717828
 21
-203.5543906468832
 31
0.0
 11
-153.7962390728535
 21
-203.4449112621319
 31
0.0
  0
SPLINE
  5
93
330
47
100
AcDbEntity
  8
0
  6
Continuous
 62
     7
100
AcDbSpline
210
0.0
220
0.0
230
1.0
 70
     8
 71
     3
 72
    21
 73
    17
 74
    15
 42
0.000000001
 43
0.0000000001
 44
0.00000001
 40
0.0
 40
0.0
 40
0.0
 40
0.0
 40
1.182205944421414
 40
2.47647599370145
 40
3.956954531563988
 40
5.652896678291993
 40
7.559130871778597
 40
9.647098941501666
 40
11.87274845382254
 40
14.18214898177003
 40
16.51593308503569
 40
18.81321727345961
 40
21.01539757165481
 40
23.07013897291706
 40
24.93598320503799
 40
26.58832368512308
 40
26.58832368512308
 40
26.58832368512308
 40
26.58832368512308
 10
-159.5796510000204
 20
-202.0215599656227
 30
0.0
 10
-159.5340853901613
 20
-202.417308776715
 30
0.0
 10
-159.4386348906529
 20
-203.2463203641894
 30
0.0
 10
-158.7166323212446
 20
-204.3935462020165
 30
0.0
 10
-157.6414369269957
 20
-205.4333571621786
 30
0.0
 10
-156.2013847183323
 20
-206.3467685560441
 30
0.0
 10
-154.4597526413544
 20
-207.1104025813947
 30
0.0
 10
-152.4672837645543
 20
-207.7009291831411
 30
0.0
 10
-150.2919881571077
 20
-208.0987872673094
 30
0.0
 10
-148.0069855167062
 20
-208.2903060430496
 30
0.0
 10
-145.6901777961526
 20
-208.2690619340017
 30
0.0
 10
-143.4213708446436
 20
-208.0349767073986
 30
0.0
 10
-141.2754845803267
 20
-207.5990659691315
 30
0.0
 10
-139.3330972080571
 20
-206.9662336058831
 30
0.0
 10
-137.6316778097193
 20
-206.1899388978127
 30
0.0
 10
-136.6944902529796
 20
-205.4799917156523
 30
0.0
 10
-136.2543334527149
 20
-205.1465599656227
 30
0.0
 11
-159.5796510000204
 21
-202.0215599656227
 31
0.0
 11
-159.361731480752
 21
-203.1835074692676
 31
0.0
 11
-158.715572858073
 21
-204.3049413679127
 31
0.0
 11
-157.6637031157858
 21
-205.3467603261589
 31
0.0
 11
-156.2427993978932
 21
-206.272639576691
 31
0.0
 11
-154.5024030569849
 21
-207.0502959111886
 31
0.0
 11
-152.5031977389899
 21
-207.6526153900128
 31
0.0
 11
-150.3148889493011
 21
-208.0585961662681
 31
0.0
 11
-148.0137771698506
 21
-208.2540836980051
 31
0.0
 11
-145.6800950982617
 21
-208.2322610576479
 31
0.0
 11
-143.3952113198841
 21
-207.9938900017861
 31
0.0
 11
-141.2387933533253
 21
-207.5472809794615
 31
0.0
 11
-139.2860284767862
 21
-206.9080067310479
 31
0.0
 11
-137.6050047960266
 21
-206.098356141826
 31
0.0
 11
-136.2543334527149
 21
-205.1465599656227
 31
0.0
  0
SPLINE
  5
94
330
47
100
AcDbEntity
  8
0
  6
Continuous
 62
     7
100
AcDbSpline
210
0.0
220
0.0
230
1.0
 70
     8
 71
     3
 72
    11
 73
     7
 74
     5
 42
0.000000001
 43
0.0000000001
 44
0.00000001
 40
0.0
 40
0.0
 40
0.0
 40
0.0
 40
2.570683492970804
 40
5.479313562855601
 40
8.739032441382614
 40
12.33799859477429
 40
12.33799859477429
 40
12.33799859477429
 40
12.33799859477429
 10
-141.6021589098117
 20
-189.8341649795755
 30
0.0
 10
-142.379409062974
 20
-190.2005531624873
 30
0.0
 10
-144.0360880354336
 20
-190.9814955773616
 30
0.0
 10
-146.3405356655927
 20
-192.7949238919481
 30
0.0
 10
-148.6716630922504
 20
-195.0750208903582
 30
0.0
 10
-150.0839967352184
 20
-196.8762817614248
 30
0.0
 10
-150.8250922826601
 20
-197.8214595778734
 30
0.0
 11
-141.6021589098117
 21
-189.8341649795755
 31
0.0
 11
-143.8872881827239
 21
-191.0117038681895
 31
0.0
 11
-146.2136255962359
 21
-192.7576371817904
 31
0.0
 11
-148.5399630097479
 21
-195.0410384639406
 31
0.0
 11
-150.8250922826601
 21
-197.8214595778734
 31
0.0
  0
SPLINE
  5
95
330
47
100
AcDbEntity
  8
0
  6
Continuous
 62
     7
100
AcDbSpline
210
0.0
220
0.0
230
1.0
 70
     8
 71
     3
 72
     9
 73
     5
 74
     3
 42
0.000000001
 43
0.0000000001
 44
0.00000001
 40
0.0
 40
0.0
 40
0.0
 40
0.0
 40
0.9213509619047695
 40
1.803773216347667
 40
1.803773216347667
 40
1.803773216347667
 40
1.803773216347667
 10
-143.3342097173806
 20
-189.3341649795755
 30
0.0
 10
-143.0350747851745
 20
-189.404684209498
 30
0.0
 10
-142.4494439058914
 20
-189.5427431264596
 30
0.0
 10
-141.8804942503811
 20
-189.7384321305429
 30
0.0
 10
-141.6021589098117
 20
-189.8341649795755
 30
0.0
 11
-143.3342097173806
 21
-189.3341649795755
 31
0.0
 11
-142.441157177292
 21
-189.5607587929445
 31
0.0
 11
-141.6021589098117
 21
-189.8341649795755
 31
0.0
  0
SPLINE
  5
96
330
47
100
AcDbEntity
  8
0
  6
Continuous
 62
     7
100
AcDbSpline
210
0.0
220
0.0
230
1.0
 70
     8
 71
     3
 72
    11
 73
     7
 74
     5
 42
0.000000001
 43
0.0000000001
 44
0.00000001
 40
0.0
 40
0.0
 40
0.0
 40
0.0
 40
3.598966153391714
 40
6.858685031918706
 40
9.767315101803458
 40
12.33799859477429
 40
12.33799859477429
 40
12.33799859477429
 40
12.33799859477429
 10
-152.557143090229
 20
-197.3214595778734
 30
0.0
 10
-151.8160475427873
 20
-196.3762817614249
 30
0.0
 10
-150.4037138998192
 20
-194.5750208903582
 30
0.0
 10
-148.0725864731616
 20
-192.2949238919481
 30
0.0
 10
-145.7681388430025
 20
-190.4814955773616
 30
0.0
 10
-144.1114598705429
 20
-189.7005531624873
 30
0.0
 10
-143.3342097173806
 20
-189.3341649795755
 30
0.0
 11
-152.557143090229
 21
-197.3214595778734
 31
0.0
 11
-150.2720138173168
 21
-194.5410384639406
 31
0.0
 11
-147.9456764038048
 21
-192.2576371817904
 31
0.0
 11
-145.6193389902928
 21
-190.5117038681895
 31
0.0
 11
-143.3342097173806
 21
-189.3341649795755
 31
0.0
  0
SPLINE
  5
97
330
47
100
AcDbEntity
  8
0
  6
Continuous
 62
     7
100
AcDbSpline
210
0.0
220
0.0
230
1.0
 70
     8
 71
     3
 72
    23
 73
    19
 74
    17
 42
0.000000001
 43
0.0000000001
 44
0.00000001
 40
0.0
 40
0.0
 40
0.0
 40
0.0
 40
1.491294589739005
 40
3.136928822826338
 40
5.035010346081063
 40
7.219400627534049
 40
9.67637404513011
 40
12.36069254551997
 40
15.2067718211232
 40
18.13667279313119
 40
21.06657376513916
 40
23.91265304074239
 40
26.59697154113221
 40
29.05394495872831
 40
31.2383352401813
 40
33.136416763436
 40
34.78205099652338
 40
36.27334558626239
 40
36.27334558626239
 40
36.27334558626239
 40
36.27334558626239
 10
-132.0796510000204
 20
-195.4154250164924
 30
0.0
 10
-132.1403952187677
 20
-194.9161033170001
 30
0.0
 10
-132.2681703187043
 20
-193.8657832570175
 30
0.0
 10
-133.2259873850381
 20
-192.4270005481932
 30
0.0
 10
-134.6416644544302
 20
-191.1361598679844
 30
0.0
 10
-136.5298394391865
 20
-190.0179406726981
 30
0.0
 10
-138.8011875353086
 20
-189.1042723187175
 30
0.0
 10
-141.382449697675
 20
-188.4262767715131
 30
0.0
 10
-144.1764533200489
 20
-188.0089191069799
 30
0.0
 10
-147.0796510000203
 20
-187.8679995576246
 30
0.0
 10
-149.9828486799919
 20
-188.0089191069799
 30
0.0
 10
-152.7768523023657
 20
-188.4262767715132
 30
0.0
 10
-155.3581144647321
 20
-189.1042723187174
 30
0.0
 10
-157.6294625608542
 20
-190.0179406726982
 30
0.0
 10
-159.5176375456105
 20
-191.1361598679842
 30
0.0
 10
-160.9333146150025
 20
-192.4270005481933
 30
0.0
 10
-161.8911316813365
 20
-193.8657832570175
 30
0.0
 10
-162.0189067812731
 20
-194.9161033170002
 30
0.0
 10
-162.0796510000204
 20
-195.4154250164924
 30
0.0
 11
-132.0796510000204
 21
-195.4154250164924
 31
0.0
 11
-132.3678724917611
 21
-193.9522476707709
 31
0.0
 11
-133.221458012351
 21
-192.5452992737543
 31
0.0
 11
-134.6076074070392
 21
-191.2486484664784
 31
0.0
 11
-136.4730492822221
 21
-190.1121241575933
 31
0.0
 11
-138.7460978999921
 21
-189.1794032200019
 31
0.0
 11
-141.339399514544
 21
-188.4863285226578
 31
0.0
 11
-144.1532963085773
 21
-188.0595357623628
 31
0.0
 11
-147.0796510000204
 21
-187.9154250164925
 31
0.0
 11
-150.0060056914634
 21
-188.0595357623628
 31
0.0
 11
-152.8199024854967
 21
-188.4863285226578
 31
0.0
 11
-155.4132041000486
 21
-189.1794032200019
 31
0.0
 11
-157.6862527178185
 21
-190.1121241575933
 31
0.0
 11
-159.5516945930015
 21
-191.2486484664784
 31
0.0
 11
-160.9378439876896
 21
-192.5452992737543
 31
0.0
 11
-161.7914295082797
 21
-193.9522476707709
 31
0.0
 11
-162.0796510000204
 21
-195.4154250164924
 31
0.0
  0
ENDBLK
  5
49
330
47
100
AcDbEntity
  8
0
100
AcDbBlockEnd
  0
BLOCK
  5
4C
330
4A
100
AcDbEntity
  8
0
100
AcDbBlockBegin
  2
Allg1
 70
     0
 10
-147.079651000003
 20
-197.264437
 30
0.0
  3
Allg1
  1

  0
INSERT
  5
4B
330
4A
100
AcDbEntity
  8
0
100
AcDbBlockReference
  2
HC_BS_PG21-select__1
 10
-162.0796510000204
 20
-208.312480914379
 30
0.0
  0
MTEXT
  5
99
330
4A
100
AcDbEntity
  8
1
 62
     6
100
AcDbMText
 10
-147.0000000000171
 20
-223.7646282425819
 30
0.0
 40
5.0
 41
0.0
 71
     2
 72
     1
  1
 
  7
CONVERTER_11
 73
     1
 44
1.32052821128451
  0
ENDBLK
  5
4D
330
4A
100
AcDbEntity
  8
0
100
AcDbBlockEnd
  0
BLOCK
  5
4F
330
4E
100
AcDbEntity
  8
0
100
AcDbBlockBegin
  2
HC_BS_PG21-select__2
 70
     0
 10
-284.0000231118566
 20
-189.5694506679372
 30
0.0
  3
HC_BS_PG21-select__2
  1

  0
LINE
  5
9A
330
4E
100
AcDbEntity
  8
0
  6
Continuous
 62
     7
100
AcDbLine
 10
-268.0000231118566
 20
-165.3465172950888
 30
0.0
 11
-268.0000231118566
 21
-183.7923840407856
 31
0.0
  0
LINE
  5
9B
330
4E
100
AcDbEntity
  8
0
  6
Continuous
 62
     7
100
AcDbLine
 10
-270.0000231118566
 20
-183.7923840407856
 30
0.0
 11
-270.0000231118566
 21
-165.3465172950889
 31
0.0
  0
LINE
  5
9C
330
4E
100
AcDbEntity
  8
1
  6
DOT_CENTER
 62
     2
100
AcDbLine
 10
-252.5000231118566
 20
-174.5694506679372
 30
0.0
 11
-285.5000231118566
 21
-174.5694506679372
 31
0.0
  0
LINE
  5
9D
330
4E
100
AcDbEntity
  8
1
  6
DOT_CENTER
 62
     2
100
AcDbLine
 10
-269.0000231118566
 20
-158.0694506679372
 30
0.0
 11
-269.0000231118566
 21
-191.0694506679372
 31
0.0
  0
ARC
  5
9E
330
4E
100
AcDbEntity
  8
0
  6
Continuous
 62
     7
100
AcDbCircle
 10
-269.0000231118566
 20
-174.5694506679372
 30
0.0
 40
9.276987657639765
100
AcDbArc
 50
83.8118575186465
 51
96.18814248135357
  0
ARC
  5
9F
330
4E
100
AcDbEntity
  8
0
  6
Continuous
 62
     7
100
AcDbCircle
 10
-269.0000231118566
 20
-174.5694506679372
 30
0.0
 40
9.276987657639793
100
AcDbArc
 50
263.8118575186465
 51
276.1881424813535
  0
CIRCLE
  5
A0
330
4E
100
AcDbEntity
  8
0
  6
Continuous
 62
     7
100
AcDbCircle
 10
-269.0000231118566
 20
-174.5694506679372
 30
0.0
 40
15.0
  0
ENDBLK
  5
50
330
4E
100
AcDbEntity
  8
0
100
AcDbBlockEnd
  0
BLOCK
  5
53
330
51
100
AcDbEntity
  8
0
100
AcDbBlockBegin
  2
Drfsicht1
 70
     0
 10
-269.0000231118366
 20
-174.5694506679372
 30
0.0
  3
Drfsicht1
  1

  0
INSERT
  5
52
330
51
100
AcDbEntity
  8
0
100
AcDbBlockReference
  2
HC_BS_PG21-select__2
 10
-284.0000231118566
 20
-189.5694506679372
 30
0.0
  0
MTEXT
  5
A1
330
51
100
AcDbEntity
  8
1
 62
     6
100
AcDbMText
 10
-269.0000231118366
 20
-204.5694563899831
 30
0.0
 40
5.0
 41
0.0
 71
     2
 72
     1
  1
 
  7
CONVERTER_11
 73
     1
 44
1.32052821128451
  0
INSERT
  5
AB
330
51
100
AcDbEntity
  8
1
100
AcDbBlockReference
  2
*D17
 10
0.0
 20
0.0
 30
0.0
  0
ENDBLK
  5
54
330
51
100
AcDbEntity
  8
0
100
AcDbBlockEnd
  0
BLOCK
  5
56
330
55
100
AcDbEntity
  8
0
100
AcDbBlockBegin
  2
HC_BS_PG21-select__3
 70
     0
 10
-153.99999999998
 20
-118.4928654495468
 30
0.0
  3
HC_BS_PG21-select__3
  1

  0
LINE
  5
AC
330
55
100
AcDbEntity
  8
0
  6
Continuous
 62
     7
100
AcDbLine
 10
-125.74999999998
 20
-112.3928654495468
 30
0.0
 11
-125.74999999998
 21
-113.1428654495468
 31
0.0
  0
LINE
  5
AD
330
55
100
AcDbEntity
  8
0
  6
Continuous
 62
     7
100
AcDbLine
 10
-125.74999999998
 20
-112.3928654495468
 30
0.0
 11
-123.99999999998
 21
-112.3928654495468
 31
0.0
  0
LINE
  5
AE
330
55
100
AcDbEntity
  8
0
  6
Continuous
 62
     7
100
AcDbLine
 10
-123.99999999998
 20
-112.3928654495468
 30
0.0
 11
-123.99999999998
 21
-110.8647578671801
 31
0.0
  0
LINE
  5
AF
330
55
100
AcDbEntity
  8
0
  6
Continuous
 62
     2
100
AcDbLine
 10
-152.24999999998
 20
-113.1428654495468
 30
0.0
 11
-125.74999999998
 21
-113.1428654495468
 31
0.0
  0
LINE
  5
B0
330
55
100
AcDbEntity
  8
0
  6
Continuous
 62
     7
100
AcDbLine
 10
-152.24999999998
 20
-112.3928654495468
 30
0.0
 11
-152.24999999998
 21
-113.1428654495468
 31
0.0
  0
LINE
  5
B1
330
55
100
AcDbEntity
  8
0
  6
Continuous
 62
     7
100
AcDbLine
 10
-152.24999999998
 20
-112.3928654495468
 30
0.0
 11
-125.74999999998
 21
-112.3928654495468
 31
0.0
  0
LINE
  5
B2
330
55
100
AcDbEntity
  8
0
  6
Continuous
 62
     7
100
AcDbLine
 10
-137.99999999998
 20
-108.7428654495468
 30
0.0
 11
-139.99999999998
 21
-108.7428654495468
 31
0.0
  0
LINE
  5
B3
330
55
100
AcDbEntity
  8
0
  6
Continuous
 62
     7
100
AcDbLine
 10
-153.99999999998
 20
-110.8647578671801
 30
0.0
 11
-123.99999999998
 21
-110.8647578671801
 31
0.0
  0
LINE
  5
B4
330
55
100
AcDbEntity
  8
0
  6
Continuous
 62
     7
100
AcDbLine
 10
-137.99999999998
 20
-107.507133688957
 30
0.0
 11
-137.99999999998
 21
-108.7428654495468
 31
0.0
  0
LINE
  5
B5
330
55
100
AcDbEntity
  8
0
  6
Continuous
 62
     7
100
AcDbLine
 10
-139.99999999998
 20
-108.7428654495468
 30
0.0
 11
-139.99999999998
 21
-107.507133688957
 31
0.0
  0
LINE
  5
B6
330
55
100
AcDbEntity
  8
0
  6
Continuous
 62
     7
100
AcDbLine
 10
-153.99999999998
 20
-112.3928654495468
 30
0.0
 11
-152.24999999998
 21
-112.3928654495468
 31
0.0
  0
LINE
  5
B7
330
55
100
AcDbEntity
  8
0
  6
Continuous
 62
     7
100
AcDbLine
 10
-153.99999999998
 20
-112.3928654495468
 30
0.0
 11
-153.99999999998
 21
-110.8647578671801
 31
0.0
  0
LINE
  5
B8
330
55
100
AcDbEntity
  8
0
  6
Continuous
 62
     7
100
AcDbLine
 10
-151.49999999998
 20
-118.4928654495468
 30
0.0
 11
-126.49999999998
 21
-118.4928654495468
 31
0.0
  0
LINE
  5
B9
330
55
100
AcDbEntity
  8
0
  6
Continuous
 62
     7
100
AcDbLine
 10
-126.49999999998
 20
-118.4928654495468
 30
0.0
 11
-126.49999999998
 21
-113.8928654495468
 31
0.0
  0
LINE
  5
BA
330
55
100
AcDbEntity
  8
0
  6
Continuous
 62
     7
100
AcDbLine
 10
-151.49999999998
 20
-113.8928654495468
 30
0.0
 11
-126.49999999998
 21
-113.8928654495468
 31
0.0
  0
LINE
  5
BB
330
55
100
AcDbEntity
  8
0
  6
Continuous
 62
     7
100
AcDbLine
 10
-151.49999999998
 20
-118.4928654495468
 30
0.0
 11
-151.49999999998
 21
-113.8928654495468
 31
0.0
  0
LINE
  5
BC
330
55
100
AcDbEntity
  8
1
  6
DOT_CENTER
 62
     2
100
AcDbLine
 10
-138.99999999998
 20
-118.4928654495468
 30
0.0
 11
-138.99999999998
 21
-113.8928654495468
 31
0.0
  0
LINE
  5
BD
330
55
100
AcDbEntity
  8
1
  6
DOT_CENTER
 62
     2
100
AcDbLine
 10
-138.99999999998
 20
-113.1428654495467
 30
0.0
 11
-138.99999999998
 21
-110.8647578671801
 31
0.0
  0
ARC
  5
BE
330
55
100
AcDbEntity
  8
0
  6
Continuous
 62
     7
100
AcDbCircle
 10
-126.49999999998
 20
-113.1428654495468
 30
0.0
 40
0.75
100
AcDbArc
 50
270.0
 51
0.0
  0
ARC
  5
BF
330
55
100
AcDbEntity
  8
0
  6
Continuous
 62
     7
100
AcDbCircle
 10
-151.49999999998
 20
-113.1428654495468
 30
0.0
 40
0.75
100
AcDbArc
 50
180.0
 51
270.0
  0
ARC
  5
C0
330
55
100
AcDbEntity
  8
0
  6
Continuous
 62
     7
100
AcDbCircle
 10
-138.99999999998
 20
-142.5428654495468
 30
0.0
 40
35.05000000000003
100
AcDbArc
 50
91.63490885823477
 51
115.3381697357335
  0
ARC
  5
C1
330
55
100
AcDbEntity
  8
0
  6
Continuous
 62
     7
100
AcDbCircle
 10
-138.99999999998
 20
-142.5428654495468
 30
0.0
 40
35.04999999999998
100
AcDbArc
 50
64.66183026426653
 51
88.36509114176522
  0
ENDBLK
  5
57
330
55
100
AcDbEntity
  8
0
100
AcDbBlockEnd
  0
BLOCK
  5
5A
330
58
100
AcDbEntity
  8
0
100
AcDbBlockBegin
  2
Rckans1
 70
     0
 10
-139.0
 20
-112.9998130000001
 30
0.0
  3
Rckans1
  1

  0
INSERT
  5
59
330
58
100
AcDbEntity
  8
0
100
AcDbBlockReference
  2
HC_BS_PG21-select__3
 10
-153.99999999998
 20
-118.4928654495468
 30
0.0
  0
MTEXT
  5
C2
330
58
100
AcDbEntity
  8
1
 62
     6
100
AcDbMText
 10
-138.99999999998
 20
-124.5694456100167
 30
0.0
 40
5.0
 41
0.0
 71
     2
 72
     1
  1
 
  7
CONVERTER_11
 73
     1
 44
1.32052821128451
  0
ENDBLK
  5
5B
330
58
100
AcDbEntity
  8
0
100
AcDbBlockEnd
  0
BLOCK
  5
5D
330
5C
100
AcDbEntity
  8
0
100
AcDbBlockBegin
  2
HC_BS_PG21-select__4
 70
     0
 10
-219.00001
 20
-118.4928654495467
 30
0.0
  3
HC_BS_PG21-select__4
  1

  0
LINE
  5
C3
330
5C
100
AcDbEntity
  8
0
  6
Continuous
 62
     7
100
AcDbLine
 10
-190.75001
 20
-112.3928654495467
 30
0.0
 11
-190.75001
 21
-113.1428654495467
 31
0.0
  0
LINE
  5
C4
330
5C
100
AcDbEntity
  8
0
  6
Continuous
 62
     7
100
AcDbLine
 10
-190.75001
 20
-112.3928654495467
 30
0.0
 11
-189.00001
 21
-112.3928654495467
 31
0.0
  0
LINE
  5
C5
330
5C
100
AcDbEntity
  8
0
  6
Continuous
 62
     7
100
AcDbLine
 10
-189.00001
 20
-112.3928654495467
 30
0.0
 11
-189.00001
 21
-110.8647578671799
 31
0.0
  0
LINE
  5
C6
330
5C
100
AcDbEntity
  8
0
  6
Continuous
 62
     7
100
AcDbLine
 10
-217.25001
 20
-112.3928654495467
 30
0.0
 11
-190.75001
 21
-112.3928654495467
 31
0.0
  0
LINE
  5
C7
330
5C
100
AcDbEntity
  8
0
  6
Continuous
 62
     2
100
AcDbLine
 10
-204.00001
 20
-113.1428654495467
 30
0.0
 11
-190.75001
 21
-113.1428654495467
 31
0.0
  0
LINE
  5
C8
330
5C
100
AcDbEntity
  8
0
  6
Continuous
 62
     2
100
AcDbLine
 10
-217.25001
 20
-113.1428654495467
 30
0.0
 11
-204.00001
 21
-113.1428654495467
 31
0.0
  0
LINE
  5
C9
330
5C
100
AcDbEntity
  8
0
  6
Continuous
 62
     7
100
AcDbLine
 10
-219.00001
 20
-110.8647578671799
 30
0.0
 11
-189.00001
 21
-110.8647578671799
 31
0.0
  0
LINE
  5
CA
330
5C
100
AcDbEntity
  8
0
  6
Continuous
 62
     7
100
AcDbLine
 10
-219.00001
 20
-112.3928654495467
 30
0.0
 11
-219.00001
 21
-110.8647578671799
 31
0.0
  0
LINE
  5
CB
330
5C
100
AcDbEntity
  8
0
  6
Continuous
 62
     7
100
AcDbLine
 10
-219.00001
 20
-112.3928654495467
 30
0.0
 11
-217.25001
 21
-112.3928654495467
 31
0.0
  0
LINE
  5
CC
330
5C
100
AcDbEntity
  8
0
  6
Continuous
 62
     7
100
AcDbLine
 10
-194.7230223423603
 20
-108.7428654495467
 30
0.0
 11
-194.7770766271517
 21
-108.7428654495467
 31
0.0
  0
LINE
  5
CD
330
5C
100
AcDbEntity
  8
0
  6
Continuous
 62
     7
100
AcDbLine
 10
-216.50001
 20
-118.4928654495467
 30
0.0
 11
-191.50001
 21
-118.4928654495467
 31
0.0
  0
LINE
  5
CE
330
5C
100
AcDbEntity
  8
0
  6
Continuous
 62
     7
100
AcDbLine
 10
-217.25001
 20
-112.3928654495467
 30
0.0
 11
-217.25001
 21
-113.1428654495467
 31
0.0
  0
LINE
  5
CF
330
5C
100
AcDbEntity
  8
0
  6
Continuous
 62
     7
100
AcDbLine
 10
-213.2229433728484
 20
-108.7428654495467
 30
0.0
 11
-213.2769976576398
 21
-108.7428654495466
 31
0.0
  0
LINE
  5
D0
330
5C
100
AcDbEntity
  8
0
  6
Continuous
 62
     7
100
AcDbLine
 10
-204.00001
 20
-113.8928654495467
 30
0.0
 11
-191.50001
 21
-113.8928654495467
 31
0.0
  0
LINE
  5
D1
330
5C
100
AcDbEntity
  8
0
  6
Continuous
 62
     7
100
AcDbLine
 10
-191.50001
 20
-118.4928654495467
 30
0.0
 11
-191.50001
 21
-113.8928654495467
 31
0.0
  0
LINE
  5
D2
330
5C
100
AcDbEntity
  8
0
  6
Continuous
 62
     7
100
AcDbLine
 10
-216.50001
 20
-113.8928654495467
 30
0.0
 11
-204.00001
 21
-113.8928654495467
 31
0.0
  0
LINE
  5
D3
330
5C
100
AcDbEntity
  8
0
  6
Continuous
 62
     7
100
AcDbLine
 10
-216.50001
 20
-118.4928654495467
 30
0.0
 11
-216.50001
 21
-113.8928654495467
 31
0.0
  0
LINE
  5
D4
330
5C
100
AcDbEntity
  8
1
  6
DOT_CENTER
 62
     2
100
AcDbLine
 10
-204.00001
 20
-118.4928654495467
 30
0.0
 11
-204.00001
 21
-113.8928654495467
 31
0.0
  0
LINE
  5
D5
330
5C
100
AcDbEntity
  8
1
  6
DOT_CENTER
 62
     2
100
AcDbLine
 10
-204.00001
 20
-113.1428654495467
 30
0.0
 11
-204.00001
 21
-110.8647578671799
 31
0.0
  0
ARC
  5
D6
330
5C
100
AcDbEntity
  8
0
  6
Continuous
 62
     7
100
AcDbCircle
 10
-191.50001
 20
-113.1428654495467
 30
0.0
 40
0.75
100
AcDbArc
 50
270.0
 51
0.0
  0
ARC
  5
D7
330
5C
100
AcDbEntity
  8
0
  6
Continuous
 62
     7
100
AcDbCircle
 10
-216.50001
 20
-113.1428654495467
 30
0.0
 40
0.75
100
AcDbArc
 50
180.0
 51
270.0
  0
ARC
  5
D8
330
5C
100
AcDbEntity
  8
0
  6
Continuous
 62
     7
100
AcDbCircle
 10
-204.00001
 20
-142.5428654495467
 30
0.0
 40
35.05000000000007
100
AcDbArc
 50
64.66183026426656
 51
74.65213933850112
  0
ARC
  5
D9
330
5C
100
AcDbEntity
  8
0
  6
Continuous
 62
     7
100
AcDbCircle
 10
-204.00001
 20
-142.5428654495467
 30
0.0
 40
35.05000000000011
100
AcDbArc
 50
105.347860661499
 51
115.3381697357335
  0
ARC
  5
DA
330
5C
100
AcDbEntity
  8
0
  6
Continuous
 62
     7
100
AcDbCircle
 10
-204.00001
 20
-142.5428654495467
 30
0.0
 40
35.03573176058977
100
AcDbArc
 50
74.73738463063013
 51
105.26261536937
  0
ENDBLK
  5
5E
330
5C
100
AcDbEntity
  8
0
100
AcDbBlockEnd
  0
BLOCK
  5
61
330
5F
100
AcDbEntity
  8
0
100
AcDbBlockBegin
  2
SA_Links1
 70
     0
 10
-204.00001
 20
-112.999813
 30
0.0
  3
SA_Links1
  1

  0
INSERT
  5
60
330
5F
100
AcDbEntity
  8
0
100
AcDbBlockReference
  2
HC_BS_PG21-select__4
 10
-219.00001
 20
-118.4928654495467
 30
0.0
  0
MTEXT
  5
DB
330
5F
100
AcDbEntity
  8
1
 62
     6
100
AcDbMText
 10
-204.0000105559282
 20
-124.5694456100167
 30
0.0
 40
5.0
 41
0.0
 71
     2
 72
     1
  1
 
  7
CONVERTER_11
 73
     1
 44
1.32052821128451
  0
ENDBLK
  5
62
330
5F
100
AcDbEntity
  8
0
100
AcDbBlockEnd
  0
BLOCK
  5
64
330
63
100
AcDbEntity
  8
0
100
AcDbBlockBegin
  2
HC_BS_PG21-select__5
 70
     0
 10
-359.000028
 20
-118.4928654495468
 30
0.0
  3
HC_BS_PG21-select__5
  1

  0
LINE
  5
DC
330
63
100
AcDbEntity
  8
0
  6
Continuous
 62
     7
100
AcDbLine
 10
-356.500028
 20
-118.4928654495468
 30
0.0
 11
-356.500028
 21
-113.8928654495468
 31
0.0
  0
LINE
  5
DD
330
63
100
AcDbEntity
  8
0
  6
Continuous
 62
     7
100
AcDbLine
 10
-359.000028
 20
-112.3928654495468
 30
0.0
 11
-359.000028
 21
-110.8647578671801
 31
0.0
  0
LINE
  5
DE
330
63
100
AcDbEntity
  8
0
  6
Continuous
 62
     7
100
AcDbLine
 10
-353.2229613728483
 20
-108.7428654495468
 30
0.0
 11
-353.2770156576397
 21
-108.7428654495468
 31
0.0
  0
LINE
  5
DF
330
63
100
AcDbEntity
  8
0
  6
Continuous
 62
     7
100
AcDbLine
 10
-357.250028
 20
-112.3928654495468
 30
0.0
 11
-357.250028
 21
-113.1428654495468
 31
0.0
  0
LINE
  5
E0
330
63
100
AcDbEntity
  8
0
  6
Continuous
 62
     7
100
AcDbLine
 10
-359.000028
 20
-110.8647578671801
 30
0.0
 11
-344.000028
 21
-110.8647578671801
 31
0.0
  0
LINE
  5
E1
330
63
100
AcDbEntity
  8
0
  6
Continuous
 62
     7
100
AcDbLine
 10
-331.500028
 20
-118.4928654495468
 30
0.0
 11
-331.500028
 21
-113.8928654495468
 31
0.0
  0
LINE
  5
E2
330
63
100
AcDbEntity
  8
0
  6
Continuous
 62
     7
100
AcDbLine
 10
-344.000028
 20
-118.4928654495468
 30
0.0
 11
-331.500028
 21
-118.4928654495468
 31
0.0
  0
LINE
  5
E3
330
63
100
AcDbEntity
  8
0
  6
Continuous
 62
     7
100
AcDbLine
 10
-356.500028
 20
-118.4928654495468
 30
0.0
 11
-344.000028
 21
-118.4928654495468
 31
0.0
  0
LINE
  5
E4
330
63
100
AcDbEntity
  8
0
  6
Continuous
 62
     7
100
AcDbLine
 10
-334.7230403423602
 20
-108.7428654495468
 30
0.0
 11
-334.7770946271517
 21
-108.7428654495468
 31
0.0
  0
LINE
  5
E5
330
63
100
AcDbEntity
  8
0
  6
Continuous
 62
     7
100
AcDbLine
 10
-356.500028
 20
-113.8928654495468
 30
0.0
 11
-331.500028
 21
-113.8928654495468
 31
0.0
  0
LINE
  5
E6
330
63
100
AcDbEntity
  8
0
  6
Continuous
 62
     2
100
AcDbLine
 10
-357.250028
 20
-113.1428654495468
 30
0.0
 11
-330.750028
 21
-113.1428654495468
 31
0.0
  0
LINE
  5
E7
330
63
100
AcDbEntity
  8
0
  6
Continuous
 62
     7
100
AcDbLine
 10
-330.750028
 20
-112.3928654495468
 30
0.0
 11
-329.000028
 21
-112.3928654495468
 31
0.0
  0
LINE
  5
E8
330
63
100
AcDbEntity
  8
0
  6
Continuous
 62
     7
100
AcDbLine
 10
-357.250028
 20
-112.3928654495468
 30
0.0
 11
-344.000028
 21
-112.3928654495468
 31
0.0
  0
LINE
  5
E9
330
63
100
AcDbEntity
  8
0
  6
Continuous
 62
     7
100
AcDbLine
 10
-359.000028
 20
-112.3928654495468
 30
0.0
 11
-357.250028
 21
-112.3928654495468
 31
0.0
  0
LINE
  5
EA
330
63
100
AcDbEntity
  8
0
  6
Continuous
 62
     7
100
AcDbLine
 10
-344.000028
 20
-112.3928654495468
 30
0.0
 11
-330.750028
 21
-112.3928654495468
 31
0.0
  0
LINE
  5
EB
330
63
100
AcDbEntity
  8
0
  6
Continuous
 62
     7
100
AcDbLine
 10
-330.750028
 20
-112.3928654495468
 30
0.0
 11
-330.750028
 21
-113.1428654495468
 31
0.0
  0
LINE
  5
EC
330
63
100
AcDbEntity
  8
0
  6
Continuous
 62
     7
100
AcDbLine
 10
-329.000028
 20
-112.3928654495468
 30
0.0
 11
-329.000028
 21
-110.8647578671801
 31
0.0
  0
LINE
  5
ED
330
63
100
AcDbEntity
  8
0
  6
Continuous
 62
     7
100
AcDbLine
 10
-344.000028
 20
-110.8647578671801
 30
0.0
 11
-329.000028
 21
-110.8647578671801
 31
0.0
  0
LINE
  5
EE
330
63
100
AcDbEntity
  8
1
  6
DOT_CENTER
 62
     2
100
AcDbLine
 10
-344.000028
 20
-118.4928654495468
 30
0.0
 11
-344.000028
 21
-113.8928654495468
 31
0.0
  0
LINE
  5
EF
330
63
100
AcDbEntity
  8
1
  6
DOT_CENTER
 62
     2
100
AcDbLine
 10
-344.000028
 20
-113.1428654495467
 30
0.0
 11
-344.000028
 21
-110.8647578671801
 31
0.0
  0
ARC
  5
F0
330
63
100
AcDbEntity
  8
0
  6
Continuous
 62
     7
100
AcDbCircle
 10
-356.500028
 20
-113.1428654495468
 30
0.0
 40
0.75
100
AcDbArc
 50
180.0
 51
270.0
  0
ARC
  5
F1
330
63
100
AcDbEntity
  8
0
  6
Continuous
 62
     7
100
AcDbCircle
 10
-344.000028
 20
-142.5428654495468
 30
0.0
 40
35.05
100
AcDbArc
 50
105.3478606614989
 51
115.3381697357335
  0
ARC
  5
F2
330
63
100
AcDbEntity
  8
0
  6
Continuous
 62
     7
100
AcDbCircle
 10
-331.500028
 20
-113.1428654495468
 30
0.0
 40
0.75
100
AcDbArc
 50
270.0
 51
0.0
  0
ARC
  5
F3
330
63
100
AcDbEntity
  8
0
  6
Continuous
 62
     7
100
AcDbCircle
 10
-344.000028
 20
-142.5428654495468
 30
0.0
 40
35.04999999999999
100
AcDbArc
 50
64.6618302642665
 51
74.65213933850099
  0
ARC
  5
F4
330
63
100
AcDbEntity
  8
0
  6
Continuous
 62
     7
100
AcDbCircle
 10
-344.000028
 20
-142.5428654495468
 30
0.0
 40
35.03573176058978
100
AcDbArc
 50
74.73738463063019
 51
105.2626153693699
  0
ENDBLK
  5
65
330
63
100
AcDbEntity
  8
0
100
AcDbBlockEnd
  0
BLOCK
  5
68
330
66
100
AcDbEntity
  8
0
100
AcDbBlockBegin
  2
SA_Rechts1
 70
     0
 10
-344.000028
 20
-112.9998130000001
 30
0.0
  3
SA_Rechts1
  1

  0
INSERT
  5
67
330
66
100
AcDbEntity
  8
0
100
AcDbBlockReference
  2
HC_BS_PG21-select__5
 10
-359.000028
 20
-118.4928654495468
 30
0.0
  0
MTEXT
  5
F5
330
66
100
AcDbEntity
  8
1
 62
     6
100
AcDbMText
 10
-344.0000296677044
 20
-124.5694456100167
 30
0.0
 40
5.0
 41
0.0
 71
     2
 72
     1
  1
 
  7
CONVERTER_11
 73
     1
 44
1.32052821128451
  0
ENDBLK
  5
69
330
66
100
AcDbEntity
  8
0
100
AcDbBlockEnd
  0
BLOCK
  5
6B
330
6A
100
AcDbEntity
  8
0
100
AcDbBlockBegin
  2
HC_BS_PG21-select__6
 70
     0
 10
-284.0000230000221
 20
-118.4928654495468
 30
0.0
  3
HC_BS_PG21-select__6
  1

  0
LINE
  5
F6
330
6A
100
AcDbEntity
  8
0
  6
Continuous
 62
     7
100
AcDbLine
 10
-270.0000230000221
 20
-108.7428654495468
 30
0.0
 11
-270.0000230000221
 21
-107.507133688957
 31
0.0
  0
LINE
  5
F7
330
6A
100
AcDbEntity
  8
0
  6
Continuous
 62
     7
100
AcDbLine
 10
-282.2500230000221
 20
-112.3928654495468
 30
0.0
 11
-282.2500230000221
 21
-113.1428654495468
 31
0.0
  0
LINE
  5
F8
330
6A
100
AcDbEntity
  8
0
  6
Continuous
 62
     7
100
AcDbLine
 10
-284.0000230000221
 20
-112.3928654495468
 30
0.0
 11
-284.0000230000221
 21
-110.8647578671801
 31
0.0
  0
LINE
  5
F9
330
6A
100
AcDbEntity
  8
0
  6
Continuous
 62
     7
100
AcDbLine
 10
-268.0000230000221
 20
-108.7428654495468
 30
0.0
 11
-270.0000230000221
 21
-108.7428654495468
 31
0.0
  0
LINE
  5
FA
330
6A
100
AcDbEntity
  8
0
  6
Continuous
 62
     7
100
AcDbLine
 10
-281.5000230000221
 20
-118.4928654495468
 30
0.0
 11
-281.5000230000221
 21
-113.8928654495468
 31
0.0
  0
LINE
  5
FB
330
6A
100
AcDbEntity
  8
0
  6
Continuous
 62
     7
100
AcDbLine
 10
-256.5000230000221
 20
-118.4928654495468
 30
0.0
 11
-256.5000230000221
 21
-113.8928654495468
 31
0.0
  0
LINE
  5
FC
330
6A
100
AcDbEntity
  8
0
  6
Continuous
 62
     7
100
AcDbLine
 10
-281.5000230000221
 20
-118.4928654495468
 30
0.0
 11
-256.5000230000221
 21
-118.4928654495468
 31
0.0
  0
LINE
  5
FD
330
6A
100
AcDbEntity
  8
0
  6
Continuous
 62
     7
100
AcDbLine
 10
-281.5000230000221
 20
-113.8928654495468
 30
0.0
 11
-256.5000230000221
 21
-113.8928654495468
 31
0.0
  0
LINE
  5
FE
330
6A
100
AcDbEntity
  8
0
  6
Continuous
 62
     7
100
AcDbLine
 10
-284.0000230000221
 20
-112.3928654495468
 30
0.0
 11
-282.2500230000221
 21
-112.3928654495468
 31
0.0
  0
LINE
  5
FF
330
6A
100
AcDbEntity
  8
0
  6
Continuous
 62
     7
100
AcDbLine
 10
-255.7500230000221
 20
-112.3928654495468
 30
0.0
 11
-254.0000230000221
 21
-112.3928654495468
 31
0.0
  0
LINE
  5
100
330
6A
100
AcDbEntity
  8
0
  6
Continuous
 62
     7
100
AcDbLine
 10
-282.2500230000221
 20
-112.3928654495468
 30
0.0
 11
-255.7500230000221
 21
-112.3928654495468
 31
0.0
  0
LINE
  5
101
330
6A
100
AcDbEntity
  8
0
  6
Continuous
 62
     2
100
AcDbLine
 10
-282.2500230000221
 20
-113.1428654495468
 30
0.0
 11
-255.7500230000221
 21
-113.1428654495468
 31
0.0
  0
LINE
  5
102
330
6A
100
AcDbEntity
  8
0
  6
Continuous
 62
     7
100
AcDbLine
 10
-255.7500230000221
 20
-112.3928654495468
 30
0.0
 11
-255.7500230000221
 21
-113.1428654495468
 31
0.0
  0
LINE
  5
103
330
6A
100
AcDbEntity
  8
0
  6
Continuous
 62
     7
100
AcDbLine
 10
-268.0000230000221
 20
-107.507133688957
 30
0.0
 11
-268.0000230000221
 21
-108.7428654495468
 31
0.0
  0
LINE
  5
104
330
6A
100
AcDbEntity
  8
0
  6
Continuous
 62
     7
100
AcDbLine
 10
-254.0000230000221
 20
-112.3928654495468
 30
0.0
 11
-254.0000230000221
 21
-110.8647578671801
 31
0.0
  0
LINE
  5
105
330
6A
100
AcDbEntity
  8
0
  6
Continuous
 62
     7
100
AcDbLine
 10
-284.0000230000221
 20
-110.8647578671801
 30
0.0
 11
-254.0000230000221
 21
-110.8647578671801
 31
0.0
  0
LINE
  5
106
330
6A
100
AcDbEntity
  8
1
  6
DOT_CENTER
 62
     2
100
AcDbLine
 10
-269.0000230000221
 20
-118.4928654495468
 30
0.0
 11
-269.0000230000221
 21
-113.8928654495468
 31
0.0
  0
LINE
  5
107
330
6A
100
AcDbEntity
  8
1
  6
DOT_CENTER
 62
     2
100
AcDbLine
 10
-269.0000230000213
 20
-113.1428654495467
 30
0.0
 11
-269.0000230000221
 21
-110.8647578671801
 31
0.0
  0
ARC
  5
108
330
6A
100
AcDbEntity
  8
0
  6
Continuous
 62
     7
100
AcDbCircle
 10
-281.5000230000221
 20
-113.1428654495468
 30
0.0
 40
0.75
100
AcDbArc
 50
180.0
 51
270.0
  0
ARC
  5
109
330
6A
100
AcDbEntity
  8
0
  6
Continuous
 62
     7
100
AcDbCircle
 10
-269.0000230000221
 20
-142.5428654495468
 30
0.0
 40
35.05000000000003
100
AcDbArc
 50
91.63490885823477
 51
115.3381697357335
  0
ARC
  5
10A
330
6A
100
AcDbEntity
  8
0
  6
Continuous
 62
     7
100
AcDbCircle
 10
-256.5000230000221
 20
-113.1428654495468
 30
0.0
 40
0.75
100
AcDbArc
 50
270.0
 51
0.0
  0
ARC
  5
10B
330
6A
100
AcDbEntity
  8
0
  6
Continuous
 62
     7
100
AcDbCircle
 10
-269.0000230000221
 20
-142.5428654495468
 30
0.0
 40
35.04999999999999
100
AcDbArc
 50
64.6618302642665
 51
88.36509114176522
  0
ENDBLK
  5
6C
330
6A
100
AcDbEntity
  8
0
100
AcDbBlockEnd
  0
BLOCK
  5
6F
330
6D
100
AcDbEntity
  8
0
100
AcDbBlockBegin
  2
Vordans1
 70
     0
 10
-269.0000230000021
 20
-112.9998130000001
 30
0.0
  3
Vordans1
  1

  0
INSERT
  5
6E
330
6D
100
AcDbEntity
  8
0
100
AcDbBlockReference
  2
HC_BS_PG21-select__6
 10
-284.0000230000221
 20
-118.4928654495468
 30
0.0
  0
MTEXT
  5
10C
330
6D
100
AcDbEntity
  8
1
 62
     6
100
AcDbMText
 10
-269.0000230000002
 20
-124.5694456100207
 30
0.0
 40
5.0
 41
0.0
 71
     2
 72
     1
  1
 
  7
CONVERTER_11
 73
     1
 44
1.32052821128451
  0
DIMENSION
  5
117
330
6D
100
AcDbEntity
  8
1
100
AcDbDimension
  2
*D18
 10
-294.0000230000221
 20
-118.4928654495468
 30
0.0
 11
-297.2500230000221
 21
-112.9999995692519
 31
0.0
 70
    32
  1
<>
 71
     5
 42
-1.0
 53
90.0
  3
ME10_DIM_10
100
AcDbAlignedDimension
 13
-270.0000230000221
 23
-107.507133688957
 33
0.0
 14
-281.5000230000221
 24
-118.4928654495468
 34
0.0
 50
90.0
100
AcDbRotatedDimension
  0
ENDBLK
  5
70
330
6D
100
AcDbEntity
  8
0
100
AcDbBlockEnd
  0
BLOCK
  5
72
330
71
100
AcDbEntity
  8
0
100
AcDbBlockBegin
  2
_punkt
 70
     0
 10
-98.00001399998997
 20
-258.0000062879213
 30
0.0
  3
_punkt
  1

  0
LINE
  5
118
330
71
100
AcDbEntity
  8
1
  6
Continuous
 62
     2
100
AcDbLine
 10
-98.00001399998997
 20
-258.0000062879213
 30
0.0
 11
-93.00001399999098
 21
-258.0000062879213
 31
0.0
  0
LINE
  5
119
330
71
100
AcDbEntity
  8
1
  6
Continuous
 62
     2
100
AcDbLine
 10
-98.00001399998997
 20
-258.0000062879213
 30
0.0
 11
-98.00001399998997
 21
-263.0000062879215
 31
0.0
  0
ENDBLK
  5
73
330
71
100
AcDbEntity
  8
0
100
AcDbBlockEnd
  0
BLOCK
  5
75
330
74
100
AcDbEntity
  8
0
100
AcDbBlockBegin
  2
_rahmen
 70
     0
 10
-98.00001399998997
 20
-263.0000062879215
 30
0.0
  3
_rahmen
  1

  0
LINE
  5
11A
330
74
100
AcDbEntity
  8
1
  6
Continuous
 62
     6
100
AcDbLine
 10
-227.54481852674
 20
-232.5000062879214
 30
0.0
 11
-98.00001399998828
 21
-232.5000062879214
 31
0.0
  0
LINE
  5
11B
330
74
100
AcDbEntity
  8
1
  6
Continuous
 62
     7
100
AcDbLine
 10
-209.34481852674
 20
-253.7500062879214
 30
0.0
 11
-191.1448185267401
 21
-253.7500062879214
 31
0.0
  0
LINE
  5
11C
330
74
100
AcDbEntity
  8
1
  6
Continuous
 62
     6
100
AcDbLine
 10
-209.34481852674
 20
-258.0000062879213
 30
0.0
 11
-227.54481852674
 21
-258.0000062879215
 31
0.0
  0
LINE
  5
11D
330
74
100
AcDbEntity
  8
1
  6
Continuous
 62
     7
100
AcDbLine
 10
-209.34481852674
 20
-253.7500062879214
 30
0.0
 11
-209.34481852674
 21
-258.0000062879213
 31
0.0
  0
LINE
  5
11E
330
74
100
AcDbEntity
  8
1
  6
Continuous
 62
     7
100
AcDbLine
 10
-191.1448185267401
 20
-253.7500062879214
 30
0.0
 11
-191.1448185267401
 21
-258.0000062879215
 31
0.0
  0
LINE
  5
11F
330
74
100
AcDbEntity
  8
1
  6
Continuous
 62
     7
100
AcDbLine
 10
-227.54481852674
 20
-253.7500062879215
 30
0.0
 11
-227.54481852674
 21
-258.0000062879215
 31
0.0
  0
LINE
  5
120
330
74
100
AcDbEntity
  8
1
  6
Continuous
 62
     7
100
AcDbLine
 10
-227.54481852674
 20
-253.7500062879215
 30
0.0
 11
-209.34481852674
 21
-253.7500062879214
 31
0.0
  0
LINE
  5
121
330
74
100
AcDbEntity
  8
1
  6
Continuous
 62
     2
100
AcDbLine
 10
-218.3081636401774
 20
-234.3750062879215
 30
0.0
 11
-218.3081636401774
 21
-239.3750062879215
 31
0.0
  0
LINE
  5
122
330
74
100
AcDbEntity
  8
1
  6
Continuous
 62
     2
100
AcDbLine
 10
-218.3081636401774
 20
-239.3750062879215
 30
0.0
 11
-223.3081636401774
 21
-238.1250062879215
 31
0.0
  0
LINE
  5
123
330
74
100
AcDbEntity
  8
1
  6
Continuous
 62
     2
100
AcDbLine
 10
-223.3081636401774
 20
-238.1250062879215
 30
0.0
 11
-223.3081636401774
 21
-235.6250062879215
 31
0.0
  0
LINE
  5
124
330
74
100
AcDbEntity
  8
1
  6
Continuous
 62
     2
100
AcDbLine
 10
-223.3081636401774
 20
-235.6250062879215
 30
0.0
 11
-218.3081636401774
 21
-234.3750062879215
 31
0.0
  0
LINE
  5
125
330
74
100
AcDbEntity
  8
1
  6
Continuous
 62
     6
100
AcDbLine
 10
-350.0000139999882
 20
-258.0000062879213
 30
0.0
 11
-385.0000139999881
 21
-258.0000062879213
 31
0.0
  0
LINE
  5
126
330
74
100
AcDbEntity
  8
1
  6
Continuous
 62
     6
100
AcDbLine
 10
-98.00001399998828
 20
-241.0000062879214
 30
0.0
 11
-98.00001399998868
 21
-249.5000062879214
 31
0.0
  0
LINE
  5
127
330
74
100
AcDbEntity
  8
1
  6
Continuous
 62
     6
100
AcDbLine
 10
-191.1448185267401
 20
-258.0000062879215
 30
0.0
 11
-191.50001399999
 21
-258.0000062879213
 31
0.0
  0
LINE
  5
128
330
74
100
AcDbEntity
  8
1
  6
Continuous
 62
     6
100
AcDbLine
 10
-343.8000139999902
 20
-258.0000062879215
 30
0.0
 11
-350.0000139999882
 21
-258.0000062879213
 31
0.0
  0
LINE
  5
129
330
74
100
AcDbEntity
  8
1
  6
Continuous
 62
     7
100
AcDbLine
 10
-191.1448185267401
 20
-241.0000062879214
 30
0.0
 11
-191.1448185267401
 21
-253.7500062879214
 31
0.0
  0
LINE
  5
12A
330
74
100
AcDbEntity
  8
1
  6
Continuous
 62
     7
100
AcDbLine
 10
-227.54481852674
 20
-241.0000062879214
 30
0.0
 11
-227.54481852674
 21
-253.7500062879215
 31
0.0
  0
LINE
  5
12B
330
74
100
AcDbEntity
  8
1
  6
Continuous
 62
     6
100
AcDbLine
 10
-241.50001399999
 20
-258.0000062879213
 30
0.0
 11
-291.5000139999902
 21
-258.0000062879213
 31
0.0
  0
LINE
  5
12C
330
74
100
AcDbEntity
  8
1
  6
Continuous
 62
     6
100
AcDbLine
 10
-343.8000139999902
 20
-258.0000062879215
 30
0.0
 11
-341.50001399999
 21
-258.0000062879213
 31
0.0
  0
LINE
  5
12D
330
74
100
AcDbEntity
  8
1
  6
Continuous
 62
     6
100
AcDbLine
 10
-191.1448185267401
 20
-258.0000062879215
 30
0.0
 11
-141.50001399999
 21
-258.0000062879213
 31
0.0
  0
LINE
  5
12E
330
74
100
AcDbEntity
  8
1
  6
Continuous
 62
     6
100
AcDbLine
 10
-98.00001399998997
 20
-258.0000062879213
 30
0.0
 11
-98.00001399998868
 21
-249.5000062879214
 31
0.0
  0
LINE
  5
12F
330
74
100
AcDbEntity
  8
1
  6
Continuous
 62
     2
100
AcDbLine
 10
-390.0000139999891
 20
-258.0000062879213
 30
0.0
 11
-390.0000139999891
 21
-263.0000062879215
 31
0.0
  0
LINE
  5
130
330
74
100
AcDbEntity
  8
1
  6
Continuous
 62
     2
100
AcDbLine
 10
-385.0000139999881
 20
-258.0000062879213
 30
0.0
 11
-390.0000139999891
 21
-258.0000062879213
 31
0.0
  0
LINE
  5
131
330
74
100
AcDbEntity
  8
1
  6
Continuous
 62
     2
100
AcDbLine
 10
-385.0000139999881
 20
-263.0000062879215
 30
0.0
 11
-341.50001399999
 21
-263.0000062879215
 31
0.0
  0
LINE
  5
132
330
74
100
AcDbEntity
  8
1
  6
Continuous
 62
     2
100
AcDbLine
 10
-385.0000139999881
 20
-258.0000062879213
 30
0.0
 11
-385.0000139999881
 21
-263.0000062879215
 31
0.0
  0
LINE
  5
133
330
74
100
AcDbEntity
  8
1
  6
Continuous
 62
     2
100
AcDbLine
 10
-141.50001399999
 20
-263.0000062879215
 30
0.0
 11
-191.50001399999
 21
-263.0000062879215
 31
0.0
  0
LINE
  5
134
330
74
100
AcDbEntity
  8
1
  6
Continuous
 62
     2
100
AcDbLine
 10
-141.50001399999
 20
-263.0000062879215
 30
0.0
 11
-141.50001399999
 21
-258.0000062879213
 31
0.0
  0
LINE
  5
135
330
74
100
AcDbEntity
  8
1
  6
Continuous
 62
     2
100
AcDbLine
 10
-191.50001399999
 20
-263.0000062879215
 30
0.0
 11
-191.50001399999
 21
-258.0000062879213
 31
0.0
  0
LINE
  5
136
330
74
100
AcDbEntity
  8
1
  6
Continuous
 62
     2
100
AcDbLine
 10
-241.50001399999
 20
-263.0000062879215
 30
0.0
 11
-191.50001399999
 21
-263.0000062879215
 31
0.0
  0
LINE
  5
137
330
74
100
AcDbEntity
  8
1
  6
Continuous
 62
     2
100
AcDbLine
 10
-241.50001399999
 20
-263.0000062879215
 30
0.0
 11
-241.50001399999
 21
-258.0000062879213
 31
0.0
  0
LINE
  5
138
330
74
100
AcDbEntity
  8
1
  6
Continuous
 62
     2
100
AcDbLine
 10
-291.5000139999902
 20
-263.0000062879215
 30
0.0
 11
-241.50001399999
 21
-263.0000062879215
 31
0.0
  0
LINE
  5
139
330
74
100
AcDbEntity
  8
1
  6
Continuous
 62
     2
100
AcDbLine
 10
-291.5000139999902
 20
-263.0000062879215
 30
0.0
 11
-291.5000139999902
 21
-258.0000062879213
 31
0.0
  0
LINE
  5
13A
330
74
100
AcDbEntity
  8
1
  6
Continuous
 62
     2
100
AcDbLine
 10
-341.50001399999
 20
-263.0000062879215
 30
0.0
 11
-291.5000139999902
 21
-263.0000062879215
 31
0.0
  0
LINE
  5
13B
330
74
100
AcDbEntity
  8
1
  6
Continuous
 62
     2
100
AcDbLine
 10
-341.50001399999
 20
-263.0000062879215
 30
0.0
 11
-341.50001399999
 21
-258.0000062879213
 31
0.0
  0
LINE
  5
13C
330
74
100
AcDbEntity
  8
1
  6
Continuous
 62
     6
100
AcDbLine
 10
-385.0000139999883
 20
-208.0000062879213
 30
0.0
 11
-385.0000139999881
 21
-258.0000062879213
 31
0.0
  0
LINE
  5
13D
330
74
100
AcDbEntity
  8
1
  6
Continuous
 62
     2
100
AcDbLine
 10
-390.0000139999891
 20
-208.0000062879213
 30
0.0
 11
-390.0000139999891
 21
-258.0000062879213
 31
0.0
  0
LINE
  5
13E
330
74
100
AcDbEntity
  8
1
  6
Continuous
 62
     2
100
AcDbLine
 10
-390.0000139999891
 20
-208.0000062879213
 30
0.0
 11
-385.0000139999883
 21
-208.0000062879213
 31
0.0
  0
LINE
  5
13F
330
74
100
AcDbEntity
  8
1
  6
Continuous
 62
     6
100
AcDbLine
 10
-385.0000139999885
 20
-158.0000062879215
 30
0.0
 11
-385.0000139999883
 21
-208.0000062879213
 31
0.0
  0
LINE
  5
140
330
74
100
AcDbEntity
  8
1
  6
Continuous
 62
     2
100
AcDbLine
 10
-390.0000139999891
 20
-158.0000062879215
 30
0.0
 11
-390.0000139999891
 21
-208.0000062879213
 31
0.0
  0
LINE
  5
141
330
74
100
AcDbEntity
  8
1
  6
Continuous
 62
     2
100
AcDbLine
 10
-390.0000139999891
 20
-158.0000062879215
 30
0.0
 11
-385.0000139999885
 21
-158.0000062879215
 31
0.0
  0
LINE
  5
142
330
74
100
AcDbEntity
  8
1
  6
Continuous
 62
     6
100
AcDbLine
 10
-385.000013999989
 20
-108.0000062879214
 30
0.0
 11
-385.0000139999885
 21
-158.0000062879215
 31
0.0
  0
LINE
  5
143
330
74
100
AcDbEntity
  8
1
  6
Continuous
 62
     2
100
AcDbLine
 10
-390.0000139999891
 20
-108.0000062879214
 30
0.0
 11
-390.0000139999891
 21
-158.0000062879215
 31
0.0
  0
LINE
  5
144
330
74
100
AcDbEntity
  8
1
  6
Continuous
 62
     2
100
AcDbLine
 10
-390.0000139999891
 20
-108.0000062879214
 30
0.0
 11
-385.000013999989
 21
-108.0000062879214
 31
0.0
  0
LINE
  5
145
330
74
100
AcDbEntity
  8
1
  6
Continuous
 62
     6
100
AcDbLine
 10
-385.0000139999891
 20
-73.00000628792137
 30
0.0
 11
-385.000013999989
 21
-108.0000062879214
 31
0.0
  0
LINE
  5
146
330
74
100
AcDbEntity
  8
1
  6
Continuous
 62
     2
100
AcDbLine
 10
-390.0000139999891
 20
-53.00000628792137
 30
0.0
 11
-390.0000139999891
 21
-108.0000062879214
 31
0.0
  0
LINE
  5
147
330
74
100
AcDbEntity
  8
1
  6
Continuous
 62
     2
100
AcDbLine
 10
-390.0000139999891
 20
-263.0000062879215
 30
0.0
 11
-385.0000139999881
 21
-263.0000062879215
 31
0.0
  0
LINE
  5
148
330
74
100
AcDbEntity
  8
1
  6
Continuous
 62
     2
100
AcDbLine
 10
-241.50001399999
 20
-53.00000628792137
 30
0.0
 11
-241.50001399999
 21
-62.20869813262269
 31
0.0
  0
LINE
  5
149
330
74
100
AcDbEntity
  8
1
  6
Continuous
 62
     2
100
AcDbLine
 10
-241.50001399999
 20
-53.00000628792137
 30
0.0
 11
-390.0000139999891
 21
-53.00000628792137
 31
0.0
  0
LINE
  5
14A
330
74
100
AcDbEntity
  8
1
  6
Continuous
 62
     2
100
AcDbLine
 10
-93.00001399999098
 20
-258.0000062879213
 30
0.0
 11
-93.00001399999098
 21
-208.0000062879213
 31
0.0
  0
LINE
  5
14B
330
74
100
AcDbEntity
  8
1
  6
Continuous
 62
     2
100
AcDbLine
 10
-93.00001399999098
 20
-108.0000062879214
 30
0.0
 11
-93.00001399999098
 21
-53.00000628792137
 31
0.0
  0
LINE
  5
14C
330
74
100
AcDbEntity
  8
1
  6
Continuous
 62
     6
100
AcDbLine
 10
-98.00001399999078
 20
-108.0000062879214
 30
0.0
 11
-98.00001399999098
 21
-73.00000628792137
 31
0.0
  0
LINE
  5
14D
330
74
100
AcDbEntity
  8
1
  6
Continuous
 62
     2
100
AcDbLine
 10
-98.00001399999078
 20
-108.0000062879214
 30
0.0
 11
-93.00001399999098
 21
-108.0000062879214
 31
0.0
  0
LINE
  5
14E
330
74
100
AcDbEntity
  8
1
  6
Continuous
 62
     2
100
AcDbLine
 10
-93.00001399999098
 20
-158.0000062879215
 30
0.0
 11
-93.00001399999098
 21
-108.0000062879214
 31
0.0
  0
LINE
  5
14F
330
74
100
AcDbEntity
  8
1
  6
Continuous
 62
     6
100
AcDbLine
 10
-98.00001399998958
 20
-158.0000062879215
 30
0.0
 11
-98.00001399999078
 21
-108.0000062879214
 31
0.0
  0
LINE
  5
150
330
74
100
AcDbEntity
  8
1
  6
Continuous
 62
     2
100
AcDbLine
 10
-98.00001399998958
 20
-158.0000062879215
 30
0.0
 11
-93.00001399999098
 21
-158.0000062879215
 31
0.0
  0
LINE
  5
151
330
74
100
AcDbEntity
  8
1
  6
Continuous
 62
     2
100
AcDbLine
 10
-93.00001399999098
 20
-208.0000062879213
 30
0.0
 11
-93.00001399999098
 21
-158.0000062879215
 31
0.0
  0
LINE
  5
152
330
74
100
AcDbEntity
  8
1
  6
Continuous
 62
     6
100
AcDbLine
 10
-98.00001399998908
 20
-208.0000062879213
 30
0.0
 11
-98.00001399998958
 21
-158.0000062879215
 31
0.0
  0
LINE
  5
153
330
74
100
AcDbEntity
  8
1
  6
Continuous
 62
     2
100
AcDbLine
 10
-98.00001399998908
 20
-208.0000062879213
 30
0.0
 11
-93.00001399999098
 21
-208.0000062879213
 31
0.0
  0
LINE
  5
154
330
74
100
AcDbEntity
  8
1
  6
Continuous
 62
     6
100
AcDbLine
 10
-98.00001399999098
 20
-73.00000628792137
 30
0.0
 11
-385.0000139999891
 21
-73.00000628792137
 31
0.0
  0
LINE
  5
155
330
74
100
AcDbEntity
  8
1
  6
Continuous
 62
     2
100
AcDbLine
 10
-93.00001399999098
 20
-53.00000628792137
 30
0.0
 11
-241.50001399999
 21
-53.00000628792137
 31
0.0
  0
LINE
  5
156
330
74
100
AcDbEntity
  8
1
  6
Continuous
 62
     6
100
AcDbLine
 10
-98.00001399998828
 20
-241.0000062879214
 30
0.0
 11
-98.00001399998908
 21
-208.0000062879213
 31
0.0
  0
LINE
  5
157
330
74
100
AcDbEntity
  8
1
  6
Continuous
 62
     2
100
AcDbLine
 10
-98.00001399998997
 20
-263.0000062879215
 30
0.0
 11
-141.50001399999
 21
-263.0000062879215
 31
0.0
  0
LINE
  5
158
330
74
100
AcDbEntity
  8
1
  6
Continuous
 62
     2
100
AcDbLine
 10
-93.00001399999098
 20
-263.0000062879215
 30
0.0
 11
-98.00001399998997
 21
-263.0000062879215
 31
0.0
  0
LINE
  5
159
330
74
100
AcDbEntity
  8
1
  6
Continuous
 62
     2
100
AcDbLine
 10
-93.00001399999098
 20
-263.0000062879215
 30
0.0
 11
-93.00001399999098
 21
-258.0000062879213
 31
0.0
  0
LINE
  5
15A
330
74
100
AcDbEntity
  8
1
  6
Continuous
 62
     6
100
AcDbLine
 10
-227.54481852674
 20
-241.0000062879214
 30
0.0
 11
-191.1448185267401
 21
-241.0000062879214
 31
0.0
  0
LINE
  5
15B
330
74
100
AcDbEntity
  8
1
  6
Continuous
 62
     2
100
AcDbLine
 10
-98.00001399998997
 20
-258.0000062879213
 30
0.0
 11
-98.00001399998997
 21
-263.0000062879215
 31
0.0
  0
LINE
  5
15C
330
74
100
AcDbEntity
  8
1
  6
Continuous
 62
     2
100
AcDbLine
 10
-98.00001399998997
 20
-258.0000062879213
 30
0.0
 11
-93.00001399999098
 21
-258.0000062879213
 31
0.0
  0
LINE
  5
15D
330
74
100
AcDbEntity
  8
1
  6
Continuous
 62
     6
100
AcDbLine
 10
-191.50001399999
 20
-258.0000062879213
 30
0.0
 11
-209.34481852674
 21
-258.0000062879213
 31
0.0
  0
LINE
  5
15E
330
74
100
AcDbEntity
  8
1
  6
Continuous
 62
     6
100
AcDbLine
 10
-141.50001399999
 20
-258.0000062879213
 30
0.0
 11
-98.00001399998997
 21
-258.0000062879213
 31
0.0
  0
LINE
  5
15F
330
74
100
AcDbEntity
  8
1
  6
Continuous
 62
     6
100
AcDbLine
 10
-291.5000139999902
 20
-258.0000062879213
 30
0.0
 11
-296.54481852674
 21
-258.0000062879213
 31
0.0
  0
LINE
  5
160
330
74
100
AcDbEntity
  8
1
  6
Continuous
 62
     6
100
AcDbLine
 10
-241.50001399999
 20
-258.0000062879213
 30
0.0
 11
-227.54481852674
 21
-258.0000062879215
 31
0.0
  0
LINE
  5
161
102
{ACAD_REACTORS
330
24B
330
24C
102
}
330
74
100
AcDbEntity
  8
0
  6
Continuous
 62
     2
100
AcDbLine
 10
-220.0301925845932
 20
-245.9274915317093
 30
0.0
 11
-220.0301925845932
 21
-245.3219562432025
 31
0.0
  0
LINE
  5
162
102
{ACAD_REACTORS
330
24B
330
24C
102
}
330
74
100
AcDbEntity
  8
0
  6
Continuous
 62
     2
100
AcDbLine
 10
-220.0301925845932
 20
-248.7276261383406
 30
0.0
 11
-220.0301925845932
 21
-248.1457747316455
 31
0.0
  0
LINE
  5
163
102
{ACAD_REACTORS
330
24D
330
24E
102
}
330
74
100
AcDbEntity
  8
0
  6
Continuous
 62
     2
100
AcDbLine
 10
-197.400706149114
 20
-248.4379620702176
 30
0.0
 11
-197.400706149114
 21
-250.7065062879051
 31
0.0
  0
LINE
  5
164
102
{ACAD_REACTORS
330
24D
330
24E
102
}
330
74
100
AcDbEntity
  8
0
  6
Continuous
 62
     2
100
AcDbLine
 10
-198.7817599281016
 20
-247.6526967640945
 30
0.0
 11
-195.3968144094729
 21
-247.652696764094
 31
0.0
  0
LINE
  5
165
102
{ACAD_REACTORS
330
24D
330
24E
102
}
330
74
100
AcDbEntity
  8
0
  6
Continuous
 62
     2
100
AcDbLine
 10
-195.3968144094729
 20
-248.4379620702176
 30
0.0
 11
-195.3968144094729
 21
-247.652696764094
 31
0.0
  0
LINE
  5
166
102
{ACAD_REACTORS
330
24D
330
24E
102
}
330
74
100
AcDbEntity
  8
0
  6
Continuous
 62
     2
100
AcDbLine
 10
-196.2079134469463
 20
-248.4379620702176
 30
0.0
 11
-195.3968144094729
 21
-248.4379620702176
 31
0.0
  0
LINE
  5
167
102
{ACAD_REACTORS
330
24D
330
24E
102
}
330
74
100
AcDbEntity
  8
0
  6
Continuous
 62
     2
100
AcDbLine
 10
-196.2079134469463
 20
-250.7065062879051
 30
0.0
 11
-196.2079134469463
 21
-248.4379620702176
 31
0.0
  0
LINE
  5
168
102
{ACAD_REACTORS
330
24D
330
24E
102
}
330
74
100
AcDbEntity
  8
0
  6
Continuous
 62
     2
100
AcDbLine
 10
-197.400706149114
 20
-250.7065062879051
 30
0.0
 11
-196.2079134469463
 21
-250.7065062879051
 31
0.0
  0
LINE
  5
169
102
{ACAD_REACTORS
330
243
330
244
102
}
330
74
100
AcDbEntity
  8
0
  6
Continuous
 62
     2
100
AcDbLine
 10
-198.0972970871785
 20
-244.2935062879196
 30
0.0
 11
-199.5000213049278
 21
-244.2935062879196
 31
0.0
  0
LINE
  5
16A
102
{ACAD_REACTORS
330
243
330
244
102
}
330
74
100
AcDbEntity
  8
0
  6
Continuous
 62
     2
100
AcDbLine
 10
-198.0972970871785
 20
-244.2935062879196
 30
0.0
 11
-197.4961295652867
 21
-244.9733296094751
 31
0.0
  0
LINE
  5
16B
102
{ACAD_REACTORS
330
243
330
244
102
}
330
74
100
AcDbEntity
  8
0
  6
Continuous
 62
     2
100
AcDbLine
 10
-197.4961295652867
 20
-244.9733296094751
 30
0.0
 11
-196.8949620433939
 21
-244.2935062879196
 31
0.0
  0
LINE
  5
16C
102
{ACAD_REACTORS
330
243
330
244
102
}
330
74
100
AcDbEntity
  8
0
  6
Continuous
 62
     2
100
AcDbLine
 10
-196.7947674564132
 20
-245.7664568179558
 30
0.0
 11
-195.4922378256467
 21
-244.2935062879196
 31
0.0
  0
LINE
  5
16D
102
{ACAD_REACTORS
330
243
330
244
102
}
330
74
100
AcDbEntity
  8
0
  6
Continuous
 62
     2
100
AcDbLine
 10
-196.7947674564132
 20
-245.7664568179558
 30
0.0
 11
-195.3968144094729
 21
-247.3473158117308
 31
0.0
  0
LINE
  5
16E
102
{ACAD_REACTORS
330
243
330
244
102
}
330
74
100
AcDbEntity
  8
0
  6
Continuous
 62
     2
100
AcDbLine
 10
-196.7995386272212
 20
-247.3473158117308
 30
0.0
 11
-195.3968144094729
 21
-247.3473158117308
 31
0.0
  0
LINE
  5
16F
102
{ACAD_REACTORS
330
243
330
244
102
}
330
74
100
AcDbEntity
  8
0
  6
Continuous
 62
     2
100
AcDbLine
 10
-197.4961295652867
 20
-246.5595840264371
 30
0.0
 11
-196.7995386272212
 21
-247.3473158117308
 31
0.0
  0
LINE
  5
170
102
{ACAD_REACTORS
330
241
330
242
102
}
330
74
100
AcDbEntity
  8
0
  6
Continuous
 62
     2
100
AcDbLine
 10
-200.9552284015704
 20
-244.2935062879196
 30
0.0
 11
-199.7147239913175
 21
-244.2935062879196
 31
0.0
  0
LINE
  5
171
102
{ACAD_REACTORS
330
241
330
242
102
}
330
74
100
AcDbEntity
  8
0
  6
Continuous
 62
     2
100
AcDbLine
 10
-199.7147239913175
 20
-244.2935062879196
 30
0.0
 11
-199.7147239913175
 21
-247.3473158117308
 31
0.0
  0
LINE
  5
172
102
{ACAD_REACTORS
330
241
330
242
102
}
330
74
100
AcDbEntity
  8
0
  6
Continuous
 62
     2
100
AcDbLine
 10
-200.9552284015704
 20
-247.3473158117308
 30
0.0
 11
-200.9552284015704
 21
-244.2935062879196
 31
0.0
  0
LINE
  5
173
102
{ACAD_REACTORS
330
23F
330
240
102
}
330
74
100
AcDbEntity
  8
0
  6
Continuous
 62
     2
100
AcDbLine
 10
-202.423538484108
 20
-249.4849824783806
 30
0.0
 11
-202.1233732469156
 21
-248.7171675123939
 31
0.0
  0
LINE
  5
174
102
{ACAD_REACTORS
330
23F
330
240
102
}
330
74
100
AcDbEntity
  8
0
  6
Continuous
 62
     2
100
AcDbLine
 10
-202.9010740887288
 20
-250.7065062879051
 30
0.0
 11
-202.689594035253
 21
-250.1655457436872
 31
0.0
  0
LINE
  5
175
102
{ACAD_REACTORS
330
23F
330
240
102
}
330
74
100
AcDbEntity
  8
0
  6
Continuous
 62
     2
100
AcDbLine
 10
-202.7436254520425
 20
-247.652696764094
 30
0.0
 11
-204.1415784989818
 21
-250.7065062879051
 31
0.0
  0
LINE
  5
176
102
{ACAD_REACTORS
330
23F
330
240
102
}
330
74
100
AcDbEntity
  8
0
  6
Continuous
 62
     2
100
AcDbLine
 10
-200.1051679948495
 20
-250.7065062879051
 30
0.0
 11
-201.3456724051034
 21
-250.7065062879051
 31
0.0
  0
LINE
  5
177
102
{ACAD_REACTORS
330
23F
330
240
102
}
330
74
100
AcDbEntity
  8
0
  6
Continuous
 62
     2
100
AcDbLine
 10
-202.689594035253
 20
-250.1655457436872
 30
0.0
 11
-201.5571524585792
 21
-250.1655457436872
 31
0.0
  0
LINE
  5
178
102
{ACAD_REACTORS
330
23D
330
23E
102
}
330
74
100
AcDbEntity
  8
0
  6
Continuous
 62
     2
100
AcDbLine
 10
-206.299090638164
 20
-248.4379620702176
 30
0.0
 11
-205.4879916006894
 21
-248.4379620702176
 31
0.0
  0
LINE
  5
179
102
{ACAD_REACTORS
330
23D
330
23E
102
}
330
74
100
AcDbEntity
  8
0
  6
Continuous
 62
     2
100
AcDbLine
 10
-203.4840998610504
 20
-247.652696764094
 30
0.0
 11
-206.299090638164
 21
-247.652696764094
 31
0.0
  0
LINE
  5
17A
102
{ACAD_REACTORS
330
23D
330
23E
102
}
330
74
100
AcDbEntity
  8
0
  6
Continuous
 62
     2
100
AcDbLine
 10
-203.4840998610504
 20
-248.4379620702176
 30
0.0
 11
-203.4840998610504
 21
-247.652696764094
 31
0.0
  0
LINE
  5
17B
102
{ACAD_REACTORS
330
23D
330
23E
102
}
330
74
100
AcDbEntity
  8
0
  6
Continuous
 62
     2
100
AcDbLine
 10
-204.2951988985229
 20
-248.4379620702176
 30
0.0
 11
-203.4840998610504
 21
-248.4379620702176
 31
0.0
  0
LINE
  5
17C
102
{ACAD_REACTORS
330
23D
330
23E
102
}
330
74
100
AcDbEntity
  8
0
  6
Continuous
 62
     2
100
AcDbLine
 10
-204.2951988985229
 20
-250.7065062879051
 30
0.0
 11
-204.2951988985229
 21
-248.4379620702176
 31
0.0
  0
LINE
  5
17D
102
{ACAD_REACTORS
330
23B
330
23C
102
}
330
74
100
AcDbEntity
  8
0
  6
Continuous
 62
     2
100
AcDbLine
 10
-203.6270840544249
 20
-247.3473158117308
 30
0.0
 11
-203.6270840544249
 21
-246.0385403015261
 31
0.0
  0
LINE
  5
17E
102
{ACAD_REACTORS
330
23B
330
23C
102
}
330
74
100
AcDbEntity
  8
0
  6
Continuous
 62
     2
100
AcDbLine
 10
-204.8198767565914
 20
-244.2935062879196
 30
0.0
 11
-204.8198767565914
 21
-247.3473158117308
 31
0.0
  0
LINE
  5
17F
102
{ACAD_REACTORS
330
23B
330
23C
102
}
330
74
100
AcDbEntity
  8
0
  6
Continuous
 62
     2
100
AcDbLine
 10
-203.6270840544249
 20
-244.2935062879196
 30
0.0
 11
-204.8198767565914
 21
-244.2935062879196
 31
0.0
  0
LINE
  5
180
102
{ACAD_REACTORS
330
23B
330
23C
102
}
330
74
100
AcDbEntity
  8
0
  6
Continuous
 62
     2
100
AcDbLine
 10
-202.3865796441709
 20
-244.2935062879196
 30
0.0
 11
-202.3865796441709
 21
-245.6022817981248
 31
0.0
  0
LINE
  5
181
102
{ACAD_REACTORS
330
239
330
23A
102
}
330
74
100
AcDbEntity
  8
0
  6
Continuous
 62
     2
100
AcDbLine
 10
-210.0683155770111
 20
-247.652696764094
 30
0.0
 11
-210.0683155770111
 21
-250.7065062879051
 31
0.0
  0
LINE
  5
182
102
{ACAD_REACTORS
330
239
330
23A
102
}
330
74
100
AcDbEntity
  8
0
  6
Continuous
 62
     2
100
AcDbLine
 10
-208.8755228748435
 20
-247.652696764094
 30
0.0
 11
-210.0683155770111
 21
-247.652696764094
 31
0.0
  0
LINE
  5
183
102
{ACAD_REACTORS
330
239
330
23A
102
}
330
74
100
AcDbEntity
  8
0
  6
Continuous
 62
     2
100
AcDbLine
 10
-207.6350184645906
 20
-250.7065062879051
 30
0.0
 11
-206.4422257624242
 21
-250.7065062879051
 31
0.0
  0
LINE
  5
184
102
{ACAD_REACTORS
330
239
330
23A
102
}
330
74
100
AcDbEntity
  8
0
  6
Continuous
 62
     2
100
AcDbLine
 10
-210.0683155770111
 20
-250.7065062879051
 30
0.0
 11
-208.8755228748435
 21
-250.7065062879051
 31
0.0
  0
LINE
  5
185
102
{ACAD_REACTORS
330
249
330
24A
102
}
330
74
100
AcDbEntity
  8
0
  6
Continuous
 62
     2
100
AcDbLine
 10
-206.394363123452
 20
-245.4714042471043
 30
0.0
 11
-206.394363123452
 21
-244.9915198933626
 31
0.0
  0
LINE
  5
186
102
{ACAD_REACTORS
330
249
330
24A
102
}
330
74
100
AcDbEntity
  8
0
  6
Continuous
 62
     2
100
AcDbLine
 10
-205.0584352970243
 20
-245.4714042471043
 30
0.0
 11
-206.394363123452
 21
-245.4714042471043
 31
0.0
  0
LINE
  5
187
102
{ACAD_REACTORS
330
249
330
24A
102
}
330
74
100
AcDbEntity
  8
0
  6
Continuous
 62
     2
100
AcDbLine
 10
-205.0584352970243
 20
-246.1694178525466
 30
0.0
 11
-205.0584352970243
 21
-245.4714042471043
 31
0.0
  0
LINE
  5
188
102
{ACAD_REACTORS
330
249
330
24A
102
}
330
74
100
AcDbEntity
  8
0
  6
Continuous
 62
     2
100
AcDbLine
 10
-206.394363123452
 20
-246.1694178525466
 30
0.0
 11
-205.0584352970243
 21
-246.1694178525466
 31
0.0
  0
LINE
  5
189
102
{ACAD_REACTORS
330
237
330
238
102
}
330
74
100
AcDbEntity
  8
0
  6
Continuous
 62
     2
100
AcDbLine
 10
-209.8773178137789
 20
-244.2935062879196
 30
0.0
 11
-209.8773178137789
 21
-247.3473158117308
 31
0.0
  0
LINE
  5
18A
102
{ACAD_REACTORS
330
237
330
238
102
}
330
74
100
AcDbEntity
  8
0
  6
Continuous
 62
     2
100
AcDbLine
 10
-209.8773178137789
 20
-247.3473158117308
 30
0.0
 11
-211.0701105159453
 21
-247.3473158117308
 31
0.0
  0
LINE
  5
18B
102
{ACAD_REACTORS
330
237
330
238
102
}
330
74
100
AcDbEntity
  8
0
  6
Continuous
 62
     2
100
AcDbLine
 10
-211.0701105159453
 20
-247.3473158117308
 30
0.0
 11
-211.0701105159453
 21
-246.213043702887
 31
0.0
  0
LINE
  5
18C
102
{ACAD_REACTORS
330
237
330
238
102
}
330
74
100
AcDbEntity
  8
0
  6
Continuous
 62
     2
100
AcDbLine
 10
-212.1197680938528
 20
-247.3473158117308
 30
0.0
 11
-213.3125607960194
 21
-247.3473158117308
 31
0.0
  0
LINE
  5
18D
102
{ACAD_REACTORS
330
237
330
238
102
}
330
74
100
AcDbEntity
  8
0
  6
Continuous
 62
     2
100
AcDbLine
 10
-213.3125607960194
 20
-244.2935062879196
 30
0.0
 11
-212.1197680938528
 21
-244.2935062879196
 31
0.0
  0
LINE
  5
18E
102
{ACAD_REACTORS
330
237
330
238
102
}
330
74
100
AcDbEntity
  8
0
  6
Continuous
 62
     2
100
AcDbLine
 10
-212.1197680938528
 20
-244.2935062879196
 30
0.0
 11
-212.1197680938528
 21
-245.3623396212542
 31
0.0
  0
LINE
  5
18F
102
{ACAD_REACTORS
330
237
330
238
102
}
330
74
100
AcDbEntity
  8
0
  6
Continuous
 62
     2
100
AcDbLine
 10
-212.1197680938528
 20
-245.3623396212542
 30
0.0
 11
-211.0701105159453
 21
-245.3623396212542
 31
0.0
  0
LINE
  5
190
102
{ACAD_REACTORS
330
245
330
246
102
}
330
74
100
AcDbEntity
  8
0
  6
Continuous
 62
     2
100
AcDbLine
 10
-215.268740827573
 20
-244.9566121333597
 30
0.0
 11
-214.9514457660311
 21
-244.9566121333597
 31
0.0
  0
LINE
  5
191
102
{ACAD_REACTORS
330
245
330
246
102
}
330
74
100
AcDbEntity
  8
0
  6
Continuous
 62
     2
100
AcDbLine
 10
-215.268740827573
 20
-245.6623397827019
 30
0.0
 11
-214.9514457660311
 21
-245.6623397827019
 31
0.0
  0
LINE
  5
192
102
{ACAD_REACTORS
330
245
330
246
102
}
330
74
100
AcDbEntity
  8
0
  6
Continuous
 62
     2
100
AcDbLine
 10
-216.5092452378271
 20
-244.2935062879196
 30
0.0
 11
-216.5092452378271
 21
-247.3473158117308
 31
0.0
  0
LINE
  5
193
102
{ACAD_REACTORS
330
245
330
246
102
}
330
74
100
AcDbEntity
  8
0
  6
Continuous
 62
     2
100
AcDbLine
 10
-216.5092452378271
 20
-244.2935062879196
 30
0.0
 11
-214.5099732397927
 21
-244.2935062879196
 31
0.0
  0
LINE
  5
194
102
{ACAD_REACTORS
330
245
330
246
102
}
330
74
100
AcDbEntity
  8
0
  6
Continuous
 62
     2
100
AcDbLine
 10
-215.268740827573
 20
-246.404237570587
 30
0.0
 11
-214.5099732397927
 21
-246.404237570587
 31
0.0
  0
LINE
  5
195
102
{ACAD_REACTORS
330
24B
330
24C
102
}
330
74
100
AcDbEntity
  8
0
  6
Continuous
 62
     2
100
AcDbLine
 10
-222.6057412711238
 20
-245.3217787665544
 30
0.0
 11
-222.6057412711238
 21
-249.6782338092715
 31
0.0
  0
LINE
  5
196
102
{ACAD_REACTORS
330
24B
330
24C
102
}
330
74
100
AcDbEntity
  8
0
  6
Continuous
 62
     2
100
AcDbLine
 10
-222.2900243480481
 20
-245.0060618434782
 30
0.0
 11
-220.8141910870385
 21
-245.0060618434782
 31
0.0
  0
LINE
  5
197
102
{ACAD_REACTORS
330
24B
330
24C
102
}
330
74
100
AcDbEntity
  8
0
  6
Continuous
 62
     2
100
AcDbLine
 10
-220.4984741639619
 20
-245.9258033856149
 30
0.0
 11
-220.4984741639619
 21
-245.3217787665544
 31
0.0
  0
LINE
  5
198
102
{ACAD_REACTORS
330
24B
330
24C
102
}
330
74
100
AcDbEntity
  8
0
  6
Continuous
 62
     2
100
AcDbLine
 10
-220.4984741639619
 20
-249.6782338092715
 30
0.0
 11
-220.4984741639619
 21
-248.1474628777399
 31
0.0
  0
LINE
  5
199
102
{ACAD_REACTORS
330
24B
330
24C
102
}
330
74
100
AcDbEntity
  8
0
  6
Continuous
 62
     2
100
AcDbLine
 10
-217.4106069340778
 20
-250.7065062879051
 30
0.0
 11
-222.8839190247946
 21
-250.7065062879051
 31
0.0
  0
LINE
  5
19A
102
{ACAD_REACTORS
330
24B
330
24C
102
}
330
74
100
AcDbEntity
  8
0
  6
Continuous
 62
     2
100
AcDbLine
 10
-216.9863623186939
 20
-244.7177509033216
 30
0.0
 11
-216.9863623186939
 21
-250.2822616725218
 31
0.0
  0
LINE
  5
19B
102
{ACAD_REACTORS
330
24B
330
24C
102
}
330
74
100
AcDbEntity
  8
0
  6
Continuous
 62
     2
100
AcDbLine
 10
-222.8839190247946
 20
-244.2935062879378
 30
0.0
 11
-217.4106069340778
 21
-244.2935062879378
 31
0.0
  0
LINE
  5
19C
102
{ACAD_REACTORS
330
24B
330
24C
102
}
330
74
100
AcDbEntity
  8
0
  6
Continuous
 62
     2
100
AcDbLine
 10
-223.3081636401774
 20
-244.7177509033216
 30
0.0
 11
-223.3081636401774
 21
-250.2822616725218
 31
0.0
  0
LINE
  5
19D
102
{ACAD_REACTORS
330
24B
330
24C
102
}
330
74
100
AcDbEntity
  8
0
  6
Continuous
 62
     2
100
AcDbLine
 10
-220.8141910870385
 20
-249.9939507323482
 30
0.0
 11
-222.2900243480481
 21
-249.9939507323482
 31
0.0
  0
LINE
  5
19E
102
{ACAD_REACTORS
330
245
330
246
102
}
330
74
100
AcDbEntity
  8
0
  6
Continuous
 62
     2
100
AcDbLine
 10
-215.268740827573
 20
-247.3473158117308
 30
0.0
 11
-215.268740827573
 21
-246.404237570587
 31
0.0
  0
LINE
  5
19F
102
{ACAD_REACTORS
330
245
330
246
102
}
330
74
100
AcDbEntity
  8
0
  6
Continuous
 62
     2
100
AcDbLine
 10
-216.5092452378271
 20
-247.3473158117308
 30
0.0
 11
-215.268740827573
 21
-247.3473158117308
 31
0.0
  0
LINE
  5
1A0
102
{ACAD_REACTORS
330
245
330
246
102
}
330
74
100
AcDbEntity
  8
0
  6
Continuous
 62
     2
100
AcDbLine
 10
-215.268740827573
 20
-245.6623397827019
 30
0.0
 11
-215.268740827573
 21
-244.9566121333597
 31
0.0
  0
LINE
  5
1A1
102
{ACAD_REACTORS
330
237
330
238
102
}
330
74
100
AcDbEntity
  8
0
  6
Continuous
 62
     2
100
AcDbLine
 10
-213.3125607960194
 20
-244.2935062879196
 30
0.0
 11
-213.3125607960194
 21
-247.3473158117308
 31
0.0
  0
LINE
  5
1A2
102
{ACAD_REACTORS
330
237
330
238
102
}
330
74
100
AcDbEntity
  8
0
  6
Continuous
 62
     2
100
AcDbLine
 10
-212.1197680938528
 20
-246.213043702887
 30
0.0
 11
-212.1197680938528
 21
-247.3473158117308
 31
0.0
  0
LINE
  5
1A3
102
{ACAD_REACTORS
330
237
330
238
102
}
330
74
100
AcDbEntity
  8
0
  6
Continuous
 62
     2
100
AcDbLine
 10
-211.0701105159453
 20
-246.213043702887
 30
0.0
 11
-212.1197680938528
 21
-246.213043702887
 31
0.0
  0
LINE
  5
1A4
102
{ACAD_REACTORS
330
237
330
238
102
}
330
74
100
AcDbEntity
  8
0
  6
Continuous
 62
     2
100
AcDbLine
 10
-211.0701105159453
 20
-244.2935062879196
 30
0.0
 11
-209.8773178137789
 21
-244.2935062879196
 31
0.0
  0
LINE
  5
1A5
102
{ACAD_REACTORS
330
237
330
238
102
}
330
74
100
AcDbEntity
  8
0
  6
Continuous
 62
     2
100
AcDbLine
 10
-211.0701105159453
 20
-245.3623396212542
 30
0.0
 11
-211.0701105159453
 21
-244.2935062879196
 31
0.0
  0
LINE
  5
1A6
102
{ACAD_REACTORS
330
249
330
24A
102
}
330
74
100
AcDbEntity
  8
0
  6
Continuous
 62
     2
100
AcDbLine
 10
-205.0584352970243
 20
-244.9915198933626
 30
0.0
 11
-205.0584352970243
 21
-244.2935062879196
 31
0.0
  0
LINE
  5
1A7
102
{ACAD_REACTORS
330
249
330
24A
102
}
330
74
100
AcDbEntity
  8
0
  6
Continuous
 62
     2
100
AcDbLine
 10
-208.2087550208053
 20
-244.2935062879196
 30
0.0
 11
-205.0584352970243
 21
-244.2935062879196
 31
0.0
  0
LINE
  5
1A8
102
{ACAD_REACTORS
330
249
330
24A
102
}
330
74
100
AcDbEntity
  8
0
  6
Continuous
 62
     2
100
AcDbLine
 10
-208.2087550208053
 20
-247.3473158117308
 30
0.0
 11
-205.0584352970243
 21
-247.3473158117308
 31
0.0
  0
LINE
  5
1A9
102
{ACAD_REACTORS
330
249
330
24A
102
}
330
74
100
AcDbEntity
  8
0
  6
Continuous
 62
     2
100
AcDbLine
 10
-205.0584352970243
 20
-247.3473158117308
 30
0.0
 11
-205.0584352970243
 21
-246.6493022062883
 31
0.0
  0
LINE
  5
1AA
102
{ACAD_REACTORS
330
249
330
24A
102
}
330
74
100
AcDbEntity
  8
0
  6
Continuous
 62
     2
100
AcDbLine
 10
-205.0584352970243
 20
-246.6493022062883
 30
0.0
 11
-206.394363123452
 21
-246.6493022062883
 31
0.0
  0
LINE
  5
1AB
102
{ACAD_REACTORS
330
249
330
24A
102
}
330
74
100
AcDbEntity
  8
0
  6
Continuous
 62
     2
100
AcDbLine
 10
-206.394363123452
 20
-246.6493022062883
 30
0.0
 11
-206.394363123452
 21
-246.1694178525466
 31
0.0
  0
LINE
  5
1AC
102
{ACAD_REACTORS
330
249
330
24A
102
}
330
74
100
AcDbEntity
  8
0
  6
Continuous
 62
     2
100
AcDbLine
 10
-206.394363123452
 20
-244.9915198933626
 30
0.0
 11
-205.0584352970243
 21
-244.9915198933626
 31
0.0
  0
LINE
  5
1AD
102
{ACAD_REACTORS
330
239
330
23A
102
}
330
74
100
AcDbEntity
  8
0
  6
Continuous
 62
     2
100
AcDbLine
 10
-208.8755228748435
 20
-250.7065062879051
 30
0.0
 11
-208.8755228748435
 21
-249.3977307777005
 31
0.0
  0
LINE
  5
1AE
102
{ACAD_REACTORS
330
239
330
23A
102
}
330
74
100
AcDbEntity
  8
0
  6
Continuous
 62
     2
100
AcDbLine
 10
-208.8755228748435
 20
-249.3977307777005
 30
0.0
 11
-207.6350184645906
 21
-250.7065062879051
 31
0.0
  0
LINE
  5
1AF
102
{ACAD_REACTORS
330
239
330
23A
102
}
330
74
100
AcDbEntity
  8
0
  6
Continuous
 62
     2
100
AcDbLine
 10
-206.4422257624242
 20
-250.7065062879051
 30
0.0
 11
-206.4422257624242
 21
-247.652696764094
 31
0.0
  0
LINE
  5
1B0
102
{ACAD_REACTORS
330
239
330
23A
102
}
330
74
100
AcDbEntity
  8
0
  6
Continuous
 62
     2
100
AcDbLine
 10
-206.4422257624242
 20
-247.652696764094
 30
0.0
 11
-207.6350184645906
 21
-247.652696764094
 31
0.0
  0
LINE
  5
1B1
102
{ACAD_REACTORS
330
239
330
23A
102
}
330
74
100
AcDbEntity
  8
0
  6
Continuous
 62
     2
100
AcDbLine
 10
-207.6350184645906
 20
-247.652696764094
 30
0.0
 11
-207.6350184645906
 21
-248.9614722742991
 31
0.0
  0
LINE
  5
1B2
102
{ACAD_REACTORS
330
239
330
23A
102
}
330
74
100
AcDbEntity
  8
0
  6
Continuous
 62
     2
100
AcDbLine
 10
-207.6350184645906
 20
-248.9614722742991
 30
0.0
 11
-208.8755228748435
 21
-247.652696764094
 31
0.0
  0
LINE
  5
1B3
102
{ACAD_REACTORS
330
23B
330
23C
102
}
330
74
100
AcDbEntity
  8
0
  6
Continuous
 62
     2
100
AcDbLine
 10
-203.6270840544249
 20
-246.0385403015261
 30
0.0
 11
-202.3865796441709
 21
-247.3473158117308
 31
0.0
  0
LINE
  5
1B4
102
{ACAD_REACTORS
330
23B
330
23C
102
}
330
74
100
AcDbEntity
  8
0
  6
Continuous
 62
     2
100
AcDbLine
 10
-202.3865796441709
 20
-247.3473158117308
 30
0.0
 11
-201.1937869420043
 21
-247.3473158117308
 31
0.0
  0
LINE
  5
1B5
102
{ACAD_REACTORS
330
23B
330
23C
102
}
330
74
100
AcDbEntity
  8
0
  6
Continuous
 62
     2
100
AcDbLine
 10
-201.1937869420043
 20
-247.3473158117308
 30
0.0
 11
-201.1937869420043
 21
-244.2935062879196
 31
0.0
  0
LINE
  5
1B6
102
{ACAD_REACTORS
330
23B
330
23C
102
}
330
74
100
AcDbEntity
  8
0
  6
Continuous
 62
     2
100
AcDbLine
 10
-201.1937869420043
 20
-244.2935062879196
 30
0.0
 11
-202.3865796441709
 21
-244.2935062879196
 31
0.0
  0
LINE
  5
1B7
102
{ACAD_REACTORS
330
23B
330
23C
102
}
330
74
100
AcDbEntity
  8
0
  6
Continuous
 62
     2
100
AcDbLine
 10
-202.3865796441709
 20
-245.6022817981248
 30
0.0
 11
-203.6270840544249
 21
-244.2935062879196
 31
0.0
  0
LINE
  5
1B8
102
{ACAD_REACTORS
330
23B
330
23C
102
}
330
74
100
AcDbEntity
  8
0
  6
Continuous
 62
     2
100
AcDbLine
 10
-204.8198767565914
 20
-247.3473158117308
 30
0.0
 11
-203.6270840544249
 21
-247.3473158117308
 31
0.0
  0
LINE
  5
1B9
102
{ACAD_REACTORS
330
23D
330
23E
102
}
330
74
100
AcDbEntity
  8
0
  6
Continuous
 62
     2
100
AcDbLine
 10
-206.299090638164
 20
-247.652696764094
 30
0.0
 11
-206.299090638164
 21
-248.4379620702176
 31
0.0
  0
LINE
  5
1BA
102
{ACAD_REACTORS
330
23D
330
23E
102
}
330
74
100
AcDbEntity
  8
0
  6
Continuous
 62
     2
100
AcDbLine
 10
-205.4879916006894
 20
-248.4379620702176
 30
0.0
 11
-205.4879916006894
 21
-250.7065062879051
 31
0.0
  0
LINE
  5
1BB
102
{ACAD_REACTORS
330
23D
330
23E
102
}
330
74
100
AcDbEntity
  8
0
  6
Continuous
 62
     2
100
AcDbLine
 10
-205.4879916006894
 20
-250.7065062879051
 30
0.0
 11
-204.2951988985229
 21
-250.7065062879051
 31
0.0
  0
LINE
  5
1BC
102
{ACAD_REACTORS
330
23F
330
240
102
}
330
74
100
AcDbEntity
  8
0
  6
Continuous
 62
     2
100
AcDbLine
 10
-201.3456724051034
 20
-250.7065062879051
 30
0.0
 11
-201.5571524585792
 21
-250.1655457436872
 31
0.0
  0
LINE
  5
1BD
102
{ACAD_REACTORS
330
23F
330
240
102
}
330
74
100
AcDbEntity
  8
0
  6
Continuous
 62
     2
100
AcDbLine
 10
-201.5031210417898
 20
-247.652696764094
 30
0.0
 11
-200.1051679948495
 21
-250.7065062879051
 31
0.0
  0
LINE
  5
1BE
102
{ACAD_REACTORS
330
23F
330
240
102
}
330
74
100
AcDbEntity
  8
0
  6
Continuous
 62
     2
100
AcDbLine
 10
-202.7436254520425
 20
-247.652696764094
 30
0.0
 11
-201.5031210417898
 21
-247.652696764094
 31
0.0
  0
LINE
  5
1BF
102
{ACAD_REACTORS
330
23F
330
240
102
}
330
74
100
AcDbEntity
  8
0
  6
Continuous
 62
     2
100
AcDbLine
 10
-204.1415784989818
 20
-250.7065062879051
 30
0.0
 11
-202.9010740887288
 21
-250.7065062879051
 31
0.0
  0
LINE
  5
1C0
102
{ACAD_REACTORS
330
23F
330
240
102
}
330
74
100
AcDbEntity
  8
0
  6
Continuous
 62
     2
100
AcDbLine
 10
-202.423538484108
 20
-249.4849824783806
 30
0.0
 11
-201.8232080097255
 21
-249.4849824783806
 31
0.0
  0
LINE
  5
1C1
102
{ACAD_REACTORS
330
23F
330
240
102
}
330
74
100
AcDbEntity
  8
0
  6
Continuous
 62
     2
100
AcDbLine
 10
-201.8232080097255
 20
-249.4849824783806
 30
0.0
 11
-202.1233732469156
 21
-248.7171675123939
 31
0.0
  0
LINE
  5
1C2
102
{ACAD_REACTORS
330
241
330
242
102
}
330
74
100
AcDbEntity
  8
0
  6
Continuous
 62
     2
100
AcDbLine
 10
-199.7147239913175
 20
-247.3473158117308
 30
0.0
 11
-200.9552284015704
 21
-247.3473158117308
 31
0.0
  0
LINE
  5
1C3
102
{ACAD_REACTORS
330
243
330
244
102
}
330
74
100
AcDbEntity
  8
0
  6
Continuous
 62
     2
100
AcDbLine
 10
-198.1927205033524
 20
-247.3473158117308
 30
0.0
 11
-199.5954447211006
 21
-247.3473158117308
 31
0.0
  0
LINE
  5
1C4
102
{ACAD_REACTORS
330
243
330
244
102
}
330
74
100
AcDbEntity
  8
0
  6
Continuous
 62
     2
100
AcDbLine
 10
-198.1927205033524
 20
-247.3473158117308
 30
0.0
 11
-197.4961295652867
 21
-246.5595840264371
 31
0.0
  0
LINE
  5
1C5
102
{ACAD_REACTORS
330
243
330
244
102
}
330
74
100
AcDbEntity
  8
0
  6
Continuous
 62
     2
100
AcDbLine
 10
-196.8949620433939
 20
-244.2935062879196
 30
0.0
 11
-195.4922378256467
 21
-244.2935062879196
 31
0.0
  0
LINE
  5
1C6
102
{ACAD_REACTORS
330
243
330
244
102
}
330
74
100
AcDbEntity
  8
0
  6
Continuous
 62
     2
100
AcDbLine
 10
-199.5000213049278
 20
-244.2935062879196
 30
0.0
 11
-198.1974916741603
 21
-245.7664568179558
 31
0.0
  0
LINE
  5
1C7
102
{ACAD_REACTORS
330
243
330
244
102
}
330
74
100
AcDbEntity
  8
0
  6
Continuous
 62
     2
100
AcDbLine
 10
-199.5954447211006
 20
-247.3473158117308
 30
0.0
 11
-198.1974916741603
 21
-245.7664568179558
 31
0.0
  0
LINE
  5
1C8
102
{ACAD_REACTORS
330
24D
330
24E
102
}
330
74
100
AcDbEntity
  8
0
  6
Continuous
 62
     2
100
AcDbLine
 10
-197.7346881057207
 20
-249.6594858797415
 30
0.0
 11
-197.7346881057207
 21
-250.5320028865448
 31
0.0
  0
LINE
  5
1C9
102
{ACAD_REACTORS
330
24D
330
24E
102
}
330
74
100
AcDbEntity
  8
0
  6
Continuous
 62
     2
100
AcDbLine
 10
-198.5043454486821
 20
-248.4379620702176
 30
0.0
 11
-197.400706149114
 21
-248.4379620702176
 31
0.0
  0
LINE
  5
1CA
102
{ACAD_REACTORS
330
24F
330
250
102
}
330
74
100
AcDbEntity
  8
0
  6
Continuous
 62
     2
100
AcDbLine
 10
-213.8373895849726
 20
-249.659485879741
 30
0.0
 11
-213.8373895849726
 21
-250.5320028865442
 31
0.0
  0
LINE
  5
1CB
102
{ACAD_REACTORS
330
24F
330
250
102
}
330
74
100
AcDbEntity
  8
0
  6
Continuous
 62
     2
100
AcDbLine
 10
-213.8373895849726
 20
-248.6997171722581
 30
0.0
 11
-213.8373895849726
 21
-247.8272001654548
 31
0.0
  0
LINE
  5
1CC
330
74
100
AcDbEntity
  8
1
  6
Continuous
 62
     7
100
AcDbLine
 10
-98.00001399998868
 20
-249.5000062879214
 30
0.0
 11
-191.1448185267401
 21
-249.5000062879214
 31
0.0
  0
LINE
  5
1CD
330
74
100
AcDbEntity
  8
1
  6
Continuous
 62
     6
100
AcDbLine
 10
-296.54481852674
 20
-258.0000062879213
 30
0.0
 11
-341.50001399999
 21
-258.0000062879213
 31
0.0
  0
LINE
  5
1CE
330
74
100
AcDbEntity
  8
1
  6
Continuous
 62
     7
100
AcDbLine
 10
-106.9184222816675
 20
-232.5000062879214
 30
0.0
 11
-106.9184222816675
 21
-241.0000062879214
 31
0.0
  0
LINE
  5
1CF
330
74
100
AcDbEntity
  8
1
  6
Continuous
 62
     7
100
AcDbLine
 10
-133.4184222816671
 20
-232.5000062879214
 30
0.0
 11
-133.4184222816671
 21
-241.0000062879214
 31
0.0
  0
LINE
  5
1D0
330
74
100
AcDbEntity
  8
1
  6
Continuous
 62
     7
100
AcDbLine
 10
-191.1448185267401
 20
-241.0000062879214
 30
0.0
 11
-191.1448185267401
 21
-232.5000062879214
 31
0.0
  0
LINE
  5
1D1
330
74
100
AcDbEntity
  8
1
  6
Continuous
 62
     7
100
AcDbLine
 10
-227.54481852674
 20
-241.0000062879214
 30
0.0
 11
-227.54481852674
 21
-232.5000062879214
 31
0.0
  0
LINE
  5
1D2
330
74
100
AcDbEntity
  8
1
  6
Continuous
 62
     6
100
AcDbLine
 10
-191.1448185267401
 20
-241.0000062879214
 30
0.0
 11
-98.00001399998828
 21
-241.0000062879214
 31
0.0
  0
LINE
  5
1D3
330
74
100
AcDbEntity
  8
1
  6
Continuous
 62
     7
100
AcDbLine
 10
-163.24481852674
 20
-249.5000062879215
 30
0.0
 11
-163.24481852674
 21
-241.0000062879214
 31
0.0
  0
LINE
  5
1D4
330
74
100
AcDbEntity
  8
1
  6
PHANTOM
 62
     2
100
AcDbLine
 10
-212.0581636401774
 20
-236.8750062879215
 30
0.0
 11
-217.5581636401774
 21
-236.8750062879215
 31
0.0
  0
LINE
  5
1D5
330
74
100
AcDbEntity
  8
1
  6
PHANTOM
 62
     2
100
AcDbLine
 10
-214.8081636401774
 20
-234.1250062879215
 30
0.0
 11
-214.8081636401774
 21
-239.6250062879215
 31
0.0
  0
LINE
  5
1D6
330
74
100
AcDbEntity
  8
1
  6
DOT_CENTER
 62
     2
100
AcDbLine
 10
-223.5581636401774
 20
-236.8750062879215
 30
0.0
 11
-218.0581636401774
 21
-236.8750062879215
 31
0.0
  0
ARC
  5
1D7
102
{ACAD_REACTORS
330
24F
330
250
102
}
330
74
100
AcDbEntity
  8
0
  6
Continuous
 62
     2
100
AcDbCircle
 10
-215.1733175020904
 20
-252.4922824712557
 30
0.0
 40
4.852596863498068
100
AcDbArc
 50
74.02000874164739
 51
84.84185523037472
  0
ARC
  5
1D8
102
{ACAD_REACTORS
330
24F
330
250
102
}
330
74
100
AcDbEntity
  8
0
  6
Continuous
 62
     2
100
AcDbCircle
 10
-214.5972768933367
 20
-249.3365221153714
 30
0.0
 40
0.9059297849853318
100
AcDbArc
 50
71.55192388185178
 51
113.372277888129
  0
ARC
  5
1D9
102
{ACAD_REACTORS
330
24F
330
250
102
}
330
74
100
AcDbEntity
  8
0
  6
Continuous
 62
     2
100
AcDbCircle
 10
-214.7537169260387
 20
-249.3846729553383
 30
0.0
 40
0.5115800601948034
100
AcDbArc
 50
208.5214732576956
 51
246.6277221118245
  0
ARC
  5
1DA
102
{ACAD_REACTORS
330
24F
330
250
102
}
330
74
100
AcDbEntity
  8
0
  6
Continuous
 62
     2
100
AcDbCircle
 10
-214.5972768933367
 20
-249.0226809366283
 30
0.0
 40
0.9059297849849192
100
AcDbArc
 50
246.627722111871
 51
288.4480761181596
  0
ARC
  5
1DB
102
{ACAD_REACTORS
330
24F
330
250
102
}
330
74
100
AcDbEntity
  8
0
  6
Continuous
 62
     2
100
AcDbCircle
 10
-215.0154446269975
 20
-247.7691351605911
 30
0.0
 40
2.227384008972773
100
AcDbArc
 50
288.4480761181333
 51
301.9309089499593
  0
ARC
  5
1DC
102
{ACAD_REACTORS
330
24B
330
24C
102
}
330
74
100
AcDbEntity
  8
0
  6
Continuous
 62
     2
100
AcDbCircle
 10
-220.2405183596043
 20
-247.0366331316771
 30
0.0
 40
0.9118481501444847
100
AcDbArc
 50
295.3740086781757
 51
64.62599132180748
  0
ARC
  5
1DD
102
{ACAD_REACTORS
330
24B
330
24C
102
}
330
74
100
AcDbEntity
  8
0
  6
Continuous
 62
     2
100
AcDbCircle
 10
-219.7144756615164
 20
-245.3219562432025
 30
0.0
 40
0.3157169230760427
100
AcDbArc
 50
90.18896704255111
 51
180.0
  0
ARC
  5
1DE
102
{ACAD_REACTORS
330
24D
330
24E
102
}
330
74
100
AcDbEntity
  8
0
  6
Continuous
 62
     2
100
AcDbCircle
 10
-198.5043454486821
 20
-249.3924850770437
 30
0.0
 40
0.9545230068260935
100
AcDbArc
 50
90.0
 51
109.337143219432
  0
ARC
  5
1DF
102
{ACAD_REACTORS
330
24D
330
24E
102
}
330
74
100
AcDbEntity
  8
0
  6
Continuous
 62
     2
100
AcDbCircle
 10
-198.2736581887044
 20
-249.1796015259998
 30
0.0
 40
0.9410597353349173
100
AcDbArc
 50
151.4785267423633
 51
208.5214732576687
  0
ARC
  5
1E0
102
{ACAD_REACTORS
330
24D
330
24E
102
}
330
74
100
AcDbEntity
  8
0
  6
Continuous
 62
     2
100
AcDbCircle
 10
-198.4945754140827
 20
-249.0226809366283
 30
0.0
 40
0.9059297849852801
100
AcDbArc
 50
246.6277221118183
 51
288.4480761180811
  0
ARC
  5
1E1
102
{ACAD_REACTORS
330
24D
330
24E
102
}
330
74
100
AcDbEntity
  8
0
  6
Continuous
 62
     2
100
AcDbCircle
 10
-198.9127431477446
 20
-247.7691351605917
 30
0.0
 40
2.227384008972773
100
AcDbArc
 50
288.4480761181333
 51
301.9309089499394
  0
ARC
  5
1E2
102
{ACAD_REACTORS
330
24D
330
24E
102
}
330
74
100
AcDbEntity
  8
0
  6
Continuous
 62
     2
100
AcDbCircle
 10
-199.0706160228374
 20
-245.8669205807434
 30
0.0
 40
4.852596863498825
100
AcDbArc
 50
275.1581447696364
 51
285.9799912583387
  0
ARC
  5
1E3
102
{ACAD_REACTORS
330
24D
330
24E
102
}
330
74
100
AcDbEntity
  8
0
  6
Continuous
 62
     2
100
AcDbCircle
 10
-198.7817599281016
 20
-249.066811163965
 30
0.0
 40
1.639695123940413
100
AcDbArc
 50
195.0618917771005
 51
275.1581447696763
  0
ARC
  5
1E4
102
{ACAD_REACTORS
330
245
330
246
102
}
330
74
100
AcDbEntity
  8
0
  6
Continuous
 62
     2
100
AcDbCircle
 10
-214.5099732397927
 20
-245.3488719292533
 30
0.0
 40
1.05536564133368
100
AcDbArc
 50
270.0
 51
90.0
  0
ARC
  5
1E5
102
{ACAD_REACTORS
330
24B
330
24C
102
}
330
74
100
AcDbEntity
  8
0
  6
Continuous
 62
     2
100
AcDbCircle
 10
-222.2900243480481
 20
-249.6782338092715
 30
0.0
 40
0.315716923075712
100
AcDbArc
 50
180.0
 51
270.0
  0
ARC
  5
1E6
102
{ACAD_REACTORS
330
24B
330
24C
102
}
330
74
100
AcDbEntity
  8
0
  6
Continuous
 62
     2
100
AcDbCircle
 10
-220.8141910870385
 20
-245.3217787665544
 30
0.0
 40
0.315716923076593
100
AcDbArc
 50
0.0
 51
90.0
  0
ARC
  5
1E7
102
{ACAD_REACTORS
330
24B
330
24C
102
}
330
74
100
AcDbEntity
  8
0
  6
Continuous
 62
     2
100
AcDbCircle
 10
-220.8141910870385
 20
-245.9258033856149
 30
0.0
 40
0.315716923076146
100
AcDbArc
 50
295.1944106485375
 51
0.0
  0
ARC
  5
1E8
102
{ACAD_REACTORS
330
24B
330
24C
102
}
330
74
100
AcDbEntity
  8
0
  6
Continuous
 62
     2
100
AcDbCircle
 10
-220.8141910870385
 20
-249.6782338092715
 30
0.0
 40
0.3157169230767067
100
AcDbArc
 50
270.0
 51
0.0
  0
ARC
  5
1E9
102
{ACAD_REACTORS
330
24B
330
24C
102
}
330
74
100
AcDbEntity
  8
0
  6
Continuous
 62
     2
100
AcDbCircle
 10
-222.8839190247946
 20
-244.7177509033216
 30
0.0
 40
0.4242446153837989
100
AcDbArc
 50
90.0
 51
180.0
  0
ARC
  5
1EA
102
{ACAD_REACTORS
330
24B
330
24C
102
}
330
74
100
AcDbEntity
  8
0
  6
Continuous
 62
     2
100
AcDbCircle
 10
-217.4106069340778
 20
-244.7177509033216
 30
0.0
 40
0.4242446153839126
100
AcDbArc
 50
0.0
 51
90.0
  0
ARC
  5
1EB
102
{ACAD_REACTORS
330
24B
330
24C
102
}
330
74
100
AcDbEntity
  8
0
  6
Continuous
 62
     2
100
AcDbCircle
 10
-217.4106069340778
 20
-250.2822616725218
 30
0.0
 40
0.4242446153833157
100
AcDbArc
 50
270.0
 51
0.0
  0
ARC
  5
1EC
102
{ACAD_REACTORS
330
249
330
24A
102
}
330
74
100
AcDbEntity
  8
0
  6
Continuous
 62
     2
100
AcDbCircle
 10
-208.1922230469863
 20
-245.8204110498255
 30
0.0
 40
0.7717997786796198
100
AcDbArc
 50
321.8795802028454
 51
38.12041979716123
  0
ARC
  5
1ED
102
{ACAD_REACTORS
330
249
330
24A
102
}
330
74
100
AcDbEntity
  8
0
  6
Continuous
 62
     2
100
AcDbCircle
 10
-207.9924830106401
 20
-245.9771422279459
 30
0.0
 40
0.5179085730134595
100
AcDbArc
 50
218.1204197971492
 51
321.8795802028547
  0
ARC
  5
1EE
102
{ACAD_REACTORS
330
247
330
248
102
}
330
74
100
AcDbEntity
  8
0
  6
Continuous
 62
     2
100
AcDbCircle
 10
-211.6724905996003
 20
-249.1796015259998
 30
0.0
 40
1.458034083652003
100
AcDbArc
 50
297.548148175701
 51
62.45185182429896
  0
ARC
  5
1EF
102
{ACAD_REACTORS
330
247
330
248
102
}
330
74
100
AcDbEntity
  8
0
  6
Continuous
 62
     2
100
AcDbCircle
 10
-212.2343703832669
 20
-249.1796015259998
 30
0.0
 40
1.45803408365149
100
AcDbArc
 50
117.5481481756624
 51
242.4518518243375
  0
ARC
  5
1F0
102
{ACAD_REACTORS
330
247
330
248
102
}
330
74
100
AcDbEntity
  8
0
  6
Continuous
 62
     2
100
AcDbCircle
 10
-211.9534304914336
 20
-249.7181765363026
 30
0.0
 40
2.065479772208568
100
AcDbArc
 50
62.45185182430637
 51
117.5481481756664
  0
ARC
  5
1F1
102
{ACAD_REACTORS
330
247
330
248
102
}
330
74
100
AcDbEntity
  8
0
  6
Continuous
 62
     2
100
AcDbCircle
 10
-211.9534304914336
 20
-248.6410265156965
 30
0.0
 40
2.065479772208509
100
AcDbArc
 50
242.4518518243402
 51
297.5481481756871
  0
ARC
  5
1F2
102
{ACAD_REACTORS
330
249
330
24A
102
}
330
74
100
AcDbEntity
  8
0
  6
Continuous
 62
     2
100
AcDbCircle
 10
-207.7927429742938
 20
-245.8204110498255
 30
0.0
 40
0.7717997786797123
100
AcDbArc
 50
141.8795802028401
 51
218.1204197971533
  0
ARC
  5
1F3
102
{ACAD_REACTORS
330
249
330
24A
102
}
330
74
100
AcDbEntity
  8
0
  6
Continuous
 62
     2
100
AcDbCircle
 10
-207.9924830106401
 20
-245.663679871705
 30
0.0
 40
0.5179085730135041
100
AcDbArc
 50
38.12041979714528
 51
141.8795802028508
  0
ARC
  5
1F4
102
{ACAD_REACTORS
330
24B
330
24C
102
}
330
74
100
AcDbEntity
  8
0
  6
Continuous
 62
     2
100
AcDbCircle
 10
-222.8839190247946
 20
-250.2822616725218
 30
0.0
 40
0.4242446153828041
100
AcDbArc
 50
180.0
 51
270.0
  0
ARC
  5
1F5
102
{ACAD_REACTORS
330
24B
330
24C
102
}
330
74
100
AcDbEntity
  8
0
  6
Continuous
 62
     2
100
AcDbCircle
 10
-220.8141910870385
 20
-248.1474628777399
 30
0.0
 40
0.315716923076593
100
AcDbArc
 50
0.0
 51
64.80558935146249
  0
ARC
  5
1F6
102
{ACAD_REACTORS
330
24B
330
24C
102
}
330
74
100
AcDbEntity
  8
0
  6
Continuous
 62
     2
100
AcDbCircle
 10
-220.2916066394635
 20
-247.0366331316771
 30
0.0
 40
0.9118975235575889
100
AcDbArc
 50
115.194410648529
 51
244.8055893514878
  0
ARC
  5
1F7
102
{ACAD_REACTORS
330
24B
330
24C
102
}
330
74
100
AcDbEntity
  8
0
  6
Continuous
 62
     2
100
AcDbCircle
 10
-222.2900243480481
 20
-245.3217787665544
 30
0.0
 40
0.3157169230761951
100
AcDbArc
 50
90.0
 51
180.0
  0
ARC
  5
1F8
102
{ACAD_REACTORS
330
245
330
246
102
}
330
74
100
AcDbEntity
  8
0
  6
Continuous
 62
     2
100
AcDbCircle
 10
-214.9514457660311
 20
-245.3094759580308
 30
0.0
 40
0.3528638246711182
100
AcDbArc
 50
270.0
 51
90.0
  0
ARC
  5
1F9
102
{ACAD_REACTORS
330
249
330
24A
102
}
330
74
100
AcDbEntity
  8
0
  6
Continuous
 62
     2
100
AcDbCircle
 10
-208.2087550208053
 20
-245.8204110498255
 30
0.0
 40
1.526904761905911
100
AcDbArc
 50
90.0
 51
270.0
  0
ARC
  5
1FA
102
{ACAD_REACTORS
330
24D
330
24E
102
}
330
74
100
AcDbEntity
  8
0
  6
Continuous
 62
     2
100
AcDbCircle
 10
-198.7817599281016
 20
-249.2923918880347
 30
0.0
 40
1.639695123940214
100
AcDbArc
 50
90.0
 51
164.9381082228957
  0
ARC
  5
1FB
102
{ACAD_REACTORS
330
24D
330
24E
102
}
330
74
100
AcDbEntity
  8
0
  6
Continuous
 62
     2
100
AcDbCircle
 10
-199.2008877715632
 20
-249.1796015259998
 30
0.0
 40
1.205656168392968
100
AcDbArc
 50
164.9381082229037
 51
195.0618917770962
  0
ARC
  5
1FC
102
{ACAD_REACTORS
330
24D
330
24E
102
}
330
74
100
AcDbEntity
  8
0
  6
Continuous
 62
     2
100
AcDbCircle
 10
-198.6510154467858
 20
-249.3846729553383
 30
0.0
 40
0.5115800601960215
100
AcDbArc
 50
208.5214732576866
 51
246.6277221118449
  0
ARC
  5
1FD
102
{ACAD_REACTORS
330
24D
330
24E
102
}
330
74
100
AcDbEntity
  8
0
  6
Continuous
 62
     2
100
AcDbCircle
 10
-198.6510154467858
 20
-248.9745300966608
 30
0.0
 40
0.5115800601944143
100
AcDbArc
 50
109.3371432194853
 51
151.4785267424225
  0
ARC
  5
1FE
102
{ACAD_REACTORS
330
24B
330
24C
102
}
330
74
100
AcDbEntity
  8
0
  6
Continuous
 62
     2
100
AcDbCircle
 10
-219.7144756615164
 20
-248.7276261383406
 30
0.0
 40
0.3157169230768204
100
AcDbArc
 50
180.0
 51
269.811032957449
  0
ARC
  5
1FF
102
{ACAD_REACTORS
330
24B
330
24C
102
}
330
74
100
AcDbEntity
  8
0
  6
Continuous
 62
     2
100
AcDbCircle
 10
-219.7088595262064
 20
-247.0247911907716
 30
0.0
 40
2.018561131933266
100
AcDbArc
 50
269.8110329575858
 51
90.18896704241416
  0
ARC
  5
200
102
{ACAD_REACTORS
330
24B
330
24C
102
}
330
74
100
AcDbEntity
  8
0
  6
Continuous
 62
     2
100
AcDbCircle
 10
-219.7144756615164
 20
-245.9274915317093
 30
0.0
 40
0.3157169230768204
100
AcDbArc
 50
180.0
 51
244.6259913216412
  0
ARC
  5
201
102
{ACAD_REACTORS
330
24B
330
24C
102
}
330
74
100
AcDbEntity
  8
0
  6
Continuous
 62
     2
100
AcDbCircle
 10
-219.7144756615164
 20
-248.1457747316455
 30
0.0
 40
0.3157169230765193
100
AcDbArc
 50
115.3740086783587
 51
180.0
  0
ARC
  5
202
102
{ACAD_REACTORS
330
24F
330
250
102
}
330
74
100
AcDbEntity
  8
0
  6
Continuous
 62
     2
100
AcDbCircle
 10
-214.8844614073545
 20
-249.2923918880347
 30
0.0
 40
1.639695123940509
100
AcDbArc
 50
84.84185523036136
 51
164.9381082228874
  0
ARC
  5
203
102
{ACAD_REACTORS
330
24F
330
250
102
}
330
74
100
AcDbEntity
  8
0
  6
Continuous
 62
     2
100
AcDbCircle
 10
-215.3035892508173
 20
-249.1796015259998
 30
0.0
 40
1.205656168390937
100
AcDbArc
 50
164.9381082228778
 51
195.0618917770948
  0
ARC
  5
204
102
{ACAD_REACTORS
330
24F
330
250
102
}
330
74
100
AcDbEntity
  8
0
  6
Continuous
 62
     2
100
AcDbCircle
 10
-214.8844614073545
 20
-249.066811163965
 30
0.0
 40
1.63969512393938
100
AcDbArc
 50
195.0618917770886
 51
275.1581447696406
  0
ARC
  5
205
102
{ACAD_REACTORS
330
24F
330
250
102
}
330
74
100
AcDbEntity
  8
0
  6
Continuous
 62
     2
100
AcDbCircle
 10
-215.1733175020904
 20
-245.8669205807434
 30
0.0
 40
4.852596863498141
100
AcDbArc
 50
275.1581447696253
 51
285.9799912583529
  0
ARC
  5
206
102
{ACAD_REACTORS
330
24F
330
250
102
}
330
74
100
AcDbEntity
  8
0
  6
Continuous
 62
     2
100
AcDbCircle
 10
-214.3763596679584
 20
-249.1796015259998
 30
0.0
 40
0.9410597353332295
100
AcDbArc
 50
151.4785267422661
 51
208.5214732577066
  0
ARC
  5
207
102
{ACAD_REACTORS
330
24F
330
250
102
}
330
74
100
AcDbEntity
  8
0
  6
Continuous
 62
     2
100
AcDbCircle
 10
-214.7537169260387
 20
-248.9745300966608
 30
0.0
 40
0.5115800601948891
100
AcDbArc
 50
113.3722778882021
 51
151.4785267423044
  0
ARC
  5
208
102
{ACAD_REACTORS
330
24F
330
250
102
}
330
74
100
AcDbEntity
  8
0
  6
Continuous
 62
     2
100
AcDbCircle
 10
-215.0154446269975
 20
-250.590067891408
 30
0.0
 40
2.227384008973501
100
AcDbArc
 50
58.06909105004111
 51
71.55192388186676
  0
ARC
  5
209
102
{ACAD_REACTORS
330
247
330
248
102
}
330
74
100
AcDbEntity
  8
0
  6
Continuous
 62
     2
100
AcDbCircle
 10
-211.9534304914336
 20
-249.0228703478793
 30
0.0
 40
0.5179085730132998
100
AcDbArc
 50
38.12041979714704
 51
141.8795802028588
  0
ARC
  5
20A
102
{ACAD_REACTORS
330
247
330
248
102
}
330
74
100
AcDbEntity
  8
0
  6
Continuous
 62
     2
100
AcDbCircle
 10
-211.7536904550875
 20
-249.1796015259998
 30
0.0
 40
0.7717997786794633
100
AcDbArc
 50
141.8795802028363
 51
218.1204197971703
  0
ARC
  5
20B
102
{ACAD_REACTORS
330
247
330
248
102
}
330
74
100
AcDbEntity
  8
0
  6
Continuous
 62
     2
100
AcDbCircle
 10
-211.9534304914336
 20
-249.3363327041198
 30
0.0
 40
0.5179085730137529
100
AcDbArc
 50
218.1204197971956
 51
321.8795802027985
  0
ARC
  5
20C
102
{ACAD_REACTORS
330
247
330
248
102
}
330
74
100
AcDbEntity
  8
0
  6
Continuous
 62
     2
100
AcDbCircle
 10
-212.15317052778
 20
-249.1796015259998
 30
0.0
 40
0.77179977867969
100
AcDbArc
 50
321.8795802028388
 51
38.12041979715458
  0
CIRCLE
  5
20D
330
74
100
AcDbEntity
  8
1
  6
Continuous
 62
     2
100
AcDbCircle
 10
-214.8081636401774
 20
-236.8750062879215
 30
0.0
 40
2.5
  0
CIRCLE
  5
20E
330
74
100
AcDbEntity
  8
1
  6
Continuous
 62
     2
100
AcDbCircle
 10
-214.8081636401774
 20
-236.8750062879215
 30
0.0
 40
1.249999999999915
  0
CIRCLE
  5
20F
102
{ACAD_REACTORS
330
24B
330
24C
102
}
330
74
100
AcDbEntity
  8
0
  6
Continuous
 62
     2
100
AcDbCircle
 10
-220.2643333742771
 20
-247.0366331316771
 30
0.0
 40
0.4709789327785074
  0
MTEXT
  5
210
330
74
100
AcDbEntity
  8
1
 62
     3
100
AcDbMText
 10
-384.9949462139182
 20
-71.20869813262257
 30
0.0
 40
1.8
 41
0.0
 71
     7
 72
     1
  3
Weitergabe sowie Vervielf\U+00e4ltigung dieses Dokuments, Verwertung und \PMitteilung seines Inhalts sind verboten, soweit nicht ausdr\U+00fccklich gestattet. \PZuwiderhandlungen verpflichten zu Schadenersatz. Alle Rechte f\U+00fcr den Fall\Pder Pat
  1
ent-, Gebrauchsmuster- oder Designeintragung vorbehalten.
  7
CONVERTER_11
 73
     1
 44
0.99639855942377
  0
MTEXT
  5
211
330
74
100
AcDbEntity
  8
1
 62
     3
100
AcDbMText
 10
-202.1418363751301
 20
-71.20869813262257
 30
0.0
 40
1.8
 41
0.0
 71
     7
 72
     1
  3
Transfer or duplication of this document as well as the utilisation or\Pcommunication of its content are not permitted unless express consen\Pis granted. Violations give rise to claims for damages. All rights reserved\Pin case of patent, utility mod
  1
el or design patent registrations.
  7
CONVERTER_11
 73
     1
 44
0.99639855942377
  0
TEXT
  5
212
330
74
100
AcDbEntity
  8
1
 62
     2
100
AcDbText
 10
-208.3448185267402
 20
-256.759023502913
 30
0.0
 40
1.8
  1
of
 41
0.9
  7
CONVERTER_11
100
AcDbText
  0
TEXT
  5
213
330
74
100
AcDbEntity
  8
1
 62
     2
100
AcDbText
 10
-226.54481852674
 20
-256.759023502913
 30
0.0
 40
1.8
  1
page
 41
0.9
  7
CONVERTER_11
100
AcDbText
  0
TEXT
  5
214
330
74
100
AcDbEntity
  8
1
 62
     2
100
AcDbText
 10
-217.898553556398
 20
-256.7992549417234
 30
0.0
 40
1.8
  1
1
 41
0.9
  7
CONVERTER_11
100
AcDbText
  0
TEXT
  5
215
330
74
100
AcDbEntity
  8
1
 62
     2
100
AcDbText
 10
-203.1095097169265
 20
-256.7500062879215
 30
0.0
 40
1.8
  1
1
 41
0.9
  7
CONVERTER_11
100
AcDbText
  0
MTEXT
  5
217
330
74
100
AcDbEntity
  8
1
 62
     7
100
AcDbMText
 10
-144.5724162633645
 20
-254.7500062879211
 30
0.0
 40
3.0
 41
0.0
 71
     5
 72
     1
  1
HC-BS-PG21
  7
CONVERTER_12
 73
     1
 44
1.20048019207683
  0
MTEXT
  5
218
330
74
100
AcDbEntity
  8
1
 62
     2
100
AcDbMText
 10
-190.1448185267401
 20
-250.5000062879214
 30
0.0
 40
1.8
 41
0.0
 71
     1
 72
     1
  1
description
  7
CONVERTER_11
 73
     1
 44
1.20048019207683
  0
MTEXT
  5
219
330
74
100
AcDbEntity
  8
1
 62
     3
100
AcDbMText
 10
-201.3448185267401
 20
-236.8750062879214
 30
0.0
 40
2.5
 41
0.0
 71
     5
 72
     1
  1
DIN A4
  7
CONVERTER_11
 73
     1
 44
1.20048019207683
  0
MTEXT
  5
21A
330
74
100
AcDbEntity
  8
1
 62
     7
100
AcDbMText
 10
-387.5000139999891
 20
-235.5000062879214
 30
0.0
 40
3.5
 41
0.0
 71
     5
 72
     1
  1
D
  7
CONVERTER_11
 73
     1
 44
1.20048019207683
  0
MTEXT
  5
21B
330
74
100
AcDbEntity
  8
1
 62
     7
100
AcDbMText
 10
-387.5000139999891
 20
-183.0000062879214
 30
0.0
 40
3.5
 41
0.0
 71
     5
 72
     1
  1
C
  7
CONVERTER_11
 73
     1
 44
1.20048019207683
  0
MTEXT
  5
21C
330
74
100
AcDbEntity
  8
1
 62
     7
100
AcDbMText
 10
-387.5000139999891
 20
-133.0000062879214
 30
0.0
 40
3.5
 41
0.0
 71
     5
 72
     1
  1
B
  7
CONVERTER_11
 73
     1
 44
1.20048019207683
  0
MTEXT
  5
21D
330
74
100
AcDbEntity
  8
1
 62
     7
100
AcDbMText
 10
-387.5000139999891
 20
-80.50000628792137
 30
0.0
 40
3.5
 41
0.0
 71
     5
 72
     1
  1
A
  7
CONVERTER_11
 73
     1
 44
1.20048019207683
  0
MTEXT
  5
21E
330
74
100
AcDbEntity
  8
1
 62
     7
100
AcDbMText
 10
-117.2500139999908
 20
-260.5000062879215
 30
0.0
 40
3.5
 41
0.0
 71
     5
 72
     1
  1
6
  7
CONVERTER_11
 73
     1
 44
1.20048019207683
  0
MTEXT
  5
21F
330
74
100
AcDbEntity
  8
1
 62
     7
100
AcDbMText
 10
-166.50001399999
 20
-260.5000062879215
 30
0.0
 40
3.5
 41
0.0
 71
     5
 72
     1
  1
5
  7
CONVERTER_11
 73
     1
 44
1.20048019207683
  0
MTEXT
  5
220
330
74
100
AcDbEntity
  8
1
 62
     7
100
AcDbMText
 10
-216.5000139999901
 20
-260.5000062879215
 30
0.0
 40
3.5
 41
0.0
 71
     5
 72
     1
  1
4
  7
CONVERTER_11
 73
     1
 44
1.20048019207683
  0
MTEXT
  5
221
330
74
100
AcDbEntity
  8
1
 62
     7
100
AcDbMText
 10
-266.50001399999
 20
-260.5000062879215
 30
0.0
 40
3.5
 41
0.0
 71
     5
 72
     1
  1
3
  7
CONVERTER_11
 73
     1
 44
1.20048019207683
  0
MTEXT
  5
222
330
74
100
AcDbEntity
  8
1
 62
     7
100
AcDbMText
 10
-316.50001399999
 20
-260.5000062879215
 30
0.0
 40
3.5
 41
0.0
 71
     5
 72
     1
  1
2
  7
CONVERTER_11
 73
     1
 44
1.20048019207683
  0
MTEXT
  5
223
330
74
100
AcDbEntity
  8
1
 62
     7
100
AcDbMText
 10
-365.7500139999896
 20
-260.5000062879215
 30
0.0
 40
3.5
 41
0.0
 71
     5
 72
     1
  1
1
  7
CONVERTER_11
 73
     1
 44
1.20048019207683
  0
MTEXT
  5
224
330
74
100
AcDbEntity
  8
1
 62
     7
100
AcDbMText
 10
-95.50001399999098
 20
-235.5000062879214
 30
0.0
 40
3.5
 41
0.0
 71
     5
 72
     1
  1
D
  7
CONVERTER_11
 73
     1
 44
1.20048019207683
  0
MTEXT
  5
225
330
74
100
AcDbEntity
  8
1
 62
     7
100
AcDbMText
 10
-95.50001399999098
 20
-133.0000062879195
 30
0.0
 40
3.5
 41
0.0
 71
     5
 72
     1
  1
B
  7
CONVERTER_11
 73
     1
 44
1.20048019207683
  0
MTEXT
  5
226
330
74
100
AcDbEntity
  8
1
 62
     7
100
AcDbMText
 10
-95.50001399999098
 20
-80.50000628792137
 30
0.0
 40
3.5
 41
0.0
 71
     5
 72
     1
  1
A
  7
CONVERTER_11
 73
     1
 44
1.20048019207683
  0
MTEXT
  5
227
330
74
100
AcDbEntity
  8
1
 62
     7
100
AcDbMText
 10
-95.50001399999098
 20
-183.0000062879195
 30
0.0
 40
3.5
 41
0.0
 71
     5
 72
     1
  1
C
  7
CONVERTER_11
 73
     1
 44
1.20048019207683
  0
MTEXT
  5
228
330
74
100
AcDbEntity
  8
1
 62
     2
100
AcDbMText
 10
-261.9828332517875
 20
-245.2500062879215
 30
0.0
 40
2.0
 41
0.0
 71
     5
 72
     1
  1
General Information\P- Simplified representation\P- Document excluded from change process\P- Linear dimensions [mm]
  7
CONVERTER_11
 73
     1
 44
1.20048019207683
  0
TEXT
  5
229
330
74
100
AcDbEntity
  8
1
 62
     7
100
AcDbText
 10
-189.6448185267403
 20
-248.2000062879215
 30
0.0
 40
2.5
  1
1674529
 41
0.81
  7
CONVERTER_12
100
AcDbText
  0
MTEXT
  5
22A
330
74
100
AcDbEntity
  8
1
 62
     2
100
AcDbMText
 10
-190.04481852674
 20
-242.0000062879214
 30
0.0
 40
1.8
 41
0.0
 71
     1
 72
     1
  1
ident.-No.
  7
CONVERTER_11
 73
     1
 44
1.20048019207683
  0
MTEXT
  5
22B
330
74
100
AcDbEntity
  8
1
 62
     2
100
AcDbMText
 10
-105.8184222816673
 20
-233.5000062879214
 30
0.0
 40
1.8
 41
0.0
 71
     1
 72
     1
  1
scale
  7
CONVERTER_11
 73
     1
 44
1.20048019207683
  0
MTEXT
  5
22D
330
74
100
AcDbEntity
  8
1
 62
     3
100
AcDbMText
 10
-102.4592181408277
 20
-239.7000062879213
 30
0.0
 40
2.5
 41
0.0
 71
     8
 72
     1
  1
1:1
  7
CONVERTER_13
 73
     1
 44
1.32052821128451
  0
TEXT
  5
22E
330
74
100
AcDbEntity
  8
1
 62
     7
100
AcDbText
 10
-190.04481852674
 20
-239.7000062879215
 30
0.0
 40
2.5
  1
00896122
 41
0.81
  7
CONVERTER_12
100
AcDbText
  0
MTEXT
  5
230
330
74
100
AcDbEntity
  8
1
 62
     2
100
AcDbMText
 10
-190.04481852674
 20
-233.5000062879214
 30
0.0
 40
1.8
 41
0.0
 71
     1
 72
     1
  1
document-No. / RI
  7
CONVERTER_14
 73
     1
 44
1.32052821128451
  0
TEXT
  5
231
330
74
100
AcDbEntity
  8
1
 62
     3
100
AcDbText
 10
-162.24481852674
 20
-248.2000062879215
 30
0.0
 40
2.5
  1
 
 41
0.81
  7
CONVERTER_12
100
AcDbText
  0
MTEXT
  5
232
330
74
100
AcDbEntity
  8
1
 62
     2
100
AcDbMText
 10
-162.24481852674
 20
-242.0000062879215
 30
0.0
 40
1.8
 41
0.0
 71
     1
 72
     1
  1
document-type
  7
CONVERTER_11
 73
     1
 44
1.20048019207683
  0
MTEXT
  5
233
330
74
100
AcDbEntity
  8
1
 62
     2
100
AcDbMText
 10
-132.4184222816671
 20
-233.5000062879215
 30
0.0
 40
1.8
 41
0.0
 71
     1
 72
     1
  1
date
  7
CONVERTER_11
 73
     1
 44
1.32052821128451
  0
TEXT
  5
234
330
74
100
AcDbEntity
  8
1
 62
     3
100
AcDbText
 10
-132.4184222816671
 20
-239.7000062879215
 30
0.0
 40
2.5
  1
24.05.2018
 41
0.81
  7
CONVERTER_12
100
AcDbText
  0
TEXT
  5
235
330
74
100
AcDbEntity
  8
1
 62
     7
100
AcDbText
 10
-170.0149063076842
 20
-239.7000062879215
 30
0.0
 40
2.5
  1
01
 41
0.81
  7
CONVERTER_12
100
AcDbText
  0
TEXT
  5
236
330
74
100
AcDbEntity
  8
1
 62
     7
100
AcDbText
 10
-172.1712708047262
 20
-239.7000062879215
 30
0.0
 40
2.5
  1
/
 41
0.9
  7
CONVERTER_11
100
AcDbText
  0
HATCH
  5
237
330
74
100
AcDbEntity
  8
1
  6
Continuous
 62
     2
100
AcDbHatch
 10
0.0
 20
0.0
 30
0.0
210
0.0
220
0.0
230
1.0
  2
_USER
 70
     0
 71
     1
 91
        1
 92
        1
 93
       12
 72
     1
 10
-209.8773178137789
 20
-247.3473158117308
 11
-211.0701105159453
 21
-247.3473158117308
 72
     1
 10
-211.0701105159453
 20
-247.3473158117308
 11
-211.0701105159453
 21
-246.213043702887
 72
     1
 10
-211.0701105159453
 20
-246.213043702887
 11
-212.1197680938528
 21
-246.213043702887
 72
     1
 10
-212.1197680938528
 20
-246.213043702887
 11
-212.1197680938528
 21
-247.3473158117308
 72
     1
 10
-212.1197680938528
 20
-247.3473158117308
 11
-213.3125607960194
 21
-247.3473158117308
 72
     1
 10
-213.3125607960194
 20
-247.3473158117308
 11
-213.3125607960194
 21
-244.2935062879196
 72
     1
 10
-213.3125607960194
 20
-244.2935062879196
 11
-212.1197680938528
 21
-244.2935062879196
 72
     1
 10
-212.1197680938528
 20
-244.2935062879196
 11
-212.1197680938528
 21
-245.3623396212542
 72
     1
 10
-212.1197680938528
 20
-245.3623396212542
 11
-211.0701105159453
 21
-245.3623396212542
 72
     1
 10
-211.0701105159453
 20
-245.3623396212542
 11
-211.0701105159453
 21
-244.2935062879196
 72
     1
 10
-211.0701105159453
 20
-244.2935062879196
 11
-209.8773178137789
 21
-244.2935062879196
 72
     1
 10
-209.8773178137789
 20
-244.2935062879196
 11
-209.8773178137789
 21
-247.3473158117308
 97
       12
330
1A4
330
1A5
330
18F
330
18E
330
18D
330
1A1
330
18C
330
1A2
330
1A3
330
18B
330
18A
330
189
 75
     1
 76
     0
 52
45.0
 41
0.1
 77
     0
 78
     1
 53
45.0
 43
0.0
 44
0.0
 45
-0.0707106781186548
 46
0.0707106781186548
 79
     0
 98
        1
 10
0.0
 20
0.0
  0
HATCH
  5
238
330
74
100
AcDbEntity
  8
1
  6
Continuous
 62
     2
100
AcDbHatch
 10
0.0
 20
0.0
 30
0.0
210
0.0
220
0.0
230
1.0
  2
_USER
 70
     0
 71
     1
 91
        1
 92
        1
 93
       12
 72
     1
 10
-209.8773178137789
 20
-247.3473158117308
 11
-211.0701105159453
 21
-247.3473158117308
 72
     1
 10
-211.0701105159453
 20
-247.3473158117308
 11
-211.0701105159453
 21
-246.213043702887
 72
     1
 10
-211.0701105159453
 20
-246.213043702887
 11
-212.1197680938528
 21
-246.213043702887
 72
     1
 10
-212.1197680938528
 20
-246.213043702887
 11
-212.1197680938528
 21
-247.3473158117308
 72
     1
 10
-212.1197680938528
 20
-247.3473158117308
 11
-213.3125607960194
 21
-247.3473158117308
 72
     1
 10
-213.3125607960194
 20
-247.3473158117308
 11
-213.3125607960194
 21
-244.2935062879196
 72
     1
 10
-213.3125607960194
 20
-244.2935062879196
 11
-212.1197680938528
 21
-244.2935062879196
 72
     1
 10
-212.1197680938528
 20
-244.2935062879196
 11
-212.1197680938528
 21
-245.3623396212542
 72
     1
 10
-212.1197680938528
 20
-245.3623396212542
 11
-211.0701105159453
 21
-245.3623396212542
 72
     1
 10
-211.0701105159453
 20
-245.3623396212542
 11
-211.0701105159453
 21
-244.2935062879196
 72
     1
 10
-211.0701105159453
 20
-244.2935062879196
 11
-209.8773178137789
 21
-244.2935062879196
 72
     1
 10
-209.8773178137789
 20
-244.2935062879196
 11
-209.8773178137789
 21
-247.3473158117308
 97
       12
330
1A4
330
1A5
330
18F
330
18E
330
18D
330
1A1
330
18C
330
1A2
330
1A3
330
18B
330
18A
330
189
 75
     1
 76
     0
 52
45.0
 41
0.1
 77
     0
 78
     1
 53
45.0
 43
0.0
 44
0.0
 45
-0.0707106781186548
 46
0.0707106781186548
 79
     0
 98
        1
 10
0.0
 20
0.0
  0
HATCH
  5
239
330
74
100
AcDbEntity
  8
1
  6
Continuous
 62
     2
100
AcDbHatch
 10
0.0
 20
0.0
 30
0.0
210
0.0
220
0.0
230
1.0
  2
_USER
 70
     0
 71
     1
 91
        1
 92
        1
 93
       10
 72
     1
 10
-207.6350184645906
 20
-248.9614722742991
 11
-208.8755228748435
 21
-247.652696764094
 72
     1
 10
-208.8755228748435
 20
-247.652696764094
 11
-210.0683155770111
 21
-247.652696764094
 72
     1
 10
-210.0683155770111
 20
-247.652696764094
 11
-210.0683155770111
 21
-250.7065062879051
 72
     1
 10
-210.0683155770111
 20
-250.7065062879051
 11
-208.8755228748435
 21
-250.7065062879051
 72
     1
 10
-208.8755228748435
 20
-250.7065062879051
 11
-208.8755228748435
 21
-249.3977307777005
 72
     1
 10
-208.8755228748435
 20
-249.3977307777005
 11
-207.6350184645906
 21
-250.7065062879051
 72
     1
 10
-207.6350184645906
 20
-250.7065062879051
 11
-206.4422257624242
 21
-250.7065062879051
 72
     1
 10
-206.4422257624242
 20
-250.7065062879051
 11
-206.4422257624242
 21
-247.652696764094
 72
     1
 10
-206.4422257624242
 20
-247.652696764094
 11
-207.6350184645906
 21
-247.652696764094
 72
     1
 10
-207.6350184645906
 20
-247.652696764094
 11
-207.6350184645906
 21
-248.9614722742991
 97
       10
330
1B2
330
182
330
181
330
184
330
1AD
330
1AE
330
183
330
1AF
330
1B0
330
1B1
 75
     1
 76
     0
 52
45.0
 41
0.1
 77
     0
 78
     1
 53
45.0
 43
0.0
 44
0.0
 45
-0.0707106781186548
 46
0.0707106781186548
 79
     0
 98
        1
 10
0.0
 20
0.0
  0
HATCH
  5
23A
330
74
100
AcDbEntity
  8
1
  6
Continuous
 62
     2
100
AcDbHatch
 10
0.0
 20
0.0
 30
0.0
210
0.0
220
0.0
230
1.0
  2
_USER
 70
     0
 71
     1
 91
        1
 92
        1
 93
       10
 72
     1
 10
-207.6350184645906
 20
-248.9614722742991
 11
-208.8755228748435
 21
-247.652696764094
 72
     1
 10
-208.8755228748435
 20
-247.652696764094
 11
-210.0683155770111
 21
-247.652696764094
 72
     1
 10
-210.0683155770111
 20
-247.652696764094
 11
-210.0683155770111
 21
-250.7065062879051
 72
     1
 10
-210.0683155770111
 20
-250.7065062879051
 11
-208.8755228748435
 21
-250.7065062879051
 72
     1
 10
-208.8755228748435
 20
-250.7065062879051
 11
-208.8755228748435
 21
-249.3977307777005
 72
     1
 10
-208.8755228748435
 20
-249.3977307777005
 11
-207.6350184645906
 21
-250.7065062879051
 72
     1
 10
-207.6350184645906
 20
-250.7065062879051
 11
-206.4422257624242
 21
-250.7065062879051
 72
     1
 10
-206.4422257624242
 20
-250.7065062879051
 11
-206.4422257624242
 21
-247.652696764094
 72
     1
 10
-206.4422257624242
 20
-247.652696764094
 11
-207.6350184645906
 21
-247.652696764094
 72
     1
 10
-207.6350184645906
 20
-247.652696764094
 11
-207.6350184645906
 21
-248.9614722742991
 97
       10
330
1B2
330
182
330
181
330
184
330
1AD
330
1AE
330
183
330
1AF
330
1B0
330
1B1
 75
     1
 76
     0
 52
45.0
 41
0.1
 77
     0
 78
     1
 53
45.0
 43
0.0
 44
0.0
 45
-0.0707106781186548
 46
0.0707106781186548
 79
     0
 98
        1
 10
0.0
 20
0.0
  0
HATCH
  5
23B
330
74
100
AcDbEntity
  8
1
  6
Continuous
 62
     2
100
AcDbHatch
 10
0.0
 20
0.0
 30
0.0
210
0.0
220
0.0
230
1.0
  2
_USER
 70
     0
 71
     1
 91
        1
 92
        1
 93
       10
 72
     1
 10
-202.3865796441709
 20
-245.6022817981248
 11
-203.6270840544249
 21
-244.2935062879196
 72
     1
 10
-203.6270840544249
 20
-244.2935062879196
 11
-204.8198767565914
 21
-244.2935062879196
 72
     1
 10
-204.8198767565914
 20
-244.2935062879196
 11
-204.8198767565914
 21
-247.3473158117308
 72
     1
 10
-204.8198767565914
 20
-247.3473158117308
 11
-203.6270840544249
 21
-247.3473158117308
 72
     1
 10
-203.6270840544249
 20
-247.3473158117308
 11
-203.6270840544249
 21
-246.0385403015261
 72
     1
 10
-203.6270840544249
 20
-246.0385403015261
 11
-202.3865796441709
 21
-247.3473158117308
 72
     1
 10
-202.3865796441709
 20
-247.3473158117308
 11
-201.1937869420043
 21
-247.3473158117308
 72
     1
 10
-201.1937869420043
 20
-247.3473158117308
 11
-201.1937869420043
 21
-244.2935062879196
 72
     1
 10
-201.1937869420043
 20
-244.2935062879196
 11
-202.3865796441709
 21
-244.2935062879196
 72
     1
 10
-202.3865796441709
 20
-244.2935062879196
 11
-202.3865796441709
 21
-245.6022817981248
 97
       10
330
1B7
330
17F
330
17E
330
1B8
330
17D
330
1B3
330
1B4
330
1B5
330
1B6
330
180
 75
     1
 76
     0
 52
45.0
 41
0.1
 77
     0
 78
     1
 53
45.0
 43
0.0
 44
0.0
 45
-0.0707106781186548
 46
0.0707106781186548
 79
     0
 98
        1
 10
0.0
 20
0.0
  0
HATCH
  5
23C
330
74
100
AcDbEntity
  8
1
  6
Continuous
 62
     2
100
AcDbHatch
 10
0.0
 20
0.0
 30
0.0
210
0.0
220
0.0
230
1.0
  2
_USER
 70
     0
 71
     1
 91
        1
 92
        1
 93
       10
 72
     1
 10
-202.3865796441709
 20
-245.6022817981248
 11
-203.6270840544249
 21
-244.2935062879196
 72
     1
 10
-203.6270840544249
 20
-244.2935062879196
 11
-204.8198767565914
 21
-244.2935062879196
 72
     1
 10
-204.8198767565914
 20
-244.2935062879196
 11
-204.8198767565914
 21
-247.3473158117308
 72
     1
 10
-204.8198767565914
 20
-247.3473158117308
 11
-203.6270840544249
 21
-247.3473158117308
 72
     1
 10
-203.6270840544249
 20
-247.3473158117308
 11
-203.6270840544249
 21
-246.0385403015261
 72
     1
 10
-203.6270840544249
 20
-246.0385403015261
 11
-202.3865796441709
 21
-247.3473158117308
 72
     1
 10
-202.3865796441709
 20
-247.3473158117308
 11
-201.1937869420043
 21
-247.3473158117308
 72
     1
 10
-201.1937869420043
 20
-247.3473158117308
 11
-201.1937869420043
 21
-244.2935062879196
 72
     1
 10
-201.1937869420043
 20
-244.2935062879196
 11
-202.3865796441709
 21
-244.2935062879196
 72
     1
 10
-202.3865796441709
 20
-244.2935062879196
 11
-202.3865796441709
 21
-245.6022817981248
 97
       10
330
1B7
330
17F
330
17E
330
1B8
330
17D
330
1B3
330
1B4
330
1B5
330
1B6
330
180
 75
     1
 76
     0
 52
45.0
 41
0.1
 77
     0
 78
     1
 53
45.0
 43
0.0
 44
0.0
 45
-0.0707106781186548
 46
0.0707106781186548
 79
     0
 98
        1
 10
0.0
 20
0.0
  0
HATCH
  5
23D
330
74
100
AcDbEntity
  8
1
  6
Continuous
 62
     2
100
AcDbHatch
 10
0.0
 20
0.0
 30
0.0
210
0.0
220
0.0
230
1.0
  2
_USER
 70
     0
 71
     1
 91
        1
 92
        1
 93
        8
 72
     1
 10
-203.4840998610504
 20
-247.652696764094
 11
-206.299090638164
 21
-247.652696764094
 72
     1
 10
-206.299090638164
 20
-247.652696764094
 11
-206.299090638164
 21
-248.4379620702176
 72
     1
 10
-206.299090638164
 20
-248.4379620702176
 11
-205.4879916006894
 21
-248.4379620702176
 72
     1
 10
-205.4879916006894
 20
-248.4379620702176
 11
-205.4879916006894
 21
-250.7065062879051
 72
     1
 10
-205.4879916006894
 20
-250.7065062879051
 11
-204.2951988985229
 21
-250.7065062879051
 72
     1
 10
-204.2951988985229
 20
-250.7065062879051
 11
-204.2951988985229
 21
-248.4379620702176
 72
     1
 10
-204.2951988985229
 20
-248.4379620702176
 11
-203.4840998610504
 21
-248.4379620702176
 72
     1
 10
-203.4840998610504
 20
-248.4379620702176
 11
-203.4840998610504
 21
-247.652696764094
 97
        8
330
179
330
1B9
330
178
330
1BA
330
1BB
330
17C
330
17B
330
17A
 75
     1
 76
     0
 52
45.0
 41
0.1
 77
     0
 78
     1
 53
45.0
 43
0.0
 44
0.0
 45
-0.0707106781186548
 46
0.0707106781186548
 79
     0
 98
        1
 10
0.0
 20
0.0
  0
HATCH
  5
23E
330
74
100
AcDbEntity
  8
1
  6
Continuous
 62
     2
100
AcDbHatch
 10
0.0
 20
0.0
 30
0.0
210
0.0
220
0.0
230
1.0
  2
_USER
 70
     0
 71
     1
 91
        1
 92
        1
 93
        8
 72
     1
 10
-203.4840998610504
 20
-247.652696764094
 11
-206.299090638164
 21
-247.652696764094
 72
     1
 10
-206.299090638164
 20
-247.652696764094
 11
-206.299090638164
 21
-248.4379620702176
 72
     1
 10
-206.299090638164
 20
-248.4379620702176
 11
-205.4879916006894
 21
-248.4379620702176
 72
     1
 10
-205.4879916006894
 20
-248.4379620702176
 11
-205.4879916006894
 21
-250.7065062879051
 72
     1
 10
-205.4879916006894
 20
-250.7065062879051
 11
-204.2951988985229
 21
-250.7065062879051
 72
     1
 10
-204.2951988985229
 20
-250.7065062879051
 11
-204.2951988985229
 21
-248.4379620702176
 72
     1
 10
-204.2951988985229
 20
-248.4379620702176
 11
-203.4840998610504
 21
-248.4379620702176
 72
     1
 10
-203.4840998610504
 20
-248.4379620702176
 11
-203.4840998610504
 21
-247.652696764094
 97
        8
330
179
330
1B9
330
178
330
1BA
330
1BB
330
17C
330
17B
330
17A
 75
     1
 76
     0
 52
45.0
 41
0.1
 77
     0
 78
     1
 53
45.0
 43
0.0
 44
0.0
 45
-0.0707106781186548
 46
0.0707106781186548
 79
     0
 98
        1
 10
0.0
 20
0.0
  0
HATCH
  5
23F
330
74
100
AcDbEntity
  8
1
  6
Continuous
 62
     2
100
AcDbHatch
 10
0.0
 20
0.0
 30
0.0
210
0.0
220
0.0
230
1.0
  2
_USER
 70
     0
 71
     1
 91
        2
 92
        1
 93
        8
 72
     1
 10
-201.3456724051034
 20
-250.7065062879051
 11
-201.5571524585792
 21
-250.1655457436872
 72
     1
 10
-201.5571524585792
 20
-250.1655457436872
 11
-202.689594035253
 21
-250.1655457436872
 72
     1
 10
-202.689594035253
 20
-250.1655457436872
 11
-202.9010740887288
 21
-250.7065062879051
 72
     1
 10
-202.9010740887288
 20
-250.7065062879051
 11
-204.1415784989818
 21
-250.7065062879051
 72
     1
 10
-204.1415784989818
 20
-250.7065062879051
 11
-202.7436254520425
 21
-247.652696764094
 72
     1
 10
-202.7436254520425
 20
-247.652696764094
 11
-201.5031210417898
 21
-247.652696764094
 72
     1
 10
-201.5031210417898
 20
-247.652696764094
 11
-200.1051679948495
 21
-250.7065062879051
 72
     1
 10
-200.1051679948495
 20
-250.7065062879051
 11
-201.3456724051034
 21
-250.7065062879051
 97
        8
330
1BD
330
1BE
330
175
330
1BF
330
174
330
177
330
1BC
330
176
 92
       16
 93
        3
 72
     1
 10
-202.423538484108
 20
-249.4849824783806
 11
-202.1233732469156
 21
-248.7171675123939
 72
     1
 10
-202.1233732469156
 20
-248.7171675123939
 11
-201.8232080097255
 21
-249.4849824783806
 72
     1
 10
-201.8232080097255
 20
-249.4849824783806
 11
-202.423538484108
 21
-249.4849824783806
 97
        3
330
173
330
1C1
330
1C0
 75
     1
 76
     0
 52
45.0
 41
0.1
 77
     0
 78
     1
 53
45.0
 43
0.0
 44
0.0
 45
-0.0707106781186548
 46
0.0707106781186548
 79
     0
 98
        1
 10
0.0
 20
0.0
  0
HATCH
  5
240
330
74
100
AcDbEntity
  8
1
  6
Continuous
 62
     2
100
AcDbHatch
 10
0.0
 20
0.0
 30
0.0
210
0.0
220
0.0
230
1.0
  2
_USER
 70
     0
 71
     1
 91
        2
 92
        1
 93
        8
 72
     1
 10
-201.3456724051034
 20
-250.7065062879051
 11
-201.5571524585792
 21
-250.1655457436872
 72
     1
 10
-201.5571524585792
 20
-250.1655457436872
 11
-202.689594035253
 21
-250.1655457436872
 72
     1
 10
-202.689594035253
 20
-250.1655457436872
 11
-202.9010740887288
 21
-250.7065062879051
 72
     1
 10
-202.9010740887288
 20
-250.7065062879051
 11
-204.1415784989818
 21
-250.7065062879051
 72
     1
 10
-204.1415784989818
 20
-250.7065062879051
 11
-202.7436254520425
 21
-247.652696764094
 72
     1
 10
-202.7436254520425
 20
-247.652696764094
 11
-201.5031210417898
 21
-247.652696764094
 72
     1
 10
-201.5031210417898
 20
-247.652696764094
 11
-200.1051679948495
 21
-250.7065062879051
 72
     1
 10
-200.1051679948495
 20
-250.7065062879051
 11
-201.3456724051034
 21
-250.7065062879051
 97
        8
330
1BD
330
1BE
330
175
330
1BF
330
174
330
177
330
1BC
330
176
 92
       16
 93
        3
 72
     1
 10
-202.423538484108
 20
-249.4849824783806
 11
-202.1233732469156
 21
-248.7171675123939
 72
     1
 10
-202.1233732469156
 20
-248.7171675123939
 11
-201.8232080097255
 21
-249.4849824783806
 72
     1
 10
-201.8232080097255
 20
-249.4849824783806
 11
-202.423538484108
 21
-249.4849824783806
 97
        3
330
173
330
1C1
330
1C0
 75
     1
 76
     0
 52
45.0
 41
0.1
 77
     0
 78
     1
 53
45.0
 43
0.0
 44
0.0
 45
-0.0707106781186548
 46
0.0707106781186548
 79
     0
 98
        1
 10
0.0
 20
0.0
  0
HATCH
  5
241
330
74
100
AcDbEntity
  8
1
  6
Continuous
 62
     2
100
AcDbHatch
 10
0.0
 20
0.0
 30
0.0
210
0.0
220
0.0
230
1.0
  2
_USER
 70
     0
 71
     1
 91
        1
 92
        1
 93
        4
 72
     1
 10
-199.7147239913175
 20
-247.3473158117308
 11
-200.9552284015704
 21
-247.3473158117308
 72
     1
 10
-200.9552284015704
 20
-247.3473158117308
 11
-200.9552284015704
 21
-244.2935062879196
 72
     1
 10
-200.9552284015704
 20
-244.2935062879196
 11
-199.7147239913175
 21
-244.2935062879196
 72
     1
 10
-199.7147239913175
 20
-244.2935062879196
 11
-199.7147239913175
 21
-247.3473158117308
 97
        4
330
170
330
172
330
1C2
330
171
 75
     1
 76
     0
 52
45.0
 41
0.1
 77
     0
 78
     1
 53
45.0
 43
0.0
 44
0.0
 45
-0.0707106781186548
 46
0.0707106781186548
 79
     0
 98
        1
 10
0.0
 20
0.0
  0
HATCH
  5
242
330
74
100
AcDbEntity
  8
1
  6
Continuous
 62
     2
100
AcDbHatch
 10
0.0
 20
0.0
 30
0.0
210
0.0
220
0.0
230
1.0
  2
_USER
 70
     0
 71
     1
 91
        1
 92
        1
 93
        4
 72
     1
 10
-199.7147239913175
 20
-247.3473158117308
 11
-200.9552284015704
 21
-247.3473158117308
 72
     1
 10
-200.9552284015704
 20
-247.3473158117308
 11
-200.9552284015704
 21
-244.2935062879196
 72
     1
 10
-200.9552284015704
 20
-244.2935062879196
 11
-199.7147239913175
 21
-244.2935062879196
 72
     1
 10
-199.7147239913175
 20
-244.2935062879196
 11
-199.7147239913175
 21
-247.3473158117308
 97
        4
330
170
330
172
330
1C2
330
171
 75
     1
 76
     0
 52
45.0
 41
0.1
 77
     0
 78
     1
 53
45.0
 43
0.0
 44
0.0
 45
-0.0707106781186548
 46
0.0707106781186548
 79
     0
 98
        1
 10
0.0
 20
0.0
  0
HATCH
  5
243
330
74
100
AcDbEntity
  8
1
  6
Continuous
 62
     2
100
AcDbHatch
 10
0.0
 20
0.0
 30
0.0
210
0.0
220
0.0
230
1.0
  2
_USER
 70
     0
 71
     1
 91
        1
 92
        1
 93
       12
 72
     1
 10
-195.4922378256467
 20
-244.2935062879196
 11
-196.7947674564132
 21
-245.7664568179558
 72
     1
 10
-196.7947674564132
 20
-245.7664568179558
 11
-195.3968144094729
 21
-247.3473158117308
 72
     1
 10
-195.3968144094729
 20
-247.3473158117308
 11
-196.7995386272212
 21
-247.3473158117308
 72
     1
 10
-196.7995386272212
 20
-247.3473158117308
 11
-197.4961295652867
 21
-246.5595840264371
 72
     1
 10
-197.4961295652867
 20
-246.5595840264371
 11
-198.1927205033524
 21
-247.3473158117308
 72
     1
 10
-198.1927205033524
 20
-247.3473158117308
 11
-199.5954447211006
 21
-247.3473158117308
 72
     1
 10
-199.5954447211006
 20
-247.3473158117308
 11
-198.1974916741603
 21
-245.7664568179558
 72
     1
 10
-198.1974916741603
 20
-245.7664568179558
 11
-199.5000213049278
 21
-244.2935062879196
 72
     1
 10
-199.5000213049278
 20
-244.2935062879196
 11
-198.0972970871785
 21
-244.2935062879196
 72
     1
 10
-198.0972970871785
 20
-244.2935062879196
 11
-197.4961295652867
 21
-244.9733296094751
 72
     1
 10
-197.4961295652867
 20
-244.9733296094751
 11
-196.8949620433939
 21
-244.2935062879196
 72
     1
 10
-196.8949620433939
 20
-244.2935062879196
 11
-195.4922378256467
 21
-244.2935062879196
 97
       12
330
16B
330
16A
330
169
330
1C6
330
1C7
330
1C3
330
1C4
330
16F
330
16E
330
16D
330
16C
330
1C5
 75
     1
 76
     0
 52
45.0
 41
0.1
 77
     0
 78
     1
 53
45.0
 43
0.0
 44
0.0
 45
-0.0707106781186548
 46
0.0707106781186548
 79
     0
 98
        1
 10
0.0
 20
0.0
  0
HATCH
  5
244
330
74
100
AcDbEntity
  8
1
  6
Continuous
 62
     2
100
AcDbHatch
 10
0.0
 20
0.0
 30
0.0
210
0.0
220
0.0
230
1.0
  2
_USER
 70
     0
 71
     1
 91
        1
 92
        1
 93
       12
 72
     1
 10
-195.4922378256467
 20
-244.2935062879196
 11
-196.7947674564132
 21
-245.7664568179558
 72
     1
 10
-196.7947674564132
 20
-245.7664568179558
 11
-195.3968144094729
 21
-247.3473158117308
 72
     1
 10
-195.3968144094729
 20
-247.3473158117308
 11
-196.7995386272212
 21
-247.3473158117308
 72
     1
 10
-196.7995386272212
 20
-247.3473158117308
 11
-197.4961295652867
 21
-246.5595840264371
 72
     1
 10
-197.4961295652867
 20
-246.5595840264371
 11
-198.1927205033524
 21
-247.3473158117308
 72
     1
 10
-198.1927205033524
 20
-247.3473158117308
 11
-199.5954447211006
 21
-247.3473158117308
 72
     1
 10
-199.5954447211006
 20
-247.3473158117308
 11
-198.1974916741603
 21
-245.7664568179558
 72
     1
 10
-198.1974916741603
 20
-245.7664568179558
 11
-199.5000213049278
 21
-244.2935062879196
 72
     1
 10
-199.5000213049278
 20
-244.2935062879196
 11
-198.0972970871785
 21
-244.2935062879196
 72
     1
 10
-198.0972970871785
 20
-244.2935062879196
 11
-197.4961295652867
 21
-244.9733296094751
 72
     1
 10
-197.4961295652867
 20
-244.9733296094751
 11
-196.8949620433939
 21
-244.2935062879196
 72
     1
 10
-196.8949620433939
 20
-244.2935062879196
 11
-195.4922378256467
 21
-244.2935062879196
 97
       12
330
16B
330
16A
330
169
330
1C6
330
1C7
330
1C3
330
1C4
330
16F
330
16E
330
16D
330
16C
330
1C5
 75
     1
 76
     0
 52
45.0
 41
0.1
 77
     0
 78
     1
 53
45.0
 43
0.0
 44
0.0
 45
-0.0707106781186548
 46
0.0707106781186548
 79
     0
 98
        1
 10
0.0
 20
0.0
  0
HATCH
  5
245
330
74
100
AcDbEntity
  8
1
  6
Continuous
 62
     2
100
AcDbHatch
 10
0.0
 20
0.0
 30
0.0
210
0.0
220
0.0
230
1.0
  2
_USER
 70
     0
 71
     1
 91
        2
 92
        1
 93
        6
 72
     1
 10
-214.5099732397927
 20
-246.404237570587
 11
-215.268740827573
 21
-246.404237570587
 72
     1
 10
-215.268740827573
 20
-246.404237570587
 11
-215.268740827573
 21
-247.3473158117308
 72
     1
 10
-215.268740827573
 20
-247.3473158117308
 11
-216.5092452378271
 21
-247.3473158117308
 72
     1
 10
-216.5092452378271
 20
-247.3473158117308
 11
-216.5092452378271
 21
-244.2935062879196
 72
     1
 10
-216.5092452378271
 20
-244.2935062879196
 11
-214.5099732397927
 21
-244.2935062879196
 72
     2
 10
-214.5099732397927
 20
-245.3488719292533
 40
1.05536564133368
 50
270.0
 51
450.0
 73
     0
 97
        6
330
193
330
192
330
19F
330
19E
330
194
330
1E4
 92
       16
 93
        4
 72
     2
 10
-214.9514457660311
 20
-245.3094759580308
 40
0.3528638246711182
 50
270.0
 51
450.0
 73
     1
 72
     1
 10
-214.9514457660311
 20
-244.9566121333597
 11
-215.268740827573
 21
-244.9566121333597
 72
     1
 10
-215.268740827573
 20
-244.9566121333597
 11
-215.268740827573
 21
-245.6623397827019
 72
     1
 10
-215.268740827573
 20
-245.6623397827019
 11
-214.9514457660311
 21
-245.6623397827019
 97
        4
330
1F8
330
190
330
1A0
330
191
 75
     1
 76
     0
 52
45.0
 41
0.1
 77
     0
 78
     1
 53
45.0
 43
0.0
 44
0.0
 45
-0.0707106781186548
 46
0.0707106781186548
 79
     0
 98
        1
 10
0.0
 20
0.0
  0
HATCH
  5
246
330
74
100
AcDbEntity
  8
1
  6
Continuous
 62
     2
100
AcDbHatch
 10
0.0
 20
0.0
 30
0.0
210
0.0
220
0.0
230
1.0
  2
_USER
 70
     0
 71
     1
 91
        2
 92
        1
 93
        6
 72
     1
 10
-214.5099732397927
 20
-246.404237570587
 11
-215.268740827573
 21
-246.404237570587
 72
     1
 10
-215.268740827573
 20
-246.404237570587
 11
-215.268740827573
 21
-247.3473158117308
 72
     1
 10
-215.268740827573
 20
-247.3473158117308
 11
-216.5092452378271
 21
-247.3473158117308
 72
     1
 10
-216.5092452378271
 20
-247.3473158117308
 11
-216.5092452378271
 21
-244.2935062879196
 72
     1
 10
-216.5092452378271
 20
-244.2935062879196
 11
-214.5099732397927
 21
-244.2935062879196
 72
     2
 10
-214.5099732397927
 20
-245.3488719292533
 40
1.05536564133368
 50
270.0
 51
450.0
 73
     0
 97
        6
330
193
330
192
330
19F
330
19E
330
194
330
1E4
 92
       16
 93
        4
 72
     2
 10
-214.9514457660311
 20
-245.3094759580308
 40
0.3528638246711182
 50
270.0
 51
450.0
 73
     1
 72
     1
 10
-214.9514457660311
 20
-244.9566121333597
 11
-215.268740827573
 21
-244.9566121333597
 72
     1
 10
-215.268740827573
 20
-244.9566121333597
 11
-215.268740827573
 21
-245.6623397827019
 72
     1
 10
-215.268740827573
 20
-245.6623397827019
 11
-214.9514457660311
 21
-245.6623397827019
 97
        4
330
1F8
330
190
330
1A0
330
191
 75
     1
 76
     0
 52
45.0
 41
0.1
 77
     0
 78
     1
 53
45.0
 43
0.0
 44
0.0
 45
-0.0707106781186548
 46
0.0707106781186548
 79
     0
 98
        1
 10
0.0
 20
0.0
  0
HATCH
  5
247
330
74
100
AcDbEntity
  8
1
  6
Continuous
 62
     2
100
AcDbHatch
 10
0.0
 20
0.0
 30
0.0
210
0.0
220
0.0
230
1.0
  2
_USER
 70
     0
 71
     1
 91
        2
 92
        1
 93
        4
 72
     2
 10
-211.9534304914336
 20
-249.7181765363026
 40
2.065479772208568
 50
62.45185182430637
 51
117.5481481756664
 73
     1
 72
     2
 10
-212.2343703832669
 20
-249.1796015259998
 40
1.45803408365149
 50
117.5481481756624
 51
242.4518518243375
 73
     1
 72
     2
 10
-211.9534304914336
 20
-248.6410265156965
 40
2.065479772208509
 50
242.4518518243402
 51
297.5481481756871
 73
     1
 72
     2
 10
-211.6724905996003
 20
-249.1796015259998
 40
1.458034083652003
 50
297.548148175701
 51
422.451851824299
 73
     1
 97
        4
330
1F0
330
1EF
330
1F1
330
1EE
 92
       16
 93
        4
 72
     2
 10
-212.15317052778
 20
-249.1796015259998
 40
0.77179977867969
 50
321.8795802028388
 51
398.1204197971546
 73
     1
 72
     2
 10
-211.9534304914336
 20
-249.0228703478793
 40
0.5179085730132998
 50
38.12041979714704
 51
141.8795802028588
 73
     1
 72
     2
 10
-211.7536904550875
 20
-249.1796015259998
 40
0.7717997786794633
 50
141.8795802028363
 51
218.1204197971703
 73
     1
 72
     2
 10
-211.9534304914336
 20
-249.3363327041198
 40
0.5179085730137529
 50
218.1204197971956
 51
321.8795802027985
 73
     1
 97
        4
330
20C
330
209
330
20A
330
20B
 75
     1
 76
     0
 52
45.0
 41
0.1
 77
     0
 78
     1
 53
45.0
 43
0.0
 44
0.0
 45
-0.0707106781186548
 46
0.0707106781186548
 79
     0
 98
        1
 10
0.0
 20
0.0
  0
HATCH
  5
248
330
74
100
AcDbEntity
  8
1
  6
Continuous
 62
     2
100
AcDbHatch
 10
0.0
 20
0.0
 30
0.0
210
0.0
220
0.0
230
1.0
  2
_USER
 70
     0
 71
     1
 91
        2
 92
        1
 93
        4
 72
     2
 10
-211.9534304914336
 20
-249.7181765363026
 40
2.065479772208568
 50
62.45185182430637
 51
117.5481481756664
 73
     1
 72
     2
 10
-212.2343703832669
 20
-249.1796015259998
 40
1.45803408365149
 50
117.5481481756624
 51
242.4518518243375
 73
     1
 72
     2
 10
-211.9534304914336
 20
-248.6410265156965
 40
2.065479772208509
 50
242.4518518243402
 51
297.5481481756871
 73
     1
 72
     2
 10
-211.6724905996003
 20
-249.1796015259998
 40
1.458034083652003
 50
297.548148175701
 51
422.451851824299
 73
     1
 97
        4
330
1F0
330
1EF
330
1F1
330
1EE
 92
       16
 93
        4
 72
     2
 10
-212.15317052778
 20
-249.1796015259998
 40
0.77179977867969
 50
321.8795802028388
 51
398.1204197971546
 73
     1
 72
     2
 10
-211.9534304914336
 20
-249.0228703478793
 40
0.5179085730132998
 50
38.12041979714704
 51
141.8795802028588
 73
     1
 72
     2
 10
-211.7536904550875
 20
-249.1796015259998
 40
0.7717997786794633
 50
141.8795802028363
 51
218.1204197971703
 73
     1
 72
     2
 10
-211.9534304914336
 20
-249.3363327041198
 40
0.5179085730137529
 50
218.1204197971956
 51
321.8795802027985
 73
     1
 97
        4
330
20C
330
209
330
20A
330
20B
 75
     1
 76
     0
 52
45.0
 41
0.1
 77
     0
 78
     1
 53
45.0
 43
0.0
 44
0.0
 45
-0.0707106781186548
 46
0.0707106781186548
 79
     0
 98
        1
 10
0.0
 20
0.0
  0
HATCH
  5
249
330
74
100
AcDbEntity
  8
1
  6
Continuous
 62
     2
100
AcDbHatch
 10
0.0
 20
0.0
 30
0.0
210
0.0
220
0.0
230
1.0
  2
_USER
 70
     0
 71
     1
 91
        2
 92
        1
 93
       12
 72
     1
 10
-205.0584352970243
 20
-244.9915198933626
 11
-206.394363123452
 21
-244.9915198933626
 72
     1
 10
-206.394363123452
 20
-244.9915198933626
 11
-206.394363123452
 21
-245.4714042471043
 72
     1
 10
-206.394363123452
 20
-245.4714042471043
 11
-205.0584352970243
 21
-245.4714042471043
 72
     1
 10
-205.0584352970243
 20
-245.4714042471043
 11
-205.0584352970243
 21
-246.1694178525466
 72
     1
 10
-205.0584352970243
 20
-246.1694178525466
 11
-206.394363123452
 21
-246.1694178525466
 72
     1
 10
-206.394363123452
 20
-246.1694178525466
 11
-206.394363123452
 21
-246.6493022062883
 72
     1
 10
-206.394363123452
 20
-246.6493022062883
 11
-205.0584352970243
 21
-246.6493022062883
 72
     1
 10
-205.0584352970243
 20
-246.6493022062883
 11
-205.0584352970243
 21
-247.3473158117308
 72
     1
 10
-205.0584352970243
 20
-247.3473158117308
 11
-208.2087550208053
 21
-247.3473158117308
 72
     2
 10
-208.2087550208053
 20
-245.8204110498255
 40
1.526904761905911
 50
90.0
 51
270.0
 73
     0
 72
     1
 10
-208.2087550208053
 20
-244.2935062879196
 11
-205.0584352970243
 21
-244.2935062879196
 72
     1
 10
-205.0584352970243
 20
-244.2935062879196
 11
-205.0584352970243
 21
-244.9915198933626
 97
       12
330
1A7
330
1F9
330
1A8
330
1A9
330
1AA
330
1AB
330
188
330
187
330
186
330
185
330
1AC
330
1A6
 92
       16
 93
        4
 72
     2
 10
-207.9924830106401
 20
-245.663679871705
 40
0.5179085730135041
 50
38.12041979714528
 51
141.8795802028508
 73
     1
 72
     2
 10
-207.7927429742938
 20
-245.8204110498255
 40
0.7717997786797123
 50
141.8795802028401
 51
218.1204197971533
 73
     1
 72
     2
 10
-207.9924830106401
 20
-245.9771422279459
 40
0.5179085730134595
 50
218.1204197971492
 51
321.8795802028547
 73
     1
 72
     2
 10
-208.1922230469863
 20
-245.8204110498255
 40
0.7717997786796198
 50
321.8795802028454
 51
398.1204197971612
 73
     1
 97
        4
330
1F3
330
1F2
330
1ED
330
1EC
 75
     1
 76
     0
 52
45.0
 41
0.1
 77
     0
 78
     1
 53
45.0
 43
0.0
 44
0.0
 45
-0.0707106781186548
 46
0.0707106781186548
 79
     0
 98
        1
 10
0.0
 20
0.0
  0
HATCH
  5
24A
330
74
100
AcDbEntity
  8
1
  6
Continuous
 62
     2
100
AcDbHatch
 10
0.0
 20
0.0
 30
0.0
210
0.0
220
0.0
230
1.0
  2
_USER
 70
     0
 71
     1
 91
        2
 92
        1
 93
       12
 72
     1
 10
-205.0584352970243
 20
-244.9915198933626
 11
-206.394363123452
 21
-244.9915198933626
 72
     1
 10
-206.394363123452
 20
-244.9915198933626
 11
-206.394363123452
 21
-245.4714042471043
 72
     1
 10
-206.394363123452
 20
-245.4714042471043
 11
-205.0584352970243
 21
-245.4714042471043
 72
     1
 10
-205.0584352970243
 20
-245.4714042471043
 11
-205.0584352970243
 21
-246.1694178525466
 72
     1
 10
-205.0584352970243
 20
-246.1694178525466
 11
-206.394363123452
 21
-246.1694178525466
 72
     1
 10
-206.394363123452
 20
-246.1694178525466
 11
-206.394363123452
 21
-246.6493022062883
 72
     1
 10
-206.394363123452
 20
-246.6493022062883
 11
-205.0584352970243
 21
-246.6493022062883
 72
     1
 10
-205.0584352970243
 20
-246.6493022062883
 11
-205.0584352970243
 21
-247.3473158117308
 72
     1
 10
-205.0584352970243
 20
-247.3473158117308
 11
-208.2087550208053
 21
-247.3473158117308
 72
     2
 10
-208.2087550208053
 20
-245.8204110498255
 40
1.526904761905911
 50
90.0
 51
270.0
 73
     0
 72
     1
 10
-208.2087550208053
 20
-244.2935062879196
 11
-205.0584352970243
 21
-244.2935062879196
 72
     1
 10
-205.0584352970243
 20
-244.2935062879196
 11
-205.0584352970243
 21
-244.9915198933626
 97
       12
330
1A7
330
1F9
330
1A8
330
1A9
330
1AA
330
1AB
330
188
330
187
330
186
330
185
330
1AC
330
1A6
 92
       16
 93
        4
 72
     2
 10
-207.9924830106401
 20
-245.663679871705
 40
0.5179085730135041
 50
38.12041979714528
 51
141.8795802028508
 73
     1
 72
     2
 10
-207.7927429742938
 20
-245.8204110498255
 40
0.7717997786797123
 50
141.8795802028401
 51
218.1204197971533
 73
     1
 72
     2
 10
-207.9924830106401
 20
-245.9771422279459
 40
0.5179085730134595
 50
218.1204197971492
 51
321.8795802028547
 73
     1
 72
     2
 10
-208.1922230469863
 20
-245.8204110498255
 40
0.7717997786796198
 50
321.8795802028454
 51
398.1204197971612
 73
     1
 97
        4
330
1F3
330
1F2
330
1ED
330
1EC
 75
     1
 76
     0
 52
45.0
 41
0.1
 77
     0
 78
     1
 53
45.0
 43
0.0
 44
0.0
 45
-0.0707106781186548
 46
0.0707106781186548
 79
     0
 98
        1
 10
0.0
 20
0.0
  0
HATCH
  5
24B
330
74
100
AcDbEntity
  8
1
  6
Continuous
 62
     2
100
AcDbHatch
 10
0.0
 20
0.0
 30
0.0
210
0.0
220
0.0
230
1.0
  2
_USER
 70
     0
 71
     1
 91
        4
 92
        1
 93
        8
 72
     1
 10
-216.9863623186939
 20
-244.7177509033216
 11
-216.9863623186939
 21
-250.2822616725218
 72
     2
 10
-217.4106069340778
 20
-250.2822616725218
 40
0.4242446153833157
 50
0.0
 51
90.0
 73
     0
 72
     1
 10
-217.4106069340778
 20
-250.7065062879051
 11
-222.8839190247946
 21
-250.7065062879051
 72
     2
 10
-222.8839190247946
 20
-250.2822616725218
 40
0.4242446153828041
 50
90.0
 51
180.0
 73
     0
 72
     1
 10
-223.3081636401774
 20
-250.2822616725218
 11
-223.3081636401774
 21
-244.7177509033216
 72
     2
 10
-222.8839190247946
 20
-244.7177509033216
 40
0.4242446153837989
 50
180.0
 51
270.0
 73
     0
 72
     1
 10
-222.8839190247946
 20
-244.2935062879378
 11
-217.4106069340778
 21
-244.2935062879378
 72
     2
 10
-217.4106069340778
 20
-244.7177509033216
 40
0.4242446153839126
 50
270.0
 51
360.0
 73
     0
 97
        8
330
19B
330
1E9
330
19C
330
1F4
330
199
330
1EB
330
19A
330
1EA
 92
       16
 93
        1
 72
     2
 10
-220.2643333742771
 20
-247.0366331316771
 40
0.4709789327785074
 50
0.0
 51
360.0
 73
     1
 97
        1
330
20F
 92
       16
 93
        8
 72
     2
 10
-219.7144756615164
 20
-248.1457747316455
 40
0.3157169230765193
 50
115.3740086783587
 51
180.0
 73
     1
 72
     1
 10
-220.0301925845932
 20
-248.1457747316455
 11
-220.0301925845932
 21
-248.7276261383406
 72
     2
 10
-219.7144756615164
 20
-248.7276261383406
 40
0.3157169230768204
 50
180.0
 51
269.811032957449
 73
     1
 72
     2
 10
-219.7088595262064
 20
-247.0247911907716
 40
2.018561131933266
 50
269.8110329575858
 51
450.1889670424142
 73
     1
 72
     2
 10
-219.7144756615164
 20
-245.3219562432025
 40
0.3157169230760427
 50
90.18896704255111
 51
180.0
 73
     1
 72
     1
 10
-220.0301925845932
 20
-245.3219562432025
 11
-220.0301925845932
 21
-245.9274915317093
 72
     2
 10
-219.7144756615164
 20
-245.9274915317093
 40
0.3157169230768204
 50
180.0
 51
244.6259913216412
 73
     1
 72
     2
 10
-220.2405183596043
 20
-247.0366331316771
 40
0.9118481501444847
 50
295.3740086781925
 51
424.6259913218244
 73
     0
 97
        8
330
201
330
162
330
1FE
330
1FF
330
1DD
330
161
330
200
330
1DC
 92
       16
 93
       12
 72
     2
 10
-222.2900243480481
 20
-249.6782338092715
 40
0.315716923075712
 50
180.0
 51
270.0
 73
     1
 72
     1
 10
-222.2900243480481
 20
-249.9939507323482
 11
-220.8141910870385
 21
-249.9939507323482
 72
     2
 10
-220.8141910870385
 20
-249.6782338092715
 40
0.3157169230767067
 50
270.0
 51
360.0
 73
     1
 72
     1
 10
-220.4984741639619
 20
-249.6782338092715
 11
-220.4984741639619
 21
-248.1474628777399
 72
     2
 10
-220.8141910870385
 20
-248.1474628777399
 40
0.315716923076593
 50
0.0
 51
64.80558935146249
 73
     1
 72
     2
 10
-220.2916066394635
 20
-247.0366331316771
 40
0.9118975235575889
 50
115.1944106485122
 51
244.805589351471
 73
     0
 72
     2
 10
-220.8141910870385
 20
-245.9258033856149
 40
0.315716923076146
 50
295.1944106485375
 51
360.0
 73
     1
 72
     1
 10
-220.4984741639619
 20
-245.9258033856149
 11
-220.4984741639619
 21
-245.3217787665544
 72
     2
 10
-220.8141910870385
 20
-245.3217787665544
 40
0.315716923076593
 50
0.0
 51
90.0
 73
     1
 72
     1
 10
-220.8141910870385
 20
-245.0060618434782
 11
-222.2900243480481
 21
-245.0060618434782
 72
     2
 10
-222.2900243480481
 20
-245.3217787665544
 40
0.3157169230761951
 50
90.0
 51
180.0
 73
     1
 72
     1
 10
-222.6057412711238
 20
-245.3217787665544
 11
-222.6057412711238
 21
-249.6782338092715
 97
       12
330
1E5
330
19D
330
1E8
330
198
330
1F5
330
1F6
330
1E7
330
197
330
1E6
330
196
330
1F7
330
195
 75
     1
 76
     0
 52
45.0
 41
0.1
 77
     0
 78
     1
 53
45.0
 43
0.0
 44
0.0
 45
-0.0707106781186548
 46
0.0707106781186548
 79
     0
 98
        1
 10
0.0
 20
0.0
  0
HATCH
  5
24C
330
74
100
AcDbEntity
  8
1
  6
Continuous
 62
     2
100
AcDbHatch
 10
0.0
 20
0.0
 30
0.0
210
0.0
220
0.0
230
1.0
  2
_USER
 70
     0
 71
     1
 91
        4
 92
        1
 93
        8
 72
     1
 10
-216.9863623186939
 20
-244.7177509033216
 11
-216.9863623186939
 21
-250.2822616725218
 72
     2
 10
-217.4106069340778
 20
-250.2822616725218
 40
0.4242446153833157
 50
0.0
 51
90.0
 73
     0
 72
     1
 10
-217.4106069340778
 20
-250.7065062879051
 11
-222.8839190247946
 21
-250.7065062879051
 72
     2
 10
-222.8839190247946
 20
-250.2822616725218
 40
0.4242446153828041
 50
90.0
 51
180.0
 73
     0
 72
     1
 10
-223.3081636401774
 20
-250.2822616725218
 11
-223.3081636401774
 21
-244.7177509033216
 72
     2
 10
-222.8839190247946
 20
-244.7177509033216
 40
0.4242446153837989
 50
180.0
 51
270.0
 73
     0
 72
     1
 10
-222.8839190247946
 20
-244.2935062879378
 11
-217.4106069340778
 21
-244.2935062879378
 72
     2
 10
-217.4106069340778
 20
-244.7177509033216
 40
0.4242446153839126
 50
270.0
 51
360.0
 73
     0
 97
        8
330
19B
330
1E9
330
19C
330
1F4
330
199
330
1EB
330
19A
330
1EA
 92
       16
 93
        1
 72
     2
 10
-220.2643333742771
 20
-247.0366331316771
 40
0.4709789327785074
 50
0.0
 51
360.0
 73
     1
 97
        1
330
20F
 92
       16
 93
        8
 72
     2
 10
-219.7144756615164
 20
-248.1457747316455
 40
0.3157169230765193
 50
115.3740086783587
 51
180.0
 73
     1
 72
     1
 10
-220.0301925845932
 20
-248.1457747316455
 11
-220.0301925845932
 21
-248.7276261383406
 72
     2
 10
-219.7144756615164
 20
-248.7276261383406
 40
0.3157169230768204
 50
180.0
 51
269.811032957449
 73
     1
 72
     2
 10
-219.7088595262064
 20
-247.0247911907716
 40
2.018561131933266
 50
269.8110329575858
 51
450.1889670424142
 73
     1
 72
     2
 10
-219.7144756615164
 20
-245.3219562432025
 40
0.3157169230760427
 50
90.18896704255111
 51
180.0
 73
     1
 72
     1
 10
-220.0301925845932
 20
-245.3219562432025
 11
-220.0301925845932
 21
-245.9274915317093
 72
     2
 10
-219.7144756615164
 20
-245.9274915317093
 40
0.3157169230768204
 50
180.0
 51
244.6259913216412
 73
     1
 72
     2
 10
-220.2405183596043
 20
-247.0366331316771
 40
0.9118481501444847
 50
295.3740086781925
 51
424.6259913218244
 73
     0
 97
        8
330
201
330
162
330
1FE
330
1FF
330
1DD
330
161
330
200
330
1DC
 92
       16
 93
       12
 72
     2
 10
-222.2900243480481
 20
-249.6782338092715
 40
0.315716923075712
 50
180.0
 51
270.0
 73
     1
 72
     1
 10
-222.2900243480481
 20
-249.9939507323482
 11
-220.8141910870385
 21
-249.9939507323482
 72
     2
 10
-220.8141910870385
 20
-249.6782338092715
 40
0.3157169230767067
 50
270.0
 51
360.0
 73
     1
 72
     1
 10
-220.4984741639619
 20
-249.6782338092715
 11
-220.4984741639619
 21
-248.1474628777399
 72
     2
 10
-220.8141910870385
 20
-248.1474628777399
 40
0.315716923076593
 50
0.0
 51
64.80558935146249
 73
     1
 72
     2
 10
-220.2916066394635
 20
-247.0366331316771
 40
0.9118975235575889
 50
115.1944106485122
 51
244.805589351471
 73
     0
 72
     2
 10
-220.8141910870385
 20
-245.9258033856149
 40
0.315716923076146
 50
295.1944106485375
 51
360.0
 73
     1
 72
     1
 10
-220.4984741639619
 20
-245.9258033856149
 11
-220.4984741639619
 21
-245.3217787665544
 72
     2
 10
-220.8141910870385
 20
-245.3217787665544
 40
0.315716923076593
 50
0.0
 51
90.0
 73
     1
 72
     1
 10
-220.8141910870385
 20
-245.0060618434782
 11
-222.2900243480481
 21
-245.0060618434782
 72
     2
 10
-222.2900243480481
 20
-245.3217787665544
 40
0.3157169230761951
 50
90.0
 51
180.0
 73
     1
 72
     1
 10
-222.6057412711238
 20
-245.3217787665544
 11
-222.6057412711238
 21
-249.6782338092715
 97
       12
330
1E5
330
19D
330
1E8
330
198
330
1F5
330
1F6
330
1E7
330
197
330
1E6
330
196
330
1F7
330
195
 75
     1
 76
     0
 52
45.0
 41
0.1
 77
     0
 78
     1
 53
45.0
 43
0.0
 44
0.0
 45
-0.0707106781186548
 46
0.0707106781186548
 79
     0
 98
        1
 10
0.0
 20
0.0
  0
HATCH
  5
24D
330
74
100
AcDbEntity
  8
1
  6
Continuous
 62
     2
100
AcDbHatch
 10
0.0
 20
0.0
 30
0.0
210
0.0
220
0.0
230
1.0
  2
_USER
 70
     0
 71
     1
 91
        1
 92
        1
 93
       18
 72
     1
 10
-195.3968144094729
 20
-248.4379620702176
 11
-196.2079134469463
 21
-248.4379620702176
 72
     1
 10
-196.2079134469463
 20
-248.4379620702176
 11
-196.2079134469463
 21
-250.7065062879051
 72
     1
 10
-196.2079134469463
 20
-250.7065062879051
 11
-197.400706149114
 21
-250.7065062879051
 72
     1
 10
-197.400706149114
 20
-250.7065062879051
 11
-197.400706149114
 21
-248.4379620702176
 72
     1
 10
-197.400706149114
 20
-248.4379620702176
 11
-198.5043454486821
 21
-248.4379620702176
 72
     2
 10
-198.5043454486821
 20
-249.3924850770437
 40
0.9545230068260935
 50
90.0
 51
109.337143219432
 73
     1
 72
     2
 10
-198.6510154467858
 20
-248.9745300966608
 40
0.5115800601944143
 50
109.3371432194853
 51
151.4785267424225
 73
     1
 72
     2
 10
-198.2736581887044
 20
-249.1796015259998
 40
0.9410597353349173
 50
151.4785267423633
 51
208.5214732576687
 73
     1
 72
     2
 10
-198.6510154467858
 20
-249.3846729553383
 40
0.5115800601960215
 50
208.5214732576866
 51
246.6277221118449
 73
     1
 72
     2
 10
-198.4945754140827
 20
-249.0226809366283
 40
0.9059297849852801
 50
246.6277221118183
 51
288.4480761180811
 73
     1
 72
     2
 10
-198.9127431477446
 20
-247.7691351605917
 40
2.227384008972773
 50
288.4480761181333
 51
301.9309089499394
 73
     1
 72
     1
 10
-197.7346881057207
 20
-249.6594858797415
 11
-197.7346881057207
 21
-250.5320028865448
 72
     2
 10
-199.0706160228374
 20
-245.8669205807434
 40
4.852596863498825
 50
74.02000874166129
 51
84.84185523036365
 73
     0
 72
     2
 10
-198.7817599281016
 20
-249.066811163965
 40
1.639695123940413
 50
84.8418552303237
 51
164.9381082228995
 73
     0
 72
     2
 10
-199.2008877715632
 20
-249.1796015259998
 40
1.205656168392968
 50
164.9381082229037
 51
195.0618917770962
 73
     0
 72
     2
 10
-198.7817599281016
 20
-249.2923918880347
 40
1.639695123940214
 50
195.0618917771043
 51
270.0
 73
     0
 72
     1
 10
-198.7817599281016
 20
-247.6526967640945
 11
-195.3968144094729
 21
-247.652696764094
 72
     1
 10
-195.3968144094729
 20
-247.652696764094
 11
-195.3968144094729
 21
-248.4379620702176
 97
       18
330
164
330
1FA
330
1FB
330
1E3
330
1E2
330
1C8
330
1E1
330
1E0
330
1FC
330
1DF
330
1FD
330
1DE
330
1C9
330
163
330
168
330
167
330
166
330
165
 75
     1
 76
     0
 52
45.0
 41
0.1
 77
     0
 78
     1
 53
45.0
 43
0.0
 44
0.0
 45
-0.0707106781186548
 46
0.0707106781186548
 79
     0
 98
        1
 10
0.0
 20
0.0
  0
HATCH
  5
24E
330
74
100
AcDbEntity
  8
1
  6
Continuous
 62
     2
100
AcDbHatch
 10
0.0
 20
0.0
 30
0.0
210
0.0
220
0.0
230
1.0
  2
_USER
 70
     0
 71
     1
 91
        1
 92
        1
 93
       18
 72
     1
 10
-195.3968144094729
 20
-248.4379620702176
 11
-196.2079134469463
 21
-248.4379620702176
 72
     1
 10
-196.2079134469463
 20
-248.4379620702176
 11
-196.2079134469463
 21
-250.7065062879051
 72
     1
 10
-196.2079134469463
 20
-250.7065062879051
 11
-197.400706149114
 21
-250.7065062879051
 72
     1
 10
-197.400706149114
 20
-250.7065062879051
 11
-197.400706149114
 21
-248.4379620702176
 72
     1
 10
-197.400706149114
 20
-248.4379620702176
 11
-198.5043454486821
 21
-248.4379620702176
 72
     2
 10
-198.5043454486821
 20
-249.3924850770437
 40
0.9545230068260935
 50
90.0
 51
109.337143219432
 73
     1
 72
     2
 10
-198.6510154467858
 20
-248.9745300966608
 40
0.5115800601944143
 50
109.3371432194853
 51
151.4785267424225
 73
     1
 72
     2
 10
-198.2736581887044
 20
-249.1796015259998
 40
0.9410597353349173
 50
151.4785267423633
 51
208.5214732576687
 73
     1
 72
     2
 10
-198.6510154467858
 20
-249.3846729553383
 40
0.5115800601960215
 50
208.5214732576866
 51
246.6277221118449
 73
     1
 72
     2
 10
-198.4945754140827
 20
-249.0226809366283
 40
0.9059297849852801
 50
246.6277221118183
 51
288.4480761180811
 73
     1
 72
     2
 10
-198.9127431477446
 20
-247.7691351605917
 40
2.227384008972773
 50
288.4480761181333
 51
301.9309089499394
 73
     1
 72
     1
 10
-197.7346881057207
 20
-249.6594858797415
 11
-197.7346881057207
 21
-250.5320028865448
 72
     2
 10
-199.0706160228374
 20
-245.8669205807434
 40
4.852596863498825
 50
74.02000874166129
 51
84.84185523036365
 73
     0
 72
     2
 10
-198.7817599281016
 20
-249.066811163965
 40
1.639695123940413
 50
84.8418552303237
 51
164.9381082228995
 73
     0
 72
     2
 10
-199.2008877715632
 20
-249.1796015259998
 40
1.205656168392968
 50
164.9381082229037
 51
195.0618917770962
 73
     0
 72
     2
 10
-198.7817599281016
 20
-249.2923918880347
 40
1.639695123940214
 50
195.0618917771043
 51
270.0
 73
     0
 72
     1
 10
-198.7817599281016
 20
-247.6526967640945
 11
-195.3968144094729
 21
-247.652696764094
 72
     1
 10
-195.3968144094729
 20
-247.652696764094
 11
-195.3968144094729
 21
-248.4379620702176
 97
       18
330
164
330
1FA
330
1FB
330
1E3
330
1E2
330
1C8
330
1E1
330
1E0
330
1FC
330
1DF
330
1FD
330
1DE
330
1C9
330
163
330
168
330
167
330
166
330
165
 75
     1
 76
     0
 52
45.0
 41
0.1
 77
     0
 78
     1
 53
45.0
 43
0.0
 44
0.0
 45
-0.0707106781186548
 46
0.0707106781186548
 79
     0
 98
        1
 10
0.0
 20
0.0
  0
HATCH
  5
24F
330
74
100
AcDbEntity
  8
1
  6
Continuous
 62
     2
100
AcDbHatch
 10
0.0
 20
0.0
 30
0.0
210
0.0
220
0.0
230
1.0
  2
_USER
 70
     0
 71
     1
 91
        1
 92
        1
 93
       14
 72
     2
 10
-214.8844614073545
 20
-249.2923918880347
 40
1.639695123940509
 50
84.84185523036136
 51
164.9381082228874
 73
     1
 72
     2
 10
-215.3035892508173
 20
-249.1796015259998
 40
1.205656168390937
 50
164.9381082228778
 51
195.0618917770948
 73
     1
 72
     2
 10
-214.8844614073545
 20
-249.066811163965
 40
1.63969512393938
 50
195.0618917770886
 51
275.1581447696406
 73
     1
 72
     2
 10
-215.1733175020904
 20
-245.8669205807434
 40
4.852596863498141
 50
275.1581447696253
 51
285.9799912583529
 73
     1
 72
     1
 10
-213.8373895849726
 20
-250.5320028865442
 11
-213.8373895849726
 21
-249.659485879741
 72
     2
 10
-215.0154446269975
 20
-247.7691351605911
 40
2.227384008972773
 50
58.0690910500407
 51
71.55192388186677
 73
     0
 72
     2
 10
-214.5972768933367
 20
-249.0226809366283
 40
0.9059297849849192
 50
71.55192388184041
 51
113.372277888129
 73
     0
 72
     2
 10
-214.7537169260387
 20
-249.3846729553383
 40
0.5115800601948034
 50
113.3722778881755
 51
151.4785267423044
 73
     0
 72
     2
 10
-214.3763596679584
 20
-249.1796015259998
 40
0.9410597353332295
 50
151.4785267422934
 51
208.5214732577339
 73
     0
 72
     2
 10
-214.7537169260387
 20
-248.9745300966608
 40
0.5115800601948891
 50
208.5214732576956
 51
246.627722111798
 73
     0
 72
     2
 10
-214.5972768933367
 20
-249.3365221153714
 40
0.9059297849853318
 50
246.627722111871
 51
288.4480761181483
 73
     0
 72
     2
 10
-215.0154446269975
 20
-250.590067891408
 40
2.227384008973501
 50
288.4480761181333
 51
301.9309089499589
 73
     0
 72
     1
 10
-213.8373895849726
 20
-248.6997171722581
 11
-213.8373895849726
 21
-247.8272001654548
 72
     2
 10
-215.1733175020904
 20
-252.4922824712557
 40
4.852596863498068
 50
74.02000874164739
 51
84.84185523037472
 73
     1
 97
       14
330
202
330
203
330
204
330
205
330
1CA
330
1DB
330
1DA
330
1D9
330
206
330
207
330
1D8
330
208
330
1CB
330
1D7
 75
     1
 76
     0
 52
45.0
 41
0.1
 77
     0
 78
     1
 53
45.0
 43
0.0
 44
0.0
 45
-0.0707106781186548
 46
0.0707106781186548
 79
     0
 98
        1
 10
0.0
 20
0.0
  0
HATCH
  5
250
330
74
100
AcDbEntity
  8
1
  6
Continuous
 62
     2
100
AcDbHatch
 10
0.0
 20
0.0
 30
0.0
210
0.0
220
0.0
230
1.0
  2
_USER
 70
     0
 71
     1
 91
        1
 92
        1
 93
       14
 72
     2
 10
-214.8844614073545
 20
-249.2923918880347
 40
1.639695123940509
 50
84.84185523036136
 51
164.9381082228874
 73
     1
 72
     2
 10
-215.3035892508173
 20
-249.1796015259998
 40
1.205656168390937
 50
164.9381082228778
 51
195.0618917770948
 73
     1
 72
     2
 10
-214.8844614073545
 20
-249.066811163965
 40
1.63969512393938
 50
195.0618917770886
 51
275.1581447696406
 73
     1
 72
     2
 10
-215.1733175020904
 20
-245.8669205807434
 40
4.852596863498141
 50
275.1581447696253
 51
285.9799912583529
 73
     1
 72
     1
 10
-213.8373895849726
 20
-250.5320028865442
 11
-213.8373895849726
 21
-249.659485879741
 72
     2
 10
-215.0154446269975
 20
-247.7691351605911
 40
2.227384008972773
 50
58.0690910500407
 51
71.55192388186677
 73
     0
 72
     2
 10
-214.5972768933367
 20
-249.0226809366283
 40
0.9059297849849192
 50
71.55192388184041
 51
113.372277888129
 73
     0
 72
     2
 10
-214.7537169260387
 20
-249.3846729553383
 40
0.5115800601948034
 50
113.3722778881755
 51
151.4785267423044
 73
     0
 72
     2
 10
-214.3763596679584
 20
-249.1796015259998
 40
0.9410597353332295
 50
151.4785267422934
 51
208.5214732577339
 73
     0
 72
     2
 10
-214.7537169260387
 20
-248.9745300966608
 40
0.5115800601948891
 50
208.5214732576956
 51
246.627722111798
 73
     0
 72
     2
 10
-214.5972768933367
 20
-249.3365221153714
 40
0.9059297849853318
 50
246.627722111871
 51
288.4480761181483
 73
     0
 72
     2
 10
-215.0154446269975
 20
-250.590067891408
 40
2.227384008973501
 50
288.4480761181333
 51
301.9309089499589
 73
     0
 72
     1
 10
-213.8373895849726
 20
-248.6997171722581
 11
-213.8373895849726
 21
-247.8272001654548
 72
     2
 10
-215.1733175020904
 20
-252.4922824712557
 40
4.852596863498068
 50
74.02000874164739
 51
84.84185523037472
 73
     1
 97
       14
330
202
330
203
330
204
330
205
330
1CA
330
1DB
330
1DA
330
1D9
330
206
330
207
330
1D8
330
208
330
1CB
330
1D7
 75
     1
 76
     0
 52
45.0
 41
0.1
 77
     0
 78
     1
 53
45.0
 43
0.0
 44
0.0
 45
-0.0707106781186548
 46
0.0707106781186548
 79
     0
 98
        1
 10
0.0
 20
0.0
  0
ENDBLK
  5
76
330
74
100
AcDbEntity
  8
0
100
AcDbBlockEnd
  0
BLOCK
  5
7A
330
77
100
AcDbEntity
  8
0
100
AcDbBlockBegin
  2
A4I_CS
 70
     0
 10
-98.00001399998997
 20
-263.0000062879215
 30
0.0
  3
A4I_CS
  1

  0
INSERT
  5
78
330
77
100
AcDbEntity
  8
1
100
AcDbBlockReference
  2
_punkt
 10
-98.00001399998997
 20
-258.0000062879213
 30
0.0
  0
INSERT
  5
79
330
77
100
AcDbEntity
  8
1
100
AcDbBlockReference
  2
_rahmen
 10
-98.00001399998997
 20
-263.0000062879215
 30
0.0
  0
ENDBLK
  5
7B
330
77
100
AcDbEntity
  8
0
100
AcDbBlockEnd
  0
BLOCK
  5
84
330
7C
100
AcDbEntity
  8
0
100
AcDbBlockBegin
  2
1
 70
     0
 10
0.0
 20
0.0
 30
0.0
  3
1
  1

  0
INSERT
  5
7D
330
7C
100
AcDbEntity
  8
0
100
AcDbBlockReference
  2
Allg1
 10
-147.079651000003
 20
-197.264437
 30
0.0
  0
INSERT
  5
7E
330
7C
100
AcDbEntity
  8
0
100
AcDbBlockReference
  2
Drfsicht1
 10
-269.0000231118366
 20
-174.5694506679372
 30
0.0
  0
INSERT
  5
7F
330
7C
100
AcDbEntity
  8
0
100
AcDbBlockReference
  2
Rckans1
 10
-139.0
 20
-112.9998130000001
 30
0.0
  0
INSERT
  5
80
330
7C
100
AcDbEntity
  8
0
100
AcDbBlockReference
  2
SA_Links1
 10
-204.00001
 20
-112.999813
 30
0.0
  0
INSERT
  5
81
330
7C
100
AcDbEntity
  8
0
100
AcDbBlockReference
  2
SA_Rechts1
 10
-344.000028
 20
-112.9998130000001
 30
0.0
  0
INSERT
  5
82
330
7C
100
AcDbEntity
  8
0
100
AcDbBlockReference
  2
Vordans1
 10
-269.0000230000021
 20
-112.9998130000001
 30
0.0
  0
INSERT
  5
83
330
7C
100
AcDbEntity
  8
0
100
AcDbBlockReference
  2
A4I_CS
 10
-98.00001399998997
 20
-263.0000062879215
 30
0.0
  0
ENDBLK
  5
85
330
7C
100
AcDbEntity
  8
0
100
AcDbBlockEnd
  0
BLOCK
  5
A9
330
A2
100
AcDbEntity
  8
0
100
AcDbBlockBegin
  2
*D17
 70
     1
 10
0.0
 20
0.0
 30
0.0
  3
*D17
  1

  0
LINE
  5
A3
330
A2
100
AcDbEntity
  8
1
  6
Continuous
 62
     2
100
AcDbLine
 10
-294.0000230000217
 20
-159.5694506679372
 30
0.0
 11
-294.0000230000217
 21
-189.5694506679372
 31
0.0
  0
LINE
  5
A4
330
A2
100
AcDbEntity
  8
1
  6
Continuous
 62
     2
100
AcDbLine
 10
-269.0000231118565
 20
-159.5694506679372
 30
0.0
 11
-295.5000230000217
 21
-159.5694506679372
 31
0.0
  0
LINE
  5
A5
330
A2
100
AcDbEntity
  8
1
  6
Continuous
 62
     2
100
AcDbLine
 10
-269.0000231118565
 20
-189.5694506679372
 30
0.0
 11
-295.5000230000217
 21
-189.5694506679372
 31
0.0
  0
SOLID
  5
A6
330
A2
100
AcDbEntity
  8
1
 62
     2
100
AcDbTrace
 10
-293.5392392584658
 20
-163.0694506679372
 30
0.0
 11
-294.4608067415776
 21
-163.0694506679372
 31
0.0
 12
-294.0000230000217
 22
-159.5694506679372
 32
0.0
 13
-294.0000230000217
 23
-159.5694506679372
 33
0.0
  0
SOLID
  5
A7
330
A2
100
AcDbEntity
  8
1
 62
     2
100
AcDbTrace
 10
-294.4608067415776
 20
-186.0694506679372
 30
0.0
 11
-293.5392392584658
 21
-186.0694506679372
 31
0.0
 12
-294.0000230000217
 22
-189.5694506679372
 32
0.0
 13
-294.0000230000217
 23
-189.5694506679372
 33
0.0
  0
MTEXT
  5
A8
330
A2
100
AcDbEntity
  8
1
 62
     3
100
AcDbMText
 10
-295.5000230000217
 20
-178.082536628737
 30
0.0
 40
3.5
 41
0.0
 71
     7
 72
     1
  1
\C3;\U+00f8\C3;30
  7
CONVERTER_11
 11
0.0
 21
1.0
 31
0.0
 73
     1
 44
0.60024009603842
  0
ENDBLK
  5
AA
330
A2
100
AcDbEntity
  8
0
100
AcDbBlockEnd
  0
BLOCK
  5
114
330
10D
100
AcDbEntity
  8
0
100
AcDbBlockBegin
  2
*D18
 70
     1
 10
0.0
 20
0.0
 30
0.0
  3
*D18
  1

  0
LINE
  5
10E
330
10D
100
AcDbEntity
  8
1
  6
Continuous
 62
     2
100
AcDbLine
 10
-294.0000230000221
 20
-118.4928654495468
 30
0.0
 11
-294.0000230000221
 21
-107.507133688957
 31
0.0
  0
LINE
  5
10F
330
10D
100
AcDbEntity
  8
1
  6
Continuous
 62
     2
100
AcDbLine
 10
-281.5000230000221
 20
-118.4928654495468
 30
0.0
 11
-295.5000230000221
 21
-118.4928654495468
 31
0.0
  0
LINE
  5
110
330
10D
100
AcDbEntity
  8
1
  6
Continuous
 62
     2
100
AcDbLine
 10
-270.0000230000221
 20
-107.507133688957
 30
0.0
 11
-295.5000230000221
 21
-107.507133688957
 31
0.0
  0
SOLID
  5
111
330
10D
100
AcDbEntity
  8
1
 62
     2
100
AcDbTrace
 10
-294.460806741578
 20
-114.9928654495468
 30
0.0
 11
-293.5392392584662
 21
-114.9928654495468
 31
0.0
 12
-294.0000230000221
 22
-118.4928654495468
 32
0.0
 13
-294.0000230000221
 23
-118.4928654495468
 33
0.0
  0
SOLID
  5
112
330
10D
100
AcDbEntity
  8
1
 62
     2
100
AcDbTrace
 10
-293.5392392584662
 20
-111.007133688957
 30
0.0
 11
-294.460806741578
 21
-111.007133688957
 31
0.0
 12
-294.0000230000221
 22
-107.507133688957
 32
0.0
 13
-294.0000230000221
 23
-107.507133688957
 33
0.0
  0
MTEXT
  5
113
330
10D
100
AcDbEntity
  8
1
 62
     3
100
AcDbMText
 10
-295.5000230000221
 20
-114.5749995692519
 30
0.0
 40
3.5
 41
0.0
 71
     7
 72
     1
  1
11
  7
CONVERTER_11
 11
0.0
 21
1.0
 31
0.0
 73
     1
 44
0.60024009603842
  0
ENDBLK
  5
115
330
10D
100
AcDbEntity
  8
0
100
AcDbBlockEnd
  0
ENDSEC
  0
SECTION
  2
ENTITIES
  0
INSERT
  5
86
330
1F
100
AcDbEntity
  8
1
100
AcDbBlockReference
  2
1
 10
0.0
 20
0.0
 30
0.0
  0
ENDSEC
  0
SECTION
  2
OBJECTS
  0
DICTIONARY
  5
C
330
0
100
AcDbDictionary
281
     1
  3
ACAD_GROUP
350
D
  3
ACAD_LAYOUT
350
1A
  3
ACAD_MATERIAL
350
3B
  3
ACAD_MLEADERSTYLE
350
278
  3
ACAD_MLINESTYLE
350
17
  3
ACAD_PLOTSETTINGS
350
19
  3
ACAD_PLOTSTYLENAME
350
E
  3
ACAD_TABLESTYLE
350
277
  3
ACAD_VISUALSTYLE
350
2A
  0
DICTIONARY
  5
D
102
{ACAD_REACTORS
330
C
102
}
330
C
100
AcDbDictionary
281
     1
  0
DICTIONARY
  5
1A
102
{ACAD_REACTORS
330
C
102
}
330
C
100
AcDbDictionary
281
     1
  3
Layout1
350
1E
  3
Layout2
350
26
  3
Model
350
22
  0
DICTIONARY
  5
3B
102
{ACAD_REACTORS
330
C
102
}
330
C
100
AcDbDictionary
281
     1
  3
ByBlock
350
3D
  3
ByLayer
350
3C
  3
Global
350
3E
  0
DICTIONARY
  5
278
102
{ACAD_REACTORS
330
C
102
}
330
C
100
AcDbDictionary
281
     1
  0
DICTIONARY
  5
17
102
{ACAD_REACTORS
330
C
102
}
330
C
100
AcDbDictionary
281
     1
  3
Standard
350
18
  0
DICTIONARY
  5
19
102
{ACAD_REACTORS
330
C
102
}
330
C
100
AcDbDictionary
281
     1
  0
ACDBDICTIONARYWDFLT
  5
E
102
{ACAD_REACTORS
330
C
102
}
330
C
100
AcDbDictionary
281
     1
  3
Normal
350
F
100
AcDbDictionaryWithDefault
340
F
  0
DICTIONARY
  5
277
102
{ACAD_REACTORS
330
C
102
}
330
C
100
AcDbDictionary
281
     1
  0
DICTIONARY
  5
2A
102
{ACAD_REACTORS
330
C
102
}
330
C
100
AcDbDictionary
281
     1
  3
2dWireframe
350
2F
  3
3D Hidden
350
31
  3
3dWireframe
350
30
  3
Basic
350
32
  3
Brighten
350
36
  3
ColorChange
350
3A
  3
Conceptual
350
34
  3
Dim
350
35
  3
Facepattern
350
39
  3
Flat
350
2B
  3
FlatWithEdges
350
2C
  3
Gouraud
350
2D
  3
GouraudWithEdges
350
2E
  3
Linepattern
350
38
  3
Realistic
350
33
  3
Thicken
350
37
  0
LAYOUT
  5
1E
102
{ACAD_REACTORS
330
1A
102
}
330
1A
100
AcDbPlotSettings
  1

  2
none_device
  4

  6

 40
0.0
 41
0.0
 42
0.0
 43
0.0
 44
0.0
 45
0.0
 46
0.0
 47
0.0
 48
0.0
 49
0.0
140
0.0
141
0.0
142
1.0
143
1.0
 70
   688
 72
     0
 73
     0
 74
     5
  7

 75
    16
 76
     0
 77
     2
 78
   300
147
1.0
148
0.0
149
0.0
100
AcDbLayout
  1
Layout1
 70
     1
 71
     1
 10
0.0
 20
0.0
 11
12.0
 21
9.0
 12
0.0
 22
0.0
 32
0.0
 14
1.00000000000000E+20
 24
1.00000000000000E+20
 34
1.00000000000000E+20
 15
-1.00000000000000E+20
 25
-1.00000000000000E+20
 35
-1.00000000000000E+20
146
0.0
 13
0.0
 23
0.0
 33
0.0
 16
1.0
 26
0.0
 36
0.0
 17
0.0
 27
1.0
 37
0.0
 76
     0
330
1B
  0
LAYOUT
  5
26
102
{ACAD_REACTORS
330
1A
102
}
330
1A
100
AcDbPlotSettings
  1

  2
none_device
  4

  6

 40
0.0
 41
0.0
 42
0.0
 43
0.0
 44
0.0
 45
0.0
 46
0.0
 47
0.0
 48
0.0
 49
0.0
140
0.0
141
0.0
142
1.0
143
1.0
 70
   688
 72
     0
 73
     0
 74
     5
  7

 75
    16
 76
     0
 77
     2
 78
   300
147
1.0
148
0.0
149
0.0
100
AcDbLayout
  1
Layout2
 70
     1
 71
     2
 10
0.0
 20
0.0
 11
0.0
 21
0.0
 12
0.0
 22
0.0
 32
0.0
 14
0.0
 24
0.0
 34
0.0
 15
0.0
 25
0.0
 35
0.0
146
0.0
 13
0.0
 23
0.0
 33
0.0
 16
1.0
 26
0.0
 36
0.0
 17
0.0
 27
1.0
 37
0.0
 76
     0
330
23
  0
LAYOUT
  5
22
102
{ACAD_REACTORS
330
1A
102
}
330
1A
100
AcDbPlotSettings
  1

  2
none_device
  4

  6

 40
0.0
 41
0.0
 42
0.0
 43
0.0
 44
0.0
 45
0.0
 46
0.0
 47
0.0
 48
0.0
 49
0.0
140
0.0
141
0.0
142
1.0
143
1.0
 70
  1712
 72
     0
 73
     0
 74
     0
  7

 75
     0
 76
     0
 77
     2
 78
   300
147
1.0
148
0.0
149
0.0
100
AcDbLayout
  1
Model
 70
     1
 71
     0
 10
0.0
 20
0.0
 11
12.0
 21
9.0
 12
0.0
 22
0.0
 32
0.0
 14
-390.0000139999891
 24
-263.0000062879215
 34
0.0
 15
-93.00001399999098
 25
-53.00000628792137
 35
0.0
146
0.0
 13
0.0
 23
0.0
 33
0.0
 16
1.0
 26
0.0
 36
0.0
 17
0.0
 27
1.0
 37
0.0
 76
     0
330
1F
331
29
  0
MATERIAL
  5
3D
102
{ACAD_REACTORS
330
3B
102
}
102
{ACAD_XDICTIONARY
360
273
102
}
330
3B
100
AcDbMaterial
  1
ByBlock
  0
MATERIAL
  5
3C
102
{ACAD_REACTORS
330
3B
102
}
102
{ACAD_XDICTIONARY
360
271
102
}
330
3B
100
AcDbMaterial
  1
ByLayer
  0
MATERIAL
  5
3E
102
{ACAD_REACTORS
330
3B
102
}
102
{ACAD_XDICTIONARY
360
275
102
}
330
3B
100
AcDbMaterial
  1
Global
  0
MLINESTYLE
  5
18
102
{ACAD_REACTORS
330
17
102
}
330
17
100
AcDbMlineStyle
  2
Standard
 70
     0
  3

 62
   256
 51
90.0
 52
90.0
 71
     2
 49
0.5
 62
   256
  6
BYLAYER
 49
-0.5
 62
   256
  6
BYLAYER
  0
ACDBPLACEHOLDER
  5
F
102
{ACAD_REACTORS
330
E
102
}
330
E
  0
VISUALSTYLE
  5
2F
102
{ACAD_REACTORS
330
2A
102
}
102
{ACAD_XDICTIONARY
360
259
102
}
330
2A
100
AcDbVisualStyle
  2
2dWireframe
 70
     4
 71
     0
 72
     2
 73
     0
 90
        0
 40
-0.6
 41
-30.0
 62
     5
 63
     7
421
 16777215
 74
     1
 91
        4
 64
     7
 65
   257
 75
     1
175
     1
 42
1.0
 92
        0
 66
   257
 43
1.0
 76
     1
 77
     6
 78
     2
 67
     7
 79
     5
170
     0
171
     0
290
     0
174
     0
 93
        1
 44
0.0
173
     0
291
     0
 45
0.0
1001
ACAD
1000
AcDbSavedByObjectVersion
1070
     0
  0
VISUALSTYLE
  5
31
102
{ACAD_REACTORS
330
2A
102
}
102
{ACAD_XDICTIONARY
360
25D
102
}
330
2A
100
AcDbVisualStyle
  2
3D Hidden
 70
     6
 71
     1
 72
     2
 73
     2
 90
        0
 40
-0.6
 41
-30.0
 62
     5
 63
     7
421
 16777215
 74
     2
 91
        2
 64
     7
 65
   257
 75
     2
175
     1
 42
40.0
 92
        0
 66
   257
 43
1.0
 76
     1
 77
     6
 78
     2
 67
     7
 79
     3
170
     0
171
     0
290
     0
174
     0
 93
        1
 44
0.0
173
     0
291
     0
 45
0.0
1001
ACAD
1000
AcDbSavedByObjectVersion
1070
     0
  0
VISUALSTYLE
  5
30
102
{ACAD_REACTORS
330
2A
102
}
102
{ACAD_XDICTIONARY
360
25B
102
}
330
2A
100
AcDbVisualStyle
  2
3dWireframe
 70
     5
 71
     0
 72
     2
 73
     0
 90
        0
 40
-0.6
 41
-30.0
 62
     5
 63
     7
421
 16777215
 74
     1
 91
        4
 64
     7
 65
   257
 75
     1
175
     1
 42
1.0
 92
        0
 66
   257
 43
1.0
 76
     1
 77
     6
 78
     2
 67
     7
 79
     5
170
     0
171
     0
290
     0
174
     0
 93
        1
 44
0.0
173
     0
291
     0
 45
0.0
1001
ACAD
1000
AcDbSavedByObjectVersion
1070
     0
  0
VISUALSTYLE
  5
32
102
{ACAD_REACTORS
330
2A
102
}
102
{ACAD_XDICTIONARY
360
25F
102
}
330
2A
100
AcDbVisualStyle
  2
Basic
 70
     7
 71
     1
 72
     0
 73
     1
 90
        0
 40
-0.6
 41
-30.0
 62
     5
 63
     7
421
 16777215
 74
     0
 91
        4
 64
     7
 65
   257
 75
     1
175
     1
 42
1.0
 92
        8
 66
     7
 43
1.0
 76
     1
 77
     6
 78
     2
 67
     7
 79
     5
170
     0
171
     0
290
     0
174
     0
 93
        1
 44
0.0
173
     0
291
     1
 45
0.0
1001
ACAD
1000
AcDbSavedByObjectVersion
1070
     0
  0
VISUALSTYLE
  5
36
102
{ACAD_REACTORS
330
2A
102
}
102
{ACAD_XDICTIONARY
360
267
102
}
330
2A
100
AcDbVisualStyle
  2
Brighten
 70
    12
 71
     2
 72
     2
 73
     0
 90
        0
 40
-0.6
 41
-30.0
 62
     5
 63
     7
421
 16777215
 74
     1
 91
        4
 64
     7
 65
   257
 75
     1
175
     1
 42
1.0
 92
        8
 66
     7
 43
1.0
 76
     1
 77
     6
 78
     2
 67
     7
 79
     5
170
     0
171
     0
290
     0
174
     0
 93
        1
 44
50.0
173
     0
291
     1
 45
0.0
1001
ACAD
1000
AcDbSavedByObjectVersion
1070
     0
  0
VISUALSTYLE
  5
3A
102
{ACAD_REACTORS
330
2A
102
}
102
{ACAD_XDICTIONARY
360
26F
102
}
330
2A
100
AcDbVisualStyle
  2
ColorChange
 70
    16
 71
     2
 72
     2
 73
     3
 90
        0
 40
-0.6
 41
-30.0
 62
     5
 63
     8
421
  8421504
 74
     1
 91
        4
 64
     7
 65
   257
 75
     1
175
     1
 42
1.0
 92
        8
 66
     8
424
  8421504
 43
1.0
 76
     1
 77
     6
 78
     2
 67
     7
 79
     5
170
     0
171
     0
290
     0
174
     0
 93
        1
 44
0.0
173
     0
291
     1
 45
0.0
1001
ACAD
1000
AcDbSavedByObjectVersion
1070
     0
  0
VISUALSTYLE
  5
34
102
{ACAD_REACTORS
330
2A
102
}
102
{ACAD_XDICTIONARY
360
263
102
}
330
2A
100
AcDbVisualStyle
  2
Conceptual
 70
     9
 71
     3
 72
     2
 73
     0
 90
        0
 40
-0.6
 41
-30.0
 62
     5
 63
     7
421
 16777215
 74
     2
 91
        2
 64
     7
 65
   257
 75
     1
175
     1
 42
40.0
 92
        8
 66
     7
 43
1.0
 76
     1
 77
     6
 78
     2
 67
     7
 79
     3
170
     0
171
     0
290
     0
174
     0
 93
        1
 44
0.0
173
     0
291
     0
 45
0.0
1001
ACAD
1000
AcDbSavedByObjectVersion
1070
     0
  0
VISUALSTYLE
  5
35
102
{ACAD_REACTORS
330
2A
102
}
102
{ACAD_XDICTIONARY
360
265
102
}
330
2A
100
AcDbVisualStyle
  2
Dim
 70
    11
 71
     2
 72
     2
 73
     0
 90
        0
 40
-0.6
 41
-30.0
 62
     5
 63
     7
421
 16777215
 74
     1
 91
        4
 64
     7
 65
   257
 75
     1
175
     1
 42
1.0
 92
        8
 66
     7
 43
1.0
 76
     1
 77
     6
 78
     2
 67
     7
 79
     5
170
     0
171
     0
290
     0
174
     0
 93
        1
 44
-50.0
173
     0
291
     1
 45
0.0
1001
ACAD
1000
AcDbSavedByObjectVersion
1070
     0
  0
VISUALSTYLE
  5
39
102
{ACAD_REACTORS
330
2A
102
}
102
{ACAD_XDICTIONARY
360
26D
102
}
330
2A
100
AcDbVisualStyle
  2
Facepattern
 70
    15
 71
     2
 72
     2
 73
     0
 90
        0
 40
-0.6
 41
-30.0
 62
     5
 63
     7
421
 16777215
 74
     1
 91
        4
 64
     7
 65
   257
 75
     1
175
     1
 42
1.0
 92
        8
 66
     7
 43
1.0
 76
     1
 77
     6
 78
     2
 67
     7
 79
     5
170
     0
171
     0
290
     0
174
     0
 93
        1
 44
0.0
173
     0
291
     1
 45
0.0
1001
ACAD
1000
AcDbSavedByObjectVersion
1070
     0
  0
VISUALSTYLE
  5
2B
102
{ACAD_REACTORS
330
2A
102
}
102
{ACAD_XDICTIONARY
360
251
102
}
330
2A
100
AcDbVisualStyle
  2
Flat
 70
     0
 71
     2
 72
     1
 73
     1
 90
        2
 40
-0.6
 41
30.0
 62
     5
 63
     7
421
 16777215
 74
     0
 91
        4
 64
     7
 65
   257
 75
     1
175
     1
 42
1.0
 92
        8
 66
     7
 43
1.0
 76
     1
 77
     6
 78
     2
 67
     7
 79
     5
170
     0
171
     0
290
     0
174
     0
 93
       13
 44
0.0
173
     0
291
     1
 45
0.0
1001
ACAD
1000
AcDbSavedByObjectVersion
1070
     0
  0
VISUALSTYLE
  5
2C
102
{ACAD_REACTORS
330
2A
102
}
102
{ACAD_XDICTIONARY
360
253
102
}
330
2A
100
AcDbVisualStyle
  2
FlatWithEdges
 70
     1
 71
     2
 72
     1
 73
     1
 90
        2
 40
-0.6
 41
30.0
 62
     5
 63
     7
421
 16777215
 74
     1
 91
        4
 64
     7
 65
   257
 75
     1
175
     1
 42
1.0
 92
        0
 66
   257
 43
1.0
 76
     1
 77
     6
 78
     2
 67
     7
 79
     5
170
     0
171
     0
290
     0
174
     0
 93
       13
 44
0.0
173
     0
291
     1
 45
0.0
1001
ACAD
1000
AcDbSavedByObjectVersion
1070
     0
  0
VISUALSTYLE
  5
2D
102
{ACAD_REACTORS
330
2A
102
}
102
{ACAD_XDICTIONARY
360
255
102
}
330
2A
100
AcDbVisualStyle
  2
Gouraud
 70
     2
 71
     2
 72
     2
 73
     1
 90
        2
 40
-0.6
 41
30.0
 62
     5
 63
     7
421
 16777215
 74
     0
 91
        4
 64
     7
 65
   257
 75
     1
175
     1
 42
1.0
 92
        0
 66
     7
 43
1.0
 76
     1
 77
     6
 78
     2
 67
     7
 79
     5
170
     0
171
     0
290
     0
174
     0
 93
       13
 44
0.0
173
     0
291
     1
 45
0.0
1001
ACAD
1000
AcDbSavedByObjectVersion
1070
     0
  0
VISUALSTYLE
  5
2E
102
{ACAD_REACTORS
330
2A
102
}
102
{ACAD_XDICTIONARY
360
257
102
}
330
2A
100
AcDbVisualStyle
  2
GouraudWithEdges
 70
     3
 71
     2
 72
     2
 73
     1
 90
        2
 40
-0.6
 41
30.0
 62
     5
 63
     7
421
 16777215
 74
     1
 91
        4
 64
     7
 65
   257
 75
     1
175
     1
 42
1.0
 92
        0
 66
   257
 43
1.0
 76
     1
 77
     6
 78
     2
 67
     7
 79
     5
170
     0
171
     0
290
     0
174
     0
 93
       13
 44
0.0
173
     0
291
     1
 45
0.0
1001
ACAD
1000
AcDbSavedByObjectVersion
1070
     0
  0
VISUALSTYLE
  5
38
102
{ACAD_REACTORS
330
2A
102
}
102
{ACAD_XDICTIONARY
360
26B
102
}
330
2A
100
AcDbVisualStyle
  2
Linepattern
 70
    14
 71
     2
 72
     2
 73
     0
 90
        0
 40
-0.6
 41
-30.0
 62
     5
 63
     7
421
 16777215
 74
     1
 91
        4
 64
     7
 65
   257
 75
     7
175
     7
 42
1.0
 92
        8
 66
     7
 43
1.0
 76
     1
 77
     6
 78
     2
 67
     7
 79
     5
170
     0
171
     0
290
     0
174
     0
 93
        1
 44
0.0
173
     0
291
     1
 45
0.0
1001
ACAD
1000
AcDbSavedByObjectVersion
1070
     0
  0
VISUALSTYLE
  5
33
102
{ACAD_REACTORS
330
2A
102
}
102
{ACAD_XDICTIONARY
360
261
102
}
330
2A
100
AcDbVisualStyle
  2
Realistic
 70
     8
 71
     2
 72
     2
 73
     0
 90
        0
 40
-0.6
 41
-30.0
 62
     5
 63
     7
421
 16777215
 74
     1
 91
        0
 64
     7
 65
   257
 75
     1
175
     1
 42
1.0
 92
        8
 66
     8
424
  7895160
 43
1.0
 76
     1
 77
     6
 78
     2
 67
     7
 79
     5
170
     0
171
     0
290
     0
174
     0
 93
       13
 44
0.0
173
     0
291
     0
 45
0.0
1001
ACAD
1000
AcDbSavedByObjectVersion
1070
     0
  0
VISUALSTYLE
  5
37
102
{ACAD_REACTORS
330
2A
102
}
102
{ACAD_XDICTIONARY
360
269
102
}
330
2A
100
AcDbVisualStyle
  2
Thicken
 70
    13
 71
     2
 72
     2
 73
     0
 90
        0
 40
-0.6
 41
-30.0
 62
     5
 63
     7
421
 16777215
 74
     1
 91
        4
 64
     7
 65
   257
 75
     1
175
     1
 42
1.0
 92
       12
 66
     7
 43
1.0
 76
     1
 77
     6
 78
     2
 67
     7
 79
     5
170
     0
171
     0
290
     0
174
     0
 93
        1
 44
0.0
173
     0
291
     1
 45
0.0
1001
ACAD
1000
AcDbSavedByObjectVersion
1070
     0
  0
DICTIONARY
  5
273
330
3D
100
AcDbDictionary
280
     1
281
     1
  3
ACAD_XREC_ROUNDTRIP
360
274
  0
DICTIONARY
  5
271
330
3C
100
AcDbDictionary
280
     1
281
     1
  3
ACAD_XREC_ROUNDTRIP
360
272
  0
DICTIONARY
  5
275
330
3E
100
AcDbDictionary
280
     1
281
     1
  3
ACAD_XREC_ROUNDTRIP
360
276
  0
DICTIONARY
  5
259
330
2F
100
AcDbDictionary
280
     1
281
     1
  3
ACAD_XREC_ROUNDTRIP
360
25A
  0
DICTIONARY
  5
25D
330
31
100
AcDbDictionary
280
     1
281
     1
  3
ACAD_XREC_ROUNDTRIP
360
25E
  0
DICTIONARY
  5
25B
330
30
100
AcDbDictionary
280
     1
281
     1
  3
ACAD_XREC_ROUNDTRIP
360
25C
  0
DICTIONARY
  5
25F
330
32
100
AcDbDictionary
280
     1
281
     1
  3
ACAD_XREC_ROUNDTRIP
360
260
  0
DICTIONARY
  5
267
330
36
100
AcDbDictionary
280
     1
281
     1
  3
ACAD_XREC_ROUNDTRIP
360
268
  0
DICTIONARY
  5
26F
330
3A
100
AcDbDictionary
280
     1
281
     1
  3
ACAD_XREC_ROUNDTRIP
360
270
  0
DICTIONARY
  5
263
330
34
100
AcDbDictionary
280
     1
281
     1
  3
ACAD_XREC_ROUNDTRIP
360
264
  0
DICTIONARY
  5
265
330
35
100
AcDbDictionary
280
     1
281
     1
  3
ACAD_XREC_ROUNDTRIP
360
266
  0
DICTIONARY
  5
26D
330
39
100
AcDbDictionary
280
     1
281
     1
  3
ACAD_XREC_ROUNDTRIP
360
26E
  0
DICTIONARY
  5
251
330
2B
100
AcDbDictionary
280
     1
281
     1
  3
ACAD_XREC_ROUNDTRIP
360
252
  0
DICTIONARY
  5
253
330
2C
100
AcDbDictionary
280
     1
281
     1
  3
ACAD_XREC_ROUNDTRIP
360
254
  0
DICTIONARY
  5
255
330
2D
100
AcDbDictionary
280
     1
281
     1
  3
ACAD_XREC_ROUNDTRIP
360
256
  0
DICTIONARY
  5
257
330
2E
100
AcDbDictionary
280
     1
281
     1
  3
ACAD_XREC_ROUNDTRIP
360
258
  0
DICTIONARY
  5
26B
330
38
100
AcDbDictionary
280
     1
281
     1
  3
ACAD_XREC_ROUNDTRIP
360
26C
  0
DICTIONARY
  5
261
330
33
100
AcDbDictionary
280
     1
281
     1
  3
ACAD_XREC_ROUNDTRIP
360
262
  0
DICTIONARY
  5
269
330
37
100
AcDbDictionary
280
     1
281
     1
  3
ACAD_XREC_ROUNDTRIP
360
26A
  0
XRECORD
  5
274
102
{ACAD_REACTORS
330
273
102
}
330
273
100
AcDbXrecord
280
     1
102
MATERIAL
148
0.0
149
0.0
149
0.0
 93
        0
 94
      127
282
     0
 72
     1
 77
     1
171
     1
175
     1
179
     1
273
     0
  0
XRECORD
  5
272
102
{ACAD_REACTORS
330
271
102
}
330
271
100
AcDbXrecord
280
     1
102
MATERIAL
148
0.0
149
0.0
149
0.0
 93
        0
 94
      127
282
     0
 72
     1
 77
     1
171
     1
175
     1
179
     1
273
     0
  0
XRECORD
  5
276
102
{ACAD_REACTORS
330
275
102
}
330
275
100
AcDbXrecord
280
     1
102
MATERIAL
148
0.0
149
0.0
149
0.0
 93
        0
 94
      127
282
     0
 72
     1
 77
     1
171
     1
175
     1
179
     1
273
     0
  0
XRECORD
  5
25A
102
{ACAD_REACTORS
330
259
102
}
330
259
100
AcDbXrecord
280
     1
102
RTVSPropertyOp0
 70
     1
102
RTVSPropertyOp1
 70
     1
102
RTVSPropertyOp2
 70
     1
102
RTVSPropertyOp3
 70
     1
102
RTVSPropertyOp4
 70
     1
102
RTVSPropertyOp5
 70
     1
102
RTVSPropertyOp6
 70
     1
102
RTVSPropertyOp7
 70
     1
102
RTVSPropertyOp8
 70
     1
102
RTVSPropertyOp9
 70
     1
102
RTVSPropertyOp10
 70
     1
102
RTVSPropertyOp11
 70
     1
102
RTVSPropertyOp12
 70
     1
102
RTVSPropertyOp13
 70
     1
102
RTVSPropertyOp14
 70
     1
102
RTVSPropertyOp15
 70
     1
102
RTVSPropertyOp16
 70
     1
102
RTVSPropertyOp17
 70
     1
102
RTVSPropertyOp18
 70
     1
102
RTVSPropertyOp19
 70
     1
102
RTVSPropertyOp20
 70
     1
102
RTVSPropertyOp21
 70
     1
102
RTVSPropertyOp22
 70
     1
102
RTVSPropertyOp23
 70
     1
102
RTVSPropertyOp24
 70
     1
102
RTVSPropertyOp25
 70
     1
102
RTVSPropertyOp26
 70
     1
102
RTVSPropertyOp27
 70
     1
102
RTVSPropertyOp28
 70
     1
102
RTVSPropertyOp29
 70
     1
102
RTVSPropertyOp30
 70
     1
102
RTVSPropertyOp31
 70
     1
102
RTVSPropertyOp32
 70
     1
  0
XRECORD
  5
25E
102
{ACAD_REACTORS
330
25D
102
}
330
25D
100
AcDbXrecord
280
     1
102
RTVSPropertyOp0
 70
     1
102
RTVSPropertyOp1
 70
     1
102
RTVSPropertyOp2
 70
     1
102
RTVSPropertyOp3
 70
     1
102
RTVSPropertyOp4
 70
     1
102
RTVSPropertyOp5
 70
     1
102
RTVSPropertyOp6
 70
     1
102
RTVSPropertyOp7
 70
     1
102
RTVSPropertyOp8
 70
     1
102
RTVSPropertyOp9
 70
     1
102
RTVSPropertyOp10
 70
     1
102
RTVSPropertyOp11
 70
     1
102
RTVSPropertyOp12
 70
     1
102
RTVSPropertyOp13
 70
     1
102
RTVSPropertyOp14
 70
     1
102
RTVSPropertyOp15
 70
     1
102
RTVSPropertyOp16
 70
     1
102
RTVSPropertyOp17
 70
     1
102
RTVSPropertyOp18
 70
     1
102
RTVSPropertyOp19
 70
     1
102
RTVSPropertyOp20
 70
     1
102
RTVSPropertyOp21
 70
     1
102
RTVSPropertyOp22
 70
     1
102
RTVSPropertyOp23
 70
     1
102
RTVSPropertyOp24
 70
     1
102
RTVSPropertyOp25
 70
     1
102
RTVSPropertyOp26
 70
     1
102
RTVSPropertyOp27
 70
     1
102
RTVSPropertyOp28
 70
     1
102
RTVSPropertyOp29
 70
     1
102
RTVSPropertyOp30
 70
     1
102
RTVSPropertyOp31
 70
     1
102
RTVSPropertyOp32
 70
     1
  0
XRECORD
  5
25C
102
{ACAD_REACTORS
330
25B
102
}
330
25B
100
AcDbXrecord
280
     1
102
RTVSPropertyOp0
 70
     1
102
RTVSPropertyOp1
 70
     1
102
RTVSPropertyOp2
 70
     1
102
RTVSPropertyOp3
 70
     1
102
RTVSPropertyOp4
 70
     1
102
RTVSPropertyOp5
 70
     1
102
RTVSPropertyOp6
 70
     1
102
RTVSPropertyOp7
 70
     1
102
RTVSPropertyOp8
 70
     1
102
RTVSPropertyOp9
 70
     1
102
RTVSPropertyOp10
 70
     1
102
RTVSPropertyOp11
 70
     1
102
RTVSPropertyOp12
 70
     1
102
RTVSPropertyOp13
 70
     1
102
RTVSPropertyOp14
 70
     1
102
RTVSPropertyOp15
 70
     1
102
RTVSPropertyOp16
 70
     1
102
RTVSPropertyOp17
 70
     1
102
RTVSPropertyOp18
 70
     1
102
RTVSPropertyOp19
 70
     1
102
RTVSPropertyOp20
 70
     1
102
RTVSPropertyOp21
 70
     1
102
RTVSPropertyOp22
 70
     1
102
RTVSPropertyOp23
 70
     1
102
RTVSPropertyOp24
 70
     1
102
RTVSPropertyOp25
 70
     1
102
RTVSPropertyOp26
 70
     1
102
RTVSPropertyOp27
 70
     1
102
RTVSPropertyOp28
 70
     1
102
RTVSPropertyOp29
 70
     1
102
RTVSPropertyOp30
 70
     1
102
RTVSPropertyOp31
 70
     1
102
RTVSPropertyOp32
 70
     1
  0
XRECORD
  5
260
102
{ACAD_REACTORS
330
25F
102
}
330
25F
100
AcDbXrecord
280
     1
102
RTVSPropertyOp0
 70
     1
102
RTVSPropertyOp1
 70
     1
102
RTVSPropertyOp2
 70
     1
102
RTVSPropertyOp3
 70
     1
102
RTVSPropertyOp4
 70
     1
102
RTVSPropertyOp5
 70
     1
102
RTVSPropertyOp6
 70
     1
102
RTVSPropertyOp7
 70
     1
102
RTVSPropertyOp8
 70
     1
102
RTVSPropertyOp9
 70
     1
102
RTVSPropertyOp10
 70
     1
102
RTVSPropertyOp11
 70
     1
102
RTVSPropertyOp12
 70
     1
102
RTVSPropertyOp13
 70
     1
102
RTVSPropertyOp14
 70
     1
102
RTVSPropertyOp15
 70
     1
102
RTVSPropertyOp16
 70
     1
102
RTVSPropertyOp17
 70
     1
102
RTVSPropertyOp18
 70
     1
102
RTVSPropertyOp19
 70
     1
102
RTVSPropertyOp20
 70
     1
102
RTVSPropertyOp21
 70
     1
102
RTVSPropertyOp22
 70
     1
102
RTVSPropertyOp23
 70
     1
102
RTVSPropertyOp24
 70
     1
102
RTVSPropertyOp25
 70
     1
102
RTVSPropertyOp26
 70
     1
102
RTVSPropertyOp27
 70
     1
102
RTVSPropertyOp28
 70
     1
102
RTVSPropertyOp29
 70
     1
102
RTVSPropertyOp30
 70
     1
102
RTVSPropertyOp31
 70
     1
102
RTVSPropertyOp32
 70
     1
  0
XRECORD
  5
268
102
{ACAD_REACTORS
330
267
102
}
330
267
100
AcDbXrecord
280
     1
102
RTVSPropertyOp0
 70
     1
102
RTVSPropertyOp1
 70
     1
102
RTVSPropertyOp2
 70
     1
102
RTVSPropertyOp3
 70
     1
102
RTVSPropertyOp4
 70
     1
102
RTVSPropertyOp5
 70
     1
102
RTVSPropertyOp6
 70
     1
102
RTVSPropertyOp7
 70
     1
102
RTVSPropertyOp8
 70
     1
102
RTVSPropertyOp9
 70
     1
102
RTVSPropertyOp10
 70
     1
102
RTVSPropertyOp11
 70
     1
102
RTVSPropertyOp12
 70
     1
102
RTVSPropertyOp13
 70
     1
102
RTVSPropertyOp14
 70
     1
102
RTVSPropertyOp15
 70
     1
102
RTVSPropertyOp16
 70
     1
102
RTVSPropertyOp17
 70
     1
102
RTVSPropertyOp18
 70
     1
102
RTVSPropertyOp19
 70
     1
102
RTVSPropertyOp20
 70
     1
102
RTVSPropertyOp21
 70
     1
102
RTVSPropertyOp22
 70
     1
102
RTVSPropertyOp23
 70
     1
102
RTVSPropertyOp24
 70
     1
102
RTVSPropertyOp25
 70
     1
102
RTVSPropertyOp26
 70
     1
102
RTVSPropertyOp27
 70
     1
102
RTVSPropertyOp28
 70
     1
102
RTVSPropertyOp29
 70
     1
102
RTVSPropertyOp30
 70
     1
102
RTVSPropertyOp31
 70
     1
102
RTVSPropertyOp32
 70
     1
  0
XRECORD
  5
270
102
{ACAD_REACTORS
330
26F
102
}
330
26F
100
AcDbXrecord
280
     1
102
RTVSPropertyOp0
 70
     1
102
RTVSPropertyOp1
 70
     1
102
RTVSPropertyOp2
 70
     1
102
RTVSPropertyOp3
 70
     1
102
RTVSPropertyOp4
 70
     1
102
RTVSPropertyOp5
 70
     1
102
RTVSPropertyOp6
 70
     1
102
RTVSPropertyOp7
 70
     1
102
RTVSPropertyOp8
 70
     1
102
RTVSPropertyOp9
 70
     1
102
RTVSPropertyOp10
 70
     1
102
RTVSPropertyOp11
 70
     1
102
RTVSPropertyOp12
 70
     1
102
RTVSPropertyOp13
 70
     1
102
RTVSPropertyOp14
 70
     1
102
RTVSPropertyOp15
 70
     1
102
RTVSPropertyOp16
 70
     1
102
RTVSPropertyOp17
 70
     1
102
RTVSPropertyOp18
 70
     1
102
RTVSPropertyOp19
 70
     1
102
RTVSPropertyOp20
 70
     1
102
RTVSPropertyOp21
 70
     1
102
RTVSPropertyOp22
 70
     1
102
RTVSPropertyOp23
 70
     1
102
RTVSPropertyOp24
 70
     1
102
RTVSPropertyOp25
 70
     1
102
RTVSPropertyOp26
 70
     1
102
RTVSPropertyOp27
 70
     1
102
RTVSPropertyOp28
 70
     1
102
RTVSPropertyOp29
 70
     1
102
RTVSPropertyOp30
 70
     1
102
RTVSPropertyOp31
 70
     1
102
RTVSPropertyOp32
 70
     1
  0
XRECORD
  5
264
102
{ACAD_REACTORS
330
263
102
}
330
263
100
AcDbXrecord
280
     1
102
RTVSPropertyOp0
 70
     1
102
RTVSPropertyOp1
 70
     1
102
RTVSPropertyOp2
 70
     1
102
RTVSPropertyOp3
 70
     1
102
RTVSPropertyOp4
 70
     1
102
RTVSPropertyOp5
 70
     1
102
RTVSPropertyOp6
 70
     1
102
RTVSPropertyOp7
 70
     1
102
RTVSPropertyOp8
 70
     1
102
RTVSPropertyOp9
 70
     1
102
RTVSPropertyOp10
 70
     1
102
RTVSPropertyOp11
 70
     1
102
RTVSPropertyOp12
 70
     1
102
RTVSPropertyOp13
 70
     1
102
RTVSPropertyOp14
 70
     1
102
RTVSPropertyOp15
 70
     1
102
RTVSPropertyOp16
 70
     1
102
RTVSPropertyOp17
 70
     1
102
RTVSPropertyOp18
 70
     1
102
RTVSPropertyOp19
 70
     1
102
RTVSPropertyOp20
 70
     1
102
RTVSPropertyOp21
 70
     1
102
RTVSPropertyOp22
 70
     1
102
RTVSPropertyOp23
 70
     1
102
RTVSPropertyOp24
 70
     1
102
RTVSPropertyOp25
 70
     1
102
RTVSPropertyOp26
 70
     1
102
RTVSPropertyOp27
 70
     1
102
RTVSPropertyOp28
 70
     1
102
RTVSPropertyOp29
 70
     1
102
RTVSPropertyOp30
 70
     1
102
RTVSPropertyOp31
 70
     1
102
RTVSPropertyOp32
 70
     1
  0
XRECORD
  5
266
102
{ACAD_REACTORS
330
265
102
}
330
265
100
AcDbXrecord
280
     1
102
RTVSPropertyOp0
 70
     1
102
RTVSPropertyOp1
 70
     1
102
RTVSPropertyOp2
 70
     1
102
RTVSPropertyOp3
 70
     1
102
RTVSPropertyOp4
 70
     1
102
RTVSPropertyOp5
 70
     1
102
RTVSPropertyOp6
 70
     1
102
RTVSPropertyOp7
 70
     1
102
RTVSPropertyOp8
 70
     1
102
RTVSPropertyOp9
 70
     1
102
RTVSPropertyOp10
 70
     1
102
RTVSPropertyOp11
 70
     1
102
RTVSPropertyOp12
 70
     1
102
RTVSPropertyOp13
 70
     1
102
RTVSPropertyOp14
 70
     1
102
RTVSPropertyOp15
 70
     1
102
RTVSPropertyOp16
 70
     1
102
RTVSPropertyOp17
 70
     1
102
RTVSPropertyOp18
 70
     1
102
RTVSPropertyOp19
 70
     1
102
RTVSPropertyOp20
 70
     1
102
RTVSPropertyOp21
 70
     1
102
RTVSPropertyOp22
 70
     1
102
RTVSPropertyOp23
 70
     1
102
RTVSPropertyOp24
 70
     1
102
RTVSPropertyOp25
 70
     1
102
RTVSPropertyOp26
 70
     1
102
RTVSPropertyOp27
 70
     1
102
RTVSPropertyOp28
 70
     1
102
RTVSPropertyOp29
 70
     1
102
RTVSPropertyOp30
 70
     1
102
RTVSPropertyOp31
 70
     1
102
RTVSPropertyOp32
 70
     1
  0
XRECORD
  5
26E
102
{ACAD_REACTORS
330
26D
102
}
330
26D
100
AcDbXrecord
280
     1
102
RTVSPropertyOp0
 70
     1
102
RTVSPropertyOp1
 70
     1
102
RTVSPropertyOp2
 70
     1
102
RTVSPropertyOp3
 70
     1
102
RTVSPropertyOp4
 70
     1
102
RTVSPropertyOp5
 70
     1
102
RTVSPropertyOp6
 70
     1
102
RTVSPropertyOp7
 70
     1
102
RTVSPropertyOp8
 70
     1
102
RTVSPropertyOp9
 70
     1
102
RTVSPropertyOp10
 70
     1
102
RTVSPropertyOp11
 70
     1
102
RTVSPropertyOp12
 70
     1
102
RTVSPropertyOp13
 70
     1
102
RTVSPropertyOp14
 70
     1
102
RTVSPropertyOp15
 70
     1
102
RTVSPropertyOp16
 70
     1
102
RTVSPropertyOp17
 70
     1
102
RTVSPropertyOp18
 70
     1
102
RTVSPropertyOp19
 70
     1
102
RTVSPropertyOp20
 70
     1
102
RTVSPropertyOp21
 70
     1
102
RTVSPropertyOp22
 70
     1
102
RTVSPropertyOp23
 70
     1
102
RTVSPropertyOp24
 70
     1
102
RTVSPropertyOp25
 70
     1
102
RTVSPropertyOp26
 70
     1
102
RTVSPropertyOp27
 70
     1
102
RTVSPropertyOp28
 70
     1
102
RTVSPropertyOp29
 70
     1
102
RTVSPropertyOp30
 70
     1
102
RTVSPropertyOp31
 70
     1
102
RTVSPropertyOp32
 70
     1
  0
XRECORD
  5
252
102
{ACAD_REACTORS
330
251
102
}
330
251
100
AcDbXrecord
280
     1
102
RTVSPropertyOp0
 70
     1
102
RTVSPropertyOp1
 70
     1
102
RTVSPropertyOp2
 70
     1
102
RTVSPropertyOp3
 70
     1
102
RTVSPropertyOp4
 70
     1
102
RTVSPropertyOp5
 70
     1
102
RTVSPropertyOp6
 70
     1
102
RTVSPropertyOp7
 70
     1
102
RTVSPropertyOp8
 70
     1
102
RTVSPropertyOp9
 70
     1
102
RTVSPropertyOp10
 70
     1
102
RTVSPropertyOp11
 70
     1
102
RTVSPropertyOp12
 70
     1
102
RTVSPropertyOp13
 70
     1
102
RTVSPropertyOp14
 70
     1
102
RTVSPropertyOp15
 70
     1
102
RTVSPropertyOp16
 70
     1
102
RTVSPropertyOp17
 70
     1
102
RTVSPropertyOp18
 70
     1
102
RTVSPropertyOp19
 70
     1
102
RTVSPropertyOp20
 70
     1
102
RTVSPropertyOp21
 70
     1
102
RTVSPropertyOp22
 70
     1
102
RTVSPropertyOp23
 70
     1
102
RTVSPropertyOp24
 70
     1
102
RTVSPropertyOp25
 70
     1
102
RTVSPropertyOp26
 70
     1
102
RTVSPropertyOp27
 70
     1
102
RTVSPropertyOp28
 70
     1
102
RTVSPropertyOp29
 70
     1
102
RTVSPropertyOp30
 70
     1
102
RTVSPropertyOp31
 70
     1
102
RTVSPropertyOp32
 70
     1
  0
XRECORD
  5
254
102
{ACAD_REACTORS
330
253
102
}
330
253
100
AcDbXrecord
280
     1
102
RTVSPropertyOp0
 70
     1
102
RTVSPropertyOp1
 70
     1
102
RTVSPropertyOp2
 70
     1
102
RTVSPropertyOp3
 70
     1
102
RTVSPropertyOp4
 70
     1
102
RTVSPropertyOp5
 70
     1
102
RTVSPropertyOp6
 70
     1
102
RTVSPropertyOp7
 70
     1
102
RTVSPropertyOp8
 70
     1
102
RTVSPropertyOp9
 70
     1
102
RTVSPropertyOp10
 70
     1
102
RTVSPropertyOp11
 70
     1
102
RTVSPropertyOp12
 70
     1
102
RTVSPropertyOp13
 70
     1
102
RTVSPropertyOp14
 70
     1
102
RTVSPropertyOp15
 70
     1
102
RTVSPropertyOp16
 70
     1
102
RTVSPropertyOp17
 70
     1
102
RTVSPropertyOp18
 70
     1
102
RTVSPropertyOp19
 70
     1
102
RTVSPropertyOp20
 70
     1
102
RTVSPropertyOp21
 70
     1
102
RTVSPropertyOp22
 70
     1
102
RTVSPropertyOp23
 70
     1
102
RTVSPropertyOp24
 70
     1
102
RTVSPropertyOp25
 70
     1
102
RTVSPropertyOp26
 70
     1
102
RTVSPropertyOp27
 70
     1
102
RTVSPropertyOp28
 70
     1
102
RTVSPropertyOp29
 70
     1
102
RTVSPropertyOp30
 70
     1
102
RTVSPropertyOp31
 70
     1
102
RTVSPropertyOp32
 70
     1
  0
XRECORD
  5
256
102
{ACAD_REACTORS
330
255
102
}
330
255
100
AcDbXrecord
280
     1
102
RTVSPropertyOp0
 70
     1
102
RTVSPropertyOp1
 70
     1
102
RTVSPropertyOp2
 70
     1
102
RTVSPropertyOp3
 70
     1
102
RTVSPropertyOp4
 70
     1
102
RTVSPropertyOp5
 70
     1
102
RTVSPropertyOp6
 70
     1
102
RTVSPropertyOp7
 70
     1
102
RTVSPropertyOp8
 70
     1
102
RTVSPropertyOp9
 70
     1
102
RTVSPropertyOp10
 70
     1
102
RTVSPropertyOp11
 70
     1
102
RTVSPropertyOp12
 70
     1
102
RTVSPropertyOp13
 70
     1
102
RTVSPropertyOp14
 70
     1
102
RTVSPropertyOp15
 70
     1
102
RTVSPropertyOp16
 70
     1
102
RTVSPropertyOp17
 70
     1
102
RTVSPropertyOp18
 70
     1
102
RTVSPropertyOp19
 70
     1
102
RTVSPropertyOp20
 70
     1
102
RTVSPropertyOp21
 70
     1
102
RTVSPropertyOp22
 70
     1
102
RTVSPropertyOp23
 70
     1
102
RTVSPropertyOp24
 70
     1
102
RTVSPropertyOp25
 70
     1
102
RTVSPropertyOp26
 70
     1
102
RTVSPropertyOp27
 70
     1
102
RTVSPropertyOp28
 70
     1
102
RTVSPropertyOp29
 70
     1
102
RTVSPropertyOp30
 70
     1
102
RTVSPropertyOp31
 70
     1
102
RTVSPropertyOp32
 70
     1
  0
XRECORD
  5
258
102
{ACAD_REACTORS
330
257
102
}
330
257
100
AcDbXrecord
280
     1
102
RTVSPropertyOp0
 70
     1
102
RTVSPropertyOp1
 70
     1
102
RTVSPropertyOp2
 70
     1
102
RTVSPropertyOp3
 70
     1
102
RTVSPropertyOp4
 70
     1
102
RTVSPropertyOp5
 70
     1
102
RTVSPropertyOp6
 70
     1
102
RTVSPropertyOp7
 70
     1
102
RTVSPropertyOp8
 70
     1
102
RTVSPropertyOp9
 70
     1
102
RTVSPropertyOp10
 70
     1
102
RTVSPropertyOp11
 70
     1
102
RTVSPropertyOp12
 70
     1
102
RTVSPropertyOp13
 70
     1
102
RTVSPropertyOp14
 70
     1
102
RTVSPropertyOp15
 70
     1
102
RTVSPropertyOp16
 70
     1
102
RTVSPropertyOp17
 70
     1
102
RTVSPropertyOp18
 70
     1
102
RTVSPropertyOp19
 70
     1
102
RTVSPropertyOp20
 70
     1
102
RTVSPropertyOp21
 70
     1
102
RTVSPropertyOp22
 70
     1
102
RTVSPropertyOp23
 70
     1
102
RTVSPropertyOp24
 70
     1
102
RTVSPropertyOp25
 70
     1
102
RTVSPropertyOp26
 70
     1
102
RTVSPropertyOp27
 70
     1
102
RTVSPropertyOp28
 70
     1
102
RTVSPropertyOp29
 70
     1
102
RTVSPropertyOp30
 70
     1
102
RTVSPropertyOp31
 70
     1
102
RTVSPropertyOp32
 70
     1
  0
XRECORD
  5
26C
102
{ACAD_REACTORS
330
26B
102
}
330
26B
100
AcDbXrecord
280
     1
102
RTVSPropertyOp0
 70
     1
102
RTVSPropertyOp1
 70
     1
102
RTVSPropertyOp2
 70
     1
102
RTVSPropertyOp3
 70
     1
102
RTVSPropertyOp4
 70
     1
102
RTVSPropertyOp5
 70
     1
102
RTVSPropertyOp6
 70
     1
102
RTVSPropertyOp7
 70
     1
102
RTVSPropertyOp8
 70
     1
102
RTVSPropertyOp9
 70
     1
102
RTVSPropertyOp10
 70
     1
102
RTVSPropertyOp11
 70
     1
102
RTVSPropertyOp12
 70
     1
102
RTVSPropertyOp13
 70
     1
102
RTVSPropertyOp14
 70
     1
102
RTVSPropertyOp15
 70
     1
102
RTVSPropertyOp16
 70
     1
102
RTVSPropertyOp17
 70
     1
102
RTVSPropertyOp18
 70
     1
102
RTVSPropertyOp19
 70
     1
102
RTVSPropertyOp20
 70
     1
102
RTVSPropertyOp21
 70
     1
102
RTVSPropertyOp22
 70
     1
102
RTVSPropertyOp23
 70
     1
102
RTVSPropertyOp24
 70
     1
102
RTVSPropertyOp25
 70
     1
102
RTVSPropertyOp26
 70
     1
102
RTVSPropertyOp27
 70
     1
102
RTVSPropertyOp28
 70
     1
102
RTVSPropertyOp29
 70
     1
102
RTVSPropertyOp30
 70
     1
102
RTVSPropertyOp31
 70
     1
102
RTVSPropertyOp32
 70
     1
  0
XRECORD
  5
262
102
{ACAD_REACTORS
330
261
102
}
330
261
100
AcDbXrecord
280
     1
102
RTVSPropertyOp0
 70
     1
102
RTVSPropertyOp1
 70
     1
102
RTVSPropertyOp2
 70
     1
102
RTVSPropertyOp3
 70
     1
102
RTVSPropertyOp4
 70
     1
102
RTVSPropertyOp5
 70
     1
102
RTVSPropertyOp6
 70
     1
102
RTVSPropertyOp7
 70
     1
102
RTVSPropertyOp8
 70
     1
102
RTVSPropertyOp9
 70
     1
102
RTVSPropertyOp10
 70
     1
102
RTVSPropertyOp11
 70
     1
102
RTVSPropertyOp12
 70
     1
102
RTVSPropertyOp13
 70
     1
102
RTVSPropertyOp14
 70
     1
102
RTVSPropertyOp15
 70
     1
102
RTVSPropertyOp16
 70
     1
102
RTVSPropertyOp17
 70
     1
102
RTVSPropertyOp18
 70
     1
102
RTVSPropertyOp19
 70
     1
102
RTVSPropertyOp20
 70
     1
102
RTVSPropertyOp21
 70
     1
102
RTVSPropertyOp22
 70
     1
102
RTVSPropertyOp23
 70
     1
102
RTVSPropertyOp24
 70
     1
102
RTVSPropertyOp25
 70
     1
102
RTVSPropertyOp26
 70
     1
102
RTVSPropertyOp27
 70
     1
102
RTVSPropertyOp28
 70
     1
102
RTVSPropertyOp29
 70
     1
102
RTVSPropertyOp30
 70
     1
102
RTVSPropertyOp31
 70
     1
102
RTVSPropertyOp32
 70
     1
  0
XRECORD
  5
26A
102
{ACAD_REACTORS
330
269
102
}
330
269
100
AcDbXrecord
280
     1
102
RTVSPropertyOp0
 70
     1
102
RTVSPropertyOp1
 70
     1
102
RTVSPropertyOp2
 70
     1
102
RTVSPropertyOp3
 70
     1
102
RTVSPropertyOp4
 70
     1
102
RTVSPropertyOp5
 70
     1
102
RTVSPropertyOp6
 70
     1
102
RTVSPropertyOp7
 70
     1
102
RTVSPropertyOp8
 70
     1
102
RTVSPropertyOp9
 70
     1
102
RTVSPropertyOp10
 70
     1
102
RTVSPropertyOp11
 70
     1
102
RTVSPropertyOp12
 70
     1
102
RTVSPropertyOp13
 70
     1
102
RTVSPropertyOp14
 70
     1
102
RTVSPropertyOp15
 70
     1
102
RTVSPropertyOp16
 70
     1
102
RTVSPropertyOp17
 70
     1
102
RTVSPropertyOp18
 70
     1
102
RTVSPropertyOp19
 70
     1
102
RTVSPropertyOp20
 70
     1
102
RTVSPropertyOp21
 70
     1
102
RTVSPropertyOp22
 70
     1
102
RTVSPropertyOp23
 70
     1
102
RTVSPropertyOp24
 70
     1
102
RTVSPropertyOp25
 70
     1
102
RTVSPropertyOp26
 70
     1
102
RTVSPropertyOp27
 70
     1
102
RTVSPropertyOp28
 70
     1
102
RTVSPropertyOp29
 70
     1
102
RTVSPropertyOp30
 70
     1
102
RTVSPropertyOp31
 70
     1
102
RTVSPropertyOp32
 70
     1
  0
ENDSEC
  0
EOF
