  0
SECTION
  2
HEADER
  9
$ACADVER
  1
AC1018
  9
$ACADMAINTVER
 70
     0
  9
$DWGCODEPAGE
  3
ANSI_1252
  9
$INSBASE
 10
0.0
 20
0.0
 30
0.0
  9
$EXTMIN
 10
-120.3511762908838
 20
712.8286844732944
 30
0.0
  9
$EXTMAX
 10
299.6488237091147
 20
1009.828684473294
 30
0.0
  9
$LIMMIN
 10
0.0
 20
0.0
  9
$LIMMAX
 10
12.0
 20
9.0
  9
$ORTHOMODE
 70
     0
  9
$REGENMODE
 70
     1
  9
$FILLMODE
 70
     1
  9
$QTEXTMODE
 70
     0
  9
$MIRRTEXT
 70
     1
  9
$LTSCALE
 40
1.0
  9
$ATTMODE
 70
     1
  9
$TEXTSIZE
 40
0.2
  9
$TRACEWID
 40
0.05
  9
$TEXTSTYLE
  7
Standard
  9
$CLAYER
  8
0
  9
$CELTYPE
  6
ByLayer
  9
$CECOLOR
 62
   256
  9
$CELTSCALE
 40
1.0
  9
$DISPSILH
 70
     0
  9
$DIMSCALE
 40
1.0
  9
$DIMASZ
 40
0.18
  9
$DIMEXO
 40
0.0625
  9
$DIMDLI
 40
0.38
  9
$DIMRND
 40
0.0
  9
$DIMDLE
 40
0.0
  9
$DIMEXE
 40
0.18
  9
$DIMTP
 40
0.0
  9
$DIMTM
 40
0.0
  9
$DIMTXT
 40
0.18
  9
$DIMCEN
 40
0.09
  9
$DIMTSZ
 40
0.0
  9
$DIMTOL
 70
     0
  9
$DIMLIM
 70
     0
  9
$DIMTIH
 70
     1
  9
$DIMTOH
 70
     1
  9
$DIMSE1
 70
     0
  9
$DIMSE2
 70
     0
  9
$DIMTAD
 70
     0
  9
$DIMZIN
 70
     0
  9
$DIMBLK
  1

  9
$DIMASO
 70
     1
  9
$DIMSHO
 70
     1
  9
$DIMPOST
  1

  9
$DIMAPOST
  1

  9
$DIMALT
 70
     0
  9
$DIMALTD
 70
     2
  9
$DIMALTF
 40
25.4
  9
$DIMLFAC
 40
1.0
  9
$DIMTOFL
 70
     0
  9
$DIMTVP
 40
0.0
  9
$DIMTIX
 70
     0
  9
$DIMSOXD
 70
     0
  9
$DIMSAH
 70
     0
  9
$DIMBLK1
  1

  9
$DIMBLK2
  1

  9
$DIMSTYLE
  2
Standard
  9
$DIMCLRD
 70
     0
  9
$DIMCLRE
 70
     0
  9
$DIMCLRT
 70
     0
  9
$DIMTFAC
 40
1.0
  9
$DIMGAP
 40
0.09
  9
$DIMJUST
 70
     0
  9
$DIMSD1
 70
     0
  9
$DIMSD2
 70
     0
  9
$DIMTOLJ
 70
     1
  9
$DIMTZIN
 70
     0
  9
$DIMALTZ
 70
     0
  9
$DIMALTTZ
 70
     0
  9
$DIMUPT
 70
     0
  9
$DIMDEC
 70
     4
  9
$DIMTDEC
 70
     4
  9
$DIMALTU
 70
     2
  9
$DIMALTTD
 70
     2
  9
$DIMTXSTY
  7
Standard
  9
$DIMAUNIT
 70
     0
  9
$DIMADEC
 70
     0
  9
$DIMALTRND
 40
0.0
  9
$DIMAZIN
 70
     0
  9
$DIMDSEP
 70
    46
  9
$DIMATFIT
 70
     3
  9
$DIMFRAC
 70
     0
  9
$DIMLDRBLK
  1

  9
$DIMLUNIT
 70
     2
  9
$DIMLWD
 70
    -2
  9
$DIMLWE
 70
    -2
  9
$DIMTMOVE
 70
     0
  9
$LUNITS
 70
     2
  9
$LUPREC
 70
     4
  9
$SKETCHINC
 40
0.1
  9
$FILLETRAD
 40
0.5
  9
$AUNITS
 70
     0
  9
$AUPREC
 70
     0
  9
$MENU
  1
.
  9
$ELEVATION
 40
0.0
  9
$PELEVATION
 40
0.0
  9
$THICKNESS
 40
0.0
  9
$LIMCHECK
 70
     0
  9
$CHAMFERA
 40
0.0
  9
$CHAMFERB
 40
0.0
  9
$CHAMFERC
 40
0.0
  9
$CHAMFERD
 40
0.0
  9
$SKPOLY
 70
     0
  9
$TDCREATE
 40
2458585.051799537
  9
$TDUCREATE
 40
2458584.968466204
  9
$TDUPDATE
 40
2458585.051799722
  9
$TDUUPDATE
 40
2458584.968466389
  9
$TDINDWG
 40
0.0000000116
  9
$TDUSRTIMER
 40
0.0000000116
  9
$USRTIMER
 70
     1
  9
$ANGBASE
 50
0.0
  9
$ANGDIR
 70
     0
  9
$PDMODE
 70
     0
  9
$PDSIZE
 40
0.0
  9
$PLINEWID
 40
0.0
  9
$SPLFRAME
 70
     0
  9
$SPLINETYPE
 70
     6
  9
$SPLINESEGS
 70
     8
  9
$HANDSEED
  5
261
  9
$SURFTAB1
 70
     6
  9
$SURFTAB2
 70
     6
  9
$SURFTYPE
 70
     6
  9
$SURFU
 70
     6
  9
$SURFV
 70
     6
  9
$UCSBASE
  2

  9
$UCSNAME
  2

  9
$UCSORG
 10
0.0
 20
0.0
 30
0.0
  9
$UCSXDIR
 10
1.0
 20
0.0
 30
0.0
  9
$UCSYDIR
 10
0.0
 20
1.0
 30
0.0
  9
$UCSORTHOREF
  2

  9
$UCSORTHOVIEW
 70
     0
  9
$UCSORGTOP
 10
0.0
 20
0.0
 30
0.0
  9
$UCSORGBOTTOM
 10
0.0
 20
0.0
 30
0.0
  9
$UCSORGLEFT
 10
0.0
 20
0.0
 30
0.0
  9
$UCSORGRIGHT
 10
0.0
 20
0.0
 30
0.0
  9
$UCSORGFRONT
 10
0.0
 20
0.0
 30
0.0
  9
$UCSORGBACK
 10
0.0
 20
0.0
 30
0.0
  9
$PUCSBASE
  2

  9
$PUCSNAME
  2

  9
$PUCSORG
 10
0.0
 20
0.0
 30
0.0
  9
$PUCSXDIR
 10
1.0
 20
0.0
 30
0.0
  9
$PUCSYDIR
 10
0.0
 20
1.0
 30
0.0
  9
$PUCSORTHOREF
  2

  9
$PUCSORTHOVIEW
 70
     0
  9
$PUCSORGTOP
 10
0.0
 20
0.0
 30
0.0
  9
$PUCSORGBOTTOM
 10
0.0
 20
0.0
 30
0.0
  9
$PUCSORGLEFT
 10
0.0
 20
0.0
 30
0.0
  9
$PUCSORGRIGHT
 10
0.0
 20
0.0
 30
0.0
  9
$PUCSORGFRONT
 10
0.0
 20
0.0
 30
0.0
  9
$PUCSORGBACK
 10
0.0
 20
0.0
 30
0.0
  9
$USERI1
 70
     0
  9
$USERI2
 70
     0
  9
$USERI3
 70
     0
  9
$USERI4
 70
     0
  9
$USERI5
 70
     0
  9
$USERR1
 40
20.1
  9
$USERR2
 40
0.0
  9
$USERR3
 40
0.0
  9
$USERR4
 40
0.0
  9
$USERR5
 40
0.0
  9
$WORLDVIEW
 70
     1
  9
$SHADEDGE
 70
     3
  9
$SHADEDIF
 70
    70
  9
$TILEMODE
 70
     1
  9
$MAXACTVP
 70
    64
  9
$PINSBASE
 10
0.0
 20
0.0
 30
0.0
  9
$PLIMCHECK
 70
     0
  9
$PEXTMIN
 10
1.00000000000000E+20
 20
1.00000000000000E+20
 30
1.00000000000000E+20
  9
$PEXTMAX
 10
-1.00000000000000E+20
 20
-1.00000000000000E+20
 30
-1.00000000000000E+20
  9
$PLIMMIN
 10
0.0
 20
0.0
  9
$PLIMMAX
 10
12.0
 20
9.0
  9
$UNITMODE
 70
     0
  9
$VISRETAIN
 70
     1
  9
$PLINEGEN
 70
     0
  9
$PSLTSCALE
 70
     1
  9
$TREEDEPTH
 70
  3020
  9
$CMLSTYLE
  2
Standard
  9
$CMLJUST
 70
     0
  9
$CMLSCALE
 40
1.0
  9
$PROXYGRAPHICS
 70
     1
  9
$MEASUREMENT
 70
     1
  9
$CELWEIGHT
370
    -1
  9
$ENDCAPS
280
     0
  9
$JOINSTYLE
280
     0
  9
$LWDISPLAY
290
     0
  9
$INSUNITS
 70
     4
  9
$HYPERLINKBASE
  1

  9
$STYLESHEET
  1

  9
$XEDIT
290
     1
  9
$CEPSNTYPE
380
     0
  9
$PSTYLEMODE
290
     1
  9
$FINGERPRINTGUID
  2
{80ba9867-1d79-4e47-b4af-85008854fe83}
  9
$VERSIONGUID
  2
{FAEB1C32-E019-11D5-929B-00C0DF256EC4}
  9
$EXTNAMES
290
     1
  9
$PSVPSCALE
 40
0.0
  9
$OLESTARTUP
290
     0
  9
$SORTENTS
280
   127
  9
$INDEXCTL
280
     0
  9
$HIDETEXT
280
     1
  9
$XCLIPFRAME
290
     0
  9
$HALOGAP
280
     0
  9
$OBSCOLOR
 70
   257
  9
$OBSLTYPE
280
     0
  9
$INTERSECTIONDISPLAY
280
     0
  9
$INTERSECTIONCOLOR
 70
   257
  9
$DIMASSOC
280
     2
  9
$PROJECTNAME
  1

  0
ENDSEC
  0
SECTION
  2
CLASSES
  0
CLASS
  1
ACDBDICTIONARYWDFLT
  2
AcDbDictionaryWithDefault
  3
ObjectDBX Classes
 90
        0
 91
        3
280
     0
281
     0
  0
CLASS
  1
VISUALSTYLE
  2
AcDbVisualStyle
  3
ObjectDBX Classes
 90
     4095
 91
        3
280
     0
281
     0
  0
CLASS
  1
MATERIAL
  2
AcDbMaterial
  3
ObjectDBX Classes
 90
     1153
 91
        3
280
     0
281
     0
  0
CLASS
  1
SCALE
  2
AcDbScale
  3
ObjectDBX Classes
 90
     1153
 91
        3
280
     0
281
     0
  0
CLASS
  1
TABLESTYLE
  2
AcDbTableStyle
  3
ObjectDBX Classes
 90
     4095
 91
        3
280
     0
281
     0
  0
CLASS
  1
MLEADERSTYLE
  2
AcDbMLeaderStyle
  3
ACDB_MLEADERSTYLE_CLASS
 90
     4095
 91
        3
280
     0
281
     0
  0
CLASS
  1
SUN
  2
AcDbSun
  3
SCENEOE
 90
     1153
 91
        3
280
     0
281
     0
  0
CLASS
  1
DICTIONARYVAR
  2
AcDbDictionaryVar
  3
ObjectDBX Classes
 90
        0
 91
        3
280
     0
281
     0
  0
CLASS
  1
CELLSTYLEMAP
  2
AcDbCellStyleMap
  3
ObjectDBX Classes
 90
     1152
 91
        3
280
     0
281
     0
  0
ENDSEC
  0
SECTION
  2
TABLES
  0
TABLE
  2
VPORT
  5
8
102
{ACAD_XDICTIONARY
360
21A
102
}
330
0
100
AcDbSymbolTable
 70
     1
  0
VPORT
  5
29
330
8
100
AcDbSymbolTableRecord
100
AcDbViewportTableRecord
  2
*Active
 70
     0
 10
0.0
 20
0.0
 11
1.0
 21
1.0
 12
89.64882370911545
 22
861.3286844732942
 13
0.0
 23
0.0
 14
0.5
 24
0.5
 15
0.5
 25
0.5
 16
0.0
 26
0.0
 36
1.0
 17
0.0
 27
0.0
 37
0.0
 40
326.6999999999995
 41
1.60267857142857
 42
50.0
 43
0.0
 44
0.0
 50
0.0
 51
0.0
 71
     0
 72
   100
 73
     1
 74
     3
 75
     0
 76
     0
 77
     0
 78
     0
281
     0
 65
     1
110
0.0
120
0.0
130
0.0
111
1.0
121
0.0
131
0.0
112
0.0
122
1.0
132
0.0
 79
     0
146
0.0
  0
ENDTAB
  0
TABLE
  2
LTYPE
  5
5
330
0
100
AcDbSymbolTable
 70
     8
  0
LTYPE
  5
14
330
5
100
AcDbSymbolTableRecord
100
AcDbLinetypeTableRecord
  2
ByBlock
 70
     0
  3

 72
    65
 73
     0
 40
0.0
  0
LTYPE
  5
15
330
5
100
AcDbSymbolTableRecord
100
AcDbLinetypeTableRecord
  2
ByLayer
 70
     0
  3

 72
    65
 73
     0
 40
0.0
  0
LTYPE
  5
16
330
5
100
AcDbSymbolTableRecord
100
AcDbLinetypeTableRecord
  2
Continuous
 70
     0
  3
Solid line
 72
    65
 73
     0
 40
0.0
  0
LTYPE
  5
6E
330
5
100
AcDbSymbolTableRecord
100
AcDbLinetypeTableRecord
  2
DASHED
 70
     0
  3
Dashed
 72
    65
 73
     2
 40
15.0
 49
7.0
 74
     0
 49
-8.0
 74
     0
  0
LTYPE
  5
6F
330
5
100
AcDbSymbolTableRecord
100
AcDbLinetypeTableRecord
  2
DOTTED
 70
     0
  3
Dotted
 72
    65
 73
     2
 40
1.0
 49
0.0
 74
     0
 49
-1.0
 74
     0
  0
LTYPE
  5
70
330
5
100
AcDbSymbolTableRecord
100
AcDbLinetypeTableRecord
  2
DOT_CENTER
 70
     0
  3
Dot_Center
 72
    65
 73
     4
 40
14.0
 49
12.0
 74
     0
 49
-1.0
 74
     0
 49
0.0
 74
     0
 49
-1.0
 74
     0
  0
LTYPE
  5
71
330
5
100
AcDbSymbolTableRecord
100
AcDbLinetypeTableRecord
  2
LONG_DASHED
 70
     0
  3
Long_Dashed
 72
    65
 73
     2
 40
15.0
 49
10.0
 74
     0
 49
-5.0
 74
     0
  0
LTYPE
  5
72
330
5
100
AcDbSymbolTableRecord
100
AcDbLinetypeTableRecord
  2
DASH_CENTER
 70
     0
  3
Dash_Center
 72
    65
 73
     4
 40
14.0
 49
11.0
 74
     0
 49
-1.0
 74
     0
 49
1.0
 74
     0
 49
-1.0
 74
     0
  0
LTYPE
  5
73
330
5
100
AcDbSymbolTableRecord
100
AcDbLinetypeTableRecord
  2
PHANTOM
 70
     0
  3
Phantom
 72
    65
 73
     6
 40
13.0
 49
10.0
 74
     0
 49
-1.0
 74
     0
 49
0.0
 74
     0
 49
-1.0
 74
     0
 49
0.0
 74
     0
 49
-1.0
 74
     0
  0
LTYPE
  5
74
330
5
100
AcDbSymbolTableRecord
100
AcDbLinetypeTableRecord
  2
CENTER_DASH_DASH
 70
     0
  3
Center_Dash_Dash
 72
    65
 73
     6
 40
14.0
 49
9.0
 74
     0
 49
-1.0
 74
     0
 49
1.0
 74
     0
 49
-1.0
 74
     0
 49
1.0
 74
     0
 49
-1.0
 74
     0
  0
ENDTAB
  0
TABLE
  2
LAYER
  5
2
330
0
100
AcDbSymbolTable
 70
     2
  0
LAYER
  5
10
330
2
100
AcDbSymbolTableRecord
100
AcDbLayerTableRecord
  2
0
 70
     0
 62
     7
  6
Continuous
370
    -3
390
F
  0
LAYER
  5
75
330
2
100
AcDbSymbolTableRecord
100
AcDbLayerTableRecord
  2
1
 70
     0
 62
     7
  6
Continuous
370
    -3
390
F
  0
ENDTAB
  0
TABLE
  2
STYLE
  5
3
330
0
100
AcDbSymbolTable
 70
     5
  0
STYLE
  5
11
330
3
100
AcDbSymbolTableRecord
100
AcDbTextStyleTableRecord
  2
Standard
 70
     0
 40
0.0
 41
1.0
 50
0.0
 71
     0
 42
0.2
  3
txt
  4

  0
STYLE
  5
AB
330
3
100
AcDbSymbolTableRecord
100
AcDbTextStyleTableRecord
  2
CONVERTER_11
 70
     0
 40
0.0
 41
0.9
 50
0.0
 71
     0
 42
0.2
  3
txt.shx
  4

  0
STYLE
  5
1E8
330
3
100
AcDbSymbolTableRecord
100
AcDbTextStyleTableRecord
  2
CONVERTER_12
 70
     0
 40
0.0
 41
0.81
 50
0.0
 71
     0
 42
0.2
  3
txt.shx
  4

  0
STYLE
  5
1EE
330
3
100
AcDbSymbolTableRecord
100
AcDbTextStyleTableRecord
  2
CONVERTER_13
 70
     0
 40
0.0
 41
0.855
 50
0.0
 71
     0
 42
0.2
  3
txt.shx
  4

  0
STYLE
  5
1F1
330
3
100
AcDbSymbolTableRecord
100
AcDbTextStyleTableRecord
  2
CONVERTER_14
 70
     0
 40
0.0
 41
0.72
 50
0.0
 71
     0
 42
0.2
  3
txt.shx
  4

  0
ENDTAB
  0
TABLE
  2
VIEW
  5
6
330
0
100
AcDbSymbolTable
 70
     0
  0
ENDTAB
  0
TABLE
  2
UCS
  5
7
330
0
100
AcDbSymbolTable
 70
     0
  0
ENDTAB
  0
TABLE
  2
APPID
  5
9
330
0
100
AcDbSymbolTable
 70
     2
  0
APPID
  5
12
330
9
100
AcDbSymbolTableRecord
100
AcDbRegAppTableRecord
  2
ACAD
 70
     0
  0
APPID
  5
259
330
9
100
AcDbSymbolTableRecord
100
AcDbRegAppTableRecord
  2
ACAD_MLEADERVER
 70
     0
  0
ENDTAB
  0
TABLE
  2
DIMSTYLE
  5
A
330
0
100
AcDbSymbolTable
 70
     3
100
AcDbDimStyleTable
  0
DIMSTYLE
105
27
330
A
100
AcDbSymbolTableRecord
100
AcDbDimStyleTableRecord
  2
Standard
 70
     0
178
     0
340
11
  0
DIMSTYLE
105
B6
102
{ACAD_REACTORS
330
B7
102
}
330
A
100
AcDbSymbolTableRecord
100
AcDbDimStyleTableRecord
  2
ME10_DIM_10
 70
     0
 41
1.75
 42
0.0
 44
0.75
 73
     0
 74
     0
 77
     1
 78
     8
140
1.75
147
0.75
172
     1
173
     1
174
     1
175
     1
176
     2
177
     2
178
     3
340
AB
  0
DIMSTYLE
105
C1
102
{ACAD_REACTORS
330
C2
102
}
330
A
100
AcDbSymbolTableRecord
100
AcDbDimStyleTableRecord
  2
ME10_DIM_11
 70
     0
 41
1.75
 42
0.0
 44
0.75
 73
     0
 74
     0
 77
     1
 78
     8
140
1.75
147
0.75
172
     1
173
     1
174
     1
175
     1
176
     2
177
     2
178
     3
340
AB
  0
ENDTAB
  0
TABLE
  2
BLOCK_RECORD
  5
1
330
0
100
AcDbSymbolTable
 70
    12
  0
BLOCK_RECORD
  5
1F
330
1
100
AcDbSymbolTableRecord
100
AcDbBlockTableRecord
  2
*Model_Space
340
22
  0
BLOCK_RECORD
  5
1B
330
1
100
AcDbSymbolTableRecord
100
AcDbBlockTableRecord
  2
*Paper_Space
340
1E
  0
BLOCK_RECORD
  5
23
330
1
100
AcDbSymbolTableRecord
100
AcDbBlockTableRecord
  2
*Paper_Space0
340
26
  0
BLOCK_RECORD
  5
76
330
1
100
AcDbSymbolTableRecord
100
AcDbBlockTableRecord
  2
VS-RJ45-IP67-AR___-IP67-Montageausschnitt_1
340
0
102
{BLKREFS
331
7A
102
}
  0
BLOCK_RECORD
  5
79
330
1
100
AcDbSymbolTableRecord
100
AcDbBlockTableRecord
  2
VS-RJ45-IP67-AR___-IP67-Montageausschnitt__1
340
0
102
{BLKREFS
331
7E
102
}
  0
BLOCK_RECORD
  5
7D
330
1
100
AcDbSymbolTableRecord
100
AcDbBlockTableRecord
  2
Vordans3
340
0
102
{BLKREFS
331
8D
102
}
  0
BLOCK_RECORD
  5
81
330
1
100
AcDbSymbolTableRecord
100
AcDbBlockTableRecord
  2
_rahmen
340
0
102
{BLKREFS
331
88
102
}
  0
BLOCK_RECORD
  5
84
330
1
100
AcDbSymbolTableRecord
100
AcDbBlockTableRecord
  2
_punkt
340
0
102
{BLKREFS
331
89
102
}
  0
BLOCK_RECORD
  5
87
330
1
100
AcDbSymbolTableRecord
100
AcDbBlockTableRecord
  2
A3I_TD_PRF
340
0
102
{BLKREFS
331
8E
102
}
  0
BLOCK_RECORD
  5
8C
330
1
100
AcDbSymbolTableRecord
100
AcDbBlockTableRecord
  2
1
340
0
102
{BLKREFS
331
91
102
}
  0
BLOCK_RECORD
  5
AD
330
1
100
AcDbSymbolTableRecord
100
AcDbBlockTableRecord
  2
*D8
340
0
  0
BLOCK_RECORD
  5
B8
330
1
100
AcDbSymbolTableRecord
100
AcDbBlockTableRecord
  2
*D9
340
0
  0
BLOCK_RECORD
  5
C3
330
1
100
AcDbSymbolTableRecord
100
AcDbBlockTableRecord
  2
*D10
340
0
102
{BLKREFS
331
CA
102
}
  0
BLOCK_RECORD
  5
CB
330
1
100
AcDbSymbolTableRecord
100
AcDbBlockTableRecord
  2
*D11
340
0
102
{BLKREFS
331
D2
102
}
  0
ENDTAB
  0
ENDSEC
  0
SECTION
  2
BLOCKS
  0
BLOCK
  5
20
330
1F
100
AcDbEntity
  8
0
100
AcDbBlockBegin
  2
*Model_Space
 70
     0
 10
0.0
 20
0.0
 30
0.0
  3
*Model_Space
  1

  0
ENDBLK
  5
21
330
1F
100
AcDbEntity
  8
0
100
AcDbBlockEnd
  0
BLOCK
  5
1C
330
1B
100
AcDbEntity
 67
     1
  8
0
100
AcDbBlockBegin
  2
*Paper_Space
 70
     0
 10
0.0
 20
0.0
 30
0.0
  3
*Paper_Space
  1

  0
ENDBLK
  5
1D
330
1B
100
AcDbEntity
 67
     1
  8
0
100
AcDbBlockEnd
  0
BLOCK
  5
24
330
23
100
AcDbEntity
  8
0
100
AcDbBlockBegin
  2
*Paper_Space0
 70
     0
 10
0.0
 20
0.0
 30
0.0
  3
*Paper_Space0
  1

  0
ENDBLK
  5
25
330
23
100
AcDbEntity
  8
0
100
AcDbBlockEnd
  0
BLOCK
  5
77
330
76
100
AcDbEntity
  8
0
100
AcDbBlockBegin
  2
VS-RJ45-IP67-AR___-IP67-Montageausschnitt_1
 70
     0
 10
18.87473300335591
 20
405.7045597298099
 30
0.0
  3
VS-RJ45-IP67-AR___-IP67-Montageausschnitt_1
  1

  0
LINE
  5
92
330
76
100
AcDbEntity
  8
1
  6
DOT_CENTER
 62
     2
100
AcDbLine
 10
61.38042869567877
 20
434.3100893027975
 30
0.0
 11
27.83042869567878
 21
434.3100893027975
 31
0.0
  0
LINE
  5
93
330
76
100
AcDbEntity
  8
1
  6
DOT_CENTER
 62
     2
100
AcDbLine
 10
44.60542869567878
 20
451.0850893027975
 30
0.0
 11
44.60542869567878
 21
417.5350893027975
 31
0.0
  0
LINE
  5
94
330
76
100
AcDbEntity
  8
1
  6
DOT_CENTER
 62
     2
100
AcDbLine
 10
32.36542869567877
 20
448.3100893027975
 30
0.0
 11
28.84542869567878
 21
448.3100893027975
 31
0.0
  0
LINE
  5
95
330
76
100
AcDbEntity
  8
1
  6
DOT_CENTER
 62
     2
100
AcDbLine
 10
30.60542869567878
 20
450.0700893027975
 30
0.0
 11
30.60542869567878
 21
446.5500893027975
 31
0.0
  0
LINE
  5
96
330
76
100
AcDbEntity
  8
1
  6
DOT_CENTER
 62
     2
100
AcDbLine
 10
60.36542869567876
 20
448.3100893027975
 30
0.0
 11
56.84542869567878
 21
448.3100893027975
 31
0.0
  0
LINE
  5
97
330
76
100
AcDbEntity
  8
1
  6
DOT_CENTER
 62
     2
100
AcDbLine
 10
58.60542869567877
 20
450.0700893027975
 30
0.0
 11
58.60542869567877
 21
446.5500893027975
 31
0.0
  0
LINE
  5
98
330
76
100
AcDbEntity
  8
1
  6
DOT_CENTER
 62
     2
100
AcDbLine
 10
32.36542869567877
 20
420.3100893027975
 30
0.0
 11
28.84542869567878
 21
420.3100893027975
 31
0.0
  0
LINE
  5
99
330
76
100
AcDbEntity
  8
1
  6
DOT_CENTER
 62
     2
100
AcDbLine
 10
30.60542869567878
 20
422.0700893027975
 30
0.0
 11
30.60542869567878
 21
418.5500893027975
 31
0.0
  0
LINE
  5
9A
330
76
100
AcDbEntity
  8
1
  6
DOT_CENTER
 62
     2
100
AcDbLine
 10
60.36542869567876
 20
420.3100893027975
 30
0.0
 11
56.84542869567878
 21
420.3100893027975
 31
0.0
  0
LINE
  5
9B
330
76
100
AcDbEntity
  8
1
  6
DOT_CENTER
 62
     2
100
AcDbLine
 10
58.60542869567877
 20
422.0700893027975
 30
0.0
 11
58.60542869567877
 21
418.5500893027975
 31
0.0
  0
ARC
  5
9C
330
76
100
AcDbEntity
  8
0
  6
Continuous
 62
     7
100
AcDbCircle
 10
62.09828759778529
 20
434.0278573573967
 30
0.0
 40
6.655285522565601
100
AcDbArc
 50
313.8087089454265
 51
46.19129105457242
  0
CIRCLE
  5
9D
330
76
100
AcDbEntity
  8
0
  6
Continuous
 62
     7
100
AcDbCircle
 10
30.60542869567878
 20
420.3100893027975
 30
0.0
 40
1.599999999999991
  0
CIRCLE
  5
9E
330
76
100
AcDbEntity
  8
0
  6
Continuous
 62
     7
100
AcDbCircle
 10
30.60542869567878
 20
448.3100893027975
 30
0.0
 40
1.599999999999991
  0
CIRCLE
  5
9F
330
76
100
AcDbEntity
  8
0
  6
Continuous
 62
     7
100
AcDbCircle
 10
58.60542869567877
 20
448.3100893027975
 30
0.0
 40
1.599999999999994
  0
CIRCLE
  5
A0
330
76
100
AcDbEntity
  8
0
  6
Continuous
 62
     7
100
AcDbCircle
 10
58.60542869567877
 20
420.3100893027975
 30
0.0
 40
1.599999999999994
  0
CIRCLE
  5
A1
330
76
100
AcDbEntity
  8
0
  6
Continuous
 62
     7
100
AcDbCircle
 10
44.60542869567878
 20
434.3100893027975
 30
0.0
 40
15.24999999999999
  0
SPLINE
  5
A2
330
76
100
AcDbEntity
  8
0
  6
Continuous
 62
     7
100
AcDbSpline
210
0.0
220
0.0
230
1.0
 70
  1064
 71
     3
 72
    43
 73
    39
 74
    37
 42
0.000000001
 43
0.0000000001
 44
0.00000001
 40
0.0
 40
0.0
 40
0.0
 40
0.0
 40
6.91920020071255
 40
12.88644133994655
 40
17.91735530630713
 40
22.6633098944826
 40
27.22186715882249
 40
32.52077614296714
 40
38.37561738930941
 40
44.03402118597116
 40
49.6270716972741
 40
55.1589448117134
 40
60.52192848647397
 40
65.56315060979864
 40
72.07014985561862
 40
79.27549871281427
 40
83.06565130909719
 40
86.34709027305642
 40
88.44291157123084
 40
90.5610571252305
 40
95.64776534230384
 40
102.0817761992037
 40
106.8867705204069
 40
110.8999010371411
 40
116.9124286747742
 40
124.1443990948392
 40
127.5420307537337
 40
130.8137224084956
 40
136.8418868329181
 40
143.1754492194953
 40
147.401078660293
 40
151.3517506131359
 40
154.4319491047964
 40
157.69133514126
 40
159.7995471066403
 40
161.790305420563
 40
167.6654832391932
 40
173.5528652886574
 40
173.5528652886574
 40
173.5528652886574
 40
173.5528652886574
 10
66.70542812317716
 20
438.8306775253982
 30
0.0
 10
65.31869316930946
 20
441.0255675497227
 30
0.0
 10
62.73601335004734
 20
445.1133697076552
 30
0.0
 10
67.59633428870146
 20
450.324737129493
 30
0.0
 10
66.2996705713507
 20
455.7803919949599
 30
0.0
 10
63.11739620975799
 20
460.0089173182951
 30
0.0
 10
57.74219481738478
 20
459.4488545244104
 30
0.0
 10
53.06867177185805
 20
457.311277632114
 30
0.0
 10
47.39765212063769
 20
456.4776718073247
 30
0.0
 10
41.6888297734293
 20
457.2280873184093
 30
0.0
 10
36.42167906640437
 20
459.0640396142804
 30
0.0
 10
30.79081825331649
 20
459.7371438563781
 30
0.0
 10
25.76060425273005
 20
457.6261521170704
 30
0.0
 10
21.5028617707406
 20
453.3002557020744
 30
0.0
 10
22.18001659025329
 20
446.6514266992427
 30
0.0
 10
23.16446467847643
 20
440.7765840487065
 30
0.0
 10
21.39392606760596
 20
436.3699223532279
 30
0.0
 10
21.03140262767915
 20
433.0430521045967
 30
0.0
 10
22.74316900095473
 20
431.1035126921498
 30
0.0
 10
25.0094021885375
 20
428.8509526254576
 30
0.0
 10
24.0756288670441
 20
423.6719854397839
 30
0.0
 10
21.47063152333646
 20
419.0400219139577
 30
0.0
 10
21.14069354295231
 20
413.8494779864909
 30
0.0
 10
23.08139230891029
 20
408.7366084679626
 30
0.0
 10
29.70333470280431
 20
408.2517189324435
 30
0.0
 10
35.02811200766563
 20
409.0048322781288
 30
0.0
 10
39.58402963558265
 20
407.8230606723223
 30
0.0
 10
43.58940717221408
 20
406.4648523128619
 30
0.0
 10
48.87770028926354
 20
406.1919531318295
 30
0.0
 10
54.36866986199634
 20
406.8074470877149
 30
0.0
 10
59.17212097064144
 20
407.2582495223302
 30
0.0
 10
62.84236187643268
 20
408.5115156035814
 30
0.0
 10
65.22652799637795
 20
411.0940750754078
 30
0.0
 10
66.57981154238443
 20
413.5750931209097
 30
0.0
 10
67.53998688143803
 20
415.8249255772438
 30
0.0
 10
68.18364420951453
 20
419.2008974547104
 30
0.0
 10
64.76042963525094
 20
423.2970609164159
 30
0.0
 10
66.05664700204893
 20
427.2476787779442
 30
0.0
 10
66.70542812317716
 20
429.2250371893951
 30
0.0
 11
66.70542812317716
 21
438.8306775253982
 31
0.0
 11
64.2976013295714
 21
445.317410259397
 31
0.0
 11
66.70542812317717
 21
450.7772945930783
 31
0.0
 11
65.914736281371
 21
455.7456848523148
 31
0.0
 11
62.72214254214865
 21
459.257298468809
 31
0.0
 11
58.16360678447791
 21
459.2713017353138
 31
0.0
 11
53.13365343463556
 21
457.6045666784895
 31
0.0
 11
47.34208003052428
 21
456.7461707144323
 31
0.0
 11
41.72363090624476
 21
457.417410596804
 31
0.0
 11
36.32463977158776
 21
458.8779272006565
 31
0.0
 11
30.80579047147603
 21
459.2572984688089
 31
0.0
 11
25.83562855749832
 21
457.2425815029811
 31
0.0
 11
22.50542926818037
 21
453.4579159695413
 31
0.0
 11
22.21698301017544
 21
446.9573130777615
 31
0.0
 11
22.50542926818037
 21
439.7577401092864
 31
0.0
 11
21.5024292987608
 21
436.1027096348137
 31
0.0
 11
21.52102173919439
 21
432.8213233425498
 31
0.0
 11
22.75400615327109
 21
431.1265618993805
 31
0.0
 11
24.0917072500604
 21
429.4842780127523
 31
0.0
 11
23.96326775996558
 21
424.3991916032196
 31
0.0
 11
21.71874167323909
 21
418.369382455222
 31
0.0
 11
21.52281796331683
 21
413.5683841909535
 31
0.0
 11
23.22594089165158
 21
409.9345723024611
 31
0.0
 11
29.06140807859201
 21
408.4861899960264
 31
0.0
 11
36.29319719171119
 21
408.537399174507
 31
0.0
 11
39.60403703476481
 21
407.774352370147
 31
0.0
 11
42.74615535614553
 21
406.862728136786
 31
0.0
 11
48.75312542596981
 21
406.3576767258482
 31
0.0
 11
55.06651877846453
 21
406.862728136786
 31
0.0
 11
59.25224295893993
 21
407.4420875175077
 31
0.0
 11
62.91670675639941
 21
408.9184052290398
 31
0.0
 11
65.0780101841224
 21
411.1130328183988
 31
0.0
 11
66.70542812317716
 21
413.9370562249359
 31
0.0
 11
67.48379723359724
 21
415.8963160914183
 31
0.0
 11
67.77505448975823
 21
417.8656530050328
 31
0.0
 11
65.81725971339209
 21
423.405035101215
 31
0.0
 11
66.70542812317716
 21
429.2250371893951
 31
0.0
  0
ENDBLK
  5
78
330
76
100
AcDbEntity
  8
0
100
AcDbBlockEnd
  0
BLOCK
  5
7B
330
79
100
AcDbEntity
  8
0
100
AcDbBlockBegin
  2
VS-RJ45-IP67-AR___-IP67-Montageausschnitt__1
 70
     0
 10
18.87473300335591
 20
405.7045597298099
 30
0.0
  3
VS-RJ45-IP67-AR___-IP67-Montageausschnitt__1
  1

  0
INSERT
  5
7A
330
79
100
AcDbEntity
  8
0
100
AcDbBlockReference
  2
VS-RJ45-IP67-AR___-IP67-Montageausschnitt_1
 10
18.87473300335591
 20
405.7045597298099
 30
0.0
  0
ENDBLK
  5
7C
330
79
100
AcDbEntity
  8
0
100
AcDbBlockEnd
  0
BLOCK
  5
7F
330
7D
100
AcDbEntity
  8
0
100
AcDbBlockBegin
  2
Vordans3
 70
     0
 10
45.00000000000004
 20
433.0
 30
0.0
  3
Vordans3
  1

  0
INSERT
  5
7E
330
7D
100
AcDbEntity
  8
0
100
AcDbBlockReference
  2
VS-RJ45-IP67-AR___-IP67-Montageausschnitt__1
 10
18.87473300335591
 20
405.7045597298099
 30
0.0
  0
LINE
  5
A3
330
7D
100
AcDbEntity
  8
1
  6
DASHED
 62
     2
100
AcDbLine
 10
26.60542869567873
 20
420.3100893027975
 30
0.0
 11
26.60542869567873
 21
448.3100893027976
 31
0.0
  0
LINE
  5
A4
330
7D
100
AcDbEntity
  8
1
  6
DASHED
 62
     2
100
AcDbLine
 10
58.60542869567868
 20
416.3100893027975
 30
0.0
 11
30.60542869567873
 21
416.3100893027975
 31
0.0
  0
LINE
  5
A5
330
7D
100
AcDbEntity
  8
1
  6
DASHED
 62
     2
100
AcDbLine
 10
62.60542869567868
 20
448.3100893027976
 30
0.0
 11
62.60542869567868
 21
420.3100893027975
 31
0.0
  0
LINE
  5
A6
330
7D
100
AcDbEntity
  8
1
  6
DASHED
 62
     2
100
AcDbLine
 10
30.60542869567873
 20
452.3100893027976
 30
0.0
 11
58.60542869567868
 21
452.3100893027976
 31
0.0
  0
ARC
  5
A7
330
7D
100
AcDbEntity
  8
1
  6
DASHED
 62
     2
100
AcDbCircle
 10
30.60542869567873
 20
448.3100893027976
 30
0.0
 40
4.0
100
AcDbArc
 50
90.0
 51
180.0
  0
ARC
  5
A8
330
7D
100
AcDbEntity
  8
1
  6
DASHED
 62
     2
100
AcDbCircle
 10
58.60542869567868
 20
448.3100893027976
 30
0.0
 40
4.0
100
AcDbArc
 50
0.0
 51
90.0
  0
ARC
  5
A9
330
7D
100
AcDbEntity
  8
1
  6
DASHED
 62
     2
100
AcDbCircle
 10
58.60542869567868
 20
420.3100893027975
 30
0.0
 40
4.0
100
AcDbArc
 50
270.0
 51
0.0
  0
ARC
  5
AA
330
7D
100
AcDbEntity
  8
1
  6
DASHED
 62
     2
100
AcDbCircle
 10
30.60542869567873
 20
420.3100893027975
 30
0.0
 40
4.0
100
AcDbArc
 50
180.0
 51
270.0
  0
MTEXT
  5
AC
330
7D
100
AcDbEntity
  8
1
 62
     6
100
AcDbMText
 10
44.95582389831588
 20
403.8435373306274
 30
0.0
 40
2.5
 41
0.0
 71
     2
 72
     1
  1
 
  7
CONVERTER_11
 73
     1
 44
1.32052821128451
  0
DIMENSION
  5
B7
330
7D
100
AcDbEntity
  8
1
100
AcDbDimension
  2
*D8
 10
30.60542869567878
 20
463.1856791782915
 30
0.0
 11
45.6606375688474
 21
464.8106791782915
 31
0.0
 70
    33
  1
<>
 71
     5
 42
-1.0
 53
0.00013888888889
  3
ME10_DIM_10
100
AcDbAlignedDimension
 13
58.60542869567877
 23
448.3100893027975
 33
0.0
 14
30.60542869567878
 24
448.3100893027975
 34
0.0
  0
DIMENSION
  5
C2
330
7D
100
AcDbEntity
  8
1
100
AcDbDimension
  2
*D9
 10
16.8801315623227
 20
448.3100893027975
 30
0.0
 11
15.2551315623227
 21
435.0012191541505
 31
0.0
 70
    33
  1
<>
 71
     5
 42
-1.0
 53
90.0
  3
ME10_DIM_11
100
AcDbAlignedDimension
 13
30.60542869567878
 23
420.3100893027975
 33
0.0
 14
30.60542869567878
 24
448.3100893027975
 34
0.0
  0
INSERT
  5
CA
330
7D
100
AcDbEntity
  8
1
100
AcDbBlockReference
  2
*D10
 10
0.0
 20
0.0
 30
0.0
  0
INSERT
  5
D2
330
7D
100
AcDbEntity
  8
1
100
AcDbBlockReference
  2
*D11
 10
0.0
 20
0.0
 30
0.0
  0
ENDBLK
  5
80
330
7D
100
AcDbEntity
  8
0
100
AcDbBlockEnd
  0
BLOCK
  5
82
330
81
100
AcDbEntity
  8
0
100
AcDbBlockBegin
  2
_rahmen
 70
     0
 10
294.648823709117
 20
712.8286844732944
 30
0.0
  3
_rahmen
  1

  0
POINT
  5
D3
330
81
100
AcDbEntity
  8
1
 62
     3
 60
     1
100
AcDbPoint
 10
294.648823709117
 20
717.8286844732938
 30
0.0
  0
LINE
  5
D4
330
81
100
AcDbEntity
  8
1
  6
Continuous
 62
     2
100
AcDbLine
 10
89.64882370911704
 20
712.8286844732944
 30
0.0
 11
21.31549037578395
 21
712.8286844732944
 31
0.0
  0
LINE
  5
D5
330
81
100
AcDbEntity
  8
1
  6
Continuous
 62
     2
100
AcDbLine
 10
226.3154903757836
 20
712.8286844732944
 30
0.0
 11
294.648823709117
 21
712.8286844732944
 31
0.0
  0
LINE
  5
D6
330
81
100
AcDbEntity
  8
1
  6
Continuous
 62
     2
100
AcDbLine
 10
226.3154903757836
 20
712.8286844732944
 30
0.0
 11
226.3154903757836
 21
717.8286844732944
 31
0.0
  0
LINE
  5
D7
330
81
100
AcDbEntity
  8
1
  6
Continuous
 62
     2
100
AcDbLine
 10
157.9821570424504
 20
712.8286844732944
 30
0.0
 11
157.9821570424504
 21
717.8286844732916
 31
0.0
  0
LINE
  5
D8
330
81
100
AcDbEntity
  8
1
  6
Continuous
 62
     2
100
AcDbLine
 10
89.64882370911704
 20
712.8286844732944
 30
0.0
 11
89.64882370911704
 21
717.8286844732944
 31
0.0
  0
LINE
  5
D9
330
81
100
AcDbEntity
  8
1
  6
Continuous
 62
     2
100
AcDbLine
 10
299.6488237091145
 20
775.2286844732945
 30
0.0
 11
299.6488237091145
 21
832.6286844732946
 31
0.0
  0
LINE
  5
DA
330
81
100
AcDbEntity
  8
1
  6
Continuous
 62
     2
100
AcDbLine
 10
299.6488237091145
 20
775.2286844732945
 30
0.0
 11
294.648823709117
 21
775.2286844732945
 31
0.0
  0
LINE
  5
DB
330
81
100
AcDbEntity
  8
1
  6
Continuous
 62
     2
100
AcDbLine
 10
-100.3511762908836
 20
712.8286844732944
 30
0.0
 11
-120.3511762908838
 21
712.8286844732944
 31
0.0
  0
LINE
  5
DC
330
81
100
AcDbEntity
  8
1
  6
Continuous
 62
     2
100
AcDbLine
 10
-47.01784295754959
 20
712.8286844732944
 30
0.0
 11
-47.01784295754959
 21
717.8286844732944
 31
0.0
  0
LINE
  5
DD
330
81
100
AcDbEntity
  8
1
  6
Continuous
 62
     2
100
AcDbLine
 10
-47.01784295754959
 20
712.8286844732944
 30
0.0
 11
21.31549037578395
 21
712.8286844732944
 31
0.0
  0
LINE
  5
DE
330
81
100
AcDbEntity
  8
1
  6
Continuous
 62
     6
100
AcDbLine
 10
-47.01784295754959
 20
717.8286844732944
 30
0.0
 11
21.31549037578395
 21
717.8286844732944
 31
0.0
  0
LINE
  5
DF
330
81
100
AcDbEntity
  8
1
  6
Continuous
 62
     6
100
AcDbLine
 10
-47.01784295754959
 20
717.8286844732944
 30
0.0
 11
-100.3511762908827
 21
717.8286844732944
 31
0.0
  0
LINE
  5
E0
330
81
100
AcDbEntity
  8
1
  6
Continuous
 62
     2
100
AcDbLine
 10
21.31549037578395
 20
712.8286844732944
 30
0.0
 11
21.31549037578395
 21
717.8286844732944
 31
0.0
  0
LINE
  5
E1
330
81
100
AcDbEntity
  8
1
  6
Continuous
 62
     2
100
AcDbLine
 10
-100.3511762908836
 20
712.8286844732944
 30
0.0
 11
-100.3511762908836
 21
716.8286844732944
 31
0.0
  0
LINE
  5
E2
330
81
100
AcDbEntity
  8
1
  6
Continuous
 62
     2
100
AcDbLine
 10
-100.3511762908836
 20
712.8286844732944
 30
0.0
 11
-47.01784295754959
 21
712.8286844732944
 31
0.0
  0
LINE
  5
E3
330
81
100
AcDbEntity
  8
1
  6
Continuous
 62
     2
100
AcDbLine
 10
109.6488237091142
 20
712.8286844732944
 30
0.0
 11
89.64882370911704
 21
712.8286844732944
 31
0.0
  0
LINE
  5
E4
330
81
100
AcDbEntity
  8
1
  6
Continuous
 62
     2
100
AcDbLine
 10
109.6488237091142
 20
712.8286844732944
 30
0.0
 11
109.6488237091142
 21
716.8286844732944
 31
0.0
  0
LINE
  5
E5
330
81
100
AcDbEntity
  8
1
  6
Continuous
 62
     2
100
AcDbLine
 10
109.6488237091142
 20
712.8286844732944
 30
0.0
 11
157.9821570424504
 21
712.8286844732944
 31
0.0
  0
LINE
  5
E6
330
81
100
AcDbEntity
  8
1
  6
Continuous
 62
     2
100
AcDbLine
 10
157.9821570424504
 20
712.8286844732944
 30
0.0
 11
226.3154903757836
 21
712.8286844732944
 31
0.0
  0
LINE
  5
E7
330
81
100
AcDbEntity
  8
1
  6
Continuous
 62
     2
100
AcDbLine
 10
299.6488237091145
 20
712.8286844732944
 30
0.0
 11
294.648823709117
 21
712.8286844732944
 31
0.0
  0
LINE
  5
E8
330
81
100
AcDbEntity
  8
1
  6
Continuous
 62
     2
100
AcDbLine
 10
299.6488237091145
 20
717.8286844732944
 30
0.0
 11
299.6488237091145
 21
712.8286844732944
 31
0.0
  0
LINE
  5
E9
330
81
100
AcDbEntity
  8
1
  6
Continuous
 62
     2
100
AcDbLine
 10
299.6488237091145
 20
717.8286844732944
 30
0.0
 11
299.6488237091145
 21
775.2286844732945
 31
0.0
  0
LINE
  5
EA
330
81
100
AcDbEntity
  8
1
  6
Continuous
 62
     2
100
AcDbLine
 10
299.6488237091145
 20
1009.828684473294
 30
0.0
 11
294.6488237091145
 21
1009.828684473294
 31
0.0
  0
LINE
  5
EB
330
81
100
AcDbEntity
  8
1
  6
Continuous
 62
     6
100
AcDbLine
 10
294.6488237091145
 20
1004.828684473294
 30
0.0
 11
294.6488237091151
 21
947.4286844732943
 31
0.0
  0
LINE
  5
EC
330
81
100
AcDbEntity
  8
1
  6
Continuous
 62
     2
100
AcDbLine
 10
299.6488237091145
 20
1009.828684473294
 30
0.0
 11
299.6488237091145
 21
1004.828684473294
 31
0.0
  0
LINE
  5
ED
330
81
100
AcDbEntity
  8
1
  6
Continuous
 62
     2
100
AcDbLine
 10
294.6488237091145
 20
1004.828684473294
 30
0.0
 11
294.6488237091145
 21
1009.828684473294
 31
0.0
  0
LINE
  5
EE
330
81
100
AcDbEntity
  8
1
  6
Continuous
 62
     2
100
AcDbLine
 10
294.6488237091145
 20
1004.828684473294
 30
0.0
 11
299.6488237091145
 21
1004.828684473294
 31
0.0
  0
LINE
  5
EF
330
81
100
AcDbEntity
  8
1
  6
Continuous
 62
     2
100
AcDbLine
 10
299.6488237091145
 20
1004.828684473294
 30
0.0
 11
299.6488237091145
 21
947.4286844732943
 31
0.0
  0
LINE
  5
F0
330
81
100
AcDbEntity
  8
1
  6
Continuous
 62
     2
100
AcDbLine
 10
294.6488237091151
 20
947.4286844732943
 30
0.0
 11
299.6488237091145
 21
947.4286844732943
 31
0.0
  0
LINE
  5
F1
330
81
100
AcDbEntity
  8
1
  6
Continuous
 62
     6
100
AcDbLine
 10
294.6488237091151
 20
947.4286844732943
 30
0.0
 11
294.648823709117
 21
890.0286844732944
 31
0.0
  0
LINE
  5
F2
330
81
100
AcDbEntity
  8
1
  6
Continuous
 62
     2
100
AcDbLine
 10
299.6488237091145
 20
947.4286844732943
 30
0.0
 11
299.6488237091145
 21
890.0286844732944
 31
0.0
  0
LINE
  5
F3
330
81
100
AcDbEntity
  8
1
  6
Continuous
 62
     2
100
AcDbLine
 10
294.648823709117
 20
890.0286844732944
 30
0.0
 11
299.6488237091145
 21
890.0286844732944
 31
0.0
  0
LINE
  5
F4
330
81
100
AcDbEntity
  8
1
  6
Continuous
 62
     6
100
AcDbLine
 10
294.648823709117
 20
890.0286844732944
 30
0.0
 11
294.648823709117
 21
832.6286844732946
 31
0.0
  0
LINE
  5
F5
330
81
100
AcDbEntity
  8
1
  6
Continuous
 62
     2
100
AcDbLine
 10
299.6488237091145
 20
890.0286844732944
 30
0.0
 11
299.6488237091145
 21
832.6286844732946
 31
0.0
  0
LINE
  5
F6
330
81
100
AcDbEntity
  8
1
  6
Continuous
 62
     2
100
AcDbLine
 10
294.648823709117
 20
832.6286844732946
 30
0.0
 11
299.6488237091145
 21
832.6286844732946
 31
0.0
  0
LINE
  5
F7
330
81
100
AcDbEntity
  8
1
  6
Continuous
 62
     6
100
AcDbLine
 10
294.648823709117
 20
832.6286844732946
 30
0.0
 11
294.648823709117
 21
775.2286844732945
 31
0.0
  0
LINE
  5
F8
330
81
100
AcDbEntity
  8
1
  6
Continuous
 62
     6
100
AcDbLine
 10
-100.3511762908836
 20
1004.828684473295
 30
0.0
 11
-47.01784295754959
 21
1004.828684473295
 31
0.0
  0
LINE
  5
F9
330
81
100
AcDbEntity
  8
1
  6
Continuous
 62
     2
100
AcDbLine
 10
294.6488237091145
 20
1009.828684473294
 30
0.0
 11
226.3154903757836
 21
1009.828684473294
 31
0.0
  0
LINE
  5
FA
330
81
100
AcDbEntity
  8
1
  6
Continuous
 62
     2
100
AcDbLine
 10
226.3154903757836
 20
1004.828684473294
 30
0.0
 11
226.3154903757836
 21
1009.828684473294
 31
0.0
  0
LINE
  5
FB
330
81
100
AcDbEntity
  8
1
  6
Continuous
 62
     6
100
AcDbLine
 10
226.3154903757836
 20
1004.828684473294
 30
0.0
 11
294.6488237091145
 21
1004.828684473294
 31
0.0
  0
LINE
  5
FC
330
81
100
AcDbEntity
  8
1
  6
Continuous
 62
     2
100
AcDbLine
 10
226.3154903757836
 20
1009.828684473294
 30
0.0
 11
157.9821570424504
 21
1009.828684473294
 31
0.0
  0
LINE
  5
FD
330
81
100
AcDbEntity
  8
1
  6
Continuous
 62
     2
100
AcDbLine
 10
157.9821570424504
 20
1004.828684473294
 30
0.0
 11
157.9821570424504
 21
1009.828684473294
 31
0.0
  0
LINE
  5
FE
330
81
100
AcDbEntity
  8
1
  6
Continuous
 62
     6
100
AcDbLine
 10
157.9821570424504
 20
1004.828684473294
 30
0.0
 11
226.3154903757836
 21
1004.828684473294
 31
0.0
  0
LINE
  5
FF
330
81
100
AcDbEntity
  8
1
  6
Continuous
 62
     2
100
AcDbLine
 10
157.9821570424504
 20
1009.828684473294
 30
0.0
 11
109.6488237091142
 21
1009.828684473294
 31
0.0
  0
LINE
  5
100
330
81
100
AcDbEntity
  8
1
  6
Continuous
 62
     2
100
AcDbLine
 10
89.64882370911704
 20
1004.828684473294
 30
0.0
 11
89.64882370911704
 21
1009.828684473294
 31
0.0
  0
LINE
  5
101
330
81
100
AcDbEntity
  8
1
  6
Continuous
 62
     6
100
AcDbLine
 10
89.64882370911704
 20
1004.828684473294
 30
0.0
 11
157.9821570424504
 21
1004.828684473294
 31
0.0
  0
LINE
  5
102
330
81
100
AcDbEntity
  8
1
  6
Continuous
 62
     2
100
AcDbLine
 10
89.64882370911704
 20
1009.828684473294
 30
0.0
 11
21.31549037578395
 21
1009.828684473294
 31
0.0
  0
LINE
  5
103
330
81
100
AcDbEntity
  8
1
  6
Continuous
 62
     2
100
AcDbLine
 10
21.31549037578395
 20
1004.828684473294
 30
0.0
 11
21.31549037578395
 21
1009.828684473294
 31
0.0
  0
LINE
  5
104
330
81
100
AcDbEntity
  8
1
  6
Continuous
 62
     6
100
AcDbLine
 10
21.31549037578395
 20
1004.828684473294
 30
0.0
 11
89.64882370911704
 21
1004.828684473294
 31
0.0
  0
LINE
  5
105
330
81
100
AcDbEntity
  8
1
  6
Continuous
 62
     2
100
AcDbLine
 10
21.31549037578395
 20
1009.828684473294
 30
0.0
 11
-47.01784295754959
 21
1009.828684473294
 31
0.0
  0
LINE
  5
106
330
81
100
AcDbEntity
  8
1
  6
Continuous
 62
     2
100
AcDbLine
 10
-47.01784295754959
 20
1004.828684473295
 30
0.0
 11
-47.01784295754959
 21
1009.828684473294
 31
0.0
  0
LINE
  5
107
330
81
100
AcDbEntity
  8
1
  6
Continuous
 62
     6
100
AcDbLine
 10
-47.01784295754959
 20
1004.828684473295
 30
0.0
 11
21.31549037578395
 21
1004.828684473294
 31
0.0
  0
LINE
  5
108
330
81
100
AcDbEntity
  8
1
  6
Continuous
 62
     2
100
AcDbLine
 10
-47.01784295754959
 20
1009.828684473294
 30
0.0
 11
-100.3511762908836
 21
1009.828684473294
 31
0.0
  0
LINE
  5
109
330
81
100
AcDbEntity
  8
1
  6
Continuous
 62
     2
100
AcDbLine
 10
-100.3511762908836
 20
1009.828684473294
 30
0.0
 11
-100.3511762908836
 21
1005.828684473295
 31
0.0
  0
LINE
  5
10A
330
81
100
AcDbEntity
  8
1
  6
Continuous
 62
     2
100
AcDbLine
 10
-100.3511762908836
 20
1009.828684473294
 30
0.0
 11
-120.3511762908838
 21
1009.828684473294
 31
0.0
  0
LINE
  5
10B
330
81
100
AcDbEntity
  8
1
  6
Continuous
 62
     2
100
AcDbLine
 10
109.6488237091142
 20
1009.828684473294
 30
0.0
 11
109.6488237091142
 21
1005.828684473295
 31
0.0
  0
LINE
  5
10C
330
81
100
AcDbEntity
  8
1
  6
Continuous
 62
     2
100
AcDbLine
 10
109.6488237091142
 20
1009.828684473294
 30
0.0
 11
89.64882370911704
 21
1009.828684473294
 31
0.0
  0
LINE
  5
10D
330
81
100
AcDbEntity
  8
1
  6
Continuous
 62
     2
100
AcDbLine
 10
-120.3511762908838
 20
1009.828684473294
 30
0.0
 11
-120.3511762908838
 21
861.3286844732944
 31
0.0
  0
LINE
  5
10E
330
81
100
AcDbEntity
  8
1
  6
Continuous
 62
     2
100
AcDbLine
 10
-120.3511762908838
 20
861.3286844732944
 30
0.0
 11
-110.3511762908836
 21
861.3286844732944
 31
0.0
  0
LINE
  5
10F
330
81
100
AcDbEntity
  8
1
  6
Continuous
 62
     2
100
AcDbLine
 10
-120.3511762908838
 20
861.3286844732944
 30
0.0
 11
-120.3511762908838
 21
712.8286844732944
 31
0.0
  0
LINE
  5
110
330
81
100
AcDbEntity
  8
1
  6
Continuous
 62
     6
100
AcDbLine
 10
-100.3511762908827
 20
717.8286844732944
 30
0.0
 11
-100.3511762908836
 21
1004.828684473295
 31
0.0
  0
LINE
  5
111
330
81
100
AcDbEntity
  8
1
  6
Continuous
 62
     6
100
AcDbLine
 10
21.31549037578395
 20
717.8286844732944
 30
0.0
 11
165.1040191823671
 21
717.8286844732913
 31
0.0
  0
LINE
  5
112
330
81
100
AcDbEntity
  8
1
  6
Continuous
 62
     2
100
AcDbLine
 10
157.9821570424504
 20
717.8286844732916
 30
0.0
 11
157.9821570424504
 21
717.8286844732944
 31
0.0
  0
LINE
  5
113
330
81
100
AcDbEntity
  8
1
  6
Continuous
 62
     7
100
AcDbLine
 10
201.5040191823671
 20
734.8286844732938
 30
0.0
 11
257.5304154274396
 21
734.8286844732938
 31
0.0
  0
LINE
  5
114
330
81
100
AcDbEntity
  8
1
  6
Continuous
 62
     6
100
AcDbLine
 10
165.1040191823671
 20
734.8286844732938
 30
0.0
 11
165.1040191823671
 21
743.3286844732938
 31
0.0
  0
LINE
  5
115
330
81
100
AcDbEntity
  8
1
  6
Continuous
 62
     6
100
AcDbLine
 10
201.5040191823671
 20
734.8286844732938
 30
0.0
 11
201.5040191823671
 21
743.3286844732938
 31
0.0
  0
LINE
  5
116
330
81
100
AcDbEntity
  8
1
  6
Continuous
 62
     7
100
AcDbLine
 10
227.6304154274399
 20
743.3286844732938
 30
0.0
 11
227.6304154274399
 21
734.8286844732938
 31
0.0
  0
LINE
  5
117
330
81
100
AcDbEntity
  8
1
  6
Continuous
 62
     7
100
AcDbLine
 10
248.1304154274395
 20
743.3286844732938
 30
0.0
 11
248.1304154274395
 21
734.8286844732938
 31
0.0
  0
LINE
  5
118
102
{ACAD_REACTORS
330
1FE
330
1FF
102
}
330
81
100
AcDbEntity
  8
0
  6
Continuous
 62
     2
100
AcDbLine
 10
178.8114481241345
 20
727.1289735889571
 30
0.0
 11
178.8114481241345
 21
728.0014905957604
 31
0.0
  0
LINE
  5
119
102
{ACAD_REACTORS
330
1FE
330
1FF
102
}
330
81
100
AcDbEntity
  8
0
  6
Continuous
 62
     2
100
AcDbLine
 10
178.8114481241345
 20
726.1692048814743
 30
0.0
 11
178.8114481241345
 21
725.2966878746711
 31
0.0
  0
LINE
  5
11A
102
{ACAD_REACTORS
330
200
330
201
102
}
330
81
100
AcDbEntity
  8
0
  6
Continuous
 62
     2
100
AcDbLine
 10
194.1444922604249
 20
727.3907286909975
 30
0.0
 11
195.248131559993
 21
727.3907286909975
 31
0.0
  0
LINE
  5
11B
102
{ACAD_REACTORS
330
200
330
201
102
}
330
81
100
AcDbEntity
  8
0
  6
Continuous
 62
     2
100
AcDbLine
 10
194.9141496033863
 20
726.1692048814739
 30
0.0
 11
194.9141496033863
 21
725.2966878746705
 31
0.0
  0
LINE
  5
11C
102
{ACAD_REACTORS
330
20A
330
20B
102
}
330
81
100
AcDbEntity
  8
0
  6
Continuous
 62
     2
100
AcDbLine
 10
193.0533929880065
 20
728.4813749494845
 30
0.0
 11
194.4513460349468
 21
730.0622339432593
 31
0.0
  0
LINE
  5
11D
102
{ACAD_REACTORS
330
20A
330
20B
102
}
330
81
100
AcDbEntity
  8
0
  6
Continuous
 62
     2
100
AcDbLine
 10
193.1488164041793
 20
731.5351844732957
 30
0.0
 11
194.4513460349468
 21
730.0622339432593
 31
0.0
  0
LINE
  5
11E
102
{ACAD_REACTORS
330
20A
330
20B
102
}
330
81
100
AcDbEntity
  8
0
  6
Continuous
 62
     2
100
AcDbLine
 10
195.7538756657132
 20
731.5351844732957
 30
0.0
 11
197.1565998834604
 21
731.5351844732957
 31
0.0
  0
LINE
  5
11F
102
{ACAD_REACTORS
330
20A
330
20B
102
}
330
81
100
AcDbEntity
  8
0
  6
Continuous
 62
     2
100
AcDbLine
 10
194.4561172057546
 20
728.4813749494845
 30
0.0
 11
195.1527081438204
 21
729.2691067347782
 31
0.0
  0
LINE
  5
120
102
{ACAD_REACTORS
330
20A
330
20B
102
}
330
81
100
AcDbEntity
  8
0
  6
Continuous
 62
     2
100
AcDbLine
 10
194.4561172057546
 20
728.4813749494845
 30
0.0
 11
193.0533929880065
 21
728.4813749494845
 31
0.0
  0
LINE
  5
121
102
{ACAD_REACTORS
330
20C
330
20D
102
}
330
81
100
AcDbEntity
  8
0
  6
Continuous
 62
     2
100
AcDbLine
 10
192.9341137177896
 20
728.4813749494845
 30
0.0
 11
191.6936093075367
 21
728.4813749494845
 31
0.0
  0
LINE
  5
122
102
{ACAD_REACTORS
330
20E
330
20F
102
}
330
81
100
AcDbEntity
  8
0
  6
Continuous
 62
     2
100
AcDbLine
 10
190.8256296993816
 20
726.3437082828345
 30
0.0
 11
190.5254644621914
 21
727.1115232488213
 31
0.0
  0
LINE
  5
123
102
{ACAD_REACTORS
330
20E
330
20F
102
}
330
81
100
AcDbEntity
  8
0
  6
Continuous
 62
     2
100
AcDbLine
 10
190.2252992249991
 20
726.3437082828345
 30
0.0
 11
190.8256296993816
 21
726.3437082828345
 31
0.0
  0
LINE
  5
124
102
{ACAD_REACTORS
330
20E
330
20F
102
}
330
81
100
AcDbEntity
  8
0
  6
Continuous
 62
     2
100
AcDbLine
 10
188.5072592101253
 20
725.1221844733102
 30
0.0
 11
189.7477636203782
 21
725.1221844733102
 31
0.0
  0
LINE
  5
125
102
{ACAD_REACTORS
330
20E
330
20F
102
}
330
81
100
AcDbEntity
  8
0
  6
Continuous
 62
     2
100
AcDbLine
 10
189.9052122570645
 20
728.1759939971214
 30
0.0
 11
191.1457166673173
 21
728.1759939971214
 31
0.0
  0
LINE
  5
126
102
{ACAD_REACTORS
330
20E
330
20F
102
}
330
81
100
AcDbEntity
  8
0
  6
Continuous
 62
     2
100
AcDbLine
 10
191.1457166673173
 20
728.1759939971214
 30
0.0
 11
192.5436697142576
 21
725.1221844733102
 31
0.0
  0
LINE
  5
127
102
{ACAD_REACTORS
330
20E
330
20F
102
}
330
81
100
AcDbEntity
  8
0
  6
Continuous
 62
     2
100
AcDbLine
 10
191.3031653040037
 20
725.1221844733102
 30
0.0
 11
191.091685250528
 21
725.663145017528
 31
0.0
  0
LINE
  5
128
102
{ACAD_REACTORS
330
210
330
211
102
}
330
81
100
AcDbEntity
  8
0
  6
Continuous
 62
     2
100
AcDbLine
 10
187.1608461084177
 20
725.1221844733102
 30
0.0
 11
188.3536388105841
 21
725.1221844733102
 31
0.0
  0
LINE
  5
129
102
{ACAD_REACTORS
330
210
330
211
102
}
330
81
100
AcDbEntity
  8
0
  6
Continuous
 62
     2
100
AcDbLine
 10
187.1608461084177
 20
727.3907286909975
 30
0.0
 11
187.1608461084177
 21
725.1221844733102
 31
0.0
  0
LINE
  5
12A
102
{ACAD_REACTORS
330
210
330
211
102
}
330
81
100
AcDbEntity
  8
0
  6
Continuous
 62
     2
100
AcDbLine
 10
186.349747070943
 20
728.1759939971214
 30
0.0
 11
186.349747070943
 21
727.3907286909975
 31
0.0
  0
LINE
  5
12B
102
{ACAD_REACTORS
330
212
330
213
102
}
330
81
100
AcDbEntity
  8
0
  6
Continuous
 62
     2
100
AcDbLine
 10
187.8289609525157
 20
728.4813749494845
 30
0.0
 11
189.0217536546821
 21
728.4813749494845
 31
0.0
  0
LINE
  5
12C
102
{ACAD_REACTORS
330
212
330
213
102
}
330
81
100
AcDbEntity
  8
0
  6
Continuous
 62
     2
100
AcDbLine
 10
190.2622580649362
 20
730.2264089630905
 30
0.0
 11
189.0217536546821
 21
731.5351844732957
 31
0.0
  0
LINE
  5
12D
102
{ACAD_REACTORS
330
212
330
213
102
}
330
81
100
AcDbEntity
  8
0
  6
Continuous
 62
     2
100
AcDbLine
 10
191.4550507671028
 20
731.5351844732957
 30
0.0
 11
190.2622580649362
 21
731.5351844732957
 31
0.0
  0
LINE
  5
12E
102
{ACAD_REACTORS
330
212
330
213
102
}
330
81
100
AcDbEntity
  8
0
  6
Continuous
 62
     2
100
AcDbLine
 10
191.4550507671028
 20
728.4813749494845
 30
0.0
 11
191.4550507671028
 21
731.5351844732957
 31
0.0
  0
LINE
  5
12F
102
{ACAD_REACTORS
330
212
330
213
102
}
330
81
100
AcDbEntity
  8
0
  6
Continuous
 62
     2
100
AcDbLine
 10
190.2622580649362
 20
728.4813749494845
 30
0.0
 11
191.4550507671028
 21
728.4813749494845
 31
0.0
  0
LINE
  5
130
102
{ACAD_REACTORS
330
212
330
213
102
}
330
81
100
AcDbEntity
  8
0
  6
Continuous
 62
     2
100
AcDbLine
 10
189.0217536546821
 20
729.7901504596892
 30
0.0
 11
190.2622580649362
 21
728.4813749494845
 31
0.0
  0
LINE
  5
131
102
{ACAD_REACTORS
330
214
330
215
102
}
330
81
100
AcDbEntity
  8
0
  6
Continuous
 62
     2
100
AcDbLine
 10
185.0138192445165
 20
726.867218486916
 30
0.0
 11
183.7733148342635
 21
728.1759939971214
 31
0.0
  0
LINE
  5
132
102
{ACAD_REACTORS
330
214
330
215
102
}
330
81
100
AcDbEntity
  8
0
  6
Continuous
 62
     2
100
AcDbLine
 10
185.0138192445165
 20
728.1759939971214
 30
0.0
 11
185.0138192445165
 21
726.867218486916
 31
0.0
  0
LINE
  5
133
102
{ACAD_REACTORS
330
214
330
215
102
}
330
81
100
AcDbEntity
  8
0
  6
Continuous
 62
     2
100
AcDbLine
 10
186.2066119466829
 20
728.1759939971214
 30
0.0
 11
185.0138192445165
 21
728.1759939971214
 31
0.0
  0
LINE
  5
134
102
{ACAD_REACTORS
330
214
330
215
102
}
330
81
100
AcDbEntity
  8
0
  6
Continuous
 62
     2
100
AcDbLine
 10
186.2066119466829
 20
725.1221844733102
 30
0.0
 11
186.2066119466829
 21
728.1759939971214
 31
0.0
  0
LINE
  5
135
102
{ACAD_REACTORS
330
214
330
215
102
}
330
81
100
AcDbEntity
  8
0
  6
Continuous
 62
     2
100
AcDbLine
 10
183.7733148342635
 20
726.4309599835146
 30
0.0
 11
185.0138192445165
 21
725.1221844733102
 31
0.0
  0
LINE
  5
136
102
{ACAD_REACTORS
330
214
330
215
102
}
330
81
100
AcDbEntity
  8
0
  6
Continuous
 62
     2
100
AcDbLine
 10
183.7733148342635
 20
725.1221844733102
 30
0.0
 11
183.7733148342635
 21
726.4309599835146
 31
0.0
  0
LINE
  5
137
102
{ACAD_REACTORS
330
204
330
205
102
}
330
81
100
AcDbEntity
  8
0
  6
Continuous
 62
     2
100
AcDbLine
 10
186.2544745856551
 20
730.8371708678527
 30
0.0
 11
187.5904024120827
 21
730.8371708678527
 31
0.0
  0
LINE
  5
138
102
{ACAD_REACTORS
330
204
330
205
102
}
330
81
100
AcDbEntity
  8
0
  6
Continuous
 62
     2
100
AcDbLine
 10
186.2544745856551
 20
729.1793885549268
 30
0.0
 11
186.2544745856551
 21
729.6592729086686
 31
0.0
  0
LINE
  5
139
102
{ACAD_REACTORS
330
204
330
205
102
}
330
81
100
AcDbEntity
  8
0
  6
Continuous
 62
     2
100
AcDbLine
 10
187.5904024120827
 20
729.1793885549268
 30
0.0
 11
186.2544745856551
 21
729.1793885549268
 31
0.0
  0
LINE
  5
13A
102
{ACAD_REACTORS
330
204
330
205
102
}
330
81
100
AcDbEntity
  8
0
  6
Continuous
 62
     2
100
AcDbLine
 10
187.5904024120827
 20
728.4813749494845
 30
0.0
 11
187.5904024120827
 21
729.1793885549268
 31
0.0
  0
LINE
  5
13B
102
{ACAD_REACTORS
330
204
330
205
102
}
330
81
100
AcDbEntity
  8
0
  6
Continuous
 62
     2
100
AcDbLine
 10
184.4400826883018
 20
728.4813749494845
 30
0.0
 11
187.5904024120827
 21
728.4813749494845
 31
0.0
  0
LINE
  5
13C
102
{ACAD_REACTORS
330
204
330
205
102
}
330
81
100
AcDbEntity
  8
0
  6
Continuous
 62
     2
100
AcDbLine
 10
184.4400826883018
 20
731.5351844732957
 30
0.0
 11
187.5904024120827
 21
731.5351844732957
 31
0.0
  0
LINE
  5
13D
102
{ACAD_REACTORS
330
204
330
205
102
}
330
81
100
AcDbEntity
  8
0
  6
Continuous
 62
     2
100
AcDbLine
 10
187.5904024120827
 20
730.8371708678527
 30
0.0
 11
187.5904024120827
 21
731.5351844732957
 31
0.0
  0
LINE
  5
13E
102
{ACAD_REACTORS
330
216
330
217
102
}
330
81
100
AcDbEntity
  8
0
  6
Continuous
 62
     2
100
AcDbLine
 10
181.5787271931617
 20
730.466351139961
 30
0.0
 11
181.5787271931617
 21
731.5351844732957
 31
0.0
  0
LINE
  5
13F
102
{ACAD_REACTORS
330
216
330
217
102
}
330
81
100
AcDbEntity
  8
0
  6
Continuous
 62
     2
100
AcDbLine
 10
181.5787271931617
 20
731.5351844732957
 30
0.0
 11
182.7715198953282
 21
731.5351844732957
 31
0.0
  0
LINE
  5
140
102
{ACAD_REACTORS
330
216
330
217
102
}
330
81
100
AcDbEntity
  8
0
  6
Continuous
 62
     2
100
AcDbLine
 10
181.5787271931617
 20
729.6156470583282
 30
0.0
 11
180.5290696152543
 21
729.6156470583282
 31
0.0
  0
LINE
  5
141
102
{ACAD_REACTORS
330
216
330
217
102
}
330
81
100
AcDbEntity
  8
0
  6
Continuous
 62
     2
100
AcDbLine
 10
180.5290696152543
 20
729.6156470583282
 30
0.0
 11
180.5290696152543
 21
728.4813749494845
 31
0.0
  0
LINE
  5
142
102
{ACAD_REACTORS
330
216
330
217
102
}
330
81
100
AcDbEntity
  8
0
  6
Continuous
 62
     2
100
AcDbLine
 10
179.3362769130877
 20
731.5351844732957
 30
0.0
 11
179.3362769130877
 21
728.4813749494845
 31
0.0
  0
LINE
  5
143
102
{ACAD_REACTORS
330
208
330
209
102
}
330
81
100
AcDbEntity
  8
0
  6
Continuous
 62
     2
100
AcDbLine
 10
177.380096881534
 20
730.1663509785133
 30
0.0
 11
177.380096881534
 21
730.8720786278557
 31
0.0
  0
LINE
  5
144
102
{ACAD_REACTORS
330
208
330
209
102
}
330
81
100
AcDbEntity
  8
0
  6
Continuous
 62
     2
100
AcDbLine
 10
176.13959247128
 20
728.4813749494845
 30
0.0
 11
177.380096881534
 21
728.4813749494845
 31
0.0
  0
LINE
  5
145
102
{ACAD_REACTORS
330
208
330
209
102
}
330
81
100
AcDbEntity
  8
0
  6
Continuous
 62
     2
100
AcDbLine
 10
177.380096881534
 20
728.4813749494845
 30
0.0
 11
177.380096881534
 21
729.4244531906282
 31
0.0
  0
LINE
  5
146
102
{ACAD_REACTORS
330
202
330
203
102
}
330
81
100
AcDbEntity
  8
0
  6
Continuous
 62
     2
100
AcDbLine
 10
171.8346466220685
 20
725.8347400288671
 30
0.0
 11
170.3588133610589
 21
725.8347400288671
 31
0.0
  0
LINE
  5
147
102
{ACAD_REACTORS
330
202
330
203
102
}
330
81
100
AcDbEntity
  8
0
  6
Continuous
 62
     2
100
AcDbLine
 10
169.3406740689296
 20
731.1109398578936
 30
0.0
 11
169.3406740689296
 21
725.5464290886935
 31
0.0
  0
LINE
  5
148
102
{ACAD_REACTORS
330
202
330
203
102
}
330
81
100
AcDbEntity
  8
0
  6
Continuous
 62
     2
100
AcDbLine
 10
169.7649186843124
 20
731.5351844732775
 30
0.0
 11
175.2382307750293
 21
731.5351844732775
 31
0.0
  0
LINE
  5
149
102
{ACAD_REACTORS
330
202
330
203
102
}
330
81
100
AcDbEntity
  8
0
  6
Continuous
 62
     2
100
AcDbLine
 10
175.6624753904132
 20
731.1109398578936
 30
0.0
 11
175.6624753904132
 21
725.5464290886935
 31
0.0
  0
LINE
  5
14A
102
{ACAD_REACTORS
330
202
330
203
102
}
330
81
100
AcDbEntity
  8
0
  6
Continuous
 62
     2
100
AcDbLine
 10
175.2382307750293
 20
725.1221844733102
 30
0.0
 11
169.7649186843124
 21
725.1221844733102
 31
0.0
  0
LINE
  5
14B
102
{ACAD_REACTORS
330
202
330
203
102
}
330
81
100
AcDbEntity
  8
0
  6
Continuous
 62
     2
100
AcDbLine
 10
172.1503635451451
 20
726.1504569519439
 30
0.0
 11
172.1503635451451
 21
727.6812278834755
 31
0.0
  0
LINE
  5
14C
102
{ACAD_REACTORS
330
202
330
203
102
}
330
81
100
AcDbEntity
  8
0
  6
Continuous
 62
     2
100
AcDbLine
 10
172.1503635451451
 20
729.9028873756004
 30
0.0
 11
172.1503635451451
 21
730.5069119946609
 31
0.0
  0
LINE
  5
14D
102
{ACAD_REACTORS
330
202
330
203
102
}
330
81
100
AcDbEntity
  8
0
  6
Continuous
 62
     2
100
AcDbLine
 10
170.3588133610589
 20
730.822628917737
 30
0.0
 11
171.8346466220685
 21
730.822628917737
 31
0.0
  0
LINE
  5
14E
102
{ACAD_REACTORS
330
202
330
203
102
}
330
81
100
AcDbEntity
  8
0
  6
Continuous
 62
     2
100
AcDbLine
 10
170.0430964379833
 20
730.5069119946609
 30
0.0
 11
170.0430964379833
 21
726.1504569519439
 31
0.0
  0
LINE
  5
14F
102
{ACAD_REACTORS
330
208
330
209
102
}
330
81
100
AcDbEntity
  8
0
  6
Continuous
 62
     2
100
AcDbLine
 10
177.380096881534
 20
729.4244531906282
 30
0.0
 11
178.1388644693144
 21
729.4244531906282
 31
0.0
  0
LINE
  5
150
102
{ACAD_REACTORS
330
208
330
209
102
}
330
81
100
AcDbEntity
  8
0
  6
Continuous
 62
     2
100
AcDbLine
 10
176.13959247128
 20
731.5351844732957
 30
0.0
 11
178.1388644693144
 21
731.5351844732957
 31
0.0
  0
LINE
  5
151
102
{ACAD_REACTORS
330
208
330
209
102
}
330
81
100
AcDbEntity
  8
0
  6
Continuous
 62
     2
100
AcDbLine
 10
176.13959247128
 20
731.5351844732957
 30
0.0
 11
176.13959247128
 21
728.4813749494845
 31
0.0
  0
LINE
  5
152
102
{ACAD_REACTORS
330
208
330
209
102
}
330
81
100
AcDbEntity
  8
0
  6
Continuous
 62
     2
100
AcDbLine
 10
177.380096881534
 20
730.1663509785133
 30
0.0
 11
177.697391943076
 21
730.1663509785133
 31
0.0
  0
LINE
  5
153
102
{ACAD_REACTORS
330
208
330
209
102
}
330
81
100
AcDbEntity
  8
0
  6
Continuous
 62
     2
100
AcDbLine
 10
177.380096881534
 20
730.8720786278557
 30
0.0
 11
177.697391943076
 21
730.8720786278557
 31
0.0
  0
LINE
  5
154
102
{ACAD_REACTORS
330
216
330
217
102
}
330
81
100
AcDbEntity
  8
0
  6
Continuous
 62
     2
100
AcDbLine
 10
180.5290696152543
 20
730.466351139961
 30
0.0
 11
181.5787271931617
 21
730.466351139961
 31
0.0
  0
LINE
  5
155
102
{ACAD_REACTORS
330
216
330
217
102
}
330
81
100
AcDbEntity
  8
0
  6
Continuous
 62
     2
100
AcDbLine
 10
180.5290696152543
 20
731.5351844732957
 30
0.0
 11
180.5290696152543
 21
730.466351139961
 31
0.0
  0
LINE
  5
156
102
{ACAD_REACTORS
330
216
330
217
102
}
330
81
100
AcDbEntity
  8
0
  6
Continuous
 62
     2
100
AcDbLine
 10
179.3362769130877
 20
731.5351844732957
 30
0.0
 11
180.5290696152543
 21
731.5351844732957
 31
0.0
  0
LINE
  5
157
102
{ACAD_REACTORS
330
216
330
217
102
}
330
81
100
AcDbEntity
  8
0
  6
Continuous
 62
     2
100
AcDbLine
 10
180.5290696152543
 20
728.4813749494845
 30
0.0
 11
179.3362769130877
 21
728.4813749494845
 31
0.0
  0
LINE
  5
158
102
{ACAD_REACTORS
330
216
330
217
102
}
330
81
100
AcDbEntity
  8
0
  6
Continuous
 62
     2
100
AcDbLine
 10
181.5787271931617
 20
728.4813749494845
 30
0.0
 11
181.5787271931617
 21
729.6156470583282
 31
0.0
  0
LINE
  5
159
102
{ACAD_REACTORS
330
216
330
217
102
}
330
81
100
AcDbEntity
  8
0
  6
Continuous
 62
     2
100
AcDbLine
 10
182.7715198953282
 20
728.4813749494845
 30
0.0
 11
181.5787271931617
 21
728.4813749494845
 31
0.0
  0
LINE
  5
15A
102
{ACAD_REACTORS
330
216
330
217
102
}
330
81
100
AcDbEntity
  8
0
  6
Continuous
 62
     2
100
AcDbLine
 10
182.7715198953282
 20
731.5351844732957
 30
0.0
 11
182.7715198953282
 21
728.4813749494845
 31
0.0
  0
LINE
  5
15B
102
{ACAD_REACTORS
330
204
330
205
102
}
330
81
100
AcDbEntity
  8
0
  6
Continuous
 62
     2
100
AcDbLine
 10
186.2544745856551
 20
729.6592729086686
 30
0.0
 11
187.5904024120827
 21
729.6592729086686
 31
0.0
  0
LINE
  5
15C
102
{ACAD_REACTORS
330
204
330
205
102
}
330
81
100
AcDbEntity
  8
0
  6
Continuous
 62
     2
100
AcDbLine
 10
187.5904024120827
 20
729.6592729086686
 30
0.0
 11
187.5904024120827
 21
730.357286514111
 31
0.0
  0
LINE
  5
15D
102
{ACAD_REACTORS
330
204
330
205
102
}
330
81
100
AcDbEntity
  8
0
  6
Continuous
 62
     2
100
AcDbLine
 10
187.5904024120827
 20
730.357286514111
 30
0.0
 11
186.2544745856551
 21
730.357286514111
 31
0.0
  0
LINE
  5
15E
102
{ACAD_REACTORS
330
204
330
205
102
}
330
81
100
AcDbEntity
  8
0
  6
Continuous
 62
     2
100
AcDbLine
 10
186.2544745856551
 20
730.357286514111
 30
0.0
 11
186.2544745856551
 21
730.8371708678527
 31
0.0
  0
LINE
  5
15F
102
{ACAD_REACTORS
330
214
330
215
102
}
330
81
100
AcDbEntity
  8
0
  6
Continuous
 62
     2
100
AcDbLine
 10
182.580522132096
 20
725.1221844733102
 30
0.0
 11
183.7733148342635
 21
725.1221844733102
 31
0.0
  0
LINE
  5
160
102
{ACAD_REACTORS
330
214
330
215
102
}
330
81
100
AcDbEntity
  8
0
  6
Continuous
 62
     2
100
AcDbLine
 10
185.0138192445165
 20
725.1221844733102
 30
0.0
 11
186.2066119466829
 21
725.1221844733102
 31
0.0
  0
LINE
  5
161
102
{ACAD_REACTORS
330
214
330
215
102
}
330
81
100
AcDbEntity
  8
0
  6
Continuous
 62
     2
100
AcDbLine
 10
183.7733148342635
 20
728.1759939971214
 30
0.0
 11
182.580522132096
 21
728.1759939971214
 31
0.0
  0
LINE
  5
162
102
{ACAD_REACTORS
330
214
330
215
102
}
330
81
100
AcDbEntity
  8
0
  6
Continuous
 62
     2
100
AcDbLine
 10
182.580522132096
 20
728.1759939971214
 30
0.0
 11
182.580522132096
 21
725.1221844733102
 31
0.0
  0
LINE
  5
163
102
{ACAD_REACTORS
330
212
330
213
102
}
330
81
100
AcDbEntity
  8
0
  6
Continuous
 62
     2
100
AcDbLine
 10
190.2622580649362
 20
731.5351844732957
 30
0.0
 11
190.2622580649362
 21
730.2264089630905
 31
0.0
  0
LINE
  5
164
102
{ACAD_REACTORS
330
212
330
213
102
}
330
81
100
AcDbEntity
  8
0
  6
Continuous
 62
     2
100
AcDbLine
 10
189.0217536546821
 20
731.5351844732957
 30
0.0
 11
187.8289609525157
 21
731.5351844732957
 31
0.0
  0
LINE
  5
165
102
{ACAD_REACTORS
330
212
330
213
102
}
330
81
100
AcDbEntity
  8
0
  6
Continuous
 62
     2
100
AcDbLine
 10
187.8289609525157
 20
731.5351844732957
 30
0.0
 11
187.8289609525157
 21
728.4813749494845
 31
0.0
  0
LINE
  5
166
102
{ACAD_REACTORS
330
212
330
213
102
}
330
81
100
AcDbEntity
  8
0
  6
Continuous
 62
     2
100
AcDbLine
 10
189.0217536546821
 20
728.4813749494845
 30
0.0
 11
189.0217536546821
 21
729.7901504596892
 31
0.0
  0
LINE
  5
167
102
{ACAD_REACTORS
330
210
330
211
102
}
330
81
100
AcDbEntity
  8
0
  6
Continuous
 62
     2
100
AcDbLine
 10
188.3536388105841
 20
725.1221844733102
 30
0.0
 11
188.3536388105841
 21
727.3907286909975
 31
0.0
  0
LINE
  5
168
102
{ACAD_REACTORS
330
210
330
211
102
}
330
81
100
AcDbEntity
  8
0
  6
Continuous
 62
     2
100
AcDbLine
 10
188.3536388105841
 20
727.3907286909975
 30
0.0
 11
189.1647378480568
 21
727.3907286909975
 31
0.0
  0
LINE
  5
169
102
{ACAD_REACTORS
330
210
330
211
102
}
330
81
100
AcDbEntity
  8
0
  6
Continuous
 62
     2
100
AcDbLine
 10
189.1647378480568
 20
727.3907286909975
 30
0.0
 11
189.1647378480568
 21
728.1759939971214
 31
0.0
  0
LINE
  5
16A
102
{ACAD_REACTORS
330
210
330
211
102
}
330
81
100
AcDbEntity
  8
0
  6
Continuous
 62
     2
100
AcDbLine
 10
189.1647378480568
 20
728.1759939971214
 30
0.0
 11
186.349747070943
 21
728.1759939971214
 31
0.0
  0
LINE
  5
16B
102
{ACAD_REACTORS
330
210
330
211
102
}
330
81
100
AcDbEntity
  8
0
  6
Continuous
 62
     2
100
AcDbLine
 10
186.349747070943
 20
727.3907286909975
 30
0.0
 11
187.1608461084177
 21
727.3907286909975
 31
0.0
  0
LINE
  5
16C
102
{ACAD_REACTORS
330
20E
330
20F
102
}
330
81
100
AcDbEntity
  8
0
  6
Continuous
 62
     2
100
AcDbLine
 10
189.959243673854
 20
725.663145017528
 30
0.0
 11
191.091685250528
 21
725.663145017528
 31
0.0
  0
LINE
  5
16D
102
{ACAD_REACTORS
330
20E
330
20F
102
}
330
81
100
AcDbEntity
  8
0
  6
Continuous
 62
     2
100
AcDbLine
 10
192.5436697142576
 20
725.1221844733102
 30
0.0
 11
191.3031653040037
 21
725.1221844733102
 31
0.0
  0
LINE
  5
16E
102
{ACAD_REACTORS
330
20E
330
20F
102
}
330
81
100
AcDbEntity
  8
0
  6
Continuous
 62
     2
100
AcDbLine
 10
189.9052122570645
 20
728.1759939971214
 30
0.0
 11
188.5072592101253
 21
725.1221844733102
 31
0.0
  0
LINE
  5
16F
102
{ACAD_REACTORS
330
20E
330
20F
102
}
330
81
100
AcDbEntity
  8
0
  6
Continuous
 62
     2
100
AcDbLine
 10
189.7477636203782
 20
725.1221844733102
 30
0.0
 11
189.959243673854
 21
725.663145017528
 31
0.0
  0
LINE
  5
170
102
{ACAD_REACTORS
330
20E
330
20F
102
}
330
81
100
AcDbEntity
  8
0
  6
Continuous
 62
     2
100
AcDbLine
 10
190.2252992249991
 20
726.3437082828345
 30
0.0
 11
190.5254644621914
 21
727.1115232488213
 31
0.0
  0
LINE
  5
171
102
{ACAD_REACTORS
330
20C
330
20D
102
}
330
81
100
AcDbEntity
  8
0
  6
Continuous
 62
     2
100
AcDbLine
 10
191.6936093075367
 20
728.4813749494845
 30
0.0
 11
191.6936093075367
 21
731.5351844732957
 31
0.0
  0
LINE
  5
172
102
{ACAD_REACTORS
330
20C
330
20D
102
}
330
81
100
AcDbEntity
  8
0
  6
Continuous
 62
     2
100
AcDbLine
 10
192.9341137177896
 20
731.5351844732957
 30
0.0
 11
192.9341137177896
 21
728.4813749494845
 31
0.0
  0
LINE
  5
173
102
{ACAD_REACTORS
330
20C
330
20D
102
}
330
81
100
AcDbEntity
  8
0
  6
Continuous
 62
     2
100
AcDbLine
 10
191.6936093075367
 20
731.5351844732957
 30
0.0
 11
192.9341137177896
 21
731.5351844732957
 31
0.0
  0
LINE
  5
174
102
{ACAD_REACTORS
330
20A
330
20B
102
}
330
81
100
AcDbEntity
  8
0
  6
Continuous
 62
     2
100
AcDbLine
 10
195.1527081438204
 20
729.2691067347782
 30
0.0
 11
195.8492990818858
 21
728.4813749494845
 31
0.0
  0
LINE
  5
175
102
{ACAD_REACTORS
330
20A
330
20B
102
}
330
81
100
AcDbEntity
  8
0
  6
Continuous
 62
     2
100
AcDbLine
 10
195.8492990818858
 20
728.4813749494845
 30
0.0
 11
197.2520232996341
 21
728.4813749494845
 31
0.0
  0
LINE
  5
176
102
{ACAD_REACTORS
330
20A
330
20B
102
}
330
81
100
AcDbEntity
  8
0
  6
Continuous
 62
     2
100
AcDbLine
 10
195.8540702526938
 20
730.0622339432593
 30
0.0
 11
197.2520232996341
 21
728.4813749494845
 31
0.0
  0
LINE
  5
177
102
{ACAD_REACTORS
330
20A
330
20B
102
}
330
81
100
AcDbEntity
  8
0
  6
Continuous
 62
     2
100
AcDbLine
 10
195.8540702526938
 20
730.0622339432593
 30
0.0
 11
197.1565998834604
 21
731.5351844732957
 31
0.0
  0
LINE
  5
178
102
{ACAD_REACTORS
330
20A
330
20B
102
}
330
81
100
AcDbEntity
  8
0
  6
Continuous
 62
     2
100
AcDbLine
 10
195.1527081438204
 20
730.8553611517401
 30
0.0
 11
195.7538756657132
 21
731.5351844732957
 31
0.0
  0
LINE
  5
179
102
{ACAD_REACTORS
330
20A
330
20B
102
}
330
81
100
AcDbEntity
  8
0
  6
Continuous
 62
     2
100
AcDbLine
 10
194.5515406219285
 20
731.5351844732957
 30
0.0
 11
195.1527081438204
 21
730.8553611517401
 31
0.0
  0
LINE
  5
17A
102
{ACAD_REACTORS
330
20A
330
20B
102
}
330
81
100
AcDbEntity
  8
0
  6
Continuous
 62
     2
100
AcDbLine
 10
194.5515406219285
 20
731.5351844732957
 30
0.0
 11
193.1488164041793
 21
731.5351844732957
 31
0.0
  0
LINE
  5
17B
102
{ACAD_REACTORS
330
200
330
201
102
}
330
81
100
AcDbEntity
  8
0
  6
Continuous
 62
     2
100
AcDbLine
 10
195.248131559993
 20
725.1221844733102
 30
0.0
 11
196.4409242621607
 21
725.1221844733102
 31
0.0
  0
LINE
  5
17C
102
{ACAD_REACTORS
330
200
330
201
102
}
330
81
100
AcDbEntity
  8
0
  6
Continuous
 62
     2
100
AcDbLine
 10
196.4409242621607
 20
725.1221844733102
 30
0.0
 11
196.4409242621607
 21
727.3907286909975
 31
0.0
  0
LINE
  5
17D
102
{ACAD_REACTORS
330
200
330
201
102
}
330
81
100
AcDbEntity
  8
0
  6
Continuous
 62
     2
100
AcDbLine
 10
196.4409242621607
 20
727.3907286909975
 30
0.0
 11
197.2520232996341
 21
727.3907286909975
 31
0.0
  0
LINE
  5
17E
102
{ACAD_REACTORS
330
200
330
201
102
}
330
81
100
AcDbEntity
  8
0
  6
Continuous
 62
     2
100
AcDbLine
 10
197.2520232996341
 20
727.3907286909975
 30
0.0
 11
197.2520232996341
 21
728.1759939971214
 31
0.0
  0
LINE
  5
17F
102
{ACAD_REACTORS
330
200
330
201
102
}
330
81
100
AcDbEntity
  8
0
  6
Continuous
 62
     2
100
AcDbLine
 10
193.8670777810055
 20
728.1759939971207
 30
0.0
 11
197.2520232996341
 21
728.1759939971214
 31
0.0
  0
LINE
  5
180
102
{ACAD_REACTORS
330
200
330
201
102
}
330
81
100
AcDbEntity
  8
0
  6
Continuous
 62
     2
100
AcDbLine
 10
195.248131559993
 20
727.3907286909975
 30
0.0
 11
195.248131559993
 21
725.1221844733102
 31
0.0
  0
LINE
  5
181
102
{ACAD_REACTORS
330
202
330
203
102
}
330
81
100
AcDbEntity
  8
0
  6
Continuous
 62
     2
100
AcDbLine
 10
172.6186451245139
 20
727.1010646228747
 30
0.0
 11
172.6186451245139
 21
727.6829160295698
 31
0.0
  0
LINE
  5
182
102
{ACAD_REACTORS
330
202
330
203
102
}
330
81
100
AcDbEntity
  8
0
  6
Continuous
 62
     2
100
AcDbLine
 10
172.6186451245139
 20
729.9011992295059
 30
0.0
 11
172.6186451245139
 21
730.5067345180128
 31
0.0
  0
LINE
  5
183
330
81
100
AcDbEntity
  8
1
  6
Continuous
 62
     6
100
AcDbLine
 10
201.148823709117
 20
717.8286844732938
 30
0.0
 11
183.304019182367
 21
717.8286844732938
 31
0.0
  0
LINE
  5
184
330
81
100
AcDbEntity
  8
1
  6
Continuous
 62
     7
100
AcDbLine
 10
165.1040191823671
 20
734.8286844732938
 30
0.0
 11
201.5040191823671
 21
734.8286844732938
 31
0.0
  0
LINE
  5
185
330
81
100
AcDbEntity
  8
1
  6
Continuous
 62
     6
100
AcDbLine
 10
165.1040191823671
 20
734.8286844732938
 30
0.0
 11
165.1040191823671
 21
722.0786844732938
 31
0.0
  0
LINE
  5
186
330
81
100
AcDbEntity
  8
1
  6
Continuous
 62
     6
100
AcDbLine
 10
201.5040191823671
 20
734.8286844732938
 30
0.0
 11
201.5040191823671
 21
722.0786844732938
 31
0.0
  0
LINE
  5
187
330
81
100
AcDbEntity
  8
1
  6
Continuous
 62
     6
100
AcDbLine
 10
201.5040191823671
 20
717.8286844732938
 30
0.0
 11
201.148823709117
 21
717.8286844732938
 31
0.0
  0
LINE
  5
188
330
81
100
AcDbEntity
  8
1
  6
Continuous
 62
     2
100
AcDbLine
 10
169.3406740689296
 20
740.2036844732937
 30
0.0
 11
174.3406740689296
 21
741.4536844732937
 31
0.0
  0
LINE
  5
189
330
81
100
AcDbEntity
  8
1
  6
Continuous
 62
     2
100
AcDbLine
 10
169.3406740689296
 20
737.7036844732937
 30
0.0
 11
169.3406740689296
 21
740.2036844732937
 31
0.0
  0
LINE
  5
18A
330
81
100
AcDbEntity
  8
1
  6
Continuous
 62
     2
100
AcDbLine
 10
174.3406740689296
 20
736.4536844732937
 30
0.0
 11
169.3406740689296
 21
737.7036844732937
 31
0.0
  0
LINE
  5
18B
330
81
100
AcDbEntity
  8
1
  6
Continuous
 62
     2
100
AcDbLine
 10
174.3406740689296
 20
741.4536844732937
 30
0.0
 11
174.3406740689296
 21
736.4536844732937
 31
0.0
  0
LINE
  5
18C
330
81
100
AcDbEntity
  8
1
  6
Continuous
 62
     7
100
AcDbLine
 10
165.1040191823671
 20
722.0786844732938
 30
0.0
 11
183.304019182367
 21
722.0786844732938
 31
0.0
  0
LINE
  5
18D
330
81
100
AcDbEntity
  8
1
  6
Continuous
 62
     6
100
AcDbLine
 10
165.1040191823671
 20
722.0786844732938
 30
0.0
 11
165.1040191823671
 21
717.8286844732938
 31
0.0
  0
LINE
  5
18E
330
81
100
AcDbEntity
  8
1
  6
Continuous
 62
     6
100
AcDbLine
 10
201.5040191823671
 20
722.0786844732938
 30
0.0
 11
201.5040191823671
 21
717.8286844732938
 31
0.0
  0
LINE
  5
18F
330
81
100
AcDbEntity
  8
1
  6
Continuous
 62
     7
100
AcDbLine
 10
183.304019182367
 20
722.0786844732938
 30
0.0
 11
183.304019182367
 21
717.8286844732938
 31
0.0
  0
LINE
  5
190
330
81
100
AcDbEntity
  8
1
  6
Continuous
 62
     6
100
AcDbLine
 10
183.304019182367
 20
717.8286844732938
 30
0.0
 11
165.1040191823671
 21
717.8286844732938
 31
0.0
  0
LINE
  5
191
330
81
100
AcDbEntity
  8
1
  6
Continuous
 62
     7
100
AcDbLine
 10
183.304019182367
 20
722.0786844732938
 30
0.0
 11
201.5040191823671
 21
722.0786844732938
 31
0.0
  0
LINE
  5
192
330
81
100
AcDbEntity
  8
1
  6
Continuous
 62
     6
100
AcDbLine
 10
165.1040191823671
 20
743.3286844732938
 30
0.0
 11
294.6488237091188
 21
743.3286844732938
 31
0.0
  0
LINE
  5
193
330
81
100
AcDbEntity
  8
1
  6
PHANTOM
 62
     2
100
AcDbLine
 10
180.5906740689296
 20
738.9536844732937
 30
0.0
 11
175.0906740689296
 21
738.9536844732937
 31
0.0
  0
LINE
  5
194
330
81
100
AcDbEntity
  8
1
  6
PHANTOM
 62
     2
100
AcDbLine
 10
177.8406740689296
 20
741.7036844732938
 30
0.0
 11
177.8406740689296
 21
736.2036844732938
 31
0.0
  0
LINE
  5
195
330
81
100
AcDbEntity
  8
1
  6
DOT_CENTER
 62
     2
100
AcDbLine
 10
169.0906740689296
 20
738.9536844732937
 30
0.0
 11
174.5906740689296
 21
738.9536844732937
 31
0.0
  0
LINE
  5
196
330
81
100
AcDbEntity
  8
1
  6
Continuous
 62
     6
100
AcDbLine
 10
294.648823709117
 20
775.2286844732945
 30
0.0
 11
294.6488237091188
 21
743.3286844732938
 31
0.0
  0
LINE
  5
197
330
81
100
AcDbEntity
  8
1
  6
Continuous
 62
     7
100
AcDbLine
 10
257.5304154274396
 20
743.3286844732938
 30
0.0
 11
257.5304154274396
 21
734.8286844732938
 31
0.0
  0
LINE
  5
198
330
81
100
AcDbEntity
  8
1
  6
Continuous
 62
     6
100
AcDbLine
 10
294.6488237091166
 20
726.3286844732938
 30
0.0
 11
201.5040191823671
 21
726.3286844732938
 31
0.0
  0
LINE
  5
199
330
81
100
AcDbEntity
  8
1
  6
Continuous
 62
     7
100
AcDbLine
 10
257.5304154274396
 20
734.8286844732938
 30
0.0
 11
257.5304154274396
 21
726.3286844732938
 31
0.0
  0
LINE
  5
19A
330
81
100
AcDbEntity
  8
1
  6
Continuous
 62
     6
100
AcDbLine
 10
201.5040191823671
 20
717.8286844732938
 30
0.0
 11
294.648823709117
 21
717.8286844732938
 31
0.0
  0
LINE
  5
19B
330
81
100
AcDbEntity
  8
1
  6
Continuous
 62
     6
100
AcDbLine
 10
294.6488237091188
 20
743.3286844732938
 30
0.0
 11
294.6488237091166
 21
726.3286844732938
 31
0.0
  0
LINE
  5
19C
330
81
100
AcDbEntity
  8
1
  6
Continuous
 62
     6
100
AcDbLine
 10
294.6488237091166
 20
726.3286844732938
 30
0.0
 11
294.648823709117
 21
717.8286844732938
 31
0.0
  0
ARC
  5
19D
102
{ACAD_REACTORS
330
206
330
207
102
}
330
81
100
AcDbEntity
  8
0
  6
Continuous
 62
     2
100
AcDbCircle
 10
180.4956671813271
 20
726.6490892352153
 30
0.0
 40
0.7717997786795
100
AcDbArc
 50
321.8795802028465
 51
38.1204197971668
  0
ARC
  5
19E
102
{ACAD_REACTORS
330
206
330
207
102
}
330
81
100
AcDbEntity
  8
0
  6
Continuous
 62
     2
100
AcDbCircle
 10
180.6954072176735
 20
726.4923580570955
 30
0.0
 40
0.5179085730138424
100
AcDbArc
 50
218.1204197971879
 51
321.8795802027908
  0
ARC
  5
19F
102
{ACAD_REACTORS
330
206
330
207
102
}
330
81
100
AcDbEntity
  8
0
  6
Continuous
 62
     2
100
AcDbCircle
 10
180.8951472540195
 20
726.6490892352153
 30
0.0
 40
0.771799778679551
100
AcDbArc
 50
141.879580202828
 51
218.1204197971587
  0
ARC
  5
1A0
102
{ACAD_REACTORS
330
206
330
207
102
}
330
81
100
AcDbEntity
  8
0
  6
Continuous
 62
     2
100
AcDbCircle
 10
180.6954072176735
 20
726.8058204133359
 30
0.0
 40
0.5179085730132454
100
AcDbArc
 50
38.12041979715975
 51
141.8795802028616
  0
ARC
  5
1A1
102
{ACAD_REACTORS
330
1FE
330
1FF
102
}
330
81
100
AcDbEntity
  8
0
  6
Continuous
 62
     2
100
AcDbCircle
 10
177.6333930821095
 20
725.2386228698074
 30
0.0
 40
2.227384008973417
100
AcDbArc
 50
58.06909105003631
 51
71.5519238818663
  0
ARC
  5
1A2
102
{ACAD_REACTORS
330
1FE
330
1FF
102
}
330
81
100
AcDbEntity
  8
0
  6
Continuous
 62
     2
100
AcDbCircle
 10
177.8951207830683
 20
726.8541606645545
 30
0.0
 40
0.5115800601949335
100
AcDbArc
 50
113.3722778881895
 51
151.4785267423156
  0
ARC
  5
1A3
102
{ACAD_REACTORS
330
1FE
330
1FF
102
}
330
81
100
AcDbEntity
  8
0
  6
Continuous
 62
     2
100
AcDbCircle
 10
178.2724780411487
 20
726.6490892352153
 30
0.0
 40
0.9410597353333294
100
AcDbArc
 50
151.4785267422693
 51
208.5214732576941
  0
ARC
  5
1A4
102
{ACAD_REACTORS
330
1FE
330
1FF
102
}
330
81
100
AcDbEntity
  8
0
  6
Continuous
 62
     2
100
AcDbCircle
 10
177.4755202070167
 20
729.961770180472
 30
0.0
 40
4.852596863498272
100
AcDbArc
 50
275.1581447696238
 51
285.9799912583527
  0
ARC
  5
1A5
102
{ACAD_REACTORS
330
1FE
330
1FF
102
}
330
81
100
AcDbEntity
  8
0
  6
Continuous
 62
     2
100
AcDbCircle
 10
177.7643763017526
 20
726.7618795972503
 30
0.0
 40
1.639695123939452
100
AcDbArc
 50
195.0618917770941
 51
275.1581447696363
  0
ARC
  5
1A6
102
{ACAD_REACTORS
330
1FE
330
1FF
102
}
330
81
100
AcDbEntity
  8
0
  6
Continuous
 62
     2
100
AcDbCircle
 10
177.3452484582898
 20
726.6490892352153
 30
0.0
 40
1.205656168390986
100
AcDbArc
 50
164.9381082228742
 51
195.0618917770945
  0
ARC
  5
1A7
102
{ACAD_REACTORS
330
1FE
330
1FF
102
}
330
81
100
AcDbEntity
  8
0
  6
Continuous
 62
     2
100
AcDbCircle
 10
177.7643763017526
 20
726.5362988731806
 30
0.0
 40
1.639695123940442
100
AcDbArc
 50
84.84185523036514
 51
164.9381082228905
  0
ARC
  5
1A8
102
{ACAD_REACTORS
330
202
330
203
102
}
330
81
100
AcDbEntity
  8
0
  6
Continuous
 62
     2
100
AcDbCircle
 10
172.9343620475907
 20
727.6829160295698
 30
0.0
 40
0.3157169230764815
100
AcDbArc
 50
115.3740086783563
 51
180.0
  0
ARC
  5
1A9
102
{ACAD_REACTORS
330
202
330
203
102
}
330
81
100
AcDbEntity
  8
0
  6
Continuous
 62
     2
100
AcDbCircle
 10
172.9343620475907
 20
729.9011992295059
 30
0.0
 40
0.315716923076792
100
AcDbArc
 50
180.0
 51
244.6259913216349
  0
ARC
  5
1AA
102
{ACAD_REACTORS
330
202
330
203
102
}
330
81
100
AcDbEntity
  8
0
  6
Continuous
 62
     2
100
AcDbCircle
 10
172.9399781829008
 20
728.8038995704437
 30
0.0
 40
2.018561131933267
100
AcDbArc
 50
269.8110329575802
 51
90.18896704241979
  0
ARC
  5
1AB
102
{ACAD_REACTORS
330
202
330
203
102
}
330
81
100
AcDbEntity
  8
0
  6
Continuous
 62
     2
100
AcDbCircle
 10
172.9343620475907
 20
727.1010646228747
 30
0.0
 40
0.315716923076792
100
AcDbArc
 50
180.0
 51
269.8110329574335
  0
ARC
  5
1AC
102
{ACAD_REACTORS
330
200
330
201
102
}
330
81
100
AcDbEntity
  8
0
  6
Continuous
 62
     2
100
AcDbCircle
 10
193.9978222623212
 20
726.8541606645545
 30
0.0
 40
0.5115800601944143
100
AcDbArc
 50
109.3371432194853
 51
151.4785267424197
  0
ARC
  5
1AD
102
{ACAD_REACTORS
330
200
330
201
102
}
330
81
100
AcDbEntity
  8
0
  6
Continuous
 62
     2
100
AcDbCircle
 10
193.9978222623212
 20
726.4440178058769
 30
0.0
 40
0.5115800601960487
100
AcDbArc
 50
208.5214732576922
 51
246.6277221118424
  0
ARC
  5
1AE
102
{ACAD_REACTORS
330
200
330
201
102
}
330
81
100
AcDbEntity
  8
0
  6
Continuous
 62
     2
100
AcDbCircle
 10
193.4479499375438
 20
726.6490892352153
 30
0.0
 40
1.20565616839299
100
AcDbArc
 50
164.9381082228998
 51
195.0618917770897
  0
ARC
  5
1AF
102
{ACAD_REACTORS
330
200
330
201
102
}
330
81
100
AcDbEntity
  8
0
  6
Continuous
 62
     2
100
AcDbCircle
 10
193.8670777810055
 20
726.5362988731806
 30
0.0
 40
1.639695123940101
100
AcDbArc
 50
90.0
 51
164.9381082228993
  0
ARC
  5
1B0
102
{ACAD_REACTORS
330
204
330
205
102
}
330
81
100
AcDbEntity
  8
0
  6
Continuous
 62
     2
100
AcDbCircle
 10
184.4400826883018
 20
730.0082797113898
 30
0.0
 40
1.526904761905826
100
AcDbArc
 50
90.0
 51
270.0
  0
ARC
  5
1B1
102
{ACAD_REACTORS
330
208
330
209
102
}
330
81
100
AcDbEntity
  8
0
  6
Continuous
 62
     2
100
AcDbCircle
 10
177.697391943076
 20
730.5192148031845
 30
0.0
 40
0.3528638246712035
100
AcDbArc
 50
270.0
 51
90.0
  0
ARC
  5
1B2
102
{ACAD_REACTORS
330
202
330
203
102
}
330
81
100
AcDbEntity
  8
0
  6
Continuous
 62
     2
100
AcDbCircle
 10
170.3588133610589
 20
730.5069119946609
 30
0.0
 40
0.3157169230761383
100
AcDbArc
 50
90.0
 51
180.0
  0
ARC
  5
1B3
102
{ACAD_REACTORS
330
202
330
203
102
}
330
81
100
AcDbEntity
  8
0
  6
Continuous
 62
     2
100
AcDbCircle
 10
172.3572310696435
 20
728.7920576295381
 30
0.0
 40
0.9118975235576555
100
AcDbArc
 50
115.1944106485211
 51
244.8055893514911
  0
ARC
  5
1B4
102
{ACAD_REACTORS
330
202
330
203
102
}
330
81
100
AcDbEntity
  8
0
  6
Continuous
 62
     2
100
AcDbCircle
 10
171.8346466220685
 20
727.6812278834755
 30
0.0
 40
0.315716923076593
100
AcDbArc
 50
0.0
 51
64.80558935144188
  0
ARC
  5
1B5
102
{ACAD_REACTORS
330
202
330
203
102
}
330
81
100
AcDbEntity
  8
0
  6
Continuous
 62
     2
100
AcDbCircle
 10
169.7649186843124
 20
725.5464290886935
 30
0.0
 40
0.4242446153828041
100
AcDbArc
 50
180.0
 51
270.0
  0
ARC
  5
1B6
102
{ACAD_REACTORS
330
204
330
205
102
}
330
81
100
AcDbEntity
  8
0
  6
Continuous
 62
     2
100
AcDbCircle
 10
184.656354698467
 20
730.1650108895103
 30
0.0
 40
0.5179085730133318
100
AcDbArc
 50
38.12041979713626
 51
141.8795802028715
  0
ARC
  5
1B7
102
{ACAD_REACTORS
330
204
330
205
102
}
330
81
100
AcDbEntity
  8
0
  6
Continuous
 62
     2
100
AcDbCircle
 10
184.8560947348132
 20
730.0082797113898
 30
0.0
 40
0.7717997786795895
100
AcDbArc
 50
141.8795802028517
 51
218.1204197971549
  0
ARC
  5
1B8
102
{ACAD_REACTORS
330
206
330
207
102
}
330
81
100
AcDbEntity
  8
0
  6
Continuous
 62
     2
100
AcDbCircle
 10
180.6954072176735
 20
727.1876642455188
 30
0.0
 40
2.065479772208586
100
AcDbArc
 50
242.4518518243377
 51
297.5481481756867
  0
ARC
  5
1B9
102
{ACAD_REACTORS
330
206
330
207
102
}
330
81
100
AcDbEntity
  8
0
  6
Continuous
 62
     2
100
AcDbCircle
 10
180.6954072176735
 20
726.1105142249125
 30
0.0
 40
2.065479772208744
100
AcDbArc
 50
62.45185182430892
 51
117.5481481756666
  0
ARC
  5
1BA
102
{ACAD_REACTORS
330
206
330
207
102
}
330
81
100
AcDbEntity
  8
0
  6
Continuous
 62
     2
100
AcDbCircle
 10
180.4144673258401
 20
726.6490892352153
 30
0.0
 40
1.458034083651667
100
AcDbArc
 50
117.5481481756588
 51
242.451851824335
  0
ARC
  5
1BB
102
{ACAD_REACTORS
330
206
330
207
102
}
330
81
100
AcDbEntity
  8
0
  6
Continuous
 62
     2
100
AcDbCircle
 10
180.9763471095067
 20
726.6490892352153
 30
0.0
 40
1.458034083651929
100
AcDbArc
 50
297.5481481757076
 51
62.45185182429861
  0
ARC
  5
1BC
102
{ACAD_REACTORS
330
204
330
205
102
}
330
81
100
AcDbEntity
  8
0
  6
Continuous
 62
     2
100
AcDbCircle
 10
184.656354698467
 20
729.8515485332694
 30
0.0
 40
0.5179085730134915
100
AcDbArc
 50
218.1204197971384
 51
321.8795802028538
  0
ARC
  5
1BD
102
{ACAD_REACTORS
330
204
330
205
102
}
330
81
100
AcDbEntity
  8
0
  6
Continuous
 62
     2
100
AcDbCircle
 10
184.4566146621208
 20
730.0082797113898
 30
0.0
 40
0.7717997786795479
100
AcDbArc
 50
321.8795802028385
 51
38.12041979715482
  0
ARC
  5
1BE
102
{ACAD_REACTORS
330
202
330
203
102
}
330
81
100
AcDbEntity
  8
0
  6
Continuous
 62
     2
100
AcDbCircle
 10
175.2382307750293
 20
725.5464290886935
 30
0.0
 40
0.4242446153832589
100
AcDbArc
 50
270.0
 51
0.0
  0
ARC
  5
1BF
102
{ACAD_REACTORS
330
202
330
203
102
}
330
81
100
AcDbEntity
  8
0
  6
Continuous
 62
     2
100
AcDbCircle
 10
175.2382307750293
 20
731.1109398578936
 30
0.0
 40
0.4242446153838841
100
AcDbArc
 50
0.0
 51
90.0
  0
ARC
  5
1C0
102
{ACAD_REACTORS
330
202
330
203
102
}
330
81
100
AcDbEntity
  8
0
  6
Continuous
 62
     2
100
AcDbCircle
 10
169.7649186843124
 20
731.1109398578936
 30
0.0
 40
0.4242446153838273
100
AcDbArc
 50
90.0
 51
180.0
  0
ARC
  5
1C1
102
{ACAD_REACTORS
330
202
330
203
102
}
330
81
100
AcDbEntity
  8
0
  6
Continuous
 62
     2
100
AcDbCircle
 10
171.8346466220685
 20
726.1504569519439
 30
0.0
 40
0.3157169230767067
100
AcDbArc
 50
270.0
 51
0.0
  0
ARC
  5
1C2
102
{ACAD_REACTORS
330
202
330
203
102
}
330
81
100
AcDbEntity
  8
0
  6
Continuous
 62
     2
100
AcDbCircle
 10
171.8346466220685
 20
729.9028873756004
 30
0.0
 40
0.3157169230761051
100
AcDbArc
 50
295.1944106485581
 51
0.0
  0
ARC
  5
1C3
102
{ACAD_REACTORS
330
202
330
203
102
}
330
81
100
AcDbEntity
  8
0
  6
Continuous
 62
     2
100
AcDbCircle
 10
171.8346466220685
 20
730.5069119946609
 30
0.0
 40
0.315716923076593
100
AcDbArc
 50
0.0
 51
90.0
  0
ARC
  5
1C4
102
{ACAD_REACTORS
330
202
330
203
102
}
330
81
100
AcDbEntity
  8
0
  6
Continuous
 62
     2
100
AcDbCircle
 10
170.3588133610589
 20
726.1504569519439
 30
0.0
 40
0.3157169230755983
100
AcDbArc
 50
180.0
 51
270.0
  0
ARC
  5
1C5
102
{ACAD_REACTORS
330
208
330
209
102
}
330
81
100
AcDbEntity
  8
0
  6
Continuous
 62
     2
100
AcDbCircle
 10
178.1388644693144
 20
730.4798188319619
 30
0.0
 40
1.055365641333651
100
AcDbArc
 50
270.0
 51
90.0
  0
ARC
  5
1C6
102
{ACAD_REACTORS
330
200
330
201
102
}
330
81
100
AcDbEntity
  8
0
  6
Continuous
 62
     2
100
AcDbCircle
 10
193.8670777810055
 20
726.7618795972503
 30
0.0
 40
1.639695123940503
100
AcDbArc
 50
195.0618917771007
 51
275.1581447696764
  0
ARC
  5
1C7
102
{ACAD_REACTORS
330
200
330
201
102
}
330
81
100
AcDbEntity
  8
0
  6
Continuous
 62
     2
100
AcDbCircle
 10
193.5782216862696
 20
729.961770180472
 30
0.0
 40
4.852596863498833
100
AcDbArc
 50
275.1581447696374
 51
285.9799912583386
  0
ARC
  5
1C8
102
{ACAD_REACTORS
330
200
330
201
102
}
330
81
100
AcDbEntity
  8
0
  6
Continuous
 62
     2
100
AcDbCircle
 10
193.7360945613624
 20
728.0595556006236
 30
0.0
 40
2.227384008972719
100
AcDbArc
 50
288.4480761181337
 51
301.9309089499401
  0
ARC
  5
1C9
102
{ACAD_REACTORS
330
200
330
201
102
}
330
81
100
AcDbEntity
  8
0
  6
Continuous
 62
     2
100
AcDbCircle
 10
194.1542622950244
 20
726.8060098245869
 30
0.0
 40
0.905929784985273
100
AcDbArc
 50
246.6277221118102
 51
288.4480761180783
  0
ARC
  5
1CA
102
{ACAD_REACTORS
330
200
330
201
102
}
330
81
100
AcDbEntity
  8
0
  6
Continuous
 62
     2
100
AcDbCircle
 10
194.3751795204027
 20
726.6490892352153
 30
0.0
 40
0.9410597353350602
100
AcDbArc
 50
151.4785267423581
 51
208.5214732576662
  0
ARC
  5
1CB
102
{ACAD_REACTORS
330
200
330
201
102
}
330
81
100
AcDbEntity
  8
0
  6
Continuous
 62
     2
100
AcDbCircle
 10
194.1444922604249
 20
726.4362056841715
 30
0.0
 40
0.9545230068260935
100
AcDbArc
 50
90.0
 51
109.3371432194297
  0
ARC
  5
1CC
102
{ACAD_REACTORS
330
202
330
203
102
}
330
81
100
AcDbEntity
  8
0
  6
Continuous
 62
     2
100
AcDbCircle
 10
172.9343620475907
 20
730.5067345180128
 30
0.0
 40
0.3157169230761283
100
AcDbArc
 50
90.18896704256652
 51
180.0
  0
ARC
  5
1CD
102
{ACAD_REACTORS
330
202
330
203
102
}
330
81
100
AcDbEntity
  8
0
  6
Continuous
 62
     2
100
AcDbCircle
 10
172.4083193495028
 20
728.7920576295381
 30
0.0
 40
0.9118481501444455
100
AcDbArc
 50
295.3740086781789
 51
64.62599132180893
  0
ARC
  5
1CE
102
{ACAD_REACTORS
330
1FE
330
1FF
102
}
330
81
100
AcDbEntity
  8
0
  6
Continuous
 62
     2
100
AcDbCircle
 10
177.6333930821095
 20
728.0595556006241
 30
0.0
 40
2.227384008972719
100
AcDbArc
 50
288.4480761181337
 51
301.9309089499637
  0
ARC
  5
1CF
102
{ACAD_REACTORS
330
1FE
330
1FF
102
}
330
81
100
AcDbEntity
  8
0
  6
Continuous
 62
     2
100
AcDbCircle
 10
178.0515608157704
 20
726.8060098245869
 30
0.0
 40
0.905929784984867
100
AcDbArc
 50
246.6277221118696
 51
288.4480761181556
  0
ARC
  5
1D0
102
{ACAD_REACTORS
330
1FE
330
1FF
102
}
330
81
100
AcDbEntity
  8
0
  6
Continuous
 62
     2
100
AcDbCircle
 10
177.8951207830683
 20
726.4440178058769
 30
0.0
 40
0.5115800601947491
100
AcDbArc
 50
208.5214732576844
 51
246.6277221118307
  0
ARC
  5
1D1
102
{ACAD_REACTORS
330
1FE
330
1FF
102
}
330
81
100
AcDbEntity
  8
0
  6
Continuous
 62
     2
100
AcDbCircle
 10
178.0515608157704
 20
726.4921686458439
 30
0.0
 40
0.9059297849853588
100
AcDbArc
 50
71.55192388185803
 51
113.3722778881275
  0
ARC
  5
1D2
102
{ACAD_REACTORS
330
1FE
330
1FF
102
}
330
81
100
AcDbEntity
  8
0
  6
Continuous
 62
     2
100
AcDbCircle
 10
177.4755202070167
 20
723.3364082899595
 30
0.0
 40
4.85259686349804
100
AcDbArc
 50
74.02000874164729
 51
84.84185523037608
  0
CIRCLE
  5
1D3
102
{ACAD_REACTORS
330
202
330
203
102
}
330
81
100
AcDbEntity
  8
0
  6
Continuous
 62
     2
100
AcDbCircle
 10
172.38450433483
 20
728.7920576295381
 30
0.0
 40
0.470978932778479
  0
CIRCLE
  5
1D4
330
81
100
AcDbEntity
  8
1
  6
Continuous
 62
     2
100
AcDbCircle
 10
177.8406740689296
 20
738.9536844732937
 30
0.0
 40
1.25
  0
CIRCLE
  5
1D5
330
81
100
AcDbEntity
  8
1
  6
Continuous
 62
     2
100
AcDbCircle
 10
177.8406740689296
 20
738.9536844732937
 30
0.0
 40
2.5
  0
TEXT
  5
1D6
330
81
100
AcDbEntity
  8
1
 62
     7
100
AcDbText
 10
259.3154903757837
 20
713.8286844732944
 30
0.0
 40
2.5
  1
6
 41
0.9
  7
CONVERTER_11
100
AcDbText
  0
TEXT
  5
1D7
330
81
100
AcDbEntity
  8
1
 62
     7
100
AcDbText
 10
190.9821570424502
 20
713.8286844732944
 30
0.0
 40
2.5
  1
5
 41
0.9
  7
CONVERTER_11
100
AcDbText
  0
TEXT
  5
1D8
330
81
100
AcDbEntity
  8
1
 62
     7
100
AcDbText
 10
122.648823709117
 20
713.8286844732944
 30
0.0
 40
2.5
  1
4
 41
0.9
  7
CONVERTER_11
100
AcDbText
  0
TEXT
  5
1D9
330
81
100
AcDbEntity
  8
1
 62
     7
100
AcDbText
 10
54.31549037578395
 20
713.8286844732944
 30
0.0
 40
2.5
  1
3
 41
0.9
  7
CONVERTER_11
100
AcDbText
  0
TEXT
  5
1DA
330
81
100
AcDbEntity
  8
1
 62
     7
100
AcDbText
 10
295.648823709117
 20
745.3286844732944
 30
0.0
 40
2.5
  1
E
 41
0.9
  7
CONVERTER_11
100
AcDbText
  0
TEXT
  5
1DB
330
81
100
AcDbEntity
  8
1
 62
     7
100
AcDbText
 10
-82.35117629088268
 20
713.8286844732944
 30
0.0
 40
2.5
  1
1
 41
0.9
  7
CONVERTER_11
100
AcDbText
  0
TEXT
  5
1DC
330
81
100
AcDbEntity
  8
1
 62
     7
100
AcDbText
 10
-14.01784295754959
 20
713.8286844732944
 30
0.0
 40
2.5
  1
2
 41
0.9
  7
CONVERTER_11
100
AcDbText
  0
TEXT
  5
1DD
330
81
100
AcDbEntity
  8
1
 62
     7
100
AcDbText
 10
295.648823709117
 20
802.7286844732945
 30
0.0
 40
2.5
  1
D
 41
0.9
  7
CONVERTER_11
100
AcDbText
  0
TEXT
  5
1DE
330
81
100
AcDbEntity
  8
1
 62
     7
100
AcDbText
 10
295.648823709117
 20
860.1286844732946
 30
0.0
 40
2.5
  1
C
 41
0.9
  7
CONVERTER_11
100
AcDbText
  0
TEXT
  5
1DF
330
81
100
AcDbEntity
  8
1
 62
     7
100
AcDbText
 10
295.648823709117
 20
917.5286844732944
 30
0.0
 40
2.5
  1
B
 41
0.9
  7
CONVERTER_11
100
AcDbText
  0
TEXT
  5
1E0
330
81
100
AcDbEntity
  8
1
 62
     7
100
AcDbText
 10
295.648823709117
 20
974.9286844732943
 30
0.0
 40
2.5
  1
A
 41
0.9
  7
CONVERTER_11
100
AcDbText
  0
TEXT
  5
1E1
330
81
100
AcDbEntity
  8
1
 62
     7
100
AcDbText
 10
259.3154903757837
 20
1005.828684473295
 30
0.0
 40
2.5
  1
6
 41
0.9
  7
CONVERTER_11
100
AcDbText
  0
TEXT
  5
1E2
330
81
100
AcDbEntity
  8
1
 62
     7
100
AcDbText
 10
190.9821570424504
 20
1005.828684473295
 30
0.0
 40
2.5
  1
5
 41
0.9
  7
CONVERTER_11
100
AcDbText
  0
TEXT
  5
1E3
330
81
100
AcDbEntity
  8
1
 62
     7
100
AcDbText
 10
122.648823709117
 20
1005.828684473295
 30
0.0
 40
2.5
  1
4
 41
0.9
  7
CONVERTER_11
100
AcDbText
  0
TEXT
  5
1E4
330
81
100
AcDbEntity
  8
1
 62
     7
100
AcDbText
 10
54.31549037578395
 20
1005.828684473295
 30
0.0
 40
2.5
  1
3
 41
0.9
  7
CONVERTER_11
100
AcDbText
  0
TEXT
  5
1E5
330
81
100
AcDbEntity
  8
1
 62
     7
100
AcDbText
 10
-14.01784295754959
 20
1005.828684473295
 30
0.0
 40
2.5
  1
2
 41
0.9
  7
CONVERTER_11
100
AcDbText
  0
TEXT
  5
1E6
330
81
100
AcDbEntity
  8
1
 62
     7
100
AcDbText
 10
-82.35117629088268
 20
1005.828684473295
 30
0.0
 40
2.5
  1
1
 41
0.9
  7
CONVERTER_11
100
AcDbText
  0
TEXT
  5
1E7
330
81
100
AcDbEntity
  8
1
 62
     7
100
AcDbText
 10
220.4775669043808
 20
736.1286844732938
 30
0.0
 40
2.5
  1
/
 41
0.9
  7
CONVERTER_11
100
AcDbText
  0
TEXT
  5
1E9
330
81
100
AcDbEntity
  8
1
 62
     7
100
AcDbText
 10
222.6339314014228
 20
736.1286844732938
 30
0.0
 40
2.5
  1
00
 41
0.81
  7
CONVERTER_12
100
AcDbText
  0
TEXT
  5
1EA
330
81
100
AcDbEntity
  8
1
 62
     3
100
AcDbText
 10
228.7304154274399
 20
736.1286844732938
 30
0.0
 40
2.5
  1
10.04.2019
 41
0.81
  7
CONVERTER_12
100
AcDbText
  0
MTEXT
  5
1EB
330
81
100
AcDbEntity
  8
1
 62
     2
100
AcDbMText
 10
228.7304154274399
 20
742.3286844732938
 30
0.0
 40
1.8
 41
0.0
 71
     1
 72
     1
  1
date
  7
CONVERTER_11
 73
     1
 44
1.32052821128451
  0
MTEXT
  5
1EC
330
81
100
AcDbEntity
  8
1
 62
     2
100
AcDbMText
 10
202.5040191823671
 20
733.8286844732938
 30
0.0
 40
1.8
 41
0.0
 71
     1
 72
     1
  1
document-type
  7
CONVERTER_11
 73
     1
 44
1.20048019207683
  0
TEXT
  5
1ED
330
81
100
AcDbEntity
  8
1
 62
     3
100
AcDbText
 10
202.5040191823671
 20
727.6286844732938
 30
0.0
 40
2.5
  1
TECDOC 2D_Design_In
 41
0.81
  7
CONVERTER_12
100
AcDbText
  0
MTEXT
  5
1EF
330
81
100
AcDbEntity
  8
1
 62
     2
100
AcDbMText
 10
202.604019182367
 20
742.3286844732938
 30
0.0
 40
1.8
 41
0.0
 71
     1
 72
     1
  1
document-No. / RI
  7
CONVERTER_13
 73
     1
 44
1.32052821128451
  0
TEXT
  5
1F0
330
81
100
AcDbEntity
  8
1
 62
     7
100
AcDbText
 10
202.604019182367
 20
736.1286844732938
 30
0.0
 40
2.5
  1
01205939
 41
0.81
  7
CONVERTER_12
100
AcDbText
  0
MTEXT
  5
1F2
330
81
100
AcDbEntity
  8
1
 62
     3
100
AcDbMText
 10
252.389619568279
 20
736.1286844732939
 30
0.0
 40
2.5
 41
0.0
 71
     8
 72
     1
  1
2:1
  7
CONVERTER_14
 73
     1
 44
1.32052821128451
  0
MTEXT
  5
1F3
330
81
100
AcDbEntity
  8
1
 62
     2
100
AcDbMText
 10
249.2304154274395
 20
742.3286844732938
 30
0.0
 40
1.8
 41
0.0
 71
     1
 72
     1
  1
scale
  7
CONVERTER_11
 73
     1
 44
1.20048019207683
  0
MTEXT
  5
1F4
330
81
100
AcDbEntity
  8
1
 62
     2
100
AcDbMText
 10
258.6304154274395
 20
734.8286844732938
 30
0.0
 40
1.5
 41
0.0
 71
     4
 72
     1
  1
- Simplified representation\P- Document excluded\P  from change process\P- Linear dimensions [mm]\P- EN ISO 291  23/50
  7
CONVERTER_11
 73
     1
 44
1.20048019207683
  0
MTEXT
  5
1F5
330
81
100
AcDbEntity
  8
1
 62
     3
100
AcDbMText
 10
191.304019182367
 20
738.9536844732938
 30
0.0
 40
2.5
 41
0.0
 71
     5
 72
     1
  1
DIN A3
  7
CONVERTER_11
 73
     1
 44
1.20048019207683
  0
MTEXT
  5
1F6
330
81
100
AcDbEntity
  8
1
 62
     2
100
AcDbMText
 10
202.5040191823671
 20
725.3286844732938
 30
0.0
 40
1.8
 41
0.0
 71
     1
 72
     1
  1
description
  7
CONVERTER_11
 73
     1
 44
1.20048019207683
  0
MTEXT
  5
1F7
330
81
100
AcDbEntity
  8
1
 62
     7
100
AcDbMText
 10
248.0764214457425
 20
721.0786844732941
 30
0.0
 40
3.0
 41
0.0
 71
     5
 72
     1
  1
VS-RJ45-IP67-AR...-PANEL CUT-OUT
  7
CONVERTER_12
 73
     1
 44
1.20048019207683
  0
TEXT
  5
1F8
330
81
100
AcDbEntity
  8
1
 62
     2
100
AcDbText
 10
189.5393279921806
 20
719.0786844732938
 30
0.0
 40
1.8
  1
1
 41
0.9
  7
CONVERTER_11
100
AcDbText
  0
TEXT
  5
1F9
330
81
100
AcDbEntity
  8
1
 62
     2
100
AcDbText
 10
174.7502841527091
 20
719.0294358194919
 30
0.0
 40
1.8
  1
1
 41
0.9
  7
CONVERTER_11
100
AcDbText
  0
TEXT
  5
1FA
330
81
100
AcDbEntity
  8
1
 62
     2
100
AcDbText
 10
166.1040191823671
 20
719.0696672583022
 30
0.0
 40
1.8
  1
page
 41
0.9
  7
CONVERTER_11
100
AcDbText
  0
TEXT
  5
1FB
330
81
100
AcDbEntity
  8
1
 62
     2
100
AcDbText
 10
184.3040191823669
 20
719.0696672583024
 30
0.0
 40
1.8
  1
of
 41
0.9
  7
CONVERTER_11
100
AcDbText
  0
MTEXT
  5
1FC
330
81
100
AcDbEntity
  8
1
 62
     3
100
AcDbMText
 10
-102.0827092906237
 20
890.8149685869481
 30
0.0
 40
1.8
 41
0.0
 71
     7
 72
     1
  3
Transfer or duplication of this document as well as the utilisation or\Pcommunication of its content are not permitted unless express consent\Pis granted. Violations give rise to claims for damages. All rights reserved\Pin case of patent, utility mo
  1
del or design patent registrations.\PTolerance specifications do not include clearances inherent in the design.
  7
CONVERTER_11
 11
0.0
 21
1.0
 31
0.0
 73
     1
 44
0.99639855942377
  0
MTEXT
  5
1FD
330
81
100
AcDbEntity
  8
1
 62
     3
100
AcDbMText
 10
-101.9285029795298
 20
717.8555985727951
 30
0.0
 40
1.8
 41
0.0
 71
     7
 72
     1
  3
Weitergabe sowie Vervielfältigung dieses Dokuments, Verwertung und\PMitteilung seines Inhalts sind verboten, soweit nicht ausdrücklich gestattet.\PZuwiderhandlungen verpflichten zu Schadenersatz. Alle Rechte für den Fall\Pder Patent-, Gebrauchsmuste
  1
r- oder Designeintragung vorbehalten.\PBauartbedingtes Spiel ist in den Toleranzangaben nicht berücksichtigt.
  7
CONVERTER_11
 11
0.0
 21
1.0
 31
0.0
 73
     1
 44
0.99639855942377
  0
HATCH
  5
1FE
330
81
100
AcDbEntity
  8
1
  6
Continuous
 62
     2
100
AcDbHatch
 10
0.0
 20
0.0
 30
0.0
210
0.0
220
0.0
230
1.0
  2
CUSTOM0
 70
     0
 71
     1
 91
        1
 92
        1
 93
       14
 72
     2
 10
177.3452484582898
 20
726.6490892352153
 40
1.205656168390986
 50
164.9381082228742
 51
195.0618917770945
 73
     1
 72
     2
 10
177.7643763017526
 20
726.7618795972503
 40
1.639695123939452
 50
195.0618917770941
 51
275.1581447696363
 73
     1
 72
     2
 10
177.4755202070167
 20
729.961770180472
 40
4.852596863498272
 50
275.1581447696238
 51
285.9799912583527
 73
     1
 72
     1
 10
178.8114481241345
 20
725.2966878746711
 11
178.8114481241345
 21
726.1692048814743
 72
     2
 10
177.6333930821095
 20
728.0595556006241
 40
2.227384008972719
 50
58.06909105003628
 51
71.55192388186632
 73
     0
 72
     2
 10
178.0515608157704
 20
726.8060098245869
 40
0.905929784984867
 50
71.55192388184437
 51
113.3722778881304
 73
     0
 72
     2
 10
177.8951207830683
 20
726.4440178058769
 40
0.5115800601947491
 50
113.3722778881693
 51
151.4785267423156
 73
     0
 72
     2
 10
178.2724780411487
 20
726.6490892352153
 40
0.9410597353333294
 50
151.4785267423059
 51
208.5214732577306
 73
     0
 72
     2
 10
177.8951207830683
 20
726.8541606645545
 40
0.5115800601949335
 50
208.5214732576844
 51
246.6277221118105
 73
     0
 72
     2
 10
178.0515608157704
 20
726.4921686458439
 40
0.9059297849853588
 50
246.6277221118725
 51
288.448076118142
 73
     0
 72
     2
 10
177.6333930821095
 20
725.2386228698074
 40
2.227384008973417
 50
288.4480761181337
 51
301.9309089499637
 73
     0
 72
     1
 10
178.8114481241345
 20
727.1289735889571
 11
178.8114481241345
 21
728.0014905957604
 72
     2
 10
177.4755202070167
 20
723.3364082899595
 40
4.85259686349804
 50
74.02000874164729
 51
84.84185523037608
 73
     1
 72
     2
 10
177.7643763017526
 20
726.5362988731806
 40
1.639695123940442
 50
84.84185523036514
 51
164.9381082228905
 73
     1
 97
       14
330
1D2
330
118
330
1A1
330
1D1
330
1A2
330
1A3
330
1D0
330
1CF
330
1CE
330
119
330
1A4
330
1A5
330
1A6
330
1A7
 75
     1
 76
     2
 52
45.0
 41
0.1
 77
     0
 78
     1
 53
45.0
 43
62.7811309658083
 44
-72.3161373035813
 45
-0.1414213562373095
 46
0.0
 79
     0
 98
        1
 10
0.0
 20
0.0
  0
HATCH
  5
1FF
330
81
100
AcDbEntity
  8
1
  6
Continuous
 62
     2
100
AcDbHatch
 10
0.0
 20
0.0
 30
0.0
210
0.0
220
0.0
230
1.0
  2
CUSTOM1
 70
     0
 71
     1
 91
        1
 92
        1
 93
       14
 72
     2
 10
177.3452484582898
 20
726.6490892352153
 40
1.205656168390986
 50
164.9381082228742
 51
195.0618917770945
 73
     1
 72
     2
 10
177.7643763017526
 20
726.7618795972503
 40
1.639695123939452
 50
195.0618917770941
 51
275.1581447696363
 73
     1
 72
     2
 10
177.4755202070167
 20
729.961770180472
 40
4.852596863498272
 50
275.1581447696238
 51
285.9799912583527
 73
     1
 72
     1
 10
178.8114481241345
 20
725.2966878746711
 11
178.8114481241345
 21
726.1692048814743
 72
     2
 10
177.6333930821095
 20
728.0595556006241
 40
2.227384008972719
 50
58.06909105003628
 51
71.55192388186632
 73
     0
 72
     2
 10
178.0515608157704
 20
726.8060098245869
 40
0.905929784984867
 50
71.55192388184437
 51
113.3722778881304
 73
     0
 72
     2
 10
177.8951207830683
 20
726.4440178058769
 40
0.5115800601947491
 50
113.3722778881693
 51
151.4785267423156
 73
     0
 72
     2
 10
178.2724780411487
 20
726.6490892352153
 40
0.9410597353333294
 50
151.4785267423059
 51
208.5214732577306
 73
     0
 72
     2
 10
177.8951207830683
 20
726.8541606645545
 40
0.5115800601949335
 50
208.5214732576844
 51
246.6277221118105
 73
     0
 72
     2
 10
178.0515608157704
 20
726.4921686458439
 40
0.9059297849853588
 50
246.6277221118725
 51
288.448076118142
 73
     0
 72
     2
 10
177.6333930821095
 20
725.2386228698074
 40
2.227384008973417
 50
288.4480761181337
 51
301.9309089499637
 73
     0
 72
     1
 10
178.8114481241345
 20
727.1289735889571
 11
178.8114481241345
 21
728.0014905957604
 72
     2
 10
177.4755202070167
 20
723.3364082899595
 40
4.85259686349804
 50
74.02000874164729
 51
84.84185523037608
 73
     1
 72
     2
 10
177.7643763017526
 20
726.5362988731806
 40
1.639695123940442
 50
84.84185523036514
 51
164.9381082228905
 73
     1
 97
       14
330
1D2
330
118
330
1A1
330
1D1
330
1A2
330
1A3
330
1D0
330
1CF
330
1CE
330
119
330
1A4
330
1A5
330
1A6
330
1A7
 75
     1
 76
     2
 52
45.0
 41
0.1
 77
     0
 78
     1
 53
45.0
 43
62.7811309658083
 44
-72.3161373035813
 45
-0.1414213562373095
 46
0.0
 79
     0
 98
        1
 10
0.0
 20
0.0
  0
HATCH
  5
200
330
81
100
AcDbEntity
  8
1
  6
Continuous
 62
     2
100
AcDbHatch
 10
0.0
 20
0.0
 30
0.0
210
0.0
220
0.0
230
1.0
  2
CUSTOM2
 70
     0
 71
     1
 91
        1
 92
        1
 93
       18
 72
     2
 10
193.8670777810055
 20
726.5362988731806
 40
1.639695123940101
 50
90.0
 51
164.9381082228993
 73
     1
 72
     2
 10
193.4479499375438
 20
726.6490892352153
 40
1.20565616839299
 50
164.9381082228998
 51
195.0618917770897
 73
     1
 72
     2
 10
193.8670777810055
 20
726.7618795972503
 40
1.639695123940503
 50
195.0618917771007
 51
275.1581447696764
 73
     1
 72
     2
 10
193.5782216862696
 20
729.961770180472
 40
4.852596863498833
 50
275.1581447696374
 51
285.9799912583386
 73
     1
 72
     1
 10
194.9141496033863
 20
725.2966878746705
 11
194.9141496033863
 21
726.1692048814739
 72
     2
 10
193.7360945613624
 20
728.0595556006236
 40
2.227384008972719
 50
58.06909105005989
 51
71.55192388186632
 73
     0
 72
     2
 10
194.1542622950244
 20
726.8060098245869
 40
0.905929784985273
 50
71.55192388192168
 51
113.3722778881898
 73
     0
 72
     2
 10
193.9978222623212
 20
726.4440178058769
 40
0.5115800601960487
 50
113.3722778881576
 51
151.4785267423078
 73
     0
 72
     2
 10
194.3751795204027
 20
726.6490892352153
 40
0.9410597353350602
 50
151.4785267423338
 51
208.5214732576419
 73
     0
 72
     2
 10
193.9978222623212
 20
726.8541606645545
 40
0.5115800601944143
 50
208.5214732575803
 51
250.6628567805147
 73
     0
 72
     2
 10
194.1444922604249
 20
726.4362056841715
 40
0.9545230068260935
 50
250.6628567805703
 51
270.0
 73
     0
 72
     1
 10
194.1444922604249
 20
727.3907286909975
 11
195.248131559993
 21
727.3907286909975
 72
     1
 10
195.248131559993
 20
727.3907286909975
 11
195.248131559993
 21
725.1221844733102
 72
     1
 10
195.248131559993
 20
725.1221844733102
 11
196.4409242621607
 21
725.1221844733102
 72
     1
 10
196.4409242621607
 20
725.1221844733102
 11
196.4409242621607
 21
727.3907286909975
 72
     1
 10
196.4409242621607
 20
727.3907286909975
 11
197.2520232996341
 21
727.3907286909975
 72
     1
 10
197.2520232996341
 20
727.3907286909975
 11
197.2520232996341
 21
728.1759939971214
 72
     1
 10
197.2520232996341
 20
728.1759939971214
 11
193.8670777810055
 21
728.1759939971207
 97
       18
330
17E
330
17D
330
17C
330
17B
330
180
330
11A
330
1CB
330
1AC
330
1CA
330
1AD
330
1C9
330
1C8
330
11B
330
1C7
330
1C6
330
1AE
330
1AF
330
17F
 75
     1
 76
     2
 52
45.0
 41
0.1
 77
     0
 78
     1
 53
45.0
 43
62.7811309658083
 44
-72.3161373035813
 45
-0.1414213562373095
 46
0.0
 79
     0
 98
        1
 10
0.0
 20
0.0
  0
HATCH
  5
201
330
81
100
AcDbEntity
  8
1
  6
Continuous
 62
     2
100
AcDbHatch
 10
0.0
 20
0.0
 30
0.0
210
0.0
220
0.0
230
1.0
  2
CUSTOM3
 70
     0
 71
     1
 91
        1
 92
        1
 93
       18
 72
     2
 10
193.8670777810055
 20
726.5362988731806
 40
1.639695123940101
 50
90.0
 51
164.9381082228993
 73
     1
 72
     2
 10
193.4479499375438
 20
726.6490892352153
 40
1.20565616839299
 50
164.9381082228998
 51
195.0618917770897
 73
     1
 72
     2
 10
193.8670777810055
 20
726.7618795972503
 40
1.639695123940503
 50
195.0618917771007
 51
275.1581447696764
 73
     1
 72
     2
 10
193.5782216862696
 20
729.961770180472
 40
4.852596863498833
 50
275.1581447696374
 51
285.9799912583386
 73
     1
 72
     1
 10
194.9141496033863
 20
725.2966878746705
 11
194.9141496033863
 21
726.1692048814739
 72
     2
 10
193.7360945613624
 20
728.0595556006236
 40
2.227384008972719
 50
58.06909105005989
 51
71.55192388186632
 73
     0
 72
     2
 10
194.1542622950244
 20
726.8060098245869
 40
0.905929784985273
 50
71.55192388192168
 51
113.3722778881898
 73
     0
 72
     2
 10
193.9978222623212
 20
726.4440178058769
 40
0.5115800601960487
 50
113.3722778881576
 51
151.4785267423078
 73
     0
 72
     2
 10
194.3751795204027
 20
726.6490892352153
 40
0.9410597353350602
 50
151.4785267423338
 51
208.5214732576419
 73
     0
 72
     2
 10
193.9978222623212
 20
726.8541606645545
 40
0.5115800601944143
 50
208.5214732575803
 51
250.6628567805147
 73
     0
 72
     2
 10
194.1444922604249
 20
726.4362056841715
 40
0.9545230068260935
 50
250.6628567805703
 51
270.0
 73
     0
 72
     1
 10
194.1444922604249
 20
727.3907286909975
 11
195.248131559993
 21
727.3907286909975
 72
     1
 10
195.248131559993
 20
727.3907286909975
 11
195.248131559993
 21
725.1221844733102
 72
     1
 10
195.248131559993
 20
725.1221844733102
 11
196.4409242621607
 21
725.1221844733102
 72
     1
 10
196.4409242621607
 20
725.1221844733102
 11
196.4409242621607
 21
727.3907286909975
 72
     1
 10
196.4409242621607
 20
727.3907286909975
 11
197.2520232996341
 21
727.3907286909975
 72
     1
 10
197.2520232996341
 20
727.3907286909975
 11
197.2520232996341
 21
728.1759939971214
 72
     1
 10
197.2520232996341
 20
728.1759939971214
 11
193.8670777810055
 21
728.1759939971207
 97
       18
330
17E
330
17D
330
17C
330
17B
330
180
330
11A
330
1CB
330
1AC
330
1CA
330
1AD
330
1C9
330
1C8
330
11B
330
1C7
330
1C6
330
1AE
330
1AF
330
17F
 75
     1
 76
     2
 52
45.0
 41
0.1
 77
     0
 78
     1
 53
45.0
 43
62.7811309658083
 44
-72.3161373035813
 45
-0.1414213562373095
 46
0.0
 79
     0
 98
        1
 10
0.0
 20
0.0
  0
HATCH
  5
202
330
81
100
AcDbEntity
  8
1
  6
Continuous
 62
     2
100
AcDbHatch
 10
0.0
 20
0.0
 30
0.0
210
0.0
220
0.0
230
1.0
  2
CUSTOM4
 70
     0
 71
     1
 91
        4
 92
        1
 93
        8
 72
     2
 10
169.7649186843124
 20
731.1109398578936
 40
0.4242446153838273
 50
90.0
 51
180.0
 73
     1
 72
     1
 10
169.3406740689296
 20
731.1109398578936
 11
169.3406740689296
 21
725.5464290886935
 72
     2
 10
169.7649186843124
 20
725.5464290886935
 40
0.4242446153828041
 50
180.0
 51
270.0
 73
     1
 72
     1
 10
169.7649186843124
 20
725.1221844733102
 11
175.2382307750293
 21
725.1221844733102
 72
     2
 10
175.2382307750293
 20
725.5464290886935
 40
0.4242446153832589
 50
270.0
 51
360.0
 73
     1
 72
     1
 10
175.6624753904132
 20
725.5464290886935
 11
175.6624753904132
 21
731.1109398578936
 72
     2
 10
175.2382307750293
 20
731.1109398578936
 40
0.4242446153838841
 50
0.0
 51
90.0
 73
     1
 72
     1
 10
175.2382307750293
 20
731.5351844732775
 11
169.7649186843124
 21
731.5351844732775
 97
        8
330
1BF
330
149
330
1BE
330
14A
330
1B5
330
147
330
1C0
330
148
 92
       16
 93
       12
 72
     1
 10
170.3588133610589
 20
725.8347400288671
 11
171.8346466220685
 21
725.8347400288671
 72
     2
 10
171.8346466220685
 20
726.1504569519439
 40
0.3157169230767067
 50
270.0
 51
360.0
 73
     1
 72
     1
 10
172.1503635451451
 20
726.1504569519439
 11
172.1503635451451
 21
727.6812278834755
 72
     2
 10
171.8346466220685
 20
727.6812278834755
 40
0.315716923076593
 50
0.0
 51
64.80558935144188
 73
     1
 72
     2
 10
172.3572310696435
 20
728.7920576295381
 40
0.9118975235576555
 50
115.1944106485089
 51
244.8055893514789
 73
     0
 72
     2
 10
171.8346466220685
 20
729.9028873756004
 40
0.3157169230761051
 50
295.1944106485581
 51
360.0
 73
     1
 72
     1
 10
172.1503635451451
 20
729.9028873756004
 11
172.1503635451451
 21
730.5069119946609
 72
     2
 10
171.8346466220685
 20
730.5069119946609
 40
0.315716923076593
 50
0.0
 51
90.0
 73
     1
 72
     1
 10
171.8346466220685
 20
730.822628917737
 11
170.3588133610589
 21
730.822628917737
 72
     2
 10
170.3588133610589
 20
730.5069119946609
 40
0.3157169230761383
 50
90.0
 51
180.0
 73
     1
 72
     1
 10
170.0430964379833
 20
730.5069119946609
 11
170.0430964379833
 21
726.1504569519439
 72
     2
 10
170.3588133610589
 20
726.1504569519439
 40
0.3157169230755983
 50
180.0
 51
270.0
 73
     1
 97
       12
330
14E
330
1B2
330
14D
330
1C3
330
14C
330
1C2
330
1B3
330
1B4
330
14B
330
1C1
330
146
330
1C4
 92
       16
 93
        8
 72
     2
 10
172.4083193495028
 20
728.7920576295381
 40
0.9118481501444455
 50
295.3740086781789
 51
424.6259913218089
 73
     1
 72
     2
 10
172.9343620475907
 20
729.9011992295059
 40
0.315716923076792
 50
115.3740086783651
 51
180.0
 73
     0
 72
     1
 10
172.6186451245139
 20
729.9011992295059
 11
172.6186451245139
 21
730.5067345180128
 72
     2
 10
172.9343620475907
 20
730.5067345180128
 40
0.3157169230761283
 50
180.0
 51
269.8110329574335
 73
     0
 72
     2
 10
172.9399781829008
 20
728.8038995704437
 40
2.018561131933267
 50
269.8110329575802
 51
450.1889670424198
 73
     0
 72
     2
 10
172.9343620475907
 20
727.1010646228747
 40
0.315716923076792
 50
90.18896704256652
 51
180.0
 73
     0
 72
     1
 10
172.6186451245139
 20
727.1010646228747
 11
172.6186451245139
 21
727.6829160295698
 72
     2
 10
172.9343620475907
 20
727.6829160295698
 40
0.3157169230764815
 50
180.0
 51
244.6259913216437
 73
     0
 97
        8
330
1CD
330
1A9
330
182
330
1CC
330
1AA
330
1AB
330
181
330
1A8
 92
       16
 93
        1
 72
     2
 10
172.38450433483
 20
728.7920576295381
 40
0.470978932778479
 50
0.0
 51
360.0
 73
     1
 97
        1
330
1D3
 75
     1
 76
     2
 52
45.0
 41
0.1
 77
     0
 78
     1
 53
45.0
 43
62.7811309658083
 44
-72.3161373035813
 45
-0.1414213562373095
 46
0.0
 79
     0
 98
        1
 10
0.0
 20
0.0
  0
HATCH
  5
203
330
81
100
AcDbEntity
  8
1
  6
Continuous
 62
     2
100
AcDbHatch
 10
0.0
 20
0.0
 30
0.0
210
0.0
220
0.0
230
1.0
  2
CUSTOM5
 70
     0
 71
     1
 91
        4
 92
        1
 93
        8
 72
     2
 10
169.7649186843124
 20
731.1109398578936
 40
0.4242446153838273
 50
90.0
 51
180.0
 73
     1
 72
     1
 10
169.3406740689296
 20
731.1109398578936
 11
169.3406740689296
 21
725.5464290886935
 72
     2
 10
169.7649186843124
 20
725.5464290886935
 40
0.4242446153828041
 50
180.0
 51
270.0
 73
     1
 72
     1
 10
169.7649186843124
 20
725.1221844733102
 11
175.2382307750293
 21
725.1221844733102
 72
     2
 10
175.2382307750293
 20
725.5464290886935
 40
0.4242446153832589
 50
270.0
 51
360.0
 73
     1
 72
     1
 10
175.6624753904132
 20
725.5464290886935
 11
175.6624753904132
 21
731.1109398578936
 72
     2
 10
175.2382307750293
 20
731.1109398578936
 40
0.4242446153838841
 50
0.0
 51
90.0
 73
     1
 72
     1
 10
175.2382307750293
 20
731.5351844732775
 11
169.7649186843124
 21
731.5351844732775
 97
        8
330
1BF
330
149
330
1BE
330
14A
330
1B5
330
147
330
1C0
330
148
 92
       16
 93
       12
 72
     1
 10
170.3588133610589
 20
725.8347400288671
 11
171.8346466220685
 21
725.8347400288671
 72
     2
 10
171.8346466220685
 20
726.1504569519439
 40
0.3157169230767067
 50
270.0
 51
360.0
 73
     1
 72
     1
 10
172.1503635451451
 20
726.1504569519439
 11
172.1503635451451
 21
727.6812278834755
 72
     2
 10
171.8346466220685
 20
727.6812278834755
 40
0.315716923076593
 50
0.0
 51
64.80558935144188
 73
     1
 72
     2
 10
172.3572310696435
 20
728.7920576295381
 40
0.9118975235576555
 50
115.1944106485089
 51
244.8055893514789
 73
     0
 72
     2
 10
171.8346466220685
 20
729.9028873756004
 40
0.3157169230761051
 50
295.1944106485581
 51
360.0
 73
     1
 72
     1
 10
172.1503635451451
 20
729.9028873756004
 11
172.1503635451451
 21
730.5069119946609
 72
     2
 10
171.8346466220685
 20
730.5069119946609
 40
0.315716923076593
 50
0.0
 51
90.0
 73
     1
 72
     1
 10
171.8346466220685
 20
730.822628917737
 11
170.3588133610589
 21
730.822628917737
 72
     2
 10
170.3588133610589
 20
730.5069119946609
 40
0.3157169230761383
 50
90.0
 51
180.0
 73
     1
 72
     1
 10
170.0430964379833
 20
730.5069119946609
 11
170.0430964379833
 21
726.1504569519439
 72
     2
 10
170.3588133610589
 20
726.1504569519439
 40
0.3157169230755983
 50
180.0
 51
270.0
 73
     1
 97
       12
330
14E
330
1B2
330
14D
330
1C3
330
14C
330
1C2
330
1B3
330
1B4
330
14B
330
1C1
330
146
330
1C4
 92
       16
 93
        8
 72
     2
 10
172.4083193495028
 20
728.7920576295381
 40
0.9118481501444455
 50
295.3740086781789
 51
424.6259913218089
 73
     1
 72
     2
 10
172.9343620475907
 20
729.9011992295059
 40
0.315716923076792
 50
115.3740086783651
 51
180.0
 73
     0
 72
     1
 10
172.6186451245139
 20
729.9011992295059
 11
172.6186451245139
 21
730.5067345180128
 72
     2
 10
172.9343620475907
 20
730.5067345180128
 40
0.3157169230761283
 50
180.0
 51
269.8110329574335
 73
     0
 72
     2
 10
172.9399781829008
 20
728.8038995704437
 40
2.018561131933267
 50
269.8110329575802
 51
450.1889670424198
 73
     0
 72
     2
 10
172.9343620475907
 20
727.1010646228747
 40
0.315716923076792
 50
90.18896704256652
 51
180.0
 73
     0
 72
     1
 10
172.6186451245139
 20
727.1010646228747
 11
172.6186451245139
 21
727.6829160295698
 72
     2
 10
172.9343620475907
 20
727.6829160295698
 40
0.3157169230764815
 50
180.0
 51
244.6259913216437
 73
     0
 97
        8
330
1CD
330
1A9
330
182
330
1CC
330
1AA
330
1AB
330
181
330
1A8
 92
       16
 93
        1
 72
     2
 10
172.38450433483
 20
728.7920576295381
 40
0.470978932778479
 50
0.0
 51
360.0
 73
     1
 97
        1
330
1D3
 75
     1
 76
     2
 52
45.0
 41
0.1
 77
     0
 78
     1
 53
45.0
 43
62.7811309658083
 44
-72.3161373035813
 45
-0.1414213562373095
 46
0.0
 79
     0
 98
        1
 10
0.0
 20
0.0
  0
HATCH
  5
204
330
81
100
AcDbEntity
  8
1
  6
Continuous
 62
     2
100
AcDbHatch
 10
0.0
 20
0.0
 30
0.0
210
0.0
220
0.0
230
1.0
  2
CUSTOM6
 70
     0
 71
     1
 91
        2
 92
        1
 93
       12
 72
     2
 10
184.4400826883018
 20
730.0082797113898
 40
1.526904761905826
 50
90.0
 51
270.0
 73
     1
 72
     1
 10
184.4400826883018
 20
728.4813749494845
 11
187.5904024120827
 21
728.4813749494845
 72
     1
 10
187.5904024120827
 20
728.4813749494845
 11
187.5904024120827
 21
729.1793885549268
 72
     1
 10
187.5904024120827
 20
729.1793885549268
 11
186.2544745856551
 21
729.1793885549268
 72
     1
 10
186.2544745856551
 20
729.1793885549268
 11
186.2544745856551
 21
729.6592729086686
 72
     1
 10
186.2544745856551
 20
729.6592729086686
 11
187.5904024120827
 21
729.6592729086686
 72
     1
 10
187.5904024120827
 20
729.6592729086686
 11
187.5904024120827
 21
730.357286514111
 72
     1
 10
187.5904024120827
 20
730.357286514111
 11
186.2544745856551
 21
730.357286514111
 72
     1
 10
186.2544745856551
 20
730.357286514111
 11
186.2544745856551
 21
730.8371708678527
 72
     1
 10
186.2544745856551
 20
730.8371708678527
 11
187.5904024120827
 21
730.8371708678527
 72
     1
 10
187.5904024120827
 20
730.8371708678527
 11
187.5904024120827
 21
731.5351844732957
 72
     1
 10
187.5904024120827
 20
731.5351844732957
 11
184.4400826883018
 21
731.5351844732957
 97
       12
330
13D
330
137
330
15E
330
15D
330
15C
330
15B
330
138
330
139
330
13A
330
13B
330
1B0
330
13C
 92
       16
 93
        4
 72
     2
 10
184.8560947348132
 20
730.0082797113898
 40
0.7717997786795895
 50
141.8795802028517
 51
218.1204197971549
 73
     1
 72
     2
 10
184.656354698467
 20
729.8515485332694
 40
0.5179085730134915
 50
218.1204197971384
 51
321.8795802028538
 73
     1
 72
     2
 10
184.4566146621208
 20
730.0082797113898
 40
0.7717997786795479
 50
321.8795802028385
 51
398.1204197971548
 73
     1
 72
     2
 10
184.656354698467
 20
730.1650108895103
 40
0.5179085730133318
 50
38.12041979713626
 51
141.8795802028715
 73
     1
 97
        4
330
1BD
330
1BC
330
1B7
330
1B6
 75
     1
 76
     2
 52
45.0
 41
0.1
 77
     0
 78
     1
 53
45.0
 43
62.7811309658083
 44
-72.3161373035813
 45
-0.1414213562373095
 46
0.0
 79
     0
 98
        1
 10
0.0
 20
0.0
  0
HATCH
  5
205
330
81
100
AcDbEntity
  8
1
  6
Continuous
 62
     2
100
AcDbHatch
 10
0.0
 20
0.0
 30
0.0
210
0.0
220
0.0
230
1.0
  2
CUSTOM7
 70
     0
 71
     1
 91
        2
 92
        1
 93
       12
 72
     2
 10
184.4400826883018
 20
730.0082797113898
 40
1.526904761905826
 50
90.0
 51
270.0
 73
     1
 72
     1
 10
184.4400826883018
 20
728.4813749494845
 11
187.5904024120827
 21
728.4813749494845
 72
     1
 10
187.5904024120827
 20
728.4813749494845
 11
187.5904024120827
 21
729.1793885549268
 72
     1
 10
187.5904024120827
 20
729.1793885549268
 11
186.2544745856551
 21
729.1793885549268
 72
     1
 10
186.2544745856551
 20
729.1793885549268
 11
186.2544745856551
 21
729.6592729086686
 72
     1
 10
186.2544745856551
 20
729.6592729086686
 11
187.5904024120827
 21
729.6592729086686
 72
     1
 10
187.5904024120827
 20
729.6592729086686
 11
187.5904024120827
 21
730.357286514111
 72
     1
 10
187.5904024120827
 20
730.357286514111
 11
186.2544745856551
 21
730.357286514111
 72
     1
 10
186.2544745856551
 20
730.357286514111
 11
186.2544745856551
 21
730.8371708678527
 72
     1
 10
186.2544745856551
 20
730.8371708678527
 11
187.5904024120827
 21
730.8371708678527
 72
     1
 10
187.5904024120827
 20
730.8371708678527
 11
187.5904024120827
 21
731.5351844732957
 72
     1
 10
187.5904024120827
 20
731.5351844732957
 11
184.4400826883018
 21
731.5351844732957
 97
       12
330
13D
330
137
330
15E
330
15D
330
15C
330
15B
330
138
330
139
330
13A
330
13B
330
1B0
330
13C
 92
       16
 93
        4
 72
     2
 10
184.8560947348132
 20
730.0082797113898
 40
0.7717997786795895
 50
141.8795802028517
 51
218.1204197971549
 73
     1
 72
     2
 10
184.656354698467
 20
729.8515485332694
 40
0.5179085730134915
 50
218.1204197971384
 51
321.8795802028538
 73
     1
 72
     2
 10
184.4566146621208
 20
730.0082797113898
 40
0.7717997786795479
 50
321.8795802028385
 51
398.1204197971548
 73
     1
 72
     2
 10
184.656354698467
 20
730.1650108895103
 40
0.5179085730133318
 50
38.12041979713626
 51
141.8795802028715
 73
     1
 97
        4
330
1BD
330
1BC
330
1B7
330
1B6
 75
     1
 76
     2
 52
45.0
 41
0.1
 77
     0
 78
     1
 53
45.0
 43
62.7811309658083
 44
-72.3161373035813
 45
-0.1414213562373095
 46
0.0
 79
     0
 98
        1
 10
0.0
 20
0.0
  0
HATCH
  5
206
330
81
100
AcDbEntity
  8
1
  6
Continuous
 62
     2
100
AcDbHatch
 10
0.0
 20
0.0
 30
0.0
210
0.0
220
0.0
230
1.0
  2
CUSTOM8
 70
     0
 71
     1
 91
        2
 92
        1
 93
        4
 72
     2
 10
180.4144673258401
 20
726.6490892352153
 40
1.458034083651667
 50
117.5481481756588
 51
242.451851824335
 73
     1
 72
     2
 10
180.6954072176735
 20
727.1876642455188
 40
2.065479772208586
 50
242.4518518243377
 51
297.5481481756867
 73
     1
 72
     2
 10
180.9763471095067
 20
726.6490892352153
 40
1.458034083651929
 50
297.5481481757076
 51
422.4518518242986
 73
     1
 72
     2
 10
180.6954072176735
 20
726.1105142249125
 40
2.065479772208744
 50
62.45185182430892
 51
117.5481481756666
 73
     1
 97
        4
330
1BB
330
1B8
330
1BA
330
1B9
 92
       16
 93
        4
 72
     2
 10
180.6954072176735
 20
726.8058204133359
 40
0.5179085730132454
 50
38.12041979715975
 51
141.8795802028616
 73
     1
 72
     2
 10
180.8951472540195
 20
726.6490892352153
 40
0.771799778679551
 50
141.879580202828
 51
218.1204197971587
 73
     1
 72
     2
 10
180.6954072176735
 20
726.4923580570955
 40
0.5179085730138424
 50
218.1204197971879
 51
321.8795802027908
 73
     1
 72
     2
 10
180.4956671813271
 20
726.6490892352153
 40
0.7717997786795
 50
321.8795802028465
 51
398.1204197971668
 73
     1
 97
        4
330
19E
330
19F
330
1A0
330
19D
 75
     1
 76
     2
 52
45.0
 41
0.1
 77
     0
 78
     1
 53
45.0
 43
62.7811309658083
 44
-72.3161373035813
 45
-0.1414213562373095
 46
0.0
 79
     0
 98
        1
 10
0.0
 20
0.0
  0
HATCH
  5
207
330
81
100
AcDbEntity
  8
1
  6
Continuous
 62
     2
100
AcDbHatch
 10
0.0
 20
0.0
 30
0.0
210
0.0
220
0.0
230
1.0
  2
CUSTOM9
 70
     0
 71
     1
 91
        2
 92
        1
 93
        4
 72
     2
 10
180.4144673258401
 20
726.6490892352153
 40
1.458034083651667
 50
117.5481481756588
 51
242.451851824335
 73
     1
 72
     2
 10
180.6954072176735
 20
727.1876642455188
 40
2.065479772208586
 50
242.4518518243377
 51
297.5481481756867
 73
     1
 72
     2
 10
180.9763471095067
 20
726.6490892352153
 40
1.458034083651929
 50
297.5481481757076
 51
422.4518518242986
 73
     1
 72
     2
 10
180.6954072176735
 20
726.1105142249125
 40
2.065479772208744
 50
62.45185182430892
 51
117.5481481756666
 73
     1
 97
        4
330
1BB
330
1B8
330
1BA
330
1B9
 92
       16
 93
        4
 72
     2
 10
180.6954072176735
 20
726.8058204133359
 40
0.5179085730132454
 50
38.12041979715975
 51
141.8795802028616
 73
     1
 72
     2
 10
180.8951472540195
 20
726.6490892352153
 40
0.771799778679551
 50
141.879580202828
 51
218.1204197971587
 73
     1
 72
     2
 10
180.6954072176735
 20
726.4923580570955
 40
0.5179085730138424
 50
218.1204197971879
 51
321.8795802027908
 73
     1
 72
     2
 10
180.4956671813271
 20
726.6490892352153
 40
0.7717997786795
 50
321.8795802028465
 51
398.1204197971668
 73
     1
 97
        4
330
19E
330
19F
330
1A0
330
19D
 75
     1
 76
     2
 52
45.0
 41
0.1
 77
     0
 78
     1
 53
45.0
 43
62.7811309658083
 44
-72.3161373035813
 45
-0.1414213562373095
 46
0.0
 79
     0
 98
        1
 10
0.0
 20
0.0
  0
HATCH
  5
208
330
81
100
AcDbEntity
  8
1
  6
Continuous
 62
     2
100
AcDbHatch
 10
0.0
 20
0.0
 30
0.0
210
0.0
220
0.0
230
1.0
  2
CUSTOM10
 70
     0
 71
     1
 91
        2
 92
        1
 93
        6
 72
     1
 10
176.13959247128
 20
731.5351844732957
 11
176.13959247128
 21
728.4813749494845
 72
     1
 10
176.13959247128
 20
728.4813749494845
 11
177.380096881534
 21
728.4813749494845
 72
     1
 10
177.380096881534
 20
728.4813749494845
 11
177.380096881534
 21
729.4244531906282
 72
     1
 10
177.380096881534
 20
729.4244531906282
 11
178.1388644693144
 21
729.4244531906282
 72
     2
 10
178.1388644693144
 20
730.4798188319619
 40
1.055365641333651
 50
270.0
 51
450.0
 73
     1
 72
     1
 10
178.1388644693144
 20
731.5351844732957
 11
176.13959247128
 21
731.5351844732957
 97
        6
330
1C5
330
14F
330
145
330
144
330
151
330
150
 92
       16
 93
        4
 72
     1
 10
177.697391943076
 20
730.8720786278557
 11
177.380096881534
 21
730.8720786278557
 72
     1
 10
177.380096881534
 20
730.8720786278557
 11
177.380096881534
 21
730.1663509785133
 72
     1
 10
177.380096881534
 20
730.1663509785133
 11
177.697391943076
 21
730.1663509785133
 72
     2
 10
177.697391943076
 20
730.5192148031845
 40
0.3528638246712035
 50
270.0
 51
450.0
 73
     1
 97
        4
330
152
330
143
330
153
330
1B1
 75
     1
 76
     2
 52
45.0
 41
0.1
 77
     0
 78
     1
 53
45.0
 43
62.7811309658083
 44
-72.3161373035813
 45
-0.1414213562373095
 46
0.0
 79
     0
 98
        1
 10
0.0
 20
0.0
  0
HATCH
  5
209
330
81
100
AcDbEntity
  8
1
  6
Continuous
 62
     2
100
AcDbHatch
 10
0.0
 20
0.0
 30
0.0
210
0.0
220
0.0
230
1.0
  2
CUSTOM11
 70
     0
 71
     1
 91
        2
 92
        1
 93
        6
 72
     1
 10
176.13959247128
 20
731.5351844732957
 11
176.13959247128
 21
728.4813749494845
 72
     1
 10
176.13959247128
 20
728.4813749494845
 11
177.380096881534
 21
728.4813749494845
 72
     1
 10
177.380096881534
 20
728.4813749494845
 11
177.380096881534
 21
729.4244531906282
 72
     1
 10
177.380096881534
 20
729.4244531906282
 11
178.1388644693144
 21
729.4244531906282
 72
     2
 10
178.1388644693144
 20
730.4798188319619
 40
1.055365641333651
 50
270.0
 51
450.0
 73
     1
 72
     1
 10
178.1388644693144
 20
731.5351844732957
 11
176.13959247128
 21
731.5351844732957
 97
        6
330
1C5
330
14F
330
145
330
144
330
151
330
150
 92
       16
 93
        4
 72
     1
 10
177.697391943076
 20
730.8720786278557
 11
177.380096881534
 21
730.8720786278557
 72
     1
 10
177.380096881534
 20
730.8720786278557
 11
177.380096881534
 21
730.1663509785133
 72
     1
 10
177.380096881534
 20
730.1663509785133
 11
177.697391943076
 21
730.1663509785133
 72
     2
 10
177.697391943076
 20
730.5192148031845
 40
0.3528638246712035
 50
270.0
 51
450.0
 73
     1
 97
        4
330
152
330
143
330
153
330
1B1
 75
     1
 76
     2
 52
45.0
 41
0.1
 77
     0
 78
     1
 53
45.0
 43
62.7811309658083
 44
-72.3161373035813
 45
-0.1414213562373095
 46
0.0
 79
     0
 98
        1
 10
0.0
 20
0.0
  0
HATCH
  5
20A
330
81
100
AcDbEntity
  8
1
  6
Continuous
 62
     2
100
AcDbHatch
 10
0.0
 20
0.0
 30
0.0
210
0.0
220
0.0
230
1.0
  2
CUSTOM12
 70
     0
 71
     1
 91
        1
 92
        1
 93
       12
 72
     1
 10
195.7538756657132
 20
731.5351844732957
 11
197.1565998834604
 21
731.5351844732957
 72
     1
 10
197.1565998834604
 20
731.5351844732957
 11
195.8540702526938
 21
730.0622339432593
 72
     1
 10
195.8540702526938
 20
730.0622339432593
 11
197.2520232996341
 21
728.4813749494845
 72
     1
 10
197.2520232996341
 20
728.4813749494845
 11
195.8492990818858
 21
728.4813749494845
 72
     1
 10
195.8492990818858
 20
728.4813749494845
 11
195.1527081438204
 21
729.2691067347782
 72
     1
 10
195.1527081438204
 20
729.2691067347782
 11
194.4561172057546
 21
728.4813749494845
 72
     1
 10
194.4561172057546
 20
728.4813749494845
 11
193.0533929880065
 21
728.4813749494845
 72
     1
 10
193.0533929880065
 20
728.4813749494845
 11
194.4513460349468
 21
730.0622339432593
 72
     1
 10
194.4513460349468
 20
730.0622339432593
 11
193.1488164041793
 21
731.5351844732957
 72
     1
 10
193.1488164041793
 20
731.5351844732957
 11
194.5515406219285
 21
731.5351844732957
 72
     1
 10
194.5515406219285
 20
731.5351844732957
 11
195.1527081438204
 21
730.8553611517401
 72
     1
 10
195.1527081438204
 20
730.8553611517401
 11
195.7538756657132
 21
731.5351844732957
 97
       12
330
11E
330
177
330
176
330
175
330
174
330
11F
330
120
330
11C
330
11D
330
17A
330
179
330
178
 75
     1
 76
     2
 52
45.0
 41
0.1
 77
     0
 78
     1
 53
45.0
 43
62.7811309658083
 44
-72.3161373035813
 45
-0.1414213562373095
 46
0.0
 79
     0
 98
        1
 10
0.0
 20
0.0
  0
HATCH
  5
20B
330
81
100
AcDbEntity
  8
1
  6
Continuous
 62
     2
100
AcDbHatch
 10
0.0
 20
0.0
 30
0.0
210
0.0
220
0.0
230
1.0
  2
CUSTOM13
 70
     0
 71
     1
 91
        1
 92
        1
 93
       12
 72
     1
 10
195.7538756657132
 20
731.5351844732957
 11
197.1565998834604
 21
731.5351844732957
 72
     1
 10
197.1565998834604
 20
731.5351844732957
 11
195.8540702526938
 21
730.0622339432593
 72
     1
 10
195.8540702526938
 20
730.0622339432593
 11
197.2520232996341
 21
728.4813749494845
 72
     1
 10
197.2520232996341
 20
728.4813749494845
 11
195.8492990818858
 21
728.4813749494845
 72
     1
 10
195.8492990818858
 20
728.4813749494845
 11
195.1527081438204
 21
729.2691067347782
 72
     1
 10
195.1527081438204
 20
729.2691067347782
 11
194.4561172057546
 21
728.4813749494845
 72
     1
 10
194.4561172057546
 20
728.4813749494845
 11
193.0533929880065
 21
728.4813749494845
 72
     1
 10
193.0533929880065
 20
728.4813749494845
 11
194.4513460349468
 21
730.0622339432593
 72
     1
 10
194.4513460349468
 20
730.0622339432593
 11
193.1488164041793
 21
731.5351844732957
 72
     1
 10
193.1488164041793
 20
731.5351844732957
 11
194.5515406219285
 21
731.5351844732957
 72
     1
 10
194.5515406219285
 20
731.5351844732957
 11
195.1527081438204
 21
730.8553611517401
 72
     1
 10
195.1527081438204
 20
730.8553611517401
 11
195.7538756657132
 21
731.5351844732957
 97
       12
330
11E
330
177
330
176
330
175
330
174
330
11F
330
120
330
11C
330
11D
330
17A
330
179
330
178
 75
     1
 76
     2
 52
45.0
 41
0.1
 77
     0
 78
     1
 53
45.0
 43
62.7811309658083
 44
-72.3161373035813
 45
-0.1414213562373095
 46
0.0
 79
     0
 98
        1
 10
0.0
 20
0.0
  0
HATCH
  5
20C
330
81
100
AcDbEntity
  8
1
  6
Continuous
 62
     2
100
AcDbHatch
 10
0.0
 20
0.0
 30
0.0
210
0.0
220
0.0
230
1.0
  2
CUSTOM14
 70
     0
 71
     1
 91
        1
 92
        1
 93
        4
 72
     1
 10
192.9341137177896
 20
731.5351844732957
 11
192.9341137177896
 21
728.4813749494845
 72
     1
 10
192.9341137177896
 20
728.4813749494845
 11
191.6936093075367
 21
728.4813749494845
 72
     1
 10
191.6936093075367
 20
728.4813749494845
 11
191.6936093075367
 21
731.5351844732957
 72
     1
 10
191.6936093075367
 20
731.5351844732957
 11
192.9341137177896
 21
731.5351844732957
 97
        4
330
172
330
121
330
171
330
173
 75
     1
 76
     2
 52
45.0
 41
0.1
 77
     0
 78
     1
 53
45.0
 43
62.7811309658083
 44
-72.3161373035813
 45
-0.1414213562373095
 46
0.0
 79
     0
 98
        1
 10
0.0
 20
0.0
  0
HATCH
  5
20D
330
81
100
AcDbEntity
  8
1
  6
Continuous
 62
     2
100
AcDbHatch
 10
0.0
 20
0.0
 30
0.0
210
0.0
220
0.0
230
1.0
  2
CUSTOM15
 70
     0
 71
     1
 91
        1
 92
        1
 93
        4
 72
     1
 10
192.9341137177896
 20
731.5351844732957
 11
192.9341137177896
 21
728.4813749494845
 72
     1
 10
192.9341137177896
 20
728.4813749494845
 11
191.6936093075367
 21
728.4813749494845
 72
     1
 10
191.6936093075367
 20
728.4813749494845
 11
191.6936093075367
 21
731.5351844732957
 72
     1
 10
191.6936093075367
 20
731.5351844732957
 11
192.9341137177896
 21
731.5351844732957
 97
        4
330
172
330
121
330
171
330
173
 75
     1
 76
     2
 52
45.0
 41
0.1
 77
     0
 78
     1
 53
45.0
 43
62.7811309658083
 44
-72.3161373035813
 45
-0.1414213562373095
 46
0.0
 79
     0
 98
        1
 10
0.0
 20
0.0
  0
HATCH
  5
20E
330
81
100
AcDbEntity
  8
1
  6
Continuous
 62
     2
100
AcDbHatch
 10
0.0
 20
0.0
 30
0.0
210
0.0
220
0.0
230
1.0
  2
CUSTOM16
 70
     0
 71
     1
 91
        2
 92
        1
 93
        8
 72
     1
 10
192.5436697142576
 20
725.1221844733102
 11
191.3031653040037
 21
725.1221844733102
 72
     1
 10
191.3031653040037
 20
725.1221844733102
 11
191.091685250528
 21
725.663145017528
 72
     1
 10
191.091685250528
 20
725.663145017528
 11
189.959243673854
 21
725.663145017528
 72
     1
 10
189.959243673854
 20
725.663145017528
 11
189.7477636203782
 21
725.1221844733102
 72
     1
 10
189.7477636203782
 20
725.1221844733102
 11
188.5072592101253
 21
725.1221844733102
 72
     1
 10
188.5072592101253
 20
725.1221844733102
 11
189.9052122570645
 21
728.1759939971214
 72
     1
 10
189.9052122570645
 20
728.1759939971214
 11
191.1457166673173
 21
728.1759939971214
 72
     1
 10
191.1457166673173
 20
728.1759939971214
 11
192.5436697142576
 21
725.1221844733102
 97
        8
330
16D
330
127
330
16C
330
16F
330
124
330
16E
330
125
330
126
 92
       16
 93
        3
 72
     1
 10
190.2252992249991
 20
726.3437082828345
 11
190.8256296993816
 21
726.3437082828345
 72
     1
 10
190.8256296993816
 20
726.3437082828345
 11
190.5254644621914
 21
727.1115232488213
 72
     1
 10
190.5254644621914
 20
727.1115232488213
 11
190.2252992249991
 21
726.3437082828345
 97
        3
330
123
330
122
330
170
 75
     1
 76
     2
 52
45.0
 41
0.1
 77
     0
 78
     1
 53
45.0
 43
62.7811309658083
 44
-72.3161373035813
 45
-0.1414213562373095
 46
0.0
 79
     0
 98
        1
 10
0.0
 20
0.0
  0
HATCH
  5
20F
330
81
100
AcDbEntity
  8
1
  6
Continuous
 62
     2
100
AcDbHatch
 10
0.0
 20
0.0
 30
0.0
210
0.0
220
0.0
230
1.0
  2
CUSTOM17
 70
     0
 71
     1
 91
        2
 92
        1
 93
        8
 72
     1
 10
192.5436697142576
 20
725.1221844733102
 11
191.3031653040037
 21
725.1221844733102
 72
     1
 10
191.3031653040037
 20
725.1221844733102
 11
191.091685250528
 21
725.663145017528
 72
     1
 10
191.091685250528
 20
725.663145017528
 11
189.959243673854
 21
725.663145017528
 72
     1
 10
189.959243673854
 20
725.663145017528
 11
189.7477636203782
 21
725.1221844733102
 72
     1
 10
189.7477636203782
 20
725.1221844733102
 11
188.5072592101253
 21
725.1221844733102
 72
     1
 10
188.5072592101253
 20
725.1221844733102
 11
189.9052122570645
 21
728.1759939971214
 72
     1
 10
189.9052122570645
 20
728.1759939971214
 11
191.1457166673173
 21
728.1759939971214
 72
     1
 10
191.1457166673173
 20
728.1759939971214
 11
192.5436697142576
 21
725.1221844733102
 97
        8
330
16D
330
127
330
16C
330
16F
330
124
330
16E
330
125
330
126
 92
       16
 93
        3
 72
     1
 10
190.2252992249991
 20
726.3437082828345
 11
190.8256296993816
 21
726.3437082828345
 72
     1
 10
190.8256296993816
 20
726.3437082828345
 11
190.5254644621914
 21
727.1115232488213
 72
     1
 10
190.5254644621914
 20
727.1115232488213
 11
190.2252992249991
 21
726.3437082828345
 97
        3
330
123
330
122
330
170
 75
     1
 76
     2
 52
45.0
 41
0.1
 77
     0
 78
     1
 53
45.0
 43
62.7811309658083
 44
-72.3161373035813
 45
-0.1414213562373095
 46
0.0
 79
     0
 98
        1
 10
0.0
 20
0.0
  0
HATCH
  5
210
330
81
100
AcDbEntity
  8
1
  6
Continuous
 62
     2
100
AcDbHatch
 10
0.0
 20
0.0
 30
0.0
210
0.0
220
0.0
230
1.0
  2
CUSTOM18
 70
     0
 71
     1
 91
        1
 92
        1
 93
        8
 72
     1
 10
186.349747070943
 20
728.1759939971214
 11
186.349747070943
 21
727.3907286909975
 72
     1
 10
186.349747070943
 20
727.3907286909975
 11
187.1608461084177
 21
727.3907286909975
 72
     1
 10
187.1608461084177
 20
727.3907286909975
 11
187.1608461084177
 21
725.1221844733102
 72
     1
 10
187.1608461084177
 20
725.1221844733102
 11
188.3536388105841
 21
725.1221844733102
 72
     1
 10
188.3536388105841
 20
725.1221844733102
 11
188.3536388105841
 21
727.3907286909975
 72
     1
 10
188.3536388105841
 20
727.3907286909975
 11
189.1647378480568
 21
727.3907286909975
 72
     1
 10
189.1647378480568
 20
727.3907286909975
 11
189.1647378480568
 21
728.1759939971214
 72
     1
 10
189.1647378480568
 20
728.1759939971214
 11
186.349747070943
 21
728.1759939971214
 97
        8
330
169
330
168
330
167
330
128
330
129
330
16B
330
12A
330
16A
 75
     1
 76
     2
 52
45.0
 41
0.1
 77
     0
 78
     1
 53
45.0
 43
62.7811309658083
 44
-72.3161373035813
 45
-0.1414213562373095
 46
0.0
 79
     0
 98
        1
 10
0.0
 20
0.0
  0
HATCH
  5
211
330
81
100
AcDbEntity
  8
1
  6
Continuous
 62
     2
100
AcDbHatch
 10
0.0
 20
0.0
 30
0.0
210
0.0
220
0.0
230
1.0
  2
CUSTOM19
 70
     0
 71
     1
 91
        1
 92
        1
 93
        8
 72
     1
 10
186.349747070943
 20
728.1759939971214
 11
186.349747070943
 21
727.3907286909975
 72
     1
 10
186.349747070943
 20
727.3907286909975
 11
187.1608461084177
 21
727.3907286909975
 72
     1
 10
187.1608461084177
 20
727.3907286909975
 11
187.1608461084177
 21
725.1221844733102
 72
     1
 10
187.1608461084177
 20
725.1221844733102
 11
188.3536388105841
 21
725.1221844733102
 72
     1
 10
188.3536388105841
 20
725.1221844733102
 11
188.3536388105841
 21
727.3907286909975
 72
     1
 10
188.3536388105841
 20
727.3907286909975
 11
189.1647378480568
 21
727.3907286909975
 72
     1
 10
189.1647378480568
 20
727.3907286909975
 11
189.1647378480568
 21
728.1759939971214
 72
     1
 10
189.1647378480568
 20
728.1759939971214
 11
186.349747070943
 21
728.1759939971214
 97
        8
330
169
330
168
330
167
330
128
330
129
330
16B
330
12A
330
16A
 75
     1
 76
     2
 52
45.0
 41
0.1
 77
     0
 78
     1
 53
45.0
 43
62.7811309658083
 44
-72.3161373035813
 45
-0.1414213562373095
 46
0.0
 79
     0
 98
        1
 10
0.0
 20
0.0
  0
HATCH
  5
212
330
81
100
AcDbEntity
  8
1
  6
Continuous
 62
     2
100
AcDbHatch
 10
0.0
 20
0.0
 30
0.0
210
0.0
220
0.0
230
1.0
  2
CUSTOM20
 70
     0
 71
     1
 91
        1
 92
        1
 93
       10
 72
     1
 10
189.0217536546821
 20
731.5351844732957
 11
187.8289609525157
 21
731.5351844732957
 72
     1
 10
187.8289609525157
 20
731.5351844732957
 11
187.8289609525157
 21
728.4813749494845
 72
     1
 10
187.8289609525157
 20
728.4813749494845
 11
189.0217536546821
 21
728.4813749494845
 72
     1
 10
189.0217536546821
 20
728.4813749494845
 11
189.0217536546821
 21
729.7901504596892
 72
     1
 10
189.0217536546821
 20
729.7901504596892
 11
190.2622580649362
 21
728.4813749494845
 72
     1
 10
190.2622580649362
 20
728.4813749494845
 11
191.4550507671028
 21
728.4813749494845
 72
     1
 10
191.4550507671028
 20
728.4813749494845
 11
191.4550507671028
 21
731.5351844732957
 72
     1
 10
191.4550507671028
 20
731.5351844732957
 11
190.2622580649362
 21
731.5351844732957
 72
     1
 10
190.2622580649362
 20
731.5351844732957
 11
190.2622580649362
 21
730.2264089630905
 72
     1
 10
190.2622580649362
 20
730.2264089630905
 11
189.0217536546821
 21
731.5351844732957
 97
       10
330
163
330
12D
330
12E
330
12F
330
130
330
166
330
12B
330
165
330
164
330
12C
 75
     1
 76
     2
 52
45.0
 41
0.1
 77
     0
 78
     1
 53
45.0
 43
62.7811309658083
 44
-72.3161373035813
 45
-0.1414213562373095
 46
0.0
 79
     0
 98
        1
 10
0.0
 20
0.0
  0
HATCH
  5
213
330
81
100
AcDbEntity
  8
1
  6
Continuous
 62
     2
100
AcDbHatch
 10
0.0
 20
0.0
 30
0.0
210
0.0
220
0.0
230
1.0
  2
CUSTOM21
 70
     0
 71
     1
 91
        1
 92
        1
 93
       10
 72
     1
 10
189.0217536546821
 20
731.5351844732957
 11
187.8289609525157
 21
731.5351844732957
 72
     1
 10
187.8289609525157
 20
731.5351844732957
 11
187.8289609525157
 21
728.4813749494845
 72
     1
 10
187.8289609525157
 20
728.4813749494845
 11
189.0217536546821
 21
728.4813749494845
 72
     1
 10
189.0217536546821
 20
728.4813749494845
 11
189.0217536546821
 21
729.7901504596892
 72
     1
 10
189.0217536546821
 20
729.7901504596892
 11
190.2622580649362
 21
728.4813749494845
 72
     1
 10
190.2622580649362
 20
728.4813749494845
 11
191.4550507671028
 21
728.4813749494845
 72
     1
 10
191.4550507671028
 20
728.4813749494845
 11
191.4550507671028
 21
731.5351844732957
 72
     1
 10
191.4550507671028
 20
731.5351844732957
 11
190.2622580649362
 21
731.5351844732957
 72
     1
 10
190.2622580649362
 20
731.5351844732957
 11
190.2622580649362
 21
730.2264089630905
 72
     1
 10
190.2622580649362
 20
730.2264089630905
 11
189.0217536546821
 21
731.5351844732957
 97
       10
330
163
330
12D
330
12E
330
12F
330
130
330
166
330
12B
330
165
330
164
330
12C
 75
     1
 76
     2
 52
45.0
 41
0.1
 77
     0
 78
     1
 53
45.0
 43
62.7811309658083
 44
-72.3161373035813
 45
-0.1414213562373095
 46
0.0
 79
     0
 98
        1
 10
0.0
 20
0.0
  0
HATCH
  5
214
330
81
100
AcDbEntity
  8
1
  6
Continuous
 62
     2
100
AcDbHatch
 10
0.0
 20
0.0
 30
0.0
210
0.0
220
0.0
230
1.0
  2
CUSTOM22
 70
     0
 71
     1
 91
        1
 92
        1
 93
       10
 72
     1
 10
183.7733148342635
 20
728.1759939971214
 11
182.580522132096
 21
728.1759939971214
 72
     1
 10
182.580522132096
 20
728.1759939971214
 11
182.580522132096
 21
725.1221844733102
 72
     1
 10
182.580522132096
 20
725.1221844733102
 11
183.7733148342635
 21
725.1221844733102
 72
     1
 10
183.7733148342635
 20
725.1221844733102
 11
183.7733148342635
 21
726.4309599835146
 72
     1
 10
183.7733148342635
 20
726.4309599835146
 11
185.0138192445165
 21
725.1221844733102
 72
     1
 10
185.0138192445165
 20
725.1221844733102
 11
186.2066119466829
 21
725.1221844733102
 72
     1
 10
186.2066119466829
 20
725.1221844733102
 11
186.2066119466829
 21
728.1759939971214
 72
     1
 10
186.2066119466829
 20
728.1759939971214
 11
185.0138192445165
 21
728.1759939971214
 72
     1
 10
185.0138192445165
 20
728.1759939971214
 11
185.0138192445165
 21
726.867218486916
 72
     1
 10
185.0138192445165
 20
726.867218486916
 11
183.7733148342635
 21
728.1759939971214
 97
       10
330
132
330
133
330
134
330
160
330
135
330
136
330
15F
330
162
330
161
330
131
 75
     1
 76
     2
 52
45.0
 41
0.1
 77
     0
 78
     1
 53
45.0
 43
62.7811309658083
 44
-72.3161373035813
 45
-0.1414213562373095
 46
0.0
 79
     0
 98
        1
 10
0.0
 20
0.0
  0
HATCH
  5
215
330
81
100
AcDbEntity
  8
1
  6
Continuous
 62
     2
100
AcDbHatch
 10
0.0
 20
0.0
 30
0.0
210
0.0
220
0.0
230
1.0
  2
CUSTOM23
 70
     0
 71
     1
 91
        1
 92
        1
 93
       10
 72
     1
 10
183.7733148342635
 20
728.1759939971214
 11
182.580522132096
 21
728.1759939971214
 72
     1
 10
182.580522132096
 20
728.1759939971214
 11
182.580522132096
 21
725.1221844733102
 72
     1
 10
182.580522132096
 20
725.1221844733102
 11
183.7733148342635
 21
725.1221844733102
 72
     1
 10
183.7733148342635
 20
725.1221844733102
 11
183.7733148342635
 21
726.4309599835146
 72
     1
 10
183.7733148342635
 20
726.4309599835146
 11
185.0138192445165
 21
725.1221844733102
 72
     1
 10
185.0138192445165
 20
725.1221844733102
 11
186.2066119466829
 21
725.1221844733102
 72
     1
 10
186.2066119466829
 20
725.1221844733102
 11
186.2066119466829
 21
728.1759939971214
 72
     1
 10
186.2066119466829
 20
728.1759939971214
 11
185.0138192445165
 21
728.1759939971214
 72
     1
 10
185.0138192445165
 20
728.1759939971214
 11
185.0138192445165
 21
726.867218486916
 72
     1
 10
185.0138192445165
 20
726.867218486916
 11
183.7733148342635
 21
728.1759939971214
 97
       10
330
132
330
133
330
134
330
160
330
135
330
136
330
15F
330
162
330
161
330
131
 75
     1
 76
     2
 52
45.0
 41
0.1
 77
     0
 78
     1
 53
45.0
 43
62.7811309658083
 44
-72.3161373035813
 45
-0.1414213562373095
 46
0.0
 79
     0
 98
        1
 10
0.0
 20
0.0
  0
HATCH
  5
216
330
81
100
AcDbEntity
  8
1
  6
Continuous
 62
     2
100
AcDbHatch
 10
0.0
 20
0.0
 30
0.0
210
0.0
220
0.0
230
1.0
  2
CUSTOM24
 70
     0
 71
     1
 91
        1
 92
        1
 93
       12
 72
     1
 10
182.7715198953282
 20
731.5351844732957
 11
182.7715198953282
 21
728.4813749494845
 72
     1
 10
182.7715198953282
 20
728.4813749494845
 11
181.5787271931617
 21
728.4813749494845
 72
     1
 10
181.5787271931617
 20
728.4813749494845
 11
181.5787271931617
 21
729.6156470583282
 72
     1
 10
181.5787271931617
 20
729.6156470583282
 11
180.5290696152543
 21
729.6156470583282
 72
     1
 10
180.5290696152543
 20
729.6156470583282
 11
180.5290696152543
 21
728.4813749494845
 72
     1
 10
180.5290696152543
 20
728.4813749494845
 11
179.3362769130877
 21
728.4813749494845
 72
     1
 10
179.3362769130877
 20
728.4813749494845
 11
179.3362769130877
 21
731.5351844732957
 72
     1
 10
179.3362769130877
 20
731.5351844732957
 11
180.5290696152543
 21
731.5351844732957
 72
     1
 10
180.5290696152543
 20
731.5351844732957
 11
180.5290696152543
 21
730.466351139961
 72
     1
 10
180.5290696152543
 20
730.466351139961
 11
181.5787271931617
 21
730.466351139961
 72
     1
 10
181.5787271931617
 20
730.466351139961
 11
181.5787271931617
 21
731.5351844732957
 72
     1
 10
181.5787271931617
 20
731.5351844732957
 11
182.7715198953282
 21
731.5351844732957
 97
       12
330
15A
330
159
330
158
330
140
330
141
330
157
330
142
330
156
330
155
330
154
330
13E
330
13F
 75
     1
 76
     2
 52
45.0
 41
0.1
 77
     0
 78
     1
 53
45.0
 43
62.7811309658083
 44
-72.3161373035813
 45
-0.1414213562373095
 46
0.0
 79
     0
 98
        1
 10
0.0
 20
0.0
  0
HATCH
  5
217
330
81
100
AcDbEntity
  8
1
  6
Continuous
 62
     2
100
AcDbHatch
 10
0.0
 20
0.0
 30
0.0
210
0.0
220
0.0
230
1.0
  2
CUSTOM25
 70
     0
 71
     1
 91
        1
 92
        1
 93
       12
 72
     1
 10
182.7715198953282
 20
731.5351844732957
 11
182.7715198953282
 21
728.4813749494845
 72
     1
 10
182.7715198953282
 20
728.4813749494845
 11
181.5787271931617
 21
728.4813749494845
 72
     1
 10
181.5787271931617
 20
728.4813749494845
 11
181.5787271931617
 21
729.6156470583282
 72
     1
 10
181.5787271931617
 20
729.6156470583282
 11
180.5290696152543
 21
729.6156470583282
 72
     1
 10
180.5290696152543
 20
729.6156470583282
 11
180.5290696152543
 21
728.4813749494845
 72
     1
 10
180.5290696152543
 20
728.4813749494845
 11
179.3362769130877
 21
728.4813749494845
 72
     1
 10
179.3362769130877
 20
728.4813749494845
 11
179.3362769130877
 21
731.5351844732957
 72
     1
 10
179.3362769130877
 20
731.5351844732957
 11
180.5290696152543
 21
731.5351844732957
 72
     1
 10
180.5290696152543
 20
731.5351844732957
 11
180.5290696152543
 21
730.466351139961
 72
     1
 10
180.5290696152543
 20
730.466351139961
 11
181.5787271931617
 21
730.466351139961
 72
     1
 10
181.5787271931617
 20
730.466351139961
 11
181.5787271931617
 21
731.5351844732957
 72
     1
 10
181.5787271931617
 20
731.5351844732957
 11
182.7715198953282
 21
731.5351844732957
 97
       12
330
15A
330
159
330
158
330
140
330
141
330
157
330
142
330
156
330
155
330
154
330
13E
330
13F
 75
     1
 76
     2
 52
45.0
 41
0.1
 77
     0
 78
     1
 53
45.0
 43
62.7811309658083
 44
-72.3161373035813
 45
-0.1414213562373095
 46
0.0
 79
     0
 98
        1
 10
0.0
 20
0.0
  0
ENDBLK
  5
83
330
81
100
AcDbEntity
  8
0
100
AcDbBlockEnd
  0
BLOCK
  5
85
330
84
100
AcDbEntity
  8
0
100
AcDbBlockBegin
  2
_punkt
 70
     0
 10
294.648823709117
 20
717.8286844732938
 30
0.0
  3
_punkt
  1

  0
LINE
  5
218
330
84
100
AcDbEntity
  8
1
  6
Continuous
 62
     2
100
AcDbLine
 10
294.648823709117
 20
717.8286844732938
 30
0.0
 11
294.648823709117
 21
712.8286844732944
 31
0.0
  0
LINE
  5
219
330
84
100
AcDbEntity
  8
1
  6
Continuous
 62
     2
100
AcDbLine
 10
294.648823709117
 20
717.8286844732938
 30
0.0
 11
299.6488237091147
 21
717.8286844732938
 31
0.0
  0
ENDBLK
  5
86
330
84
100
AcDbEntity
  8
0
100
AcDbBlockEnd
  0
BLOCK
  5
8A
330
87
100
AcDbEntity
  8
0
100
AcDbBlockBegin
  2
A3I_TD_PRF
 70
     0
 10
294.648823709117
 20
712.8286844732944
 30
0.0
  3
A3I_TD_PRF
  1

  0
INSERT
  5
88
330
87
100
AcDbEntity
  8
1
100
AcDbBlockReference
  2
_rahmen
 10
294.648823709117
 20
712.8286844732944
 30
0.0
  0
INSERT
  5
89
330
87
100
AcDbEntity
  8
1
100
AcDbBlockReference
  2
_punkt
 10
294.648823709117
 20
717.8286844732938
 30
0.0
  0
ENDBLK
  5
8B
330
87
100
AcDbEntity
  8
0
100
AcDbBlockEnd
  0
BLOCK
  5
8F
330
8C
100
AcDbEntity
  8
0
100
AcDbBlockBegin
  2
1
 70
     0
 10
0.0
 20
0.0
 30
0.0
  3
1
  1

  0
INSERT
  5
8D
330
8C
100
AcDbEntity
  8
0
100
AcDbBlockReference
  2
Vordans3
 10
90.00000000000009
 20
866.0
 30
0.0
 41
2.0
 42
2.0
 43
2.0
  0
INSERT
  5
8E
330
8C
100
AcDbEntity
  8
0
100
AcDbBlockReference
  2
A3I_TD_PRF
 10
294.648823709117
 20
712.8286844732944
 30
0.0
  0
ENDBLK
  5
90
330
8C
100
AcDbEntity
  8
0
100
AcDbBlockEnd
  0
BLOCK
  5
B4
330
AD
100
AcDbEntity
  8
0
100
AcDbBlockBegin
  2
*D8
 70
     1
 10
0.0
 20
0.0
 30
0.0
  3
*D8
  1

  0
LINE
  5
AE
330
AD
100
AcDbEntity
  8
1
  6
Continuous
 62
     2
100
AcDbLine
 10
30.60542869567878
 20
463.1856791782915
 30
0.0
 11
58.60542869567877
 21
463.1856791782915
 31
0.0
  0
LINE
  5
AF
330
AD
100
AcDbEntity
  8
1
  6
Continuous
 62
     2
100
AcDbLine
 10
30.60542869567878
 20
448.3100893027975
 30
0.0
 11
30.60542869567878
 21
463.9356791782915
 31
0.0
  0
LINE
  5
B0
330
AD
100
AcDbEntity
  8
1
  6
Continuous
 62
     2
100
AcDbLine
 10
58.60542869567877
 20
448.3100893027975
 30
0.0
 11
58.60542869567877
 21
463.9356791782915
 31
0.0
  0
SOLID
  5
B1
330
AD
100
AcDbEntity
  8
1
 62
     2
100
AcDbTrace
 10
32.35542869567878
 20
463.4160710490694
 30
0.0
 11
32.35542869567878
 21
462.9552873075135
 31
0.0
 12
30.60542869567878
 22
463.1856791782915
 32
0.0
 13
30.60542869567878
 23
463.1856791782915
 33
0.0
  0
SOLID
  5
B2
330
AD
100
AcDbEntity
  8
1
 62
     2
100
AcDbTrace
 10
56.85542869567877
 20
462.9552873075135
 30
0.0
 11
56.85542869567877
 21
463.4160710490694
 31
0.0
 12
58.60542869567877
 22
463.1856791782915
 32
0.0
 13
58.60542869567877
 23
463.1856791782915
 33
0.0
  0
MTEXT
  5
B3
330
AD
100
AcDbEntity
  8
1
 62
     3
100
AcDbMText
 10
44.3481375688474
 20
463.9356791782915
 30
0.0
 40
1.75
 41
0.0
 71
     7
 72
     1
  1
28
  7
CONVERTER_11
 11
0.9999999999970619
 21
2.424068405545306E-6
 31
0.0
 73
     1
 44
0.60024009603842
  0
ENDBLK
  5
B5
330
AD
100
AcDbEntity
  8
0
100
AcDbBlockEnd
  0
BLOCK
  5
BF
330
B8
100
AcDbEntity
  8
0
100
AcDbBlockBegin
  2
*D9
 70
     1
 10
0.0
 20
0.0
 30
0.0
  3
*D9
  1

  0
LINE
  5
B9
330
B8
100
AcDbEntity
  8
1
  6
Continuous
 62
     2
100
AcDbLine
 10
16.8801315623227
 20
448.3100893027975
 30
0.0
 11
16.8801315623227
 21
420.3100893027975
 31
0.0
  0
LINE
  5
BA
330
B8
100
AcDbEntity
  8
1
  6
Continuous
 62
     2
100
AcDbLine
 10
30.60542869567878
 20
448.3100893027975
 30
0.0
 11
16.1301315623227
 21
448.3100893027975
 31
0.0
  0
LINE
  5
BB
330
B8
100
AcDbEntity
  8
1
  6
Continuous
 62
     2
100
AcDbLine
 10
30.60542869567878
 20
420.3100893027975
 30
0.0
 11
16.1301315623227
 21
420.3100893027975
 31
0.0
  0
SOLID
  5
BC
330
B8
100
AcDbEntity
  8
1
 62
     2
100
AcDbTrace
 10
17.11052343310065
 20
446.5600893027975
 30
0.0
 11
16.64973969154476
 21
446.5600893027975
 31
0.0
 12
16.8801315623227
 22
448.3100893027975
 32
0.0
 13
16.8801315623227
 23
448.3100893027975
 33
0.0
  0
SOLID
  5
BD
330
B8
100
AcDbEntity
  8
1
 62
     2
100
AcDbTrace
 10
16.64973969154476
 20
422.0600893027975
 30
0.0
 11
17.11052343310065
 21
422.0600893027975
 31
0.0
 12
16.8801315623227
 22
420.3100893027975
 32
0.0
 13
16.8801315623227
 23
420.3100893027975
 33
0.0
  0
MTEXT
  5
BE
330
B8
100
AcDbEntity
  8
1
 62
     3
100
AcDbMText
 10
16.1301315623227
 20
433.6887191541505
 30
0.0
 40
1.75
 41
0.0
 71
     7
 72
     1
  1
28
  7
CONVERTER_11
 11
0.0
 21
1.0
 31
0.0
 73
     1
 44
0.60024009603842
  0
ENDBLK
  5
C0
330
B8
100
AcDbEntity
  8
0
100
AcDbBlockEnd
  0
BLOCK
  5
C8
330
C3
100
AcDbEntity
  8
0
100
AcDbBlockBegin
  2
*D10
 70
     1
 10
0.0
 20
0.0
 30
0.0
  3
*D10
  1

  0
LINE
  5
C4
330
C3
100
AcDbEntity
  8
1
  6
Continuous
 62
     2
100
AcDbLine
 10
28.03000303004022
 20
427.6189840874471
 30
0.0
 11
78.46739183280904
 21
447.9793586609024
 31
0.0
  0
SOLID
  5
C5
330
C3
100
AcDbEntity
  8
1
 62
     2
100
AcDbTrace
 10
60.28322786030643
 20
440.8872994840006
 30
0.0
 11
60.45571191604198
 21
440.4600163144289
 31
0.0
 12
58.74670094188789
 22
440.0185846613483
 32
0.0
 13
58.74670094188789
 23
440.0185846613483
 33
0.0
  0
SOLID
  5
C6
330
C3
100
AcDbEntity
  8
1
 62
     2
100
AcDbTrace
 10
28.92762953105112
 20
427.7328791215945
 30
0.0
 11
28.75514547531557
 21
428.1601622911662
 31
0.0
 12
30.46415644946966
 22
428.6015939442468
 32
0.0
 13
30.46415644946966
 23
428.6015939442468
 33
0.0
  0
MTEXT
  5
C7
330
C3
100
AcDbEntity
  8
1
 62
     3
100
AcDbMText
 10
67.70296220049303
 20
444.6315377739795
 30
0.0
 40
1.75
 41
0.0
 71
     7
 72
     1
  1
\C3; {\Fgdt;n}\C3;\C3;30,5\C3;\H1.05;{\Fgdt;`}0,5
  7
CONVERTER_11
 11
0.9272965407350242
 21
0.3743275644951324
 31
0.0
 73
     1
 44
0.60024009603842
  0
ENDBLK
  5
C9
330
C3
100
AcDbEntity
  8
0
100
AcDbBlockEnd
  0
BLOCK
  5
D0
330
CB
100
AcDbEntity
  8
0
100
AcDbBlockBegin
  2
*D11
 70
     1
 10
0.0
 20
0.0
 30
0.0
  3
*D11
  1

  0
LINE
  5
CC
330
CB
100
AcDbEntity
  8
1
  6
Continuous
 62
     2
100
AcDbLine
 10
54.71234780498923
 20
418.6685820141911
 30
0.0
 11
77.50441360131076
 21
428.278796437563
 31
0.0
  0
SOLID
  5
CD
330
CB
100
AcDbEntity
  8
1
 62
     2
100
AcDbTrace
 10
61.6027378196296
 20
421.8239315764844
 30
0.0
 11
61.78176264098708
 21
421.3993473447704
 31
0.0
 12
60.07973151818841
 22
420.9317251990745
 32
0.0
 13
60.07973151818841
 23
420.9317251990745
 33
0.0
  0
SOLID
  5
CE
330
CB
100
AcDbEntity
  8
1
 62
     2
100
AcDbTrace
 10
55.60811957172793
 20
418.7962470291106
 30
0.0
 11
55.42909475037046
 21
419.2208312608246
 31
0.0
 12
57.13112587316913
 22
419.6884534065205
 32
0.0
 13
57.13112587316913
 23
419.6884534065205
 33
0.0
  0
MTEXT
  5
CF
330
CB
100
AcDbEntity
  8
1
 62
     3
100
AcDbMText
 10
67.00228764954129
 20
424.8544670516584
 30
0.0
 40
1.75
 41
0.0
 71
     7
 72
     1
  1
\C3; {\Fgdt;n}\C3;3,2\C3;/M3
  7
CONVERTER_11
 11
0.9214392640685317
 21
0.388522435173109
 31
0.0
 73
     1
 44
0.60024009603842
  0
ENDBLK
  5
D1
330
CB
100
AcDbEntity
  8
0
100
AcDbBlockEnd
  0
ENDSEC
  0
SECTION
  2
ENTITIES
  0
INSERT
  5
91
330
1F
100
AcDbEntity
  8
1
100
AcDbBlockReference
  2
1
 10
0.0
 20
0.0
 30
0.0
  0
ENDSEC
  0
SECTION
  2
OBJECTS
  0
DICTIONARY
  5
C
330
0
100
AcDbDictionary
281
     1
  3
ACAD_DETAILVIEWSTYLE
350
25F
  3
ACAD_GROUP
350
D
  3
ACAD_LAYOUT
350
1A
  3
ACAD_MATERIAL
350
43
  3
ACAD_MLEADERSTYLE
350
6B
  3
ACAD_MLINESTYLE
350
17
  3
ACAD_PLOTSETTINGS
350
19
  3
ACAD_PLOTSTYLENAME
350
E
  3
ACAD_SCALELIST
350
47
  3
ACAD_SECTIONVIEWSTYLE
350
260
  3
ACAD_TABLESTYLE
350
69
  3
ACAD_VISUALSTYLE
350
2A
  3
ACDB_RECOMPOSE_DATA
350
25C
  3
AcDbVariableDictionary
350
21C
  0
DICTIONARY
  5
21A
330
8
100
AcDbDictionary
280
     1
281
     1
  3
ACAD_XREC_ROUNDTRIP
360
21B
  0
DICTIONARY
  5
25F
102
{ACAD_REACTORS
330
C
102
}
330
C
100
AcDbDictionary
281
     1
  0
DICTIONARY
  5
D
102
{ACAD_REACTORS
330
C
102
}
330
C
100
AcDbDictionary
281
     1
  0
DICTIONARY
  5
1A
102
{ACAD_REACTORS
330
C
102
}
330
C
100
AcDbDictionary
281
     1
  3
Layout1
350
1E
  3
Layout2
350
26
  3
Model
350
22
  0
DICTIONARY
  5
43
102
{ACAD_REACTORS
330
C
102
}
330
C
100
AcDbDictionary
281
     1
  3
ByBlock
350
45
  3
ByLayer
350
44
  3
Global
350
46
  0
DICTIONARY
  5
6B
102
{ACAD_REACTORS
330
C
102
}
330
C
100
AcDbDictionary
281
     1
  3
Standard
350
6C
  0
DICTIONARY
  5
17
102
{ACAD_REACTORS
330
C
102
}
330
C
100
AcDbDictionary
281
     1
  3
Standard
350
18
  0
DICTIONARY
  5
19
102
{ACAD_REACTORS
330
C
102
}
330
C
100
AcDbDictionary
281
     1
  0
ACDBDICTIONARYWDFLT
  5
E
102
{ACAD_REACTORS
330
C
102
}
330
C
100
AcDbDictionary
281
     1
  3
Normal
350
F
100
AcDbDictionaryWithDefault
340
F
  0
DICTIONARY
  5
47
102
{ACAD_REACTORS
330
C
102
}
330
C
100
AcDbDictionary
281
     1
  3
A0
350
48
  3
A1
350
49
  3
A2
350
4A
  3
A3
350
4B
  3
A4
350
4C
  3
A5
350
4D
  3
A6
350
4E
  3
A7
350
4F
  3
A8
350
50
  3
A9
350
51
  3
B0
350
52
  3
B1
350
53
  3
B2
350
54
  3
B3
350
55
  3
B4
350
56
  3
B5
350
57
  3
B6
350
58
  3
B7
350
59
  3
B8
350
5A
  3
B9
350
5B
  3
C0
350
5C
  3
C1
350
5D
  3
C2
350
5E
  3
C3
350
5F
  3
C4
350
60
  3
C5
350
61
  3
C6
350
62
  3
C7
350
63
  3
C8
350
64
  3
C9
350
65
  3
D0
350
66
  3
D1
350
67
  3
D2
350
68
  0
DICTIONARY
  5
260
102
{ACAD_REACTORS
330
C
102
}
330
C
100
AcDbDictionary
281
     1
  0
DICTIONARY
  5
69
102
{ACAD_REACTORS
330
C
102
}
330
C
100
AcDbDictionary
281
     1
  3
Standard
350
6A
  0
DICTIONARY
  5
2A
102
{ACAD_REACTORS
330
C
102
}
330
C
100
AcDbDictionary
281
     1
  3
2dWireframe
350
2F
  3
Basic
350
32
  3
Brighten
350
36
  3
ColorChange
350
3A
  3
Conceptual
350
34
  3
Dim
350
35
  3
EdgeColorOff
350
3D
  3
Facepattern
350
39
  3
Flat
350
2B
  3
FlatWithEdges
350
2C
  3
Gouraud
350
2D
  3
GouraudWithEdges
350
2E
  3
Hidden
350
31
  3
JitterOff
350
3B
  3
Linepattern
350
38
  3
OverhangOff
350
3C
  3
Realistic
350
33
  3
Shaded
350
42
  3
Shaded with edges
350
41
  3
Shades of Gray
350
3E
  3
Sketchy
350
3F
  3
Thicken
350
37
  3
Wireframe
350
30
  3
X-Ray
350
40
  0
XRECORD
  5
25C
102
{ACAD_REACTORS
330
C
102
}
330
C
100
AcDbXrecord
280
     1
 90
        1
330
6A
  0
DICTIONARY
  5
21C
102
{ACAD_REACTORS
330
C
102
}
330
C
100
AcDbDictionary
281
     1
  3
CANNOSCALE
350
21D
  3
CMLEADERSTYLE
350
25E
  3
CTABLESTYLE
350
25D
  3
MSLTSCALE
350
21E
  3
XCLIPFRAME
350
21F
  0
XRECORD
  5
21B
102
{ACAD_REACTORS
330
21A
102
}
330
21A
100
AcDbXrecord
280
     1
102
VTR_0.000_0.000_1.000_1.000_VISUALSTYLE
340
2F
102
VTR_0.000_0.000_1.000_1.000_GRIDDISPLAY
 70
     3
102
VTR_0.000_0.000_1.000_1.000_GRIDMAJOR
 70
     5
102
VTR_0.000_0.000_1.000_1.000_DEFAULTLIGHTING
280
     1
102
VTR_0.000_0.000_1.000_1.000_DEFAULTLIGHTINGTYPE
 70
     1
102
VTR_0.000_0.000_1.000_1.000_BRIGHTNESS
141
0.0
102
VTR_0.000_0.000_1.000_1.000_CONTRAST
142
0.0
  0
LAYOUT
  5
1E
102
{ACAD_REACTORS
330
1A
102
}
330
1A
100
AcDbPlotSettings
  1

  2
none_device
  4

  6

 40
0.0
 41
0.0
 42
0.0
 43
0.0
 44
0.0
 45
0.0
 46
0.0
 47
0.0
 48
0.0
 49
0.0
140
0.0
141
0.0
142
1.0
143
1.0
 70
   688
 72
     0
 73
     0
 74
     5
  7

 75
    16
 76
     0
 77
     2
 78
   300
147
1.0
148
0.0
149
0.0
100
AcDbLayout
  1
Layout1
 70
     1
 71
     1
 10
0.0
 20
0.0
 11
12.0
 21
9.0
 12
0.0
 22
0.0
 32
0.0
 14
1.00000000000000E+20
 24
1.00000000000000E+20
 34
1.00000000000000E+20
 15
-1.00000000000000E+20
 25
-1.00000000000000E+20
 35
-1.00000000000000E+20
146
0.0
 13
0.0
 23
0.0
 33
0.0
 16
1.0
 26
0.0
 36
0.0
 17
0.0
 27
1.0
 37
0.0
 76
     0
330
1B
  0
LAYOUT
  5
26
102
{ACAD_REACTORS
330
1A
102
}
330
1A
100
AcDbPlotSettings
  1

  2
none_device
  4

  6

 40
0.0
 41
0.0
 42
0.0
 43
0.0
 44
0.0
 45
0.0
 46
0.0
 47
0.0
 48
0.0
 49
0.0
140
0.0
141
0.0
142
1.0
143
1.0
 70
   688
 72
     0
 73
     0
 74
     5
  7

 75
    16
 76
     0
 77
     2
 78
   300
147
1.0
148
0.0
149
0.0
100
AcDbLayout
  1
Layout2
 70
     1
 71
     2
 10
0.0
 20
0.0
 11
0.0
 21
0.0
 12
0.0
 22
0.0
 32
0.0
 14
0.0
 24
0.0
 34
0.0
 15
0.0
 25
0.0
 35
0.0
146
0.0
 13
0.0
 23
0.0
 33
0.0
 16
1.0
 26
0.0
 36
0.0
 17
0.0
 27
1.0
 37
0.0
 76
     0
330
23
  0
LAYOUT
  5
22
102
{ACAD_REACTORS
330
1A
102
}
330
1A
100
AcDbPlotSettings
  1

  2
none_device
  4
Letter_(8.50_x_11.00_Inches)
  6

 40
6.35
 41
6.35
 42
6.35000508
 43
6.35000508
 44
215.9
 45
279.4
 46
0.0
 47
0.0
 48
0.0
 49
0.0
140
0.0
141
0.0
142
1.0
143
1.0
 70
  1712
 72
     0
 73
     0
 74
     0
  7

 75
     0
 76
     0
 77
     2
 78
   300
147
1.0
148
0.0
149
0.0
100
AcDbLayout
  1
Model
 70
     1
 71
     0
 10
0.0
 20
0.0
 11
12.0
 21
9.0
 12
0.0
 22
0.0
 32
0.0
 14
-120.3511762908838
 24
712.8286844732944
 34
0.0
 15
299.6488237091147
 25
1009.828684473294
 35
0.0
146
0.0
 13
0.0
 23
0.0
 33
0.0
 16
1.0
 26
0.0
 36
0.0
 17
0.0
 27
1.0
 37
0.0
 76
     0
330
1F
331
29
  0
MATERIAL
  5
45
102
{ACAD_REACTORS
330
43
102
}
102
{ACAD_XDICTIONARY
360
252
102
}
330
43
100
AcDbMaterial
  1
ByBlock
  0
MATERIAL
  5
44
102
{ACAD_REACTORS
330
43
102
}
102
{ACAD_XDICTIONARY
360
250
102
}
330
43
100
AcDbMaterial
  1
ByLayer
  0
MATERIAL
  5
46
102
{ACAD_REACTORS
330
43
102
}
102
{ACAD_XDICTIONARY
360
254
102
}
330
43
100
AcDbMaterial
  1
Global
  0
MLEADERSTYLE
  5
6C
102
{ACAD_REACTORS
330
6B
102
}
102
{ACAD_XDICTIONARY
360
25A
102
}
330
6B
100
AcDbMLeaderStyle
170
     2
171
     1
172
     0
 90
        2
 40
0.0
 41
0.0
173
     1
 91
-1056964608
340
14
 92
       -2
290
     1
 42
0.09
291
     1
 43
0.36
  3
Standard
341
0
 44
0.18
300

342
11
174
     1
178
     6
175
     1
176
     0
 93
-1056964608
 45
0.18
292
     0
297
     0
 46
0.18
343
0
 94
-1056964608
 47
1.0
 49
1.0
140
1.0
293
     1
141
0.0
294
     1
177
     0
142
1.0
295
     0
296
     0
143
0.125
1001
ACAD_MLEADERVER
1070
     2
  0
MLINESTYLE
  5
18
102
{ACAD_REACTORS
330
17
102
}
330
17
100
AcDbMlineStyle
  2
Standard
 70
     0
  3

 62
   256
 51
90.0
 52
90.0
 71
     2
 49
0.5
 62
   256
  6
BYLAYER
 49
-0.5
 62
   256
  6
BYLAYER
  0
ACDBPLACEHOLDER
  5
F
102
{ACAD_REACTORS
330
E
102
}
330
E
  0
SCALE
  5
48
102
{ACAD_REACTORS
330
47
102
}
330
47
100
AcDbScale
 70
     0
300
1:1
140
1.0
141
1.0
290
     1
  0
SCALE
  5
49
102
{ACAD_REACTORS
330
47
102
}
330
47
100
AcDbScale
 70
     0
300
1:2
140
1.0
141
2.0
290
     0
  0
SCALE
  5
4A
102
{ACAD_REACTORS
330
47
102
}
330
47
100
AcDbScale
 70
     0
300
1:4
140
1.0
141
4.0
290
     0
  0
SCALE
  5
4B
102
{ACAD_REACTORS
330
47
102
}
330
47
100
AcDbScale
 70
     0
300
1:5
140
1.0
141
5.0
290
     0
  0
SCALE
  5
4C
102
{ACAD_REACTORS
330
47
102
}
330
47
100
AcDbScale
 70
     0
300
1:8
140
1.0
141
8.0
290
     0
  0
SCALE
  5
4D
102
{ACAD_REACTORS
330
47
102
}
330
47
100
AcDbScale
 70
     0
300
1:10
140
1.0
141
10.0
290
     0
  0
SCALE
  5
4E
102
{ACAD_REACTORS
330
47
102
}
330
47
100
AcDbScale
 70
     0
300
1:16
140
1.0
141
16.0
290
     0
  0
SCALE
  5
4F
102
{ACAD_REACTORS
330
47
102
}
330
47
100
AcDbScale
 70
     0
300
1:20
140
1.0
141
20.0
290
     0
  0
SCALE
  5
50
102
{ACAD_REACTORS
330
47
102
}
330
47
100
AcDbScale
 70
     0
300
1:30
140
1.0
141
30.0
290
     0
  0
SCALE
  5
51
102
{ACAD_REACTORS
330
47
102
}
330
47
100
AcDbScale
 70
     0
300
1:40
140
1.0
141
40.0
290
     0
  0
SCALE
  5
52
102
{ACAD_REACTORS
330
47
102
}
330
47
100
AcDbScale
 70
     0
300
1:50
140
1.0
141
50.0
290
     0
  0
SCALE
  5
53
102
{ACAD_REACTORS
330
47
102
}
330
47
100
AcDbScale
 70
     0
300
1:100
140
1.0
141
100.0
290
     0
  0
SCALE
  5
54
102
{ACAD_REACTORS
330
47
102
}
330
47
100
AcDbScale
 70
     0
300
2:1
140
2.0
141
1.0
290
     0
  0
SCALE
  5
55
102
{ACAD_REACTORS
330
47
102
}
330
47
100
AcDbScale
 70
     0
300
4:1
140
4.0
141
1.0
290
     0
  0
SCALE
  5
56
102
{ACAD_REACTORS
330
47
102
}
330
47
100
AcDbScale
 70
     0
300
8:1
140
8.0
141
1.0
290
     0
  0
SCALE
  5
57
102
{ACAD_REACTORS
330
47
102
}
330
47
100
AcDbScale
 70
     0
300
10:1
140
10.0
141
1.0
290
     0
  0
SCALE
  5
58
102
{ACAD_REACTORS
330
47
102
}
330
47
100
AcDbScale
 70
     0
300
100:1
140
100.0
141
1.0
290
     0
  0
SCALE
  5
59
102
{ACAD_REACTORS
330
47
102
}
330
47
100
AcDbScale
 70
     0
300
1/128" = 1'-0"
140
0.0078125
141
12.0
290
     0
  0
SCALE
  5
5A
102
{ACAD_REACTORS
330
47
102
}
330
47
100
AcDbScale
 70
     0
300
1/64" = 1'-0"
140
0.015625
141
12.0
290
     0
  0
SCALE
  5
5B
102
{ACAD_REACTORS
330
47
102
}
330
47
100
AcDbScale
 70
     0
300
1/32" = 1'-0"
140
0.03125
141
12.0
290
     0
  0
SCALE
  5
5C
102
{ACAD_REACTORS
330
47
102
}
330
47
100
AcDbScale
 70
     0
300
1/16" = 1'-0"
140
0.0625
141
12.0
290
     0
  0
SCALE
  5
5D
102
{ACAD_REACTORS
330
47
102
}
330
47
100
AcDbScale
 70
     0
300
3/32" = 1'-0"
140
0.09375
141
12.0
290
     0
  0
SCALE
  5
5E
102
{ACAD_REACTORS
330
47
102
}
330
47
100
AcDbScale
 70
     0
300
1/8" = 1'-0"
140
0.125
141
12.0
290
     0
  0
SCALE
  5
5F
102
{ACAD_REACTORS
330
47
102
}
330
47
100
AcDbScale
 70
     0
300
3/16" = 1'-0"
140
0.1875
141
12.0
290
     0
  0
SCALE
  5
60
102
{ACAD_REACTORS
330
47
102
}
330
47
100
AcDbScale
 70
     0
300
1/4" = 1'-0"
140
0.25
141
12.0
290
     0
  0
SCALE
  5
61
102
{ACAD_REACTORS
330
47
102
}
330
47
100
AcDbScale
 70
     0
300
3/8" = 1'-0"
140
0.375
141
12.0
290
     0
  0
SCALE
  5
62
102
{ACAD_REACTORS
330
47
102
}
330
47
100
AcDbScale
 70
     0
300
1/2" = 1'-0"
140
0.5
141
12.0
290
     0
  0
SCALE
  5
63
102
{ACAD_REACTORS
330
47
102
}
330
47
100
AcDbScale
 70
     0
300
3/4" = 1'-0"
140
0.75
141
12.0
290
     0
  0
SCALE
  5
64
102
{ACAD_REACTORS
330
47
102
}
330
47
100
AcDbScale
 70
     0
300
1" = 1'-0"
140
1.0
141
12.0
290
     0
  0
SCALE
  5
65
102
{ACAD_REACTORS
330
47
102
}
330
47
100
AcDbScale
 70
     0
300
1-1/2" = 1'-0"
140
1.5
141
12.0
290
     0
  0
SCALE
  5
66
102
{ACAD_REACTORS
330
47
102
}
330
47
100
AcDbScale
 70
     0
300
3" = 1'-0"
140
3.0
141
12.0
290
     0
  0
SCALE
  5
67
102
{ACAD_REACTORS
330
47
102
}
330
47
100
AcDbScale
 70
     0
300
6" = 1'-0"
140
6.0
141
12.0
290
     0
  0
SCALE
  5
68
102
{ACAD_REACTORS
330
47
102
}
330
47
100
AcDbScale
 70
     0
300
1'-0" = 1'-0"
140
12.0
141
12.0
290
     0
  0
TABLESTYLE
  5
6A
102
{ACAD_REACTORS
330
69
102
}
102
{ACAD_XDICTIONARY
360
256
102
}
330
69
100
AcDbTableStyle
  3
Standard
 70
     0
 71
     0
 40
0.06
 41
0.06
280
     0
281
     0
  7
Standard
140
0.18
170
     2
 62
     0
 63
   257
283
     0
274
    -2
284
     1
 64
     0
275
    -2
285
     1
 65
     0
276
    -2
286
     1
 66
     0
277
    -2
287
     1
 67
     0
278
    -2
288
     1
 68
     0
279
    -2
289
     1
 69
     0
  7
Standard
140
0.25
170
     5
 62
     0
 63
   257
283
     0
274
    -2
284
     1
 64
     0
275
    -2
285
     1
 65
     0
276
    -2
286
     1
 66
     0
277
    -2
287
     1
 67
     0
278
    -2
288
     1
 68
     0
279
    -2
289
     1
 69
     0
  7
Standard
140
0.18
170
     5
 62
     0
 63
   257
283
     0
274
    -2
284
     1
 64
     0
275
    -2
285
     1
 65
     0
276
    -2
286
     1
 66
     0
277
    -2
287
     1
 67
     0
278
    -2
288
     1
 68
     0
279
    -2
289
     1
 69
     0
  0
VISUALSTYLE
  5
2F
102
{ACAD_REACTORS
330
2A
102
}
102
{ACAD_XDICTIONARY
360
228
102
}
330
2A
100
AcDbVisualStyle
  2
2dWireframe
 70
     4
 71
     0
 72
     2
 73
     0
 90
        0
 40
0.6
 41
30.0
 62
     5
 63
     7
421
 16777215
 74
     1
 91
        4
 64
     7
 65
   257
 75
     1
175
     1
 42
1.0
 92
        0
 66
   257
 43
1.0
 76
     1
 77
     6
 78
     2
 67
     7
 79
     5
170
     0
171
     0
290
     0
174
     0
 93
        1
 44
0.0
173
     0
291
     0
 45
0.0
1001
ACAD
1000
AcDbSavedByObjectVersion
1070
     0
  0
VISUALSTYLE
  5
32
102
{ACAD_REACTORS
330
2A
102
}
102
{ACAD_XDICTIONARY
360
22E
102
}
330
2A
100
AcDbVisualStyle
  2
Basic
 70
     7
 71
     1
 72
     0
 73
     1
 90
        0
 40
0.6
 41
30.0
 62
     5
 63
     7
421
 16777215
 74
     0
 91
        4
 64
     7
 65
   257
 75
     1
175
     1
 42
1.0
 92
        8
 66
     7
 43
1.0
 76
     1
 77
     6
 78
     2
 67
     7
 79
     5
170
     0
171
     0
290
     0
174
     0
 93
        1
 44
0.0
173
     0
291
     1
 45
0.0
1001
ACAD
1000
AcDbSavedByObjectVersion
1070
     0
  0
VISUALSTYLE
  5
36
102
{ACAD_REACTORS
330
2A
102
}
102
{ACAD_XDICTIONARY
360
236
102
}
330
2A
100
AcDbVisualStyle
  2
Brighten
 70
    12
 71
     2
 72
     2
 73
     0
 90
        0
 40
0.6
 41
30.0
 62
     5
 63
     7
421
 16777215
 74
     1
 91
        4
 64
     7
 65
   257
 75
     1
175
     1
 42
1.0
 92
        8
 66
     7
 43
1.0
 76
     1
 77
     6
 78
     2
 67
     7
 79
     5
170
     0
171
     0
290
     0
174
     0
 93
        1
 44
50.0
173
     0
291
     1
 45
0.0
1001
ACAD
1000
AcDbSavedByObjectVersion
1070
     0
  0
VISUALSTYLE
  5
3A
102
{ACAD_REACTORS
330
2A
102
}
102
{ACAD_XDICTIONARY
360
23E
102
}
330
2A
100
AcDbVisualStyle
  2
ColorChange
 70
    16
 71
     2
 72
     2
 73
     3
 90
        0
 40
0.6
 41
30.0
 62
     5
 63
     8
421
  8421504
 74
     1
 91
        4
 64
     7
 65
   257
 75
     1
175
     1
 42
1.0
 92
        8
 66
     8
424
  8421504
 43
1.0
 76
     1
 77
     6
 78
     2
 67
     7
 79
     5
170
     0
171
     0
290
     0
174
     0
 93
        1
 44
0.0
173
     0
291
     1
 45
0.0
1001
ACAD
1000
AcDbSavedByObjectVersion
1070
     0
  0
VISUALSTYLE
  5
34
102
{ACAD_REACTORS
330
2A
102
}
102
{ACAD_XDICTIONARY
360
232
102
}
330
2A
100
AcDbVisualStyle
  2
Conceptual
 70
     9
 71
     3
 72
     2
 73
     0
 90
        0
 40
0.6
 41
30.0
 62
     5
 63
     7
421
 16777215
 74
     2
 91
        2
 64
     7
 65
   257
 75
     1
175
     1
 42
179.0
 92
        8
 66
     7
 43
1.0
 76
     1
 77
     6
 78
     2
 67
     7
 79
     3
170
     0
171
     0
290
     0
174
     0
 93
        1
 44
0.0
173
     0
291
     0
 45
0.0
1001
ACAD
1000
AcDbSavedByObjectVersion
1070
     0
  0
VISUALSTYLE
  5
35
102
{ACAD_REACTORS
330
2A
102
}
102
{ACAD_XDICTIONARY
360
234
102
}
330
2A
100
AcDbVisualStyle
  2
Dim
 70
    11
 71
     2
 72
     2
 73
     0
 90
        0
 40
0.6
 41
30.0
 62
     5
 63
     7
421
 16777215
 74
     1
 91
        4
 64
     7
 65
   257
 75
     1
175
     1
 42
1.0
 92
        8
 66
     7
 43
1.0
 76
     1
 77
     6
 78
     2
 67
     7
 79
     5
170
     0
171
     0
290
     0
174
     0
 93
        1
 44
-50.0
173
     0
291
     1
 45
0.0
1001
ACAD
1000
AcDbSavedByObjectVersion
1070
     0
  0
VISUALSTYLE
  5
3D
102
{ACAD_REACTORS
330
2A
102
}
102
{ACAD_XDICTIONARY
360
244
102
}
330
2A
100
AcDbVisualStyle
  2
EdgeColorOff
 70
    22
 71
     2
 72
     2
 73
     0
 90
        0
 40
0.6
 41
30.0
 62
     5
 63
     7
421
 16777215
 74
     1
 91
        4
 64
     7
 65
   257
 75
     1
175
     1
 42
1.0
 92
        8
 66
     7
 43
1.0
 76
     1
 77
     6
 78
     2
 67
     7
 79
     5
170
     0
171
     0
290
     0
174
     0
 93
        1
 44
0.0
173
     0
291
     1
 45
0.0
1001
ACAD
1000
AcDbSavedByObjectVersion
1070
     0
  0
VISUALSTYLE
  5
39
102
{ACAD_REACTORS
330
2A
102
}
102
{ACAD_XDICTIONARY
360
23C
102
}
330
2A
100
AcDbVisualStyle
  2
Facepattern
 70
    15
 71
     2
 72
     2
 73
     0
 90
        0
 40
0.6
 41
30.0
 62
     5
 63
     7
421
 16777215
 74
     1
 91
        4
 64
     7
 65
   257
 75
     1
175
     1
 42
1.0
 92
        8
 66
     7
 43
1.0
 76
     1
 77
     6
 78
     2
 67
     7
 79
     5
170
     0
171
     0
290
     0
174
     0
 93
        1
 44
0.0
173
     0
291
     1
 45
0.0
1001
ACAD
1000
AcDbSavedByObjectVersion
1070
     0
  0
VISUALSTYLE
  5
2B
102
{ACAD_REACTORS
330
2A
102
}
102
{ACAD_XDICTIONARY
360
220
102
}
330
2A
100
AcDbVisualStyle
  2
Flat
 70
     0
 71
     2
 72
     1
 73
     1
 90
        2
 40
0.6
 41
30.0
 62
     5
 63
     7
421
 16777215
 74
     0
 91
        0
 64
     7
 65
   257
 75
     1
175
     1
 42
1.0
 92
        8
 66
     7
 43
1.0
 76
     1
 77
     6
 78
     2
 67
     7
 79
     5
170
     0
171
     0
290
     0
174
     0
 93
       13
 44
0.0
173
     0
291
     1
 45
0.0
1001
ACAD
1000
AcDbSavedByObjectVersion
1070
     0
  0
VISUALSTYLE
  5
2C
102
{ACAD_REACTORS
330
2A
102
}
102
{ACAD_XDICTIONARY
360
222
102
}
330
2A
100
AcDbVisualStyle
  2
FlatWithEdges
 70
     1
 71
     2
 72
     1
 73
     1
 90
        2
 40
0.6
 41
30.0
 62
     5
 63
     7
421
 16777215
 74
     1
 91
        0
 64
     7
 65
   257
 75
     1
175
     1
 42
1.0
 92
        0
 66
   257
 43
1.0
 76
     1
 77
     6
 78
     2
 67
     7
 79
     5
170
     0
171
     0
290
     0
174
     0
 93
       13
 44
0.0
173
     0
291
     1
 45
0.0
1001
ACAD
1000
AcDbSavedByObjectVersion
1070
     0
  0
VISUALSTYLE
  5
2D
102
{ACAD_REACTORS
330
2A
102
}
102
{ACAD_XDICTIONARY
360
224
102
}
330
2A
100
AcDbVisualStyle
  2
Gouraud
 70
     2
 71
     2
 72
     2
 73
     1
 90
        2
 40
0.6
 41
30.0
 62
     5
 63
     7
421
 16777215
 74
     0
 91
        0
 64
     7
 65
   257
 75
     1
175
     1
 42
1.0
 92
        0
 66
     7
 43
1.0
 76
     1
 77
     6
 78
     2
 67
     7
 79
     5
170
     0
171
     0
290
     0
174
     0
 93
       13
 44
0.0
173
     0
291
     1
 45
0.0
1001
ACAD
1000
AcDbSavedByObjectVersion
1070
     0
  0
VISUALSTYLE
  5
2E
102
{ACAD_REACTORS
330
2A
102
}
102
{ACAD_XDICTIONARY
360
226
102
}
330
2A
100
AcDbVisualStyle
  2
GouraudWithEdges
 70
     3
 71
     2
 72
     2
 73
     1
 90
        2
 40
0.6
 41
30.0
 62
     5
 63
     7
421
 16777215
 74
     1
 91
        0
 64
     7
 65
   257
 75
     1
175
     1
 42
1.0
 92
        0
 66
   257
 43
1.0
 76
     1
 77
     6
 78
     2
 67
     7
 79
     5
170
     0
171
     0
290
     0
174
     0
 93
       13
 44
0.0
173
     0
291
     1
 45
0.0
1001
ACAD
1000
AcDbSavedByObjectVersion
1070
     0
  0
VISUALSTYLE
  5
31
102
{ACAD_REACTORS
330
2A
102
}
102
{ACAD_XDICTIONARY
360
22C
102
}
330
2A
100
AcDbVisualStyle
  2
Hidden
 70
     6
 71
     1
 72
     2
 73
     2
 90
        0
 40
0.6
 41
30.0
 62
     5
 63
     7
421
 16777215
 74
     2
 91
        2
 64
     7
 65
   257
 75
     2
175
     1
 42
40.0
 92
        0
 66
   257
 43
1.0
 76
     1
 77
     6
 78
     2
 67
     7
 79
     3
170
     0
171
     0
290
     0
174
     0
 93
        1
 44
0.0
173
     0
291
     0
 45
0.0
1001
ACAD
1000
AcDbSavedByObjectVersion
1070
     0
  0
VISUALSTYLE
  5
3B
102
{ACAD_REACTORS
330
2A
102
}
102
{ACAD_XDICTIONARY
360
240
102
}
330
2A
100
AcDbVisualStyle
  2
JitterOff
 70
    20
 71
     2
 72
     2
 73
     0
 90
        0
 40
0.6
 41
30.0
 62
     5
 63
     7
421
 16777215
 74
     1
 91
        4
 64
     7
 65
   257
 75
     1
175
     1
 42
1.0
 92
       10
 66
     7
 43
1.0
 76
     1
 77
     6
 78
     2
 67
     7
 79
     5
170
     0
171
     0
290
     0
174
     0
 93
        1
 44
0.0
173
     0
291
     1
 45
0.0
1001
ACAD
1000
AcDbSavedByObjectVersion
1070
     0
  0
VISUALSTYLE
  5
38
102
{ACAD_REACTORS
330
2A
102
}
102
{ACAD_XDICTIONARY
360
23A
102
}
330
2A
100
AcDbVisualStyle
  2
Linepattern
 70
    14
 71
     2
 72
     2
 73
     0
 90
        0
 40
0.6
 41
30.0
 62
     5
 63
     7
421
 16777215
 74
     1
 91
        4
 64
     7
 65
   257
 75
     7
175
     7
 42
1.0
 92
        8
 66
     7
 43
1.0
 76
     1
 77
     6
 78
     2
 67
     7
 79
     5
170
     0
171
     0
290
     0
174
     0
 93
        1
 44
0.0
173
     0
291
     1
 45
0.0
1001
ACAD
1000
AcDbSavedByObjectVersion
1070
     0
  0
VISUALSTYLE
  5
3C
102
{ACAD_REACTORS
330
2A
102
}
102
{ACAD_XDICTIONARY
360
242
102
}
330
2A
100
AcDbVisualStyle
  2
OverhangOff
 70
    21
 71
     2
 72
     2
 73
     0
 90
        0
 40
0.6
 41
30.0
 62
     5
 63
     7
421
 16777215
 74
     1
 91
        4
 64
     7
 65
   257
 75
     1
175
     1
 42
1.0
 92
        9
 66
     7
 43
1.0
 76
     1
 77
     6
 78
     2
 67
     7
 79
     5
170
     0
171
     0
290
     0
174
     0
 93
        1
 44
0.0
173
     0
291
     1
 45
0.0
1001
ACAD
1000
AcDbSavedByObjectVersion
1070
     0
  0
VISUALSTYLE
  5
33
102
{ACAD_REACTORS
330
2A
102
}
102
{ACAD_XDICTIONARY
360
230
102
}
330
2A
100
AcDbVisualStyle
  2
Realistic
 70
     8
 71
     2
 72
     3
 73
     0
 90
        2
 40
0.6
 41
30.0
 62
     5
 63
     7
421
 16777215
 74
     0
 91
        0
 64
     7
 65
   257
 75
     1
175
     1
 42
1.0
 92
        8
 66
   257
 43
1.0
 76
     1
 77
     6
 78
     2
 67
     7
 79
     3
170
     0
171
     0
290
     0
174
     0
 93
       13
 44
0.0
173
     0
291
     0
 45
0.0
1001
ACAD
1000
AcDbSavedByObjectVersion
1070
     0
  0
VISUALSTYLE
  5
42
102
{ACAD_REACTORS
330
2A
102
}
102
{ACAD_XDICTIONARY
360
24E
102
}
330
2A
100
AcDbVisualStyle
  2
Shaded
 70
    27
 71
     2
 72
     2
 73
     1
 90
        2
 40
0.6
 41
30.0
 62
     5
 63
     7
421
 16777215
 74
     0
 91
        4
 64
     7
 65
   257
 75
     1
175
     1
 42
1.0
 92
        8
 66
   257
 43
1.0
 76
     1
 77
     6
 78
     2
 67
     8
425
  7895160
 79
     3
170
     0
171
     0
290
     0
174
     0
 93
        5
 44
0.0
173
     0
291
     0
 45
0.0
1001
ACAD
1000
AcDbSavedByObjectVersion
1070
     0
  0
VISUALSTYLE
  5
41
102
{ACAD_REACTORS
330
2A
102
}
102
{ACAD_XDICTIONARY
360
24C
102
}
330
2A
100
AcDbVisualStyle
  2
Shaded with edges
 70
    26
 71
     2
 72
     2
 73
     1
 90
        2
 40
0.6
 41
30.0
 62
     5
 63
     7
421
 16777215
 74
     1
 91
       10
 64
     7
 65
   257
 75
     2
175
     1
 42
1.0
 92
        8
 66
   257
 43
1.0
 76
     1
 77
     6
 78
     2
 67
     7
 79
     3
170
     0
171
     0
290
     0
174
     0
 93
        5
 44
0.0
173
     0
291
     0
 45
0.0
1001
ACAD
1000
AcDbSavedByObjectVersion
1070
     0
  0
VISUALSTYLE
  5
3E
102
{ACAD_REACTORS
330
2A
102
}
102
{ACAD_XDICTIONARY
360
246
102
}
330
2A
100
AcDbVisualStyle
  2
Shades of Gray
 70
    23
 71
     2
 72
     2
 73
     3
 90
        0
 40
0.6
 41
30.0
 62
     5
 63
     7
421
 16777215
 74
     2
 91
        2
 64
     7
 65
     7
 75
     1
175
     1
 42
40.0
 92
        8
 66
     7
 43
1.0
 76
     1
 77
     6
 78
     2
 67
     7
 79
     3
170
     0
171
     0
290
     0
174
     0
 93
        1
 44
0.0
173
     0
291
     0
 45
0.0
1001
ACAD
1000
AcDbSavedByObjectVersion
1070
     0
  0
VISUALSTYLE
  5
3F
102
{ACAD_REACTORS
330
2A
102
}
102
{ACAD_XDICTIONARY
360
248
102
}
330
2A
100
AcDbVisualStyle
  2
Sketchy
 70
    24
 71
     1
 72
     2
 73
     2
 90
        0
 40
0.6
 41
30.0
 62
     5
 63
     7
421
 16777215
 74
     2
 91
        2
 64
     7
 65
     7
 75
     1
175
     1
 42
40.0
 92
       11
 66
     7
 43
1.0
 76
     1
 77
     6
 78
     2
 67
     7
 79
     6
170
     0
171
     0
290
     0
174
     0
 93
        1
 44
0.0
173
     0
291
     0
 45
0.0
1001
ACAD
1000
AcDbSavedByObjectVersion
1070
     0
  0
VISUALSTYLE
  5
37
102
{ACAD_REACTORS
330
2A
102
}
102
{ACAD_XDICTIONARY
360
238
102
}
330
2A
100
AcDbVisualStyle
  2
Thicken
 70
    13
 71
     2
 72
     2
 73
     0
 90
        0
 40
0.6
 41
30.0
 62
     5
 63
     7
421
 16777215
 74
     1
 91
        4
 64
     7
 65
   257
 75
     1
175
     1
 42
1.0
 92
       12
 66
     7
 43
1.0
 76
     1
 77
     6
 78
     2
 67
     7
 79
     5
170
     0
171
     0
290
     0
174
     0
 93
        1
 44
0.0
173
     0
291
     1
 45
0.0
1001
ACAD
1000
AcDbSavedByObjectVersion
1070
     0
  0
VISUALSTYLE
  5
30
102
{ACAD_REACTORS
330
2A
102
}
102
{ACAD_XDICTIONARY
360
22A
102
}
330
2A
100
AcDbVisualStyle
  2
Wireframe
 70
     5
 71
     0
 72
     2
 73
     0
 90
        0
 40
0.6
 41
30.0
 62
     5
 63
     7
421
 16777215
 74
     1
 91
        4
 64
     7
 65
   257
 75
     1
175
     1
 42
1.0
 92
        0
 66
   257
 43
1.0
 76
     1
 77
     6
 78
     2
 67
     7
 79
     3
170
     0
171
     0
290
     0
174
     0
 93
        1
 44
0.0
173
     0
291
     0
 45
0.0
1001
ACAD
1000
AcDbSavedByObjectVersion
1070
     0
  0
VISUALSTYLE
  5
40
102
{ACAD_REACTORS
330
2A
102
}
102
{ACAD_XDICTIONARY
360
24A
102
}
330
2A
100
AcDbVisualStyle
  2
X-Ray
 70
    25
 71
     2
 72
     2
 73
     1
 90
        1
 40
0.5
 41
30.0
 62
     5
 63
     7
421
 16777215
 74
     1
 91
        0
 64
     7
 65
   257
 75
     1
175
     1
 42
1.0
 92
        8
 66
     7
 43
1.0
 76
     1
 77
     6
 78
     2
 67
     7
 79
     3
170
     0
171
     0
290
     0
174
     0
 93
       13
 44
0.0
173
     0
291
     0
 45
0.0
1001
ACAD
1000
AcDbSavedByObjectVersion
1070
     0
  0
DICTIONARYVAR
  5
21D
102
{ACAD_REACTORS
330
21C
102
}
330
21C
100
DictionaryVariables
280
     0
  1
1:1
  0
DICTIONARYVAR
  5
25E
102
{ACAD_REACTORS
330
21C
102
}
330
21C
100
DictionaryVariables
280
     0
  1
Standard
  0
DICTIONARYVAR
  5
25D
102
{ACAD_REACTORS
330
21C
102
}
330
21C
100
DictionaryVariables
280
     0
  1
Standard
  0
DICTIONARYVAR
  5
21E
102
{ACAD_REACTORS
330
21C
102
}
330
21C
100
DictionaryVariables
280
     0
  1
1
  0
DICTIONARYVAR
  5
21F
102
{ACAD_REACTORS
330
21C
102
}
330
21C
100
DictionaryVariables
280
     0
  1
2
  0
DICTIONARY
  5
252
330
45
100
AcDbDictionary
280
     1
281
     1
  3
ACAD_XREC_ROUNDTRIP
360
253
  0
DICTIONARY
  5
250
330
44
100
AcDbDictionary
280
     1
281
     1
  3
ACAD_XREC_ROUNDTRIP
360
251
  0
DICTIONARY
  5
254
330
46
100
AcDbDictionary
280
     1
281
     1
  3
ACAD_XREC_ROUNDTRIP
360
255
  0
DICTIONARY
  5
25A
330
6C
100
AcDbDictionary
280
     1
281
     1
  3
ACAD_XREC_ROUNDTRIP
360
25B
  0
DICTIONARY
  5
256
330
6A
100
AcDbDictionary
280
     1
281
     1
  3
ACAD_ROUNDTRIP_2008_TABLESTYLE_CELLSTYLEMAP
360
258
  3
ACAD_XREC_ROUNDTRIP
360
257
  0
DICTIONARY
  5
228
330
2F
100
AcDbDictionary
280
     1
281
     1
  3
ACAD_XREC_ROUNDTRIP
360
229
  0
DICTIONARY
  5
22E
330
32
100
AcDbDictionary
280
     1
281
     1
  3
ACAD_XREC_ROUNDTRIP
360
22F
  0
DICTIONARY
  5
236
330
36
100
AcDbDictionary
280
     1
281
     1
  3
ACAD_XREC_ROUNDTRIP
360
237
  0
DICTIONARY
  5
23E
330
3A
100
AcDbDictionary
280
     1
281
     1
  3
ACAD_XREC_ROUNDTRIP
360
23F
  0
DICTIONARY
  5
232
330
34
100
AcDbDictionary
280
     1
281
     1
  3
ACAD_XREC_ROUNDTRIP
360
233
  0
DICTIONARY
  5
234
330
35
100
AcDbDictionary
280
     1
281
     1
  3
ACAD_XREC_ROUNDTRIP
360
235
  0
DICTIONARY
  5
244
330
3D
100
AcDbDictionary
280
     1
281
     1
  3
ACAD_XREC_ROUNDTRIP
360
245
  0
DICTIONARY
  5
23C
330
39
100
AcDbDictionary
280
     1
281
     1
  3
ACAD_XREC_ROUNDTRIP
360
23D
  0
DICTIONARY
  5
220
330
2B
100
AcDbDictionary
280
     1
281
     1
  3
ACAD_XREC_ROUNDTRIP
360
221
  0
DICTIONARY
  5
222
330
2C
100
AcDbDictionary
280
     1
281
     1
  3
ACAD_XREC_ROUNDTRIP
360
223
  0
DICTIONARY
  5
224
330
2D
100
AcDbDictionary
280
     1
281
     1
  3
ACAD_XREC_ROUNDTRIP
360
225
  0
DICTIONARY
  5
226
330
2E
100
AcDbDictionary
280
     1
281
     1
  3
ACAD_XREC_ROUNDTRIP
360
227
  0
DICTIONARY
  5
22C
330
31
100
AcDbDictionary
280
     1
281
     1
  3
ACAD_XREC_ROUNDTRIP
360
22D
  0
DICTIONARY
  5
240
330
3B
100
AcDbDictionary
280
     1
281
     1
  3
ACAD_XREC_ROUNDTRIP
360
241
  0
DICTIONARY
  5
23A
330
38
100
AcDbDictionary
280
     1
281
     1
  3
ACAD_XREC_ROUNDTRIP
360
23B
  0
DICTIONARY
  5
242
330
3C
100
AcDbDictionary
280
     1
281
     1
  3
ACAD_XREC_ROUNDTRIP
360
243
  0
DICTIONARY
  5
230
330
33
100
AcDbDictionary
280
     1
281
     1
  3
ACAD_XREC_ROUNDTRIP
360
231
  0
DICTIONARY
  5
24E
330
42
100
AcDbDictionary
280
     1
281
     1
  3
ACAD_XREC_ROUNDTRIP
360
24F
  0
DICTIONARY
  5
24C
330
41
100
AcDbDictionary
280
     1
281
     1
  3
ACAD_XREC_ROUNDTRIP
360
24D
  0
DICTIONARY
  5
246
330
3E
100
AcDbDictionary
280
     1
281
     1
  3
ACAD_XREC_ROUNDTRIP
360
247
  0
DICTIONARY
  5
248
330
3F
100
AcDbDictionary
280
     1
281
     1
  3
ACAD_XREC_ROUNDTRIP
360
249
  0
DICTIONARY
  5
238
330
37
100
AcDbDictionary
280
     1
281
     1
  3
ACAD_XREC_ROUNDTRIP
360
239
  0
DICTIONARY
  5
22A
330
30
100
AcDbDictionary
280
     1
281
     1
  3
ACAD_XREC_ROUNDTRIP
360
22B
  0
DICTIONARY
  5
24A
330
40
100
AcDbDictionary
280
     1
281
     1
  3
ACAD_XREC_ROUNDTRIP
360
24B
  0
XRECORD
  5
253
102
{ACAD_REACTORS
330
252
102
}
330
252
100
AcDbXrecord
280
     1
102
MATERIAL
148
0.0
149
0.0
149
0.0
 93
        0
 94
      127
282
     0
 72
     1
 77
     1
171
     1
175
     1
179
     1
273
     0
  0
XRECORD
  5
251
102
{ACAD_REACTORS
330
250
102
}
330
250
100
AcDbXrecord
280
     1
102
MATERIAL
148
0.0
149
0.0
149
0.0
 93
        0
 94
      127
282
     0
 72
     1
 77
     1
171
     1
175
     1
179
     1
273
     0
  0
XRECORD
  5
255
102
{ACAD_REACTORS
330
254
102
}
330
254
100
AcDbXrecord
280
     1
102
MATERIAL
148
0.0
149
0.0
149
0.0
 93
        0
 94
      127
282
     0
 72
     1
 77
     1
171
     1
175
     1
179
     1
273
     0
  0
XRECORD
  5
25B
102
{ACAD_REACTORS
330
25A
102
}
330
25A
100
AcDbXrecord
280
     1
102
ACAD_ROUNDTRIP_2010_MLEADER_STYLE
  0
CELLSTYLEMAP
  5
258
102
{ACAD_REACTORS
330
256
102
}
330
256
100
AcDbCellStyleMap
 90
        3
300
CELLSTYLE
  1
TABLEFORMAT_BEGIN
 90
        5
170
     1
 91
        0
 92
    32768
 62
   257
 93
        1
300
CONTENTFORMAT
  1
CONTENTFORMAT_BEGIN
 90
        0
 91
        0
 92
        4
 93
        0
300

 40
0.0
140
1.0
 94
        5
 62
     0
340
11
144
0.25
309
CONTENTFORMAT_END
171
     1
301
MARGIN
  1
CELLMARGIN_BEGIN
 40
0.06
 40
0.06
 40
0.06
 40
0.06
 40
0.06
 40
0.06
309
CELLMARGIN_END
 94
        6
 95
        1
302
GRIDFORMAT
  1
GRIDFORMAT_BEGIN
 90
        0
 91
        1
 62
     0
 92
       -2
340
14
 93
        0
 40
0.045
309
GRIDFORMAT_END
 95
        2
302
GRIDFORMAT
  1
GRIDFORMAT_BEGIN
 90
        0
 91
        1
 62
     0
 92
       -2
340
14
 93
        0
 40
0.045
309
GRIDFORMAT_END
 95
        4
302
GRIDFORMAT
  1
GRIDFORMAT_BEGIN
 90
        0
 91
        1
 62
     0
 92
       -2
340
14
 93
        0
 40
0.045
309
GRIDFORMAT_END
 95
        8
302
GRIDFORMAT
  1
GRIDFORMAT_BEGIN
 90
        0
 91
        1
 62
     0
 92
       -2
340
14
 93
        0
 40
0.045
309
GRIDFORMAT_END
 95
       16
302
GRIDFORMAT
  1
GRIDFORMAT_BEGIN
 90
        0
 91
        1
 62
     0
 92
       -2
340
14
 93
        0
 40
0.045
309
GRIDFORMAT_END
 95
       32
302
GRIDFORMAT
  1
GRIDFORMAT_BEGIN
 90
        0
 91
        1
 62
     0
 92
       -2
340
14
 93
        0
 40
0.045
309
GRIDFORMAT_END
309
TABLEFORMAT_END
  1
CELLSTYLE_BEGIN
 90
        1
 91
        1
300
_TITLE
309
CELLSTYLE_END
300
CELLSTYLE
  1
TABLEFORMAT_BEGIN
 90
        5
170
     1
 91
        0
 92
        0
 62
   257
 93
        1
300
CONTENTFORMAT
  1
CONTENTFORMAT_BEGIN
 90
        0
 91
        0
 92
        4
 93
        0
300

 40
0.0
140
1.0
 94
        5
 62
     0
340
11
144
0.18
309
CONTENTFORMAT_END
171
     1
301
MARGIN
  1
CELLMARGIN_BEGIN
 40
0.06
 40
0.06
 40
0.06
 40
0.06
 40
0.06
 40
0.06
309
CELLMARGIN_END
 94
        6
 95
        1
302
GRIDFORMAT
  1
GRIDFORMAT_BEGIN
 90
        0
 91
        1
 62
     0
 92
       -2
340
14
 93
        0
 40
0.045
309
GRIDFORMAT_END
 95
        2
302
GRIDFORMAT
  1
GRIDFORMAT_BEGIN
 90
        0
 91
        1
 62
     0
 92
       -2
340
14
 93
        0
 40
0.045
309
GRIDFORMAT_END
 95
        4
302
GRIDFORMAT
  1
GRIDFORMAT_BEGIN
 90
        0
 91
        1
 62
     0
 92
       -2
340
14
 93
        0
 40
0.045
309
GRIDFORMAT_END
 95
        8
302
GRIDFORMAT
  1
GRIDFORMAT_BEGIN
 90
        0
 91
        1
 62
     0
 92
       -2
340
14
 93
        0
 40
0.045
309
GRIDFORMAT_END
 95
       16
302
GRIDFORMAT
  1
GRIDFORMAT_BEGIN
 90
        0
 91
        1
 62
     0
 92
       -2
340
14
 93
        0
 40
0.045
309
GRIDFORMAT_END
 95
       32
302
GRIDFORMAT
  1
GRIDFORMAT_BEGIN
 90
        0
 91
        1
 62
     0
 92
       -2
340
14
 93
        0
 40
0.045
309
GRIDFORMAT_END
309
TABLEFORMAT_END
  1
CELLSTYLE_BEGIN
 90
        2
 91
        1
300
_HEADER
309
CELLSTYLE_END
300
CELLSTYLE
  1
TABLEFORMAT_BEGIN
 90
        5
170
     1
 91
        0
 92
        0
 62
   257
 93
        1
300
CONTENTFORMAT
  1
CONTENTFORMAT_BEGIN
 90
        0
 91
        0
 92
        4
 93
        0
300

 40
0.0
140
1.0
 94
        2
 62
     0
340
11
144
0.18
309
CONTENTFORMAT_END
171
     1
301
MARGIN
  1
CELLMARGIN_BEGIN
 40
0.06
 40
0.06
 40
0.06
 40
0.06
 40
0.06
 40
0.06
309
CELLMARGIN_END
 94
        6
 95
        1
302
GRIDFORMAT
  1
GRIDFORMAT_BEGIN
 90
        0
 91
        1
 62
     0
 92
       -2
340
14
 93
        0
 40
0.045
309
GRIDFORMAT_END
 95
        2
302
GRIDFORMAT
  1
GRIDFORMAT_BEGIN
 90
        0
 91
        1
 62
     0
 92
       -2
340
14
 93
        0
 40
0.045
309
GRIDFORMAT_END
 95
        4
302
GRIDFORMAT
  1
GRIDFORMAT_BEGIN
 90
        0
 91
        1
 62
     0
 92
       -2
340
14
 93
        0
 40
0.045
309
GRIDFORMAT_END
 95
        8
302
GRIDFORMAT
  1
GRIDFORMAT_BEGIN
 90
        0
 91
        1
 62
     0
 92
       -2
340
14
 93
        0
 40
0.045
309
GRIDFORMAT_END
 95
       16
302
GRIDFORMAT
  1
GRIDFORMAT_BEGIN
 90
        0
 91
        1
 62
     0
 92
       -2
340
14
 93
        0
 40
0.045
309
GRIDFORMAT_END
 95
       32
302
GRIDFORMAT
  1
GRIDFORMAT_BEGIN
 90
        0
 91
        1
 62
     0
 92
       -2
340
14
 93
        0
 40
0.045
309
GRIDFORMAT_END
309
TABLEFORMAT_END
  1
CELLSTYLE_BEGIN
 90
        3
 91
        2
300
_DATA
309
CELLSTYLE_END
  0
XRECORD
  5
257
102
{ACAD_REACTORS
330
256
102
}
330
256
100
AcDbXrecord
280
     1
102
ACAD_ROUNDTRIP_PRE2007_TABLESTYLE
 90
        4
 91
        0
  1

 92
        4
 93
        0
  2

 94
        4
 95
        0
  3

  0
XRECORD
  5
229
102
{ACAD_REACTORS
330
228
102
}
330
228
100
AcDbXrecord
280
     1
102
RTVSPropertyOp0
 70
     1
102
RTVSPropertyOp1
 70
     1
102
RTVSPropertyOp2
 70
     1
102
RTVSPropertyOp3
 70
     1
102
RTVSPropertyOp4
 70
     1
102
RTVSPropertyOp5
 70
     1
102
RTVSPropertyOp6
 70
     1
102
RTVSPropertyOp7
 70
     1
102
RTVSPropertyOp8
 70
     1
102
RTVSPropertyOp9
 70
     1
102
RTVSPropertyOp10
 70
     1
102
RTVSPropertyOp11
 70
     1
102
RTVSPropertyOp12
 70
     1
102
RTVSPropertyOp13
 70
     1
102
RTVSPropertyOp14
 70
     1
102
RTVSPropertyOp15
 70
     1
102
RTVSPropertyOp16
 70
     1
102
RTVSPropertyOp17
 70
     1
102
RTVSPropertyOp18
 70
     1
102
RTVSPropertyOp19
 70
     1
102
RTVSPropertyOp20
 70
     1
102
RTVSPropertyOp21
 70
     1
102
RTVSPropertyOp22
 70
     1
102
RTVSPropertyOp23
 70
     1
102
RTVSPropertyOp24
 70
     1
102
RTVSPropertyOp25
 70
     1
102
RTVSPropertyOp26
 70
     1
102
RTVSPropertyOp27
 70
     1
102
RTVSPropertyOp28
 70
     1
102
RTVSPropertyOp29
 70
     1
102
RTVSPropertyOp30
 70
     1
102
RTVSPropertyOp31
 70
     1
102
RTVSPropertyOp32
 70
     1
102
RTVSPropertyOp33
 70
     1
102
RTVSPropertyOp34
 70
     1
102
RTVSPropertyOp35
 70
     1
102
RTVSPropertyOp36
 70
     1
102
RTVSPropertyOp37
 70
     1
102
RTVSPropertyOp38
 70
     1
102
RTVSPropertyOp39
 70
     1
102
RTVSPropertyOp40
 70
     1
102
RTVSPropertyOp41
 70
     1
102
RTVSPropertyOp42
 70
     1
102
RTVSPropertyOp43
 70
     1
102
RTVSPropertyOp44
 70
     1
102
RTVSPropertyOp45
 70
     1
102
RTVSPropertyOp46
 70
     1
102
RTVSPropertyOp47
 70
     1
102
RTVSPropertyOp48
 70
     1
102
RTVSPropertyOp49
 70
     1
102
RTVSPropertyOp50
 70
     1
102
RTVSPropertyOp51
 70
     0
102
RTVSPropertyOp52
 70
     0
102
RTVSPropertyOp53
 70
     1
102
RTVSPropertyOp54
 70
     1
102
RTVSPropertyOp55
 70
     1
102
RTVSPropertyOp56
 70
     1
102
RTVSPropertyOp57
 70
     1
102
RTVSPost2010Prop28
280
     1
102
RTVSPost2010PropOp28
 70
     1
102
RTVSPost2010Prop29
280
     1
102
RTVSPost2010PropOp29
 70
     1
102
RTVSPost2010Prop30
280
     0
102
RTVSPost2010PropOp30
 70
     1
102
RTVSPost2010Prop31
280
     0
102
RTVSPost2010PropOp31
 70
     1
102
RTVSPost2010Prop32
280
     0
102
RTVSPost2010PropOp32
 70
     1
102
RTVSPost2010Prop33
280
     0
102
RTVSPost2010PropOp33
 70
     1
102
RTVSPost2010Prop34
280
     0
102
RTVSPost2010PropOp34
 70
     1
102
RTVSPost2010Prop35
280
     0
102
RTVSPost2010PropOp35
 70
     1
102
RTVSPost2010Prop36
280
     0
102
RTVSPost2010PropOp36
 70
     1
102
RTVSPost2010Prop37
 90
       50
102
RTVSPost2010PropOp37
 70
     1
102
RTVSPost2010Prop38
140
0.0
102
RTVSPost2010PropOp38
 70
     1
102
RTVSPost2010Prop39
140
1.0
102
RTVSPost2010PropOp39
 70
     1
102
RTVSPost2010Prop40
 90
        0
102
RTVSPost2010PropOp40
 70
     1
102
RTVSPost2010Prop41ColorIndex
 90
       18
102
RTVSPost2010Prop41ColorRGB
 90
        0
102
RTVSPost2010PropOp41
 70
     1
102
RTVSPost2010Prop42
 90
       50
102
RTVSPost2010PropOp42
 70
     1
102
RTVSPost2010Prop43
 90
        3
102
RTVSPost2010PropOp43
 70
     1
102
RTVSPost2010Prop44ColorIndex
 90
        5
102
RTVSPost2010Prop44ColorRGB
 90
      255
102
RTVSPost2010PropOp44
 70
     1
102
RTVSPost2010Prop45
280
     0
102
RTVSPost2010PropOp45
 70
     1
102
RTVSPost2010Prop46
 90
       50
102
RTVSPost2010PropOp46
 70
     1
102
RTVSPost2010Prop47
 90
       50
102
RTVSPost2010PropOp47
 70
     1
102
RTVSPost2010Prop48
 90
       50
102
RTVSPost2010PropOp48
 70
     1
102
RTVSPost2010Prop49
280
     0
102
RTVSPost2010PropOp49
 70
     1
102
RTVSPost2010Prop50
 90
       50
102
RTVSPost2010PropOp50
 70
     1
102
RTVSPost2010Prop51ColorIndex
 90
      256
102
RTVSPost2010Prop51ColorRGB
 90
-16777216
102
RTVSPost2010PropOp51
 70
     0
102
RTVSPost2010Prop52
140
1.0
102
RTVSPost2010PropOp52
 70
     0
102
RTVSPost2010Prop53
 90
        2
102
RTVSPost2010PropOp53
 70
     1
102
RTVSPost2010Prop54
  1
strokes_ogs.tif
102
RTVSPost2010PropOp54
 70
     1
102
RTVSPost2010Prop55
280
     0
102
RTVSPost2010PropOp55
 70
     1
102
RTVSPost2010Prop56
140
1.0
102
RTVSPost2010PropOp56
 70
     1
102
RTVSPost2010Prop57
140
1.0
102
RTVSPost2010PropOp57
 70
     1
  0
XRECORD
  5
22F
102
{ACAD_REACTORS
330
22E
102
}
330
22E
100
AcDbXrecord
280
     1
102
RTVSPropertyOp0
 70
     1
102
RTVSPropertyOp1
 70
     1
102
RTVSPropertyOp2
 70
     1
102
RTVSPropertyOp3
 70
     1
102
RTVSPropertyOp4
 70
     1
102
RTVSPropertyOp5
 70
     1
102
RTVSPropertyOp6
 70
     1
102
RTVSPropertyOp7
 70
     1
102
RTVSPropertyOp8
 70
     1
102
RTVSPropertyOp9
 70
     1
102
RTVSPropertyOp10
 70
     1
102
RTVSPropertyOp11
 70
     1
102
RTVSPropertyOp12
 70
     1
102
RTVSPropertyOp13
 70
     1
102
RTVSPropertyOp14
 70
     1
102
RTVSPropertyOp15
 70
     1
102
RTVSPropertyOp16
 70
     1
102
RTVSPropertyOp17
 70
     1
102
RTVSPropertyOp18
 70
     1
102
RTVSPropertyOp19
 70
     1
102
RTVSPropertyOp20
 70
     1
102
RTVSPropertyOp21
 70
     1
102
RTVSPropertyOp22
 70
     1
102
RTVSPropertyOp23
 70
     1
102
RTVSPropertyOp24
 70
     1
102
RTVSPropertyOp25
 70
     1
102
RTVSPropertyOp26
 70
     1
102
RTVSPropertyOp27
 70
     1
102
RTVSPropertyOp28
 70
     1
102
RTVSPropertyOp29
 70
     1
102
RTVSPropertyOp30
 70
     1
102
RTVSPropertyOp31
 70
     1
102
RTVSPropertyOp32
 70
     1
102
RTVSPropertyOp33
 70
     1
102
RTVSPropertyOp34
 70
     1
102
RTVSPropertyOp35
 70
     1
102
RTVSPropertyOp36
 70
     1
102
RTVSPropertyOp37
 70
     1
102
RTVSPropertyOp38
 70
     1
102
RTVSPropertyOp39
 70
     1
102
RTVSPropertyOp40
 70
     1
102
RTVSPropertyOp41
 70
     1
102
RTVSPropertyOp42
 70
     1
102
RTVSPropertyOp43
 70
     1
102
RTVSPropertyOp44
 70
     1
102
RTVSPropertyOp45
 70
     1
102
RTVSPropertyOp46
 70
     1
102
RTVSPropertyOp47
 70
     1
102
RTVSPropertyOp48
 70
     1
102
RTVSPropertyOp49
 70
     1
102
RTVSPropertyOp50
 70
     1
102
RTVSPropertyOp51
 70
     0
102
RTVSPropertyOp52
 70
     0
102
RTVSPropertyOp53
 70
     1
102
RTVSPropertyOp54
 70
     1
102
RTVSPropertyOp55
 70
     1
102
RTVSPropertyOp56
 70
     1
102
RTVSPropertyOp57
 70
     1
102
RTVSPost2010Prop28
280
     0
102
RTVSPost2010PropOp28
 70
     1
102
RTVSPost2010Prop29
280
     1
102
RTVSPost2010PropOp29
 70
     1
102
RTVSPost2010Prop30
280
     1
102
RTVSPost2010PropOp30
 70
     1
102
RTVSPost2010Prop31
280
     0
102
RTVSPost2010PropOp31
 70
     1
102
RTVSPost2010Prop32
280
     0
102
RTVSPost2010PropOp32
 70
     1
102
RTVSPost2010Prop33
280
     0
102
RTVSPost2010PropOp33
 70
     1
102
RTVSPost2010Prop34
280
     0
102
RTVSPost2010PropOp34
 70
     1
102
RTVSPost2010Prop35
280
     0
102
RTVSPost2010PropOp35
 70
     1
102
RTVSPost2010Prop36
280
     0
102
RTVSPost2010PropOp36
 70
     1
102
RTVSPost2010Prop37
 90
       50
102
RTVSPost2010PropOp37
 70
     1
102
RTVSPost2010Prop38
140
0.0
102
RTVSPost2010PropOp38
 70
     1
102
RTVSPost2010Prop39
140
1.0
102
RTVSPost2010PropOp39
 70
     1
102
RTVSPost2010Prop40
 90
        0
102
RTVSPost2010PropOp40
 70
     1
102
RTVSPost2010Prop41ColorIndex
 90
       18
102
RTVSPost2010Prop41ColorRGB
 90
        0
102
RTVSPost2010PropOp41
 70
     1
102
RTVSPost2010Prop42
 90
       50
102
RTVSPost2010PropOp42
 70
     1
102
RTVSPost2010Prop43
 90
        3
102
RTVSPost2010PropOp43
 70
     1
102
RTVSPost2010Prop44ColorIndex
 90
        5
102
RTVSPost2010Prop44ColorRGB
 90
      255
102
RTVSPost2010PropOp44
 70
     1
102
RTVSPost2010Prop45
280
     0
102
RTVSPost2010PropOp45
 70
     1
102
RTVSPost2010Prop46
 90
       50
102
RTVSPost2010PropOp46
 70
     1
102
RTVSPost2010Prop47
 90
       50
102
RTVSPost2010PropOp47
 70
     1
102
RTVSPost2010Prop48
 90
       50
102
RTVSPost2010PropOp48
 70
     1
102
RTVSPost2010Prop49
280
     0
102
RTVSPost2010PropOp49
 70
     1
102
RTVSPost2010Prop50
 90
       50
102
RTVSPost2010PropOp50
 70
     1
102
RTVSPost2010Prop51ColorIndex
 90
      256
102
RTVSPost2010Prop51ColorRGB
 90
-16777216
102
RTVSPost2010PropOp51
 70
     0
102
RTVSPost2010Prop52
140
1.0
102
RTVSPost2010PropOp52
 70
     0
102
RTVSPost2010Prop53
 90
        2
102
RTVSPost2010PropOp53
 70
     1
102
RTVSPost2010Prop54
  1
strokes_ogs.tif
102
RTVSPost2010PropOp54
 70
     1
102
RTVSPost2010Prop55
280
     0
102
RTVSPost2010PropOp55
 70
     1
102
RTVSPost2010Prop56
140
1.0
102
RTVSPost2010PropOp56
 70
     1
102
RTVSPost2010Prop57
140
1.0
102
RTVSPost2010PropOp57
 70
     1
  0
XRECORD
  5
237
102
{ACAD_REACTORS
330
236
102
}
330
236
100
AcDbXrecord
280
     1
102
RTVSPropertyOp0
 70
     1
102
RTVSPropertyOp1
 70
     1
102
RTVSPropertyOp2
 70
     1
102
RTVSPropertyOp3
 70
     1
102
RTVSPropertyOp4
 70
     1
102
RTVSPropertyOp5
 70
     1
102
RTVSPropertyOp6
 70
     1
102
RTVSPropertyOp7
 70
     1
102
RTVSPropertyOp8
 70
     1
102
RTVSPropertyOp9
 70
     1
102
RTVSPropertyOp10
 70
     1
102
RTVSPropertyOp11
 70
     1
102
RTVSPropertyOp12
 70
     1
102
RTVSPropertyOp13
 70
     1
102
RTVSPropertyOp14
 70
     1
102
RTVSPropertyOp15
 70
     1
102
RTVSPropertyOp16
 70
     1
102
RTVSPropertyOp17
 70
     1
102
RTVSPropertyOp18
 70
     1
102
RTVSPropertyOp19
 70
     1
102
RTVSPropertyOp20
 70
     1
102
RTVSPropertyOp21
 70
     1
102
RTVSPropertyOp22
 70
     1
102
RTVSPropertyOp23
 70
     1
102
RTVSPropertyOp24
 70
     1
102
RTVSPropertyOp25
 70
     1
102
RTVSPropertyOp26
 70
     1
102
RTVSPropertyOp27
 70
     1
102
RTVSPropertyOp28
 70
     1
102
RTVSPropertyOp29
 70
     1
102
RTVSPropertyOp30
 70
     1
102
RTVSPropertyOp31
 70
     1
102
RTVSPropertyOp32
 70
     1
102
RTVSPropertyOp33
 70
     1
102
RTVSPropertyOp34
 70
     1
102
RTVSPropertyOp35
 70
     1
102
RTVSPropertyOp36
 70
     1
102
RTVSPropertyOp37
 70
     1
102
RTVSPropertyOp38
 70
     1
102
RTVSPropertyOp39
 70
     1
102
RTVSPropertyOp40
 70
     1
102
RTVSPropertyOp41
 70
     1
102
RTVSPropertyOp42
 70
     1
102
RTVSPropertyOp43
 70
     1
102
RTVSPropertyOp44
 70
     1
102
RTVSPropertyOp45
 70
     1
102
RTVSPropertyOp46
 70
     1
102
RTVSPropertyOp47
 70
     1
102
RTVSPropertyOp48
 70
     1
102
RTVSPropertyOp49
 70
     1
102
RTVSPropertyOp50
 70
     1
102
RTVSPropertyOp51
 70
     0
102
RTVSPropertyOp52
 70
     0
102
RTVSPropertyOp53
 70
     1
102
RTVSPropertyOp54
 70
     1
102
RTVSPropertyOp55
 70
     1
102
RTVSPropertyOp56
 70
     1
102
RTVSPropertyOp57
 70
     1
102
RTVSPost2010Prop28
280
     0
102
RTVSPost2010PropOp28
 70
     1
102
RTVSPost2010Prop29
280
     1
102
RTVSPost2010PropOp29
 70
     1
102
RTVSPost2010Prop30
280
     1
102
RTVSPost2010PropOp30
 70
     1
102
RTVSPost2010Prop31
280
     0
102
RTVSPost2010PropOp31
 70
     1
102
RTVSPost2010Prop32
280
     0
102
RTVSPost2010PropOp32
 70
     1
102
RTVSPost2010Prop33
280
     0
102
RTVSPost2010PropOp33
 70
     1
102
RTVSPost2010Prop34
280
     0
102
RTVSPost2010PropOp34
 70
     1
102
RTVSPost2010Prop35
280
     0
102
RTVSPost2010PropOp35
 70
     1
102
RTVSPost2010Prop36
280
     0
102
RTVSPost2010PropOp36
 70
     1
102
RTVSPost2010Prop37
 90
       50
102
RTVSPost2010PropOp37
 70
     1
102
RTVSPost2010Prop38
140
0.0
102
RTVSPost2010PropOp38
 70
     1
102
RTVSPost2010Prop39
140
1.0
102
RTVSPost2010PropOp39
 70
     1
102
RTVSPost2010Prop40
 90
        0
102
RTVSPost2010PropOp40
 70
     1
102
RTVSPost2010Prop41ColorIndex
 90
       18
102
RTVSPost2010Prop41ColorRGB
 90
        0
102
RTVSPost2010PropOp41
 70
     1
102
RTVSPost2010Prop42
 90
       50
102
RTVSPost2010PropOp42
 70
     1
102
RTVSPost2010Prop43
 90
        3
102
RTVSPost2010PropOp43
 70
     1
102
RTVSPost2010Prop44ColorIndex
 90
        5
102
RTVSPost2010Prop44ColorRGB
 90
      255
102
RTVSPost2010PropOp44
 70
     1
102
RTVSPost2010Prop45
280
     0
102
RTVSPost2010PropOp45
 70
     1
102
RTVSPost2010Prop46
 90
       50
102
RTVSPost2010PropOp46
 70
     1
102
RTVSPost2010Prop47
 90
       50
102
RTVSPost2010PropOp47
 70
     1
102
RTVSPost2010Prop48
 90
       50
102
RTVSPost2010PropOp48
 70
     1
102
RTVSPost2010Prop49
280
     0
102
RTVSPost2010PropOp49
 70
     1
102
RTVSPost2010Prop50
 90
       50
102
RTVSPost2010PropOp50
 70
     1
102
RTVSPost2010Prop51ColorIndex
 90
      256
102
RTVSPost2010Prop51ColorRGB
 90
-16777216
102
RTVSPost2010PropOp51
 70
     0
102
RTVSPost2010Prop52
140
1.0
102
RTVSPost2010PropOp52
 70
     0
102
RTVSPost2010Prop53
 90
        2
102
RTVSPost2010PropOp53
 70
     1
102
RTVSPost2010Prop54
  1
strokes_ogs.tif
102
RTVSPost2010PropOp54
 70
     1
102
RTVSPost2010Prop55
280
     0
102
RTVSPost2010PropOp55
 70
     1
102
RTVSPost2010Prop56
140
1.0
102
RTVSPost2010PropOp56
 70
     1
102
RTVSPost2010Prop57
140
1.0
102
RTVSPost2010PropOp57
 70
     1
  0
XRECORD
  5
23F
102
{ACAD_REACTORS
330
23E
102
}
330
23E
100
AcDbXrecord
280
     1
102
RTVSPropertyOp0
 70
     1
102
RTVSPropertyOp1
 70
     1
102
RTVSPropertyOp2
 70
     1
102
RTVSPropertyOp3
 70
     1
102
RTVSPropertyOp4
 70
     1
102
RTVSPropertyOp5
 70
     1
102
RTVSPropertyOp6
 70
     1
102
RTVSPropertyOp7
 70
     1
102
RTVSPropertyOp8
 70
     1
102
RTVSPropertyOp9
 70
     1
102
RTVSPropertyOp10
 70
     1
102
RTVSPropertyOp11
 70
     1
102
RTVSPropertyOp12
 70
     1
102
RTVSPropertyOp13
 70
     1
102
RTVSPropertyOp14
 70
     1
102
RTVSPropertyOp15
 70
     1
102
RTVSPropertyOp16
 70
     1
102
RTVSPropertyOp17
 70
     1
102
RTVSPropertyOp18
 70
     1
102
RTVSPropertyOp19
 70
     1
102
RTVSPropertyOp20
 70
     1
102
RTVSPropertyOp21
 70
     1
102
RTVSPropertyOp22
 70
     1
102
RTVSPropertyOp23
 70
     1
102
RTVSPropertyOp24
 70
     1
102
RTVSPropertyOp25
 70
     1
102
RTVSPropertyOp26
 70
     1
102
RTVSPropertyOp27
 70
     1
102
RTVSPropertyOp28
 70
     1
102
RTVSPropertyOp29
 70
     1
102
RTVSPropertyOp30
 70
     1
102
RTVSPropertyOp31
 70
     1
102
RTVSPropertyOp32
 70
     1
102
RTVSPropertyOp33
 70
     1
102
RTVSPropertyOp34
 70
     1
102
RTVSPropertyOp35
 70
     1
102
RTVSPropertyOp36
 70
     1
102
RTVSPropertyOp37
 70
     1
102
RTVSPropertyOp38
 70
     1
102
RTVSPropertyOp39
 70
     1
102
RTVSPropertyOp40
 70
     1
102
RTVSPropertyOp41
 70
     1
102
RTVSPropertyOp42
 70
     1
102
RTVSPropertyOp43
 70
     1
102
RTVSPropertyOp44
 70
     1
102
RTVSPropertyOp45
 70
     1
102
RTVSPropertyOp46
 70
     1
102
RTVSPropertyOp47
 70
     1
102
RTVSPropertyOp48
 70
     1
102
RTVSPropertyOp49
 70
     1
102
RTVSPropertyOp50
 70
     1
102
RTVSPropertyOp51
 70
     0
102
RTVSPropertyOp52
 70
     0
102
RTVSPropertyOp53
 70
     1
102
RTVSPropertyOp54
 70
     1
102
RTVSPropertyOp55
 70
     1
102
RTVSPropertyOp56
 70
     1
102
RTVSPropertyOp57
 70
     1
102
RTVSPost2010Prop28
280
     0
102
RTVSPost2010PropOp28
 70
     1
102
RTVSPost2010Prop29
280
     1
102
RTVSPost2010PropOp29
 70
     1
102
RTVSPost2010Prop30
280
     1
102
RTVSPost2010PropOp30
 70
     1
102
RTVSPost2010Prop31
280
     0
102
RTVSPost2010PropOp31
 70
     1
102
RTVSPost2010Prop32
280
     0
102
RTVSPost2010PropOp32
 70
     1
102
RTVSPost2010Prop33
280
     0
102
RTVSPost2010PropOp33
 70
     1
102
RTVSPost2010Prop34
280
     0
102
RTVSPost2010PropOp34
 70
     1
102
RTVSPost2010Prop35
280
     0
102
RTVSPost2010PropOp35
 70
     1
102
RTVSPost2010Prop36
280
     0
102
RTVSPost2010PropOp36
 70
     1
102
RTVSPost2010Prop37
 90
       50
102
RTVSPost2010PropOp37
 70
     1
102
RTVSPost2010Prop38
140
0.0
102
RTVSPost2010PropOp38
 70
     1
102
RTVSPost2010Prop39
140
1.0
102
RTVSPost2010PropOp39
 70
     1
102
RTVSPost2010Prop40
 90
        0
102
RTVSPost2010PropOp40
 70
     1
102
RTVSPost2010Prop41ColorIndex
 90
       18
102
RTVSPost2010Prop41ColorRGB
 90
        0
102
RTVSPost2010PropOp41
 70
     1
102
RTVSPost2010Prop42
 90
       50
102
RTVSPost2010PropOp42
 70
     1
102
RTVSPost2010Prop43
 90
        3
102
RTVSPost2010PropOp43
 70
     1
102
RTVSPost2010Prop44ColorIndex
 90
        5
102
RTVSPost2010Prop44ColorRGB
 90
      255
102
RTVSPost2010PropOp44
 70
     1
102
RTVSPost2010Prop45
280
     0
102
RTVSPost2010PropOp45
 70
     1
102
RTVSPost2010Prop46
 90
       50
102
RTVSPost2010PropOp46
 70
     1
102
RTVSPost2010Prop47
 90
       50
102
RTVSPost2010PropOp47
 70
     1
102
RTVSPost2010Prop48
 90
       50
102
RTVSPost2010PropOp48
 70
     1
102
RTVSPost2010Prop49
280
     0
102
RTVSPost2010PropOp49
 70
     1
102
RTVSPost2010Prop50
 90
       50
102
RTVSPost2010PropOp50
 70
     1
102
RTVSPost2010Prop51ColorIndex
 90
      256
102
RTVSPost2010Prop51ColorRGB
 90
-16777216
102
RTVSPost2010PropOp51
 70
     0
102
RTVSPost2010Prop52
140
1.0
102
RTVSPost2010PropOp52
 70
     0
102
RTVSPost2010Prop53
 90
        2
102
RTVSPost2010PropOp53
 70
     1
102
RTVSPost2010Prop54
  1
strokes_ogs.tif
102
RTVSPost2010PropOp54
 70
     1
102
RTVSPost2010Prop55
280
     0
102
RTVSPost2010PropOp55
 70
     1
102
RTVSPost2010Prop56
140
1.0
102
RTVSPost2010PropOp56
 70
     1
102
RTVSPost2010Prop57
140
1.0
102
RTVSPost2010PropOp57
 70
     1
  0
XRECORD
  5
233
102
{ACAD_REACTORS
330
232
102
}
330
232
100
AcDbXrecord
280
     1
102
RTVSPropertyOp0
 70
     1
102
RTVSPropertyOp1
 70
     1
102
RTVSPropertyOp2
 70
     1
102
RTVSPropertyOp3
 70
     1
102
RTVSPropertyOp4
 70
     1
102
RTVSPropertyOp5
 70
     1
102
RTVSPropertyOp6
 70
     1
102
RTVSPropertyOp7
 70
     1
102
RTVSPropertyOp8
 70
     1
102
RTVSPropertyOp9
 70
     1
102
RTVSPropertyOp10
 70
     1
102
RTVSPropertyOp11
 70
     1
102
RTVSPropertyOp12
 70
     1
102
RTVSPropertyOp13
 70
     1
102
RTVSPropertyOp14
 70
     1
102
RTVSPropertyOp15
 70
     1
102
RTVSPropertyOp16
 70
     1
102
RTVSPropertyOp17
 70
     1
102
RTVSPropertyOp18
 70
     1
102
RTVSPropertyOp19
 70
     1
102
RTVSPropertyOp20
 70
     1
102
RTVSPropertyOp21
 70
     1
102
RTVSPropertyOp22
 70
     1
102
RTVSPropertyOp23
 70
     1
102
RTVSPropertyOp24
 70
     1
102
RTVSPropertyOp25
 70
     1
102
RTVSPropertyOp26
 70
     1
102
RTVSPropertyOp27
 70
     1
102
RTVSPropertyOp28
 70
     1
102
RTVSPropertyOp29
 70
     1
102
RTVSPropertyOp30
 70
     1
102
RTVSPropertyOp31
 70
     1
102
RTVSPropertyOp32
 70
     1
102
RTVSPropertyOp33
 70
     1
102
RTVSPropertyOp34
 70
     1
102
RTVSPropertyOp35
 70
     1
102
RTVSPropertyOp36
 70
     1
102
RTVSPropertyOp37
 70
     1
102
RTVSPropertyOp38
 70
     1
102
RTVSPropertyOp39
 70
     1
102
RTVSPropertyOp40
 70
     1
102
RTVSPropertyOp41
 70
     1
102
RTVSPropertyOp42
 70
     1
102
RTVSPropertyOp43
 70
     1
102
RTVSPropertyOp44
 70
     1
102
RTVSPropertyOp45
 70
     1
102
RTVSPropertyOp46
 70
     1
102
RTVSPropertyOp47
 70
     1
102
RTVSPropertyOp48
 70
     1
102
RTVSPropertyOp49
 70
     1
102
RTVSPropertyOp50
 70
     1
102
RTVSPropertyOp51
 70
     0
102
RTVSPropertyOp52
 70
     0
102
RTVSPropertyOp53
 70
     1
102
RTVSPropertyOp54
 70
     1
102
RTVSPropertyOp55
 70
     1
102
RTVSPropertyOp56
 70
     1
102
RTVSPropertyOp57
 70
     1
102
RTVSPost2010Prop28
280
     0
102
RTVSPost2010PropOp28
 70
     1
102
RTVSPost2010Prop29
280
     1
102
RTVSPost2010PropOp29
 70
     1
102
RTVSPost2010Prop30
280
     1
102
RTVSPost2010PropOp30
 70
     1
102
RTVSPost2010Prop31
280
     0
102
RTVSPost2010PropOp31
 70
     1
102
RTVSPost2010Prop32
280
     0
102
RTVSPost2010PropOp32
 70
     1
102
RTVSPost2010Prop33
280
     0
102
RTVSPost2010PropOp33
 70
     1
102
RTVSPost2010Prop34
280
     0
102
RTVSPost2010PropOp34
 70
     1
102
RTVSPost2010Prop35
280
     0
102
RTVSPost2010PropOp35
 70
     1
102
RTVSPost2010Prop36
280
     0
102
RTVSPost2010PropOp36
 70
     1
102
RTVSPost2010Prop37
 90
       50
102
RTVSPost2010PropOp37
 70
     1
102
RTVSPost2010Prop38
140
0.0
102
RTVSPost2010PropOp38
 70
     1
102
RTVSPost2010Prop39
140
1.0
102
RTVSPost2010PropOp39
 70
     1
102
RTVSPost2010Prop40
 90
        0
102
RTVSPost2010PropOp40
 70
     1
102
RTVSPost2010Prop41ColorIndex
 90
       18
102
RTVSPost2010Prop41ColorRGB
 90
        0
102
RTVSPost2010PropOp41
 70
     1
102
RTVSPost2010Prop42
 90
       50
102
RTVSPost2010PropOp42
 70
     1
102
RTVSPost2010Prop43
 90
        3
102
RTVSPost2010PropOp43
 70
     1
102
RTVSPost2010Prop44ColorIndex
 90
        5
102
RTVSPost2010Prop44ColorRGB
 90
      255
102
RTVSPost2010PropOp44
 70
     1
102
RTVSPost2010Prop45
280
     0
102
RTVSPost2010PropOp45
 70
     1
102
RTVSPost2010Prop46
 90
       50
102
RTVSPost2010PropOp46
 70
     1
102
RTVSPost2010Prop47
 90
       50
102
RTVSPost2010PropOp47
 70
     1
102
RTVSPost2010Prop48
 90
       50
102
RTVSPost2010PropOp48
 70
     1
102
RTVSPost2010Prop49
280
     0
102
RTVSPost2010PropOp49
 70
     1
102
RTVSPost2010Prop50
 90
       50
102
RTVSPost2010PropOp50
 70
     1
102
RTVSPost2010Prop51ColorIndex
 90
      256
102
RTVSPost2010Prop51ColorRGB
 90
-16777216
102
RTVSPost2010PropOp51
 70
     0
102
RTVSPost2010Prop52
140
1.0
102
RTVSPost2010PropOp52
 70
     0
102
RTVSPost2010Prop53
 90
        2
102
RTVSPost2010PropOp53
 70
     1
102
RTVSPost2010Prop54
  1
strokes_ogs.tif
102
RTVSPost2010PropOp54
 70
     1
102
RTVSPost2010Prop55
280
     0
102
RTVSPost2010PropOp55
 70
     1
102
RTVSPost2010Prop56
140
1.0
102
RTVSPost2010PropOp56
 70
     1
102
RTVSPost2010Prop57
140
1.0
102
RTVSPost2010PropOp57
 70
     1
  0
XRECORD
  5
235
102
{ACAD_REACTORS
330
234
102
}
330
234
100
AcDbXrecord
280
     1
102
RTVSPropertyOp0
 70
     1
102
RTVSPropertyOp1
 70
     1
102
RTVSPropertyOp2
 70
     1
102
RTVSPropertyOp3
 70
     1
102
RTVSPropertyOp4
 70
     1
102
RTVSPropertyOp5
 70
     1
102
RTVSPropertyOp6
 70
     1
102
RTVSPropertyOp7
 70
     1
102
RTVSPropertyOp8
 70
     1
102
RTVSPropertyOp9
 70
     1
102
RTVSPropertyOp10
 70
     1
102
RTVSPropertyOp11
 70
     1
102
RTVSPropertyOp12
 70
     1
102
RTVSPropertyOp13
 70
     1
102
RTVSPropertyOp14
 70
     1
102
RTVSPropertyOp15
 70
     1
102
RTVSPropertyOp16
 70
     1
102
RTVSPropertyOp17
 70
     1
102
RTVSPropertyOp18
 70
     1
102
RTVSPropertyOp19
 70
     1
102
RTVSPropertyOp20
 70
     1
102
RTVSPropertyOp21
 70
     1
102
RTVSPropertyOp22
 70
     1
102
RTVSPropertyOp23
 70
     1
102
RTVSPropertyOp24
 70
     1
102
RTVSPropertyOp25
 70
     1
102
RTVSPropertyOp26
 70
     1
102
RTVSPropertyOp27
 70
     1
102
RTVSPropertyOp28
 70
     1
102
RTVSPropertyOp29
 70
     1
102
RTVSPropertyOp30
 70
     1
102
RTVSPropertyOp31
 70
     1
102
RTVSPropertyOp32
 70
     1
102
RTVSPropertyOp33
 70
     1
102
RTVSPropertyOp34
 70
     1
102
RTVSPropertyOp35
 70
     1
102
RTVSPropertyOp36
 70
     1
102
RTVSPropertyOp37
 70
     1
102
RTVSPropertyOp38
 70
     1
102
RTVSPropertyOp39
 70
     1
102
RTVSPropertyOp40
 70
     1
102
RTVSPropertyOp41
 70
     1
102
RTVSPropertyOp42
 70
     1
102
RTVSPropertyOp43
 70
     1
102
RTVSPropertyOp44
 70
     1
102
RTVSPropertyOp45
 70
     1
102
RTVSPropertyOp46
 70
     1
102
RTVSPropertyOp47
 70
     1
102
RTVSPropertyOp48
 70
     1
102
RTVSPropertyOp49
 70
     1
102
RTVSPropertyOp50
 70
     1
102
RTVSPropertyOp51
 70
     0
102
RTVSPropertyOp52
 70
     0
102
RTVSPropertyOp53
 70
     1
102
RTVSPropertyOp54
 70
     1
102
RTVSPropertyOp55
 70
     1
102
RTVSPropertyOp56
 70
     1
102
RTVSPropertyOp57
 70
     1
102
RTVSPost2010Prop28
280
     0
102
RTVSPost2010PropOp28
 70
     1
102
RTVSPost2010Prop29
280
     1
102
RTVSPost2010PropOp29
 70
     1
102
RTVSPost2010Prop30
280
     1
102
RTVSPost2010PropOp30
 70
     1
102
RTVSPost2010Prop31
280
     0
102
RTVSPost2010PropOp31
 70
     1
102
RTVSPost2010Prop32
280
     0
102
RTVSPost2010PropOp32
 70
     1
102
RTVSPost2010Prop33
280
     0
102
RTVSPost2010PropOp33
 70
     1
102
RTVSPost2010Prop34
280
     0
102
RTVSPost2010PropOp34
 70
     1
102
RTVSPost2010Prop35
280
     0
102
RTVSPost2010PropOp35
 70
     1
102
RTVSPost2010Prop36
280
     0
102
RTVSPost2010PropOp36
 70
     1
102
RTVSPost2010Prop37
 90
       50
102
RTVSPost2010PropOp37
 70
     1
102
RTVSPost2010Prop38
140
0.0
102
RTVSPost2010PropOp38
 70
     1
102
RTVSPost2010Prop39
140
1.0
102
RTVSPost2010PropOp39
 70
     1
102
RTVSPost2010Prop40
 90
        0
102
RTVSPost2010PropOp40
 70
     1
102
RTVSPost2010Prop41ColorIndex
 90
       18
102
RTVSPost2010Prop41ColorRGB
 90
        0
102
RTVSPost2010PropOp41
 70
     1
102
RTVSPost2010Prop42
 90
       50
102
RTVSPost2010PropOp42
 70
     1
102
RTVSPost2010Prop43
 90
        3
102
RTVSPost2010PropOp43
 70
     1
102
RTVSPost2010Prop44ColorIndex
 90
        5
102
RTVSPost2010Prop44ColorRGB
 90
      255
102
RTVSPost2010PropOp44
 70
     1
102
RTVSPost2010Prop45
280
     0
102
RTVSPost2010PropOp45
 70
     1
102
RTVSPost2010Prop46
 90
       50
102
RTVSPost2010PropOp46
 70
     1
102
RTVSPost2010Prop47
 90
       50
102
RTVSPost2010PropOp47
 70
     1
102
RTVSPost2010Prop48
 90
       50
102
RTVSPost2010PropOp48
 70
     1
102
RTVSPost2010Prop49
280
     0
102
RTVSPost2010PropOp49
 70
     1
102
RTVSPost2010Prop50
 90
       50
102
RTVSPost2010PropOp50
 70
     1
102
RTVSPost2010Prop51ColorIndex
 90
      256
102
RTVSPost2010Prop51ColorRGB
 90
-16777216
102
RTVSPost2010PropOp51
 70
     0
102
RTVSPost2010Prop52
140
1.0
102
RTVSPost2010PropOp52
 70
     0
102
RTVSPost2010Prop53
 90
        2
102
RTVSPost2010PropOp53
 70
     1
102
RTVSPost2010Prop54
  1
strokes_ogs.tif
102
RTVSPost2010PropOp54
 70
     1
102
RTVSPost2010Prop55
280
     0
102
RTVSPost2010PropOp55
 70
     1
102
RTVSPost2010Prop56
140
1.0
102
RTVSPost2010PropOp56
 70
     1
102
RTVSPost2010Prop57
140
1.0
102
RTVSPost2010PropOp57
 70
     1
  0
XRECORD
  5
245
102
{ACAD_REACTORS
330
244
102
}
330
244
100
AcDbXrecord
280
     1
102
RTVSPropertyOp0
 70
     0
102
RTVSPropertyOp1
 70
     0
102
RTVSPropertyOp2
 70
     0
102
RTVSPropertyOp3
 70
     0
102
RTVSPropertyOp4
 70
     0
102
RTVSPropertyOp5
 70
     0
102
RTVSPropertyOp6
 70
     0
102
RTVSPropertyOp7
 70
     0
102
RTVSPropertyOp8
 70
     0
102
RTVSPropertyOp9
 70
     0
102
RTVSPropertyOp10
 70
     0
102
RTVSPropertyOp11
 70
     0
102
RTVSPropertyOp12
 70
     0
102
RTVSPropertyOp13
 70
     0
102
RTVSPropertyOp14
 70
     2
102
RTVSPropertyOp15
 70
     0
102
RTVSPropertyOp16
 70
     0
102
RTVSPropertyOp17
 70
     0
102
RTVSPropertyOp18
 70
     0
102
RTVSPropertyOp19
 70
     0
102
RTVSPropertyOp20
 70
     0
102
RTVSPropertyOp21
 70
     0
102
RTVSPropertyOp22
 70
     0
102
RTVSPropertyOp23
 70
     0
102
RTVSPropertyOp24
 70
     0
102
RTVSPropertyOp25
 70
     0
102
RTVSPropertyOp26
 70
     0
102
RTVSPropertyOp27
 70
     0
102
RTVSPropertyOp28
 70
     0
102
RTVSPropertyOp29
 70
     0
102
RTVSPropertyOp30
 70
     0
102
RTVSPropertyOp31
 70
     0
102
RTVSPropertyOp32
 70
     0
102
RTVSPropertyOp33
 70
     0
102
RTVSPropertyOp34
 70
     0
102
RTVSPropertyOp35
 70
     0
102
RTVSPropertyOp36
 70
     0
102
RTVSPropertyOp37
 70
     0
102
RTVSPropertyOp38
 70
     0
102
RTVSPropertyOp39
 70
     0
102
RTVSPropertyOp40
 70
     0
102
RTVSPropertyOp41
 70
     0
102
RTVSPropertyOp42
 70
     0
102
RTVSPropertyOp43
 70
     0
102
RTVSPropertyOp44
 70
     0
102
RTVSPropertyOp45
 70
     0
102
RTVSPropertyOp46
 70
     0
102
RTVSPropertyOp47
 70
     0
102
RTVSPropertyOp48
 70
     0
102
RTVSPropertyOp49
 70
     0
102
RTVSPropertyOp50
 70
     0
102
RTVSPropertyOp51
 70
     0
102
RTVSPropertyOp52
 70
     0
102
RTVSPropertyOp53
 70
     0
102
RTVSPropertyOp54
 70
     0
102
RTVSPropertyOp55
 70
     0
102
RTVSPropertyOp56
 70
     0
102
RTVSPropertyOp57
 70
     0
102
RTVSPost2010Prop28
280
     0
102
RTVSPost2010PropOp28
 70
     0
102
RTVSPost2010Prop29
280
     1
102
RTVSPost2010PropOp29
 70
     0
102
RTVSPost2010Prop30
280
     1
102
RTVSPost2010PropOp30
 70
     0
102
RTVSPost2010Prop31
280
     0
102
RTVSPost2010PropOp31
 70
     0
102
RTVSPost2010Prop32
280
     0
102
RTVSPost2010PropOp32
 70
     0
102
RTVSPost2010Prop33
280
     0
102
RTVSPost2010PropOp33
 70
     0
102
RTVSPost2010Prop34
280
     0
102
RTVSPost2010PropOp34
 70
     0
102
RTVSPost2010Prop35
280
     0
102
RTVSPost2010PropOp35
 70
     0
102
RTVSPost2010Prop36
280
     0
102
RTVSPost2010PropOp36
 70
     0
102
RTVSPost2010Prop37
 90
       50
102
RTVSPost2010PropOp37
 70
     0
102
RTVSPost2010Prop38
140
0.0
102
RTVSPost2010PropOp38
 70
     0
102
RTVSPost2010Prop39
140
1.0
102
RTVSPost2010PropOp39
 70
     0
102
RTVSPost2010Prop40
 90
        0
102
RTVSPost2010PropOp40
 70
     0
102
RTVSPost2010Prop41ColorIndex
 90
       18
102
RTVSPost2010Prop41ColorRGB
 90
        0
102
RTVSPost2010PropOp41
 70
     0
102
RTVSPost2010Prop42
 90
       50
102
RTVSPost2010PropOp42
 70
     0
102
RTVSPost2010Prop43
 90
        3
102
RTVSPost2010PropOp43
 70
     0
102
RTVSPost2010Prop44ColorIndex
 90
        5
102
RTVSPost2010Prop44ColorRGB
 90
      255
102
RTVSPost2010PropOp44
 70
     0
102
RTVSPost2010Prop45
280
     0
102
RTVSPost2010PropOp45
 70
     0
102
RTVSPost2010Prop46
 90
       50
102
RTVSPost2010PropOp46
 70
     0
102
RTVSPost2010Prop47
 90
       50
102
RTVSPost2010PropOp47
 70
     0
102
RTVSPost2010Prop48
 90
       50
102
RTVSPost2010PropOp48
 70
     0
102
RTVSPost2010Prop49
280
     0
102
RTVSPost2010PropOp49
 70
     0
102
RTVSPost2010Prop50
 90
       50
102
RTVSPost2010PropOp50
 70
     0
102
RTVSPost2010Prop51ColorIndex
 90
      256
102
RTVSPost2010Prop51ColorRGB
 90
-16777216
102
RTVSPost2010PropOp51
 70
     0
102
RTVSPost2010Prop52
140
1.0
102
RTVSPost2010PropOp52
 70
     0
102
RTVSPost2010Prop53
 90
        2
102
RTVSPost2010PropOp53
 70
     0
102
RTVSPost2010Prop54
  1
strokes_ogs.tif
102
RTVSPost2010PropOp54
 70
     0
102
RTVSPost2010Prop55
280
     0
102
RTVSPost2010PropOp55
 70
     0
102
RTVSPost2010Prop56
140
1.0
102
RTVSPost2010PropOp56
 70
     0
102
RTVSPost2010Prop57
140
1.0
102
RTVSPost2010PropOp57
 70
     0
  0
XRECORD
  5
23D
102
{ACAD_REACTORS
330
23C
102
}
330
23C
100
AcDbXrecord
280
     1
102
RTVSPropertyOp0
 70
     1
102
RTVSPropertyOp1
 70
     1
102
RTVSPropertyOp2
 70
     1
102
RTVSPropertyOp3
 70
     1
102
RTVSPropertyOp4
 70
     1
102
RTVSPropertyOp5
 70
     1
102
RTVSPropertyOp6
 70
     1
102
RTVSPropertyOp7
 70
     1
102
RTVSPropertyOp8
 70
     1
102
RTVSPropertyOp9
 70
     1
102
RTVSPropertyOp10
 70
     1
102
RTVSPropertyOp11
 70
     1
102
RTVSPropertyOp12
 70
     1
102
RTVSPropertyOp13
 70
     1
102
RTVSPropertyOp14
 70
     1
102
RTVSPropertyOp15
 70
     1
102
RTVSPropertyOp16
 70
     1
102
RTVSPropertyOp17
 70
     1
102
RTVSPropertyOp18
 70
     1
102
RTVSPropertyOp19
 70
     1
102
RTVSPropertyOp20
 70
     1
102
RTVSPropertyOp21
 70
     1
102
RTVSPropertyOp22
 70
     1
102
RTVSPropertyOp23
 70
     1
102
RTVSPropertyOp24
 70
     1
102
RTVSPropertyOp25
 70
     1
102
RTVSPropertyOp26
 70
     1
102
RTVSPropertyOp27
 70
     1
102
RTVSPropertyOp28
 70
     1
102
RTVSPropertyOp29
 70
     1
102
RTVSPropertyOp30
 70
     1
102
RTVSPropertyOp31
 70
     1
102
RTVSPropertyOp32
 70
     1
102
RTVSPropertyOp33
 70
     1
102
RTVSPropertyOp34
 70
     1
102
RTVSPropertyOp35
 70
     1
102
RTVSPropertyOp36
 70
     1
102
RTVSPropertyOp37
 70
     1
102
RTVSPropertyOp38
 70
     1
102
RTVSPropertyOp39
 70
     1
102
RTVSPropertyOp40
 70
     1
102
RTVSPropertyOp41
 70
     1
102
RTVSPropertyOp42
 70
     1
102
RTVSPropertyOp43
 70
     1
102
RTVSPropertyOp44
 70
     1
102
RTVSPropertyOp45
 70
     1
102
RTVSPropertyOp46
 70
     1
102
RTVSPropertyOp47
 70
     1
102
RTVSPropertyOp48
 70
     1
102
RTVSPropertyOp49
 70
     1
102
RTVSPropertyOp50
 70
     1
102
RTVSPropertyOp51
 70
     0
102
RTVSPropertyOp52
 70
     0
102
RTVSPropertyOp53
 70
     1
102
RTVSPropertyOp54
 70
     1
102
RTVSPropertyOp55
 70
     1
102
RTVSPropertyOp56
 70
     1
102
RTVSPropertyOp57
 70
     1
102
RTVSPost2010Prop28
280
     0
102
RTVSPost2010PropOp28
 70
     1
102
RTVSPost2010Prop29
280
     1
102
RTVSPost2010PropOp29
 70
     1
102
RTVSPost2010Prop30
280
     1
102
RTVSPost2010PropOp30
 70
     1
102
RTVSPost2010Prop31
280
     0
102
RTVSPost2010PropOp31
 70
     1
102
RTVSPost2010Prop32
280
     0
102
RTVSPost2010PropOp32
 70
     1
102
RTVSPost2010Prop33
280
     0
102
RTVSPost2010PropOp33
 70
     1
102
RTVSPost2010Prop34
280
     0
102
RTVSPost2010PropOp34
 70
     1
102
RTVSPost2010Prop35
280
     0
102
RTVSPost2010PropOp35
 70
     1
102
RTVSPost2010Prop36
280
     0
102
RTVSPost2010PropOp36
 70
     1
102
RTVSPost2010Prop37
 90
       50
102
RTVSPost2010PropOp37
 70
     1
102
RTVSPost2010Prop38
140
0.0
102
RTVSPost2010PropOp38
 70
     1
102
RTVSPost2010Prop39
140
1.0
102
RTVSPost2010PropOp39
 70
     1
102
RTVSPost2010Prop40
 90
        0
102
RTVSPost2010PropOp40
 70
     1
102
RTVSPost2010Prop41ColorIndex
 90
       18
102
RTVSPost2010Prop41ColorRGB
 90
        0
102
RTVSPost2010PropOp41
 70
     1
102
RTVSPost2010Prop42
 90
       50
102
RTVSPost2010PropOp42
 70
     1
102
RTVSPost2010Prop43
 90
        3
102
RTVSPost2010PropOp43
 70
     1
102
RTVSPost2010Prop44ColorIndex
 90
        5
102
RTVSPost2010Prop44ColorRGB
 90
      255
102
RTVSPost2010PropOp44
 70
     1
102
RTVSPost2010Prop45
280
     0
102
RTVSPost2010PropOp45
 70
     1
102
RTVSPost2010Prop46
 90
       50
102
RTVSPost2010PropOp46
 70
     1
102
RTVSPost2010Prop47
 90
       50
102
RTVSPost2010PropOp47
 70
     1
102
RTVSPost2010Prop48
 90
       50
102
RTVSPost2010PropOp48
 70
     1
102
RTVSPost2010Prop49
280
     0
102
RTVSPost2010PropOp49
 70
     1
102
RTVSPost2010Prop50
 90
       50
102
RTVSPost2010PropOp50
 70
     1
102
RTVSPost2010Prop51ColorIndex
 90
      256
102
RTVSPost2010Prop51ColorRGB
 90
-16777216
102
RTVSPost2010PropOp51
 70
     0
102
RTVSPost2010Prop52
140
1.0
102
RTVSPost2010PropOp52
 70
     0
102
RTVSPost2010Prop53
 90
        2
102
RTVSPost2010PropOp53
 70
     1
102
RTVSPost2010Prop54
  1
strokes_ogs.tif
102
RTVSPost2010PropOp54
 70
     1
102
RTVSPost2010Prop55
280
     0
102
RTVSPost2010PropOp55
 70
     1
102
RTVSPost2010Prop56
140
1.0
102
RTVSPost2010PropOp56
 70
     1
102
RTVSPost2010Prop57
140
1.0
102
RTVSPost2010PropOp57
 70
     1
  0
XRECORD
  5
221
102
{ACAD_REACTORS
330
220
102
}
330
220
100
AcDbXrecord
280
     1
102
RTVSPropertyOp0
 70
     1
102
RTVSPropertyOp1
 70
     1
102
RTVSPropertyOp2
 70
     1
102
RTVSPropertyOp3
 70
     1
102
RTVSPropertyOp4
 70
     1
102
RTVSPropertyOp5
 70
     1
102
RTVSPropertyOp6
 70
     1
102
RTVSPropertyOp7
 70
     1
102
RTVSPropertyOp8
 70
     1
102
RTVSPropertyOp9
 70
     1
102
RTVSPropertyOp10
 70
     1
102
RTVSPropertyOp11
 70
     1
102
RTVSPropertyOp12
 70
     1
102
RTVSPropertyOp13
 70
     1
102
RTVSPropertyOp14
 70
     1
102
RTVSPropertyOp15
 70
     1
102
RTVSPropertyOp16
 70
     1
102
RTVSPropertyOp17
 70
     1
102
RTVSPropertyOp18
 70
     1
102
RTVSPropertyOp19
 70
     1
102
RTVSPropertyOp20
 70
     1
102
RTVSPropertyOp21
 70
     1
102
RTVSPropertyOp22
 70
     1
102
RTVSPropertyOp23
 70
     1
102
RTVSPropertyOp24
 70
     1
102
RTVSPropertyOp25
 70
     1
102
RTVSPropertyOp26
 70
     1
102
RTVSPropertyOp27
 70
     1
102
RTVSPropertyOp28
 70
     1
102
RTVSPropertyOp29
 70
     1
102
RTVSPropertyOp30
 70
     1
102
RTVSPropertyOp31
 70
     1
102
RTVSPropertyOp32
 70
     1
102
RTVSPropertyOp33
 70
     1
102
RTVSPropertyOp34
 70
     1
102
RTVSPropertyOp35
 70
     1
102
RTVSPropertyOp36
 70
     1
102
RTVSPropertyOp37
 70
     1
102
RTVSPropertyOp38
 70
     1
102
RTVSPropertyOp39
 70
     1
102
RTVSPropertyOp40
 70
     1
102
RTVSPropertyOp41
 70
     1
102
RTVSPropertyOp42
 70
     1
102
RTVSPropertyOp43
 70
     1
102
RTVSPropertyOp44
 70
     1
102
RTVSPropertyOp45
 70
     1
102
RTVSPropertyOp46
 70
     1
102
RTVSPropertyOp47
 70
     1
102
RTVSPropertyOp48
 70
     1
102
RTVSPropertyOp49
 70
     1
102
RTVSPropertyOp50
 70
     1
102
RTVSPropertyOp51
 70
     0
102
RTVSPropertyOp52
 70
     0
102
RTVSPropertyOp53
 70
     1
102
RTVSPropertyOp54
 70
     1
102
RTVSPropertyOp55
 70
     1
102
RTVSPropertyOp56
 70
     1
102
RTVSPropertyOp57
 70
     1
102
RTVSPost2010Prop28
280
     0
102
RTVSPost2010PropOp28
 70
     1
102
RTVSPost2010Prop29
280
     1
102
RTVSPost2010PropOp29
 70
     1
102
RTVSPost2010Prop30
280
     1
102
RTVSPost2010PropOp30
 70
     1
102
RTVSPost2010Prop31
280
     0
102
RTVSPost2010PropOp31
 70
     1
102
RTVSPost2010Prop32
280
     0
102
RTVSPost2010PropOp32
 70
     1
102
RTVSPost2010Prop33
280
     0
102
RTVSPost2010PropOp33
 70
     1
102
RTVSPost2010Prop34
280
     0
102
RTVSPost2010PropOp34
 70
     1
102
RTVSPost2010Prop35
280
     0
102
RTVSPost2010PropOp35
 70
     1
102
RTVSPost2010Prop36
280
     0
102
RTVSPost2010PropOp36
 70
     1
102
RTVSPost2010Prop37
 90
       50
102
RTVSPost2010PropOp37
 70
     1
102
RTVSPost2010Prop38
140
0.0
102
RTVSPost2010PropOp38
 70
     1
102
RTVSPost2010Prop39
140
1.0
102
RTVSPost2010PropOp39
 70
     1
102
RTVSPost2010Prop40
 90
        0
102
RTVSPost2010PropOp40
 70
     1
102
RTVSPost2010Prop41ColorIndex
 90
       18
102
RTVSPost2010Prop41ColorRGB
 90
        0
102
RTVSPost2010PropOp41
 70
     1
102
RTVSPost2010Prop42
 90
       50
102
RTVSPost2010PropOp42
 70
     1
102
RTVSPost2010Prop43
 90
        3
102
RTVSPost2010PropOp43
 70
     1
102
RTVSPost2010Prop44ColorIndex
 90
        5
102
RTVSPost2010Prop44ColorRGB
 90
      255
102
RTVSPost2010PropOp44
 70
     1
102
RTVSPost2010Prop45
280
     0
102
RTVSPost2010PropOp45
 70
     1
102
RTVSPost2010Prop46
 90
       50
102
RTVSPost2010PropOp46
 70
     1
102
RTVSPost2010Prop47
 90
       50
102
RTVSPost2010PropOp47
 70
     1
102
RTVSPost2010Prop48
 90
       50
102
RTVSPost2010PropOp48
 70
     1
102
RTVSPost2010Prop49
280
     0
102
RTVSPost2010PropOp49
 70
     1
102
RTVSPost2010Prop50
 90
       50
102
RTVSPost2010PropOp50
 70
     1
102
RTVSPost2010Prop51ColorIndex
 90
      256
102
RTVSPost2010Prop51ColorRGB
 90
-16777216
102
RTVSPost2010PropOp51
 70
     0
102
RTVSPost2010Prop52
140
1.0
102
RTVSPost2010PropOp52
 70
     0
102
RTVSPost2010Prop53
 90
        2
102
RTVSPost2010PropOp53
 70
     1
102
RTVSPost2010Prop54
  1
strokes_ogs.tif
102
RTVSPost2010PropOp54
 70
     1
102
RTVSPost2010Prop55
280
     0
102
RTVSPost2010PropOp55
 70
     1
102
RTVSPost2010Prop56
140
1.0
102
RTVSPost2010PropOp56
 70
     1
102
RTVSPost2010Prop57
140
1.0
102
RTVSPost2010PropOp57
 70
     1
  0
XRECORD
  5
223
102
{ACAD_REACTORS
330
222
102
}
330
222
100
AcDbXrecord
280
     1
102
RTVSPropertyOp0
 70
     1
102
RTVSPropertyOp1
 70
     1
102
RTVSPropertyOp2
 70
     1
102
RTVSPropertyOp3
 70
     1
102
RTVSPropertyOp4
 70
     1
102
RTVSPropertyOp5
 70
     1
102
RTVSPropertyOp6
 70
     1
102
RTVSPropertyOp7
 70
     1
102
RTVSPropertyOp8
 70
     1
102
RTVSPropertyOp9
 70
     1
102
RTVSPropertyOp10
 70
     1
102
RTVSPropertyOp11
 70
     1
102
RTVSPropertyOp12
 70
     1
102
RTVSPropertyOp13
 70
     1
102
RTVSPropertyOp14
 70
     1
102
RTVSPropertyOp15
 70
     1
102
RTVSPropertyOp16
 70
     1
102
RTVSPropertyOp17
 70
     1
102
RTVSPropertyOp18
 70
     1
102
RTVSPropertyOp19
 70
     1
102
RTVSPropertyOp20
 70
     1
102
RTVSPropertyOp21
 70
     1
102
RTVSPropertyOp22
 70
     1
102
RTVSPropertyOp23
 70
     1
102
RTVSPropertyOp24
 70
     1
102
RTVSPropertyOp25
 70
     1
102
RTVSPropertyOp26
 70
     1
102
RTVSPropertyOp27
 70
     1
102
RTVSPropertyOp28
 70
     1
102
RTVSPropertyOp29
 70
     1
102
RTVSPropertyOp30
 70
     1
102
RTVSPropertyOp31
 70
     1
102
RTVSPropertyOp32
 70
     1
102
RTVSPropertyOp33
 70
     1
102
RTVSPropertyOp34
 70
     1
102
RTVSPropertyOp35
 70
     1
102
RTVSPropertyOp36
 70
     1
102
RTVSPropertyOp37
 70
     1
102
RTVSPropertyOp38
 70
     1
102
RTVSPropertyOp39
 70
     1
102
RTVSPropertyOp40
 70
     1
102
RTVSPropertyOp41
 70
     1
102
RTVSPropertyOp42
 70
     1
102
RTVSPropertyOp43
 70
     1
102
RTVSPropertyOp44
 70
     1
102
RTVSPropertyOp45
 70
     1
102
RTVSPropertyOp46
 70
     1
102
RTVSPropertyOp47
 70
     1
102
RTVSPropertyOp48
 70
     1
102
RTVSPropertyOp49
 70
     1
102
RTVSPropertyOp50
 70
     1
102
RTVSPropertyOp51
 70
     0
102
RTVSPropertyOp52
 70
     0
102
RTVSPropertyOp53
 70
     1
102
RTVSPropertyOp54
 70
     1
102
RTVSPropertyOp55
 70
     1
102
RTVSPropertyOp56
 70
     1
102
RTVSPropertyOp57
 70
     1
102
RTVSPost2010Prop28
280
     0
102
RTVSPost2010PropOp28
 70
     1
102
RTVSPost2010Prop29
280
     1
102
RTVSPost2010PropOp29
 70
     1
102
RTVSPost2010Prop30
280
     1
102
RTVSPost2010PropOp30
 70
     1
102
RTVSPost2010Prop31
280
     0
102
RTVSPost2010PropOp31
 70
     1
102
RTVSPost2010Prop32
280
     0
102
RTVSPost2010PropOp32
 70
     1
102
RTVSPost2010Prop33
280
     0
102
RTVSPost2010PropOp33
 70
     1
102
RTVSPost2010Prop34
280
     0
102
RTVSPost2010PropOp34
 70
     1
102
RTVSPost2010Prop35
280
     0
102
RTVSPost2010PropOp35
 70
     1
102
RTVSPost2010Prop36
280
     0
102
RTVSPost2010PropOp36
 70
     1
102
RTVSPost2010Prop37
 90
       50
102
RTVSPost2010PropOp37
 70
     1
102
RTVSPost2010Prop38
140
0.0
102
RTVSPost2010PropOp38
 70
     1
102
RTVSPost2010Prop39
140
1.0
102
RTVSPost2010PropOp39
 70
     1
102
RTVSPost2010Prop40
 90
        0
102
RTVSPost2010PropOp40
 70
     1
102
RTVSPost2010Prop41ColorIndex
 90
       18
102
RTVSPost2010Prop41ColorRGB
 90
        0
102
RTVSPost2010PropOp41
 70
     1
102
RTVSPost2010Prop42
 90
       50
102
RTVSPost2010PropOp42
 70
     1
102
RTVSPost2010Prop43
 90
        3
102
RTVSPost2010PropOp43
 70
     1
102
RTVSPost2010Prop44ColorIndex
 90
        5
102
RTVSPost2010Prop44ColorRGB
 90
      255
102
RTVSPost2010PropOp44
 70
     1
102
RTVSPost2010Prop45
280
     0
102
RTVSPost2010PropOp45
 70
     1
102
RTVSPost2010Prop46
 90
       50
102
RTVSPost2010PropOp46
 70
     1
102
RTVSPost2010Prop47
 90
       50
102
RTVSPost2010PropOp47
 70
     1
102
RTVSPost2010Prop48
 90
       50
102
RTVSPost2010PropOp48
 70
     1
102
RTVSPost2010Prop49
280
     0
102
RTVSPost2010PropOp49
 70
     1
102
RTVSPost2010Prop50
 90
       50
102
RTVSPost2010PropOp50
 70
     1
102
RTVSPost2010Prop51ColorIndex
 90
      256
102
RTVSPost2010Prop51ColorRGB
 90
-16777216
102
RTVSPost2010PropOp51
 70
     0
102
RTVSPost2010Prop52
140
1.0
102
RTVSPost2010PropOp52
 70
     0
102
RTVSPost2010Prop53
 90
        2
102
RTVSPost2010PropOp53
 70
     1
102
RTVSPost2010Prop54
  1
strokes_ogs.tif
102
RTVSPost2010PropOp54
 70
     1
102
RTVSPost2010Prop55
280
     0
102
RTVSPost2010PropOp55
 70
     1
102
RTVSPost2010Prop56
140
1.0
102
RTVSPost2010PropOp56
 70
     1
102
RTVSPost2010Prop57
140
1.0
102
RTVSPost2010PropOp57
 70
     1
  0
XRECORD
  5
225
102
{ACAD_REACTORS
330
224
102
}
330
224
100
AcDbXrecord
280
     1
102
RTVSPropertyOp0
 70
     1
102
RTVSPropertyOp1
 70
     1
102
RTVSPropertyOp2
 70
     1
102
RTVSPropertyOp3
 70
     1
102
RTVSPropertyOp4
 70
     1
102
RTVSPropertyOp5
 70
     1
102
RTVSPropertyOp6
 70
     1
102
RTVSPropertyOp7
 70
     1
102
RTVSPropertyOp8
 70
     1
102
RTVSPropertyOp9
 70
     1
102
RTVSPropertyOp10
 70
     1
102
RTVSPropertyOp11
 70
     1
102
RTVSPropertyOp12
 70
     1
102
RTVSPropertyOp13
 70
     1
102
RTVSPropertyOp14
 70
     1
102
RTVSPropertyOp15
 70
     1
102
RTVSPropertyOp16
 70
     1
102
RTVSPropertyOp17
 70
     1
102
RTVSPropertyOp18
 70
     1
102
RTVSPropertyOp19
 70
     1
102
RTVSPropertyOp20
 70
     1
102
RTVSPropertyOp21
 70
     1
102
RTVSPropertyOp22
 70
     1
102
RTVSPropertyOp23
 70
     1
102
RTVSPropertyOp24
 70
     1
102
RTVSPropertyOp25
 70
     1
102
RTVSPropertyOp26
 70
     1
102
RTVSPropertyOp27
 70
     1
102
RTVSPropertyOp28
 70
     1
102
RTVSPropertyOp29
 70
     1
102
RTVSPropertyOp30
 70
     1
102
RTVSPropertyOp31
 70
     1
102
RTVSPropertyOp32
 70
     1
102
RTVSPropertyOp33
 70
     1
102
RTVSPropertyOp34
 70
     1
102
RTVSPropertyOp35
 70
     1
102
RTVSPropertyOp36
 70
     1
102
RTVSPropertyOp37
 70
     1
102
RTVSPropertyOp38
 70
     1
102
RTVSPropertyOp39
 70
     1
102
RTVSPropertyOp40
 70
     1
102
RTVSPropertyOp41
 70
     1
102
RTVSPropertyOp42
 70
     1
102
RTVSPropertyOp43
 70
     1
102
RTVSPropertyOp44
 70
     1
102
RTVSPropertyOp45
 70
     1
102
RTVSPropertyOp46
 70
     1
102
RTVSPropertyOp47
 70
     1
102
RTVSPropertyOp48
 70
     1
102
RTVSPropertyOp49
 70
     1
102
RTVSPropertyOp50
 70
     1
102
RTVSPropertyOp51
 70
     0
102
RTVSPropertyOp52
 70
     0
102
RTVSPropertyOp53
 70
     1
102
RTVSPropertyOp54
 70
     1
102
RTVSPropertyOp55
 70
     1
102
RTVSPropertyOp56
 70
     1
102
RTVSPropertyOp57
 70
     1
102
RTVSPost2010Prop28
280
     0
102
RTVSPost2010PropOp28
 70
     1
102
RTVSPost2010Prop29
280
     1
102
RTVSPost2010PropOp29
 70
     1
102
RTVSPost2010Prop30
280
     1
102
RTVSPost2010PropOp30
 70
     1
102
RTVSPost2010Prop31
280
     0
102
RTVSPost2010PropOp31
 70
     1
102
RTVSPost2010Prop32
280
     0
102
RTVSPost2010PropOp32
 70
     1
102
RTVSPost2010Prop33
280
     0
102
RTVSPost2010PropOp33
 70
     1
102
RTVSPost2010Prop34
280
     0
102
RTVSPost2010PropOp34
 70
     1
102
RTVSPost2010Prop35
280
     0
102
RTVSPost2010PropOp35
 70
     1
102
RTVSPost2010Prop36
280
     0
102
RTVSPost2010PropOp36
 70
     1
102
RTVSPost2010Prop37
 90
       50
102
RTVSPost2010PropOp37
 70
     1
102
RTVSPost2010Prop38
140
0.0
102
RTVSPost2010PropOp38
 70
     1
102
RTVSPost2010Prop39
140
1.0
102
RTVSPost2010PropOp39
 70
     1
102
RTVSPost2010Prop40
 90
        0
102
RTVSPost2010PropOp40
 70
     1
102
RTVSPost2010Prop41ColorIndex
 90
       18
102
RTVSPost2010Prop41ColorRGB
 90
        0
102
RTVSPost2010PropOp41
 70
     1
102
RTVSPost2010Prop42
 90
       50
102
RTVSPost2010PropOp42
 70
     1
102
RTVSPost2010Prop43
 90
        3
102
RTVSPost2010PropOp43
 70
     1
102
RTVSPost2010Prop44ColorIndex
 90
        5
102
RTVSPost2010Prop44ColorRGB
 90
      255
102
RTVSPost2010PropOp44
 70
     1
102
RTVSPost2010Prop45
280
     0
102
RTVSPost2010PropOp45
 70
     1
102
RTVSPost2010Prop46
 90
       50
102
RTVSPost2010PropOp46
 70
     1
102
RTVSPost2010Prop47
 90
       50
102
RTVSPost2010PropOp47
 70
     1
102
RTVSPost2010Prop48
 90
       50
102
RTVSPost2010PropOp48
 70
     1
102
RTVSPost2010Prop49
280
     0
102
RTVSPost2010PropOp49
 70
     1
102
RTVSPost2010Prop50
 90
       50
102
RTVSPost2010PropOp50
 70
     1
102
RTVSPost2010Prop51ColorIndex
 90
      256
102
RTVSPost2010Prop51ColorRGB
 90
-16777216
102
RTVSPost2010PropOp51
 70
     0
102
RTVSPost2010Prop52
140
1.0
102
RTVSPost2010PropOp52
 70
     0
102
RTVSPost2010Prop53
 90
        2
102
RTVSPost2010PropOp53
 70
     1
102
RTVSPost2010Prop54
  1
strokes_ogs.tif
102
RTVSPost2010PropOp54
 70
     1
102
RTVSPost2010Prop55
280
     0
102
RTVSPost2010PropOp55
 70
     1
102
RTVSPost2010Prop56
140
1.0
102
RTVSPost2010PropOp56
 70
     1
102
RTVSPost2010Prop57
140
1.0
102
RTVSPost2010PropOp57
 70
     1
  0
XRECORD
  5
227
102
{ACAD_REACTORS
330
226
102
}
330
226
100
AcDbXrecord
280
     1
102
RTVSPropertyOp0
 70
     1
102
RTVSPropertyOp1
 70
     1
102
RTVSPropertyOp2
 70
     1
102
RTVSPropertyOp3
 70
     1
102
RTVSPropertyOp4
 70
     1
102
RTVSPropertyOp5
 70
     1
102
RTVSPropertyOp6
 70
     1
102
RTVSPropertyOp7
 70
     1
102
RTVSPropertyOp8
 70
     1
102
RTVSPropertyOp9
 70
     1
102
RTVSPropertyOp10
 70
     1
102
RTVSPropertyOp11
 70
     1
102
RTVSPropertyOp12
 70
     1
102
RTVSPropertyOp13
 70
     1
102
RTVSPropertyOp14
 70
     1
102
RTVSPropertyOp15
 70
     1
102
RTVSPropertyOp16
 70
     1
102
RTVSPropertyOp17
 70
     1
102
RTVSPropertyOp18
 70
     1
102
RTVSPropertyOp19
 70
     1
102
RTVSPropertyOp20
 70
     1
102
RTVSPropertyOp21
 70
     1
102
RTVSPropertyOp22
 70
     1
102
RTVSPropertyOp23
 70
     1
102
RTVSPropertyOp24
 70
     1
102
RTVSPropertyOp25
 70
     1
102
RTVSPropertyOp26
 70
     1
102
RTVSPropertyOp27
 70
     1
102
RTVSPropertyOp28
 70
     1
102
RTVSPropertyOp29
 70
     1
102
RTVSPropertyOp30
 70
     1
102
RTVSPropertyOp31
 70
     1
102
RTVSPropertyOp32
 70
     1
102
RTVSPropertyOp33
 70
     1
102
RTVSPropertyOp34
 70
     1
102
RTVSPropertyOp35
 70
     1
102
RTVSPropertyOp36
 70
     1
102
RTVSPropertyOp37
 70
     1
102
RTVSPropertyOp38
 70
     1
102
RTVSPropertyOp39
 70
     1
102
RTVSPropertyOp40
 70
     1
102
RTVSPropertyOp41
 70
     1
102
RTVSPropertyOp42
 70
     1
102
RTVSPropertyOp43
 70
     1
102
RTVSPropertyOp44
 70
     1
102
RTVSPropertyOp45
 70
     1
102
RTVSPropertyOp46
 70
     1
102
RTVSPropertyOp47
 70
     1
102
RTVSPropertyOp48
 70
     1
102
RTVSPropertyOp49
 70
     1
102
RTVSPropertyOp50
 70
     1
102
RTVSPropertyOp51
 70
     0
102
RTVSPropertyOp52
 70
     0
102
RTVSPropertyOp53
 70
     1
102
RTVSPropertyOp54
 70
     1
102
RTVSPropertyOp55
 70
     1
102
RTVSPropertyOp56
 70
     1
102
RTVSPropertyOp57
 70
     1
102
RTVSPost2010Prop28
280
     0
102
RTVSPost2010PropOp28
 70
     1
102
RTVSPost2010Prop29
280
     1
102
RTVSPost2010PropOp29
 70
     1
102
RTVSPost2010Prop30
280
     1
102
RTVSPost2010PropOp30
 70
     1
102
RTVSPost2010Prop31
280
     0
102
RTVSPost2010PropOp31
 70
     1
102
RTVSPost2010Prop32
280
     0
102
RTVSPost2010PropOp32
 70
     1
102
RTVSPost2010Prop33
280
     0
102
RTVSPost2010PropOp33
 70
     1
102
RTVSPost2010Prop34
280
     0
102
RTVSPost2010PropOp34
 70
     1
102
RTVSPost2010Prop35
280
     0
102
RTVSPost2010PropOp35
 70
     1
102
RTVSPost2010Prop36
280
     0
102
RTVSPost2010PropOp36
 70
     1
102
RTVSPost2010Prop37
 90
       50
102
RTVSPost2010PropOp37
 70
     1
102
RTVSPost2010Prop38
140
0.0
102
RTVSPost2010PropOp38
 70
     1
102
RTVSPost2010Prop39
140
1.0
102
RTVSPost2010PropOp39
 70
     1
102
RTVSPost2010Prop40
 90
        0
102
RTVSPost2010PropOp40
 70
     1
102
RTVSPost2010Prop41ColorIndex
 90
       18
102
RTVSPost2010Prop41ColorRGB
 90
        0
102
RTVSPost2010PropOp41
 70
     1
102
RTVSPost2010Prop42
 90
       50
102
RTVSPost2010PropOp42
 70
     1
102
RTVSPost2010Prop43
 90
        3
102
RTVSPost2010PropOp43
 70
     1
102
RTVSPost2010Prop44ColorIndex
 90
        5
102
RTVSPost2010Prop44ColorRGB
 90
      255
102
RTVSPost2010PropOp44
 70
     1
102
RTVSPost2010Prop45
280
     0
102
RTVSPost2010PropOp45
 70
     1
102
RTVSPost2010Prop46
 90
       50
102
RTVSPost2010PropOp46
 70
     1
102
RTVSPost2010Prop47
 90
       50
102
RTVSPost2010PropOp47
 70
     1
102
RTVSPost2010Prop48
 90
       50
102
RTVSPost2010PropOp48
 70
     1
102
RTVSPost2010Prop49
280
     0
102
RTVSPost2010PropOp49
 70
     1
102
RTVSPost2010Prop50
 90
       50
102
RTVSPost2010PropOp50
 70
     1
102
RTVSPost2010Prop51ColorIndex
 90
      256
102
RTVSPost2010Prop51ColorRGB
 90
-16777216
102
RTVSPost2010PropOp51
 70
     0
102
RTVSPost2010Prop52
140
1.0
102
RTVSPost2010PropOp52
 70
     0
102
RTVSPost2010Prop53
 90
        2
102
RTVSPost2010PropOp53
 70
     1
102
RTVSPost2010Prop54
  1
strokes_ogs.tif
102
RTVSPost2010PropOp54
 70
     1
102
RTVSPost2010Prop55
280
     0
102
RTVSPost2010PropOp55
 70
     1
102
RTVSPost2010Prop56
140
1.0
102
RTVSPost2010PropOp56
 70
     1
102
RTVSPost2010Prop57
140
1.0
102
RTVSPost2010PropOp57
 70
     1
  0
XRECORD
  5
22D
102
{ACAD_REACTORS
330
22C
102
}
330
22C
100
AcDbXrecord
280
     1
102
RTVSPropertyOp0
 70
     1
102
RTVSPropertyOp1
 70
     1
102
RTVSPropertyOp2
 70
     1
102
RTVSPropertyOp3
 70
     1
102
RTVSPropertyOp4
 70
     1
102
RTVSPropertyOp5
 70
     1
102
RTVSPropertyOp6
 70
     1
102
RTVSPropertyOp7
 70
     1
102
RTVSPropertyOp8
 70
     1
102
RTVSPropertyOp9
 70
     1
102
RTVSPropertyOp10
 70
     1
102
RTVSPropertyOp11
 70
     1
102
RTVSPropertyOp12
 70
     1
102
RTVSPropertyOp13
 70
     1
102
RTVSPropertyOp14
 70
     1
102
RTVSPropertyOp15
 70
     1
102
RTVSPropertyOp16
 70
     1
102
RTVSPropertyOp17
 70
     1
102
RTVSPropertyOp18
 70
     1
102
RTVSPropertyOp19
 70
     1
102
RTVSPropertyOp20
 70
     1
102
RTVSPropertyOp21
 70
     1
102
RTVSPropertyOp22
 70
     1
102
RTVSPropertyOp23
 70
     1
102
RTVSPropertyOp24
 70
     1
102
RTVSPropertyOp25
 70
     1
102
RTVSPropertyOp26
 70
     1
102
RTVSPropertyOp27
 70
     1
102
RTVSPropertyOp28
 70
     1
102
RTVSPropertyOp29
 70
     1
102
RTVSPropertyOp30
 70
     1
102
RTVSPropertyOp31
 70
     1
102
RTVSPropertyOp32
 70
     1
102
RTVSPropertyOp33
 70
     1
102
RTVSPropertyOp34
 70
     1
102
RTVSPropertyOp35
 70
     1
102
RTVSPropertyOp36
 70
     1
102
RTVSPropertyOp37
 70
     1
102
RTVSPropertyOp38
 70
     1
102
RTVSPropertyOp39
 70
     1
102
RTVSPropertyOp40
 70
     1
102
RTVSPropertyOp41
 70
     1
102
RTVSPropertyOp42
 70
     1
102
RTVSPropertyOp43
 70
     1
102
RTVSPropertyOp44
 70
     1
102
RTVSPropertyOp45
 70
     1
102
RTVSPropertyOp46
 70
     1
102
RTVSPropertyOp47
 70
     1
102
RTVSPropertyOp48
 70
     1
102
RTVSPropertyOp49
 70
     1
102
RTVSPropertyOp50
 70
     1
102
RTVSPropertyOp51
 70
     0
102
RTVSPropertyOp52
 70
     0
102
RTVSPropertyOp53
 70
     1
102
RTVSPropertyOp54
 70
     1
102
RTVSPropertyOp55
 70
     1
102
RTVSPropertyOp56
 70
     1
102
RTVSPropertyOp57
 70
     1
102
RTVSPost2010Prop28
280
     0
102
RTVSPost2010PropOp28
 70
     1
102
RTVSPost2010Prop29
280
     1
102
RTVSPost2010PropOp29
 70
     1
102
RTVSPost2010Prop30
280
     1
102
RTVSPost2010PropOp30
 70
     1
102
RTVSPost2010Prop31
280
     0
102
RTVSPost2010PropOp31
 70
     1
102
RTVSPost2010Prop32
280
     0
102
RTVSPost2010PropOp32
 70
     1
102
RTVSPost2010Prop33
280
     0
102
RTVSPost2010PropOp33
 70
     1
102
RTVSPost2010Prop34
280
     0
102
RTVSPost2010PropOp34
 70
     1
102
RTVSPost2010Prop35
280
     0
102
RTVSPost2010PropOp35
 70
     1
102
RTVSPost2010Prop36
280
     0
102
RTVSPost2010PropOp36
 70
     1
102
RTVSPost2010Prop37
 90
       50
102
RTVSPost2010PropOp37
 70
     1
102
RTVSPost2010Prop38
140
0.0
102
RTVSPost2010PropOp38
 70
     1
102
RTVSPost2010Prop39
140
1.0
102
RTVSPost2010PropOp39
 70
     1
102
RTVSPost2010Prop40
 90
        0
102
RTVSPost2010PropOp40
 70
     1
102
RTVSPost2010Prop41ColorIndex
 90
       18
102
RTVSPost2010Prop41ColorRGB
 90
        0
102
RTVSPost2010PropOp41
 70
     1
102
RTVSPost2010Prop42
 90
       50
102
RTVSPost2010PropOp42
 70
     1
102
RTVSPost2010Prop43
 90
        3
102
RTVSPost2010PropOp43
 70
     1
102
RTVSPost2010Prop44ColorIndex
 90
        5
102
RTVSPost2010Prop44ColorRGB
 90
      255
102
RTVSPost2010PropOp44
 70
     1
102
RTVSPost2010Prop45
280
     0
102
RTVSPost2010PropOp45
 70
     1
102
RTVSPost2010Prop46
 90
       50
102
RTVSPost2010PropOp46
 70
     1
102
RTVSPost2010Prop47
 90
       50
102
RTVSPost2010PropOp47
 70
     1
102
RTVSPost2010Prop48
 90
       50
102
RTVSPost2010PropOp48
 70
     1
102
RTVSPost2010Prop49
280
     0
102
RTVSPost2010PropOp49
 70
     1
102
RTVSPost2010Prop50
 90
       50
102
RTVSPost2010PropOp50
 70
     1
102
RTVSPost2010Prop51ColorIndex
 90
      256
102
RTVSPost2010Prop51ColorRGB
 90
-16777216
102
RTVSPost2010PropOp51
 70
     0
102
RTVSPost2010Prop52
140
1.0
102
RTVSPost2010PropOp52
 70
     0
102
RTVSPost2010Prop53
 90
        2
102
RTVSPost2010PropOp53
 70
     1
102
RTVSPost2010Prop54
  1
strokes_ogs.tif
102
RTVSPost2010PropOp54
 70
     1
102
RTVSPost2010Prop55
280
     0
102
RTVSPost2010PropOp55
 70
     1
102
RTVSPost2010Prop56
140
1.0
102
RTVSPost2010PropOp56
 70
     1
102
RTVSPost2010Prop57
140
1.0
102
RTVSPost2010PropOp57
 70
     1
  0
XRECORD
  5
241
102
{ACAD_REACTORS
330
240
102
}
330
240
100
AcDbXrecord
280
     1
102
RTVSPropertyOp0
 70
     0
102
RTVSPropertyOp1
 70
     0
102
RTVSPropertyOp2
 70
     0
102
RTVSPropertyOp3
 70
     0
102
RTVSPropertyOp4
 70
     0
102
RTVSPropertyOp5
 70
     0
102
RTVSPropertyOp6
 70
     0
102
RTVSPropertyOp7
 70
     0
102
RTVSPropertyOp8
 70
     0
102
RTVSPropertyOp9
 70
     0
102
RTVSPropertyOp10
 70
     0
102
RTVSPropertyOp11
 70
     0
102
RTVSPropertyOp12
 70
     0
102
RTVSPropertyOp13
 70
     0
102
RTVSPropertyOp14
 70
     2
102
RTVSPropertyOp15
 70
     0
102
RTVSPropertyOp16
 70
     0
102
RTVSPropertyOp17
 70
     0
102
RTVSPropertyOp18
 70
     0
102
RTVSPropertyOp19
 70
     0
102
RTVSPropertyOp20
 70
     0
102
RTVSPropertyOp21
 70
     0
102
RTVSPropertyOp22
 70
     0
102
RTVSPropertyOp23
 70
     0
102
RTVSPropertyOp24
 70
     0
102
RTVSPropertyOp25
 70
     0
102
RTVSPropertyOp26
 70
     0
102
RTVSPropertyOp27
 70
     0
102
RTVSPropertyOp28
 70
     0
102
RTVSPropertyOp29
 70
     0
102
RTVSPropertyOp30
 70
     0
102
RTVSPropertyOp31
 70
     0
102
RTVSPropertyOp32
 70
     0
102
RTVSPropertyOp33
 70
     0
102
RTVSPropertyOp34
 70
     0
102
RTVSPropertyOp35
 70
     0
102
RTVSPropertyOp36
 70
     0
102
RTVSPropertyOp37
 70
     0
102
RTVSPropertyOp38
 70
     0
102
RTVSPropertyOp39
 70
     0
102
RTVSPropertyOp40
 70
     0
102
RTVSPropertyOp41
 70
     0
102
RTVSPropertyOp42
 70
     0
102
RTVSPropertyOp43
 70
     0
102
RTVSPropertyOp44
 70
     0
102
RTVSPropertyOp45
 70
     0
102
RTVSPropertyOp46
 70
     0
102
RTVSPropertyOp47
 70
     0
102
RTVSPropertyOp48
 70
     0
102
RTVSPropertyOp49
 70
     0
102
RTVSPropertyOp50
 70
     0
102
RTVSPropertyOp51
 70
     0
102
RTVSPropertyOp52
 70
     0
102
RTVSPropertyOp53
 70
     0
102
RTVSPropertyOp54
 70
     0
102
RTVSPropertyOp55
 70
     0
102
RTVSPropertyOp56
 70
     0
102
RTVSPropertyOp57
 70
     0
102
RTVSPost2010Prop28
280
     0
102
RTVSPost2010PropOp28
 70
     0
102
RTVSPost2010Prop29
280
     1
102
RTVSPost2010PropOp29
 70
     0
102
RTVSPost2010Prop30
280
     1
102
RTVSPost2010PropOp30
 70
     0
102
RTVSPost2010Prop31
280
     0
102
RTVSPost2010PropOp31
 70
     0
102
RTVSPost2010Prop32
280
     0
102
RTVSPost2010PropOp32
 70
     0
102
RTVSPost2010Prop33
280
     0
102
RTVSPost2010PropOp33
 70
     0
102
RTVSPost2010Prop34
280
     0
102
RTVSPost2010PropOp34
 70
     0
102
RTVSPost2010Prop35
280
     0
102
RTVSPost2010PropOp35
 70
     0
102
RTVSPost2010Prop36
280
     0
102
RTVSPost2010PropOp36
 70
     0
102
RTVSPost2010Prop37
 90
       50
102
RTVSPost2010PropOp37
 70
     0
102
RTVSPost2010Prop38
140
0.0
102
RTVSPost2010PropOp38
 70
     0
102
RTVSPost2010Prop39
140
1.0
102
RTVSPost2010PropOp39
 70
     0
102
RTVSPost2010Prop40
 90
        0
102
RTVSPost2010PropOp40
 70
     0
102
RTVSPost2010Prop41ColorIndex
 90
       18
102
RTVSPost2010Prop41ColorRGB
 90
        0
102
RTVSPost2010PropOp41
 70
     0
102
RTVSPost2010Prop42
 90
       50
102
RTVSPost2010PropOp42
 70
     0
102
RTVSPost2010Prop43
 90
        3
102
RTVSPost2010PropOp43
 70
     0
102
RTVSPost2010Prop44ColorIndex
 90
        5
102
RTVSPost2010Prop44ColorRGB
 90
      255
102
RTVSPost2010PropOp44
 70
     0
102
RTVSPost2010Prop45
280
     0
102
RTVSPost2010PropOp45
 70
     0
102
RTVSPost2010Prop46
 90
       50
102
RTVSPost2010PropOp46
 70
     0
102
RTVSPost2010Prop47
 90
       50
102
RTVSPost2010PropOp47
 70
     0
102
RTVSPost2010Prop48
 90
       50
102
RTVSPost2010PropOp48
 70
     0
102
RTVSPost2010Prop49
280
     0
102
RTVSPost2010PropOp49
 70
     0
102
RTVSPost2010Prop50
 90
       50
102
RTVSPost2010PropOp50
 70
     0
102
RTVSPost2010Prop51ColorIndex
 90
      256
102
RTVSPost2010Prop51ColorRGB
 90
-16777216
102
RTVSPost2010PropOp51
 70
     0
102
RTVSPost2010Prop52
140
1.0
102
RTVSPost2010PropOp52
 70
     0
102
RTVSPost2010Prop53
 90
        2
102
RTVSPost2010PropOp53
 70
     0
102
RTVSPost2010Prop54
  1
strokes_ogs.tif
102
RTVSPost2010PropOp54
 70
     0
102
RTVSPost2010Prop55
280
     0
102
RTVSPost2010PropOp55
 70
     0
102
RTVSPost2010Prop56
140
1.0
102
RTVSPost2010PropOp56
 70
     0
102
RTVSPost2010Prop57
140
1.0
102
RTVSPost2010PropOp57
 70
     0
  0
XRECORD
  5
23B
102
{ACAD_REACTORS
330
23A
102
}
330
23A
100
AcDbXrecord
280
     1
102
RTVSPropertyOp0
 70
     1
102
RTVSPropertyOp1
 70
     1
102
RTVSPropertyOp2
 70
     1
102
RTVSPropertyOp3
 70
     1
102
RTVSPropertyOp4
 70
     1
102
RTVSPropertyOp5
 70
     1
102
RTVSPropertyOp6
 70
     1
102
RTVSPropertyOp7
 70
     1
102
RTVSPropertyOp8
 70
     1
102
RTVSPropertyOp9
 70
     1
102
RTVSPropertyOp10
 70
     1
102
RTVSPropertyOp11
 70
     1
102
RTVSPropertyOp12
 70
     1
102
RTVSPropertyOp13
 70
     1
102
RTVSPropertyOp14
 70
     1
102
RTVSPropertyOp15
 70
     1
102
RTVSPropertyOp16
 70
     1
102
RTVSPropertyOp17
 70
     1
102
RTVSPropertyOp18
 70
     1
102
RTVSPropertyOp19
 70
     1
102
RTVSPropertyOp20
 70
     1
102
RTVSPropertyOp21
 70
     1
102
RTVSPropertyOp22
 70
     1
102
RTVSPropertyOp23
 70
     1
102
RTVSPropertyOp24
 70
     1
102
RTVSPropertyOp25
 70
     1
102
RTVSPropertyOp26
 70
     1
102
RTVSPropertyOp27
 70
     1
102
RTVSPropertyOp28
 70
     1
102
RTVSPropertyOp29
 70
     1
102
RTVSPropertyOp30
 70
     1
102
RTVSPropertyOp31
 70
     1
102
RTVSPropertyOp32
 70
     1
102
RTVSPropertyOp33
 70
     1
102
RTVSPropertyOp34
 70
     1
102
RTVSPropertyOp35
 70
     1
102
RTVSPropertyOp36
 70
     1
102
RTVSPropertyOp37
 70
     1
102
RTVSPropertyOp38
 70
     1
102
RTVSPropertyOp39
 70
     1
102
RTVSPropertyOp40
 70
     1
102
RTVSPropertyOp41
 70
     1
102
RTVSPropertyOp42
 70
     1
102
RTVSPropertyOp43
 70
     1
102
RTVSPropertyOp44
 70
     1
102
RTVSPropertyOp45
 70
     1
102
RTVSPropertyOp46
 70
     1
102
RTVSPropertyOp47
 70
     1
102
RTVSPropertyOp48
 70
     1
102
RTVSPropertyOp49
 70
     1
102
RTVSPropertyOp50
 70
     1
102
RTVSPropertyOp51
 70
     0
102
RTVSPropertyOp52
 70
     0
102
RTVSPropertyOp53
 70
     1
102
RTVSPropertyOp54
 70
     1
102
RTVSPropertyOp55
 70
     1
102
RTVSPropertyOp56
 70
     1
102
RTVSPropertyOp57
 70
     1
102
RTVSPost2010Prop28
280
     0
102
RTVSPost2010PropOp28
 70
     1
102
RTVSPost2010Prop29
280
     1
102
RTVSPost2010PropOp29
 70
     1
102
RTVSPost2010Prop30
280
     1
102
RTVSPost2010PropOp30
 70
     1
102
RTVSPost2010Prop31
280
     0
102
RTVSPost2010PropOp31
 70
     1
102
RTVSPost2010Prop32
280
     0
102
RTVSPost2010PropOp32
 70
     1
102
RTVSPost2010Prop33
280
     0
102
RTVSPost2010PropOp33
 70
     1
102
RTVSPost2010Prop34
280
     0
102
RTVSPost2010PropOp34
 70
     1
102
RTVSPost2010Prop35
280
     0
102
RTVSPost2010PropOp35
 70
     1
102
RTVSPost2010Prop36
280
     0
102
RTVSPost2010PropOp36
 70
     1
102
RTVSPost2010Prop37
 90
       50
102
RTVSPost2010PropOp37
 70
     1
102
RTVSPost2010Prop38
140
0.0
102
RTVSPost2010PropOp38
 70
     1
102
RTVSPost2010Prop39
140
1.0
102
RTVSPost2010PropOp39
 70
     1
102
RTVSPost2010Prop40
 90
        0
102
RTVSPost2010PropOp40
 70
     1
102
RTVSPost2010Prop41ColorIndex
 90
       18
102
RTVSPost2010Prop41ColorRGB
 90
        0
102
RTVSPost2010PropOp41
 70
     1
102
RTVSPost2010Prop42
 90
       50
102
RTVSPost2010PropOp42
 70
     1
102
RTVSPost2010Prop43
 90
        3
102
RTVSPost2010PropOp43
 70
     1
102
RTVSPost2010Prop44ColorIndex
 90
        5
102
RTVSPost2010Prop44ColorRGB
 90
      255
102
RTVSPost2010PropOp44
 70
     1
102
RTVSPost2010Prop45
280
     0
102
RTVSPost2010PropOp45
 70
     1
102
RTVSPost2010Prop46
 90
       50
102
RTVSPost2010PropOp46
 70
     1
102
RTVSPost2010Prop47
 90
       50
102
RTVSPost2010PropOp47
 70
     1
102
RTVSPost2010Prop48
 90
       50
102
RTVSPost2010PropOp48
 70
     1
102
RTVSPost2010Prop49
280
     0
102
RTVSPost2010PropOp49
 70
     1
102
RTVSPost2010Prop50
 90
       50
102
RTVSPost2010PropOp50
 70
     1
102
RTVSPost2010Prop51ColorIndex
 90
      256
102
RTVSPost2010Prop51ColorRGB
 90
-16777216
102
RTVSPost2010PropOp51
 70
     0
102
RTVSPost2010Prop52
140
1.0
102
RTVSPost2010PropOp52
 70
     0
102
RTVSPost2010Prop53
 90
        2
102
RTVSPost2010PropOp53
 70
     1
102
RTVSPost2010Prop54
  1
strokes_ogs.tif
102
RTVSPost2010PropOp54
 70
     1
102
RTVSPost2010Prop55
280
     0
102
RTVSPost2010PropOp55
 70
     1
102
RTVSPost2010Prop56
140
1.0
102
RTVSPost2010PropOp56
 70
     1
102
RTVSPost2010Prop57
140
1.0
102
RTVSPost2010PropOp57
 70
     1
  0
XRECORD
  5
243
102
{ACAD_REACTORS
330
242
102
}
330
242
100
AcDbXrecord
280
     1
102
RTVSPropertyOp0
 70
     0
102
RTVSPropertyOp1
 70
     0
102
RTVSPropertyOp2
 70
     0
102
RTVSPropertyOp3
 70
     0
102
RTVSPropertyOp4
 70
     0
102
RTVSPropertyOp5
 70
     0
102
RTVSPropertyOp6
 70
     0
102
RTVSPropertyOp7
 70
     0
102
RTVSPropertyOp8
 70
     0
102
RTVSPropertyOp9
 70
     0
102
RTVSPropertyOp10
 70
     0
102
RTVSPropertyOp11
 70
     0
102
RTVSPropertyOp12
 70
     0
102
RTVSPropertyOp13
 70
     0
102
RTVSPropertyOp14
 70
     2
102
RTVSPropertyOp15
 70
     0
102
RTVSPropertyOp16
 70
     0
102
RTVSPropertyOp17
 70
     0
102
RTVSPropertyOp18
 70
     0
102
RTVSPropertyOp19
 70
     0
102
RTVSPropertyOp20
 70
     0
102
RTVSPropertyOp21
 70
     0
102
RTVSPropertyOp22
 70
     0
102
RTVSPropertyOp23
 70
     0
102
RTVSPropertyOp24
 70
     0
102
RTVSPropertyOp25
 70
     0
102
RTVSPropertyOp26
 70
     0
102
RTVSPropertyOp27
 70
     0
102
RTVSPropertyOp28
 70
     0
102
RTVSPropertyOp29
 70
     0
102
RTVSPropertyOp30
 70
     0
102
RTVSPropertyOp31
 70
     0
102
RTVSPropertyOp32
 70
     0
102
RTVSPropertyOp33
 70
     0
102
RTVSPropertyOp34
 70
     0
102
RTVSPropertyOp35
 70
     0
102
RTVSPropertyOp36
 70
     0
102
RTVSPropertyOp37
 70
     0
102
RTVSPropertyOp38
 70
     0
102
RTVSPropertyOp39
 70
     0
102
RTVSPropertyOp40
 70
     0
102
RTVSPropertyOp41
 70
     0
102
RTVSPropertyOp42
 70
     0
102
RTVSPropertyOp43
 70
     0
102
RTVSPropertyOp44
 70
     0
102
RTVSPropertyOp45
 70
     0
102
RTVSPropertyOp46
 70
     0
102
RTVSPropertyOp47
 70
     0
102
RTVSPropertyOp48
 70
     0
102
RTVSPropertyOp49
 70
     0
102
RTVSPropertyOp50
 70
     0
102
RTVSPropertyOp51
 70
     0
102
RTVSPropertyOp52
 70
     0
102
RTVSPropertyOp53
 70
     0
102
RTVSPropertyOp54
 70
     0
102
RTVSPropertyOp55
 70
     0
102
RTVSPropertyOp56
 70
     0
102
RTVSPropertyOp57
 70
     0
102
RTVSPost2010Prop28
280
     0
102
RTVSPost2010PropOp28
 70
     0
102
RTVSPost2010Prop29
280
     1
102
RTVSPost2010PropOp29
 70
     0
102
RTVSPost2010Prop30
280
     1
102
RTVSPost2010PropOp30
 70
     0
102
RTVSPost2010Prop31
280
     0
102
RTVSPost2010PropOp31
 70
     0
102
RTVSPost2010Prop32
280
     0
102
RTVSPost2010PropOp32
 70
     0
102
RTVSPost2010Prop33
280
     0
102
RTVSPost2010PropOp33
 70
     0
102
RTVSPost2010Prop34
280
     0
102
RTVSPost2010PropOp34
 70
     0
102
RTVSPost2010Prop35
280
     0
102
RTVSPost2010PropOp35
 70
     0
102
RTVSPost2010Prop36
280
     0
102
RTVSPost2010PropOp36
 70
     0
102
RTVSPost2010Prop37
 90
       50
102
RTVSPost2010PropOp37
 70
     0
102
RTVSPost2010Prop38
140
0.0
102
RTVSPost2010PropOp38
 70
     0
102
RTVSPost2010Prop39
140
1.0
102
RTVSPost2010PropOp39
 70
     0
102
RTVSPost2010Prop40
 90
        0
102
RTVSPost2010PropOp40
 70
     0
102
RTVSPost2010Prop41ColorIndex
 90
       18
102
RTVSPost2010Prop41ColorRGB
 90
        0
102
RTVSPost2010PropOp41
 70
     0
102
RTVSPost2010Prop42
 90
       50
102
RTVSPost2010PropOp42
 70
     0
102
RTVSPost2010Prop43
 90
        3
102
RTVSPost2010PropOp43
 70
     0
102
RTVSPost2010Prop44ColorIndex
 90
        5
102
RTVSPost2010Prop44ColorRGB
 90
      255
102
RTVSPost2010PropOp44
 70
     0
102
RTVSPost2010Prop45
280
     0
102
RTVSPost2010PropOp45
 70
     0
102
RTVSPost2010Prop46
 90
       50
102
RTVSPost2010PropOp46
 70
     0
102
RTVSPost2010Prop47
 90
       50
102
RTVSPost2010PropOp47
 70
     0
102
RTVSPost2010Prop48
 90
       50
102
RTVSPost2010PropOp48
 70
     0
102
RTVSPost2010Prop49
280
     0
102
RTVSPost2010PropOp49
 70
     0
102
RTVSPost2010Prop50
 90
       50
102
RTVSPost2010PropOp50
 70
     0
102
RTVSPost2010Prop51ColorIndex
 90
      256
102
RTVSPost2010Prop51ColorRGB
 90
-16777216
102
RTVSPost2010PropOp51
 70
     0
102
RTVSPost2010Prop52
140
1.0
102
RTVSPost2010PropOp52
 70
     0
102
RTVSPost2010Prop53
 90
        2
102
RTVSPost2010PropOp53
 70
     0
102
RTVSPost2010Prop54
  1
strokes_ogs.tif
102
RTVSPost2010PropOp54
 70
     0
102
RTVSPost2010Prop55
280
     0
102
RTVSPost2010PropOp55
 70
     0
102
RTVSPost2010Prop56
140
1.0
102
RTVSPost2010PropOp56
 70
     0
102
RTVSPost2010Prop57
140
1.0
102
RTVSPost2010PropOp57
 70
     0
  0
XRECORD
  5
231
102
{ACAD_REACTORS
330
230
102
}
330
230
100
AcDbXrecord
280
     1
102
RTVSPropertyOp0
 70
     1
102
RTVSPropertyOp1
 70
     1
102
RTVSPropertyOp2
 70
     1
102
RTVSPropertyOp3
 70
     1
102
RTVSPropertyOp4
 70
     1
102
RTVSPropertyOp5
 70
     1
102
RTVSPropertyOp6
 70
     1
102
RTVSPropertyOp7
 70
     1
102
RTVSPropertyOp8
 70
     1
102
RTVSPropertyOp9
 70
     1
102
RTVSPropertyOp10
 70
     1
102
RTVSPropertyOp11
 70
     1
102
RTVSPropertyOp12
 70
     1
102
RTVSPropertyOp13
 70
     1
102
RTVSPropertyOp14
 70
     1
102
RTVSPropertyOp15
 70
     1
102
RTVSPropertyOp16
 70
     1
102
RTVSPropertyOp17
 70
     1
102
RTVSPropertyOp18
 70
     1
102
RTVSPropertyOp19
 70
     1
102
RTVSPropertyOp20
 70
     1
102
RTVSPropertyOp21
 70
     1
102
RTVSPropertyOp22
 70
     1
102
RTVSPropertyOp23
 70
     1
102
RTVSPropertyOp24
 70
     1
102
RTVSPropertyOp25
 70
     1
102
RTVSPropertyOp26
 70
     1
102
RTVSPropertyOp27
 70
     1
102
RTVSPropertyOp28
 70
     1
102
RTVSPropertyOp29
 70
     1
102
RTVSPropertyOp30
 70
     1
102
RTVSPropertyOp31
 70
     1
102
RTVSPropertyOp32
 70
     1
102
RTVSPropertyOp33
 70
     1
102
RTVSPropertyOp34
 70
     1
102
RTVSPropertyOp35
 70
     1
102
RTVSPropertyOp36
 70
     1
102
RTVSPropertyOp37
 70
     1
102
RTVSPropertyOp38
 70
     1
102
RTVSPropertyOp39
 70
     1
102
RTVSPropertyOp40
 70
     1
102
RTVSPropertyOp41
 70
     1
102
RTVSPropertyOp42
 70
     1
102
RTVSPropertyOp43
 70
     1
102
RTVSPropertyOp44
 70
     1
102
RTVSPropertyOp45
 70
     1
102
RTVSPropertyOp46
 70
     1
102
RTVSPropertyOp47
 70
     1
102
RTVSPropertyOp48
 70
     1
102
RTVSPropertyOp49
 70
     1
102
RTVSPropertyOp50
 70
     1
102
RTVSPropertyOp51
 70
     0
102
RTVSPropertyOp52
 70
     0
102
RTVSPropertyOp53
 70
     1
102
RTVSPropertyOp54
 70
     1
102
RTVSPropertyOp55
 70
     1
102
RTVSPropertyOp56
 70
     1
102
RTVSPropertyOp57
 70
     1
102
RTVSPost2010Prop28
280
     0
102
RTVSPost2010PropOp28
 70
     1
102
RTVSPost2010Prop29
280
     1
102
RTVSPost2010PropOp29
 70
     1
102
RTVSPost2010Prop30
280
     1
102
RTVSPost2010PropOp30
 70
     1
102
RTVSPost2010Prop31
280
     0
102
RTVSPost2010PropOp31
 70
     1
102
RTVSPost2010Prop32
280
     0
102
RTVSPost2010PropOp32
 70
     1
102
RTVSPost2010Prop33
280
     0
102
RTVSPost2010PropOp33
 70
     1
102
RTVSPost2010Prop34
280
     0
102
RTVSPost2010PropOp34
 70
     1
102
RTVSPost2010Prop35
280
     0
102
RTVSPost2010PropOp35
 70
     1
102
RTVSPost2010Prop36
280
     0
102
RTVSPost2010PropOp36
 70
     1
102
RTVSPost2010Prop37
 90
       50
102
RTVSPost2010PropOp37
 70
     1
102
RTVSPost2010Prop38
140
0.0
102
RTVSPost2010PropOp38
 70
     1
102
RTVSPost2010Prop39
140
1.0
102
RTVSPost2010PropOp39
 70
     1
102
RTVSPost2010Prop40
 90
        0
102
RTVSPost2010PropOp40
 70
     1
102
RTVSPost2010Prop41ColorIndex
 90
       18
102
RTVSPost2010Prop41ColorRGB
 90
        0
102
RTVSPost2010PropOp41
 70
     1
102
RTVSPost2010Prop42
 90
       50
102
RTVSPost2010PropOp42
 70
     1
102
RTVSPost2010Prop43
 90
        3
102
RTVSPost2010PropOp43
 70
     1
102
RTVSPost2010Prop44ColorIndex
 90
        5
102
RTVSPost2010Prop44ColorRGB
 90
      255
102
RTVSPost2010PropOp44
 70
     1
102
RTVSPost2010Prop45
280
     0
102
RTVSPost2010PropOp45
 70
     1
102
RTVSPost2010Prop46
 90
       50
102
RTVSPost2010PropOp46
 70
     1
102
RTVSPost2010Prop47
 90
       50
102
RTVSPost2010PropOp47
 70
     1
102
RTVSPost2010Prop48
 90
       50
102
RTVSPost2010PropOp48
 70
     1
102
RTVSPost2010Prop49
280
     0
102
RTVSPost2010PropOp49
 70
     1
102
RTVSPost2010Prop50
 90
       50
102
RTVSPost2010PropOp50
 70
     1
102
RTVSPost2010Prop51ColorIndex
 90
      256
102
RTVSPost2010Prop51ColorRGB
 90
-16777216
102
RTVSPost2010PropOp51
 70
     0
102
RTVSPost2010Prop52
140
1.0
102
RTVSPost2010PropOp52
 70
     0
102
RTVSPost2010Prop53
 90
        2
102
RTVSPost2010PropOp53
 70
     1
102
RTVSPost2010Prop54
  1
strokes_ogs.tif
102
RTVSPost2010PropOp54
 70
     1
102
RTVSPost2010Prop55
280
     0
102
RTVSPost2010PropOp55
 70
     1
102
RTVSPost2010Prop56
140
1.0
102
RTVSPost2010PropOp56
 70
     1
102
RTVSPost2010Prop57
140
1.0
102
RTVSPost2010PropOp57
 70
     1
  0
XRECORD
  5
24F
102
{ACAD_REACTORS
330
24E
102
}
330
24E
100
AcDbXrecord
280
     1
102
RTVSPropertyOp0
 70
     1
102
RTVSPropertyOp1
 70
     1
102
RTVSPropertyOp2
 70
     1
102
RTVSPropertyOp3
 70
     1
102
RTVSPropertyOp4
 70
     1
102
RTVSPropertyOp5
 70
     1
102
RTVSPropertyOp6
 70
     1
102
RTVSPropertyOp7
 70
     1
102
RTVSPropertyOp8
 70
     1
102
RTVSPropertyOp9
 70
     1
102
RTVSPropertyOp10
 70
     1
102
RTVSPropertyOp11
 70
     1
102
RTVSPropertyOp12
 70
     1
102
RTVSPropertyOp13
 70
     1
102
RTVSPropertyOp14
 70
     1
102
RTVSPropertyOp15
 70
     1
102
RTVSPropertyOp16
 70
     1
102
RTVSPropertyOp17
 70
     1
102
RTVSPropertyOp18
 70
     1
102
RTVSPropertyOp19
 70
     1
102
RTVSPropertyOp20
 70
     1
102
RTVSPropertyOp21
 70
     1
102
RTVSPropertyOp22
 70
     1
102
RTVSPropertyOp23
 70
     1
102
RTVSPropertyOp24
 70
     1
102
RTVSPropertyOp25
 70
     1
102
RTVSPropertyOp26
 70
     1
102
RTVSPropertyOp27
 70
     1
102
RTVSPropertyOp28
 70
     1
102
RTVSPropertyOp29
 70
     1
102
RTVSPropertyOp30
 70
     1
102
RTVSPropertyOp31
 70
     1
102
RTVSPropertyOp32
 70
     1
102
RTVSPropertyOp33
 70
     1
102
RTVSPropertyOp34
 70
     1
102
RTVSPropertyOp35
 70
     1
102
RTVSPropertyOp36
 70
     1
102
RTVSPropertyOp37
 70
     1
102
RTVSPropertyOp38
 70
     1
102
RTVSPropertyOp39
 70
     1
102
RTVSPropertyOp40
 70
     1
102
RTVSPropertyOp41
 70
     1
102
RTVSPropertyOp42
 70
     1
102
RTVSPropertyOp43
 70
     1
102
RTVSPropertyOp44
 70
     1
102
RTVSPropertyOp45
 70
     1
102
RTVSPropertyOp46
 70
     1
102
RTVSPropertyOp47
 70
     1
102
RTVSPropertyOp48
 70
     1
102
RTVSPropertyOp49
 70
     1
102
RTVSPropertyOp50
 70
     1
102
RTVSPropertyOp51
 70
     0
102
RTVSPropertyOp52
 70
     0
102
RTVSPropertyOp53
 70
     1
102
RTVSPropertyOp54
 70
     1
102
RTVSPropertyOp55
 70
     1
102
RTVSPropertyOp56
 70
     1
102
RTVSPropertyOp57
 70
     1
102
RTVSPost2010Prop28
280
     0
102
RTVSPost2010PropOp28
 70
     1
102
RTVSPost2010Prop29
280
     1
102
RTVSPost2010PropOp29
 70
     1
102
RTVSPost2010Prop30
280
     1
102
RTVSPost2010PropOp30
 70
     1
102
RTVSPost2010Prop31
280
     0
102
RTVSPost2010PropOp31
 70
     1
102
RTVSPost2010Prop32
280
     0
102
RTVSPost2010PropOp32
 70
     1
102
RTVSPost2010Prop33
280
     0
102
RTVSPost2010PropOp33
 70
     1
102
RTVSPost2010Prop34
280
     0
102
RTVSPost2010PropOp34
 70
     1
102
RTVSPost2010Prop35
280
     0
102
RTVSPost2010PropOp35
 70
     1
102
RTVSPost2010Prop36
280
     0
102
RTVSPost2010PropOp36
 70
     1
102
RTVSPost2010Prop37
 90
       50
102
RTVSPost2010PropOp37
 70
     1
102
RTVSPost2010Prop38
140
0.0
102
RTVSPost2010PropOp38
 70
     1
102
RTVSPost2010Prop39
140
1.0
102
RTVSPost2010PropOp39
 70
     1
102
RTVSPost2010Prop40
 90
        0
102
RTVSPost2010PropOp40
 70
     1
102
RTVSPost2010Prop41ColorIndex
 90
       18
102
RTVSPost2010Prop41ColorRGB
 90
        0
102
RTVSPost2010PropOp41
 70
     1
102
RTVSPost2010Prop42
 90
       50
102
RTVSPost2010PropOp42
 70
     1
102
RTVSPost2010Prop43
 90
        3
102
RTVSPost2010PropOp43
 70
     1
102
RTVSPost2010Prop44ColorIndex
 90
        5
102
RTVSPost2010Prop44ColorRGB
 90
      255
102
RTVSPost2010PropOp44
 70
     1
102
RTVSPost2010Prop45
280
     0
102
RTVSPost2010PropOp45
 70
     1
102
RTVSPost2010Prop46
 90
       50
102
RTVSPost2010PropOp46
 70
     1
102
RTVSPost2010Prop47
 90
       50
102
RTVSPost2010PropOp47
 70
     1
102
RTVSPost2010Prop48
 90
       50
102
RTVSPost2010PropOp48
 70
     1
102
RTVSPost2010Prop49
280
     0
102
RTVSPost2010PropOp49
 70
     1
102
RTVSPost2010Prop50
 90
       50
102
RTVSPost2010PropOp50
 70
     1
102
RTVSPost2010Prop51ColorIndex
 90
      256
102
RTVSPost2010Prop51ColorRGB
 90
-16777216
102
RTVSPost2010PropOp51
 70
     0
102
RTVSPost2010Prop52
140
1.0
102
RTVSPost2010PropOp52
 70
     0
102
RTVSPost2010Prop53
 90
        2
102
RTVSPost2010PropOp53
 70
     1
102
RTVSPost2010Prop54
  1
strokes_ogs.tif
102
RTVSPost2010PropOp54
 70
     1
102
RTVSPost2010Prop55
280
     0
102
RTVSPost2010PropOp55
 70
     1
102
RTVSPost2010Prop56
140
1.0
102
RTVSPost2010PropOp56
 70
     1
102
RTVSPost2010Prop57
140
1.0
102
RTVSPost2010PropOp57
 70
     1
  0
XRECORD
  5
24D
102
{ACAD_REACTORS
330
24C
102
}
330
24C
100
AcDbXrecord
280
     1
102
RTVSPropertyOp0
 70
     1
102
RTVSPropertyOp1
 70
     1
102
RTVSPropertyOp2
 70
     1
102
RTVSPropertyOp3
 70
     1
102
RTVSPropertyOp4
 70
     1
102
RTVSPropertyOp5
 70
     1
102
RTVSPropertyOp6
 70
     1
102
RTVSPropertyOp7
 70
     1
102
RTVSPropertyOp8
 70
     1
102
RTVSPropertyOp9
 70
     1
102
RTVSPropertyOp10
 70
     1
102
RTVSPropertyOp11
 70
     1
102
RTVSPropertyOp12
 70
     1
102
RTVSPropertyOp13
 70
     1
102
RTVSPropertyOp14
 70
     1
102
RTVSPropertyOp15
 70
     1
102
RTVSPropertyOp16
 70
     1
102
RTVSPropertyOp17
 70
     1
102
RTVSPropertyOp18
 70
     1
102
RTVSPropertyOp19
 70
     1
102
RTVSPropertyOp20
 70
     1
102
RTVSPropertyOp21
 70
     1
102
RTVSPropertyOp22
 70
     1
102
RTVSPropertyOp23
 70
     1
102
RTVSPropertyOp24
 70
     1
102
RTVSPropertyOp25
 70
     1
102
RTVSPropertyOp26
 70
     1
102
RTVSPropertyOp27
 70
     1
102
RTVSPropertyOp28
 70
     1
102
RTVSPropertyOp29
 70
     1
102
RTVSPropertyOp30
 70
     1
102
RTVSPropertyOp31
 70
     1
102
RTVSPropertyOp32
 70
     1
102
RTVSPropertyOp33
 70
     1
102
RTVSPropertyOp34
 70
     1
102
RTVSPropertyOp35
 70
     1
102
RTVSPropertyOp36
 70
     1
102
RTVSPropertyOp37
 70
     1
102
RTVSPropertyOp38
 70
     1
102
RTVSPropertyOp39
 70
     1
102
RTVSPropertyOp40
 70
     1
102
RTVSPropertyOp41
 70
     1
102
RTVSPropertyOp42
 70
     1
102
RTVSPropertyOp43
 70
     1
102
RTVSPropertyOp44
 70
     1
102
RTVSPropertyOp45
 70
     1
102
RTVSPropertyOp46
 70
     1
102
RTVSPropertyOp47
 70
     1
102
RTVSPropertyOp48
 70
     1
102
RTVSPropertyOp49
 70
     1
102
RTVSPropertyOp50
 70
     1
102
RTVSPropertyOp51
 70
     0
102
RTVSPropertyOp52
 70
     0
102
RTVSPropertyOp53
 70
     1
102
RTVSPropertyOp54
 70
     1
102
RTVSPropertyOp55
 70
     1
102
RTVSPropertyOp56
 70
     1
102
RTVSPropertyOp57
 70
     1
102
RTVSPost2010Prop28
280
     0
102
RTVSPost2010PropOp28
 70
     1
102
RTVSPost2010Prop29
280
     1
102
RTVSPost2010PropOp29
 70
     1
102
RTVSPost2010Prop30
280
     1
102
RTVSPost2010PropOp30
 70
     1
102
RTVSPost2010Prop31
280
     0
102
RTVSPost2010PropOp31
 70
     1
102
RTVSPost2010Prop32
280
     0
102
RTVSPost2010PropOp32
 70
     1
102
RTVSPost2010Prop33
280
     0
102
RTVSPost2010PropOp33
 70
     1
102
RTVSPost2010Prop34
280
     0
102
RTVSPost2010PropOp34
 70
     1
102
RTVSPost2010Prop35
280
     0
102
RTVSPost2010PropOp35
 70
     1
102
RTVSPost2010Prop36
280
     0
102
RTVSPost2010PropOp36
 70
     1
102
RTVSPost2010Prop37
 90
       50
102
RTVSPost2010PropOp37
 70
     1
102
RTVSPost2010Prop38
140
0.0
102
RTVSPost2010PropOp38
 70
     1
102
RTVSPost2010Prop39
140
1.0
102
RTVSPost2010PropOp39
 70
     1
102
RTVSPost2010Prop40
 90
        0
102
RTVSPost2010PropOp40
 70
     1
102
RTVSPost2010Prop41ColorIndex
 90
       18
102
RTVSPost2010Prop41ColorRGB
 90
        0
102
RTVSPost2010PropOp41
 70
     1
102
RTVSPost2010Prop42
 90
       50
102
RTVSPost2010PropOp42
 70
     1
102
RTVSPost2010Prop43
 90
        3
102
RTVSPost2010PropOp43
 70
     1
102
RTVSPost2010Prop44ColorIndex
 90
        5
102
RTVSPost2010Prop44ColorRGB
 90
      255
102
RTVSPost2010PropOp44
 70
     1
102
RTVSPost2010Prop45
280
     0
102
RTVSPost2010PropOp45
 70
     1
102
RTVSPost2010Prop46
 90
       50
102
RTVSPost2010PropOp46
 70
     1
102
RTVSPost2010Prop47
 90
       50
102
RTVSPost2010PropOp47
 70
     1
102
RTVSPost2010Prop48
 90
       50
102
RTVSPost2010PropOp48
 70
     1
102
RTVSPost2010Prop49
280
     0
102
RTVSPost2010PropOp49
 70
     1
102
RTVSPost2010Prop50
 90
       50
102
RTVSPost2010PropOp50
 70
     1
102
RTVSPost2010Prop51ColorIndex
 90
      256
102
RTVSPost2010Prop51ColorRGB
 90
-16777216
102
RTVSPost2010PropOp51
 70
     0
102
RTVSPost2010Prop52
140
1.0
102
RTVSPost2010PropOp52
 70
     0
102
RTVSPost2010Prop53
 90
        2
102
RTVSPost2010PropOp53
 70
     1
102
RTVSPost2010Prop54
  1
strokes_ogs.tif
102
RTVSPost2010PropOp54
 70
     1
102
RTVSPost2010Prop55
280
     0
102
RTVSPost2010PropOp55
 70
     1
102
RTVSPost2010Prop56
140
1.0
102
RTVSPost2010PropOp56
 70
     1
102
RTVSPost2010Prop57
140
1.0
102
RTVSPost2010PropOp57
 70
     1
  0
XRECORD
  5
247
102
{ACAD_REACTORS
330
246
102
}
330
246
100
AcDbXrecord
280
     1
102
RTVSPropertyOp0
 70
     1
102
RTVSPropertyOp1
 70
     1
102
RTVSPropertyOp2
 70
     1
102
RTVSPropertyOp3
 70
     1
102
RTVSPropertyOp4
 70
     1
102
RTVSPropertyOp5
 70
     1
102
RTVSPropertyOp6
 70
     1
102
RTVSPropertyOp7
 70
     1
102
RTVSPropertyOp8
 70
     1
102
RTVSPropertyOp9
 70
     1
102
RTVSPropertyOp10
 70
     1
102
RTVSPropertyOp11
 70
     1
102
RTVSPropertyOp12
 70
     1
102
RTVSPropertyOp13
 70
     1
102
RTVSPropertyOp14
 70
     1
102
RTVSPropertyOp15
 70
     1
102
RTVSPropertyOp16
 70
     1
102
RTVSPropertyOp17
 70
     1
102
RTVSPropertyOp18
 70
     1
102
RTVSPropertyOp19
 70
     1
102
RTVSPropertyOp20
 70
     1
102
RTVSPropertyOp21
 70
     1
102
RTVSPropertyOp22
 70
     1
102
RTVSPropertyOp23
 70
     1
102
RTVSPropertyOp24
 70
     1
102
RTVSPropertyOp25
 70
     1
102
RTVSPropertyOp26
 70
     1
102
RTVSPropertyOp27
 70
     1
102
RTVSPropertyOp28
 70
     1
102
RTVSPropertyOp29
 70
     1
102
RTVSPropertyOp30
 70
     1
102
RTVSPropertyOp31
 70
     1
102
RTVSPropertyOp32
 70
     1
102
RTVSPropertyOp33
 70
     1
102
RTVSPropertyOp34
 70
     1
102
RTVSPropertyOp35
 70
     1
102
RTVSPropertyOp36
 70
     1
102
RTVSPropertyOp37
 70
     1
102
RTVSPropertyOp38
 70
     1
102
RTVSPropertyOp39
 70
     1
102
RTVSPropertyOp40
 70
     1
102
RTVSPropertyOp41
 70
     1
102
RTVSPropertyOp42
 70
     1
102
RTVSPropertyOp43
 70
     1
102
RTVSPropertyOp44
 70
     1
102
RTVSPropertyOp45
 70
     1
102
RTVSPropertyOp46
 70
     1
102
RTVSPropertyOp47
 70
     1
102
RTVSPropertyOp48
 70
     1
102
RTVSPropertyOp49
 70
     1
102
RTVSPropertyOp50
 70
     1
102
RTVSPropertyOp51
 70
     0
102
RTVSPropertyOp52
 70
     0
102
RTVSPropertyOp53
 70
     1
102
RTVSPropertyOp54
 70
     1
102
RTVSPropertyOp55
 70
     1
102
RTVSPropertyOp56
 70
     1
102
RTVSPropertyOp57
 70
     1
102
RTVSPost2010Prop28
280
     0
102
RTVSPost2010PropOp28
 70
     1
102
RTVSPost2010Prop29
280
     1
102
RTVSPost2010PropOp29
 70
     1
102
RTVSPost2010Prop30
280
     1
102
RTVSPost2010PropOp30
 70
     1
102
RTVSPost2010Prop31
280
     0
102
RTVSPost2010PropOp31
 70
     1
102
RTVSPost2010Prop32
280
     0
102
RTVSPost2010PropOp32
 70
     1
102
RTVSPost2010Prop33
280
     0
102
RTVSPost2010PropOp33
 70
     1
102
RTVSPost2010Prop34
280
     0
102
RTVSPost2010PropOp34
 70
     1
102
RTVSPost2010Prop35
280
     0
102
RTVSPost2010PropOp35
 70
     1
102
RTVSPost2010Prop36
280
     0
102
RTVSPost2010PropOp36
 70
     1
102
RTVSPost2010Prop37
 90
       50
102
RTVSPost2010PropOp37
 70
     1
102
RTVSPost2010Prop38
140
0.0
102
RTVSPost2010PropOp38
 70
     1
102
RTVSPost2010Prop39
140
1.0
102
RTVSPost2010PropOp39
 70
     1
102
RTVSPost2010Prop40
 90
        0
102
RTVSPost2010PropOp40
 70
     1
102
RTVSPost2010Prop41ColorIndex
 90
       18
102
RTVSPost2010Prop41ColorRGB
 90
        0
102
RTVSPost2010PropOp41
 70
     1
102
RTVSPost2010Prop42
 90
       50
102
RTVSPost2010PropOp42
 70
     1
102
RTVSPost2010Prop43
 90
        3
102
RTVSPost2010PropOp43
 70
     1
102
RTVSPost2010Prop44ColorIndex
 90
        5
102
RTVSPost2010Prop44ColorRGB
 90
      255
102
RTVSPost2010PropOp44
 70
     1
102
RTVSPost2010Prop45
280
     0
102
RTVSPost2010PropOp45
 70
     1
102
RTVSPost2010Prop46
 90
       50
102
RTVSPost2010PropOp46
 70
     1
102
RTVSPost2010Prop47
 90
       50
102
RTVSPost2010PropOp47
 70
     1
102
RTVSPost2010Prop48
 90
       50
102
RTVSPost2010PropOp48
 70
     1
102
RTVSPost2010Prop49
280
     0
102
RTVSPost2010PropOp49
 70
     1
102
RTVSPost2010Prop50
 90
       50
102
RTVSPost2010PropOp50
 70
     1
102
RTVSPost2010Prop51ColorIndex
 90
      256
102
RTVSPost2010Prop51ColorRGB
 90
-16777216
102
RTVSPost2010PropOp51
 70
     0
102
RTVSPost2010Prop52
140
1.0
102
RTVSPost2010PropOp52
 70
     0
102
RTVSPost2010Prop53
 90
        2
102
RTVSPost2010PropOp53
 70
     1
102
RTVSPost2010Prop54
  1
strokes_ogs.tif
102
RTVSPost2010PropOp54
 70
     1
102
RTVSPost2010Prop55
280
     0
102
RTVSPost2010PropOp55
 70
     1
102
RTVSPost2010Prop56
140
1.0
102
RTVSPost2010PropOp56
 70
     1
102
RTVSPost2010Prop57
140
1.0
102
RTVSPost2010PropOp57
 70
     1
  0
XRECORD
  5
249
102
{ACAD_REACTORS
330
248
102
}
330
248
100
AcDbXrecord
280
     1
102
RTVSPropertyOp0
 70
     1
102
RTVSPropertyOp1
 70
     1
102
RTVSPropertyOp2
 70
     1
102
RTVSPropertyOp3
 70
     1
102
RTVSPropertyOp4
 70
     1
102
RTVSPropertyOp5
 70
     1
102
RTVSPropertyOp6
 70
     1
102
RTVSPropertyOp7
 70
     1
102
RTVSPropertyOp8
 70
     1
102
RTVSPropertyOp9
 70
     1
102
RTVSPropertyOp10
 70
     1
102
RTVSPropertyOp11
 70
     1
102
RTVSPropertyOp12
 70
     1
102
RTVSPropertyOp13
 70
     1
102
RTVSPropertyOp14
 70
     1
102
RTVSPropertyOp15
 70
     1
102
RTVSPropertyOp16
 70
     1
102
RTVSPropertyOp17
 70
     1
102
RTVSPropertyOp18
 70
     1
102
RTVSPropertyOp19
 70
     1
102
RTVSPropertyOp20
 70
     1
102
RTVSPropertyOp21
 70
     1
102
RTVSPropertyOp22
 70
     1
102
RTVSPropertyOp23
 70
     1
102
RTVSPropertyOp24
 70
     1
102
RTVSPropertyOp25
 70
     1
102
RTVSPropertyOp26
 70
     1
102
RTVSPropertyOp27
 70
     1
102
RTVSPropertyOp28
 70
     1
102
RTVSPropertyOp29
 70
     1
102
RTVSPropertyOp30
 70
     1
102
RTVSPropertyOp31
 70
     1
102
RTVSPropertyOp32
 70
     1
102
RTVSPropertyOp33
 70
     1
102
RTVSPropertyOp34
 70
     1
102
RTVSPropertyOp35
 70
     1
102
RTVSPropertyOp36
 70
     1
102
RTVSPropertyOp37
 70
     1
102
RTVSPropertyOp38
 70
     1
102
RTVSPropertyOp39
 70
     1
102
RTVSPropertyOp40
 70
     1
102
RTVSPropertyOp41
 70
     1
102
RTVSPropertyOp42
 70
     1
102
RTVSPropertyOp43
 70
     1
102
RTVSPropertyOp44
 70
     1
102
RTVSPropertyOp45
 70
     1
102
RTVSPropertyOp46
 70
     1
102
RTVSPropertyOp47
 70
     1
102
RTVSPropertyOp48
 70
     1
102
RTVSPropertyOp49
 70
     1
102
RTVSPropertyOp50
 70
     1
102
RTVSPropertyOp51
 70
     0
102
RTVSPropertyOp52
 70
     0
102
RTVSPropertyOp53
 70
     1
102
RTVSPropertyOp54
 70
     1
102
RTVSPropertyOp55
 70
     1
102
RTVSPropertyOp56
 70
     1
102
RTVSPropertyOp57
 70
     1
102
RTVSPost2010Prop28
280
     0
102
RTVSPost2010PropOp28
 70
     1
102
RTVSPost2010Prop29
280
     1
102
RTVSPost2010PropOp29
 70
     1
102
RTVSPost2010Prop30
280
     1
102
RTVSPost2010PropOp30
 70
     1
102
RTVSPost2010Prop31
280
     0
102
RTVSPost2010PropOp31
 70
     1
102
RTVSPost2010Prop32
280
     0
102
RTVSPost2010PropOp32
 70
     1
102
RTVSPost2010Prop33
280
     0
102
RTVSPost2010PropOp33
 70
     1
102
RTVSPost2010Prop34
280
     0
102
RTVSPost2010PropOp34
 70
     1
102
RTVSPost2010Prop35
280
     0
102
RTVSPost2010PropOp35
 70
     1
102
RTVSPost2010Prop36
280
     0
102
RTVSPost2010PropOp36
 70
     1
102
RTVSPost2010Prop37
 90
       50
102
RTVSPost2010PropOp37
 70
     1
102
RTVSPost2010Prop38
140
0.0
102
RTVSPost2010PropOp38
 70
     1
102
RTVSPost2010Prop39
140
1.0
102
RTVSPost2010PropOp39
 70
     1
102
RTVSPost2010Prop40
 90
        0
102
RTVSPost2010PropOp40
 70
     1
102
RTVSPost2010Prop41ColorIndex
 90
       18
102
RTVSPost2010Prop41ColorRGB
 90
        0
102
RTVSPost2010PropOp41
 70
     1
102
RTVSPost2010Prop42
 90
       50
102
RTVSPost2010PropOp42
 70
     1
102
RTVSPost2010Prop43
 90
        3
102
RTVSPost2010PropOp43
 70
     1
102
RTVSPost2010Prop44ColorIndex
 90
        5
102
RTVSPost2010Prop44ColorRGB
 90
      255
102
RTVSPost2010PropOp44
 70
     1
102
RTVSPost2010Prop45
280
     0
102
RTVSPost2010PropOp45
 70
     1
102
RTVSPost2010Prop46
 90
       50
102
RTVSPost2010PropOp46
 70
     1
102
RTVSPost2010Prop47
 90
       50
102
RTVSPost2010PropOp47
 70
     1
102
RTVSPost2010Prop48
 90
       50
102
RTVSPost2010PropOp48
 70
     1
102
RTVSPost2010Prop49
280
     0
102
RTVSPost2010PropOp49
 70
     1
102
RTVSPost2010Prop50
 90
       50
102
RTVSPost2010PropOp50
 70
     1
102
RTVSPost2010Prop51ColorIndex
 90
      256
102
RTVSPost2010Prop51ColorRGB
 90
-16777216
102
RTVSPost2010PropOp51
 70
     0
102
RTVSPost2010Prop52
140
1.0
102
RTVSPost2010PropOp52
 70
     0
102
RTVSPost2010Prop53
 90
        2
102
RTVSPost2010PropOp53
 70
     1
102
RTVSPost2010Prop54
  1
strokes_ogs.tif
102
RTVSPost2010PropOp54
 70
     1
102
RTVSPost2010Prop55
280
     0
102
RTVSPost2010PropOp55
 70
     1
102
RTVSPost2010Prop56
140
1.0
102
RTVSPost2010PropOp56
 70
     1
102
RTVSPost2010Prop57
140
1.0
102
RTVSPost2010PropOp57
 70
     1
  0
XRECORD
  5
239
102
{ACAD_REACTORS
330
238
102
}
330
238
100
AcDbXrecord
280
     1
102
RTVSPropertyOp0
 70
     1
102
RTVSPropertyOp1
 70
     1
102
RTVSPropertyOp2
 70
     1
102
RTVSPropertyOp3
 70
     1
102
RTVSPropertyOp4
 70
     1
102
RTVSPropertyOp5
 70
     1
102
RTVSPropertyOp6
 70
     1
102
RTVSPropertyOp7
 70
     1
102
RTVSPropertyOp8
 70
     1
102
RTVSPropertyOp9
 70
     1
102
RTVSPropertyOp10
 70
     1
102
RTVSPropertyOp11
 70
     1
102
RTVSPropertyOp12
 70
     1
102
RTVSPropertyOp13
 70
     1
102
RTVSPropertyOp14
 70
     1
102
RTVSPropertyOp15
 70
     1
102
RTVSPropertyOp16
 70
     1
102
RTVSPropertyOp17
 70
     1
102
RTVSPropertyOp18
 70
     1
102
RTVSPropertyOp19
 70
     1
102
RTVSPropertyOp20
 70
     1
102
RTVSPropertyOp21
 70
     1
102
RTVSPropertyOp22
 70
     1
102
RTVSPropertyOp23
 70
     1
102
RTVSPropertyOp24
 70
     1
102
RTVSPropertyOp25
 70
     1
102
RTVSPropertyOp26
 70
     1
102
RTVSPropertyOp27
 70
     1
102
RTVSPropertyOp28
 70
     1
102
RTVSPropertyOp29
 70
     1
102
RTVSPropertyOp30
 70
     1
102
RTVSPropertyOp31
 70
     1
102
RTVSPropertyOp32
 70
     1
102
RTVSPropertyOp33
 70
     1
102
RTVSPropertyOp34
 70
     1
102
RTVSPropertyOp35
 70
     1
102
RTVSPropertyOp36
 70
     1
102
RTVSPropertyOp37
 70
     1
102
RTVSPropertyOp38
 70
     1
102
RTVSPropertyOp39
 70
     1
102
RTVSPropertyOp40
 70
     1
102
RTVSPropertyOp41
 70
     1
102
RTVSPropertyOp42
 70
     1
102
RTVSPropertyOp43
 70
     1
102
RTVSPropertyOp44
 70
     1
102
RTVSPropertyOp45
 70
     1
102
RTVSPropertyOp46
 70
     1
102
RTVSPropertyOp47
 70
     1
102
RTVSPropertyOp48
 70
     1
102
RTVSPropertyOp49
 70
     1
102
RTVSPropertyOp50
 70
     1
102
RTVSPropertyOp51
 70
     0
102
RTVSPropertyOp52
 70
     0
102
RTVSPropertyOp53
 70
     1
102
RTVSPropertyOp54
 70
     1
102
RTVSPropertyOp55
 70
     1
102
RTVSPropertyOp56
 70
     1
102
RTVSPropertyOp57
 70
     1
102
RTVSPost2010Prop28
280
     0
102
RTVSPost2010PropOp28
 70
     1
102
RTVSPost2010Prop29
280
     1
102
RTVSPost2010PropOp29
 70
     1
102
RTVSPost2010Prop30
280
     1
102
RTVSPost2010PropOp30
 70
     1
102
RTVSPost2010Prop31
280
     0
102
RTVSPost2010PropOp31
 70
     1
102
RTVSPost2010Prop32
280
     0
102
RTVSPost2010PropOp32
 70
     1
102
RTVSPost2010Prop33
280
     0
102
RTVSPost2010PropOp33
 70
     1
102
RTVSPost2010Prop34
280
     0
102
RTVSPost2010PropOp34
 70
     1
102
RTVSPost2010Prop35
280
     0
102
RTVSPost2010PropOp35
 70
     1
102
RTVSPost2010Prop36
280
     0
102
RTVSPost2010PropOp36
 70
     1
102
RTVSPost2010Prop37
 90
       50
102
RTVSPost2010PropOp37
 70
     1
102
RTVSPost2010Prop38
140
0.0
102
RTVSPost2010PropOp38
 70
     1
102
RTVSPost2010Prop39
140
1.0
102
RTVSPost2010PropOp39
 70
     1
102
RTVSPost2010Prop40
 90
        0
102
RTVSPost2010PropOp40
 70
     1
102
RTVSPost2010Prop41ColorIndex
 90
       18
102
RTVSPost2010Prop41ColorRGB
 90
        0
102
RTVSPost2010PropOp41
 70
     1
102
RTVSPost2010Prop42
 90
       50
102
RTVSPost2010PropOp42
 70
     1
102
RTVSPost2010Prop43
 90
        3
102
RTVSPost2010PropOp43
 70
     1
102
RTVSPost2010Prop44ColorIndex
 90
        5
102
RTVSPost2010Prop44ColorRGB
 90
      255
102
RTVSPost2010PropOp44
 70
     1
102
RTVSPost2010Prop45
280
     0
102
RTVSPost2010PropOp45
 70
     1
102
RTVSPost2010Prop46
 90
       50
102
RTVSPost2010PropOp46
 70
     1
102
RTVSPost2010Prop47
 90
       50
102
RTVSPost2010PropOp47
 70
     1
102
RTVSPost2010Prop48
 90
       50
102
RTVSPost2010PropOp48
 70
     1
102
RTVSPost2010Prop49
280
     0
102
RTVSPost2010PropOp49
 70
     1
102
RTVSPost2010Prop50
 90
       50
102
RTVSPost2010PropOp50
 70
     1
102
RTVSPost2010Prop51ColorIndex
 90
      256
102
RTVSPost2010Prop51ColorRGB
 90
-16777216
102
RTVSPost2010PropOp51
 70
     0
102
RTVSPost2010Prop52
140
1.0
102
RTVSPost2010PropOp52
 70
     0
102
RTVSPost2010Prop53
 90
        2
102
RTVSPost2010PropOp53
 70
     1
102
RTVSPost2010Prop54
  1
strokes_ogs.tif
102
RTVSPost2010PropOp54
 70
     1
102
RTVSPost2010Prop55
280
     0
102
RTVSPost2010PropOp55
 70
     1
102
RTVSPost2010Prop56
140
1.0
102
RTVSPost2010PropOp56
 70
     1
102
RTVSPost2010Prop57
140
1.0
102
RTVSPost2010PropOp57
 70
     1
  0
XRECORD
  5
22B
102
{ACAD_REACTORS
330
22A
102
}
330
22A
100
AcDbXrecord
280
     1
102
RTVSPropertyOp0
 70
     1
102
RTVSPropertyOp1
 70
     1
102
RTVSPropertyOp2
 70
     1
102
RTVSPropertyOp3
 70
     1
102
RTVSPropertyOp4
 70
     1
102
RTVSPropertyOp5
 70
     1
102
RTVSPropertyOp6
 70
     1
102
RTVSPropertyOp7
 70
     1
102
RTVSPropertyOp8
 70
     1
102
RTVSPropertyOp9
 70
     1
102
RTVSPropertyOp10
 70
     1
102
RTVSPropertyOp11
 70
     1
102
RTVSPropertyOp12
 70
     1
102
RTVSPropertyOp13
 70
     1
102
RTVSPropertyOp14
 70
     1
102
RTVSPropertyOp15
 70
     1
102
RTVSPropertyOp16
 70
     1
102
RTVSPropertyOp17
 70
     1
102
RTVSPropertyOp18
 70
     1
102
RTVSPropertyOp19
 70
     1
102
RTVSPropertyOp20
 70
     1
102
RTVSPropertyOp21
 70
     1
102
RTVSPropertyOp22
 70
     1
102
RTVSPropertyOp23
 70
     1
102
RTVSPropertyOp24
 70
     1
102
RTVSPropertyOp25
 70
     1
102
RTVSPropertyOp26
 70
     1
102
RTVSPropertyOp27
 70
     1
102
RTVSPropertyOp28
 70
     1
102
RTVSPropertyOp29
 70
     1
102
RTVSPropertyOp30
 70
     1
102
RTVSPropertyOp31
 70
     1
102
RTVSPropertyOp32
 70
     1
102
RTVSPropertyOp33
 70
     1
102
RTVSPropertyOp34
 70
     1
102
RTVSPropertyOp35
 70
     1
102
RTVSPropertyOp36
 70
     1
102
RTVSPropertyOp37
 70
     1
102
RTVSPropertyOp38
 70
     1
102
RTVSPropertyOp39
 70
     1
102
RTVSPropertyOp40
 70
     1
102
RTVSPropertyOp41
 70
     1
102
RTVSPropertyOp42
 70
     1
102
RTVSPropertyOp43
 70
     1
102
RTVSPropertyOp44
 70
     1
102
RTVSPropertyOp45
 70
     1
102
RTVSPropertyOp46
 70
     1
102
RTVSPropertyOp47
 70
     1
102
RTVSPropertyOp48
 70
     1
102
RTVSPropertyOp49
 70
     1
102
RTVSPropertyOp50
 70
     1
102
RTVSPropertyOp51
 70
     0
102
RTVSPropertyOp52
 70
     0
102
RTVSPropertyOp53
 70
     1
102
RTVSPropertyOp54
 70
     1
102
RTVSPropertyOp55
 70
     1
102
RTVSPropertyOp56
 70
     1
102
RTVSPropertyOp57
 70
     1
102
RTVSPost2010Prop28
280
     0
102
RTVSPost2010PropOp28
 70
     1
102
RTVSPost2010Prop29
280
     1
102
RTVSPost2010PropOp29
 70
     1
102
RTVSPost2010Prop30
280
     1
102
RTVSPost2010PropOp30
 70
     1
102
RTVSPost2010Prop31
280
     0
102
RTVSPost2010PropOp31
 70
     1
102
RTVSPost2010Prop32
280
     0
102
RTVSPost2010PropOp32
 70
     1
102
RTVSPost2010Prop33
280
     0
102
RTVSPost2010PropOp33
 70
     1
102
RTVSPost2010Prop34
280
     0
102
RTVSPost2010PropOp34
 70
     1
102
RTVSPost2010Prop35
280
     0
102
RTVSPost2010PropOp35
 70
     1
102
RTVSPost2010Prop36
280
     0
102
RTVSPost2010PropOp36
 70
     1
102
RTVSPost2010Prop37
 90
       50
102
RTVSPost2010PropOp37
 70
     1
102
RTVSPost2010Prop38
140
0.0
102
RTVSPost2010PropOp38
 70
     1
102
RTVSPost2010Prop39
140
1.0
102
RTVSPost2010PropOp39
 70
     1
102
RTVSPost2010Prop40
 90
        0
102
RTVSPost2010PropOp40
 70
     1
102
RTVSPost2010Prop41ColorIndex
 90
       18
102
RTVSPost2010Prop41ColorRGB
 90
        0
102
RTVSPost2010PropOp41
 70
     1
102
RTVSPost2010Prop42
 90
       50
102
RTVSPost2010PropOp42
 70
     1
102
RTVSPost2010Prop43
 90
        3
102
RTVSPost2010PropOp43
 70
     1
102
RTVSPost2010Prop44ColorIndex
 90
        5
102
RTVSPost2010Prop44ColorRGB
 90
      255
102
RTVSPost2010PropOp44
 70
     1
102
RTVSPost2010Prop45
280
     0
102
RTVSPost2010PropOp45
 70
     1
102
RTVSPost2010Prop46
 90
       50
102
RTVSPost2010PropOp46
 70
     1
102
RTVSPost2010Prop47
 90
       50
102
RTVSPost2010PropOp47
 70
     1
102
RTVSPost2010Prop48
 90
       50
102
RTVSPost2010PropOp48
 70
     1
102
RTVSPost2010Prop49
280
     0
102
RTVSPost2010PropOp49
 70
     1
102
RTVSPost2010Prop50
 90
       50
102
RTVSPost2010PropOp50
 70
     1
102
RTVSPost2010Prop51ColorIndex
 90
      256
102
RTVSPost2010Prop51ColorRGB
 90
-16777216
102
RTVSPost2010PropOp51
 70
     0
102
RTVSPost2010Prop52
140
1.0
102
RTVSPost2010PropOp52
 70
     0
102
RTVSPost2010Prop53
 90
        2
102
RTVSPost2010PropOp53
 70
     1
102
RTVSPost2010Prop54
  1
strokes_ogs.tif
102
RTVSPost2010PropOp54
 70
     1
102
RTVSPost2010Prop55
280
     0
102
RTVSPost2010PropOp55
 70
     1
102
RTVSPost2010Prop56
140
1.0
102
RTVSPost2010PropOp56
 70
     1
102
RTVSPost2010Prop57
140
1.0
102
RTVSPost2010PropOp57
 70
     1
  0
XRECORD
  5
24B
102
{ACAD_REACTORS
330
24A
102
}
330
24A
100
AcDbXrecord
280
     1
102
RTVSPropertyOp0
 70
     1
102
RTVSPropertyOp1
 70
     1
102
RTVSPropertyOp2
 70
     1
102
RTVSPropertyOp3
 70
     1
102
RTVSPropertyOp4
 70
     1
102
RTVSPropertyOp5
 70
     1
102
RTVSPropertyOp6
 70
     1
102
RTVSPropertyOp7
 70
     1
102
RTVSPropertyOp8
 70
     1
102
RTVSPropertyOp9
 70
     1
102
RTVSPropertyOp10
 70
     1
102
RTVSPropertyOp11
 70
     1
102
RTVSPropertyOp12
 70
     1
102
RTVSPropertyOp13
 70
     1
102
RTVSPropertyOp14
 70
     1
102
RTVSPropertyOp15
 70
     1
102
RTVSPropertyOp16
 70
     1
102
RTVSPropertyOp17
 70
     1
102
RTVSPropertyOp18
 70
     1
102
RTVSPropertyOp19
 70
     1
102
RTVSPropertyOp20
 70
     1
102
RTVSPropertyOp21
 70
     1
102
RTVSPropertyOp22
 70
     1
102
RTVSPropertyOp23
 70
     1
102
RTVSPropertyOp24
 70
     1
102
RTVSPropertyOp25
 70
     1
102
RTVSPropertyOp26
 70
     1
102
RTVSPropertyOp27
 70
     1
102
RTVSPropertyOp28
 70
     1
102
RTVSPropertyOp29
 70
     1
102
RTVSPropertyOp30
 70
     1
102
RTVSPropertyOp31
 70
     1
102
RTVSPropertyOp32
 70
     1
102
RTVSPropertyOp33
 70
     1
102
RTVSPropertyOp34
 70
     1
102
RTVSPropertyOp35
 70
     1
102
RTVSPropertyOp36
 70
     1
102
RTVSPropertyOp37
 70
     1
102
RTVSPropertyOp38
 70
     1
102
RTVSPropertyOp39
 70
     1
102
RTVSPropertyOp40
 70
     1
102
RTVSPropertyOp41
 70
     1
102
RTVSPropertyOp42
 70
     1
102
RTVSPropertyOp43
 70
     1
102
RTVSPropertyOp44
 70
     1
102
RTVSPropertyOp45
 70
     1
102
RTVSPropertyOp46
 70
     1
102
RTVSPropertyOp47
 70
     1
102
RTVSPropertyOp48
 70
     1
102
RTVSPropertyOp49
 70
     1
102
RTVSPropertyOp50
 70
     1
102
RTVSPropertyOp51
 70
     0
102
RTVSPropertyOp52
 70
     0
102
RTVSPropertyOp53
 70
     1
102
RTVSPropertyOp54
 70
     1
102
RTVSPropertyOp55
 70
     1
102
RTVSPropertyOp56
 70
     1
102
RTVSPropertyOp57
 70
     1
102
RTVSPost2010Prop28
280
     0
102
RTVSPost2010PropOp28
 70
     1
102
RTVSPost2010Prop29
280
     1
102
RTVSPost2010PropOp29
 70
     1
102
RTVSPost2010Prop30
280
     1
102
RTVSPost2010PropOp30
 70
     1
102
RTVSPost2010Prop31
280
     0
102
RTVSPost2010PropOp31
 70
     1
102
RTVSPost2010Prop32
280
     0
102
RTVSPost2010PropOp32
 70
     1
102
RTVSPost2010Prop33
280
     0
102
RTVSPost2010PropOp33
 70
     1
102
RTVSPost2010Prop34
280
     0
102
RTVSPost2010PropOp34
 70
     1
102
RTVSPost2010Prop35
280
     0
102
RTVSPost2010PropOp35
 70
     1
102
RTVSPost2010Prop36
280
     0
102
RTVSPost2010PropOp36
 70
     1
102
RTVSPost2010Prop37
 90
       50
102
RTVSPost2010PropOp37
 70
     1
102
RTVSPost2010Prop38
140
0.0
102
RTVSPost2010PropOp38
 70
     1
102
RTVSPost2010Prop39
140
1.0
102
RTVSPost2010PropOp39
 70
     1
102
RTVSPost2010Prop40
 90
        0
102
RTVSPost2010PropOp40
 70
     1
102
RTVSPost2010Prop41ColorIndex
 90
       18
102
RTVSPost2010Prop41ColorRGB
 90
        0
102
RTVSPost2010PropOp41
 70
     1
102
RTVSPost2010Prop42
 90
       50
102
RTVSPost2010PropOp42
 70
     1
102
RTVSPost2010Prop43
 90
        3
102
RTVSPost2010PropOp43
 70
     1
102
RTVSPost2010Prop44ColorIndex
 90
        5
102
RTVSPost2010Prop44ColorRGB
 90
      255
102
RTVSPost2010PropOp44
 70
     1
102
RTVSPost2010Prop45
280
     0
102
RTVSPost2010PropOp45
 70
     1
102
RTVSPost2010Prop46
 90
       50
102
RTVSPost2010PropOp46
 70
     1
102
RTVSPost2010Prop47
 90
       50
102
RTVSPost2010PropOp47
 70
     1
102
RTVSPost2010Prop48
 90
       50
102
RTVSPost2010PropOp48
 70
     1
102
RTVSPost2010Prop49
280
     0
102
RTVSPost2010PropOp49
 70
     1
102
RTVSPost2010Prop50
 90
       50
102
RTVSPost2010PropOp50
 70
     1
102
RTVSPost2010Prop51ColorIndex
 90
      256
102
RTVSPost2010Prop51ColorRGB
 90
-16777216
102
RTVSPost2010PropOp51
 70
     0
102
RTVSPost2010Prop52
140
1.0
102
RTVSPost2010PropOp52
 70
     0
102
RTVSPost2010Prop53
 90
        2
102
RTVSPost2010PropOp53
 70
     1
102
RTVSPost2010Prop54
  1
strokes_ogs.tif
102
RTVSPost2010PropOp54
 70
     1
102
RTVSPost2010Prop55
280
     0
102
RTVSPost2010PropOp55
 70
     1
102
RTVSPost2010Prop56
140
1.0
102
RTVSPost2010PropOp56
 70
     1
102
RTVSPost2010Prop57
140
1.0
102
RTVSPost2010PropOp57
 70
     1
  0
ENDSEC
  0
EOF
