  0
SECTION
  2
HEADER
  9
$ACADVER
  1
AC1018
  9
$ACADMAINTVER
 70
     0
  9
$DWGCODEPAGE
  3
ANSI_1252
  9
$INSBASE
 10
0.0
 20
0.0
 30
0.0
  9
$EXTMIN
 10
-457.7082196961705
 20
-314.224989179649
 30
0.0
  9
$EXTMAX
 10
-37.70821969617208
 20
-17.22498917964902
 30
0.0
  9
$LIMMIN
 10
0.0
 20
0.0
  9
$LIMMAX
 10
12.0
 20
9.0
  9
$ORTHOMODE
 70
     0
  9
$REGENMODE
 70
     1
  9
$FILLMODE
 70
     1
  9
$QTEXTMODE
 70
     0
  9
$MIRRTEXT
 70
     1
  9
$LTSCALE
 40
1.0
  9
$ATTMODE
 70
     1
  9
$TEXTSIZE
 40
0.2
  9
$TRACEWID
 40
0.05
  9
$TEXTSTYLE
  7
Standard
  9
$CLAYER
  8
0
  9
$CELTYPE
  6
ByLayer
  9
$CECOLOR
 62
   256
  9
$CELTSCALE
 40
1.0
  9
$DISPSILH
 70
     0
  9
$DIMSCALE
 40
1.0
  9
$DIMASZ
 40
0.18
  9
$DIMEXO
 40
0.0625
  9
$DIMDLI
 40
0.38
  9
$DIMRND
 40
0.0
  9
$DIMDLE
 40
0.0
  9
$DIMEXE
 40
0.18
  9
$DIMTP
 40
0.0
  9
$DIMTM
 40
0.0
  9
$DIMTXT
 40
0.18
  9
$DIMCEN
 40
0.09
  9
$DIMTSZ
 40
0.0
  9
$DIMTOL
 70
     0
  9
$DIMLIM
 70
     0
  9
$DIMTIH
 70
     1
  9
$DIMTOH
 70
     1
  9
$DIMSE1
 70
     0
  9
$DIMSE2
 70
     0
  9
$DIMTAD
 70
     0
  9
$DIMZIN
 70
     0
  9
$DIMBLK
  1

  9
$DIMASO
 70
     1
  9
$DIMSHO
 70
     1
  9
$DIMPOST
  1

  9
$DIMAPOST
  1

  9
$DIMALT
 70
     0
  9
$DIMALTD
 70
     2
  9
$DIMALTF
 40
25.4
  9
$DIMLFAC
 40
1.0
  9
$DIMTOFL
 70
     0
  9
$DIMTVP
 40
0.0
  9
$DIMTIX
 70
     0
  9
$DIMSOXD
 70
     0
  9
$DIMSAH
 70
     0
  9
$DIMBLK1
  1

  9
$DIMBLK2
  1

  9
$DIMSTYLE
  2
Standard
  9
$DIMCLRD
 70
     0
  9
$DIMCLRE
 70
     0
  9
$DIMCLRT
 70
     0
  9
$DIMTFAC
 40
1.0
  9
$DIMGAP
 40
0.09
  9
$DIMJUST
 70
     0
  9
$DIMSD1
 70
     0
  9
$DIMSD2
 70
     0
  9
$DIMTOLJ
 70
     1
  9
$DIMTZIN
 70
     0
  9
$DIMALTZ
 70
     0
  9
$DIMALTTZ
 70
     0
  9
$DIMUPT
 70
     0
  9
$DIMDEC
 70
     4
  9
$DIMTDEC
 70
     4
  9
$DIMALTU
 70
     2
  9
$DIMALTTD
 70
     2
  9
$DIMTXSTY
  7
Standard
  9
$DIMAUNIT
 70
     0
  9
$DIMADEC
 70
     0
  9
$DIMALTRND
 40
0.0
  9
$DIMAZIN
 70
     0
  9
$DIMDSEP
 70
    46
  9
$DIMATFIT
 70
     3
  9
$DIMFRAC
 70
     0
  9
$DIMLDRBLK
  1

  9
$DIMLUNIT
 70
     2
  9
$DIMLWD
 70
    -2
  9
$DIMLWE
 70
    -2
  9
$DIMTMOVE
 70
     0
  9
$LUNITS
 70
     2
  9
$LUPREC
 70
     4
  9
$SKETCHINC
 40
0.1
  9
$FILLETRAD
 40
0.5
  9
$AUNITS
 70
     0
  9
$AUPREC
 70
     0
  9
$MENU
  1
.
  9
$ELEVATION
 40
0.0
  9
$PELEVATION
 40
0.0
  9
$THICKNESS
 40
0.0
  9
$LIMCHECK
 70
     0
  9
$CHAMFERA
 40
0.5
  9
$CHAMFERB
 40
0.5
  9
$CHAMFERC
 40
1.0
  9
$CHAMFERD
 40
0.0
  9
$SKPOLY
 70
     0
  9
$TDCREATE
 40
2458338.455385463
  9
$TDUCREATE
 40
2458338.37205213
  9
$TDUPDATE
 40
2458338.455385822
  9
$TDUUPDATE
 40
2458338.372052488
  9
$TDINDWG
 40
0.0000000116
  9
$TDUSRTIMER
 40
0.0000000116
  9
$USRTIMER
 70
     1
  9
$ANGBASE
 50
0.0
  9
$ANGDIR
 70
     0
  9
$PDMODE
 70
     0
  9
$PDSIZE
 40
0.0
  9
$PLINEWID
 40
0.0
  9
$SPLFRAME
 70
     0
  9
$SPLINETYPE
 70
     6
  9
$SPLINESEGS
 70
     8
  9
$HANDSEED
  5
228
  9
$SURFTAB1
 70
     6
  9
$SURFTAB2
 70
     6
  9
$SURFTYPE
 70
     6
  9
$SURFU
 70
     6
  9
$SURFV
 70
     6
  9
$UCSBASE
  2

  9
$UCSNAME
  2

  9
$UCSORG
 10
0.0
 20
0.0
 30
0.0
  9
$UCSXDIR
 10
1.0
 20
0.0
 30
0.0
  9
$UCSYDIR
 10
0.0
 20
1.0
 30
0.0
  9
$UCSORTHOREF
  2

  9
$UCSORTHOVIEW
 70
     0
  9
$UCSORGTOP
 10
0.0
 20
0.0
 30
0.0
  9
$UCSORGBOTTOM
 10
0.0
 20
0.0
 30
0.0
  9
$UCSORGLEFT
 10
0.0
 20
0.0
 30
0.0
  9
$UCSORGRIGHT
 10
0.0
 20
0.0
 30
0.0
  9
$UCSORGFRONT
 10
0.0
 20
0.0
 30
0.0
  9
$UCSORGBACK
 10
0.0
 20
0.0
 30
0.0
  9
$PUCSBASE
  2

  9
$PUCSNAME
  2

  9
$PUCSORG
 10
0.0
 20
0.0
 30
0.0
  9
$PUCSXDIR
 10
1.0
 20
0.0
 30
0.0
  9
$PUCSYDIR
 10
0.0
 20
1.0
 30
0.0
  9
$PUCSORTHOREF
  2

  9
$PUCSORTHOVIEW
 70
     0
  9
$PUCSORGTOP
 10
0.0
 20
0.0
 30
0.0
  9
$PUCSORGBOTTOM
 10
0.0
 20
0.0
 30
0.0
  9
$PUCSORGLEFT
 10
0.0
 20
0.0
 30
0.0
  9
$PUCSORGRIGHT
 10
0.0
 20
0.0
 30
0.0
  9
$PUCSORGFRONT
 10
0.0
 20
0.0
 30
0.0
  9
$PUCSORGBACK
 10
0.0
 20
0.0
 30
0.0
  9
$USERI1
 70
     0
  9
$USERI2
 70
     0
  9
$USERI3
 70
     0
  9
$USERI4
 70
     0
  9
$USERI5
 70
     0
  9
$USERR1
 40
18.1
  9
$USERR2
 40
0.0
  9
$USERR3
 40
0.0
  9
$USERR4
 40
0.0
  9
$USERR5
 40
0.0
  9
$WORLDVIEW
 70
     1
  9
$SHADEDGE
 70
     3
  9
$SHADEDIF
 70
    70
  9
$TILEMODE
 70
     1
  9
$MAXACTVP
 70
    64
  9
$PINSBASE
 10
0.0
 20
0.0
 30
0.0
  9
$PLIMCHECK
 70
     0
  9
$PEXTMIN
 10
1.00000000000000E+20
 20
1.00000000000000E+20
 30
1.00000000000000E+20
  9
$PEXTMAX
 10
-1.00000000000000E+20
 20
-1.00000000000000E+20
 30
-1.00000000000000E+20
  9
$PLIMMIN
 10
0.0
 20
0.0
  9
$PLIMMAX
 10
12.0
 20
9.0
  9
$UNITMODE
 70
     0
  9
$VISRETAIN
 70
     1
  9
$PLINEGEN
 70
     0
  9
$PSLTSCALE
 70
     1
  9
$TREEDEPTH
 70
  3020
  9
$CMLSTYLE
  2
Standard
  9
$CMLJUST
 70
     0
  9
$CMLSCALE
 40
1.0
  9
$PROXYGRAPHICS
 70
     1
  9
$MEASUREMENT
 70
     1
  9
$CELWEIGHT
370
    -1
  9
$ENDCAPS
280
     0
  9
$JOINSTYLE
280
     0
  9
$LWDISPLAY
290
     0
  9
$INSUNITS
 70
     4
  9
$HYPERLINKBASE
  1

  9
$STYLESHEET
  1

  9
$XEDIT
290
     1
  9
$CEPSNTYPE
380
     0
  9
$PSTYLEMODE
290
     1
  9
$FINGERPRINTGUID
  2
{379F06B4-8E0F-4C23-A1A0-A1EC3F858159}
  9
$VERSIONGUID
  2
{FAEB1C32-E019-11D5-929B-00C0DF256EC4}
  9
$EXTNAMES
290
     1
  9
$PSVPSCALE
 40
0.0
  9
$OLESTARTUP
290
     0
  9
$SORTENTS
280
   127
  9
$INDEXCTL
280
     0
  9
$HIDETEXT
280
     1
  9
$XCLIPFRAME
290
     0
  9
$HALOGAP
280
     0
  9
$OBSCOLOR
 70
   257
  9
$OBSLTYPE
280
     0
  9
$INTERSECTIONDISPLAY
280
     0
  9
$INTERSECTIONCOLOR
 70
   257
  9
$DIMASSOC
280
     2
  9
$PROJECTNAME
  1

  0
ENDSEC
  0
SECTION
  2
CLASSES
  0
CLASS
  1
ACDBDICTIONARYWDFLT
  2
AcDbDictionaryWithDefault
  3
ObjectDBX Classes
 90
        0
 91
        4
280
     0
281
     0
  0
CLASS
  1
VISUALSTYLE
  2
AcDbVisualStyle
  3
ObjectDBX Classes
 90
     4095
 91
        4
280
     0
281
     0
  0
CLASS
  1
MATERIAL
  2
AcDbMaterial
  3
ObjectDBX Classes
 90
     1153
 91
        4
280
     0
281
     0
  0
ENDSEC
  0
SECTION
  2
TABLES
  0
TABLE
  2
VPORT
  5
8
330
0
100
AcDbSymbolTable
 70
     1
  0
VPORT
  5
29
330
8
100
AcDbSymbolTableRecord
100
AcDbViewportTableRecord
  2
*Active
 70
     0
 10
0.0
 20
0.0
 11
1.0
 21
1.0
 12
-247.7082196961713
 22
-165.724989179649
 13
0.0
 23
0.0
 14
0.5
 24
0.5
 15
0.5
 25
0.5
 16
0.0
 26
0.0
 36
1.0
 17
0.0
 27
0.0
 37
0.0
 40
326.7
 41
1.60267857142857
 42
50.0
 43
0.0
 44
0.0
 50
0.0
 51
0.0
 71
     0
 72
   100
 73
     1
 74
     3
 75
     0
 76
     0
 77
     0
 78
     0
281
     0
 65
     1
110
0.0
120
0.0
130
0.0
111
1.0
121
0.0
131
0.0
112
0.0
122
1.0
132
0.0
 79
     0
146
0.0
  0
ENDTAB
  0
TABLE
  2
LTYPE
  5
5
330
0
100
AcDbSymbolTable
 70
     8
  0
LTYPE
  5
14
330
5
100
AcDbSymbolTableRecord
100
AcDbLinetypeTableRecord
  2
ByBlock
 70
     0
  3

 72
    65
 73
     0
 40
0.0
  0
LTYPE
  5
15
330
5
100
AcDbSymbolTableRecord
100
AcDbLinetypeTableRecord
  2
ByLayer
 70
     0
  3

 72
    65
 73
     0
 40
0.0
  0
LTYPE
  5
16
330
5
100
AcDbSymbolTableRecord
100
AcDbLinetypeTableRecord
  2
Continuous
 70
     0
  3
Solid line
 72
    65
 73
     0
 40
0.0
  0
LTYPE
  5
3F
330
5
100
AcDbSymbolTableRecord
100
AcDbLinetypeTableRecord
  2
DASHED
 70
     0
  3
Dashed
 72
    65
 73
     2
 40
15.0
 49
7.0
 74
     0
 49
-8.0
 74
     0
  0
LTYPE
  5
40
330
5
100
AcDbSymbolTableRecord
100
AcDbLinetypeTableRecord
  2
DOTTED
 70
     0
  3
Dotted
 72
    65
 73
     2
 40
1.0
 49
0.0
 74
     0
 49
-1.0
 74
     0
  0
LTYPE
  5
41
330
5
100
AcDbSymbolTableRecord
100
AcDbLinetypeTableRecord
  2
DOT_CENTER
 70
     0
  3
Dot_Center
 72
    65
 73
     4
 40
14.0
 49
12.0
 74
     0
 49
-1.0
 74
     0
 49
0.0
 74
     0
 49
-1.0
 74
     0
  0
LTYPE
  5
42
330
5
100
AcDbSymbolTableRecord
100
AcDbLinetypeTableRecord
  2
LONG_DASHED
 70
     0
  3
Long_Dashed
 72
    65
 73
     2
 40
15.0
 49
10.0
 74
     0
 49
-5.0
 74
     0
  0
LTYPE
  5
43
330
5
100
AcDbSymbolTableRecord
100
AcDbLinetypeTableRecord
  2
DASH_CENTER
 70
     0
  3
Dash_Center
 72
    65
 73
     4
 40
14.0
 49
11.0
 74
     0
 49
-1.0
 74
     0
 49
1.0
 74
     0
 49
-1.0
 74
     0
  0
LTYPE
  5
44
330
5
100
AcDbSymbolTableRecord
100
AcDbLinetypeTableRecord
  2
PHANTOM
 70
     0
  3
Phantom
 72
    65
 73
     6
 40
13.0
 49
10.0
 74
     0
 49
-1.0
 74
     0
 49
0.0
 74
     0
 49
-1.0
 74
     0
 49
0.0
 74
     0
 49
-1.0
 74
     0
  0
LTYPE
  5
45
330
5
100
AcDbSymbolTableRecord
100
AcDbLinetypeTableRecord
  2
CENTER_DASH_DASH
 70
     0
  3
Center_Dash_Dash
 72
    65
 73
     6
 40
14.0
 49
9.0
 74
     0
 49
-1.0
 74
     0
 49
1.0
 74
     0
 49
-1.0
 74
     0
 49
1.0
 74
     0
 49
-1.0
 74
     0
  0
ENDTAB
  0
TABLE
  2
LAYER
  5
2
330
0
100
AcDbSymbolTable
 70
     2
  0
LAYER
  5
10
330
2
100
AcDbSymbolTableRecord
100
AcDbLayerTableRecord
  2
0
 70
     0
 62
     7
  6
Continuous
370
    -3
390
F
  0
LAYER
  5
46
330
2
100
AcDbSymbolTableRecord
100
AcDbLayerTableRecord
  2
1
 70
     0
 62
     7
  6
Continuous
370
    -3
390
F
  0
ENDTAB
  0
TABLE
  2
STYLE
  5
3
330
0
100
AcDbSymbolTable
 70
     5
  0
STYLE
  5
11
330
3
100
AcDbSymbolTableRecord
100
AcDbTextStyleTableRecord
  2
Standard
 70
     0
 40
0.0
 41
1.0
 50
0.0
 71
     0
 42
0.2
  3
txt
  4

  0
STYLE
  5
80
330
3
100
AcDbSymbolTableRecord
100
AcDbTextStyleTableRecord
  2
CONVERTER_11
 70
     0
 40
0.0
 41
0.9
 50
0.0
 71
     0
 42
0.2
  3
txt.shx
  4

  0
STYLE
  5
1CE
330
3
100
AcDbSymbolTableRecord
100
AcDbTextStyleTableRecord
  2
CONVERTER_12
 70
     0
 40
0.0
 41
0.81
 50
0.0
 71
     0
 42
0.2
  3
txt.shx
  4

  0
STYLE
  5
1D4
330
3
100
AcDbSymbolTableRecord
100
AcDbTextStyleTableRecord
  2
CONVERTER_13
 70
     0
 40
0.0
 41
0.855
 50
0.0
 71
     0
 42
0.2
  3
txt.shx
  4

  0
STYLE
  5
1D7
330
3
100
AcDbSymbolTableRecord
100
AcDbTextStyleTableRecord
  2
CONVERTER_14
 70
     0
 40
0.0
 41
0.72
 50
0.0
 71
     0
 42
0.2
  3
txt.shx
  4

  0
ENDTAB
  0
TABLE
  2
VIEW
  5
6
330
0
100
AcDbSymbolTable
 70
     0
  0
ENDTAB
  0
TABLE
  2
UCS
  5
7
330
0
100
AcDbSymbolTable
 70
     0
  0
ENDTAB
  0
TABLE
  2
APPID
  5
9
330
0
100
AcDbSymbolTable
 70
     1
  0
APPID
  5
12
330
9
100
AcDbSymbolTableRecord
100
AcDbRegAppTableRecord
  2
ACAD
 70
     0
  0
ENDTAB
  0
TABLE
  2
DIMSTYLE
  5
A
330
0
100
AcDbSymbolTable
 70
     4
100
AcDbDimStyleTable
  0
DIMSTYLE
105
27
330
A
100
AcDbSymbolTableRecord
100
AcDbDimStyleTableRecord
  2
Standard
 70
     0
178
     0
340
11
  0
DIMSTYLE
105
8B
102
{ACAD_REACTORS
330
8C
102
}
330
A
100
AcDbSymbolTableRecord
100
AcDbDimStyleTableRecord
  2
ME10_DIM_10
 70
     0
 41
1.75
 42
0.0
 44
0.75
 47
0.1
 48
0.1
 71
     1
 73
     0
 74
     0
 77
     1
 78
     8
140
1.75
146
0.6
147
0.75
172
     1
173
     1
174
     1
175
     1
176
     2
177
     2
178
     3
272
     0
340
80
  0
DIMSTYLE
105
96
102
{ACAD_REACTORS
330
97
102
}
330
A
100
AcDbSymbolTableRecord
100
AcDbDimStyleTableRecord
  2
ME10_DIM_11
 70
     0
 41
1.75
 42
0.0
 44
0.75
 73
     0
 74
     0
 77
     1
 78
     8
140
1.75
147
0.75
172
     1
173
     1
174
     1
175
     1
176
     2
177
     2
178
     3
340
80
  0
DIMSTYLE
105
A1
102
{ACAD_REACTORS
330
A2
102
}
330
A
100
AcDbSymbolTableRecord
100
AcDbDimStyleTableRecord
  2
ME10_DIM_12
 70
     0
 41
1.75
 42
0.0
 44
0.75
 73
     0
 74
     0
 77
     1
 78
     8
140
1.75
147
0.75
172
     1
173
     1
174
     1
175
     1
176
     2
177
     2
178
     3
340
80
  0
ENDTAB
  0
TABLE
  2
BLOCK_RECORD
  5
1
330
0
100
AcDbSymbolTable
 70
    13
  0
BLOCK_RECORD
  5
1F
330
1
100
AcDbSymbolTableRecord
100
AcDbBlockTableRecord
  2
*Model_Space
340
22
  0
BLOCK_RECORD
  5
1B
330
1
100
AcDbSymbolTableRecord
100
AcDbBlockTableRecord
  2
*Paper_Space
340
1E
  0
BLOCK_RECORD
  5
23
330
1
100
AcDbSymbolTableRecord
100
AcDbBlockTableRecord
  2
*Paper_Space0
340
26
  0
BLOCK_RECORD
  5
47
330
1
100
AcDbSymbolTableRecord
100
AcDbBlockTableRecord
  2
Wandausschnitt
340
0
102
{BLKREFS
331
4B
102
}
  0
BLOCK_RECORD
  5
4A
330
1
100
AcDbSymbolTableRecord
100
AcDbBlockTableRecord
  2
VS-PPC-F1-RJ45-P0BK-1R-PHA-Wandausschnitt
340
0
102
{BLKREFS
331
4F
102
}
  0
BLOCK_RECORD
  5
4E
330
1
100
AcDbSymbolTableRecord
100
AcDbBlockTableRecord
  2
Vordans1
340
0
102
{BLKREFS
331
5E
102
}
  0
BLOCK_RECORD
  5
52
330
1
100
AcDbSymbolTableRecord
100
AcDbBlockTableRecord
  2
_rahmen
340
0
102
{BLKREFS
331
59
102
}
  0
BLOCK_RECORD
  5
55
330
1
100
AcDbSymbolTableRecord
100
AcDbBlockTableRecord
  2
_punkt
340
0
102
{BLKREFS
331
5A
102
}
  0
BLOCK_RECORD
  5
58
330
1
100
AcDbSymbolTableRecord
100
AcDbBlockTableRecord
  2
A3I_TECDOC
340
0
102
{BLKREFS
331
5F
102
}
  0
BLOCK_RECORD
  5
5D
330
1
100
AcDbSymbolTableRecord
100
AcDbBlockTableRecord
  2
1
340
0
102
{BLKREFS
331
62
102
}
  0
BLOCK_RECORD
  5
82
330
1
100
AcDbSymbolTableRecord
100
AcDbBlockTableRecord
  2
*D8
340
0
  0
BLOCK_RECORD
  5
8D
330
1
100
AcDbSymbolTableRecord
100
AcDbBlockTableRecord
  2
*D9
340
0
  0
BLOCK_RECORD
  5
98
330
1
100
AcDbSymbolTableRecord
100
AcDbBlockTableRecord
  2
*D10
340
0
  0
BLOCK_RECORD
  5
A3
330
1
100
AcDbSymbolTableRecord
100
AcDbBlockTableRecord
  2
*D11
340
0
102
{BLKREFS
331
A9
102
}
  0
BLOCK_RECORD
  5
AA
330
1
100
AcDbSymbolTableRecord
100
AcDbBlockTableRecord
  2
*D12
340
0
102
{BLKREFS
331
B5
102
}
  0
ENDTAB
  0
ENDSEC
  0
SECTION
  2
BLOCKS
  0
BLOCK
  5
20
330
1F
100
AcDbEntity
  8
0
100
AcDbBlockBegin
  2
*Model_Space
 70
     0
 10
0.0
 20
0.0
 30
0.0
  3
*Model_Space
  1

  0
ENDBLK
  5
21
330
1F
100
AcDbEntity
  8
0
100
AcDbBlockEnd
  0
BLOCK
  5
1C
330
1B
100
AcDbEntity
 67
     1
  8
0
100
AcDbBlockBegin
  2
*Paper_Space
 70
     0
 10
0.0
 20
0.0
 30
0.0
  3
*Paper_Space
  1

  0
ENDBLK
  5
1D
330
1B
100
AcDbEntity
 67
     1
  8
0
100
AcDbBlockEnd
  0
BLOCK
  5
24
330
23
100
AcDbEntity
  8
0
100
AcDbBlockBegin
  2
*Paper_Space0
 70
     0
 10
0.0
 20
0.0
 30
0.0
  3
*Paper_Space0
  1

  0
ENDBLK
  5
25
330
23
100
AcDbEntity
  8
0
100
AcDbBlockEnd
  0
BLOCK
  5
48
330
47
100
AcDbEntity
  8
0
100
AcDbBlockBegin
  2
Wandausschnitt
 70
     0
 10
-150.5754572340573
 20
-97.14655574957929
 30
0.0
  3
Wandausschnitt
  1

  0
LINE
  5
63
330
47
100
AcDbEntity
  8
0
  6
Continuous
 62
     7
100
AcDbLine
 10
-121.6475639404255
 20
-58.9082229476874
 30
0.0
 11
-138.3475639404255
 21
-58.9082229476874
 31
0.0
  0
LINE
  5
64
330
47
100
AcDbEntity
  8
0
  6
Continuous
 62
     7
100
AcDbLine
 10
-139.5975639404255
 20
-60.1582229476874
 30
0.0
 11
-139.5975639404255
 21
-80.4582229476874
 31
0.0
  0
LINE
  5
65
330
47
100
AcDbEntity
  8
0
  6
Continuous
 62
     7
100
AcDbLine
 10
-138.3475639404255
 20
-81.7082229476874
 30
0.0
 11
-121.6475639404255
 21
-81.7082229476874
 31
0.0
  0
LINE
  5
66
330
47
100
AcDbEntity
  8
0
  6
Continuous
 62
     7
100
AcDbLine
 10
-120.3975639404255
 20
-80.45822294768739
 30
0.0
 11
-120.3975639404255
 21
-60.15822294768739
 31
0.0
  0
LINE
  5
67
330
47
100
AcDbEntity
  8
1
  6
DOT_CENTER
 62
     2
100
AcDbLine
 10
-128.6225639572099
 20
-86.80822294768738
 30
0.0
 11
-131.3725639572099
 21
-86.80822294768738
 31
0.0
  0
LINE
  5
68
330
47
100
AcDbEntity
  8
1
  6
DOT_CENTER
 62
     2
100
AcDbLine
 10
-129.9975639572099
 20
-85.43322294768738
 30
0.0
 11
-129.9975639572099
 21
-88.18322294768738
 31
0.0
  0
LINE
  5
69
330
47
100
AcDbEntity
  8
1
  6
DOT_CENTER
 62
     2
100
AcDbLine
 10
-128.6225639572099
 20
-53.80822294768738
 30
0.0
 11
-131.3725639572099
 21
-53.80822294768738
 31
0.0
  0
LINE
  5
6A
330
47
100
AcDbEntity
  8
1
  6
DOT_CENTER
 62
     2
100
AcDbLine
 10
-129.9975639572099
 20
-52.43322294768738
 30
0.0
 11
-129.9975639572099
 21
-55.18322294768738
 31
0.0
  0
ARC
  5
6B
330
47
100
AcDbEntity
  8
0
  6
Continuous
 62
     7
100
AcDbCircle
 10
-121.6475639404255
 20
-60.1582229476874
 30
0.0
 40
1.25
100
AcDbArc
 50
0.00000000000033
 51
90.0
  0
ARC
  5
6C
330
47
100
AcDbEntity
  8
0
  6
Continuous
 62
     7
100
AcDbCircle
 10
-138.3475639404255
 20
-60.1582229476874
 30
0.0
 40
1.25
100
AcDbArc
 50
90.0
 51
180.0
  0
ARC
  5
6D
330
47
100
AcDbEntity
  8
0
  6
Continuous
 62
     7
100
AcDbCircle
 10
-138.3475639404255
 20
-80.4582229476874
 30
0.0
 40
1.25
100
AcDbArc
 50
180.0
 51
270.0
  0
ARC
  5
6E
330
47
100
AcDbEntity
  8
0
  6
Continuous
 62
     7
100
AcDbCircle
 10
-121.6475639404255
 20
-80.45822294768739
 30
0.0
 40
1.250000000000014
100
AcDbArc
 50
270.0
 51
0.0
  0
ARC
  5
6F
330
47
100
AcDbEntity
  8
1
  6
Continuous
 62
     2
100
AcDbCircle
 10
-129.9975639572099
 20
-53.80822294768738
 30
0.0
 40
1.5
100
AcDbArc
 50
180.0
 51
90.0
  0
ARC
  5
70
330
47
100
AcDbEntity
  8
1
  6
Continuous
 62
     2
100
AcDbCircle
 10
-129.9975639572099
 20
-86.80822294768738
 30
0.0
 40
1.5
100
AcDbArc
 50
180.0
 51
90.0
  0
CIRCLE
  5
71
330
47
100
AcDbEntity
  8
0
  6
Continuous
 62
     7
100
AcDbCircle
 10
-129.9975639572099
 20
-86.80822294768738
 30
0.0
 40
1.25
  0
CIRCLE
  5
72
330
47
100
AcDbEntity
  8
0
  6
Continuous
 62
     7
100
AcDbCircle
 10
-129.9975639572099
 20
-53.80822294768738
 30
0.0
 40
1.25
  0
SPLINE
  5
73
330
47
100
AcDbEntity
  8
0
  6
Continuous
 62
     7
100
AcDbSpline
210
0.0
220
0.0
230
1.0
 70
    11
 71
     3
 72
   236
 73
   232
 74
   230
 42
0.000000001
 43
0.0000000001
 44
0.00000001
 40
0.0
 40
0.0
 40
0.0
 40
0.0
 40
1.188096725692453
 40
2.358265626395894
 40
3.922235155347022
 40
5.483543034140675
 40
7.047650481986901
 40
8.616244880176408
 40
10.19135881161234
 40
11.21907109122818
 40
12.25559076061817
 40
13.30623191316595
 40
14.3784341798079
 40
15.48190506661421
 40
15.83507700001843
 40
16.19286291765797
 40
16.55287128447446
 40
16.92280094464378
 40
17.66859058437427
 40
18.42495272687836
 40
19.94482614469571
 40
21.43034477309949
 40
22.52059548556547
 40
23.53815874307113
 40
24.46846658001067
 40
25.17061294116809
 40
25.82231322757381
 40
26.10790222779186
 40
26.39226716216094
 40
26.46372422797259
 40
26.53545973721974
 40
26.60121451926007
 40
26.68007060613908
 40
26.82660259049641
 40
26.97548085149182
 40
27.48103162280431
 40
28.02214851359322
 40
28.60060290465061
 40
29.40774384490898
 40
30.26442377713341
 40
31.1559419927364
 40
31.83717928483803
 40
32.5205221654485
 40
32.86044408269169
 40
33.19780996559054
 40
33.55821666604444
 40
33.86192656309841
 40
35.56758062965052
 40
37.19490949992608
 40
38.76411513658561
 40
40.18859381427393
 40
41.59787160626564
 40
42.30286424382267
 40
43.01159447259293
 40
43.36826301390569
 40
43.72696075613892
 40
43.90719347867122
 40
44.08808078093999
 40
44.28829535284451
 40
44.45201648216967
 40
45.93506592650806
 40
47.44864866445144
 40
48.97134721602838
 40
50.48163121597215
 40
51.41790915516813
 40
52.3395868075278
 40
53.24598246799096
 40
53.91691805701035
 40
54.58236981721094
 40
54.87140526687504
 40
55.24578132374089
 40
55.57802002814047
 40
55.91123191546052
 40
57.00101439410628
 40
58.10953936883001
 40
59.23549886390837
 40
60.37400991187059
 40
61.51954484097131
 40
62.37688772236952
 40
63.23638717866491
 40
64.10038550973994
 40
64.75434981974753
 40
65.41692137905045
 40
65.58443229233781
 40
65.75282698207668
 40
65.94121096340947
 40
66.09259750073151
 40
66.43664016992479
 40
66.78485268464236
 40
68.02270826050795
 40
69.28535976026753
 40
70.54244568180324
 40
71.759622833892
 40
72.9027871823756
 40
73.59490675793701
 40
74.23787076817669
 40
74.83068220798219
 40
75.35899427332456
 40
75.86061814219696
 40
76.40317309647786
 40
76.99318750715197
 40
77.63963879350763
 40
78.34575958853848
 40
79.11188393555061
 40
80.255041203605
 40
81.48047102369632
 40
82.75998333199146
 40
84.061937065198
 40
85.35266647028722
 40
85.69981155278946
 40
86.13824296156766
 40
86.52230925929855
 40
86.90066349613033
 40
87.64124569899832
 40
88.36197991551485
 40
89.75161926291374
 40
91.08478368000392
 40
92.3767611588566
 40
93.64369069214949
 40
94.90332975849202
 40
96.17567689016073
 40
97.48328275576542
 40
98.8511470154187
 40
99.20573055728251
 40
99.56619594894775
 40
99.76420531569673
 40
99.93298619907577
 40
100.1188448254668
 40
100.3062711179754
 40
101.0697830148339
 40
101.8507597857002
 40
103.1202492325573
 40
104.3898031886404
 40
105.6311479808603
 40
106.8167627658687
 40
107.9213633401391
 40
108.6375869597591
 40
109.2989379968696
 40
109.9044222921084
 40
110.4589298461946
 40
110.7203636293816
 40
110.975259787734
 40
111.0432100312922
 40
111.1014171905872
 40
111.1643729726878
 40
111.227334657079
 40
111.35351309206
 40
111.4804490569926
 40
112.0300735870127
 40
112.6244164144545
 40
113.3668831670471
 40
114.1863036940739
 40
115.0782059984847
 40
116.2366088215278
 40
117.4652052740767
 40
118.7397238971343
 40
120.034932573283
 40
121.3259552883638
 40
122.5895498420649
 40
122.744552905873
 40
122.898776327601
 40
123.0686014790497
 40
123.2047579863793
 40
123.5074169443457
 40
123.8069373458842
 40
124.3972796356064
 40
124.9771391110474
 40
126.5732580336446
 40
128.1107969612801
 40
129.5995612133456
 40
131.0486370267684
 40
131.5695307336028
 40
132.088501525741
 40
132.3477621286268
 40
132.6071664719167
 40
132.7498911841788
 40
132.8669762562765
 40
132.9971098773993
 40
133.1274235152532
 40
134.1778731620227
 40
135.246735368454
 40
136.7036101985803
 40
138.1937487904571
 40
139.7081941157378
 40
141.1202389369754
 40
142.5333051958818
 40
143.9392852419274
 40
145.3333797416936
 40
145.6518236897813
 40
146.0261604163366
 40
146.3718162557193
 40
146.717146509555
 40
147.4071529424117
 40
148.0966565182043
 40
149.4745329509033
 40
150.8498799267223
 40
151.9940846355437
 40
153.1346438626877
 40
154.2728621320807
 40
155.1274103533366
 40
155.9860044100209
 40
156.201817435474
 40
156.4182438430346
 40
156.6193042493359
 40
156.8531838263681
 40
157.3174469993166
 40
157.7292518855589
 40
158.2169764333412
 40
158.7514389055869
 40
159.2411659597307
 40
159.770095079618
 40
160.3069569441119
 40
160.7802228385011
 40
161.281574041382
 40
161.7807728968057
 40
161.9995668025626
 40
162.2201880396655
 40
162.4298177081355
 40
162.6592054594875
 40
163.0794161572025
 40
163.5395380847048
 40
163.9822860113141
 40
164.4273529329579
 40
164.8881752658976
 40
165.3252041091384
 40
166.0166884785281
 40
166.6484537173892
 40
167.2626240861969
 40
167.9855689915598
 40
169.3227325722461
 40
170.6429992016033
 40
170.6429992016033
 40
170.6429992016033
 40
170.6429992016033
 10
-121.3073182271439
 20
-44.48853861201314
 30
0.0
 10
-121.7024309798872
 20
-44.51872845489855
 30
0.0
 10
-122.4866944190884
 20
-44.57865258177615
 30
0.0
 10
-123.7752360751842
 20
-44.81068328331099
 30
0.0
 10
-125.1645992709543
 20
-45.16045269418112
 30
0.0
 10
-126.6558451508345
 20
-45.63083389480725
 30
0.0
 10
-128.1349628438613
 20
-46.14103978952811
 30
0.0
 10
-129.6197236786387
 20
-46.64914296823496
 30
0.0
 10
-130.949616151509
 20
-47.05704196846878
 30
0.0
 10
-132.126189283513
 20
-47.35424216354468
 30
0.0
 10
-133.1450927325558
 20
-47.55680141311536
 30
0.0
 10
-134.1895442929761
 20
-47.69775254506029
 30
0.0
 10
-135.26387313373
 20
-47.76493192451733
 30
0.0
 10
-136.1077758311992
 20
-47.75058307796127
 30
0.0
 10
-136.7110722985866
 20
-47.70721315965478
 30
0.0
 10
-137.0663822995567
 20
-47.67214105853414
 30
0.0
 10
-137.4261555408305
 20
-47.62684862379236
 30
0.0
 10
-137.9126624079891
 20
-47.55388791775828
 30
0.0
 10
-138.5267922844007
 20
-47.44237840657347
 30
0.0
 10
-139.5123316334316
 20
-47.23347455908474
 30
0.0
 10
-140.7312144412178
 20
-46.93874499205978
 30
0.0
 10
-142.0580660419141
 20
-46.6172221928054
 30
0.0
 10
-143.2317433864451
 20
-46.37611609851648
 30
0.0
 10
-144.2351208531258
 20
-46.23260694655981
 30
0.0
 10
-145.1203556821433
 20
-46.19624655211652
 30
0.0
 10
-145.8803170303473
 20
-46.27719041308634
 30
0.0
 10
-146.4079749389775
 20
-46.43742272505766
 30
0.0
 10
-146.7706017378785
 20
-46.62450853591365
 30
0.0
 10
-146.9479395135233
 20
-46.74507016730522
 30
0.0
 10
-147.0591273187958
 20
-46.83424546155415
 30
0.0
 10
-147.1120646630239
 20
-46.87952808886475
 30
0.0
 10
-147.1654181846681
 20
-46.92806105641711
 30
0.0
 10
-147.2351168999393
 20
-46.99561516442831
 30
0.0
 10
-147.3205372985441
 20
-47.08665353602429
 30
0.0
 10
-147.4917582130109
 20
-47.29165795618646
 30
0.0
 10
-147.71070641221
 20
-47.6269425011925
 30
0.0
 10
-147.9420993541503
 20
-48.11806682992805
 30
0.0
 10
-148.1527539474375
 20
-48.72577799794867
 30
0.0
 10
-148.3292223375385
 20
-49.45321703322717
 30
0.0
 10
-148.4656348059373
 20
-50.29457895441017
 30
0.0
 10
-148.5499507138917
 20
-51.10031490448951
 30
0.0
 10
-148.6013591191451
 20
-51.85066356728016
 30
0.0
 10
-148.626631839056
 20
-52.41831433286055
 30
0.0
 10
-148.6407580825176
 20
-52.87164046038659
 30
0.0
 10
-148.6489434690475
 20
-53.21744476562382
 30
0.0
 10
-148.6547592732197
 20
-53.55122360794032
 30
0.0
 10
-148.6642016062946
 20
-54.34109362195051
 30
0.0
 10
-148.6594003681934
 20
-55.55343098508133
 30
0.0
 10
-148.6288425116981
 20
-57.18719938491864
 30
0.0
 10
-148.6015877364908
 20
-58.72731831623757
 30
0.0
 10
-148.6018846079076
 20
-60.19509793458179
 30
0.0
 10
-148.6409925039354
 20
-61.37440437794312
 30
0.0
 10
-148.7058037048307
 20
-62.31326346799177
 30
0.0
 10
-148.7624030816291
 20
-62.90076443243107
 30
0.0
 10
-148.8185562379917
 20
-63.37214594475009
 30
0.0
 10
-148.8585187441556
 20
-63.66800670452504
 30
0.0
 10
-148.8935365898541
 20
-63.90537910332657
 30
0.0
 10
-148.922378726994
 20
-64.09025660718427
 30
0.0
 10
-148.9519576950201
 20
-64.26944200374055
 30
0.0
 10
-149.0574578872535
 20
-64.87600406983762
 30
0.0
 10
-149.2756191099864
 20
-65.90713853559028
 30
0.0
 10
-149.6325226535689
 20
-67.37065976481857
 30
0.0
 10
-149.9924637561166
 20
-68.8428125322929
 30
0.0
 10
-150.2694758524783
 20
-70.13709063553132
 30
0.0
 10
-150.4496879405133
 20
-71.24566905579763
 30
0.0
 10
-150.5498915317625
 20
-72.16217575486489
 30
0.0
 10
-150.5846302379186
 20
-72.995302952084
 30
0.0
 10
-150.5611947746621
 20
-73.74304619572754
 30
0.0
 10
-150.5054725532418
 20
-74.28258127090712
 30
0.0
 10
-150.4344133259255
 20
-74.71987499716786
 30
0.0
 10
-150.3679428667608
 20
-75.04515232788492
 30
0.0
 10
-150.2853128299941
 20
-75.38183797617994
 30
0.0
 10
-150.1267292765622
 20
-75.94511140679484
 30
0.0
 10
-149.8452103354596
 20
-76.74183713919433
 30
0.0
 10
-149.4073259832608
 20
-77.76013098511335
 30
0.0
 10
-148.9269308028731
 20
-78.77675061852865
 30
0.0
 10
-148.4349227125822
 20
-79.80138369190838
 30
0.0
 10
-148.0023004152795
 20
-80.75523340086775
 30
0.0
 10
-147.6461927170847
 20
-81.64075958683779
 30
0.0
 10
-147.367612546869
 20
-82.45521736213502
 30
0.0
 10
-147.1627117494633
 20
-83.22160152486833
 30
0.0
 10
-147.0262450954964
 20
-83.93601458796321
 30
0.0
 10
-146.9674116617136
 20
-84.42769693763799
 30
0.0
 10
-146.9434675985211
 20
-84.759671239549
 30
0.0
 10
-146.9342521448241
 20
-84.9342030773935
 30
0.0
 10
-146.9288135261232
 20
-85.10351868273457
 30
0.0
 10
-146.926044547959
 20
-85.33144903065474
 30
0.0
 10
-146.9305212403532
 20
-85.61269890269524
 30
0.0
 10
-146.9629698185626
 20
-86.25535369486057
 30
0.0
 10
-147.0759719082097
 20
-87.19958948538965
 30
0.0
 10
-147.3044587822662
 20
-88.43140027666692
 30
0.0
 10
-147.5692982252409
 20
-89.64862491417816
 30
0.0
 10
-147.8248303657195
 20
-90.82698985595798
 30
0.0
 10
-148.0057889755786
 20
-91.82891512231959
 30
0.0
 10
-148.097165354382
 20
-92.65051511025203
 30
0.0
 10
-148.1168291082247
 20
-93.29380175006395
 30
0.0
 10
-148.0668054641785
 20
-93.88155580153425
 30
0.0
 10
-147.9354197917419
 20
-94.40922224599893
 30
0.0
 10
-147.7046252106745
 20
-94.88524451810008
 30
0.0
 10
-147.344238932529
 20
-95.3020063488886
 30
0.0
 10
-146.8581147277068
 20
-95.64926775727511
 30
0.0
 10
-146.2679237259318
 20
-95.92243213780672
 30
0.0
 10
-145.5901425634992
 20
-96.12686892843838
 30
0.0
 10
-144.7324300305691
 20
-96.28945874148864
 30
0.0
 10
-143.690225428864
 20
-96.38471847148617
 30
0.0
 10
-142.4735110498482
 20
-96.40138697534198
 30
0.0
 10
-141.2052061564681
 20
-96.34653380732695
 30
0.0
 10
-139.9189459147561
 20
-96.23585635710953
 30
0.0
 10
-138.9456920617903
 20
-96.12035974915547
 30
0.0
 10
-138.2597764035211
 20
-96.02802658099336
 30
0.0
 10
-137.8737503200335
 20
-95.97330366000011
 30
0.0
 10
-137.4778150645262
 20
-95.91444522458505
 30
0.0
 10
-136.982697384389
 20
-95.83787562004261
 30
0.0
 10
-136.3774285721696
 20
-95.73936127320101
 30
0.0
 10
-135.4407243257788
 20
-95.57903146632917
 30
0.0
 10
-134.3109593091972
 20
-95.37606735764139
 30
0.0
 10
-132.9934994954108
 20
-95.14100286584768
 30
0.0
 10
-131.7128788910769
 20
-94.93264261018491
 30
0.0
 10
-130.4506636682781
 20
-94.76620146341016
 30
0.0
 10
-129.188515874263
 20
-94.6570404825707
 30
0.0
 10
-127.9083091271211
 20
-94.62062202959666
 30
0.0
 10
-126.5923156011668
 20
-94.67235898795794
 30
0.0
 10
-125.5876669575958
 20
-94.78618403610237
 30
0.0
 10
-124.9020443191243
 20
-94.89573003443913
 30
0.0
 10
-124.6024202233418
 20
-94.94929480065633
 30
0.0
 10
-124.3644074155456
 20
-94.99531775803092
 30
0.0
 10
-124.1838667040173
 20
-95.03194445159384
 30
0.0
 10
-124.0070987776847
 20
-95.06939204489332
 30
0.0
 10
-123.6370555531467
 20
-95.15100227531933
 30
0.0
 10
-123.0757349085013
 20
-95.28625234621478
 30
0.0
 10
-122.1688480010306
 20
-95.52598075694868
 30
0.0
 10
-121.1043909853679
 20
-95.82891139231018
 30
0.0
 10
-119.8944664540429
 20
-96.18099086264043
 30
0.0
 10
-118.7077098444998
 20
-96.5127402282112
 30
0.0
 10
-117.5650248934024
 20
-96.79663421229043
 30
0.0
 10
-116.5803579728274
 20
-96.98758155089482
 30
0.0
 10
-115.7580818473048
 20
-97.08516087407295
 30
0.0
 10
-115.096399740571
 20
-97.10828075869999
 30
0.0
 10
-114.4895702079131
 20
-97.06028955174108
 30
0.0
 10
-114.0258956663812
 20
-96.94914608796671
 30
0.0
 10
-113.6956322078948
 20
-96.81202409055714
 30
0.0
 10
-113.5251527434336
 20
-96.71670637512364
 30
0.0
 10
-113.4196388128442
 20
-96.64596484374067
 30
0.0
 10
-113.3684274504581
 20
-96.60918977084297
 30
0.0
 10
-113.319693912194
 20
-96.57186354302885
 30
0.0
 10
-113.254624962507
 20
-96.51867254558499
 30
0.0
 10
-113.1762234737979
 20
-96.44817504826801
 30
0.0
 10
-112.9883653317943
 20
-96.25745925382427
 30
0.0
 10
-112.7390699924928
 20
-95.90991527454744
 30
0.0
 10
-112.4774078693771
 20
-95.33525496043256
 30
0.0
 10
-112.2813223035675
 20
-94.64141307828535
 30
0.0
 10
-112.1466601793941
 20
-93.8336067358184
 30
0.0
 10
-112.0603628711167
 20
-92.88033335102011
 30
0.0
 10
-112.0217355465059
 20
-91.78765900704232
 30
0.0
 10
-112.0185760673397
 20
-90.56708748692859
 30
0.0
 10
-112.0309482647917
 20
-89.30104821118843
 30
0.0
 10
-112.0365920048932
 20
-88.0141009779407
 30
0.0
 10
-112.0131998314056
 20
-86.73088587990671
 30
0.0
 10
-111.9594693294467
 20
-85.82876264981059
 30
0.0
 10
-111.9092552807094
 20
-85.30689436009672
 30
0.0
 10
-111.8926129707788
 20
-85.1480780885986
 30
0.0
 10
-111.8752027622395
 20
-84.99566469015977
 30
0.0
 10
-111.8502859720881
 20
-84.79431860223531
 30
0.0
 10
-111.8167703120774
 20
-84.55048346085275
 30
0.0
 10
-111.7555830619131
 20
-84.15769658873356
 30
0.0
 10
-111.6677397356518
 20
-83.67562930205911
 30
0.0
 10
-111.4743095261443
 20
-82.77391222996681
 30
0.0
 10
-111.1514878595003
 20
-81.5779235398215
 30
0.0
 10
-110.6838681074979
 20
-80.10971568982643
 30
0.0
 10
-110.223484444725
 20
-78.69083644251356
 30
0.0
 10
-109.9092227612959
 20
-77.58065363480424
 30
0.0
 10
-109.7295870162109
 20
-76.77052608220151
 30
0.0
 10
-109.651411509144
 20
-76.34447091871836
 30
0.0
 10
-109.5998868932716
 20
-76.0024272297116
 30
0.0
 10
-109.5720019193895
 20
-75.78371205618407
 30
0.0
 10
-109.5533133627082
 20
-75.61164792277202
 30
0.0
 10
-109.5408837068605
 20
-75.48225985381256
 30
0.0
 10
-109.5303302959856
 20
-75.35685524540222
 30
0.0
 10
-109.4989600470647
 20
-74.92101393373098
 30
0.0
 10
-109.4852820626441
 20
-74.1701542077424
 30
0.0
 10
-109.5555225509297
 20
-72.97933346248253
 30
0.0
 10
-109.7275656090143
 20
-71.65074407991938
 30
0.0
 10
-109.9939061503941
 20
-70.1873418720071
 30
0.0
 10
-110.2947314246031
 20
-68.7461566840618
 30
0.0
 10
-110.5931104554278
 20
-67.3307565520804
 30
0.0
 10
-110.8594263025492
 20
-65.94557549003787
 30
0.0
 10
-111.0721663919992
 20
-64.55694062089464
 30
0.0
 10
-111.1688845481884
 20
-63.52090990889528
 30
0.0
 10
-111.1986892743693
 20
-62.82589288239316
 30
0.0
 10
-111.2067706473156
 20
-62.47981608647262
 30
0.0
 10
-111.20848489816
 20
-62.12469599418644
 30
0.0
 10
-111.2031935765285
 20
-61.66437828038642
 30
0.0
 10
-111.1838255407834
 20
-61.08968214192655
 30
0.0
 10
-111.1312984592049
 20
-60.17199235952213
 30
0.0
 10
-111.0359584188616
 20
-59.02826440682585
 30
0.0
 10
-110.9150246900923
 20
-57.73479065989945
 30
0.0
 10
-110.8177794827607
 20
-56.5185475226107
 30
0.0
 10
-110.7605538546897
 20
-55.37873636225834
 30
0.0
 10
-110.7575107222203
 20
-54.33370214555277
 30
0.0
 10
-110.8085832796314
 20
-53.38420762417435
 30
0.0
 10
-110.8803829709564
 20
-52.7447516622176
 30
0.0
 10
-110.9461433030008
 20
-52.31951601722641
 30
0.0
 10
-110.981982482215
 20
-52.1114686218426
 30
0.0
 10
-111.0224823121872
 20
-51.89814704593912
 30
0.0
 10
-111.0836760118828
 20
-51.60471016413226
 30
0.0
 10
-111.169709983111
 20
-51.24476192940046
 30
0.0
 10
-111.2918018867698
 20
-50.8067749504793
 30
0.0
 10
-111.4381745000854
 20
-50.35158210048931
 30
0.0
 10
-111.61460841392
 20
-49.87927578986071
 30
0.0
 10
-111.8193472567867
 20
-49.40356426377389
 30
0.0
 10
-112.048602681265
 20
-48.93820239701092
 30
0.0
 10
-112.3014087110911
 20
-48.49143942788656
 30
0.0
 10
-112.5746992646865
 20
-48.06786666873729
 30
0.0
 10
-112.8653548586744
 20
-47.67140265046461
 30
0.0
 10
-113.1267950739917
 20
-47.35975029387706
 30
0.0
 10
-113.3396291049932
 20
-47.13037051343067
 30
0.0
 10
-113.4917165106022
 20
-46.97644543457714
 30
0.0
 10
-113.6511474578325
 20
-46.82497285601802
 30
0.0
 10
-113.8649724001234
 20
-46.6343541084398
 30
0.0
 10
-114.1522650490784
 20
-46.40098977857637
 30
0.0
 10
-114.5107368510153
 20
-46.14361654214265
 30
0.0
 10
-114.8904492994474
 20
-45.90298381110239
 30
0.0
 10
-115.2827522594975
 20
-45.68304319524363
 30
0.0
 10
-115.6842439348708
 20
-45.48462969035933
 30
0.0
 10
-116.1701940430401
 20
-45.27321742125453
 30
0.0
 10
-116.7213550575486
 20
-45.07049049992508
 30
0.0
 10
-117.3405584224474
 20
-44.88589842141162
 30
0.0
 10
-117.979183957599
 20
-44.73309215062954
 30
0.0
 10
-118.8568289797286
 20
-44.57555591175737
 30
0.0
 10
-119.9807505146013
 20
-44.45912383209266
 30
0.0
 10
-120.8670073755926
 20
-44.47877533890559
 30
0.0
 10
-121.3073182271439
 20
-44.48853861201314
 30
0.0
 11
-121.3073182271439
 21
-44.48853861201314
 31
0.0
 11
-122.4902400105604
 21
-44.59930820362071
 31
0.0
 11
-123.6433236524938
 21
-44.79854014558305
 31
0.0
 11
-125.1611981298808
 21
-45.17544564705953
 31
0.0
 11
-126.652695289396
 21
-45.63709325679429
 31
0.0
 11
-128.1337634188027
 21
-46.1399543758962
 31
0.0
 11
-129.6203508058642
 21
-46.64050040547411
 31
0.0
 11
-131.1284057383436
 21
-47.09520274663688
 31
0.0
 11
-132.1252947745753
 21
-47.34501223372824
 31
0.0
 11
-133.1422648876477
 21
-47.5453739440905
 31
0.0
 11
-134.1836645156295
 21
-47.68441943019461
 31
0.0
 11
-135.2538420965894
 21
-47.75028024451147
 31
0.0
 11
-136.3571460685961
 21
-47.73108793951207
 31
0.0
 11
-136.7094094633852
 21
-47.7057716332879
 31
0.0
 11
-137.0654652138597
 21
-47.67062813397517
 31
0.0
 11
-137.4226812951204
 21
-47.62587664688034
 31
0.0
 11
-137.7885522762111
 21
-47.57122887652412
 31
0.0
 11
-138.522610242759
 21
-47.43946739123125
 31
0.0
 11
-139.2628086812304
 21
-47.28393616352419
 31
0.0
 11
-140.7423052249983
 21
-46.93593446128794
 31
0.0
 11
-142.1883984096269
 21
-46.59596373065624
 31
0.0
 11
-143.2575354704555
 21
-46.38243958332881
 31
0.0
 11
-144.2659507199426
 21
-46.24630116941343
 31
0.0
 11
-145.1958630808679
 21
-46.21917788631561
 31
0.0
 11
-145.8931474239069
 21
-46.30166459702019
 31
0.0
 11
-146.5144714545281
 21
-46.49831075722322
 31
0.0
 11
-146.7680527126568
 21
-46.62967902810978
 31
0.0
 11
-147.003071214758
 21
-46.7897718749394
 31
0.0
 11
-147.0588159705506
 21
-46.83447796466955
 31
0.0
 11
-147.1133276047428
 21
-46.88110912407873
 31
0.0
 11
-147.1619715528841
 21
-46.92535228935073
 31
0.0
 11
-147.2186075350347
 21
-46.98022166120933
 31
0.0
 11
-147.3189504390881
 21
-47.08700613603003
 31
0.0
 11
-147.4144750775016
 21
-47.20119799244868
 31
0.0
 11
-147.6942419885342
 21
-47.62228237606869
 31
0.0
 11
-147.9281389936641
 21
-48.1102369649787
 31
0.0
 11
-148.1203531713907
 21
-48.65582214883753
 31
0.0
 11
-148.3154105057799
 21
-49.43903931834573
 31
0.0
 11
-148.4559342083866
 21
-50.28411540738148
 31
0.0
 11
-148.5512250859137
 21
-51.17052636085465
 31
0.0
 11
-148.5986042191325
 21
-51.85011407885433
 31
0.0
 11
-148.6296953698425
 21
-52.5327492913747
 31
0.0
 11
-148.6403591323282
 21
-52.87250390005639
 31
0.0
 11
-148.648422315871
 21
-53.20977341266854
 31
0.0
 11
-148.6547320327648
 21
-53.57012487629717
 31
0.0
 11
-148.6583720661648
 21
-53.87381295939794
 31
0.0
 11
-148.6550083113098
 21
-55.57946370983849
 31
0.0
 11
-148.6287581586807
 21
-57.2065808486465
 31
0.0
 11
-148.6056409128326
 21
-58.77561619701726
 31
0.0
 11
-148.6097507755653
 21
-60.20008894616801
 31
0.0
 11
-148.6599607122912
 21
-61.60847201119881
 31
0.0
 11
-148.7088860994061
 21
-62.31176492714508
 31
0.0
 11
-148.7771759742259
 21
-63.01719744004991
 31
0.0
 11
-148.8193992058918
 21
-63.37135792216158
 31
0.0
 11
-148.8674434931514
 21
-63.72682355589063
 31
0.0
 11
-148.893750606708
 21
-63.9051260237695
 31
0.0
 11
-148.9216354805296
 21
-64.08385109178667
 31
0.0
 11
-148.9542505938747
 21
-64.28139128817362
 31
0.0
 11
-148.9822914400492
 21
-64.44269323836618
 31
0.0
 11
-149.2808085119121
 21
-65.89538839300536
 31
0.0
 11
-149.6319499222319
 21
-67.36767654912629
 31
0.0
 11
-149.9862771665213
 21
-68.8485759660349
 31
0.0
 11
-150.2943517402929
 21
-70.32710490303717
 31
0.0
 11
-150.4423279685147
 21
-71.25161526822554
 31
0.0
 11
-150.5400607942504
 21
-72.16809657718744
 31
0.0
 11
-150.5752205312235
 21
-73.07381004526647
 31
0.0
 11
-150.5531096675523
 21
-73.74438120059743
 31
0.0
 11
-150.4836644065229
 21
-74.40619945429405
 31
0.0
 11
-150.4373035945415
 21
-74.69149257774137
 31
0.0
 11
-150.3626098311709
 21
-75.05834169344021
 31
0.0
 11
-150.2835848038666
 21
-75.38104527535211
 31
0.0
 11
-150.1934573325128
 21
-75.70183679764995
 31
0.0
 11
-149.8362098203966
 21
-76.73139984383906
 31
0.0
 11
-149.40373801491
 21
-77.75208380927481
 31
0.0
 11
-148.9276772418939
 21
-78.77245184347163
 31
0.0
 11
-148.439662827189
 21
-79.80106709594386
 31
0.0
 11
-147.9713300966362
 21
-80.84649271620597
 31
0.0
 11
-147.6535115704075
 21
-81.64275159419182
 31
0.0
 11
-147.3774238094298
 21
-82.4567017546384
 31
0.0
 11
-147.1562161924596
 21
-83.29190251275173
 31
0.0
 11
-147.0342357473961
 21
-83.93438993660334
 31
0.0
 11
-146.9560693030486
 21
-84.59233452255849
 31
0.0
 11
-146.9440237171902
 21
-84.75941177993406
 31
0.0
 11
-146.9351498918202
 21
-84.92757249697547
 31
0.0
 11
-146.9291124770636
 21
-85.11585970855953
 31
0.0
 11
-146.9272574605743
 21
-85.26723488022334
 31
0.0
 11
-146.9324663664907
 21
-85.6112381149822
 31
0.0
 11
-146.9497606395148
 21
-85.9590208970828
 31
0.0
 11
-147.0879421101449
 21
-87.189139715675
 31
0.0
 11
-147.3111651859791
 21
-88.43190287421831
 31
0.0
 11
-147.5719784591815
 21
-89.66163514207868
 31
0.0
 11
-147.8229305219159
 21
-90.85266128862219
 31
0.0
 11
-148.0165699663462
 21
-91.97930608321481
 31
0.0
 11
-148.0894079315852
 21
-92.66758229062633
 31
0.0
 11
-148.1044424595593
 21
-93.31037049947122
 31
0.0
 11
-148.0484859789449
 21
-93.90053511671472
 31
0.0
 11
-147.9154257406655
 21
-94.41181645941018
 31
0.0
 11
-147.6928583287562
 21
-94.86136095443064
 31
0.0
 11
-147.3410012874808
 21
-95.27435308627558
 31
0.0
 11
-146.8649314790541
 21
-95.62288506813009
 31
0.0
 11
-146.2810817895042
 21
-95.90040769014425
 31
0.0
 11
-145.6066144424963
 21
-96.10945403690965
 31
0.0
 11
-144.8546854849481
 21
-96.25625103278588
 31
0.0
 11
-143.7170006702849
 21
-96.36797301909922
 31
0.0
 11
-142.4917645917367
 21
-96.38976283425951
 31
0.0
 11
-141.2133050880061
 21
-96.33786828099778
 31
0.0
 11
-139.9159499977957
 21
-96.22853716204509
 31
0.0
 11
-138.634027159808
 21
-96.07801728013239
 31
0.0
 11
-138.2899817131567
 21
-96.03173079224085
 31
0.0
 11
-137.8558838924176
 21
-95.97023947366338
 31
0.0
 11
-137.4759884108577
 21
-95.91379176189305
 31
0.0
 11
-137.1020745801175
 21
-95.85599577820781
 31
0.0
 11
-136.3710678067141
 21
-95.73728985366758
 31
0.0
 11
-135.6606154441815
 21
-95.6159834173043
 31
0.0
 11
-134.2923814396923
 21
-95.37301587816646
 31
0.0
 11
-132.9793875425257
 21
-95.14198689890124
 31
0.0
 11
-131.7036487285546
 21
-94.93779021761517
 31
0.0
 11
-130.4471799736533
 21
-94.77531957241499
 31
0.0
 11
-129.191996253696
 21
-94.66946870140747
 31
0.0
 11
-127.920112544557
 21
-94.63513134269934
 31
0.0
 11
-126.6135438221041
 21
-94.68720123439785
 31
0.0
 11
-125.254305062231
 21
-94.84057211460821
 31
0.0
 11
-124.9041581631901
 21
-94.89648845640687
 31
0.0
 11
-124.5493140982144
 21
-94.95989971856432
 31
0.0
 11
-124.3549050246136
 21
-94.99748723551622
 31
0.0
 11
-124.1894924553795
 21
-95.03103821970242
 31
0.0
 11
-124.0076642744101
 21
-95.06953421451907
 31
0.0
 11
-123.8246315404457
 21
-95.10987815370196
 31
0.0
 11
-123.0820840754724
 21
-95.28756799312684
 31
0.0
 11
-122.3267798022682
 21
-95.48616349067552
 31
0.0
 11
-121.1047700683356
 21
-95.83010486098499
 31
0.0
 11
-119.8847996101906
 21
-96.18144419697717
 31
0.0
 11
-118.688220246214
 21
-96.51179964073405
 31
0.0
 11
-117.5363837947866
 21
-96.79278933433761
 31
0.0
 11
-116.450642074289
 21
-96.99603141986987
 31
0.0
 11
-115.7390122354895
 21
-97.07702059169092
 31
0.0
 11
-115.077928147948
 21
-97.09580951368207
 31
0.0
 11
-114.4747897599626
 21
-97.04256182074093
 31
0.0
 11
-113.9369970198316
 21
-96.90744114776504
 31
0.0
 11
-113.6958184554963
 21
-96.80654256943555
 31
0.0
 11
-113.4736000792849
 21
-96.68167846399862
 31
0.0
 11
-113.4171643160146
 21
-96.64383351421243
 31
0.0
 11
-113.369884513298
 21
-96.6098821718431
 31
0.0
 11
-113.3199021186272
 21
-96.57160436204029
 31
0.0
 11
-113.2711529231575
 21
-96.53175853863496
 31
0.0
 11
-113.1772935417257
 21
-96.44742933863316
 31
0.0
 11
-113.0881853214234
 21
-96.35702765574452
 31
0.0
 11
-112.7630122317215
 21
-95.91391414235889
 31
0.0
 11
-112.5105761760762
 21
-95.37584404065979
 31
0.0
 11
-112.3010474651631
 21
-94.66355575772751
 31
0.0
 11
-112.1603713776672
 21
-93.85630100331997
 31
0.0
 11
-112.0754736485043
 21
-92.96844848392583
 31
0.0
 11
-112.0287000503576
 21
-91.81099035035935
 31
0.0
 11
-112.0211002707854
 21
-90.58241740316097
 31
0.0
 11
-112.0297459154088
 21
-89.30792810411596
 31
0.0
 11
-112.0317085898486
 21
-88.01272091500962
 31
0.0
 11
-112.0040598997259
 21
-86.7219942976283
 31
0.0
 11
-111.9238714506615
 21
-85.46094671375381
 31
0.0
 11
-111.9090117510247
 21
-85.30665757247442
 31
0.0
 11
-111.8929280798445
 21
-85.15327511151177
 31
0.0
 11
-111.8736361767243
 21
-84.98454928498046
 31
0.0
 11
-111.8569141085152
 21
-84.84942354012387
 31
0.0
 11
-111.8157279703781
 21
-84.54958000282028
 31
0.0
 11
-111.7696520252378
 21
-84.25362480652008
 31
0.0
 11
-111.6640889929609
 21
-83.67279740939587
 31
0.0
 11
-111.5427415693902
 21
-83.10577729154261
 31
0.0
 11
-111.1348252288391
 21
-81.56266359703496
 31
0.0
 11
-110.6776004918907
 21
-80.09468148068589
 31
0.0
 11
-110.2284624808316
 21
-78.67528229607996
 31
0.0
 11
-109.844806317948
 21
-77.2779173968018
 31
0.0
 11
-109.7325788750889
 21
-76.76925714192726
 31
0.0
 11
-109.6394239886973
 21
-76.25871541960295
 31
0.0
 11
-109.6008652897233
 21
-76.00233818398688
 31
0.0
 11
-109.5681145725618
 21
-75.74500959279827
 31
0.0
 11
-109.5527133945933
 21
-75.60311827097932
 31
0.0
 11
-109.5415171160487
 21
-75.48656975123365
 31
0.0
 11
-109.5305969313398
 21
-75.35689512413748
 31
0.0
 11
-109.521235965305
 21
-75.22691813953746
 31
0.0
 11
-109.4987861023264
 21
-74.17670841568983
 31
0.0
 11
-109.5583953878033
 21
-73.10950967625284
 31
0.0
 11
-109.7382814894889
 21
-71.66378312493445
 31
0.0
 11
-109.998673298047
 21
-70.19657178051145
 31
0.0
 11
-110.3022123999259
 21
-68.71285730086798
 31
0.0
 11
-110.5889359332367
 21
-67.33022929854027
 31
0.0
 11
-110.8510551728238
 21
-65.94168698500557
 31
0.0
 11
-111.0590139756662
 21
-64.55117160345154
 31
0.0
 11
-111.1832561987431
 21
-63.16262439706566
 31
0.0
 11
-111.1969396105969
 21
-62.84447457022994
 31
0.0
 11
-111.2057924145381
 21
-62.47024253965003
 31
0.0
 11
-111.207544681466
 21
-62.12459114176438
 31
0.0
 11
-111.2036621704098
 21
-61.77928271394713
 31
0.0
 11
-111.1811207454429
 21
-61.08964457583549
 31
0.0
 11
-111.142424001825
 21
-60.40122773768168
 31
0.0
 11
-111.0335880073901
 21
-59.02765641079646
 31
0.0
 11
-110.91120108461
 21
-57.65776563232313
 31
0.0
 11
-110.8233273216041
 21
-56.51694022175656
 31
0.0
 11
-110.7695040510959
 21
-55.3776516691557
 31
0.0
 11
-110.7695113767754
 21
-54.23943339983711
 31
0.0
 11
-110.8167421684091
 21
-53.38619139742035
 31
0.0
 11
-110.9137237099683
 21
-52.53309214489357
 31
0.0
 11
-110.94672054809
 21
-52.31981657052732
 31
0.0
 11
-110.9834787404837
 21
-52.10653453852954
 31
0.0
 11
-111.0209879151062
 21
-51.90900391104748
 31
0.0
 11
-111.0687387340393
 21
-51.68005082451455
 31
0.0
 11
-111.1767314625801
 21
-51.22852245963456
 31
0.0
 11
-111.2873711992108
 21
-50.83185873181256
 31
0.0
 11
-111.4368065572945
 21
-50.36759123542846
 31
0.0
 11
-111.6240482703838
 21
-49.86700090888412
 31
0.0
 11
-111.8178423774188
 21
-49.41724938686912
 31
0.0
 11
-112.0518640284643
 21
-48.94290786370657
 31
0.0
 11
-112.3165771396679
 21
-48.47584509471679
 31
0.0
 11
-112.5733907785606
 21
-48.07831854018317
 31
0.0
 11
-112.8700996209861
 21
-47.67419369397953
 31
0.0
 11
-113.1912008257809
 21
-47.29197188221715
 31
0.0
 11
-113.3400395977612
 21
-47.13160420117852
 31
0.0
 11
-113.4951257977617
 21
-46.97469020945407
 31
0.0
 11
-113.6470890019941
 21
-46.83028874674156
 31
0.0
 11
-113.8182972521881
 21
-46.67762416178176
 31
0.0
 11
-114.1443494833293
 21
-46.41254497941771
 31
0.0
 11
-114.5179676157053
 21
-46.14399018206175
 31
0.0
 11
-114.8918250247777
 21
-45.90680594130801
 31
0.0
 11
-115.2799362398845
 21
-45.68896597869779
 31
0.0
 11
-115.6929627461878
 21
-45.4845978611384
 31
0.0
 11
-116.093637050838
 21
-45.31008622462672
 31
0.0
 11
-116.7423995400536
 21
-45.07080006678667
 31
0.0
 11
-117.347705868409
 21
-44.8898813956751
 31
0.0
 11
-117.9449796090518
 21
-44.74681036330767
 31
0.0
 11
-118.6563466202637
 21
-44.61794488729001
 31
0.0
 11
-119.9870528814829
 21
-44.48669214441983
 31
0.0
 11
-121.3073182271439
 21
-44.48853861201314
 31
0.0
  0
ENDBLK
  5
49
330
47
100
AcDbEntity
  8
0
100
AcDbBlockEnd
  0
BLOCK
  5
4C
330
4A
100
AcDbEntity
  8
0
100
AcDbBlockBegin
  2
VS-PPC-F1-RJ45-P0BK-1R-PHA-Wandausschnitt
 70
     0
 10
-150.5754572340573
 20
-97.14655574957929
 30
0.0
  3
VS-PPC-F1-RJ45-P0BK-1R-PHA-Wandausschnitt
  1

  0
INSERT
  5
4B
330
4A
100
AcDbEntity
  8
0
100
AcDbBlockReference
  2
Wandausschnitt
 10
-150.5754572340573
 20
-97.14655574957929
 30
0.0
  0
ENDBLK
  5
4D
330
4A
100
AcDbEntity
  8
0
100
AcDbBlockEnd
  0
BLOCK
  5
50
330
4E
100
AcDbEntity
  8
0
100
AcDbBlockBegin
  2
Vordans1
 70
     0
 10
-130.0
 20
-70.7894035250615
 30
0.0
  3
Vordans1
  1

  0
INSERT
  5
4F
330
4E
100
AcDbEntity
  8
0
100
AcDbBlockReference
  2
VS-PPC-F1-RJ45-P0BK-1R-PHA-Wandausschnitt
 10
-150.5754572340573
 20
-97.14655574957929
 30
0.0
  0
LINE
  5
74
330
4E
100
AcDbEntity
  8
1
  6
DASHED
 62
     2
100
AcDbLine
 10
-141.09756395721
 20
-59.11312668437992
 30
0.0
 11
-141.09756395721
 21
-81.5033192109948
 31
0.0
  0
LINE
  5
75
330
4E
100
AcDbEntity
  8
1
  6
DASHED
 62
     2
100
AcDbLine
 10
-139.6687143959561
 20
-56.04894891190401
 30
0.0
 11
-132.8901082007994
 21
-50.36102295365196
 31
0.0
  0
LINE
  5
76
330
4E
100
AcDbEntity
  8
1
  6
DASHED
 62
     2
100
AcDbLine
 10
-127.1050197136206
 20
-50.36102295365195
 30
0.0
 11
-120.3264135184638
 21
-56.04894891190396
 31
0.0
  0
LINE
  5
77
330
4E
100
AcDbEntity
  8
1
  6
DASHED
 62
     2
100
AcDbLine
 10
-118.8975639572099
 20
-59.11312668437989
 30
0.0
 11
-118.8975639572099
 21
-81.50331921099487
 31
0.0
  0
LINE
  5
78
330
4E
100
AcDbEntity
  8
1
  6
DASHED
 62
     2
100
AcDbLine
 10
-120.3264135184638
 20
-84.5674969834708
 30
0.0
 11
-127.1050197136205
 21
-90.25542294172278
 31
0.0
  0
LINE
  5
79
330
4E
100
AcDbEntity
  8
1
  6
DASHED
 62
     2
100
AcDbLine
 10
-132.8901082007994
 20
-90.25542294172277
 30
0.0
 11
-139.6687143959561
 21
-84.56749698347072
 31
0.0
  0
ARC
  5
7A
330
4E
100
AcDbEntity
  8
1
  6
DASHED
 62
     2
100
AcDbCircle
 10
-129.9975639572099
 20
-86.80822294768737
 30
0.0
 40
4.500000000000046
100
AcDbArc
 50
229.9999999999993
 51
309.9999999999996
  0
ARC
  5
7B
330
4E
100
AcDbEntity
  8
1
  6
DASHED
 62
     2
100
AcDbCircle
 10
-129.99756395721
 20
-53.80822294768736
 30
0.0
 40
4.499999999999983
100
AcDbArc
 50
50.00000000000053
 51
129.9999999999999
  0
ARC
  5
7C
330
4E
100
AcDbEntity
  8
1
  6
DASHED
 62
     2
100
AcDbCircle
 10
-122.8975639572099
 20
-59.11312668437989
 30
0.0
 40
4.0
100
AcDbArc
 50
0.0
 51
50.00000000000077
  0
ARC
  5
7D
330
4E
100
AcDbEntity
  8
1
  6
DASHED
 62
     2
100
AcDbCircle
 10
-122.8975639572099
 20
-81.50331921099487
 30
0.0
 40
3.999999999999978
100
AcDbArc
 50
309.9999999999993
 51
0.0
  0
ARC
  5
7E
330
4E
100
AcDbEntity
  8
1
  6
DASHED
 62
     2
100
AcDbCircle
 10
-137.09756395721
 20
-81.5033192109948
 30
0.0
 40
4.0
100
AcDbArc
 50
180.0
 51
230.0000000000007
  0
ARC
  5
7F
330
4E
100
AcDbEntity
  8
1
  6
DASHED
 62
     2
100
AcDbCircle
 10
-137.09756395721
 20
-59.11312668437992
 30
0.0
 40
3.999999999999952
100
AcDbArc
 50
129.9999999999993
 51
180.0
  0
MTEXT
  5
81
330
4E
100
AcDbEntity
  8
1
 62
     6
100
AcDbMText
 10
-130.0000000000001
 20
-99.59026822156464
 30
0.0
 40
2.5
 41
0.0
 71
     2
 72
     1
  1
 
  7
CONVERTER_11
 73
     1
 44
1.32052821128451
  0
DIMENSION
  5
8C
330
4E
100
AcDbEntity
  8
1
100
AcDbDimension
  2
*D8
 10
-97.18556042096253
 20
-86.80822294768738
 30
0.0
 11
-98.81056042096253
 21
-70.789879202405
 31
0.0
 70
    33
  1
<>
 71
     5
 42
-1.0
 53
90.0
  3
ME10_DIM_10
100
AcDbAlignedDimension
 13
-129.9975639572099
 23
-53.80822294768738
 33
0.0
 14
-129.9975639572099
 24
-86.80822294768738
 34
0.0
  0
DIMENSION
  5
97
330
4E
100
AcDbEntity
  8
1
100
AcDbDimension
  2
*D9
 10
-101.8968193470926
 20
-58.90822294768741
 30
0.0
 11
-103.6093193470926
 21
-71.2295967021775
 31
0.0
 70
    32
  1
<>
 71
     5
 42
-1.0
 53
90.0
  3
ME10_DIM_11
100
AcDbAlignedDimension
 13
-121.6475639404255
 23
-81.7082229476874
 33
0.0
 14
-138.3475639404255
 24
-58.9082229476874
 34
0.0
 50
90.0
100
AcDbRotatedDimension
  0
DIMENSION
  5
A2
330
4E
100
AcDbEntity
  8
1
100
AcDbDimension
  2
*D10
 10
-139.5975639404256
 20
-106.4963631777135
 30
0.0
 11
-130.1716519708601
 21
-104.7838631777135
 31
0.0
 70
    32
  1
<>
 71
     5
 42
-1.0
 53
0.00013888888889
  3
ME10_DIM_12
100
AcDbAlignedDimension
 13
-120.3975639404255
 23
-80.45822294768739
 33
0.0
 14
-139.5975639404255
 24
-80.4582229476874
 34
0.0
100
AcDbRotatedDimension
  0
INSERT
  5
A9
330
4E
100
AcDbEntity
  8
1
100
AcDbBlockReference
  2
*D11
 10
0.0
 20
0.0
 30
0.0
  0
INSERT
  5
B5
330
4E
100
AcDbEntity
  8
1
100
AcDbBlockReference
  2
*D12
 10
0.0
 20
0.0
 30
0.0
  0
ENDBLK
  5
51
330
4E
100
AcDbEntity
  8
0
100
AcDbBlockEnd
  0
BLOCK
  5
53
330
52
100
AcDbEntity
  8
0
100
AcDbBlockBegin
  2
_rahmen
 70
     0
 10
-42.70821969616969
 20
-314.224989179649
 30
0.0
  3
_rahmen
  1

  0
LINE
  5
B6
330
52
100
AcDbEntity
  8
1
  6
Continuous
 62
     6
100
AcDbLine
 10
-111.0415530295031
 20
-309.224989179649
 30
0.0
 11
-42.70821969616975
 21
-309.2249891796495
 31
0.0
  0
LINE
  5
B7
330
52
100
AcDbEntity
  8
1
  6
Continuous
 62
     6
100
AcDbLine
 10
-42.70821969617015
 20
-300.7249891796496
 30
0.0
 11
-42.70821969616969
 21
-292.2249891796496
 31
0.0
  0
LINE
  5
B8
330
52
100
AcDbEntity
  8
1
  6
Continuous
 62
     6
100
AcDbLine
 10
-42.70821969616969
 20
-292.2249891796496
 30
0.0
 11
-42.70821969617066
 21
-287.9749891796496
 31
0.0
  0
LINE
  5
B9
330
52
100
AcDbEntity
  8
1
  6
Continuous
 62
     6
100
AcDbLine
 10
-42.70821969617066
 20
-287.9749891796496
 30
0.0
 11
-42.70821969616975
 21
-251.8249891796489
 31
0.0
  0
LINE
  5
BA
330
52
100
AcDbEntity
  8
1
  6
Continuous
 62
     2
100
AcDbLine
 10
-247.7082196961697
 20
-314.224989179649
 30
0.0
 11
-316.0415530295028
 21
-314.224989179649
 31
0.0
  0
LINE
  5
BB
330
52
100
AcDbEntity
  8
1
  6
Continuous
 62
     2
100
AcDbLine
 10
-111.0415530295031
 20
-314.224989179649
 30
0.0
 11
-42.70821969616969
 21
-314.224989179649
 31
0.0
  0
LINE
  5
BC
330
52
100
AcDbEntity
  8
1
  6
Continuous
 62
     2
100
AcDbLine
 10
-111.0415530295031
 20
-314.224989179649
 30
0.0
 11
-111.0415530295031
 21
-309.224989179649
 31
0.0
  0
LINE
  5
BD
330
52
100
AcDbEntity
  8
1
  6
Continuous
 62
     2
100
AcDbLine
 10
-179.3748863628363
 20
-314.224989179649
 30
0.0
 11
-179.3748863628363
 21
-309.2249891796519
 31
0.0
  0
LINE
  5
BE
330
52
100
AcDbEntity
  8
1
  6
Continuous
 62
     2
100
AcDbLine
 10
-247.7082196961697
 20
-314.224989179649
 30
0.0
 11
-247.7082196961697
 21
-309.224989179649
 31
0.0
  0
LINE
  5
BF
330
52
100
AcDbEntity
  8
1
  6
Continuous
 62
     2
100
AcDbLine
 10
-37.70821969617219
 20
-251.8249891796489
 30
0.0
 11
-37.70821969617219
 21
-194.4249891796488
 31
0.0
  0
LINE
  5
C0
330
52
100
AcDbEntity
  8
1
  6
Continuous
 62
     2
100
AcDbLine
 10
-37.70821969617219
 20
-251.8249891796489
 30
0.0
 11
-42.70821969616975
 21
-251.8249891796489
 31
0.0
  0
LINE
  5
C1
330
52
100
AcDbEntity
  8
1
  6
Continuous
 62
     2
100
AcDbLine
 10
-437.7082196961704
 20
-314.224989179649
 30
0.0
 11
-457.7082196961705
 21
-314.224989179649
 31
0.0
  0
LINE
  5
C2
330
52
100
AcDbEntity
  8
1
  6
Continuous
 62
     2
100
AcDbLine
 10
-384.3748863628363
 20
-314.224989179649
 30
0.0
 11
-384.3748863628363
 21
-309.224989179649
 31
0.0
  0
LINE
  5
C3
330
52
100
AcDbEntity
  8
1
  6
Continuous
 62
     2
100
AcDbLine
 10
-384.3748863628363
 20
-314.224989179649
 30
0.0
 11
-316.0415530295028
 21
-314.224989179649
 31
0.0
  0
LINE
  5
C4
330
52
100
AcDbEntity
  8
1
  6
Continuous
 62
     6
100
AcDbLine
 10
-384.3748863628363
 20
-309.224989179649
 30
0.0
 11
-316.0415530295028
 21
-309.224989179649
 31
0.0
  0
LINE
  5
C5
330
52
100
AcDbEntity
  8
1
  6
Continuous
 62
     6
100
AcDbLine
 10
-384.3748863628363
 20
-309.224989179649
 30
0.0
 11
-437.7082196961694
 21
-309.224989179649
 31
0.0
  0
LINE
  5
C6
330
52
100
AcDbEntity
  8
1
  6
Continuous
 62
     2
100
AcDbLine
 10
-316.0415530295028
 20
-314.224989179649
 30
0.0
 11
-316.0415530295028
 21
-309.224989179649
 31
0.0
  0
LINE
  5
C7
330
52
100
AcDbEntity
  8
1
  6
Continuous
 62
     2
100
AcDbLine
 10
-437.7082196961704
 20
-314.224989179649
 30
0.0
 11
-437.7082196961704
 21
-310.224989179649
 31
0.0
  0
LINE
  5
C8
330
52
100
AcDbEntity
  8
1
  6
Continuous
 62
     2
100
AcDbLine
 10
-437.7082196961704
 20
-314.224989179649
 30
0.0
 11
-384.3748863628363
 21
-314.224989179649
 31
0.0
  0
LINE
  5
C9
330
52
100
AcDbEntity
  8
1
  6
Continuous
 62
     2
100
AcDbLine
 10
-227.7082196961725
 20
-314.224989179649
 30
0.0
 11
-247.7082196961697
 21
-314.224989179649
 31
0.0
  0
LINE
  5
CA
330
52
100
AcDbEntity
  8
1
  6
Continuous
 62
     2
100
AcDbLine
 10
-227.7082196961725
 20
-314.224989179649
 30
0.0
 11
-227.7082196961725
 21
-310.224989179649
 31
0.0
  0
LINE
  5
CB
330
52
100
AcDbEntity
  8
1
  6
Continuous
 62
     2
100
AcDbLine
 10
-227.7082196961725
 20
-314.224989179649
 30
0.0
 11
-179.3748863628363
 21
-314.224989179649
 31
0.0
  0
LINE
  5
CC
330
52
100
AcDbEntity
  8
1
  6
Continuous
 62
     2
100
AcDbLine
 10
-179.3748863628363
 20
-314.224989179649
 30
0.0
 11
-111.0415530295031
 21
-314.224989179649
 31
0.0
  0
LINE
  5
CD
330
52
100
AcDbEntity
  8
1
  6
Continuous
 62
     2
100
AcDbLine
 10
-37.70821969617219
 20
-314.224989179649
 30
0.0
 11
-42.70821969616969
 21
-314.224989179649
 31
0.0
  0
LINE
  5
CE
330
52
100
AcDbEntity
  8
1
  6
Continuous
 62
     2
100
AcDbLine
 10
-37.70821969617219
 20
-309.224989179649
 30
0.0
 11
-37.70821969617219
 21
-314.224989179649
 31
0.0
  0
LINE
  5
CF
330
52
100
AcDbEntity
  8
1
  6
Continuous
 62
     2
100
AcDbLine
 10
-37.70821969617219
 20
-309.224989179649
 30
0.0
 11
-37.70821969617219
 21
-251.8249891796489
 31
0.0
  0
LINE
  5
D0
330
52
100
AcDbEntity
  8
1
  6
Continuous
 62
     2
100
AcDbLine
 10
-37.70821969617219
 20
-17.22498917964902
 30
0.0
 11
-42.70821969617219
 21
-17.22498917964902
 31
0.0
  0
LINE
  5
D1
330
52
100
AcDbEntity
  8
1
  6
Continuous
 62
     6
100
AcDbLine
 10
-42.70821969617219
 20
-22.22498917964902
 30
0.0
 11
-42.70821969617168
 21
-79.6249891796491
 31
0.0
  0
LINE
  5
D2
330
52
100
AcDbEntity
  8
1
  6
Continuous
 62
     2
100
AcDbLine
 10
-37.70821969617219
 20
-17.22498917964902
 30
0.0
 11
-37.70821969617219
 21
-22.22498917964902
 31
0.0
  0
LINE
  5
D3
330
52
100
AcDbEntity
  8
1
  6
Continuous
 62
     2
100
AcDbLine
 10
-42.70821969617219
 20
-22.22498917964902
 30
0.0
 11
-42.70821969617219
 21
-17.22498917964902
 31
0.0
  0
LINE
  5
D4
330
52
100
AcDbEntity
  8
1
  6
Continuous
 62
     2
100
AcDbLine
 10
-42.70821969617219
 20
-22.22498917964902
 30
0.0
 11
-37.70821969617219
 21
-22.22498917964902
 31
0.0
  0
LINE
  5
D5
330
52
100
AcDbEntity
  8
1
  6
Continuous
 62
     2
100
AcDbLine
 10
-37.70821969617219
 20
-22.22498917964902
 30
0.0
 11
-37.70821969617219
 21
-79.6249891796491
 31
0.0
  0
LINE
  5
D6
330
52
100
AcDbEntity
  8
1
  6
Continuous
 62
     2
100
AcDbLine
 10
-42.70821969617168
 20
-79.6249891796491
 30
0.0
 11
-37.70821969617219
 21
-79.6249891796491
 31
0.0
  0
LINE
  5
D7
330
52
100
AcDbEntity
  8
1
  6
Continuous
 62
     6
100
AcDbLine
 10
-42.70821969617168
 20
-79.6249891796491
 30
0.0
 11
-42.70821969616969
 21
-137.024989179649
 31
0.0
  0
LINE
  5
D8
330
52
100
AcDbEntity
  8
1
  6
Continuous
 62
     2
100
AcDbLine
 10
-37.70821969617219
 20
-79.6249891796491
 30
0.0
 11
-37.70821969617219
 21
-137.024989179649
 31
0.0
  0
LINE
  5
D9
330
52
100
AcDbEntity
  8
1
  6
Continuous
 62
     2
100
AcDbLine
 10
-42.70821969616969
 20
-137.024989179649
 30
0.0
 11
-37.70821969617219
 21
-137.024989179649
 31
0.0
  0
LINE
  5
DA
330
52
100
AcDbEntity
  8
1
  6
Continuous
 62
     6
100
AcDbLine
 10
-42.70821969616969
 20
-137.024989179649
 30
0.0
 11
-42.70821969616969
 21
-194.4249891796488
 31
0.0
  0
LINE
  5
DB
330
52
100
AcDbEntity
  8
1
  6
Continuous
 62
     2
100
AcDbLine
 10
-37.70821969617219
 20
-137.024989179649
 30
0.0
 11
-37.70821969617219
 21
-194.4249891796488
 31
0.0
  0
LINE
  5
DC
330
52
100
AcDbEntity
  8
1
  6
Continuous
 62
     2
100
AcDbLine
 10
-42.70821969616969
 20
-194.4249891796488
 30
0.0
 11
-37.70821969617219
 21
-194.4249891796488
 31
0.0
  0
LINE
  5
DD
330
52
100
AcDbEntity
  8
1
  6
Continuous
 62
     6
100
AcDbLine
 10
-42.70821969616969
 20
-194.4249891796488
 30
0.0
 11
-42.70821969616975
 21
-251.8249891796489
 31
0.0
  0
LINE
  5
DE
330
52
100
AcDbEntity
  8
1
  6
Continuous
 62
     6
100
AcDbLine
 10
-437.7082196961704
 20
-22.22498917964879
 30
0.0
 11
-384.3748863628363
 21
-22.22498917964879
 31
0.0
  0
LINE
  5
DF
330
52
100
AcDbEntity
  8
1
  6
Continuous
 62
     2
100
AcDbLine
 10
-42.70821969617219
 20
-17.22498917964902
 30
0.0
 11
-111.0415530295031
 21
-17.22498917964902
 31
0.0
  0
LINE
  5
E0
330
52
100
AcDbEntity
  8
1
  6
Continuous
 62
     2
100
AcDbLine
 10
-111.0415530295031
 20
-22.22498917964902
 30
0.0
 11
-111.0415530295031
 21
-17.22498917964902
 31
0.0
  0
LINE
  5
E1
330
52
100
AcDbEntity
  8
1
  6
Continuous
 62
     6
100
AcDbLine
 10
-111.0415530295031
 20
-22.22498917964902
 30
0.0
 11
-42.70821969617219
 21
-22.22498917964902
 31
0.0
  0
LINE
  5
E2
330
52
100
AcDbEntity
  8
1
  6
Continuous
 62
     2
100
AcDbLine
 10
-111.0415530295031
 20
-17.22498917964902
 30
0.0
 11
-179.3748863628363
 21
-17.22498917964902
 31
0.0
  0
LINE
  5
E3
330
52
100
AcDbEntity
  8
1
  6
Continuous
 62
     2
100
AcDbLine
 10
-179.3748863628363
 20
-22.22498917964902
 30
0.0
 11
-179.3748863628363
 21
-17.22498917964902
 31
0.0
  0
LINE
  5
E4
330
52
100
AcDbEntity
  8
1
  6
Continuous
 62
     6
100
AcDbLine
 10
-179.3748863628363
 20
-22.22498917964902
 30
0.0
 11
-111.0415530295031
 21
-22.22498917964902
 31
0.0
  0
LINE
  5
E5
330
52
100
AcDbEntity
  8
1
  6
Continuous
 62
     2
100
AcDbLine
 10
-179.3748863628363
 20
-17.22498917964902
 30
0.0
 11
-227.7082196961725
 21
-17.22498917964902
 31
0.0
  0
LINE
  5
E6
330
52
100
AcDbEntity
  8
1
  6
Continuous
 62
     2
100
AcDbLine
 10
-247.7082196961697
 20
-22.22498917964902
 30
0.0
 11
-247.7082196961697
 21
-17.22498917964902
 31
0.0
  0
LINE
  5
E7
330
52
100
AcDbEntity
  8
1
  6
Continuous
 62
     6
100
AcDbLine
 10
-247.7082196961697
 20
-22.22498917964902
 30
0.0
 11
-179.3748863628363
 21
-22.22498917964902
 31
0.0
  0
LINE
  5
E8
330
52
100
AcDbEntity
  8
1
  6
Continuous
 62
     2
100
AcDbLine
 10
-247.7082196961697
 20
-17.22498917964902
 30
0.0
 11
-316.0415530295028
 21
-17.22498917964902
 31
0.0
  0
LINE
  5
E9
330
52
100
AcDbEntity
  8
1
  6
Continuous
 62
     2
100
AcDbLine
 10
-316.0415530295028
 20
-22.22498917964902
 30
0.0
 11
-316.0415530295028
 21
-17.22498917964902
 31
0.0
  0
LINE
  5
EA
330
52
100
AcDbEntity
  8
1
  6
Continuous
 62
     6
100
AcDbLine
 10
-316.0415530295028
 20
-22.22498917964902
 30
0.0
 11
-247.7082196961697
 21
-22.22498917964902
 31
0.0
  0
LINE
  5
EB
330
52
100
AcDbEntity
  8
1
  6
Continuous
 62
     2
100
AcDbLine
 10
-316.0415530295028
 20
-17.22498917964902
 30
0.0
 11
-384.3748863628363
 21
-17.22498917964902
 31
0.0
  0
LINE
  5
EC
330
52
100
AcDbEntity
  8
1
  6
Continuous
 62
     2
100
AcDbLine
 10
-384.3748863628363
 20
-22.22498917964879
 30
0.0
 11
-384.3748863628363
 21
-17.22498917964902
 31
0.0
  0
LINE
  5
ED
330
52
100
AcDbEntity
  8
1
  6
Continuous
 62
     6
100
AcDbLine
 10
-384.3748863628363
 20
-22.22498917964879
 30
0.0
 11
-316.0415530295028
 21
-22.22498917964902
 31
0.0
  0
LINE
  5
EE
330
52
100
AcDbEntity
  8
1
  6
Continuous
 62
     2
100
AcDbLine
 10
-384.3748863628363
 20
-17.22498917964902
 30
0.0
 11
-437.7082196961704
 21
-17.22498917964902
 31
0.0
  0
LINE
  5
EF
330
52
100
AcDbEntity
  8
1
  6
Continuous
 62
     2
100
AcDbLine
 10
-437.7082196961704
 20
-17.22498917964902
 30
0.0
 11
-437.7082196961704
 21
-21.22498917964879
 31
0.0
  0
LINE
  5
F0
330
52
100
AcDbEntity
  8
1
  6
Continuous
 62
     2
100
AcDbLine
 10
-437.7082196961704
 20
-17.22498917964902
 30
0.0
 11
-457.7082196961705
 21
-17.22498917964902
 31
0.0
  0
LINE
  5
F1
330
52
100
AcDbEntity
  8
1
  6
Continuous
 62
     2
100
AcDbLine
 10
-227.7082196961725
 20
-17.22498917964902
 30
0.0
 11
-227.7082196961725
 21
-21.22498917964879
 31
0.0
  0
LINE
  5
F2
330
52
100
AcDbEntity
  8
1
  6
Continuous
 62
     2
100
AcDbLine
 10
-227.7082196961725
 20
-17.22498917964902
 30
0.0
 11
-247.7082196961697
 21
-17.22498917964902
 31
0.0
  0
LINE
  5
F3
330
52
100
AcDbEntity
  8
1
  6
Continuous
 62
     2
100
AcDbLine
 10
-457.7082196961705
 20
-17.22498917964902
 30
0.0
 11
-457.7082196961705
 21
-165.724989179649
 31
0.0
  0
LINE
  5
F4
330
52
100
AcDbEntity
  8
1
  6
Continuous
 62
     2
100
AcDbLine
 10
-457.7082196961705
 20
-165.724989179649
 30
0.0
 11
-447.7082196961704
 21
-165.724989179649
 31
0.0
  0
LINE
  5
F5
330
52
100
AcDbEntity
  8
1
  6
Continuous
 62
     2
100
AcDbLine
 10
-457.7082196961705
 20
-165.724989179649
 30
0.0
 11
-457.7082196961705
 21
-314.224989179649
 31
0.0
  0
LINE
  5
F6
330
52
100
AcDbEntity
  8
1
  6
Continuous
 62
     6
100
AcDbLine
 10
-437.7082196961694
 20
-309.224989179649
 30
0.0
 11
-437.7082196961704
 21
-22.22498917964879
 31
0.0
  0
LINE
  5
F7
330
52
100
AcDbEntity
  8
1
  6
Continuous
 62
     6
100
AcDbLine
 10
-42.70821969616975
 20
-309.2249891796495
 30
0.0
 11
-42.70821969617015
 21
-300.7249891796496
 31
0.0
  0
LINE
  5
F8
330
52
100
AcDbEntity
  8
1
  6
Continuous
 62
     6
100
AcDbLine
 10
-316.0415530295028
 20
-309.224989179649
 30
0.0
 11
-172.2530242229196
 21
-309.2249891796521
 31
0.0
  0
LINE
  5
F9
330
52
100
AcDbEntity
  8
1
  6
Continuous
 62
     2
100
AcDbLine
 10
-179.3748863628363
 20
-309.2249891796519
 30
0.0
 11
-179.3748863628363
 21
-309.224989179649
 31
0.0
  0
LINE
  5
FA
330
52
100
AcDbEntity
  8
1
  6
Continuous
 62
     6
100
AcDbLine
 10
-42.7082196961679
 20
-292.2249891796496
 30
0.0
 11
-42.7082196961679
 21
-283.7249891796496
 31
0.0
  0
LINE
  5
FB
330
52
100
AcDbEntity
  8
1
  6
Continuous
 62
     6
100
AcDbLine
 10
-135.8530242229197
 20
-292.2249891796496
 30
0.0
 11
-42.7082196961679
 21
-292.2249891796496
 31
0.0
  0
LINE
  5
FC
330
52
100
AcDbEntity
  8
1
  6
Continuous
 62
     7
100
AcDbLine
 10
-172.2530242229196
 20
-292.2249891796496
 30
0.0
 11
-172.2530242229196
 21
-283.7249891796496
 31
0.0
  0
LINE
  5
FD
330
52
100
AcDbEntity
  8
1
  6
Continuous
 62
     7
100
AcDbLine
 10
-135.8530242229197
 20
-292.2249891796496
 30
0.0
 11
-135.8530242229197
 21
-283.7249891796496
 31
0.0
  0
LINE
  5
FE
330
52
100
AcDbEntity
  8
1
  6
Continuous
 62
     7
100
AcDbLine
 10
-78.12662797784672
 20
-283.7249891796496
 30
0.0
 11
-78.12662797784672
 21
-292.2249891796496
 31
0.0
  0
LINE
  5
FF
330
52
100
AcDbEntity
  8
1
  6
Continuous
 62
     7
100
AcDbLine
 10
-51.62662797784709
 20
-283.7249891796496
 30
0.0
 11
-51.62662797784709
 21
-292.2249891796496
 31
0.0
  0
LINE
  5
100
330
52
100
AcDbEntity
  8
1
  6
Continuous
 62
     7
100
AcDbLine
 10
-42.7082196961684
 20
-300.7249891796496
 30
0.0
 11
-135.8530242229197
 21
-300.7249891796496
 31
0.0
  0
LINE
  5
101
102
{ACAD_REACTORS
330
1E4
330
1E5
102
}
330
52
100
AcDbEntity
  8
0
  6
Continuous
 62
     2
100
AcDbLine
 10
-158.5455952811522
 20
-299.9247000639863
 30
0.0
 11
-158.5455952811522
 21
-299.052183057183
 31
0.0
  0
LINE
  5
102
102
{ACAD_REACTORS
330
1E4
330
1E5
102
}
330
52
100
AcDbEntity
  8
0
  6
Continuous
 62
     2
100
AcDbLine
 10
-158.5455952811522
 20
-300.8844687714691
 30
0.0
 11
-158.5455952811522
 21
-301.7569857782724
 31
0.0
  0
LINE
  5
103
102
{ACAD_REACTORS
330
1E6
330
1E7
102
}
330
52
100
AcDbEntity
  8
0
  6
Continuous
 62
     2
100
AcDbLine
 10
-143.2125511448618
 20
-299.6629449619458
 30
0.0
 11
-142.1089118452937
 21
-299.6629449619458
 31
0.0
  0
LINE
  5
104
102
{ACAD_REACTORS
330
1E6
330
1E7
102
}
330
52
100
AcDbEntity
  8
0
  6
Continuous
 62
     2
100
AcDbLine
 10
-142.4428938019004
 20
-300.8844687714696
 30
0.0
 11
-142.4428938019004
 21
-301.7569857782729
 31
0.0
  0
LINE
  5
105
102
{ACAD_REACTORS
330
1F0
330
1F1
102
}
330
52
100
AcDbEntity
  8
0
  6
Continuous
 62
     2
100
AcDbLine
 10
-144.3036504172802
 20
-298.5722987034589
 30
0.0
 11
-142.9056973703399
 21
-296.991439709684
 31
0.0
  0
LINE
  5
106
102
{ACAD_REACTORS
330
1F0
330
1F1
102
}
330
52
100
AcDbEntity
  8
0
  6
Continuous
 62
     2
100
AcDbLine
 10
-144.2082270011074
 20
-295.5184891796478
 30
0.0
 11
-142.9056973703399
 21
-296.991439709684
 31
0.0
  0
LINE
  5
107
102
{ACAD_REACTORS
330
1F0
330
1F1
102
}
330
52
100
AcDbEntity
  8
0
  6
Continuous
 62
     2
100
AcDbLine
 10
-141.6031677395735
 20
-295.5184891796478
 30
0.0
 11
-140.2004435218263
 21
-295.5184891796478
 31
0.0
  0
LINE
  5
108
102
{ACAD_REACTORS
330
1F0
330
1F1
102
}
330
52
100
AcDbEntity
  8
0
  6
Continuous
 62
     2
100
AcDbLine
 10
-142.9009261995321
 20
-298.5722987034589
 30
0.0
 11
-142.2043352614663
 21
-297.7845669181652
 31
0.0
  0
LINE
  5
109
102
{ACAD_REACTORS
330
1F0
330
1F1
102
}
330
52
100
AcDbEntity
  8
0
  6
Continuous
 62
     2
100
AcDbLine
 10
-142.9009261995321
 20
-298.5722987034589
 30
0.0
 11
-144.3036504172802
 21
-298.5722987034589
 31
0.0
  0
LINE
  5
10A
102
{ACAD_REACTORS
330
1F2
330
1F3
102
}
330
52
100
AcDbEntity
  8
0
  6
Continuous
 62
     2
100
AcDbLine
 10
-144.4229296874971
 20
-298.5722987034589
 30
0.0
 11
-145.66343409775
 21
-298.5722987034589
 31
0.0
  0
LINE
  5
10B
102
{ACAD_REACTORS
330
1F4
330
1F5
102
}
330
52
100
AcDbEntity
  8
0
  6
Continuous
 62
     2
100
AcDbLine
 10
-146.5314137059051
 20
-300.7099653701088
 30
0.0
 11
-146.8315789430953
 21
-299.9421504041221
 31
0.0
  0
LINE
  5
10C
102
{ACAD_REACTORS
330
1F4
330
1F5
102
}
330
52
100
AcDbEntity
  8
0
  6
Continuous
 62
     2
100
AcDbLine
 10
-147.1317441802876
 20
-300.7099653701088
 30
0.0
 11
-146.5314137059051
 21
-300.7099653701088
 31
0.0
  0
LINE
  5
10D
102
{ACAD_REACTORS
330
1F4
330
1F5
102
}
330
52
100
AcDbEntity
  8
0
  6
Continuous
 62
     2
100
AcDbLine
 10
-148.8497841951614
 20
-301.9314891796332
 30
0.0
 11
-147.6092797849085
 21
-301.9314891796332
 31
0.0
  0
LINE
  5
10E
102
{ACAD_REACTORS
330
1F4
330
1F5
102
}
330
52
100
AcDbEntity
  8
0
  6
Continuous
 62
     2
100
AcDbLine
 10
-147.4518311482222
 20
-298.8776796558221
 30
0.0
 11
-146.2113267379694
 21
-298.8776796558221
 31
0.0
  0
LINE
  5
10F
102
{ACAD_REACTORS
330
1F4
330
1F5
102
}
330
52
100
AcDbEntity
  8
0
  6
Continuous
 62
     2
100
AcDbLine
 10
-146.2113267379694
 20
-298.8776796558221
 30
0.0
 11
-144.8133736910291
 21
-301.9314891796332
 31
0.0
  0
LINE
  5
110
102
{ACAD_REACTORS
330
1F4
330
1F5
102
}
330
52
100
AcDbEntity
  8
0
  6
Continuous
 62
     2
100
AcDbLine
 10
-146.053878101283
 20
-301.9314891796332
 30
0.0
 11
-146.2653581547588
 21
-301.3905286354154
 31
0.0
  0
LINE
  5
111
102
{ACAD_REACTORS
330
1F6
330
1F7
102
}
330
52
100
AcDbEntity
  8
0
  6
Continuous
 62
     2
100
AcDbLine
 10
-150.196197296869
 20
-301.9314891796332
 30
0.0
 11
-149.0034045947026
 21
-301.9314891796332
 31
0.0
  0
LINE
  5
112
102
{ACAD_REACTORS
330
1F6
330
1F7
102
}
330
52
100
AcDbEntity
  8
0
  6
Continuous
 62
     2
100
AcDbLine
 10
-150.196197296869
 20
-299.6629449619458
 30
0.0
 11
-150.196197296869
 21
-301.9314891796332
 31
0.0
  0
LINE
  5
113
102
{ACAD_REACTORS
330
1F6
330
1F7
102
}
330
52
100
AcDbEntity
  8
0
  6
Continuous
 62
     2
100
AcDbLine
 10
-151.0072963343437
 20
-298.8776796558221
 30
0.0
 11
-151.0072963343437
 21
-299.6629449619458
 31
0.0
  0
LINE
  5
114
102
{ACAD_REACTORS
330
1F8
330
1F9
102
}
330
52
100
AcDbEntity
  8
0
  6
Continuous
 62
     2
100
AcDbLine
 10
-149.528082452771
 20
-298.5722987034589
 30
0.0
 11
-148.3352897506046
 21
-298.5722987034589
 31
0.0
  0
LINE
  5
115
102
{ACAD_REACTORS
330
1F8
330
1F9
102
}
330
52
100
AcDbEntity
  8
0
  6
Continuous
 62
     2
100
AcDbLine
 10
-147.0947853403505
 20
-296.8272646898529
 30
0.0
 11
-148.3352897506046
 21
-295.5184891796478
 31
0.0
  0
LINE
  5
116
102
{ACAD_REACTORS
330
1F8
330
1F9
102
}
330
52
100
AcDbEntity
  8
0
  6
Continuous
 62
     2
100
AcDbLine
 10
-145.9019926381839
 20
-295.5184891796478
 30
0.0
 11
-147.0947853403505
 21
-295.5184891796478
 31
0.0
  0
LINE
  5
117
102
{ACAD_REACTORS
330
1F8
330
1F9
102
}
330
52
100
AcDbEntity
  8
0
  6
Continuous
 62
     2
100
AcDbLine
 10
-145.9019926381839
 20
-298.5722987034589
 30
0.0
 11
-145.9019926381839
 21
-295.5184891796478
 31
0.0
  0
LINE
  5
118
102
{ACAD_REACTORS
330
1F8
330
1F9
102
}
330
52
100
AcDbEntity
  8
0
  6
Continuous
 62
     2
100
AcDbLine
 10
-147.0947853403505
 20
-298.5722987034589
 30
0.0
 11
-145.9019926381839
 21
-298.5722987034589
 31
0.0
  0
LINE
  5
119
102
{ACAD_REACTORS
330
1F8
330
1F9
102
}
330
52
100
AcDbEntity
  8
0
  6
Continuous
 62
     2
100
AcDbLine
 10
-148.3352897506046
 20
-297.2635231932542
 30
0.0
 11
-147.0947853403505
 21
-298.5722987034589
 31
0.0
  0
LINE
  5
11A
102
{ACAD_REACTORS
330
1FA
330
1FB
102
}
330
52
100
AcDbEntity
  8
0
  6
Continuous
 62
     2
100
AcDbLine
 10
-152.3432241607702
 20
-300.1864551660273
 30
0.0
 11
-153.5837285710232
 21
-298.8776796558221
 31
0.0
  0
LINE
  5
11B
102
{ACAD_REACTORS
330
1FA
330
1FB
102
}
330
52
100
AcDbEntity
  8
0
  6
Continuous
 62
     2
100
AcDbLine
 10
-152.3432241607702
 20
-298.8776796558221
 30
0.0
 11
-152.3432241607702
 21
-300.1864551660273
 31
0.0
  0
LINE
  5
11C
102
{ACAD_REACTORS
330
1FA
330
1FB
102
}
330
52
100
AcDbEntity
  8
0
  6
Continuous
 62
     2
100
AcDbLine
 10
-151.1504314586038
 20
-298.8776796558221
 30
0.0
 11
-152.3432241607702
 21
-298.8776796558221
 31
0.0
  0
LINE
  5
11D
102
{ACAD_REACTORS
330
1FA
330
1FB
102
}
330
52
100
AcDbEntity
  8
0
  6
Continuous
 62
     2
100
AcDbLine
 10
-151.1504314586038
 20
-301.9314891796332
 30
0.0
 11
-151.1504314586038
 21
-298.8776796558221
 31
0.0
  0
LINE
  5
11E
102
{ACAD_REACTORS
330
1FA
330
1FB
102
}
330
52
100
AcDbEntity
  8
0
  6
Continuous
 62
     2
100
AcDbLine
 10
-153.5837285710232
 20
-300.6227136694287
 30
0.0
 11
-152.3432241607702
 21
-301.9314891796332
 31
0.0
  0
LINE
  5
11F
102
{ACAD_REACTORS
330
1FA
330
1FB
102
}
330
52
100
AcDbEntity
  8
0
  6
Continuous
 62
     2
100
AcDbLine
 10
-153.5837285710232
 20
-301.9314891796332
 30
0.0
 11
-153.5837285710232
 21
-300.6227136694287
 31
0.0
  0
LINE
  5
120
102
{ACAD_REACTORS
330
1EA
330
1EB
102
}
330
52
100
AcDbEntity
  8
0
  6
Continuous
 62
     2
100
AcDbLine
 10
-151.1025688196316
 20
-296.2165027850907
 30
0.0
 11
-149.766640993204
 21
-296.2165027850907
 31
0.0
  0
LINE
  5
121
102
{ACAD_REACTORS
330
1EA
330
1EB
102
}
330
52
100
AcDbEntity
  8
0
  6
Continuous
 62
     2
100
AcDbLine
 10
-151.1025688196316
 20
-297.8742850980165
 30
0.0
 11
-151.1025688196316
 21
-297.3944007442748
 31
0.0
  0
LINE
  5
122
102
{ACAD_REACTORS
330
1EA
330
1EB
102
}
330
52
100
AcDbEntity
  8
0
  6
Continuous
 62
     2
100
AcDbLine
 10
-149.766640993204
 20
-297.8742850980165
 30
0.0
 11
-151.1025688196316
 21
-297.8742850980165
 31
0.0
  0
LINE
  5
123
102
{ACAD_REACTORS
330
1EA
330
1EB
102
}
330
52
100
AcDbEntity
  8
0
  6
Continuous
 62
     2
100
AcDbLine
 10
-149.766640993204
 20
-298.5722987034589
 30
0.0
 11
-149.766640993204
 21
-297.8742850980165
 31
0.0
  0
LINE
  5
124
102
{ACAD_REACTORS
330
1EA
330
1EB
102
}
330
52
100
AcDbEntity
  8
0
  6
Continuous
 62
     2
100
AcDbLine
 10
-152.9169607169849
 20
-298.5722987034589
 30
0.0
 11
-149.766640993204
 21
-298.5722987034589
 31
0.0
  0
LINE
  5
125
102
{ACAD_REACTORS
330
1EA
330
1EB
102
}
330
52
100
AcDbEntity
  8
0
  6
Continuous
 62
     2
100
AcDbLine
 10
-152.9169607169849
 20
-295.5184891796478
 30
0.0
 11
-149.766640993204
 21
-295.5184891796478
 31
0.0
  0
LINE
  5
126
102
{ACAD_REACTORS
330
1EA
330
1EB
102
}
330
52
100
AcDbEntity
  8
0
  6
Continuous
 62
     2
100
AcDbLine
 10
-149.766640993204
 20
-296.2165027850907
 30
0.0
 11
-149.766640993204
 21
-295.5184891796478
 31
0.0
  0
LINE
  5
127
102
{ACAD_REACTORS
330
1FC
330
1FD
102
}
330
52
100
AcDbEntity
  8
0
  6
Continuous
 62
     2
100
AcDbLine
 10
-155.778316212125
 20
-296.5873225129824
 30
0.0
 11
-155.778316212125
 21
-295.5184891796478
 31
0.0
  0
LINE
  5
128
102
{ACAD_REACTORS
330
1FC
330
1FD
102
}
330
52
100
AcDbEntity
  8
0
  6
Continuous
 62
     2
100
AcDbLine
 10
-155.778316212125
 20
-295.5184891796478
 30
0.0
 11
-154.5855235099585
 21
-295.5184891796478
 31
0.0
  0
LINE
  5
129
102
{ACAD_REACTORS
330
1FC
330
1FD
102
}
330
52
100
AcDbEntity
  8
0
  6
Continuous
 62
     2
100
AcDbLine
 10
-155.778316212125
 20
-297.4380265946152
 30
0.0
 11
-156.8279737900324
 21
-297.4380265946152
 31
0.0
  0
LINE
  5
12A
102
{ACAD_REACTORS
330
1FC
330
1FD
102
}
330
52
100
AcDbEntity
  8
0
  6
Continuous
 62
     2
100
AcDbLine
 10
-156.8279737900324
 20
-297.4380265946152
 30
0.0
 11
-156.8279737900324
 21
-298.5722987034589
 31
0.0
  0
LINE
  5
12B
102
{ACAD_REACTORS
330
1FC
330
1FD
102
}
330
52
100
AcDbEntity
  8
0
  6
Continuous
 62
     2
100
AcDbLine
 10
-158.020766492199
 20
-295.5184891796478
 30
0.0
 11
-158.020766492199
 21
-298.5722987034589
 31
0.0
  0
LINE
  5
12C
102
{ACAD_REACTORS
330
1EE
330
1EF
102
}
330
52
100
AcDbEntity
  8
0
  6
Continuous
 62
     2
100
AcDbLine
 10
-159.9769465237527
 20
-296.8873226744301
 30
0.0
 11
-159.9769465237527
 21
-296.1815950250878
 31
0.0
  0
LINE
  5
12D
102
{ACAD_REACTORS
330
1EE
330
1EF
102
}
330
52
100
AcDbEntity
  8
0
  6
Continuous
 62
     2
100
AcDbLine
 10
-161.2174509340067
 20
-298.5722987034589
 30
0.0
 11
-159.9769465237527
 21
-298.5722987034589
 31
0.0
  0
LINE
  5
12E
102
{ACAD_REACTORS
330
1EE
330
1EF
102
}
330
52
100
AcDbEntity
  8
0
  6
Continuous
 62
     2
100
AcDbLine
 10
-159.9769465237527
 20
-298.5722987034589
 30
0.0
 11
-159.9769465237527
 21
-297.6292204623152
 31
0.0
  0
LINE
  5
12F
102
{ACAD_REACTORS
330
1E8
330
1E9
102
}
330
52
100
AcDbEntity
  8
0
  6
Continuous
 62
     2
100
AcDbLine
 10
-165.5223967832182
 20
-301.2189336240763
 30
0.0
 11
-166.9982300442278
 21
-301.2189336240763
 31
0.0
  0
LINE
  5
130
102
{ACAD_REACTORS
330
1E8
330
1E9
102
}
330
52
100
AcDbEntity
  8
0
  6
Continuous
 62
     2
100
AcDbLine
 10
-168.0163693363571
 20
-295.9427337950498
 30
0.0
 11
-168.0163693363571
 21
-301.50724456425
 31
0.0
  0
LINE
  5
131
102
{ACAD_REACTORS
330
1E8
330
1E9
102
}
330
52
100
AcDbEntity
  8
0
  6
Continuous
 62
     2
100
AcDbLine
 10
-167.5921247209743
 20
-295.5184891796659
 30
0.0
 11
-162.1188126302574
 21
-295.5184891796659
 31
0.0
  0
LINE
  5
132
102
{ACAD_REACTORS
330
1E8
330
1E9
102
}
330
52
100
AcDbEntity
  8
0
  6
Continuous
 62
     2
100
AcDbLine
 10
-161.6945680148735
 20
-295.9427337950498
 30
0.0
 11
-161.6945680148735
 21
-301.50724456425
 31
0.0
  0
LINE
  5
133
102
{ACAD_REACTORS
330
1E8
330
1E9
102
}
330
52
100
AcDbEntity
  8
0
  6
Continuous
 62
     2
100
AcDbLine
 10
-162.1188126302574
 20
-301.9314891796332
 30
0.0
 11
-167.5921247209743
 21
-301.9314891796332
 31
0.0
  0
LINE
  5
134
102
{ACAD_REACTORS
330
1E8
330
1E9
102
}
330
52
100
AcDbEntity
  8
0
  6
Continuous
 62
     2
100
AcDbLine
 10
-165.2066798601416
 20
-300.9032167009996
 30
0.0
 11
-165.2066798601416
 21
-299.372445769468
 31
0.0
  0
LINE
  5
135
102
{ACAD_REACTORS
330
1E8
330
1E9
102
}
330
52
100
AcDbEntity
  8
0
  6
Continuous
 62
     2
100
AcDbLine
 10
-165.2066798601416
 20
-297.1507862773431
 30
0.0
 11
-165.2066798601416
 21
-296.5467616582825
 31
0.0
  0
LINE
  5
136
102
{ACAD_REACTORS
330
1E8
330
1E9
102
}
330
52
100
AcDbEntity
  8
0
  6
Continuous
 62
     2
100
AcDbLine
 10
-166.9982300442278
 20
-296.2310447352064
 30
0.0
 11
-165.5223967832182
 21
-296.2310447352064
 31
0.0
  0
LINE
  5
137
102
{ACAD_REACTORS
330
1E8
330
1E9
102
}
330
52
100
AcDbEntity
  8
0
  6
Continuous
 62
     2
100
AcDbLine
 10
-167.3139469673034
 20
-296.5467616582825
 30
0.0
 11
-167.3139469673034
 21
-300.9032167009996
 31
0.0
  0
LINE
  5
138
102
{ACAD_REACTORS
330
1EE
330
1EF
102
}
330
52
100
AcDbEntity
  8
0
  6
Continuous
 62
     2
100
AcDbLine
 10
-159.9769465237527
 20
-297.6292204623152
 30
0.0
 11
-159.2181789359723
 21
-297.6292204623152
 31
0.0
  0
LINE
  5
139
102
{ACAD_REACTORS
330
1EE
330
1EF
102
}
330
52
100
AcDbEntity
  8
0
  6
Continuous
 62
     2
100
AcDbLine
 10
-161.2174509340067
 20
-295.5184891796478
 30
0.0
 11
-159.2181789359723
 21
-295.5184891796478
 31
0.0
  0
LINE
  5
13A
102
{ACAD_REACTORS
330
1EE
330
1EF
102
}
330
52
100
AcDbEntity
  8
0
  6
Continuous
 62
     2
100
AcDbLine
 10
-161.2174509340067
 20
-295.5184891796478
 30
0.0
 11
-161.2174509340067
 21
-298.5722987034589
 31
0.0
  0
LINE
  5
13B
102
{ACAD_REACTORS
330
1EE
330
1EF
102
}
330
52
100
AcDbEntity
  8
0
  6
Continuous
 62
     2
100
AcDbLine
 10
-159.9769465237527
 20
-296.8873226744301
 30
0.0
 11
-159.6596514622107
 21
-296.8873226744301
 31
0.0
  0
LINE
  5
13C
102
{ACAD_REACTORS
330
1EE
330
1EF
102
}
330
52
100
AcDbEntity
  8
0
  6
Continuous
 62
     2
100
AcDbLine
 10
-159.9769465237527
 20
-296.1815950250878
 30
0.0
 11
-159.6596514622107
 21
-296.1815950250878
 31
0.0
  0
LINE
  5
13D
102
{ACAD_REACTORS
330
1FC
330
1FD
102
}
330
52
100
AcDbEntity
  8
0
  6
Continuous
 62
     2
100
AcDbLine
 10
-156.8279737900324
 20
-296.5873225129824
 30
0.0
 11
-155.778316212125
 21
-296.5873225129824
 31
0.0
  0
LINE
  5
13E
102
{ACAD_REACTORS
330
1FC
330
1FD
102
}
330
52
100
AcDbEntity
  8
0
  6
Continuous
 62
     2
100
AcDbLine
 10
-156.8279737900324
 20
-295.5184891796478
 30
0.0
 11
-156.8279737900324
 21
-296.5873225129824
 31
0.0
  0
LINE
  5
13F
102
{ACAD_REACTORS
330
1FC
330
1FD
102
}
330
52
100
AcDbEntity
  8
0
  6
Continuous
 62
     2
100
AcDbLine
 10
-158.020766492199
 20
-295.5184891796478
 30
0.0
 11
-156.8279737900324
 21
-295.5184891796478
 31
0.0
  0
LINE
  5
140
102
{ACAD_REACTORS
330
1FC
330
1FD
102
}
330
52
100
AcDbEntity
  8
0
  6
Continuous
 62
     2
100
AcDbLine
 10
-156.8279737900324
 20
-298.5722987034589
 30
0.0
 11
-158.020766492199
 21
-298.5722987034589
 31
0.0
  0
LINE
  5
141
102
{ACAD_REACTORS
330
1FC
330
1FD
102
}
330
52
100
AcDbEntity
  8
0
  6
Continuous
 62
     2
100
AcDbLine
 10
-155.778316212125
 20
-298.5722987034589
 30
0.0
 11
-155.778316212125
 21
-297.4380265946152
 31
0.0
  0
LINE
  5
142
102
{ACAD_REACTORS
330
1FC
330
1FD
102
}
330
52
100
AcDbEntity
  8
0
  6
Continuous
 62
     2
100
AcDbLine
 10
-154.5855235099585
 20
-298.5722987034589
 30
0.0
 11
-155.778316212125
 21
-298.5722987034589
 31
0.0
  0
LINE
  5
143
102
{ACAD_REACTORS
330
1FC
330
1FD
102
}
330
52
100
AcDbEntity
  8
0
  6
Continuous
 62
     2
100
AcDbLine
 10
-154.5855235099585
 20
-295.5184891796478
 30
0.0
 11
-154.5855235099585
 21
-298.5722987034589
 31
0.0
  0
LINE
  5
144
102
{ACAD_REACTORS
330
1EA
330
1EB
102
}
330
52
100
AcDbEntity
  8
0
  6
Continuous
 62
     2
100
AcDbLine
 10
-151.1025688196316
 20
-297.3944007442748
 30
0.0
 11
-149.766640993204
 21
-297.3944007442748
 31
0.0
  0
LINE
  5
145
102
{ACAD_REACTORS
330
1EA
330
1EB
102
}
330
52
100
AcDbEntity
  8
0
  6
Continuous
 62
     2
100
AcDbLine
 10
-149.766640993204
 20
-297.3944007442748
 30
0.0
 11
-149.766640993204
 21
-296.6963871388324
 31
0.0
  0
LINE
  5
146
102
{ACAD_REACTORS
330
1EA
330
1EB
102
}
330
52
100
AcDbEntity
  8
0
  6
Continuous
 62
     2
100
AcDbLine
 10
-149.766640993204
 20
-296.6963871388324
 30
0.0
 11
-151.1025688196316
 21
-296.6963871388324
 31
0.0
  0
LINE
  5
147
102
{ACAD_REACTORS
330
1EA
330
1EB
102
}
330
52
100
AcDbEntity
  8
0
  6
Continuous
 62
     2
100
AcDbLine
 10
-151.1025688196316
 20
-296.6963871388324
 30
0.0
 11
-151.1025688196316
 21
-296.2165027850907
 31
0.0
  0
LINE
  5
148
102
{ACAD_REACTORS
330
1FA
330
1FB
102
}
330
52
100
AcDbEntity
  8
0
  6
Continuous
 62
     2
100
AcDbLine
 10
-154.7765212731907
 20
-301.9314891796332
 30
0.0
 11
-153.5837285710232
 21
-301.9314891796332
 31
0.0
  0
LINE
  5
149
102
{ACAD_REACTORS
330
1FA
330
1FB
102
}
330
52
100
AcDbEntity
  8
0
  6
Continuous
 62
     2
100
AcDbLine
 10
-152.3432241607702
 20
-301.9314891796332
 30
0.0
 11
-151.1504314586038
 21
-301.9314891796332
 31
0.0
  0
LINE
  5
14A
102
{ACAD_REACTORS
330
1FA
330
1FB
102
}
330
52
100
AcDbEntity
  8
0
  6
Continuous
 62
     2
100
AcDbLine
 10
-153.5837285710232
 20
-298.8776796558221
 30
0.0
 11
-154.7765212731907
 21
-298.8776796558221
 31
0.0
  0
LINE
  5
14B
102
{ACAD_REACTORS
330
1FA
330
1FB
102
}
330
52
100
AcDbEntity
  8
0
  6
Continuous
 62
     2
100
AcDbLine
 10
-154.7765212731907
 20
-298.8776796558221
 30
0.0
 11
-154.7765212731907
 21
-301.9314891796332
 31
0.0
  0
LINE
  5
14C
102
{ACAD_REACTORS
330
1F8
330
1F9
102
}
330
52
100
AcDbEntity
  8
0
  6
Continuous
 62
     2
100
AcDbLine
 10
-147.0947853403505
 20
-295.5184891796478
 30
0.0
 11
-147.0947853403505
 21
-296.8272646898529
 31
0.0
  0
LINE
  5
14D
102
{ACAD_REACTORS
330
1F8
330
1F9
102
}
330
52
100
AcDbEntity
  8
0
  6
Continuous
 62
     2
100
AcDbLine
 10
-148.3352897506046
 20
-295.5184891796478
 30
0.0
 11
-149.528082452771
 21
-295.5184891796478
 31
0.0
  0
LINE
  5
14E
102
{ACAD_REACTORS
330
1F8
330
1F9
102
}
330
52
100
AcDbEntity
  8
0
  6
Continuous
 62
     2
100
AcDbLine
 10
-149.528082452771
 20
-295.5184891796478
 30
0.0
 11
-149.528082452771
 21
-298.5722987034589
 31
0.0
  0
LINE
  5
14F
102
{ACAD_REACTORS
330
1F8
330
1F9
102
}
330
52
100
AcDbEntity
  8
0
  6
Continuous
 62
     2
100
AcDbLine
 10
-148.3352897506046
 20
-298.5722987034589
 30
0.0
 11
-148.3352897506046
 21
-297.2635231932542
 31
0.0
  0
LINE
  5
150
102
{ACAD_REACTORS
330
1F6
330
1F7
102
}
330
52
100
AcDbEntity
  8
0
  6
Continuous
 62
     2
100
AcDbLine
 10
-149.0034045947026
 20
-301.9314891796332
 30
0.0
 11
-149.0034045947026
 21
-299.6629449619458
 31
0.0
  0
LINE
  5
151
102
{ACAD_REACTORS
330
1F6
330
1F7
102
}
330
52
100
AcDbEntity
  8
0
  6
Continuous
 62
     2
100
AcDbLine
 10
-149.0034045947026
 20
-299.6629449619458
 30
0.0
 11
-148.19230555723
 21
-299.6629449619458
 31
0.0
  0
LINE
  5
152
102
{ACAD_REACTORS
330
1F6
330
1F7
102
}
330
52
100
AcDbEntity
  8
0
  6
Continuous
 62
     2
100
AcDbLine
 10
-148.19230555723
 20
-299.6629449619458
 30
0.0
 11
-148.19230555723
 21
-298.8776796558221
 31
0.0
  0
LINE
  5
153
102
{ACAD_REACTORS
330
1F6
330
1F7
102
}
330
52
100
AcDbEntity
  8
0
  6
Continuous
 62
     2
100
AcDbLine
 10
-148.19230555723
 20
-298.8776796558221
 30
0.0
 11
-151.0072963343437
 21
-298.8776796558221
 31
0.0
  0
LINE
  5
154
102
{ACAD_REACTORS
330
1F6
330
1F7
102
}
330
52
100
AcDbEntity
  8
0
  6
Continuous
 62
     2
100
AcDbLine
 10
-151.0072963343437
 20
-299.6629449619458
 30
0.0
 11
-150.196197296869
 21
-299.6629449619458
 31
0.0
  0
LINE
  5
155
102
{ACAD_REACTORS
330
1F4
330
1F5
102
}
330
52
100
AcDbEntity
  8
0
  6
Continuous
 62
     2
100
AcDbLine
 10
-147.3977997314327
 20
-301.3905286354154
 30
0.0
 11
-146.2653581547588
 21
-301.3905286354154
 31
0.0
  0
LINE
  5
156
102
{ACAD_REACTORS
330
1F4
330
1F5
102
}
330
52
100
AcDbEntity
  8
0
  6
Continuous
 62
     2
100
AcDbLine
 10
-144.8133736910291
 20
-301.9314891796332
 30
0.0
 11
-146.053878101283
 21
-301.9314891796332
 31
0.0
  0
LINE
  5
157
102
{ACAD_REACTORS
330
1F4
330
1F5
102
}
330
52
100
AcDbEntity
  8
0
  6
Continuous
 62
     2
100
AcDbLine
 10
-147.4518311482222
 20
-298.8776796558221
 30
0.0
 11
-148.8497841951614
 21
-301.9314891796332
 31
0.0
  0
LINE
  5
158
102
{ACAD_REACTORS
330
1F4
330
1F5
102
}
330
52
100
AcDbEntity
  8
0
  6
Continuous
 62
     2
100
AcDbLine
 10
-147.6092797849085
 20
-301.9314891796332
 30
0.0
 11
-147.3977997314327
 21
-301.3905286354154
 31
0.0
  0
LINE
  5
159
102
{ACAD_REACTORS
330
1F4
330
1F5
102
}
330
52
100
AcDbEntity
  8
0
  6
Continuous
 62
     2
100
AcDbLine
 10
-147.1317441802876
 20
-300.7099653701088
 30
0.0
 11
-146.8315789430953
 21
-299.9421504041221
 31
0.0
  0
LINE
  5
15A
102
{ACAD_REACTORS
330
1F2
330
1F3
102
}
330
52
100
AcDbEntity
  8
0
  6
Continuous
 62
     2
100
AcDbLine
 10
-145.66343409775
 20
-298.5722987034589
 30
0.0
 11
-145.66343409775
 21
-295.5184891796478
 31
0.0
  0
LINE
  5
15B
102
{ACAD_REACTORS
330
1F2
330
1F3
102
}
330
52
100
AcDbEntity
  8
0
  6
Continuous
 62
     2
100
AcDbLine
 10
-144.4229296874971
 20
-295.5184891796478
 30
0.0
 11
-144.4229296874971
 21
-298.5722987034589
 31
0.0
  0
LINE
  5
15C
102
{ACAD_REACTORS
330
1F2
330
1F3
102
}
330
52
100
AcDbEntity
  8
0
  6
Continuous
 62
     2
100
AcDbLine
 10
-145.66343409775
 20
-295.5184891796478
 30
0.0
 11
-144.4229296874971
 21
-295.5184891796478
 31
0.0
  0
LINE
  5
15D
102
{ACAD_REACTORS
330
1F0
330
1F1
102
}
330
52
100
AcDbEntity
  8
0
  6
Continuous
 62
     2
100
AcDbLine
 10
-142.2043352614663
 20
-297.7845669181652
 30
0.0
 11
-141.5077443234009
 21
-298.5722987034589
 31
0.0
  0
LINE
  5
15E
102
{ACAD_REACTORS
330
1F0
330
1F1
102
}
330
52
100
AcDbEntity
  8
0
  6
Continuous
 62
     2
100
AcDbLine
 10
-141.5077443234009
 20
-298.5722987034589
 30
0.0
 11
-140.1050201056526
 21
-298.5722987034589
 31
0.0
  0
LINE
  5
15F
102
{ACAD_REACTORS
330
1F0
330
1F1
102
}
330
52
100
AcDbEntity
  8
0
  6
Continuous
 62
     2
100
AcDbLine
 10
-141.5029731525929
 20
-296.991439709684
 30
0.0
 11
-140.1050201056526
 21
-298.5722987034589
 31
0.0
  0
LINE
  5
160
102
{ACAD_REACTORS
330
1F0
330
1F1
102
}
330
52
100
AcDbEntity
  8
0
  6
Continuous
 62
     2
100
AcDbLine
 10
-141.5029731525929
 20
-296.991439709684
 30
0.0
 11
-140.2004435218263
 21
-295.5184891796478
 31
0.0
  0
LINE
  5
161
102
{ACAD_REACTORS
330
1F0
330
1F1
102
}
330
52
100
AcDbEntity
  8
0
  6
Continuous
 62
     2
100
AcDbLine
 10
-142.2043352614663
 20
-296.1983125012033
 30
0.0
 11
-141.6031677395735
 21
-295.5184891796478
 31
0.0
  0
LINE
  5
162
102
{ACAD_REACTORS
330
1F0
330
1F1
102
}
330
52
100
AcDbEntity
  8
0
  6
Continuous
 62
     2
100
AcDbLine
 10
-142.8055027833582
 20
-295.5184891796478
 30
0.0
 11
-142.2043352614663
 21
-296.1983125012033
 31
0.0
  0
LINE
  5
163
102
{ACAD_REACTORS
330
1F0
330
1F1
102
}
330
52
100
AcDbEntity
  8
0
  6
Continuous
 62
     2
100
AcDbLine
 10
-142.8055027833582
 20
-295.5184891796478
 30
0.0
 11
-144.2082270011074
 21
-295.5184891796478
 31
0.0
  0
LINE
  5
164
102
{ACAD_REACTORS
330
1E6
330
1E7
102
}
330
52
100
AcDbEntity
  8
0
  6
Continuous
 62
     2
100
AcDbLine
 10
-142.1089118452937
 20
-301.9314891796332
 30
0.0
 11
-140.916119143126
 21
-301.9314891796332
 31
0.0
  0
LINE
  5
165
102
{ACAD_REACTORS
330
1E6
330
1E7
102
}
330
52
100
AcDbEntity
  8
0
  6
Continuous
 62
     2
100
AcDbLine
 10
-140.916119143126
 20
-301.9314891796332
 30
0.0
 11
-140.916119143126
 21
-299.6629449619458
 31
0.0
  0
LINE
  5
166
102
{ACAD_REACTORS
330
1E6
330
1E7
102
}
330
52
100
AcDbEntity
  8
0
  6
Continuous
 62
     2
100
AcDbLine
 10
-140.916119143126
 20
-299.6629449619458
 30
0.0
 11
-140.1050201056526
 21
-299.6629449619458
 31
0.0
  0
LINE
  5
167
102
{ACAD_REACTORS
330
1E6
330
1E7
102
}
330
52
100
AcDbEntity
  8
0
  6
Continuous
 62
     2
100
AcDbLine
 10
-140.1050201056526
 20
-299.6629449619458
 30
0.0
 11
-140.1050201056526
 21
-298.8776796558221
 31
0.0
  0
LINE
  5
168
102
{ACAD_REACTORS
330
1E6
330
1E7
102
}
330
52
100
AcDbEntity
  8
0
  6
Continuous
 62
     2
100
AcDbLine
 10
-143.4899656242812
 20
-298.8776796558227
 30
0.0
 11
-140.1050201056526
 21
-298.8776796558221
 31
0.0
  0
LINE
  5
169
102
{ACAD_REACTORS
330
1E6
330
1E7
102
}
330
52
100
AcDbEntity
  8
0
  6
Continuous
 62
     2
100
AcDbLine
 10
-142.1089118452937
 20
-299.6629449619458
 30
0.0
 11
-142.1089118452937
 21
-301.9314891796332
 31
0.0
  0
LINE
  5
16A
102
{ACAD_REACTORS
330
1E8
330
1E9
102
}
330
52
100
AcDbEntity
  8
0
  6
Continuous
 62
     2
100
AcDbLine
 10
-164.7383982807728
 20
-299.9526090300687
 30
0.0
 11
-164.7383982807728
 21
-299.3707576233736
 31
0.0
  0
LINE
  5
16B
102
{ACAD_REACTORS
330
1E8
330
1E9
102
}
330
52
100
AcDbEntity
  8
0
  6
Continuous
 62
     2
100
AcDbLine
 10
-164.7383982807728
 20
-297.1524744234375
 30
0.0
 11
-164.7383982807728
 21
-296.5469391349307
 31
0.0
  0
LINE
  5
16C
330
52
100
AcDbEntity
  8
1
  6
Continuous
 62
     6
100
AcDbLine
 10
-86.20821969616969
 20
-309.2249891796495
 30
0.0
 11
-42.70821969616975
 21
-309.2249891796495
 31
0.0
  0
LINE
  5
16D
330
52
100
AcDbEntity
  8
1
  6
Continuous
 62
     6
100
AcDbLine
 10
-136.2082196961697
 20
-309.2249891796495
 30
0.0
 11
-154.0530242229197
 21
-309.2249891796495
 31
0.0
  0
LINE
  5
16E
330
52
100
AcDbEntity
  8
1
  6
Continuous
 62
     6
100
AcDbLine
 10
-172.2530242229196
 20
-292.2249891796496
 30
0.0
 11
-135.8530242229197
 21
-292.2249891796496
 31
0.0
  0
LINE
  5
16F
330
52
100
AcDbEntity
  8
1
  6
Continuous
 62
     6
100
AcDbLine
 10
-42.70821969616975
 20
-309.2249891796495
 30
0.0
 11
-42.7082196961684
 21
-300.7249891796496
 31
0.0
  0
LINE
  5
170
330
52
100
AcDbEntity
  8
1
  6
Continuous
 62
     6
100
AcDbLine
 10
-135.8530242229197
 20
-309.2249891796496
 30
0.0
 11
-86.20821969616969
 21
-309.2249891796495
 31
0.0
  0
LINE
  5
171
330
52
100
AcDbEntity
  8
1
  6
Continuous
 62
     7
100
AcDbLine
 10
-172.2530242229196
 20
-292.2249891796496
 30
0.0
 11
-172.2530242229196
 21
-304.9749891796496
 31
0.0
  0
LINE
  5
172
330
52
100
AcDbEntity
  8
1
  6
Continuous
 62
     7
100
AcDbLine
 10
-135.8530242229197
 20
-292.2249891796496
 30
0.0
 11
-135.8530242229197
 21
-304.9749891796495
 31
0.0
  0
LINE
  5
173
330
52
100
AcDbEntity
  8
1
  6
Continuous
 62
     6
100
AcDbLine
 10
-135.8530242229197
 20
-309.2249891796496
 30
0.0
 11
-136.2082196961697
 21
-309.2249891796495
 31
0.0
  0
LINE
  5
174
330
52
100
AcDbEntity
  8
1
  6
Continuous
 62
     6
100
AcDbLine
 10
-42.7082196961679
 20
-292.2249891796496
 30
0.0
 11
-42.7082196961684
 21
-300.7249891796496
 31
0.0
  0
LINE
  5
175
330
52
100
AcDbEntity
  8
1
  6
Continuous
 62
     2
100
AcDbLine
 10
-168.0163693363571
 20
-286.8499891796497
 30
0.0
 11
-163.0163693363571
 21
-285.5999891796497
 31
0.0
  0
LINE
  5
176
330
52
100
AcDbEntity
  8
1
  6
Continuous
 62
     2
100
AcDbLine
 10
-168.0163693363571
 20
-289.3499891796497
 30
0.0
 11
-168.0163693363571
 21
-286.8499891796497
 31
0.0
  0
LINE
  5
177
330
52
100
AcDbEntity
  8
1
  6
Continuous
 62
     2
100
AcDbLine
 10
-163.0163693363571
 20
-290.5999891796497
 30
0.0
 11
-168.0163693363571
 21
-289.3499891796497
 31
0.0
  0
LINE
  5
178
330
52
100
AcDbEntity
  8
1
  6
Continuous
 62
     2
100
AcDbLine
 10
-163.0163693363571
 20
-285.5999891796497
 30
0.0
 11
-163.0163693363571
 21
-290.5999891796497
 31
0.0
  0
LINE
  5
179
330
52
100
AcDbEntity
  8
1
  6
Continuous
 62
     7
100
AcDbLine
 10
-172.2530242229196
 20
-304.9749891796496
 30
0.0
 11
-154.0530242229197
 21
-304.9749891796495
 31
0.0
  0
LINE
  5
17A
330
52
100
AcDbEntity
  8
1
  6
Continuous
 62
     7
100
AcDbLine
 10
-172.2530242229196
 20
-304.9749891796496
 30
0.0
 11
-172.2530242229196
 21
-309.2249891796496
 31
0.0
  0
LINE
  5
17B
330
52
100
AcDbEntity
  8
1
  6
Continuous
 62
     7
100
AcDbLine
 10
-135.8530242229197
 20
-304.9749891796495
 30
0.0
 11
-135.8530242229197
 21
-309.2249891796496
 31
0.0
  0
LINE
  5
17C
330
52
100
AcDbEntity
  8
1
  6
Continuous
 62
     7
100
AcDbLine
 10
-154.0530242229197
 20
-304.9749891796495
 30
0.0
 11
-154.0530242229197
 21
-309.2249891796495
 31
0.0
  0
LINE
  5
17D
330
52
100
AcDbEntity
  8
1
  6
Continuous
 62
     6
100
AcDbLine
 10
-154.0530242229197
 20
-309.2249891796495
 30
0.0
 11
-172.2530242229196
 21
-309.2249891796496
 31
0.0
  0
LINE
  5
17E
330
52
100
AcDbEntity
  8
1
  6
Continuous
 62
     7
100
AcDbLine
 10
-154.0530242229197
 20
-304.9749891796495
 30
0.0
 11
-135.8530242229197
 21
-304.9749891796495
 31
0.0
  0
LINE
  5
17F
330
52
100
AcDbEntity
  8
1
  6
Continuous
 62
     6
100
AcDbLine
 10
-172.2530242229196
 20
-283.7249891796496
 30
0.0
 11
-42.7082196961679
 21
-283.7249891796496
 31
0.0
  0
LINE
  5
180
330
52
100
AcDbEntity
  8
1
  6
PHANTOM
 62
     2
100
AcDbLine
 10
-156.7663693363571
 20
-288.0999891796497
 30
0.0
 11
-162.2663693363571
 21
-288.0999891796497
 31
0.0
  0
LINE
  5
181
330
52
100
AcDbEntity
  8
1
  6
PHANTOM
 62
     2
100
AcDbLine
 10
-159.5163693363571
 20
-285.3499891796496
 30
0.0
 11
-159.5163693363571
 21
-290.8499891796496
 31
0.0
  0
LINE
  5
182
330
52
100
AcDbEntity
  8
1
  6
DOT_CENTER
 62
     2
100
AcDbLine
 10
-168.2663693363571
 20
-288.0999891796497
 30
0.0
 11
-162.7663693363571
 21
-288.0999891796497
 31
0.0
  0
ARC
  5
183
102
{ACAD_REACTORS
330
1EC
330
1ED
102
}
330
52
100
AcDbEntity
  8
0
  6
Continuous
 62
     2
100
AcDbCircle
 10
-156.8613762239596
 20
-300.404584417728
 30
0.0
 40
0.7717997786795351
100
AcDbArc
 50
321.8795802028432
 51
38.1204197971668
  0
ARC
  5
184
102
{ACAD_REACTORS
330
1EC
330
1ED
102
}
330
52
100
AcDbEntity
  8
0
  6
Continuous
 62
     2
100
AcDbCircle
 10
-156.6616361876132
 20
-300.5613155958479
 30
0.0
 40
0.5179085730138424
100
AcDbArc
 50
218.1204197971879
 51
321.8795802027908
  0
ARC
  5
185
102
{ACAD_REACTORS
330
1EC
330
1ED
102
}
330
52
100
AcDbEntity
  8
0
  6
Continuous
 62
     2
100
AcDbCircle
 10
-156.4618961512672
 20
-300.404584417728
 30
0.0
 40
0.771799778679551
100
AcDbArc
 50
141.879580202828
 51
218.120419797162
  0
ARC
  5
186
102
{ACAD_REACTORS
330
1EC
330
1ED
102
}
330
52
100
AcDbEntity
  8
0
  6
Continuous
 62
     2
100
AcDbCircle
 10
-156.6616361876132
 20
-300.2478532396075
 30
0.0
 40
0.5179085730132806
100
AcDbArc
 50
38.12041979716469
 51
141.8795802028567
  0
ARC
  5
187
102
{ACAD_REACTORS
330
1E4
330
1E5
102
}
330
52
100
AcDbEntity
  8
0
  6
Continuous
 62
     2
100
AcDbCircle
 10
-159.7236503231772
 20
-301.8150507831361
 30
0.0
 40
2.227384008973465
100
AcDbArc
 50
58.06909105003707
 51
71.55192388186676
  0
ARC
  5
188
102
{ACAD_REACTORS
330
1E4
330
1E5
102
}
330
52
100
AcDbEntity
  8
0
  6
Continuous
 62
     2
100
AcDbCircle
 10
-159.4619226222184
 20
-300.1995129883889
 30
0.0
 40
0.5115800601948293
100
AcDbArc
 50
113.3722778881945
 51
151.4785267423156
  0
ARC
  5
189
102
{ACAD_REACTORS
330
1E4
330
1E5
102
}
330
52
100
AcDbEntity
  8
0
  6
Continuous
 62
     2
100
AcDbCircle
 10
-159.084565364138
 20
-300.404584417728
 30
0.0
 40
0.9410597353333294
100
AcDbArc
 50
151.4785267422693
 51
208.5214732576972
  0
ARC
  5
18A
102
{ACAD_REACTORS
330
1E4
330
1E5
102
}
330
52
100
AcDbEntity
  8
0
  6
Continuous
 62
     2
100
AcDbCircle
 10
-159.88152319827
 20
-297.0919034724715
 30
0.0
 40
4.852596863498272
100
AcDbArc
 50
275.1581447696238
 51
285.9799912583526
  0
ARC
  5
18B
102
{ACAD_REACTORS
330
1E4
330
1E5
102
}
330
52
100
AcDbEntity
  8
0
  6
Continuous
 62
     2
100
AcDbCircle
 10
-159.5926671035341
 20
-300.2917940556931
 30
0.0
 40
1.639695123939437
100
AcDbArc
 50
195.0618917770922
 51
275.1581447696363
  0
ARC
  5
18C
102
{ACAD_REACTORS
330
1E4
330
1E5
102
}
330
52
100
AcDbEntity
  8
0
  6
Continuous
 62
     2
100
AcDbCircle
 10
-160.0117949469969
 20
-300.404584417728
 30
0.0
 40
1.205656168390971
100
AcDbArc
 50
164.9381082228768
 51
195.0618917770945
  0
ARC
  5
18D
102
{ACAD_REACTORS
330
1E4
330
1E5
102
}
330
52
100
AcDbEntity
  8
0
  6
Continuous
 62
     2
100
AcDbCircle
 10
-159.5926671035341
 20
-300.5173747797628
 30
0.0
 40
1.639695123940499
100
AcDbArc
 50
84.84185523036533
 51
164.9381082228905
  0
ARC
  5
18E
102
{ACAD_REACTORS
330
1E8
330
1E9
102
}
330
52
100
AcDbEntity
  8
0
  6
Continuous
 62
     2
100
AcDbCircle
 10
-164.422681357696
 20
-299.3707576233736
 30
0.0
 40
0.3157169230765328
100
AcDbArc
 50
115.3740086783519
 51
180.0
  0
ARC
  5
18F
102
{ACAD_REACTORS
330
1E8
330
1E9
102
}
330
52
100
AcDbEntity
  8
0
  6
Continuous
 62
     2
100
AcDbCircle
 10
-164.422681357696
 20
-297.1524744234375
 30
0.0
 40
0.315716923076792
100
AcDbArc
 50
180.0
 51
244.6259913216349
  0
ARC
  5
190
102
{ACAD_REACTORS
330
1E8
330
1E9
102
}
330
52
100
AcDbEntity
  8
0
  6
Continuous
 62
     2
100
AcDbCircle
 10
-164.417065222386
 20
-298.2497740824997
 30
0.0
 40
2.018561131933266
100
AcDbArc
 50
269.8110329575827
 51
90.18896704241737
  0
ARC
  5
191
102
{ACAD_REACTORS
330
1E8
330
1E9
102
}
330
52
100
AcDbEntity
  8
0
  6
Continuous
 62
     2
100
AcDbCircle
 10
-164.422681357696
 20
-299.9526090300687
 30
0.0
 40
0.315716923076792
100
AcDbArc
 50
180.0
 51
269.8110329574335
  0
ARC
  5
192
102
{ACAD_REACTORS
330
1E6
330
1E7
102
}
330
52
100
AcDbEntity
  8
0
  6
Continuous
 62
     2
100
AcDbCircle
 10
-143.3592211429655
 20
-300.1995129883889
 30
0.0
 40
0.5115800601944048
100
AcDbArc
 50
109.3371432194823
 51
151.4785267424182
  0
ARC
  5
193
102
{ACAD_REACTORS
330
1E6
330
1E7
102
}
330
52
100
AcDbEntity
  8
0
  6
Continuous
 62
     2
100
AcDbCircle
 10
-143.3592211429655
 20
-300.6096558470665
 30
0.0
 40
0.5115800601959967
100
AcDbArc
 50
208.5214732576881
 51
246.6277221118399
  0
ARC
  5
194
102
{ACAD_REACTORS
330
1E6
330
1E7
102
}
330
52
100
AcDbEntity
  8
0
  6
Continuous
 62
     2
100
AcDbCircle
 10
-143.9090934677429
 20
-300.404584417728
 30
0.0
 40
1.205656168392975
100
AcDbArc
 50
164.9381082229024
 51
195.0618917770924
  0
ARC
  5
195
102
{ACAD_REACTORS
330
1E6
330
1E7
102
}
330
52
100
AcDbEntity
  8
0
  6
Continuous
 62
     2
100
AcDbCircle
 10
-143.4899656242812
 20
-300.5173747797628
 30
0.0
 40
1.639695123940101
100
AcDbArc
 50
90.0
 51
164.9381082228993
  0
ARC
  5
196
102
{ACAD_REACTORS
330
1EA
330
1EB
102
}
330
52
100
AcDbEntity
  8
0
  6
Continuous
 62
     2
100
AcDbCircle
 10
-152.9169607169849
 20
-297.0453939415536
 30
0.0
 40
1.526904761905769
100
AcDbArc
 50
90.0
 51
270.0
  0
ARC
  5
197
102
{ACAD_REACTORS
330
1EE
330
1EF
102
}
330
52
100
AcDbEntity
  8
0
  6
Continuous
 62
     2
100
AcDbCircle
 10
-159.6596514622107
 20
-296.534458849759
 30
0.0
 40
0.3528638246710898
100
AcDbArc
 50
270.0
 51
90.0
  0
ARC
  5
198
102
{ACAD_REACTORS
330
1E8
330
1E9
102
}
330
52
100
AcDbEntity
  8
0
  6
Continuous
 62
     2
100
AcDbCircle
 10
-166.9982300442278
 20
-296.5467616582825
 30
0.0
 40
0.3157169230760815
100
AcDbArc
 50
90.0
 51
180.0
  0
ARC
  5
199
102
{ACAD_REACTORS
330
1E8
330
1E9
102
}
330
52
100
AcDbEntity
  8
0
  6
Continuous
 62
     2
100
AcDbCircle
 10
-164.9998123356432
 20
-298.2616160234053
 30
0.0
 40
0.9118975235576433
100
AcDbArc
 50
115.1944106485195
 51
244.8055893514911
  0
ARC
  5
19A
102
{ACAD_REACTORS
330
1E8
330
1E9
102
}
330
52
100
AcDbEntity
  8
0
  6
Continuous
 62
     2
100
AcDbCircle
 10
-165.5223967832182
 20
-299.372445769468
 30
0.0
 40
0.315716923076593
100
AcDbArc
 50
0.0
 51
64.805589351446
  0
ARC
  5
19B
102
{ACAD_REACTORS
330
1E8
330
1E9
102
}
330
52
100
AcDbEntity
  8
0
  6
Continuous
 62
     2
100
AcDbCircle
 10
-167.5921247209743
 20
-301.50724456425
 30
0.0
 40
0.4242446153827757
100
AcDbArc
 50
180.0
 51
270.0
  0
ARC
  5
19C
102
{ACAD_REACTORS
330
1EA
330
1EB
102
}
330
52
100
AcDbEntity
  8
0
  6
Continuous
 62
     2
100
AcDbCircle
 10
-152.7006887068197
 20
-296.8886627634331
 30
0.0
 40
0.5179085730133669
100
AcDbArc
 50
38.12041979714121
 51
141.8795802028666
  0
ARC
  5
19D
102
{ACAD_REACTORS
330
1EA
330
1EB
102
}
330
52
100
AcDbEntity
  8
0
  6
Continuous
 62
     2
100
AcDbCircle
 10
-152.5009486704735
 20
-297.0453939415536
 30
0.0
 40
0.7717997786796245
100
AcDbArc
 50
141.8795802028484
 51
218.1204197971549
  0
ARC
  5
19E
102
{ACAD_REACTORS
330
1EC
330
1ED
102
}
330
52
100
AcDbEntity
  8
0
  6
Continuous
 62
     2
100
AcDbCircle
 10
-156.6616361876132
 20
-299.8660094074246
 30
0.0
 40
2.065479772208637
100
AcDbArc
 50
242.4518518243384
 51
297.548148175686
  0
ARC
  5
19F
102
{ACAD_REACTORS
330
1EC
330
1ED
102
}
330
52
100
AcDbEntity
  8
0
  6
Continuous
 62
     2
100
AcDbCircle
 10
-156.6616361876132
 20
-300.9431594280308
 30
0.0
 40
2.065479772208694
100
AcDbArc
 50
62.45185182430819
 51
117.5481481756674
  0
ARC
  5
1A0
102
{ACAD_REACTORS
330
1EC
330
1ED
102
}
330
52
100
AcDbEntity
  8
0
  6
Continuous
 62
     2
100
AcDbCircle
 10
-156.9425760794466
 20
-300.404584417728
 30
0.0
 40
1.458034083651616
100
AcDbArc
 50
117.5481481756598
 51
242.451851824337
  0
ARC
  5
1A1
102
{ACAD_REACTORS
330
1EC
330
1ED
102
}
330
52
100
AcDbEntity
  8
0
  6
Continuous
 62
     2
100
AcDbCircle
 10
-156.38069629578
 20
-300.404584417728
 30
0.0
 40
1.45803408365203
100
AcDbArc
 50
297.5481481757055
 51
62.45185182429758
  0
ARC
  5
1A2
102
{ACAD_REACTORS
330
1EA
330
1EB
102
}
330
52
100
AcDbEntity
  8
0
  6
Continuous
 62
     2
100
AcDbCircle
 10
-152.7006887068197
 20
-297.2021251196741
 30
0.0
 40
0.5179085730134564
100
AcDbArc
 50
218.1204197971334
 51
321.8795802028588
  0
ARC
  5
1A3
102
{ACAD_REACTORS
330
1EA
330
1EB
102
}
330
52
100
AcDbEntity
  8
0
  6
Continuous
 62
     2
100
AcDbCircle
 10
-152.9004287431659
 20
-297.0453939415536
 30
0.0
 40
0.7717997786795479
100
AcDbArc
 50
321.8795802028385
 51
38.12041979715814
  0
ARC
  5
1A4
102
{ACAD_REACTORS
330
1E8
330
1E9
102
}
330
52
100
AcDbEntity
  8
0
  6
Continuous
 62
     2
100
AcDbCircle
 10
-162.1188126302574
 20
-301.50724456425
 30
0.0
 40
0.424244615383202
100
AcDbArc
 50
270.0
 51
0.0
  0
ARC
  5
1A5
102
{ACAD_REACTORS
330
1E8
330
1E9
102
}
330
52
100
AcDbEntity
  8
0
  6
Continuous
 62
     2
100
AcDbCircle
 10
-162.1188126302574
 20
-295.9427337950498
 30
0.0
 40
0.4242446153838841
100
AcDbArc
 50
0.0
 51
90.0
  0
ARC
  5
1A6
102
{ACAD_REACTORS
330
1E8
330
1E9
102
}
330
52
100
AcDbEntity
  8
0
  6
Continuous
 62
     2
100
AcDbCircle
 10
-167.5921247209743
 20
-295.9427337950498
 30
0.0
 40
0.4242446153838841
100
AcDbArc
 50
90.0
 51
180.0
  0
ARC
  5
1A7
102
{ACAD_REACTORS
330
1E8
330
1E9
102
}
330
52
100
AcDbEntity
  8
0
  6
Continuous
 62
     2
100
AcDbCircle
 10
-165.5223967832182
 20
-300.9032167009996
 30
0.0
 40
0.3157169230767067
100
AcDbArc
 50
270.0
 51
0.0
  0
ARC
  5
1A8
102
{ACAD_REACTORS
330
1E8
330
1E9
102
}
330
52
100
AcDbEntity
  8
0
  6
Continuous
 62
     2
100
AcDbCircle
 10
-165.5223967832182
 20
-297.1507862773431
 30
0.0
 40
0.3157169230760658
100
AcDbArc
 50
295.1944106485672
 51
0.0
  0
ARC
  5
1A9
102
{ACAD_REACTORS
330
1E8
330
1E9
102
}
330
52
100
AcDbEntity
  8
0
  6
Continuous
 62
     2
100
AcDbCircle
 10
-165.5223967832182
 20
-296.5467616582825
 30
0.0
 40
0.315716923076593
100
AcDbArc
 50
0.0
 51
90.0
  0
ARC
  5
1AA
102
{ACAD_REACTORS
330
1E8
330
1E9
102
}
330
52
100
AcDbEntity
  8
0
  6
Continuous
 62
     2
100
AcDbCircle
 10
-166.9982300442278
 20
-300.9032167009996
 30
0.0
 40
0.3157169230755983
100
AcDbArc
 50
180.0
 51
270.0
  0
ARC
  5
1AB
102
{ACAD_REACTORS
330
1EE
330
1EF
102
}
330
52
100
AcDbEntity
  8
0
  6
Continuous
 62
     2
100
AcDbCircle
 10
-159.2181789359723
 20
-296.5738548209815
 30
0.0
 40
1.055365641333651
100
AcDbArc
 50
270.0
 51
90.0
  0
ARC
  5
1AC
102
{ACAD_REACTORS
330
1E6
330
1E7
102
}
330
52
100
AcDbEntity
  8
0
  6
Continuous
 62
     2
100
AcDbCircle
 10
-143.4899656242812
 20
-300.2917940556931
 30
0.0
 40
1.639695123940503
100
AcDbArc
 50
195.0618917771007
 51
275.1581447696772
  0
ARC
  5
1AD
102
{ACAD_REACTORS
330
1E6
330
1E7
102
}
330
52
100
AcDbEntity
  8
0
  6
Continuous
 62
     2
100
AcDbCircle
 10
-143.7788217190171
 20
-297.0919034724715
 30
0.0
 40
4.852596863498889
100
AcDbArc
 50
275.1581447696373
 51
285.9799912583383
  0
ARC
  5
1AE
102
{ACAD_REACTORS
330
1E6
330
1E7
102
}
330
52
100
AcDbEntity
  8
0
  6
Continuous
 62
     2
100
AcDbCircle
 10
-143.6209488439243
 20
-298.9941180523198
 30
0.0
 40
2.227384008972773
100
AcDbArc
 50
288.4480761181333
 51
301.9309089499394
  0
ARC
  5
1AF
102
{ACAD_REACTORS
330
1E6
330
1E7
102
}
330
52
100
AcDbEntity
  8
0
  6
Continuous
 62
     2
100
AcDbCircle
 10
-143.2027811102623
 20
-300.2476638283565
 30
0.0
 40
0.9059297849852208
100
AcDbArc
 50
246.6277221118088
 51
288.4480761180772
  0
ARC
  5
1B0
102
{ACAD_REACTORS
330
1E6
330
1E7
102
}
330
52
100
AcDbEntity
  8
0
  6
Continuous
 62
     2
100
AcDbCircle
 10
-142.981863884884
 20
-300.404584417728
 30
0.0
 40
0.9410597353350352
100
AcDbArc
 50
151.4785267423573
 51
208.521473257667
  0
ARC
  5
1B1
102
{ACAD_REACTORS
330
1E6
330
1E7
102
}
330
52
100
AcDbEntity
  8
0
  6
Continuous
 62
     2
100
AcDbCircle
 10
-143.2125511448618
 20
-300.6174679687719
 30
0.0
 40
0.9545230068260935
100
AcDbArc
 50
90.0
 51
109.3371432194281
  0
ARC
  5
1B2
102
{ACAD_REACTORS
330
1E8
330
1E9
102
}
330
52
100
AcDbEntity
  8
0
  6
Continuous
 62
     2
100
AcDbCircle
 10
-164.422681357696
 20
-296.5469391349307
 30
0.0
 40
0.3157169230761851
100
AcDbArc
 50
90.1889670425665
 51
180.0
  0
ARC
  5
1B3
102
{ACAD_REACTORS
330
1E8
330
1E9
102
}
330
52
100
AcDbEntity
  8
0
  6
Continuous
 62
     2
100
AcDbCircle
 10
-164.9487240557839
 20
-298.2616160234053
 30
0.0
 40
0.9118481501443941
100
AcDbArc
 50
295.3740086781804
 51
64.62599132180893
  0
ARC
  5
1B4
102
{ACAD_REACTORS
330
1E4
330
1E5
102
}
330
52
100
AcDbEntity
  8
0
  6
Continuous
 62
     2
100
AcDbCircle
 10
-159.7236503231772
 20
-298.9941180523193
 30
0.0
 40
2.227384008972719
100
AcDbArc
 50
288.4480761181337
 51
301.9309089499637
  0
ARC
  5
1B5
102
{ACAD_REACTORS
330
1E4
330
1E5
102
}
330
52
100
AcDbEntity
  8
0
  6
Continuous
 62
     2
100
AcDbCircle
 10
-159.3054825895163
 20
-300.2476638283565
 30
0.0
 40
0.9059297849848262
100
AcDbArc
 50
246.6277221118665
 51
288.4480761181539
  0
ARC
  5
1B6
102
{ACAD_REACTORS
330
1E4
330
1E5
102
}
330
52
100
AcDbEntity
  8
0
  6
Continuous
 62
     2
100
AcDbCircle
 10
-159.4619226222184
 20
-300.6096558470665
 30
0.0
 40
0.5115800601947491
100
AcDbArc
 50
208.5214732576844
 51
246.6277221118282
  0
ARC
  5
1B7
102
{ACAD_REACTORS
330
1E4
330
1E5
102
}
330
52
100
AcDbEntity
  8
0
  6
Continuous
 62
     2
100
AcDbCircle
 10
-159.3054825895163
 20
-300.5615050070995
 30
0.0
 40
0.9059297849853498
100
AcDbArc
 50
71.55192388185974
 51
113.3722778881306
  0
ARC
  5
1B8
102
{ACAD_REACTORS
330
1E4
330
1E5
102
}
330
52
100
AcDbEntity
  8
0
  6
Continuous
 62
     2
100
AcDbCircle
 10
-159.88152319827
 20
-303.7172653629838
 30
0.0
 40
4.852596863497986
100
AcDbArc
 50
74.0200087416471
 51
84.84185523037608
  0
CIRCLE
  5
1B9
102
{ACAD_REACTORS
330
1E8
330
1E9
102
}
330
52
100
AcDbEntity
  8
0
  6
Continuous
 62
     2
100
AcDbCircle
 10
-164.9725390704567
 20
-298.2616160234053
 30
0.0
 40
0.470978932778479
  0
CIRCLE
  5
1BA
330
52
100
AcDbEntity
  8
1
  6
Continuous
 62
     2
100
AcDbCircle
 10
-159.5163693363571
 20
-288.0999891796497
 30
0.0
 40
1.25
  0
CIRCLE
  5
1BB
330
52
100
AcDbEntity
  8
1
  6
Continuous
 62
     2
100
AcDbCircle
 10
-159.5163693363571
 20
-288.0999891796497
 30
0.0
 40
2.5
  0
TEXT
  5
1BC
330
52
100
AcDbEntity
  8
1
 62
     7
100
AcDbText
 10
-78.04155302950306
 20
-313.224989179649
 30
0.0
 40
2.5
  1
6
 41
0.9
  7
CONVERTER_11
100
AcDbText
  0
TEXT
  5
1BD
330
52
100
AcDbEntity
  8
1
 62
     7
100
AcDbText
 10
-146.3748863628365
 20
-313.224989179649
 30
0.0
 40
2.5
  1
5
 41
0.9
  7
CONVERTER_11
100
AcDbText
  0
TEXT
  5
1BE
330
52
100
AcDbEntity
  8
1
 62
     7
100
AcDbText
 10
-214.7082196961697
 20
-313.224989179649
 30
0.0
 40
2.5
  1
4
 41
0.9
  7
CONVERTER_11
100
AcDbText
  0
TEXT
  5
1BF
330
52
100
AcDbEntity
  8
1
 62
     7
100
AcDbText
 10
-283.0415530295028
 20
-313.224989179649
 30
0.0
 40
2.5
  1
3
 41
0.9
  7
CONVERTER_11
100
AcDbText
  0
TEXT
  5
1C0
330
52
100
AcDbEntity
  8
1
 62
     7
100
AcDbText
 10
-41.70821969616969
 20
-281.724989179649
 30
0.0
 40
2.5
  1
E
 41
0.9
  7
CONVERTER_11
100
AcDbText
  0
TEXT
  5
1C1
330
52
100
AcDbEntity
  8
1
 62
     7
100
AcDbText
 10
-419.7082196961694
 20
-313.224989179649
 30
0.0
 40
2.5
  1
1
 41
0.9
  7
CONVERTER_11
100
AcDbText
  0
TEXT
  5
1C2
330
52
100
AcDbEntity
  8
1
 62
     7
100
AcDbText
 10
-351.3748863628363
 20
-313.224989179649
 30
0.0
 40
2.5
  1
2
 41
0.9
  7
CONVERTER_11
100
AcDbText
  0
TEXT
  5
1C3
330
52
100
AcDbEntity
  8
1
 62
     7
100
AcDbText
 10
-41.70821969616969
 20
-224.3249891796489
 30
0.0
 40
2.5
  1
D
 41
0.9
  7
CONVERTER_11
100
AcDbText
  0
TEXT
  5
1C4
330
52
100
AcDbEntity
  8
1
 62
     7
100
AcDbText
 10
-41.70821969616969
 20
-166.9249891796488
 30
0.0
 40
2.5
  1
C
 41
0.9
  7
CONVERTER_11
100
AcDbText
  0
TEXT
  5
1C5
330
52
100
AcDbEntity
  8
1
 62
     7
100
AcDbText
 10
-41.70821969616969
 20
-109.524989179649
 30
0.0
 40
2.5
  1
B
 41
0.9
  7
CONVERTER_11
100
AcDbText
  0
TEXT
  5
1C6
330
52
100
AcDbEntity
  8
1
 62
     7
100
AcDbText
 10
-41.70821969616969
 20
-52.12498917964911
 30
0.0
 40
2.5
  1
A
 41
0.9
  7
CONVERTER_11
100
AcDbText
  0
TEXT
  5
1C7
330
52
100
AcDbEntity
  8
1
 62
     7
100
AcDbText
 10
-78.04155302950306
 20
-21.22498917964879
 30
0.0
 40
2.5
  1
6
 41
0.9
  7
CONVERTER_11
100
AcDbText
  0
TEXT
  5
1C8
330
52
100
AcDbEntity
  8
1
 62
     7
100
AcDbText
 10
-146.3748863628363
 20
-21.22498917964879
 30
0.0
 40
2.5
  1
5
 41
0.9
  7
CONVERTER_11
100
AcDbText
  0
TEXT
  5
1C9
330
52
100
AcDbEntity
  8
1
 62
     7
100
AcDbText
 10
-214.7082196961697
 20
-21.22498917964879
 30
0.0
 40
2.5
  1
4
 41
0.9
  7
CONVERTER_11
100
AcDbText
  0
TEXT
  5
1CA
330
52
100
AcDbEntity
  8
1
 62
     7
100
AcDbText
 10
-283.0415530295028
 20
-21.22498917964879
 30
0.0
 40
2.5
  1
3
 41
0.9
  7
CONVERTER_11
100
AcDbText
  0
TEXT
  5
1CB
330
52
100
AcDbEntity
  8
1
 62
     7
100
AcDbText
 10
-351.3748863628363
 20
-21.22498917964879
 30
0.0
 40
2.5
  1
2
 41
0.9
  7
CONVERTER_11
100
AcDbText
  0
TEXT
  5
1CC
330
52
100
AcDbEntity
  8
1
 62
     7
100
AcDbText
 10
-419.7082196961694
 20
-21.22498917964879
 30
0.0
 40
2.5
  1
1
 41
0.9
  7
CONVERTER_11
100
AcDbText
  0
TEXT
  5
1CD
330
52
100
AcDbEntity
  8
1
 62
     7
100
AcDbText
 10
-116.8794765009059
 20
-290.9249891796496
 30
0.0
 40
2.5
  1
/
 41
0.9
  7
CONVERTER_11
100
AcDbText
  0
TEXT
  5
1CF
330
52
100
AcDbEntity
  8
1
 62
     7
100
AcDbText
 10
-114.7231120038639
 20
-290.9249891796496
 30
0.0
 40
2.5
  1
00
 41
0.81
  7
CONVERTER_12
100
AcDbText
  0
TEXT
  5
1D0
330
52
100
AcDbEntity
  8
1
 62
     3
100
AcDbText
 10
-77.12662797784672
 20
-290.9249891796496
 30
0.0
 40
2.5
  1
07.08.2018
 41
0.81
  7
CONVERTER_12
100
AcDbText
  0
MTEXT
  5
1D1
330
52
100
AcDbEntity
  8
1
 62
     2
100
AcDbMText
 10
-77.12662797784672
 20
-284.7249891796496
 30
0.0
 40
1.8
 41
0.0
 71
     1
 72
     1
  1
date
  7
CONVERTER_11
 73
     1
 44
1.32052821128451
  0
MTEXT
  5
1D2
330
52
100
AcDbEntity
  8
1
 62
     2
100
AcDbMText
 10
-134.8530242229197
 20
-293.2249891796496
 30
0.0
 40
1.8
 41
0.0
 71
     1
 72
     1
  1
document-type
  7
CONVERTER_11
 73
     1
 44
1.20048019207683
  0
TEXT
  5
1D3
330
52
100
AcDbEntity
  8
1
 62
     3
100
AcDbText
 10
-134.8530242229197
 20
-299.4249891796496
 30
0.0
 40
2.5
  1
TECDOC 2D_Design_In
 41
0.81
  7
CONVERTER_12
100
AcDbText
  0
MTEXT
  5
1D5
330
52
100
AcDbEntity
  8
1
 62
     2
100
AcDbMText
 10
-134.7530242229197
 20
-284.7249891796496
 30
0.0
 40
1.8
 41
0.0
 71
     1
 72
     1
  1
document-No. / RI
  7
CONVERTER_13
 73
     1
 44
1.32052821128451
  0
TEXT
  5
1D6
330
52
100
AcDbEntity
  8
1
 62
     7
100
AcDbText
 10
-134.7530242229197
 20
-290.9249891796496
 30
0.0
 40
2.5
  1
01102959
 41
0.81
  7
CONVERTER_12
100
AcDbText
  0
MTEXT
  5
1D8
330
52
100
AcDbEntity
  8
1
 62
     3
100
AcDbMText
 10
-47.16742383700739
 20
-290.9249891796495
 30
0.0
 40
2.5
 41
0.0
 71
     8
 72
     1
  1
2:1
  7
CONVERTER_14
 73
     1
 44
1.32052821128451
  0
MTEXT
  5
1D9
330
52
100
AcDbEntity
  8
1
 62
     2
100
AcDbMText
 10
-50.5266279778469
 20
-284.7249891796496
 30
0.0
 40
1.8
 41
0.0
 71
     1
 72
     1
  1
scale
  7
CONVERTER_11
 73
     1
 44
1.20048019207683
  0
MTEXT
  5
1DA
330
52
100
AcDbEntity
  8
1
 62
     2
100
AcDbMText
 10
-44.7082196961682
 20
-281.7249891796496
 30
0.0
 40
2.0
 41
0.0
 71
     9
 72
     1
  1
General Information\P- Simplified representation\P- Document excluded from change process\P- Linear dimensions [mm]
  7
CONVERTER_11
 73
     1
 44
1.20048019207683
  0
MTEXT
  5
1DB
330
52
100
AcDbEntity
  8
1
 62
     3
100
AcDbMText
 10
-146.0530242229197
 20
-288.0999891796496
 30
0.0
 40
2.5
 41
0.0
 71
     5
 72
     1
  1
DIN A3
  7
CONVERTER_11
 73
     1
 44
1.20048019207683
  0
MTEXT
  5
1DC
330
52
100
AcDbEntity
  8
1
 62
     2
100
AcDbMText
 10
-134.8530242229197
 20
-301.7249891796496
 30
0.0
 40
1.8
 41
0.0
 71
     1
 72
     1
  1
description
  7
CONVERTER_11
 73
     1
 44
1.20048019207683
  0
MTEXT
  5
1DD
330
52
100
AcDbEntity
  8
1
 62
     7
100
AcDbMText
 10
-89.28062195954419
 20
-305.9749891796494
 30
0.0
 40
3.0
 41
0.0
 71
     5
 72
     1
  1
VS-PPC-F1-..-1R-PHA
  7
CONVERTER_12
 73
     1
 44
1.20048019207683
  0
TEXT
  5
1DE
330
52
100
AcDbEntity
  8
1
 62
     2
100
AcDbText
 10
-147.8177154131061
 20
-307.9749891796496
 30
0.0
 40
1.8
  1
1
 41
0.9
  7
CONVERTER_11
100
AcDbText
  0
TEXT
  5
1DF
330
52
100
AcDbEntity
  8
1
 62
     2
100
AcDbText
 10
-162.6067592525776
 20
-308.0242378334515
 30
0.0
 40
1.8
  1
1
 41
0.9
  7
CONVERTER_11
100
AcDbText
  0
TEXT
  5
1E0
330
52
100
AcDbEntity
  8
1
 62
     2
100
AcDbText
 10
-171.2530242229196
 20
-307.9840063946413
 30
0.0
 40
1.8
  1
page
 41
0.9
  7
CONVERTER_11
100
AcDbText
  0
TEXT
  5
1E1
330
52
100
AcDbEntity
  8
1
 62
     2
100
AcDbText
 10
-153.0530242229198
 20
-307.9840063946411
 30
0.0
 40
1.8
  1
of
 41
0.9
  7
CONVERTER_11
100
AcDbText
  0
MTEXT
  5
1E2
330
52
100
AcDbEntity
  8
1
 62
     3
100
AcDbMText
 10
-439.4397526959104
 20
-136.2387050659953
 30
0.0
 40
1.8
 41
0.0
 71
     7
 72
     1
  3
Transfer or duplication of this document as well as the utilisation or\Pcommunication of its content are not permitted unless express consent\Pis granted. Violations give rise to claims for damages. All rights reserved\Pin case of patent, utility mo
  1
del or design patent registrations.
  7
CONVERTER_11
 11
0.0
 21
1.0
 31
0.0
 73
     1
 44
0.99639855942377
  0
MTEXT
  5
1E3
330
52
100
AcDbEntity
  8
1
 62
     3
100
AcDbMText
 10
-439.2855463848165
 20
-309.1980750801484
 30
0.0
 40
1.8
 41
0.0
 71
     7
 72
     1
  3
Weitergabe sowie Vervielf\U+00e4ltigung dieses Dokuments, Verwertung und \PMitteilung seines Inhalts sind verboten, soweit nicht ausdr\U+00fccklich gestattet. \PZuwiderhandlungen verpflichten zu Schadenersatz. Alle Rechte f\U+00fcr den Fall\Pder Pat
  1
ent-, Gebrauchsmuster- oder Designeintragung vorbehalten.
  7
CONVERTER_11
 11
0.0
 21
1.0
 31
0.0
 73
     1
 44
0.99639855942377
  0
HATCH
  5
1E4
330
52
100
AcDbEntity
  8
1
  6
Continuous
 62
     2
100
AcDbHatch
 10
0.0
 20
0.0
 30
0.0
210
0.0
220
0.0
230
1.0
  2
CUSTOM0
 70
     0
 71
     1
 91
        1
 92
        1
 93
       14
 72
     2
 10
-160.0117949469969
 20
-300.404584417728
 40
1.205656168390971
 50
164.9381082228768
 51
195.0618917770945
 73
     1
 72
     2
 10
-159.5926671035341
 20
-300.2917940556931
 40
1.639695123939437
 50
195.0618917770922
 51
275.1581447696363
 73
     1
 72
     2
 10
-159.88152319827
 20
-297.0919034724715
 40
4.852596863498272
 50
275.1581447696238
 51
285.9799912583526
 73
     1
 72
     1
 10
-158.5455952811522
 20
-301.7569857782724
 11
-158.5455952811522
 21
-300.8844687714691
 72
     2
 10
-159.7236503231772
 20
-298.9941180523193
 40
2.227384008972719
 50
58.06909105003628
 51
71.55192388186632
 73
     0
 72
     2
 10
-159.3054825895163
 20
-300.2476638283565
 40
0.9059297849848262
 50
71.55192388184605
 51
113.3722778881334
 73
     0
 72
     2
 10
-159.4619226222184
 20
-300.6096558470665
 40
0.5115800601947491
 50
113.3722778881718
 51
151.4785267423156
 73
     0
 72
     2
 10
-159.084565364138
 20
-300.404584417728
 40
0.9410597353333294
 50
151.4785267423028
 51
208.5214732577306
 73
     0
 72
     2
 10
-159.4619226222184
 20
-300.1995129883889
 40
0.5115800601948293
 50
208.5214732576844
 51
246.6277221118054
 73
     0
 72
     2
 10
-159.3054825895163
 20
-300.5615050070995
 40
0.9059297849853498
 50
246.6277221118694
 51
288.4480761181403
 73
     0
 72
     2
 10
-159.7236503231772
 20
-301.8150507831361
 40
2.227384008973465
 50
288.4480761181333
 51
301.9309089499629
 73
     0
 72
     1
 10
-158.5455952811522
 20
-299.9247000639863
 11
-158.5455952811522
 21
-299.052183057183
 72
     2
 10
-159.88152319827
 20
-303.7172653629838
 40
4.852596863497986
 50
74.0200087416471
 51
84.84185523037608
 73
     1
 72
     2
 10
-159.5926671035341
 20
-300.5173747797628
 40
1.639695123940499
 50
84.84185523036533
 51
164.9381082228905
 73
     1
 97
       14
330
1B8
330
101
330
187
330
1B7
330
188
330
189
330
1B6
330
1B5
330
1B4
330
102
330
18A
330
18B
330
18C
330
18D
 75
     1
 76
     2
 52
45.0
 41
0.1
 77
     0
 78
     1
 53
45.0
 43
62.7811309658083
 44
-72.3161373035813
 45
-0.1414213562373095
 46
0.0
 79
     0
 98
        1
 10
0.0
 20
0.0
  0
HATCH
  5
1E5
330
52
100
AcDbEntity
  8
1
  6
Continuous
 62
     2
100
AcDbHatch
 10
0.0
 20
0.0
 30
0.0
210
0.0
220
0.0
230
1.0
  2
CUSTOM1
 70
     0
 71
     1
 91
        1
 92
        1
 93
       14
 72
     2
 10
-160.0117949469969
 20
-300.404584417728
 40
1.205656168390971
 50
164.9381082228768
 51
195.0618917770945
 73
     1
 72
     2
 10
-159.5926671035341
 20
-300.2917940556931
 40
1.639695123939437
 50
195.0618917770922
 51
275.1581447696363
 73
     1
 72
     2
 10
-159.88152319827
 20
-297.0919034724715
 40
4.852596863498272
 50
275.1581447696238
 51
285.9799912583526
 73
     1
 72
     1
 10
-158.5455952811522
 20
-301.7569857782724
 11
-158.5455952811522
 21
-300.8844687714691
 72
     2
 10
-159.7236503231772
 20
-298.9941180523193
 40
2.227384008972719
 50
58.06909105003628
 51
71.55192388186632
 73
     0
 72
     2
 10
-159.3054825895163
 20
-300.2476638283565
 40
0.9059297849848262
 50
71.55192388184605
 51
113.3722778881334
 73
     0
 72
     2
 10
-159.4619226222184
 20
-300.6096558470665
 40
0.5115800601947491
 50
113.3722778881718
 51
151.4785267423156
 73
     0
 72
     2
 10
-159.084565364138
 20
-300.404584417728
 40
0.9410597353333294
 50
151.4785267423028
 51
208.5214732577306
 73
     0
 72
     2
 10
-159.4619226222184
 20
-300.1995129883889
 40
0.5115800601948293
 50
208.5214732576844
 51
246.6277221118054
 73
     0
 72
     2
 10
-159.3054825895163
 20
-300.5615050070995
 40
0.9059297849853498
 50
246.6277221118694
 51
288.4480761181403
 73
     0
 72
     2
 10
-159.7236503231772
 20
-301.8150507831361
 40
2.227384008973465
 50
288.4480761181333
 51
301.9309089499629
 73
     0
 72
     1
 10
-158.5455952811522
 20
-299.9247000639863
 11
-158.5455952811522
 21
-299.052183057183
 72
     2
 10
-159.88152319827
 20
-303.7172653629838
 40
4.852596863497986
 50
74.0200087416471
 51
84.84185523037608
 73
     1
 72
     2
 10
-159.5926671035341
 20
-300.5173747797628
 40
1.639695123940499
 50
84.84185523036533
 51
164.9381082228905
 73
     1
 97
       14
330
1B8
330
101
330
187
330
1B7
330
188
330
189
330
1B6
330
1B5
330
1B4
330
102
330
18A
330
18B
330
18C
330
18D
 75
     1
 76
     2
 52
45.0
 41
0.1
 77
     0
 78
     1
 53
45.0
 43
62.7811309658083
 44
-72.3161373035813
 45
-0.1414213562373095
 46
0.0
 79
     0
 98
        1
 10
0.0
 20
0.0
  0
HATCH
  5
1E6
330
52
100
AcDbEntity
  8
1
  6
Continuous
 62
     2
100
AcDbHatch
 10
0.0
 20
0.0
 30
0.0
210
0.0
220
0.0
230
1.0
  2
CUSTOM2
 70
     0
 71
     1
 91
        1
 92
        1
 93
       18
 72
     2
 10
-143.4899656242812
 20
-300.5173747797628
 40
1.639695123940101
 50
90.0
 51
164.9381082228993
 73
     1
 72
     2
 10
-143.9090934677429
 20
-300.404584417728
 40
1.205656168392975
 50
164.9381082229024
 51
195.0618917770924
 73
     1
 72
     2
 10
-143.4899656242812
 20
-300.2917940556931
 40
1.639695123940503
 50
195.0618917771007
 51
275.1581447696772
 73
     1
 72
     2
 10
-143.7788217190171
 20
-297.0919034724715
 40
4.852596863498889
 50
275.1581447696373
 51
285.9799912583383
 73
     1
 72
     1
 10
-142.4428938019004
 20
-301.7569857782729
 11
-142.4428938019004
 21
-300.8844687714696
 72
     2
 10
-143.6209488439243
 20
-298.9941180523198
 40
2.227384008972773
 50
58.06909105006066
 51
71.55192388186677
 73
     0
 72
     2
 10
-143.2027811102623
 20
-300.2476638283565
 40
0.9059297849852208
 50
71.55192388192279
 51
113.3722778881912
 73
     0
 72
     2
 10
-143.3592211429655
 20
-300.6096558470665
 40
0.5115800601959967
 50
113.3722778881601
 51
151.4785267423119
 73
     0
 72
     2
 10
-142.981863884884
 20
-300.404584417728
 40
0.9410597353350352
 50
151.478526742333
 51
208.5214732576427
 73
     0
 72
     2
 10
-143.3592211429655
 20
-300.1995129883889
 40
0.5115800601944048
 50
208.5214732575818
 51
250.6628567805177
 73
     0
 72
     2
 10
-143.2125511448618
 20
-300.6174679687719
 40
0.9545230068260935
 50
250.6628567805719
 51
270.0
 73
     0
 72
     1
 10
-143.2125511448618
 20
-299.6629449619458
 11
-142.1089118452937
 21
-299.6629449619458
 72
     1
 10
-142.1089118452937
 20
-299.6629449619458
 11
-142.1089118452937
 21
-301.9314891796332
 72
     1
 10
-142.1089118452937
 20
-301.9314891796332
 11
-140.916119143126
 21
-301.9314891796332
 72
     1
 10
-140.916119143126
 20
-301.9314891796332
 11
-140.916119143126
 21
-299.6629449619458
 72
     1
 10
-140.916119143126
 20
-299.6629449619458
 11
-140.1050201056526
 21
-299.6629449619458
 72
     1
 10
-140.1050201056526
 20
-299.6629449619458
 11
-140.1050201056526
 21
-298.8776796558221
 72
     1
 10
-140.1050201056526
 20
-298.8776796558221
 11
-143.4899656242812
 21
-298.8776796558227
 97
       18
330
167
330
166
330
165
330
164
330
169
330
103
330
1B1
330
192
330
1B0
330
193
330
1AF
330
1AE
330
104
330
1AD
330
1AC
330
194
330
195
330
168
 75
     1
 76
     2
 52
45.0
 41
0.1
 77
     0
 78
     1
 53
45.0
 43
62.7811309658083
 44
-72.3161373035813
 45
-0.1414213562373095
 46
0.0
 79
     0
 98
        1
 10
0.0
 20
0.0
  0
HATCH
  5
1E7
330
52
100
AcDbEntity
  8
1
  6
Continuous
 62
     2
100
AcDbHatch
 10
0.0
 20
0.0
 30
0.0
210
0.0
220
0.0
230
1.0
  2
CUSTOM3
 70
     0
 71
     1
 91
        1
 92
        1
 93
       18
 72
     2
 10
-143.4899656242812
 20
-300.5173747797628
 40
1.639695123940101
 50
90.0
 51
164.9381082228993
 73
     1
 72
     2
 10
-143.9090934677429
 20
-300.404584417728
 40
1.205656168392975
 50
164.9381082229024
 51
195.0618917770924
 73
     1
 72
     2
 10
-143.4899656242812
 20
-300.2917940556931
 40
1.639695123940503
 50
195.0618917771007
 51
275.1581447696772
 73
     1
 72
     2
 10
-143.7788217190171
 20
-297.0919034724715
 40
4.852596863498889
 50
275.1581447696373
 51
285.9799912583383
 73
     1
 72
     1
 10
-142.4428938019004
 20
-301.7569857782729
 11
-142.4428938019004
 21
-300.8844687714696
 72
     2
 10
-143.6209488439243
 20
-298.9941180523198
 40
2.227384008972773
 50
58.06909105006066
 51
71.55192388186677
 73
     0
 72
     2
 10
-143.2027811102623
 20
-300.2476638283565
 40
0.9059297849852208
 50
71.55192388192279
 51
113.3722778881912
 73
     0
 72
     2
 10
-143.3592211429655
 20
-300.6096558470665
 40
0.5115800601959967
 50
113.3722778881601
 51
151.4785267423119
 73
     0
 72
     2
 10
-142.981863884884
 20
-300.404584417728
 40
0.9410597353350352
 50
151.478526742333
 51
208.5214732576427
 73
     0
 72
     2
 10
-143.3592211429655
 20
-300.1995129883889
 40
0.5115800601944048
 50
208.5214732575818
 51
250.6628567805177
 73
     0
 72
     2
 10
-143.2125511448618
 20
-300.6174679687719
 40
0.9545230068260935
 50
250.6628567805719
 51
270.0
 73
     0
 72
     1
 10
-143.2125511448618
 20
-299.6629449619458
 11
-142.1089118452937
 21
-299.6629449619458
 72
     1
 10
-142.1089118452937
 20
-299.6629449619458
 11
-142.1089118452937
 21
-301.9314891796332
 72
     1
 10
-142.1089118452937
 20
-301.9314891796332
 11
-140.916119143126
 21
-301.9314891796332
 72
     1
 10
-140.916119143126
 20
-301.9314891796332
 11
-140.916119143126
 21
-299.6629449619458
 72
     1
 10
-140.916119143126
 20
-299.6629449619458
 11
-140.1050201056526
 21
-299.6629449619458
 72
     1
 10
-140.1050201056526
 20
-299.6629449619458
 11
-140.1050201056526
 21
-298.8776796558221
 72
     1
 10
-140.1050201056526
 20
-298.8776796558221
 11
-143.4899656242812
 21
-298.8776796558227
 97
       18
330
167
330
166
330
165
330
164
330
169
330
103
330
1B1
330
192
330
1B0
330
193
330
1AF
330
1AE
330
104
330
1AD
330
1AC
330
194
330
195
330
168
 75
     1
 76
     2
 52
45.0
 41
0.1
 77
     0
 78
     1
 53
45.0
 43
62.7811309658083
 44
-72.3161373035813
 45
-0.1414213562373095
 46
0.0
 79
     0
 98
        1
 10
0.0
 20
0.0
  0
HATCH
  5
1E8
330
52
100
AcDbEntity
  8
1
  6
Continuous
 62
     2
100
AcDbHatch
 10
0.0
 20
0.0
 30
0.0
210
0.0
220
0.0
230
1.0
  2
CUSTOM4
 70
     0
 71
     1
 91
        4
 92
        1
 93
        8
 72
     2
 10
-167.5921247209743
 20
-295.9427337950498
 40
0.4242446153838841
 50
90.0
 51
180.0
 73
     1
 72
     1
 10
-168.0163693363571
 20
-295.9427337950498
 11
-168.0163693363571
 21
-301.50724456425
 72
     2
 10
-167.5921247209743
 20
-301.50724456425
 40
0.4242446153827757
 50
180.0
 51
270.0
 73
     1
 72
     1
 10
-167.5921247209743
 20
-301.9314891796332
 11
-162.1188126302574
 21
-301.9314891796332
 72
     2
 10
-162.1188126302574
 20
-301.50724456425
 40
0.424244615383202
 50
270.0
 51
360.0
 73
     1
 72
     1
 10
-161.6945680148735
 20
-301.50724456425
 11
-161.6945680148735
 21
-295.9427337950498
 72
     2
 10
-162.1188126302574
 20
-295.9427337950498
 40
0.4242446153838841
 50
0.0
 51
90.0
 73
     1
 72
     1
 10
-162.1188126302574
 20
-295.5184891796659
 11
-167.5921247209743
 21
-295.5184891796659
 97
        8
330
1A5
330
132
330
1A4
330
133
330
19B
330
130
330
1A6
330
131
 92
       16
 93
       12
 72
     1
 10
-166.9982300442278
 20
-301.2189336240763
 11
-165.5223967832182
 21
-301.2189336240763
 72
     2
 10
-165.5223967832182
 20
-300.9032167009996
 40
0.3157169230767067
 50
270.0
 51
360.0
 73
     1
 72
     1
 10
-165.2066798601416
 20
-300.9032167009996
 11
-165.2066798601416
 21
-299.372445769468
 72
     2
 10
-165.5223967832182
 20
-299.372445769468
 40
0.315716923076593
 50
0.0
 51
64.805589351446
 73
     1
 72
     2
 10
-164.9998123356432
 20
-298.2616160234053
 40
0.9118975235576433
 50
115.1944106485089
 51
244.8055893514805
 73
     0
 72
     2
 10
-165.5223967832182
 20
-297.1507862773431
 40
0.3157169230760658
 50
295.1944106485672
 51
360.0
 73
     1
 72
     1
 10
-165.2066798601416
 20
-297.1507862773431
 11
-165.2066798601416
 21
-296.5467616582825
 72
     2
 10
-165.5223967832182
 20
-296.5467616582825
 40
0.315716923076593
 50
0.0
 51
90.0
 73
     1
 72
     1
 10
-165.5223967832182
 20
-296.2310447352064
 11
-166.9982300442278
 21
-296.2310447352064
 72
     2
 10
-166.9982300442278
 20
-296.5467616582825
 40
0.3157169230760815
 50
90.0
 51
180.0
 73
     1
 72
     1
 10
-167.3139469673034
 20
-296.5467616582825
 11
-167.3139469673034
 21
-300.9032167009996
 72
     2
 10
-166.9982300442278
 20
-300.9032167009996
 40
0.3157169230755983
 50
180.0
 51
270.0
 73
     1
 97
       12
330
137
330
198
330
136
330
1A9
330
135
330
1A8
330
199
330
19A
330
134
330
1A7
330
12F
330
1AA
 92
       16
 93
        8
 72
     2
 10
-164.9487240557839
 20
-298.2616160234053
 40
0.9118481501443941
 50
295.3740086781804
 51
424.6259913218089
 73
     1
 72
     2
 10
-164.422681357696
 20
-297.1524744234375
 40
0.315716923076792
 50
115.3740086783651
 51
180.0
 73
     0
 72
     1
 10
-164.7383982807728
 20
-297.1524744234375
 11
-164.7383982807728
 21
-296.5469391349307
 72
     2
 10
-164.422681357696
 20
-296.5469391349307
 40
0.3157169230761851
 50
180.0
 51
269.8110329574335
 73
     0
 72
     2
 10
-164.417065222386
 20
-298.2497740824997
 40
2.018561131933266
 50
269.8110329575827
 51
450.1889670424174
 73
     0
 72
     2
 10
-164.422681357696
 20
-299.9526090300687
 40
0.315716923076792
 50
90.18896704256652
 51
180.0
 73
     0
 72
     1
 10
-164.7383982807728
 20
-299.9526090300687
 11
-164.7383982807728
 21
-299.3707576233736
 72
     2
 10
-164.422681357696
 20
-299.3707576233736
 40
0.3157169230765328
 50
180.0
 51
244.6259913216482
 73
     0
 97
        8
330
1B3
330
18F
330
16B
330
1B2
330
190
330
191
330
16A
330
18E
 92
       16
 93
        1
 72
     2
 10
-164.9725390704567
 20
-298.2616160234053
 40
0.470978932778479
 50
0.0
 51
360.0
 73
     1
 97
        1
330
1B9
 75
     1
 76
     2
 52
45.0
 41
0.1
 77
     0
 78
     1
 53
45.0
 43
62.7811309658083
 44
-72.3161373035813
 45
-0.1414213562373095
 46
0.0
 79
     0
 98
        1
 10
0.0
 20
0.0
  0
HATCH
  5
1E9
330
52
100
AcDbEntity
  8
1
  6
Continuous
 62
     2
100
AcDbHatch
 10
0.0
 20
0.0
 30
0.0
210
0.0
220
0.0
230
1.0
  2
CUSTOM5
 70
     0
 71
     1
 91
        4
 92
        1
 93
        8
 72
     2
 10
-167.5921247209743
 20
-295.9427337950498
 40
0.4242446153838841
 50
90.0
 51
180.0
 73
     1
 72
     1
 10
-168.0163693363571
 20
-295.9427337950498
 11
-168.0163693363571
 21
-301.50724456425
 72
     2
 10
-167.5921247209743
 20
-301.50724456425
 40
0.4242446153827757
 50
180.0
 51
270.0
 73
     1
 72
     1
 10
-167.5921247209743
 20
-301.9314891796332
 11
-162.1188126302574
 21
-301.9314891796332
 72
     2
 10
-162.1188126302574
 20
-301.50724456425
 40
0.424244615383202
 50
270.0
 51
360.0
 73
     1
 72
     1
 10
-161.6945680148735
 20
-301.50724456425
 11
-161.6945680148735
 21
-295.9427337950498
 72
     2
 10
-162.1188126302574
 20
-295.9427337950498
 40
0.4242446153838841
 50
0.0
 51
90.0
 73
     1
 72
     1
 10
-162.1188126302574
 20
-295.5184891796659
 11
-167.5921247209743
 21
-295.5184891796659
 97
        8
330
1A5
330
132
330
1A4
330
133
330
19B
330
130
330
1A6
330
131
 92
       16
 93
       12
 72
     1
 10
-166.9982300442278
 20
-301.2189336240763
 11
-165.5223967832182
 21
-301.2189336240763
 72
     2
 10
-165.5223967832182
 20
-300.9032167009996
 40
0.3157169230767067
 50
270.0
 51
360.0
 73
     1
 72
     1
 10
-165.2066798601416
 20
-300.9032167009996
 11
-165.2066798601416
 21
-299.372445769468
 72
     2
 10
-165.5223967832182
 20
-299.372445769468
 40
0.315716923076593
 50
0.0
 51
64.805589351446
 73
     1
 72
     2
 10
-164.9998123356432
 20
-298.2616160234053
 40
0.9118975235576433
 50
115.1944106485089
 51
244.8055893514805
 73
     0
 72
     2
 10
-165.5223967832182
 20
-297.1507862773431
 40
0.3157169230760658
 50
295.1944106485672
 51
360.0
 73
     1
 72
     1
 10
-165.2066798601416
 20
-297.1507862773431
 11
-165.2066798601416
 21
-296.5467616582825
 72
     2
 10
-165.5223967832182
 20
-296.5467616582825
 40
0.315716923076593
 50
0.0
 51
90.0
 73
     1
 72
     1
 10
-165.5223967832182
 20
-296.2310447352064
 11
-166.9982300442278
 21
-296.2310447352064
 72
     2
 10
-166.9982300442278
 20
-296.5467616582825
 40
0.3157169230760815
 50
90.0
 51
180.0
 73
     1
 72
     1
 10
-167.3139469673034
 20
-296.5467616582825
 11
-167.3139469673034
 21
-300.9032167009996
 72
     2
 10
-166.9982300442278
 20
-300.9032167009996
 40
0.3157169230755983
 50
180.0
 51
270.0
 73
     1
 97
       12
330
137
330
198
330
136
330
1A9
330
135
330
1A8
330
199
330
19A
330
134
330
1A7
330
12F
330
1AA
 92
       16
 93
        8
 72
     2
 10
-164.9487240557839
 20
-298.2616160234053
 40
0.9118481501443941
 50
295.3740086781804
 51
424.6259913218089
 73
     1
 72
     2
 10
-164.422681357696
 20
-297.1524744234375
 40
0.315716923076792
 50
115.3740086783651
 51
180.0
 73
     0
 72
     1
 10
-164.7383982807728
 20
-297.1524744234375
 11
-164.7383982807728
 21
-296.5469391349307
 72
     2
 10
-164.422681357696
 20
-296.5469391349307
 40
0.3157169230761851
 50
180.0
 51
269.8110329574335
 73
     0
 72
     2
 10
-164.417065222386
 20
-298.2497740824997
 40
2.018561131933266
 50
269.8110329575827
 51
450.1889670424174
 73
     0
 72
     2
 10
-164.422681357696
 20
-299.9526090300687
 40
0.315716923076792
 50
90.18896704256652
 51
180.0
 73
     0
 72
     1
 10
-164.7383982807728
 20
-299.9526090300687
 11
-164.7383982807728
 21
-299.3707576233736
 72
     2
 10
-164.422681357696
 20
-299.3707576233736
 40
0.3157169230765328
 50
180.0
 51
244.6259913216482
 73
     0
 97
        8
330
1B3
330
18F
330
16B
330
1B2
330
190
330
191
330
16A
330
18E
 92
       16
 93
        1
 72
     2
 10
-164.9725390704567
 20
-298.2616160234053
 40
0.470978932778479
 50
0.0
 51
360.0
 73
     1
 97
        1
330
1B9
 75
     1
 76
     2
 52
45.0
 41
0.1
 77
     0
 78
     1
 53
45.0
 43
62.7811309658083
 44
-72.3161373035813
 45
-0.1414213562373095
 46
0.0
 79
     0
 98
        1
 10
0.0
 20
0.0
  0
HATCH
  5
1EA
330
52
100
AcDbEntity
  8
1
  6
Continuous
 62
     2
100
AcDbHatch
 10
0.0
 20
0.0
 30
0.0
210
0.0
220
0.0
230
1.0
  2
CUSTOM6
 70
     0
 71
     1
 91
        2
 92
        1
 93
       12
 72
     2
 10
-152.9169607169849
 20
-297.0453939415536
 40
1.526904761905769
 50
90.0
 51
270.0
 73
     1
 72
     1
 10
-152.9169607169849
 20
-298.5722987034589
 11
-149.766640993204
 21
-298.5722987034589
 72
     1
 10
-149.766640993204
 20
-298.5722987034589
 11
-149.766640993204
 21
-297.8742850980165
 72
     1
 10
-149.766640993204
 20
-297.8742850980165
 11
-151.1025688196316
 21
-297.8742850980165
 72
     1
 10
-151.1025688196316
 20
-297.8742850980165
 11
-151.1025688196316
 21
-297.3944007442748
 72
     1
 10
-151.1025688196316
 20
-297.3944007442748
 11
-149.766640993204
 21
-297.3944007442748
 72
     1
 10
-149.766640993204
 20
-297.3944007442748
 11
-149.766640993204
 21
-296.6963871388324
 72
     1
 10
-149.766640993204
 20
-296.6963871388324
 11
-151.1025688196316
 21
-296.6963871388324
 72
     1
 10
-151.1025688196316
 20
-296.6963871388324
 11
-151.1025688196316
 21
-296.2165027850907
 72
     1
 10
-151.1025688196316
 20
-296.2165027850907
 11
-149.766640993204
 21
-296.2165027850907
 72
     1
 10
-149.766640993204
 20
-296.2165027850907
 11
-149.766640993204
 21
-295.5184891796478
 72
     1
 10
-149.766640993204
 20
-295.5184891796478
 11
-152.9169607169849
 21
-295.5184891796478
 97
       12
330
126
330
120
330
147
330
146
330
145
330
144
330
121
330
122
330
123
330
124
330
196
330
125
 92
       16
 93
        4
 72
     2
 10
-152.5009486704735
 20
-297.0453939415536
 40
0.7717997786796245
 50
141.8795802028484
 51
218.1204197971549
 73
     1
 72
     2
 10
-152.7006887068197
 20
-297.2021251196741
 40
0.5179085730134564
 50
218.1204197971334
 51
321.8795802028588
 73
     1
 72
     2
 10
-152.9004287431659
 20
-297.0453939415536
 40
0.7717997786795479
 50
321.8795802028385
 51
398.1204197971581
 73
     1
 72
     2
 10
-152.7006887068197
 20
-296.8886627634331
 40
0.5179085730133669
 50
38.12041979714121
 51
141.8795802028666
 73
     1
 97
        4
330
1A3
330
1A2
330
19D
330
19C
 75
     1
 76
     2
 52
45.0
 41
0.1
 77
     0
 78
     1
 53
45.0
 43
62.7811309658083
 44
-72.3161373035813
 45
-0.1414213562373095
 46
0.0
 79
     0
 98
        1
 10
0.0
 20
0.0
  0
HATCH
  5
1EB
330
52
100
AcDbEntity
  8
1
  6
Continuous
 62
     2
100
AcDbHatch
 10
0.0
 20
0.0
 30
0.0
210
0.0
220
0.0
230
1.0
  2
CUSTOM7
 70
     0
 71
     1
 91
        2
 92
        1
 93
       12
 72
     2
 10
-152.9169607169849
 20
-297.0453939415536
 40
1.526904761905769
 50
90.0
 51
270.0
 73
     1
 72
     1
 10
-152.9169607169849
 20
-298.5722987034589
 11
-149.766640993204
 21
-298.5722987034589
 72
     1
 10
-149.766640993204
 20
-298.5722987034589
 11
-149.766640993204
 21
-297.8742850980165
 72
     1
 10
-149.766640993204
 20
-297.8742850980165
 11
-151.1025688196316
 21
-297.8742850980165
 72
     1
 10
-151.1025688196316
 20
-297.8742850980165
 11
-151.1025688196316
 21
-297.3944007442748
 72
     1
 10
-151.1025688196316
 20
-297.3944007442748
 11
-149.766640993204
 21
-297.3944007442748
 72
     1
 10
-149.766640993204
 20
-297.3944007442748
 11
-149.766640993204
 21
-296.6963871388324
 72
     1
 10
-149.766640993204
 20
-296.6963871388324
 11
-151.1025688196316
 21
-296.6963871388324
 72
     1
 10
-151.1025688196316
 20
-296.6963871388324
 11
-151.1025688196316
 21
-296.2165027850907
 72
     1
 10
-151.1025688196316
 20
-296.2165027850907
 11
-149.766640993204
 21
-296.2165027850907
 72
     1
 10
-149.766640993204
 20
-296.2165027850907
 11
-149.766640993204
 21
-295.5184891796478
 72
     1
 10
-149.766640993204
 20
-295.5184891796478
 11
-152.9169607169849
 21
-295.5184891796478
 97
       12
330
126
330
120
330
147
330
146
330
145
330
144
330
121
330
122
330
123
330
124
330
196
330
125
 92
       16
 93
        4
 72
     2
 10
-152.5009486704735
 20
-297.0453939415536
 40
0.7717997786796245
 50
141.8795802028484
 51
218.1204197971549
 73
     1
 72
     2
 10
-152.7006887068197
 20
-297.2021251196741
 40
0.5179085730134564
 50
218.1204197971334
 51
321.8795802028588
 73
     1
 72
     2
 10
-152.9004287431659
 20
-297.0453939415536
 40
0.7717997786795479
 50
321.8795802028385
 51
398.1204197971581
 73
     1
 72
     2
 10
-152.7006887068197
 20
-296.8886627634331
 40
0.5179085730133669
 50
38.12041979714121
 51
141.8795802028666
 73
     1
 97
        4
330
1A3
330
1A2
330
19D
330
19C
 75
     1
 76
     2
 52
45.0
 41
0.1
 77
     0
 78
     1
 53
45.0
 43
62.7811309658083
 44
-72.3161373035813
 45
-0.1414213562373095
 46
0.0
 79
     0
 98
        1
 10
0.0
 20
0.0
  0
HATCH
  5
1EC
330
52
100
AcDbEntity
  8
1
  6
Continuous
 62
     2
100
AcDbHatch
 10
0.0
 20
0.0
 30
0.0
210
0.0
220
0.0
230
1.0
  2
CUSTOM8
 70
     0
 71
     1
 91
        2
 92
        1
 93
        4
 72
     2
 10
-156.9425760794466
 20
-300.404584417728
 40
1.458034083651616
 50
117.5481481756598
 51
242.451851824337
 73
     1
 72
     2
 10
-156.6616361876132
 20
-299.8660094074246
 40
2.065479772208637
 50
242.4518518243384
 51
297.548148175686
 73
     1
 72
     2
 10
-156.38069629578
 20
-300.404584417728
 40
1.45803408365203
 50
297.5481481757055
 51
422.4518518242976
 73
     1
 72
     2
 10
-156.6616361876132
 20
-300.9431594280308
 40
2.065479772208694
 50
62.45185182430819
 51
117.5481481756674
 73
     1
 97
        4
330
1A1
330
19E
330
1A0
330
19F
 92
       16
 93
        4
 72
     2
 10
-156.6616361876132
 20
-300.2478532396075
 40
0.5179085730132806
 50
38.12041979716469
 51
141.8795802028567
 73
     1
 72
     2
 10
-156.4618961512672
 20
-300.404584417728
 40
0.771799778679551
 50
141.879580202828
 51
218.120419797162
 73
     1
 72
     2
 10
-156.6616361876132
 20
-300.5613155958479
 40
0.5179085730138424
 50
218.1204197971879
 51
321.8795802027908
 73
     1
 72
     2
 10
-156.8613762239596
 20
-300.404584417728
 40
0.7717997786795351
 50
321.8795802028432
 51
398.1204197971668
 73
     1
 97
        4
330
184
330
185
330
186
330
183
 75
     1
 76
     2
 52
45.0
 41
0.1
 77
     0
 78
     1
 53
45.0
 43
62.7811309658083
 44
-72.3161373035813
 45
-0.1414213562373095
 46
0.0
 79
     0
 98
        1
 10
0.0
 20
0.0
  0
HATCH
  5
1ED
330
52
100
AcDbEntity
  8
1
  6
Continuous
 62
     2
100
AcDbHatch
 10
0.0
 20
0.0
 30
0.0
210
0.0
220
0.0
230
1.0
  2
CUSTOM9
 70
     0
 71
     1
 91
        2
 92
        1
 93
        4
 72
     2
 10
-156.9425760794466
 20
-300.404584417728
 40
1.458034083651616
 50
117.5481481756598
 51
242.451851824337
 73
     1
 72
     2
 10
-156.6616361876132
 20
-299.8660094074246
 40
2.065479772208637
 50
242.4518518243384
 51
297.548148175686
 73
     1
 72
     2
 10
-156.38069629578
 20
-300.404584417728
 40
1.45803408365203
 50
297.5481481757055
 51
422.4518518242976
 73
     1
 72
     2
 10
-156.6616361876132
 20
-300.9431594280308
 40
2.065479772208694
 50
62.45185182430819
 51
117.5481481756674
 73
     1
 97
        4
330
1A1
330
19E
330
1A0
330
19F
 92
       16
 93
        4
 72
     2
 10
-156.6616361876132
 20
-300.2478532396075
 40
0.5179085730132806
 50
38.12041979716469
 51
141.8795802028567
 73
     1
 72
     2
 10
-156.4618961512672
 20
-300.404584417728
 40
0.771799778679551
 50
141.879580202828
 51
218.120419797162
 73
     1
 72
     2
 10
-156.6616361876132
 20
-300.5613155958479
 40
0.5179085730138424
 50
218.1204197971879
 51
321.8795802027908
 73
     1
 72
     2
 10
-156.8613762239596
 20
-300.404584417728
 40
0.7717997786795351
 50
321.8795802028432
 51
398.1204197971668
 73
     1
 97
        4
330
184
330
185
330
186
330
183
 75
     1
 76
     2
 52
45.0
 41
0.1
 77
     0
 78
     1
 53
45.0
 43
62.7811309658083
 44
-72.3161373035813
 45
-0.1414213562373095
 46
0.0
 79
     0
 98
        1
 10
0.0
 20
0.0
  0
HATCH
  5
1EE
330
52
100
AcDbEntity
  8
1
  6
Continuous
 62
     2
100
AcDbHatch
 10
0.0
 20
0.0
 30
0.0
210
0.0
220
0.0
230
1.0
  2
CUSTOM10
 70
     0
 71
     1
 91
        2
 92
        1
 93
        6
 72
     1
 10
-161.2174509340067
 20
-295.5184891796478
 11
-161.2174509340067
 21
-298.5722987034589
 72
     1
 10
-161.2174509340067
 20
-298.5722987034589
 11
-159.9769465237527
 21
-298.5722987034589
 72
     1
 10
-159.9769465237527
 20
-298.5722987034589
 11
-159.9769465237527
 21
-297.6292204623152
 72
     1
 10
-159.9769465237527
 20
-297.6292204623152
 11
-159.2181789359723
 21
-297.6292204623152
 72
     2
 10
-159.2181789359723
 20
-296.5738548209815
 40
1.055365641333651
 50
270.0
 51
450.0
 73
     1
 72
     1
 10
-159.2181789359723
 20
-295.5184891796478
 11
-161.2174509340067
 21
-295.5184891796478
 97
        6
330
1AB
330
138
330
12E
330
12D
330
13A
330
139
 92
       16
 93
        4
 72
     1
 10
-159.6596514622107
 20
-296.1815950250878
 11
-159.9769465237527
 21
-296.1815950250878
 72
     1
 10
-159.9769465237527
 20
-296.1815950250878
 11
-159.9769465237527
 21
-296.8873226744301
 72
     1
 10
-159.9769465237527
 20
-296.8873226744301
 11
-159.6596514622107
 21
-296.8873226744301
 72
     2
 10
-159.6596514622107
 20
-296.534458849759
 40
0.3528638246710898
 50
270.0
 51
450.0
 73
     1
 97
        4
330
13B
330
12C
330
13C
330
197
 75
     1
 76
     2
 52
45.0
 41
0.1
 77
     0
 78
     1
 53
45.0
 43
62.7811309658083
 44
-72.3161373035813
 45
-0.1414213562373095
 46
0.0
 79
     0
 98
        1
 10
0.0
 20
0.0
  0
HATCH
  5
1EF
330
52
100
AcDbEntity
  8
1
  6
Continuous
 62
     2
100
AcDbHatch
 10
0.0
 20
0.0
 30
0.0
210
0.0
220
0.0
230
1.0
  2
CUSTOM11
 70
     0
 71
     1
 91
        2
 92
        1
 93
        6
 72
     1
 10
-161.2174509340067
 20
-295.5184891796478
 11
-161.2174509340067
 21
-298.5722987034589
 72
     1
 10
-161.2174509340067
 20
-298.5722987034589
 11
-159.9769465237527
 21
-298.5722987034589
 72
     1
 10
-159.9769465237527
 20
-298.5722987034589
 11
-159.9769465237527
 21
-297.6292204623152
 72
     1
 10
-159.9769465237527
 20
-297.6292204623152
 11
-159.2181789359723
 21
-297.6292204623152
 72
     2
 10
-159.2181789359723
 20
-296.5738548209815
 40
1.055365641333651
 50
270.0
 51
450.0
 73
     1
 72
     1
 10
-159.2181789359723
 20
-295.5184891796478
 11
-161.2174509340067
 21
-295.5184891796478
 97
        6
330
1AB
330
138
330
12E
330
12D
330
13A
330
139
 92
       16
 93
        4
 72
     1
 10
-159.6596514622107
 20
-296.1815950250878
 11
-159.9769465237527
 21
-296.1815950250878
 72
     1
 10
-159.9769465237527
 20
-296.1815950250878
 11
-159.9769465237527
 21
-296.8873226744301
 72
     1
 10
-159.9769465237527
 20
-296.8873226744301
 11
-159.6596514622107
 21
-296.8873226744301
 72
     2
 10
-159.6596514622107
 20
-296.534458849759
 40
0.3528638246710898
 50
270.0
 51
450.0
 73
     1
 97
        4
330
13B
330
12C
330
13C
330
197
 75
     1
 76
     2
 52
45.0
 41
0.1
 77
     0
 78
     1
 53
45.0
 43
62.7811309658083
 44
-72.3161373035813
 45
-0.1414213562373095
 46
0.0
 79
     0
 98
        1
 10
0.0
 20
0.0
  0
HATCH
  5
1F0
330
52
100
AcDbEntity
  8
1
  6
Continuous
 62
     2
100
AcDbHatch
 10
0.0
 20
0.0
 30
0.0
210
0.0
220
0.0
230
1.0
  2
CUSTOM12
 70
     0
 71
     1
 91
        1
 92
        1
 93
       12
 72
     1
 10
-141.6031677395735
 20
-295.5184891796478
 11
-140.2004435218263
 21
-295.5184891796478
 72
     1
 10
-140.2004435218263
 20
-295.5184891796478
 11
-141.5029731525929
 21
-296.991439709684
 72
     1
 10
-141.5029731525929
 20
-296.991439709684
 11
-140.1050201056526
 21
-298.5722987034589
 72
     1
 10
-140.1050201056526
 20
-298.5722987034589
 11
-141.5077443234009
 21
-298.5722987034589
 72
     1
 10
-141.5077443234009
 20
-298.5722987034589
 11
-142.2043352614663
 21
-297.7845669181652
 72
     1
 10
-142.2043352614663
 20
-297.7845669181652
 11
-142.9009261995321
 21
-298.5722987034589
 72
     1
 10
-142.9009261995321
 20
-298.5722987034589
 11
-144.3036504172802
 21
-298.5722987034589
 72
     1
 10
-144.3036504172802
 20
-298.5722987034589
 11
-142.9056973703399
 21
-296.991439709684
 72
     1
 10
-142.9056973703399
 20
-296.991439709684
 11
-144.2082270011074
 21
-295.5184891796478
 72
     1
 10
-144.2082270011074
 20
-295.5184891796478
 11
-142.8055027833582
 21
-295.5184891796478
 72
     1
 10
-142.8055027833582
 20
-295.5184891796478
 11
-142.2043352614663
 21
-296.1983125012033
 72
     1
 10
-142.2043352614663
 20
-296.1983125012033
 11
-141.6031677395735
 21
-295.5184891796478
 97
       12
330
107
330
160
330
15F
330
15E
330
15D
330
108
330
109
330
105
330
106
330
163
330
162
330
161
 75
     1
 76
     2
 52
45.0
 41
0.1
 77
     0
 78
     1
 53
45.0
 43
62.7811309658083
 44
-72.3161373035813
 45
-0.1414213562373095
 46
0.0
 79
     0
 98
        1
 10
0.0
 20
0.0
  0
HATCH
  5
1F1
330
52
100
AcDbEntity
  8
1
  6
Continuous
 62
     2
100
AcDbHatch
 10
0.0
 20
0.0
 30
0.0
210
0.0
220
0.0
230
1.0
  2
CUSTOM13
 70
     0
 71
     1
 91
        1
 92
        1
 93
       12
 72
     1
 10
-141.6031677395735
 20
-295.5184891796478
 11
-140.2004435218263
 21
-295.5184891796478
 72
     1
 10
-140.2004435218263
 20
-295.5184891796478
 11
-141.5029731525929
 21
-296.991439709684
 72
     1
 10
-141.5029731525929
 20
-296.991439709684
 11
-140.1050201056526
 21
-298.5722987034589
 72
     1
 10
-140.1050201056526
 20
-298.5722987034589
 11
-141.5077443234009
 21
-298.5722987034589
 72
     1
 10
-141.5077443234009
 20
-298.5722987034589
 11
-142.2043352614663
 21
-297.7845669181652
 72
     1
 10
-142.2043352614663
 20
-297.7845669181652
 11
-142.9009261995321
 21
-298.5722987034589
 72
     1
 10
-142.9009261995321
 20
-298.5722987034589
 11
-144.3036504172802
 21
-298.5722987034589
 72
     1
 10
-144.3036504172802
 20
-298.5722987034589
 11
-142.9056973703399
 21
-296.991439709684
 72
     1
 10
-142.9056973703399
 20
-296.991439709684
 11
-144.2082270011074
 21
-295.5184891796478
 72
     1
 10
-144.2082270011074
 20
-295.5184891796478
 11
-142.8055027833582
 21
-295.5184891796478
 72
     1
 10
-142.8055027833582
 20
-295.5184891796478
 11
-142.2043352614663
 21
-296.1983125012033
 72
     1
 10
-142.2043352614663
 20
-296.1983125012033
 11
-141.6031677395735
 21
-295.5184891796478
 97
       12
330
107
330
160
330
15F
330
15E
330
15D
330
108
330
109
330
105
330
106
330
163
330
162
330
161
 75
     1
 76
     2
 52
45.0
 41
0.1
 77
     0
 78
     1
 53
45.0
 43
62.7811309658083
 44
-72.3161373035813
 45
-0.1414213562373095
 46
0.0
 79
     0
 98
        1
 10
0.0
 20
0.0
  0
HATCH
  5
1F2
330
52
100
AcDbEntity
  8
1
  6
Continuous
 62
     2
100
AcDbHatch
 10
0.0
 20
0.0
 30
0.0
210
0.0
220
0.0
230
1.0
  2
CUSTOM14
 70
     0
 71
     1
 91
        1
 92
        1
 93
        4
 72
     1
 10
-144.4229296874971
 20
-295.5184891796478
 11
-144.4229296874971
 21
-298.5722987034589
 72
     1
 10
-144.4229296874971
 20
-298.5722987034589
 11
-145.66343409775
 21
-298.5722987034589
 72
     1
 10
-145.66343409775
 20
-298.5722987034589
 11
-145.66343409775
 21
-295.5184891796478
 72
     1
 10
-145.66343409775
 20
-295.5184891796478
 11
-144.4229296874971
 21
-295.5184891796478
 97
        4
330
15B
330
10A
330
15A
330
15C
 75
     1
 76
     2
 52
45.0
 41
0.1
 77
     0
 78
     1
 53
45.0
 43
62.7811309658083
 44
-72.3161373035813
 45
-0.1414213562373095
 46
0.0
 79
     0
 98
        1
 10
0.0
 20
0.0
  0
HATCH
  5
1F3
330
52
100
AcDbEntity
  8
1
  6
Continuous
 62
     2
100
AcDbHatch
 10
0.0
 20
0.0
 30
0.0
210
0.0
220
0.0
230
1.0
  2
CUSTOM15
 70
     0
 71
     1
 91
        1
 92
        1
 93
        4
 72
     1
 10
-144.4229296874971
 20
-295.5184891796478
 11
-144.4229296874971
 21
-298.5722987034589
 72
     1
 10
-144.4229296874971
 20
-298.5722987034589
 11
-145.66343409775
 21
-298.5722987034589
 72
     1
 10
-145.66343409775
 20
-298.5722987034589
 11
-145.66343409775
 21
-295.5184891796478
 72
     1
 10
-145.66343409775
 20
-295.5184891796478
 11
-144.4229296874971
 21
-295.5184891796478
 97
        4
330
15B
330
10A
330
15A
330
15C
 75
     1
 76
     2
 52
45.0
 41
0.1
 77
     0
 78
     1
 53
45.0
 43
62.7811309658083
 44
-72.3161373035813
 45
-0.1414213562373095
 46
0.0
 79
     0
 98
        1
 10
0.0
 20
0.0
  0
HATCH
  5
1F4
330
52
100
AcDbEntity
  8
1
  6
Continuous
 62
     2
100
AcDbHatch
 10
0.0
 20
0.0
 30
0.0
210
0.0
220
0.0
230
1.0
  2
CUSTOM16
 70
     0
 71
     1
 91
        2
 92
        1
 93
        8
 72
     1
 10
-144.8133736910291
 20
-301.9314891796332
 11
-146.053878101283
 21
-301.9314891796332
 72
     1
 10
-146.053878101283
 20
-301.9314891796332
 11
-146.2653581547588
 21
-301.3905286354154
 72
     1
 10
-146.2653581547588
 20
-301.3905286354154
 11
-147.3977997314327
 21
-301.3905286354154
 72
     1
 10
-147.3977997314327
 20
-301.3905286354154
 11
-147.6092797849085
 21
-301.9314891796332
 72
     1
 10
-147.6092797849085
 20
-301.9314891796332
 11
-148.8497841951614
 21
-301.9314891796332
 72
     1
 10
-148.8497841951614
 20
-301.9314891796332
 11
-147.4518311482222
 21
-298.8776796558221
 72
     1
 10
-147.4518311482222
 20
-298.8776796558221
 11
-146.2113267379694
 21
-298.8776796558221
 72
     1
 10
-146.2113267379694
 20
-298.8776796558221
 11
-144.8133736910291
 21
-301.9314891796332
 97
        8
330
156
330
110
330
155
330
158
330
10D
330
157
330
10E
330
10F
 92
       16
 93
        3
 72
     1
 10
-147.1317441802876
 20
-300.7099653701088
 11
-146.5314137059051
 21
-300.7099653701088
 72
     1
 10
-146.5314137059051
 20
-300.7099653701088
 11
-146.8315789430953
 21
-299.9421504041221
 72
     1
 10
-146.8315789430953
 20
-299.9421504041221
 11
-147.1317441802876
 21
-300.7099653701088
 97
        3
330
10C
330
10B
330
159
 75
     1
 76
     2
 52
45.0
 41
0.1
 77
     0
 78
     1
 53
45.0
 43
62.7811309658083
 44
-72.3161373035813
 45
-0.1414213562373095
 46
0.0
 79
     0
 98
        1
 10
0.0
 20
0.0
  0
HATCH
  5
1F5
330
52
100
AcDbEntity
  8
1
  6
Continuous
 62
     2
100
AcDbHatch
 10
0.0
 20
0.0
 30
0.0
210
0.0
220
0.0
230
1.0
  2
CUSTOM17
 70
     0
 71
     1
 91
        2
 92
        1
 93
        8
 72
     1
 10
-144.8133736910291
 20
-301.9314891796332
 11
-146.053878101283
 21
-301.9314891796332
 72
     1
 10
-146.053878101283
 20
-301.9314891796332
 11
-146.2653581547588
 21
-301.3905286354154
 72
     1
 10
-146.2653581547588
 20
-301.3905286354154
 11
-147.3977997314327
 21
-301.3905286354154
 72
     1
 10
-147.3977997314327
 20
-301.3905286354154
 11
-147.6092797849085
 21
-301.9314891796332
 72
     1
 10
-147.6092797849085
 20
-301.9314891796332
 11
-148.8497841951614
 21
-301.9314891796332
 72
     1
 10
-148.8497841951614
 20
-301.9314891796332
 11
-147.4518311482222
 21
-298.8776796558221
 72
     1
 10
-147.4518311482222
 20
-298.8776796558221
 11
-146.2113267379694
 21
-298.8776796558221
 72
     1
 10
-146.2113267379694
 20
-298.8776796558221
 11
-144.8133736910291
 21
-301.9314891796332
 97
        8
330
156
330
110
330
155
330
158
330
10D
330
157
330
10E
330
10F
 92
       16
 93
        3
 72
     1
 10
-147.1317441802876
 20
-300.7099653701088
 11
-146.5314137059051
 21
-300.7099653701088
 72
     1
 10
-146.5314137059051
 20
-300.7099653701088
 11
-146.8315789430953
 21
-299.9421504041221
 72
     1
 10
-146.8315789430953
 20
-299.9421504041221
 11
-147.1317441802876
 21
-300.7099653701088
 97
        3
330
10C
330
10B
330
159
 75
     1
 76
     2
 52
45.0
 41
0.1
 77
     0
 78
     1
 53
45.0
 43
62.7811309658083
 44
-72.3161373035813
 45
-0.1414213562373095
 46
0.0
 79
     0
 98
        1
 10
0.0
 20
0.0
  0
HATCH
  5
1F6
330
52
100
AcDbEntity
  8
1
  6
Continuous
 62
     2
100
AcDbHatch
 10
0.0
 20
0.0
 30
0.0
210
0.0
220
0.0
230
1.0
  2
CUSTOM18
 70
     0
 71
     1
 91
        1
 92
        1
 93
        8
 72
     1
 10
-151.0072963343437
 20
-298.8776796558221
 11
-151.0072963343437
 21
-299.6629449619458
 72
     1
 10
-151.0072963343437
 20
-299.6629449619458
 11
-150.196197296869
 21
-299.6629449619458
 72
     1
 10
-150.196197296869
 20
-299.6629449619458
 11
-150.196197296869
 21
-301.9314891796332
 72
     1
 10
-150.196197296869
 20
-301.9314891796332
 11
-149.0034045947026
 21
-301.9314891796332
 72
     1
 10
-149.0034045947026
 20
-301.9314891796332
 11
-149.0034045947026
 21
-299.6629449619458
 72
     1
 10
-149.0034045947026
 20
-299.6629449619458
 11
-148.19230555723
 21
-299.6629449619458
 72
     1
 10
-148.19230555723
 20
-299.6629449619458
 11
-148.19230555723
 21
-298.8776796558221
 72
     1
 10
-148.19230555723
 20
-298.8776796558221
 11
-151.0072963343437
 21
-298.8776796558221
 97
        8
330
152
330
151
330
150
330
111
330
112
330
154
330
113
330
153
 75
     1
 76
     2
 52
45.0
 41
0.1
 77
     0
 78
     1
 53
45.0
 43
62.7811309658083
 44
-72.3161373035813
 45
-0.1414213562373095
 46
0.0
 79
     0
 98
        1
 10
0.0
 20
0.0
  0
HATCH
  5
1F7
330
52
100
AcDbEntity
  8
1
  6
Continuous
 62
     2
100
AcDbHatch
 10
0.0
 20
0.0
 30
0.0
210
0.0
220
0.0
230
1.0
  2
CUSTOM19
 70
     0
 71
     1
 91
        1
 92
        1
 93
        8
 72
     1
 10
-151.0072963343437
 20
-298.8776796558221
 11
-151.0072963343437
 21
-299.6629449619458
 72
     1
 10
-151.0072963343437
 20
-299.6629449619458
 11
-150.196197296869
 21
-299.6629449619458
 72
     1
 10
-150.196197296869
 20
-299.6629449619458
 11
-150.196197296869
 21
-301.9314891796332
 72
     1
 10
-150.196197296869
 20
-301.9314891796332
 11
-149.0034045947026
 21
-301.9314891796332
 72
     1
 10
-149.0034045947026
 20
-301.9314891796332
 11
-149.0034045947026
 21
-299.6629449619458
 72
     1
 10
-149.0034045947026
 20
-299.6629449619458
 11
-148.19230555723
 21
-299.6629449619458
 72
     1
 10
-148.19230555723
 20
-299.6629449619458
 11
-148.19230555723
 21
-298.8776796558221
 72
     1
 10
-148.19230555723
 20
-298.8776796558221
 11
-151.0072963343437
 21
-298.8776796558221
 97
        8
330
152
330
151
330
150
330
111
330
112
330
154
330
113
330
153
 75
     1
 76
     2
 52
45.0
 41
0.1
 77
     0
 78
     1
 53
45.0
 43
62.7811309658083
 44
-72.3161373035813
 45
-0.1414213562373095
 46
0.0
 79
     0
 98
        1
 10
0.0
 20
0.0
  0
HATCH
  5
1F8
330
52
100
AcDbEntity
  8
1
  6
Continuous
 62
     2
100
AcDbHatch
 10
0.0
 20
0.0
 30
0.0
210
0.0
220
0.0
230
1.0
  2
CUSTOM20
 70
     0
 71
     1
 91
        1
 92
        1
 93
       10
 72
     1
 10
-148.3352897506046
 20
-295.5184891796478
 11
-149.528082452771
 21
-295.5184891796478
 72
     1
 10
-149.528082452771
 20
-295.5184891796478
 11
-149.528082452771
 21
-298.5722987034589
 72
     1
 10
-149.528082452771
 20
-298.5722987034589
 11
-148.3352897506046
 21
-298.5722987034589
 72
     1
 10
-148.3352897506046
 20
-298.5722987034589
 11
-148.3352897506046
 21
-297.2635231932542
 72
     1
 10
-148.3352897506046
 20
-297.2635231932542
 11
-147.0947853403505
 21
-298.5722987034589
 72
     1
 10
-147.0947853403505
 20
-298.5722987034589
 11
-145.9019926381839
 21
-298.5722987034589
 72
     1
 10
-145.9019926381839
 20
-298.5722987034589
 11
-145.9019926381839
 21
-295.5184891796478
 72
     1
 10
-145.9019926381839
 20
-295.5184891796478
 11
-147.0947853403505
 21
-295.5184891796478
 72
     1
 10
-147.0947853403505
 20
-295.5184891796478
 11
-147.0947853403505
 21
-296.8272646898529
 72
     1
 10
-147.0947853403505
 20
-296.8272646898529
 11
-148.3352897506046
 21
-295.5184891796478
 97
       10
330
14C
330
116
330
117
330
118
330
119
330
14F
330
114
330
14E
330
14D
330
115
 75
     1
 76
     2
 52
45.0
 41
0.1
 77
     0
 78
     1
 53
45.0
 43
62.7811309658083
 44
-72.3161373035813
 45
-0.1414213562373095
 46
0.0
 79
     0
 98
        1
 10
0.0
 20
0.0
  0
HATCH
  5
1F9
330
52
100
AcDbEntity
  8
1
  6
Continuous
 62
     2
100
AcDbHatch
 10
0.0
 20
0.0
 30
0.0
210
0.0
220
0.0
230
1.0
  2
CUSTOM21
 70
     0
 71
     1
 91
        1
 92
        1
 93
       10
 72
     1
 10
-148.3352897506046
 20
-295.5184891796478
 11
-149.528082452771
 21
-295.5184891796478
 72
     1
 10
-149.528082452771
 20
-295.5184891796478
 11
-149.528082452771
 21
-298.5722987034589
 72
     1
 10
-149.528082452771
 20
-298.5722987034589
 11
-148.3352897506046
 21
-298.5722987034589
 72
     1
 10
-148.3352897506046
 20
-298.5722987034589
 11
-148.3352897506046
 21
-297.2635231932542
 72
     1
 10
-148.3352897506046
 20
-297.2635231932542
 11
-147.0947853403505
 21
-298.5722987034589
 72
     1
 10
-147.0947853403505
 20
-298.5722987034589
 11
-145.9019926381839
 21
-298.5722987034589
 72
     1
 10
-145.9019926381839
 20
-298.5722987034589
 11
-145.9019926381839
 21
-295.5184891796478
 72
     1
 10
-145.9019926381839
 20
-295.5184891796478
 11
-147.0947853403505
 21
-295.5184891796478
 72
     1
 10
-147.0947853403505
 20
-295.5184891796478
 11
-147.0947853403505
 21
-296.8272646898529
 72
     1
 10
-147.0947853403505
 20
-296.8272646898529
 11
-148.3352897506046
 21
-295.5184891796478
 97
       10
330
14C
330
116
330
117
330
118
330
119
330
14F
330
114
330
14E
330
14D
330
115
 75
     1
 76
     2
 52
45.0
 41
0.1
 77
     0
 78
     1
 53
45.0
 43
62.7811309658083
 44
-72.3161373035813
 45
-0.1414213562373095
 46
0.0
 79
     0
 98
        1
 10
0.0
 20
0.0
  0
HATCH
  5
1FA
330
52
100
AcDbEntity
  8
1
  6
Continuous
 62
     2
100
AcDbHatch
 10
0.0
 20
0.0
 30
0.0
210
0.0
220
0.0
230
1.0
  2
CUSTOM22
 70
     0
 71
     1
 91
        1
 92
        1
 93
       10
 72
     1
 10
-153.5837285710232
 20
-298.8776796558221
 11
-154.7765212731907
 21
-298.8776796558221
 72
     1
 10
-154.7765212731907
 20
-298.8776796558221
 11
-154.7765212731907
 21
-301.9314891796332
 72
     1
 10
-154.7765212731907
 20
-301.9314891796332
 11
-153.5837285710232
 21
-301.9314891796332
 72
     1
 10
-153.5837285710232
 20
-301.9314891796332
 11
-153.5837285710232
 21
-300.6227136694287
 72
     1
 10
-153.5837285710232
 20
-300.6227136694287
 11
-152.3432241607702
 21
-301.9314891796332
 72
     1
 10
-152.3432241607702
 20
-301.9314891796332
 11
-151.1504314586038
 21
-301.9314891796332
 72
     1
 10
-151.1504314586038
 20
-301.9314891796332
 11
-151.1504314586038
 21
-298.8776796558221
 72
     1
 10
-151.1504314586038
 20
-298.8776796558221
 11
-152.3432241607702
 21
-298.8776796558221
 72
     1
 10
-152.3432241607702
 20
-298.8776796558221
 11
-152.3432241607702
 21
-300.1864551660273
 72
     1
 10
-152.3432241607702
 20
-300.1864551660273
 11
-153.5837285710232
 21
-298.8776796558221
 97
       10
330
11B
330
11C
330
11D
330
149
330
11E
330
11F
330
148
330
14B
330
14A
330
11A
 75
     1
 76
     2
 52
45.0
 41
0.1
 77
     0
 78
     1
 53
45.0
 43
62.7811309658083
 44
-72.3161373035813
 45
-0.1414213562373095
 46
0.0
 79
     0
 98
        1
 10
0.0
 20
0.0
  0
HATCH
  5
1FB
330
52
100
AcDbEntity
  8
1
  6
Continuous
 62
     2
100
AcDbHatch
 10
0.0
 20
0.0
 30
0.0
210
0.0
220
0.0
230
1.0
  2
CUSTOM23
 70
     0
 71
     1
 91
        1
 92
        1
 93
       10
 72
     1
 10
-153.5837285710232
 20
-298.8776796558221
 11
-154.7765212731907
 21
-298.8776796558221
 72
     1
 10
-154.7765212731907
 20
-298.8776796558221
 11
-154.7765212731907
 21
-301.9314891796332
 72
     1
 10
-154.7765212731907
 20
-301.9314891796332
 11
-153.5837285710232
 21
-301.9314891796332
 72
     1
 10
-153.5837285710232
 20
-301.9314891796332
 11
-153.5837285710232
 21
-300.6227136694287
 72
     1
 10
-153.5837285710232
 20
-300.6227136694287
 11
-152.3432241607702
 21
-301.9314891796332
 72
     1
 10
-152.3432241607702
 20
-301.9314891796332
 11
-151.1504314586038
 21
-301.9314891796332
 72
     1
 10
-151.1504314586038
 20
-301.9314891796332
 11
-151.1504314586038
 21
-298.8776796558221
 72
     1
 10
-151.1504314586038
 20
-298.8776796558221
 11
-152.3432241607702
 21
-298.8776796558221
 72
     1
 10
-152.3432241607702
 20
-298.8776796558221
 11
-152.3432241607702
 21
-300.1864551660273
 72
     1
 10
-152.3432241607702
 20
-300.1864551660273
 11
-153.5837285710232
 21
-298.8776796558221
 97
       10
330
11B
330
11C
330
11D
330
149
330
11E
330
11F
330
148
330
14B
330
14A
330
11A
 75
     1
 76
     2
 52
45.0
 41
0.1
 77
     0
 78
     1
 53
45.0
 43
62.7811309658083
 44
-72.3161373035813
 45
-0.1414213562373095
 46
0.0
 79
     0
 98
        1
 10
0.0
 20
0.0
  0
HATCH
  5
1FC
330
52
100
AcDbEntity
  8
1
  6
Continuous
 62
     2
100
AcDbHatch
 10
0.0
 20
0.0
 30
0.0
210
0.0
220
0.0
230
1.0
  2
CUSTOM24
 70
     0
 71
     1
 91
        1
 92
        1
 93
       12
 72
     1
 10
-154.5855235099585
 20
-295.5184891796478
 11
-154.5855235099585
 21
-298.5722987034589
 72
     1
 10
-154.5855235099585
 20
-298.5722987034589
 11
-155.778316212125
 21
-298.5722987034589
 72
     1
 10
-155.778316212125
 20
-298.5722987034589
 11
-155.778316212125
 21
-297.4380265946152
 72
     1
 10
-155.778316212125
 20
-297.4380265946152
 11
-156.8279737900324
 21
-297.4380265946152
 72
     1
 10
-156.8279737900324
 20
-297.4380265946152
 11
-156.8279737900324
 21
-298.5722987034589
 72
     1
 10
-156.8279737900324
 20
-298.5722987034589
 11
-158.020766492199
 21
-298.5722987034589
 72
     1
 10
-158.020766492199
 20
-298.5722987034589
 11
-158.020766492199
 21
-295.5184891796478
 72
     1
 10
-158.020766492199
 20
-295.5184891796478
 11
-156.8279737900324
 21
-295.5184891796478
 72
     1
 10
-156.8279737900324
 20
-295.5184891796478
 11
-156.8279737900324
 21
-296.5873225129824
 72
     1
 10
-156.8279737900324
 20
-296.5873225129824
 11
-155.778316212125
 21
-296.5873225129824
 72
     1
 10
-155.778316212125
 20
-296.5873225129824
 11
-155.778316212125
 21
-295.5184891796478
 72
     1
 10
-155.778316212125
 20
-295.5184891796478
 11
-154.5855235099585
 21
-295.5184891796478
 97
       12
330
143
330
142
330
141
330
129
330
12A
330
140
330
12B
330
13F
330
13E
330
13D
330
127
330
128
 75
     1
 76
     2
 52
45.0
 41
0.1
 77
     0
 78
     1
 53
45.0
 43
62.7811309658083
 44
-72.3161373035813
 45
-0.1414213562373095
 46
0.0
 79
     0
 98
        1
 10
0.0
 20
0.0
  0
HATCH
  5
1FD
330
52
100
AcDbEntity
  8
1
  6
Continuous
 62
     2
100
AcDbHatch
 10
0.0
 20
0.0
 30
0.0
210
0.0
220
0.0
230
1.0
  2
CUSTOM25
 70
     0
 71
     1
 91
        1
 92
        1
 93
       12
 72
     1
 10
-154.5855235099585
 20
-295.5184891796478
 11
-154.5855235099585
 21
-298.5722987034589
 72
     1
 10
-154.5855235099585
 20
-298.5722987034589
 11
-155.778316212125
 21
-298.5722987034589
 72
     1
 10
-155.778316212125
 20
-298.5722987034589
 11
-155.778316212125
 21
-297.4380265946152
 72
     1
 10
-155.778316212125
 20
-297.4380265946152
 11
-156.8279737900324
 21
-297.4380265946152
 72
     1
 10
-156.8279737900324
 20
-297.4380265946152
 11
-156.8279737900324
 21
-298.5722987034589
 72
     1
 10
-156.8279737900324
 20
-298.5722987034589
 11
-158.020766492199
 21
-298.5722987034589
 72
     1
 10
-158.020766492199
 20
-298.5722987034589
 11
-158.020766492199
 21
-295.5184891796478
 72
     1
 10
-158.020766492199
 20
-295.5184891796478
 11
-156.8279737900324
 21
-295.5184891796478
 72
     1
 10
-156.8279737900324
 20
-295.5184891796478
 11
-156.8279737900324
 21
-296.5873225129824
 72
     1
 10
-156.8279737900324
 20
-296.5873225129824
 11
-155.778316212125
 21
-296.5873225129824
 72
     1
 10
-155.778316212125
 20
-296.5873225129824
 11
-155.778316212125
 21
-295.5184891796478
 72
     1
 10
-155.778316212125
 20
-295.5184891796478
 11
-154.5855235099585
 21
-295.5184891796478
 97
       12
330
143
330
142
330
141
330
129
330
12A
330
140
330
12B
330
13F
330
13E
330
13D
330
127
330
128
 75
     1
 76
     2
 52
45.0
 41
0.1
 77
     0
 78
     1
 53
45.0
 43
62.7811309658083
 44
-72.3161373035813
 45
-0.1414213562373095
 46
0.0
 79
     0
 98
        1
 10
0.0
 20
0.0
  0
ENDBLK
  5
54
330
52
100
AcDbEntity
  8
0
100
AcDbBlockEnd
  0
BLOCK
  5
56
330
55
100
AcDbEntity
  8
0
100
AcDbBlockBegin
  2
_punkt
 70
     0
 10
-42.70821969616975
 20
-309.2249891796495
 30
0.0
  3
_punkt
  1

  0
LINE
  5
1FE
330
55
100
AcDbEntity
  8
1
  6
Continuous
 62
     2
100
AcDbLine
 10
-42.70821969616969
 20
-309.2249891796495
 30
0.0
 11
-42.70821969616969
 21
-314.224989179649
 31
0.0
  0
LINE
  5
1FF
330
55
100
AcDbEntity
  8
1
  6
Continuous
 62
     2
100
AcDbLine
 10
-42.70821969616969
 20
-309.2249891796495
 30
0.0
 11
-37.70821969617208
 21
-309.2249891796495
 31
0.0
  0
ENDBLK
  5
57
330
55
100
AcDbEntity
  8
0
100
AcDbBlockEnd
  0
BLOCK
  5
5B
330
58
100
AcDbEntity
  8
0
100
AcDbBlockBegin
  2
A3I_TECDOC
 70
     0
 10
-42.70821969616969
 20
-314.224989179649
 30
0.0
  3
A3I_TECDOC
  1

  0
INSERT
  5
59
330
58
100
AcDbEntity
  8
1
100
AcDbBlockReference
  2
_rahmen
 10
-42.70821969616969
 20
-314.224989179649
 30
0.0
  0
INSERT
  5
5A
330
58
100
AcDbEntity
  8
1
100
AcDbBlockReference
  2
_punkt
 10
-42.70821969616975
 20
-309.2249891796495
 30
0.0
  0
ENDBLK
  5
5C
330
58
100
AcDbEntity
  8
0
100
AcDbBlockEnd
  0
BLOCK
  5
60
330
5D
100
AcDbEntity
  8
0
100
AcDbBlockBegin
  2
1
 70
     0
 10
0.0
 20
0.0
 30
0.0
  3
1
  1

  0
INSERT
  5
5E
330
5D
100
AcDbEntity
  8
0
100
AcDbBlockReference
  2
Vordans1
 10
-260.0
 20
-141.578807050123
 30
0.0
 41
2.0
 42
2.0
 43
2.0
  0
INSERT
  5
5F
330
5D
100
AcDbEntity
  8
0
100
AcDbBlockReference
  2
A3I_TECDOC
 10
-42.70821969616969
 20
-314.224989179649
 30
0.0
  0
ENDBLK
  5
61
330
5D
100
AcDbEntity
  8
0
100
AcDbBlockEnd
  0
BLOCK
  5
89
330
82
100
AcDbEntity
  8
0
100
AcDbBlockBegin
  2
*D8
 70
     1
 10
0.0
 20
0.0
 30
0.0
  3
*D8
  1

  0
LINE
  5
83
330
82
100
AcDbEntity
  8
1
  6
Continuous
 62
     2
100
AcDbLine
 10
-97.18556042096253
 20
-86.80822294768738
 30
0.0
 11
-97.18556042096253
 21
-53.80822294768738
 31
0.0
  0
LINE
  5
84
330
82
100
AcDbEntity
  8
1
  6
Continuous
 62
     2
100
AcDbLine
 10
-129.99756395721
 20
-86.80822294768738
 30
0.0
 11
-96.43556042096253
 21
-86.80822294768738
 31
0.0
  0
LINE
  5
85
330
82
100
AcDbEntity
  8
1
  6
Continuous
 62
     2
100
AcDbLine
 10
-129.99756395721
 20
-53.80822294768738
 30
0.0
 11
-96.43556042096253
 21
-53.80822294768738
 31
0.0
  0
SOLID
  5
86
330
82
100
AcDbEntity
  8
1
 62
     2
100
AcDbTrace
 10
-97.41595229174047
 20
-85.05822294768738
 30
0.0
 11
-96.9551685501846
 21
-85.05822294768738
 31
0.0
 12
-97.18556042096253
 22
-86.80822294768738
 32
0.0
 13
-97.18556042096253
 23
-86.80822294768738
 33
0.0
  0
SOLID
  5
87
330
82
100
AcDbEntity
  8
1
 62
     2
100
AcDbTrace
 10
-96.9551685501846
 20
-55.55822294768738
 30
0.0
 11
-97.41595229174047
 21
-55.55822294768738
 31
0.0
 12
-97.18556042096253
 22
-53.80822294768738
 32
0.0
 13
-97.18556042096253
 23
-53.80822294768738
 33
0.0
  0
MTEXT
  5
88
330
82
100
AcDbEntity
  8
1
 62
     3
100
AcDbMText
 10
-97.93556042096253
 20
-73.72112920240501
 30
0.0
 40
1.75
 41
0.0
 71
     7
 72
     1
  1
\C3;33\C3;\H1.05;{\Fgdt;`}0,1
  7
CONVERTER_11
 11
0.0
 21
1.0
 31
0.0
 73
     1
 44
0.60024009603842
  0
ENDBLK
  5
8A
330
82
100
AcDbEntity
  8
0
100
AcDbBlockEnd
  0
BLOCK
  5
94
330
8D
100
AcDbEntity
  8
0
100
AcDbBlockBegin
  2
*D9
 70
     1
 10
0.0
 20
0.0
 30
0.0
  3
*D9
  1

  0
LINE
  5
8E
330
8D
100
AcDbEntity
  8
1
  6
Continuous
 62
     2
100
AcDbLine
 10
-101.8968193470926
 20
-58.90822294768741
 30
0.0
 11
-101.8968193470926
 21
-81.7082229476874
 31
0.0
  0
LINE
  5
8F
330
8D
100
AcDbEntity
  8
1
  6
Continuous
 62
     2
100
AcDbLine
 10
-138.3475639404256
 20
-58.90822294768741
 30
0.0
 11
-101.1468193470926
 21
-58.90822294768741
 31
0.0
  0
LINE
  5
90
330
8D
100
AcDbEntity
  8
1
  6
Continuous
 62
     2
100
AcDbLine
 10
-121.6475639404256
 20
-81.7082229476874
 30
0.0
 11
-101.1468193470926
 21
-81.7082229476874
 31
0.0
  0
SOLID
  5
91
330
8D
100
AcDbEntity
  8
1
 62
     2
100
AcDbTrace
 10
-101.6664274763147
 20
-60.65822294768741
 30
0.0
 11
-102.1272112178705
 21
-60.65822294768741
 31
0.0
 12
-101.8968193470926
 22
-58.90822294768741
 32
0.0
 13
-101.8968193470926
 23
-58.90822294768741
 33
0.0
  0
SOLID
  5
92
330
8D
100
AcDbEntity
  8
1
 62
     2
100
AcDbTrace
 10
-102.1272112178705
 20
-79.9582229476874
 30
0.0
 11
-101.6664274763147
 21
-79.9582229476874
 31
0.0
 12
-101.8968193470926
 22
-81.7082229476874
 32
0.0
 13
-101.8968193470926
 23
-81.7082229476874
 33
0.0
  0
MTEXT
  5
93
330
8D
100
AcDbEntity
  8
1
 62
     3
100
AcDbMText
 10
-102.8218193470926
 20
-73.6358467021775
 30
0.0
 40
1.75
 41
0.0
 71
     7
 72
     1
  1
22,8
  7
CONVERTER_11
 11
0.0
 21
1.0
 31
0.0
 73
     1
 44
0.60024009603842
  0
ENDBLK
  5
95
330
8D
100
AcDbEntity
  8
0
100
AcDbBlockEnd
  0
BLOCK
  5
9F
330
98
100
AcDbEntity
  8
0
100
AcDbBlockBegin
  2
*D10
 70
     1
 10
0.0
 20
0.0
 30
0.0
  3
*D10
  1

  0
LINE
  5
99
330
98
100
AcDbEntity
  8
1
  6
Continuous
 62
     2
100
AcDbLine
 10
-139.5975639404256
 20
-106.4963631777135
 30
0.0
 11
-120.3975639404256
 21
-106.4963631777135
 31
0.0
  0
LINE
  5
9A
330
98
100
AcDbEntity
  8
1
  6
Continuous
 62
     2
100
AcDbLine
 10
-139.5975639404256
 20
-80.4582229476874
 30
0.0
 11
-139.5975639404256
 21
-107.2463631777135
 31
0.0
  0
LINE
  5
9B
330
98
100
AcDbEntity
  8
1
  6
Continuous
 62
     2
100
AcDbLine
 10
-120.3975639404256
 20
-80.45822294768739
 30
0.0
 11
-120.3975639404256
 21
-107.2463631777135
 31
0.0
  0
SOLID
  5
9C
330
98
100
AcDbEntity
  8
1
 62
     2
100
AcDbTrace
 10
-137.8475639404256
 20
-106.2659713069356
 30
0.0
 11
-137.8475639404256
 21
-106.7267550484914
 31
0.0
 12
-139.5975639404256
 22
-106.4963631777135
 32
0.0
 13
-139.5975639404256
 23
-106.4963631777135
 33
0.0
  0
SOLID
  5
9D
330
98
100
AcDbEntity
  8
1
 62
     2
100
AcDbTrace
 10
-122.1475639404256
 20
-106.7267550484914
 30
0.0
 11
-122.1475639404256
 21
-106.2659713069356
 31
0.0
 12
-120.3975639404256
 22
-106.4963631777135
 32
0.0
 13
-120.3975639404256
 23
-106.4963631777135
 33
0.0
  0
MTEXT
  5
9E
330
98
100
AcDbEntity
  8
1
 62
     3
100
AcDbMText
 10
-132.3154019708601
 20
-105.5713631777135
 30
0.0
 40
1.75
 41
0.0
 71
     7
 72
     1
  1
19,2
  7
CONVERTER_11
 11
0.9999999999970619
 21
2.424068405545306E-6
 31
0.0
 73
     1
 44
0.60024009603842
  0
ENDBLK
  5
A0
330
98
100
AcDbEntity
  8
0
100
AcDbBlockEnd
  0
BLOCK
  5
A7
330
A3
100
AcDbEntity
  8
0
100
AcDbBlockBegin
  2
*D11
 70
     1
 10
0.0
 20
0.0
 30
0.0
  3
*D11
  1

  0
LINE
  5
A4
330
A3
100
AcDbEntity
  8
1
  6
Continuous
 62
     2
100
AcDbLine
 10
-127.7418481573411
 20
-70.84009664269763
 30
0.0
 11
-139.2735066677822
 21
-81.29794317827347
 31
0.0
  0
SOLID
  5
A5
330
A3
100
AcDbEntity
  8
1
 62
     2
100
AcDbTrace
 10
-138.1319586213668
 20
-79.95167111370186
 30
0.0
 11
-137.8224150775991
 21
-80.29299859720412
 31
0.0
 12
-139.2735066677822
 22
-81.29794317827347
 32
0.0
 13
-139.2735066677822
 23
-81.29794317827347
 33
0.0
  0
MTEXT
  5
A6
330
A3
100
AcDbEntity
  8
1
 62
     3
100
AcDbMText
 10
-137.9171181888397
 20
-78.81913236364082
 30
0.0
 40
1.75
 41
0.0
 71
     7
 72
     1
  1
\C3; max.R\C3;1,25
  7
CONVERTER_11
 11
0.7407541818852387
 21
0.6717761844688532
 31
0.0
 73
     1
 44
0.60024009603842
  0
ENDBLK
  5
A8
330
A3
100
AcDbEntity
  8
0
100
AcDbBlockEnd
  0
BLOCK
  5
B3
330
AA
100
AcDbEntity
  8
0
100
AcDbBlockBegin
  2
*D12
 70
     1
 10
0.0
 20
0.0
 30
0.0
  3
*D12
  1

  0
LINE
  5
AB
330
AA
100
AcDbEntity
  8
1
  6
Continuous
 62
     2
100
AcDbLine
 10
-122.7184003607125
 20
-100.9811005491935
 30
0.0
 11
-128.49756395721
 21
-100.9811005491935
 31
0.0
  0
LINE
  5
AC
330
AA
100
AcDbEntity
  8
1
  6
Continuous
 62
     2
100
AcDbLine
 10
-128.49756395721
 20
-100.9811005491935
 30
0.0
 11
-131.49756395721
 21
-100.9811005491935
 31
0.0
  0
LINE
  5
AD
330
AA
100
AcDbEntity
  8
1
  6
Continuous
 62
     2
100
AcDbLine
 10
-131.49756395721
 20
-100.9811005491935
 30
0.0
 11
-134.99756395721
 21
-100.9811005491935
 31
0.0
  0
LINE
  5
AE
330
AA
100
AcDbEntity
  8
1
  6
Continuous
 62
     2
100
AcDbLine
 10
-128.49756395721
 20
-86.80822294768738
 30
0.0
 11
-128.49756395721
 21
-101.7311005491935
 31
0.0
  0
LINE
  5
AF
330
AA
100
AcDbEntity
  8
1
  6
Continuous
 62
     2
100
AcDbLine
 10
-131.49756395721
 20
-86.80822294768738
 30
0.0
 11
-131.49756395721
 21
-101.7311005491935
 31
0.0
  0
SOLID
  5
B0
330
AA
100
AcDbEntity
  8
1
 62
     2
100
AcDbTrace
 10
-126.74756395721
 20
-100.7507086784156
 30
0.0
 11
-126.74756395721
 21
-101.2114924199714
 31
0.0
 12
-128.49756395721
 22
-100.9811005491935
 32
0.0
 13
-128.49756395721
 23
-100.9811005491935
 33
0.0
  0
SOLID
  5
B1
330
AA
100
AcDbEntity
  8
1
 62
     2
100
AcDbTrace
 10
-133.24756395721
 20
-101.2114924199714
 30
0.0
 11
-133.24756395721
 21
-100.7507086784156
 31
0.0
 12
-131.49756395721
 22
-100.9811005491935
 32
0.0
 13
-131.49756395721
 23
-100.9811005491935
 33
0.0
  0
MTEXT
  5
B2
330
AA
100
AcDbEntity
  8
1
 62
     3
100
AcDbMText
 10
-125.2034003607083
 20
-100.2311040277317
 30
0.0
 40
1.75
 41
0.0
 71
     7
 72
     1
  1
\C3;M\C3;3
  7
CONVERTER_11
 11
0.9999999999970619
 21
2.424068405545306E-6
 31
0.0
 73
     1
 44
0.60024009603842
  0
ENDBLK
  5
B4
330
AA
100
AcDbEntity
  8
0
100
AcDbBlockEnd
  0
ENDSEC
  0
SECTION
  2
ENTITIES
  0
INSERT
  5
62
330
1F
100
AcDbEntity
  8
1
100
AcDbBlockReference
  2
1
 10
0.0
 20
0.0
 30
0.0
  0
ENDSEC
  0
SECTION
  2
OBJECTS
  0
DICTIONARY
  5
C
330
0
100
AcDbDictionary
281
     1
  3
ACAD_GROUP
350
D
  3
ACAD_LAYOUT
350
1A
  3
ACAD_MATERIAL
350
3B
  3
ACAD_MLEADERSTYLE
350
227
  3
ACAD_MLINESTYLE
350
17
  3
ACAD_PLOTSETTINGS
350
19
  3
ACAD_PLOTSTYLENAME
350
E
  3
ACAD_TABLESTYLE
350
226
  3
ACAD_VISUALSTYLE
350
2A
  0
DICTIONARY
  5
D
102
{ACAD_REACTORS
330
C
102
}
330
C
100
AcDbDictionary
281
     1
  0
DICTIONARY
  5
1A
102
{ACAD_REACTORS
330
C
102
}
330
C
100
AcDbDictionary
281
     1
  3
Layout1
350
1E
  3
Layout2
350
26
  3
Model
350
22
  0
DICTIONARY
  5
3B
102
{ACAD_REACTORS
330
C
102
}
330
C
100
AcDbDictionary
281
     1
  3
ByBlock
350
3D
  3
ByLayer
350
3C
  3
Global
350
3E
  0
DICTIONARY
  5
227
102
{ACAD_REACTORS
330
C
102
}
330
C
100
AcDbDictionary
281
     1
  0
DICTIONARY
  5
17
102
{ACAD_REACTORS
330
C
102
}
330
C
100
AcDbDictionary
281
     1
  3
Standard
350
18
  0
DICTIONARY
  5
19
102
{ACAD_REACTORS
330
C
102
}
330
C
100
AcDbDictionary
281
     1
  0
ACDBDICTIONARYWDFLT
  5
E
102
{ACAD_REACTORS
330
C
102
}
330
C
100
AcDbDictionary
281
     1
  3
Normal
350
F
100
AcDbDictionaryWithDefault
340
F
  0
DICTIONARY
  5
226
102
{ACAD_REACTORS
330
C
102
}
330
C
100
AcDbDictionary
281
     1
  0
DICTIONARY
  5
2A
102
{ACAD_REACTORS
330
C
102
}
330
C
100
AcDbDictionary
281
     1
  3
2dWireframe
350
2F
  3
3D Hidden
350
31
  3
3dWireframe
350
30
  3
Basic
350
32
  3
Brighten
350
36
  3
ColorChange
350
3A
  3
Conceptual
350
34
  3
Dim
350
35
  3
Facepattern
350
39
  3
Flat
350
2B
  3
FlatWithEdges
350
2C
  3
Gouraud
350
2D
  3
GouraudWithEdges
350
2E
  3
Linepattern
350
38
  3
Realistic
350
33
  3
Thicken
350
37
  0
LAYOUT
  5
1E
102
{ACAD_REACTORS
330
1A
102
}
330
1A
100
AcDbPlotSettings
  1

  2
none_device
  4

  6

 40
0.0
 41
0.0
 42
0.0
 43
0.0
 44
0.0
 45
0.0
 46
0.0
 47
0.0
 48
0.0
 49
0.0
140
0.0
141
0.0
142
1.0
143
1.0
 70
   688
 72
     0
 73
     0
 74
     5
  7

 75
    16
 76
     0
 77
     2
 78
   300
147
1.0
148
0.0
149
0.0
100
AcDbLayout
  1
Layout1
 70
     1
 71
     1
 10
0.0
 20
0.0
 11
12.0
 21
9.0
 12
0.0
 22
0.0
 32
0.0
 14
1.00000000000000E+20
 24
1.00000000000000E+20
 34
1.00000000000000E+20
 15
-1.00000000000000E+20
 25
-1.00000000000000E+20
 35
-1.00000000000000E+20
146
0.0
 13
0.0
 23
0.0
 33
0.0
 16
1.0
 26
0.0
 36
0.0
 17
0.0
 27
1.0
 37
0.0
 76
     0
330
1B
  0
LAYOUT
  5
26
102
{ACAD_REACTORS
330
1A
102
}
330
1A
100
AcDbPlotSettings
  1

  2
none_device
  4

  6

 40
0.0
 41
0.0
 42
0.0
 43
0.0
 44
0.0
 45
0.0
 46
0.0
 47
0.0
 48
0.0
 49
0.0
140
0.0
141
0.0
142
1.0
143
1.0
 70
   688
 72
     0
 73
     0
 74
     5
  7

 75
    16
 76
     0
 77
     2
 78
   300
147
1.0
148
0.0
149
0.0
100
AcDbLayout
  1
Layout2
 70
     1
 71
     2
 10
0.0
 20
0.0
 11
0.0
 21
0.0
 12
0.0
 22
0.0
 32
0.0
 14
0.0
 24
0.0
 34
0.0
 15
0.0
 25
0.0
 35
0.0
146
0.0
 13
0.0
 23
0.0
 33
0.0
 16
1.0
 26
0.0
 36
0.0
 17
0.0
 27
1.0
 37
0.0
 76
     0
330
23
  0
LAYOUT
  5
22
102
{ACAD_REACTORS
330
1A
102
}
330
1A
100
AcDbPlotSettings
  1

  2
none_device
  4

  6

 40
0.0
 41
0.0
 42
0.0
 43
0.0
 44
0.0
 45
0.0
 46
0.0
 47
0.0
 48
0.0
 49
0.0
140
0.0
141
0.0
142
1.0
143
1.0
 70
  1712
 72
     0
 73
     0
 74
     0
  7

 75
     0
 76
     0
 77
     2
 78
   300
147
1.0
148
0.0
149
0.0
100
AcDbLayout
  1
Model
 70
     1
 71
     0
 10
0.0
 20
0.0
 11
12.0
 21
9.0
 12
0.0
 22
0.0
 32
0.0
 14
-457.7082196961705
 24
-314.224989179649
 34
0.0
 15
-37.70821969617208
 25
-17.22498917964902
 35
0.0
146
0.0
 13
0.0
 23
0.0
 33
0.0
 16
1.0
 26
0.0
 36
0.0
 17
0.0
 27
1.0
 37
0.0
 76
     0
330
1F
331
29
  0
MATERIAL
  5
3D
102
{ACAD_REACTORS
330
3B
102
}
102
{ACAD_XDICTIONARY
360
222
102
}
330
3B
100
AcDbMaterial
  1
ByBlock
  0
MATERIAL
  5
3C
102
{ACAD_REACTORS
330
3B
102
}
102
{ACAD_XDICTIONARY
360
220
102
}
330
3B
100
AcDbMaterial
  1
ByLayer
  0
MATERIAL
  5
3E
102
{ACAD_REACTORS
330
3B
102
}
102
{ACAD_XDICTIONARY
360
224
102
}
330
3B
100
AcDbMaterial
  1
Global
  0
MLINESTYLE
  5
18
102
{ACAD_REACTORS
330
17
102
}
330
17
100
AcDbMlineStyle
  2
Standard
 70
     0
  3

 62
   256
 51
90.0
 52
90.0
 71
     2
 49
0.5
 62
   256
  6
BYLAYER
 49
-0.5
 62
   256
  6
BYLAYER
  0
ACDBPLACEHOLDER
  5
F
102
{ACAD_REACTORS
330
E
102
}
330
E
  0
VISUALSTYLE
  5
2F
102
{ACAD_REACTORS
330
2A
102
}
102
{ACAD_XDICTIONARY
360
208
102
}
330
2A
100
AcDbVisualStyle
  2
2dWireframe
 70
     4
 71
     0
 72
     2
 73
     0
 90
        0
 40
-0.6
 41
-30.0
 62
     5
 63
     7
421
 16777215
 74
     1
 91
        4
 64
     7
 65
   257
 75
     1
175
     1
 42
1.0
 92
        0
 66
   257
 43
1.0
 76
     1
 77
     6
 78
     2
 67
     7
 79
     5
170
     0
171
     0
290
     0
174
     0
 93
        1
 44
0.0
173
     0
291
     0
 45
0.0
1001
ACAD
1000
AcDbSavedByObjectVersion
1070
     0
  0
VISUALSTYLE
  5
31
102
{ACAD_REACTORS
330
2A
102
}
102
{ACAD_XDICTIONARY
360
20C
102
}
330
2A
100
AcDbVisualStyle
  2
3D Hidden
 70
     6
 71
     1
 72
     2
 73
     2
 90
        0
 40
-0.6
 41
-30.0
 62
     5
 63
     7
421
 16777215
 74
     2
 91
        2
 64
     7
 65
   257
 75
     2
175
     1
 42
40.0
 92
        0
 66
   257
 43
1.0
 76
     1
 77
     6
 78
     2
 67
     7
 79
     3
170
     0
171
     0
290
     0
174
     0
 93
        1
 44
0.0
173
     0
291
     0
 45
0.0
1001
ACAD
1000
AcDbSavedByObjectVersion
1070
     0
  0
VISUALSTYLE
  5
30
102
{ACAD_REACTORS
330
2A
102
}
102
{ACAD_XDICTIONARY
360
20A
102
}
330
2A
100
AcDbVisualStyle
  2
3dWireframe
 70
     5
 71
     0
 72
     2
 73
     0
 90
        0
 40
-0.6
 41
-30.0
 62
     5
 63
     7
421
 16777215
 74
     1
 91
        4
 64
     7
 65
   257
 75
     1
175
     1
 42
1.0
 92
        0
 66
   257
 43
1.0
 76
     1
 77
     6
 78
     2
 67
     7
 79
     5
170
     0
171
     0
290
     0
174
     0
 93
        1
 44
0.0
173
     0
291
     0
 45
0.0
1001
ACAD
1000
AcDbSavedByObjectVersion
1070
     0
  0
VISUALSTYLE
  5
32
102
{ACAD_REACTORS
330
2A
102
}
102
{ACAD_XDICTIONARY
360
20E
102
}
330
2A
100
AcDbVisualStyle
  2
Basic
 70
     7
 71
     1
 72
     0
 73
     1
 90
        0
 40
-0.6
 41
-30.0
 62
     5
 63
     7
421
 16777215
 74
     0
 91
        4
 64
     7
 65
   257
 75
     1
175
     1
 42
1.0
 92
        8
 66
     7
 43
1.0
 76
     1
 77
     6
 78
     2
 67
     7
 79
     5
170
     0
171
     0
290
     0
174
     0
 93
        1
 44
0.0
173
     0
291
     1
 45
0.0
1001
ACAD
1000
AcDbSavedByObjectVersion
1070
     0
  0
VISUALSTYLE
  5
36
102
{ACAD_REACTORS
330
2A
102
}
102
{ACAD_XDICTIONARY
360
216
102
}
330
2A
100
AcDbVisualStyle
  2
Brighten
 70
    12
 71
     2
 72
     2
 73
     0
 90
        0
 40
-0.6
 41
-30.0
 62
     5
 63
     7
421
 16777215
 74
     1
 91
        4
 64
     7
 65
   257
 75
     1
175
     1
 42
1.0
 92
        8
 66
     7
 43
1.0
 76
     1
 77
     6
 78
     2
 67
     7
 79
     5
170
     0
171
     0
290
     0
174
     0
 93
        1
 44
50.0
173
     0
291
     1
 45
0.0
1001
ACAD
1000
AcDbSavedByObjectVersion
1070
     0
  0
VISUALSTYLE
  5
3A
102
{ACAD_REACTORS
330
2A
102
}
102
{ACAD_XDICTIONARY
360
21E
102
}
330
2A
100
AcDbVisualStyle
  2
ColorChange
 70
    16
 71
     2
 72
     2
 73
     3
 90
        0
 40
-0.6
 41
-30.0
 62
     5
 63
     8
421
  8421504
 74
     1
 91
        4
 64
     7
 65
   257
 75
     1
175
     1
 42
1.0
 92
        8
 66
     8
424
  8421504
 43
1.0
 76
     1
 77
     6
 78
     2
 67
     7
 79
     5
170
     0
171
     0
290
     0
174
     0
 93
        1
 44
0.0
173
     0
291
     1
 45
0.0
1001
ACAD
1000
AcDbSavedByObjectVersion
1070
     0
  0
VISUALSTYLE
  5
34
102
{ACAD_REACTORS
330
2A
102
}
102
{ACAD_XDICTIONARY
360
212
102
}
330
2A
100
AcDbVisualStyle
  2
Conceptual
 70
     9
 71
     3
 72
     2
 73
     0
 90
        0
 40
-0.6
 41
-30.0
 62
     5
 63
     7
421
 16777215
 74
     2
 91
        2
 64
     7
 65
   257
 75
     1
175
     1
 42
40.0
 92
        8
 66
     7
 43
1.0
 76
     1
 77
     6
 78
     2
 67
     7
 79
     3
170
     0
171
     0
290
     0
174
     0
 93
        1
 44
0.0
173
     0
291
     0
 45
0.0
1001
ACAD
1000
AcDbSavedByObjectVersion
1070
     0
  0
VISUALSTYLE
  5
35
102
{ACAD_REACTORS
330
2A
102
}
102
{ACAD_XDICTIONARY
360
214
102
}
330
2A
100
AcDbVisualStyle
  2
Dim
 70
    11
 71
     2
 72
     2
 73
     0
 90
        0
 40
-0.6
 41
-30.0
 62
     5
 63
     7
421
 16777215
 74
     1
 91
        4
 64
     7
 65
   257
 75
     1
175
     1
 42
1.0
 92
        8
 66
     7
 43
1.0
 76
     1
 77
     6
 78
     2
 67
     7
 79
     5
170
     0
171
     0
290
     0
174
     0
 93
        1
 44
-50.0
173
     0
291
     1
 45
0.0
1001
ACAD
1000
AcDbSavedByObjectVersion
1070
     0
  0
VISUALSTYLE
  5
39
102
{ACAD_REACTORS
330
2A
102
}
102
{ACAD_XDICTIONARY
360
21C
102
}
330
2A
100
AcDbVisualStyle
  2
Facepattern
 70
    15
 71
     2
 72
     2
 73
     0
 90
        0
 40
-0.6
 41
-30.0
 62
     5
 63
     7
421
 16777215
 74
     1
 91
        4
 64
     7
 65
   257
 75
     1
175
     1
 42
1.0
 92
        8
 66
     7
 43
1.0
 76
     1
 77
     6
 78
     2
 67
     7
 79
     5
170
     0
171
     0
290
     0
174
     0
 93
        1
 44
0.0
173
     0
291
     1
 45
0.0
1001
ACAD
1000
AcDbSavedByObjectVersion
1070
     0
  0
VISUALSTYLE
  5
2B
102
{ACAD_REACTORS
330
2A
102
}
102
{ACAD_XDICTIONARY
360
200
102
}
330
2A
100
AcDbVisualStyle
  2
Flat
 70
     0
 71
     2
 72
     1
 73
     1
 90
        2
 40
-0.6
 41
30.0
 62
     5
 63
     7
421
 16777215
 74
     0
 91
        4
 64
     7
 65
   257
 75
     1
175
     1
 42
1.0
 92
        8
 66
     7
 43
1.0
 76
     1
 77
     6
 78
     2
 67
     7
 79
     5
170
     0
171
     0
290
     0
174
     0
 93
       13
 44
0.0
173
     0
291
     1
 45
0.0
1001
ACAD
1000
AcDbSavedByObjectVersion
1070
     0
  0
VISUALSTYLE
  5
2C
102
{ACAD_REACTORS
330
2A
102
}
102
{ACAD_XDICTIONARY
360
202
102
}
330
2A
100
AcDbVisualStyle
  2
FlatWithEdges
 70
     1
 71
     2
 72
     1
 73
     1
 90
        2
 40
-0.6
 41
30.0
 62
     5
 63
     7
421
 16777215
 74
     1
 91
        4
 64
     7
 65
   257
 75
     1
175
     1
 42
1.0
 92
        0
 66
   257
 43
1.0
 76
     1
 77
     6
 78
     2
 67
     7
 79
     5
170
     0
171
     0
290
     0
174
     0
 93
       13
 44
0.0
173
     0
291
     1
 45
0.0
1001
ACAD
1000
AcDbSavedByObjectVersion
1070
     0
  0
VISUALSTYLE
  5
2D
102
{ACAD_REACTORS
330
2A
102
}
102
{ACAD_XDICTIONARY
360
204
102
}
330
2A
100
AcDbVisualStyle
  2
Gouraud
 70
     2
 71
     2
 72
     2
 73
     1
 90
        2
 40
-0.6
 41
30.0
 62
     5
 63
     7
421
 16777215
 74
     0
 91
        4
 64
     7
 65
   257
 75
     1
175
     1
 42
1.0
 92
        0
 66
     7
 43
1.0
 76
     1
 77
     6
 78
     2
 67
     7
 79
     5
170
     0
171
     0
290
     0
174
     0
 93
       13
 44
0.0
173
     0
291
     1
 45
0.0
1001
ACAD
1000
AcDbSavedByObjectVersion
1070
     0
  0
VISUALSTYLE
  5
2E
102
{ACAD_REACTORS
330
2A
102
}
102
{ACAD_XDICTIONARY
360
206
102
}
330
2A
100
AcDbVisualStyle
  2
GouraudWithEdges
 70
     3
 71
     2
 72
     2
 73
     1
 90
        2
 40
-0.6
 41
30.0
 62
     5
 63
     7
421
 16777215
 74
     1
 91
        4
 64
     7
 65
   257
 75
     1
175
     1
 42
1.0
 92
        0
 66
   257
 43
1.0
 76
     1
 77
     6
 78
     2
 67
     7
 79
     5
170
     0
171
     0
290
     0
174
     0
 93
       13
 44
0.0
173
     0
291
     1
 45
0.0
1001
ACAD
1000
AcDbSavedByObjectVersion
1070
     0
  0
VISUALSTYLE
  5
38
102
{ACAD_REACTORS
330
2A
102
}
102
{ACAD_XDICTIONARY
360
21A
102
}
330
2A
100
AcDbVisualStyle
  2
Linepattern
 70
    14
 71
     2
 72
     2
 73
     0
 90
        0
 40
-0.6
 41
-30.0
 62
     5
 63
     7
421
 16777215
 74
     1
 91
        4
 64
     7
 65
   257
 75
     7
175
     7
 42
1.0
 92
        8
 66
     7
 43
1.0
 76
     1
 77
     6
 78
     2
 67
     7
 79
     5
170
     0
171
     0
290
     0
174
     0
 93
        1
 44
0.0
173
     0
291
     1
 45
0.0
1001
ACAD
1000
AcDbSavedByObjectVersion
1070
     0
  0
VISUALSTYLE
  5
33
102
{ACAD_REACTORS
330
2A
102
}
102
{ACAD_XDICTIONARY
360
210
102
}
330
2A
100
AcDbVisualStyle
  2
Realistic
 70
     8
 71
     2
 72
     2
 73
     0
 90
        0
 40
-0.6
 41
-30.0
 62
     5
 63
     7
421
 16777215
 74
     1
 91
        0
 64
     7
 65
   257
 75
     1
175
     1
 42
1.0
 92
        8
 66
     8
424
  7895160
 43
1.0
 76
     1
 77
     6
 78
     2
 67
     7
 79
     5
170
     0
171
     0
290
     0
174
     0
 93
       13
 44
0.0
173
     0
291
     0
 45
0.0
1001
ACAD
1000
AcDbSavedByObjectVersion
1070
     0
  0
VISUALSTYLE
  5
37
102
{ACAD_REACTORS
330
2A
102
}
102
{ACAD_XDICTIONARY
360
218
102
}
330
2A
100
AcDbVisualStyle
  2
Thicken
 70
    13
 71
     2
 72
     2
 73
     0
 90
        0
 40
-0.6
 41
-30.0
 62
     5
 63
     7
421
 16777215
 74
     1
 91
        4
 64
     7
 65
   257
 75
     1
175
     1
 42
1.0
 92
       12
 66
     7
 43
1.0
 76
     1
 77
     6
 78
     2
 67
     7
 79
     5
170
     0
171
     0
290
     0
174
     0
 93
        1
 44
0.0
173
     0
291
     1
 45
0.0
1001
ACAD
1000
AcDbSavedByObjectVersion
1070
     0
  0
DICTIONARY
  5
222
330
3D
100
AcDbDictionary
280
     1
281
     1
  3
ACAD_XREC_ROUNDTRIP
360
223
  0
DICTIONARY
  5
220
330
3C
100
AcDbDictionary
280
     1
281
     1
  3
ACAD_XREC_ROUNDTRIP
360
221
  0
DICTIONARY
  5
224
330
3E
100
AcDbDictionary
280
     1
281
     1
  3
ACAD_XREC_ROUNDTRIP
360
225
  0
DICTIONARY
  5
208
330
2F
100
AcDbDictionary
280
     1
281
     1
  3
ACAD_XREC_ROUNDTRIP
360
209
  0
DICTIONARY
  5
20C
330
31
100
AcDbDictionary
280
     1
281
     1
  3
ACAD_XREC_ROUNDTRIP
360
20D
  0
DICTIONARY
  5
20A
330
30
100
AcDbDictionary
280
     1
281
     1
  3
ACAD_XREC_ROUNDTRIP
360
20B
  0
DICTIONARY
  5
20E
330
32
100
AcDbDictionary
280
     1
281
     1
  3
ACAD_XREC_ROUNDTRIP
360
20F
  0
DICTIONARY
  5
216
330
36
100
AcDbDictionary
280
     1
281
     1
  3
ACAD_XREC_ROUNDTRIP
360
217
  0
DICTIONARY
  5
21E
330
3A
100
AcDbDictionary
280
     1
281
     1
  3
ACAD_XREC_ROUNDTRIP
360
21F
  0
DICTIONARY
  5
212
330
34
100
AcDbDictionary
280
     1
281
     1
  3
ACAD_XREC_ROUNDTRIP
360
213
  0
DICTIONARY
  5
214
330
35
100
AcDbDictionary
280
     1
281
     1
  3
ACAD_XREC_ROUNDTRIP
360
215
  0
DICTIONARY
  5
21C
330
39
100
AcDbDictionary
280
     1
281
     1
  3
ACAD_XREC_ROUNDTRIP
360
21D
  0
DICTIONARY
  5
200
330
2B
100
AcDbDictionary
280
     1
281
     1
  3
ACAD_XREC_ROUNDTRIP
360
201
  0
DICTIONARY
  5
202
330
2C
100
AcDbDictionary
280
     1
281
     1
  3
ACAD_XREC_ROUNDTRIP
360
203
  0
DICTIONARY
  5
204
330
2D
100
AcDbDictionary
280
     1
281
     1
  3
ACAD_XREC_ROUNDTRIP
360
205
  0
DICTIONARY
  5
206
330
2E
100
AcDbDictionary
280
     1
281
     1
  3
ACAD_XREC_ROUNDTRIP
360
207
  0
DICTIONARY
  5
21A
330
38
100
AcDbDictionary
280
     1
281
     1
  3
ACAD_XREC_ROUNDTRIP
360
21B
  0
DICTIONARY
  5
210
330
33
100
AcDbDictionary
280
     1
281
     1
  3
ACAD_XREC_ROUNDTRIP
360
211
  0
DICTIONARY
  5
218
330
37
100
AcDbDictionary
280
     1
281
     1
  3
ACAD_XREC_ROUNDTRIP
360
219
  0
XRECORD
  5
223
102
{ACAD_REACTORS
330
222
102
}
330
222
100
AcDbXrecord
280
     1
102
MATERIAL
148
0.0
149
0.0
149
0.0
 93
        0
 94
      127
282
     0
 72
     1
 77
     1
171
     1
175
     1
179
     1
273
     0
  0
XRECORD
  5
221
102
{ACAD_REACTORS
330
220
102
}
330
220
100
AcDbXrecord
280
     1
102
MATERIAL
148
0.0
149
0.0
149
0.0
 93
        0
 94
      127
282
     0
 72
     1
 77
     1
171
     1
175
     1
179
     1
273
     0
  0
XRECORD
  5
225
102
{ACAD_REACTORS
330
224
102
}
330
224
100
AcDbXrecord
280
     1
102
MATERIAL
148
0.0
149
0.0
149
0.0
 93
        0
 94
      127
282
     0
 72
     1
 77
     1
171
     1
175
     1
179
     1
273
     0
  0
XRECORD
  5
209
102
{ACAD_REACTORS
330
208
102
}
330
208
100
AcDbXrecord
280
     1
102
RTVSPropertyOp0
 70
     1
102
RTVSPropertyOp1
 70
     1
102
RTVSPropertyOp2
 70
     1
102
RTVSPropertyOp3
 70
     1
102
RTVSPropertyOp4
 70
     1
102
RTVSPropertyOp5
 70
     1
102
RTVSPropertyOp6
 70
     1
102
RTVSPropertyOp7
 70
     1
102
RTVSPropertyOp8
 70
     1
102
RTVSPropertyOp9
 70
     1
102
RTVSPropertyOp10
 70
     1
102
RTVSPropertyOp11
 70
     1
102
RTVSPropertyOp12
 70
     1
102
RTVSPropertyOp13
 70
     1
102
RTVSPropertyOp14
 70
     1
102
RTVSPropertyOp15
 70
     1
102
RTVSPropertyOp16
 70
     1
102
RTVSPropertyOp17
 70
     1
102
RTVSPropertyOp18
 70
     1
102
RTVSPropertyOp19
 70
     1
102
RTVSPropertyOp20
 70
     1
102
RTVSPropertyOp21
 70
     1
102
RTVSPropertyOp22
 70
     1
102
RTVSPropertyOp23
 70
     1
102
RTVSPropertyOp24
 70
     1
102
RTVSPropertyOp25
 70
     1
102
RTVSPropertyOp26
 70
     1
102
RTVSPropertyOp27
 70
     1
102
RTVSPropertyOp28
 70
     1
102
RTVSPropertyOp29
 70
     1
102
RTVSPropertyOp30
 70
     1
102
RTVSPropertyOp31
 70
     1
102
RTVSPropertyOp32
 70
     1
  0
XRECORD
  5
20D
102
{ACAD_REACTORS
330
20C
102
}
330
20C
100
AcDbXrecord
280
     1
102
RTVSPropertyOp0
 70
     1
102
RTVSPropertyOp1
 70
     1
102
RTVSPropertyOp2
 70
     1
102
RTVSPropertyOp3
 70
     1
102
RTVSPropertyOp4
 70
     1
102
RTVSPropertyOp5
 70
     1
102
RTVSPropertyOp6
 70
     1
102
RTVSPropertyOp7
 70
     1
102
RTVSPropertyOp8
 70
     1
102
RTVSPropertyOp9
 70
     1
102
RTVSPropertyOp10
 70
     1
102
RTVSPropertyOp11
 70
     1
102
RTVSPropertyOp12
 70
     1
102
RTVSPropertyOp13
 70
     1
102
RTVSPropertyOp14
 70
     1
102
RTVSPropertyOp15
 70
     1
102
RTVSPropertyOp16
 70
     1
102
RTVSPropertyOp17
 70
     1
102
RTVSPropertyOp18
 70
     1
102
RTVSPropertyOp19
 70
     1
102
RTVSPropertyOp20
 70
     1
102
RTVSPropertyOp21
 70
     1
102
RTVSPropertyOp22
 70
     1
102
RTVSPropertyOp23
 70
     1
102
RTVSPropertyOp24
 70
     1
102
RTVSPropertyOp25
 70
     1
102
RTVSPropertyOp26
 70
     1
102
RTVSPropertyOp27
 70
     1
102
RTVSPropertyOp28
 70
     1
102
RTVSPropertyOp29
 70
     1
102
RTVSPropertyOp30
 70
     1
102
RTVSPropertyOp31
 70
     1
102
RTVSPropertyOp32
 70
     1
  0
XRECORD
  5
20B
102
{ACAD_REACTORS
330
20A
102
}
330
20A
100
AcDbXrecord
280
     1
102
RTVSPropertyOp0
 70
     1
102
RTVSPropertyOp1
 70
     1
102
RTVSPropertyOp2
 70
     1
102
RTVSPropertyOp3
 70
     1
102
RTVSPropertyOp4
 70
     1
102
RTVSPropertyOp5
 70
     1
102
RTVSPropertyOp6
 70
     1
102
RTVSPropertyOp7
 70
     1
102
RTVSPropertyOp8
 70
     1
102
RTVSPropertyOp9
 70
     1
102
RTVSPropertyOp10
 70
     1
102
RTVSPropertyOp11
 70
     1
102
RTVSPropertyOp12
 70
     1
102
RTVSPropertyOp13
 70
     1
102
RTVSPropertyOp14
 70
     1
102
RTVSPropertyOp15
 70
     1
102
RTVSPropertyOp16
 70
     1
102
RTVSPropertyOp17
 70
     1
102
RTVSPropertyOp18
 70
     1
102
RTVSPropertyOp19
 70
     1
102
RTVSPropertyOp20
 70
     1
102
RTVSPropertyOp21
 70
     1
102
RTVSPropertyOp22
 70
     1
102
RTVSPropertyOp23
 70
     1
102
RTVSPropertyOp24
 70
     1
102
RTVSPropertyOp25
 70
     1
102
RTVSPropertyOp26
 70
     1
102
RTVSPropertyOp27
 70
     1
102
RTVSPropertyOp28
 70
     1
102
RTVSPropertyOp29
 70
     1
102
RTVSPropertyOp30
 70
     1
102
RTVSPropertyOp31
 70
     1
102
RTVSPropertyOp32
 70
     1
  0
XRECORD
  5
20F
102
{ACAD_REACTORS
330
20E
102
}
330
20E
100
AcDbXrecord
280
     1
102
RTVSPropertyOp0
 70
     1
102
RTVSPropertyOp1
 70
     1
102
RTVSPropertyOp2
 70
     1
102
RTVSPropertyOp3
 70
     1
102
RTVSPropertyOp4
 70
     1
102
RTVSPropertyOp5
 70
     1
102
RTVSPropertyOp6
 70
     1
102
RTVSPropertyOp7
 70
     1
102
RTVSPropertyOp8
 70
     1
102
RTVSPropertyOp9
 70
     1
102
RTVSPropertyOp10
 70
     1
102
RTVSPropertyOp11
 70
     1
102
RTVSPropertyOp12
 70
     1
102
RTVSPropertyOp13
 70
     1
102
RTVSPropertyOp14
 70
     1
102
RTVSPropertyOp15
 70
     1
102
RTVSPropertyOp16
 70
     1
102
RTVSPropertyOp17
 70
     1
102
RTVSPropertyOp18
 70
     1
102
RTVSPropertyOp19
 70
     1
102
RTVSPropertyOp20
 70
     1
102
RTVSPropertyOp21
 70
     1
102
RTVSPropertyOp22
 70
     1
102
RTVSPropertyOp23
 70
     1
102
RTVSPropertyOp24
 70
     1
102
RTVSPropertyOp25
 70
     1
102
RTVSPropertyOp26
 70
     1
102
RTVSPropertyOp27
 70
     1
102
RTVSPropertyOp28
 70
     1
102
RTVSPropertyOp29
 70
     1
102
RTVSPropertyOp30
 70
     1
102
RTVSPropertyOp31
 70
     1
102
RTVSPropertyOp32
 70
     1
  0
XRECORD
  5
217
102
{ACAD_REACTORS
330
216
102
}
330
216
100
AcDbXrecord
280
     1
102
RTVSPropertyOp0
 70
     1
102
RTVSPropertyOp1
 70
     1
102
RTVSPropertyOp2
 70
     1
102
RTVSPropertyOp3
 70
     1
102
RTVSPropertyOp4
 70
     1
102
RTVSPropertyOp5
 70
     1
102
RTVSPropertyOp6
 70
     1
102
RTVSPropertyOp7
 70
     1
102
RTVSPropertyOp8
 70
     1
102
RTVSPropertyOp9
 70
     1
102
RTVSPropertyOp10
 70
     1
102
RTVSPropertyOp11
 70
     1
102
RTVSPropertyOp12
 70
     1
102
RTVSPropertyOp13
 70
     1
102
RTVSPropertyOp14
 70
     1
102
RTVSPropertyOp15
 70
     1
102
RTVSPropertyOp16
 70
     1
102
RTVSPropertyOp17
 70
     1
102
RTVSPropertyOp18
 70
     1
102
RTVSPropertyOp19
 70
     1
102
RTVSPropertyOp20
 70
     1
102
RTVSPropertyOp21
 70
     1
102
RTVSPropertyOp22
 70
     1
102
RTVSPropertyOp23
 70
     1
102
RTVSPropertyOp24
 70
     1
102
RTVSPropertyOp25
 70
     1
102
RTVSPropertyOp26
 70
     1
102
RTVSPropertyOp27
 70
     1
102
RTVSPropertyOp28
 70
     1
102
RTVSPropertyOp29
 70
     1
102
RTVSPropertyOp30
 70
     1
102
RTVSPropertyOp31
 70
     1
102
RTVSPropertyOp32
 70
     1
  0
XRECORD
  5
21F
102
{ACAD_REACTORS
330
21E
102
}
330
21E
100
AcDbXrecord
280
     1
102
RTVSPropertyOp0
 70
     1
102
RTVSPropertyOp1
 70
     1
102
RTVSPropertyOp2
 70
     1
102
RTVSPropertyOp3
 70
     1
102
RTVSPropertyOp4
 70
     1
102
RTVSPropertyOp5
 70
     1
102
RTVSPropertyOp6
 70
     1
102
RTVSPropertyOp7
 70
     1
102
RTVSPropertyOp8
 70
     1
102
RTVSPropertyOp9
 70
     1
102
RTVSPropertyOp10
 70
     1
102
RTVSPropertyOp11
 70
     1
102
RTVSPropertyOp12
 70
     1
102
RTVSPropertyOp13
 70
     1
102
RTVSPropertyOp14
 70
     1
102
RTVSPropertyOp15
 70
     1
102
RTVSPropertyOp16
 70
     1
102
RTVSPropertyOp17
 70
     1
102
RTVSPropertyOp18
 70
     1
102
RTVSPropertyOp19
 70
     1
102
RTVSPropertyOp20
 70
     1
102
RTVSPropertyOp21
 70
     1
102
RTVSPropertyOp22
 70
     1
102
RTVSPropertyOp23
 70
     1
102
RTVSPropertyOp24
 70
     1
102
RTVSPropertyOp25
 70
     1
102
RTVSPropertyOp26
 70
     1
102
RTVSPropertyOp27
 70
     1
102
RTVSPropertyOp28
 70
     1
102
RTVSPropertyOp29
 70
     1
102
RTVSPropertyOp30
 70
     1
102
RTVSPropertyOp31
 70
     1
102
RTVSPropertyOp32
 70
     1
  0
XRECORD
  5
213
102
{ACAD_REACTORS
330
212
102
}
330
212
100
AcDbXrecord
280
     1
102
RTVSPropertyOp0
 70
     1
102
RTVSPropertyOp1
 70
     1
102
RTVSPropertyOp2
 70
     1
102
RTVSPropertyOp3
 70
     1
102
RTVSPropertyOp4
 70
     1
102
RTVSPropertyOp5
 70
     1
102
RTVSPropertyOp6
 70
     1
102
RTVSPropertyOp7
 70
     1
102
RTVSPropertyOp8
 70
     1
102
RTVSPropertyOp9
 70
     1
102
RTVSPropertyOp10
 70
     1
102
RTVSPropertyOp11
 70
     1
102
RTVSPropertyOp12
 70
     1
102
RTVSPropertyOp13
 70
     1
102
RTVSPropertyOp14
 70
     1
102
RTVSPropertyOp15
 70
     1
102
RTVSPropertyOp16
 70
     1
102
RTVSPropertyOp17
 70
     1
102
RTVSPropertyOp18
 70
     1
102
RTVSPropertyOp19
 70
     1
102
RTVSPropertyOp20
 70
     1
102
RTVSPropertyOp21
 70
     1
102
RTVSPropertyOp22
 70
     1
102
RTVSPropertyOp23
 70
     1
102
RTVSPropertyOp24
 70
     1
102
RTVSPropertyOp25
 70
     1
102
RTVSPropertyOp26
 70
     1
102
RTVSPropertyOp27
 70
     1
102
RTVSPropertyOp28
 70
     1
102
RTVSPropertyOp29
 70
     1
102
RTVSPropertyOp30
 70
     1
102
RTVSPropertyOp31
 70
     1
102
RTVSPropertyOp32
 70
     1
  0
XRECORD
  5
215
102
{ACAD_REACTORS
330
214
102
}
330
214
100
AcDbXrecord
280
     1
102
RTVSPropertyOp0
 70
     1
102
RTVSPropertyOp1
 70
     1
102
RTVSPropertyOp2
 70
     1
102
RTVSPropertyOp3
 70
     1
102
RTVSPropertyOp4
 70
     1
102
RTVSPropertyOp5
 70
     1
102
RTVSPropertyOp6
 70
     1
102
RTVSPropertyOp7
 70
     1
102
RTVSPropertyOp8
 70
     1
102
RTVSPropertyOp9
 70
     1
102
RTVSPropertyOp10
 70
     1
102
RTVSPropertyOp11
 70
     1
102
RTVSPropertyOp12
 70
     1
102
RTVSPropertyOp13
 70
     1
102
RTVSPropertyOp14
 70
     1
102
RTVSPropertyOp15
 70
     1
102
RTVSPropertyOp16
 70
     1
102
RTVSPropertyOp17
 70
     1
102
RTVSPropertyOp18
 70
     1
102
RTVSPropertyOp19
 70
     1
102
RTVSPropertyOp20
 70
     1
102
RTVSPropertyOp21
 70
     1
102
RTVSPropertyOp22
 70
     1
102
RTVSPropertyOp23
 70
     1
102
RTVSPropertyOp24
 70
     1
102
RTVSPropertyOp25
 70
     1
102
RTVSPropertyOp26
 70
     1
102
RTVSPropertyOp27
 70
     1
102
RTVSPropertyOp28
 70
     1
102
RTVSPropertyOp29
 70
     1
102
RTVSPropertyOp30
 70
     1
102
RTVSPropertyOp31
 70
     1
102
RTVSPropertyOp32
 70
     1
  0
XRECORD
  5
21D
102
{ACAD_REACTORS
330
21C
102
}
330
21C
100
AcDbXrecord
280
     1
102
RTVSPropertyOp0
 70
     1
102
RTVSPropertyOp1
 70
     1
102
RTVSPropertyOp2
 70
     1
102
RTVSPropertyOp3
 70
     1
102
RTVSPropertyOp4
 70
     1
102
RTVSPropertyOp5
 70
     1
102
RTVSPropertyOp6
 70
     1
102
RTVSPropertyOp7
 70
     1
102
RTVSPropertyOp8
 70
     1
102
RTVSPropertyOp9
 70
     1
102
RTVSPropertyOp10
 70
     1
102
RTVSPropertyOp11
 70
     1
102
RTVSPropertyOp12
 70
     1
102
RTVSPropertyOp13
 70
     1
102
RTVSPropertyOp14
 70
     1
102
RTVSPropertyOp15
 70
     1
102
RTVSPropertyOp16
 70
     1
102
RTVSPropertyOp17
 70
     1
102
RTVSPropertyOp18
 70
     1
102
RTVSPropertyOp19
 70
     1
102
RTVSPropertyOp20
 70
     1
102
RTVSPropertyOp21
 70
     1
102
RTVSPropertyOp22
 70
     1
102
RTVSPropertyOp23
 70
     1
102
RTVSPropertyOp24
 70
     1
102
RTVSPropertyOp25
 70
     1
102
RTVSPropertyOp26
 70
     1
102
RTVSPropertyOp27
 70
     1
102
RTVSPropertyOp28
 70
     1
102
RTVSPropertyOp29
 70
     1
102
RTVSPropertyOp30
 70
     1
102
RTVSPropertyOp31
 70
     1
102
RTVSPropertyOp32
 70
     1
  0
XRECORD
  5
201
102
{ACAD_REACTORS
330
200
102
}
330
200
100
AcDbXrecord
280
     1
102
RTVSPropertyOp0
 70
     1
102
RTVSPropertyOp1
 70
     1
102
RTVSPropertyOp2
 70
     1
102
RTVSPropertyOp3
 70
     1
102
RTVSPropertyOp4
 70
     1
102
RTVSPropertyOp5
 70
     1
102
RTVSPropertyOp6
 70
     1
102
RTVSPropertyOp7
 70
     1
102
RTVSPropertyOp8
 70
     1
102
RTVSPropertyOp9
 70
     1
102
RTVSPropertyOp10
 70
     1
102
RTVSPropertyOp11
 70
     1
102
RTVSPropertyOp12
 70
     1
102
RTVSPropertyOp13
 70
     1
102
RTVSPropertyOp14
 70
     1
102
RTVSPropertyOp15
 70
     1
102
RTVSPropertyOp16
 70
     1
102
RTVSPropertyOp17
 70
     1
102
RTVSPropertyOp18
 70
     1
102
RTVSPropertyOp19
 70
     1
102
RTVSPropertyOp20
 70
     1
102
RTVSPropertyOp21
 70
     1
102
RTVSPropertyOp22
 70
     1
102
RTVSPropertyOp23
 70
     1
102
RTVSPropertyOp24
 70
     1
102
RTVSPropertyOp25
 70
     1
102
RTVSPropertyOp26
 70
     1
102
RTVSPropertyOp27
 70
     1
102
RTVSPropertyOp28
 70
     1
102
RTVSPropertyOp29
 70
     1
102
RTVSPropertyOp30
 70
     1
102
RTVSPropertyOp31
 70
     1
102
RTVSPropertyOp32
 70
     1
  0
XRECORD
  5
203
102
{ACAD_REACTORS
330
202
102
}
330
202
100
AcDbXrecord
280
     1
102
RTVSPropertyOp0
 70
     1
102
RTVSPropertyOp1
 70
     1
102
RTVSPropertyOp2
 70
     1
102
RTVSPropertyOp3
 70
     1
102
RTVSPropertyOp4
 70
     1
102
RTVSPropertyOp5
 70
     1
102
RTVSPropertyOp6
 70
     1
102
RTVSPropertyOp7
 70
     1
102
RTVSPropertyOp8
 70
     1
102
RTVSPropertyOp9
 70
     1
102
RTVSPropertyOp10
 70
     1
102
RTVSPropertyOp11
 70
     1
102
RTVSPropertyOp12
 70
     1
102
RTVSPropertyOp13
 70
     1
102
RTVSPropertyOp14
 70
     1
102
RTVSPropertyOp15
 70
     1
102
RTVSPropertyOp16
 70
     1
102
RTVSPropertyOp17
 70
     1
102
RTVSPropertyOp18
 70
     1
102
RTVSPropertyOp19
 70
     1
102
RTVSPropertyOp20
 70
     1
102
RTVSPropertyOp21
 70
     1
102
RTVSPropertyOp22
 70
     1
102
RTVSPropertyOp23
 70
     1
102
RTVSPropertyOp24
 70
     1
102
RTVSPropertyOp25
 70
     1
102
RTVSPropertyOp26
 70
     1
102
RTVSPropertyOp27
 70
     1
102
RTVSPropertyOp28
 70
     1
102
RTVSPropertyOp29
 70
     1
102
RTVSPropertyOp30
 70
     1
102
RTVSPropertyOp31
 70
     1
102
RTVSPropertyOp32
 70
     1
  0
XRECORD
  5
205
102
{ACAD_REACTORS
330
204
102
}
330
204
100
AcDbXrecord
280
     1
102
RTVSPropertyOp0
 70
     1
102
RTVSPropertyOp1
 70
     1
102
RTVSPropertyOp2
 70
     1
102
RTVSPropertyOp3
 70
     1
102
RTVSPropertyOp4
 70
     1
102
RTVSPropertyOp5
 70
     1
102
RTVSPropertyOp6
 70
     1
102
RTVSPropertyOp7
 70
     1
102
RTVSPropertyOp8
 70
     1
102
RTVSPropertyOp9
 70
     1
102
RTVSPropertyOp10
 70
     1
102
RTVSPropertyOp11
 70
     1
102
RTVSPropertyOp12
 70
     1
102
RTVSPropertyOp13
 70
     1
102
RTVSPropertyOp14
 70
     1
102
RTVSPropertyOp15
 70
     1
102
RTVSPropertyOp16
 70
     1
102
RTVSPropertyOp17
 70
     1
102
RTVSPropertyOp18
 70
     1
102
RTVSPropertyOp19
 70
     1
102
RTVSPropertyOp20
 70
     1
102
RTVSPropertyOp21
 70
     1
102
RTVSPropertyOp22
 70
     1
102
RTVSPropertyOp23
 70
     1
102
RTVSPropertyOp24
 70
     1
102
RTVSPropertyOp25
 70
     1
102
RTVSPropertyOp26
 70
     1
102
RTVSPropertyOp27
 70
     1
102
RTVSPropertyOp28
 70
     1
102
RTVSPropertyOp29
 70
     1
102
RTVSPropertyOp30
 70
     1
102
RTVSPropertyOp31
 70
     1
102
RTVSPropertyOp32
 70
     1
  0
XRECORD
  5
207
102
{ACAD_REACTORS
330
206
102
}
330
206
100
AcDbXrecord
280
     1
102
RTVSPropertyOp0
 70
     1
102
RTVSPropertyOp1
 70
     1
102
RTVSPropertyOp2
 70
     1
102
RTVSPropertyOp3
 70
     1
102
RTVSPropertyOp4
 70
     1
102
RTVSPropertyOp5
 70
     1
102
RTVSPropertyOp6
 70
     1
102
RTVSPropertyOp7
 70
     1
102
RTVSPropertyOp8
 70
     1
102
RTVSPropertyOp9
 70
     1
102
RTVSPropertyOp10
 70
     1
102
RTVSPropertyOp11
 70
     1
102
RTVSPropertyOp12
 70
     1
102
RTVSPropertyOp13
 70
     1
102
RTVSPropertyOp14
 70
     1
102
RTVSPropertyOp15
 70
     1
102
RTVSPropertyOp16
 70
     1
102
RTVSPropertyOp17
 70
     1
102
RTVSPropertyOp18
 70
     1
102
RTVSPropertyOp19
 70
     1
102
RTVSPropertyOp20
 70
     1
102
RTVSPropertyOp21
 70
     1
102
RTVSPropertyOp22
 70
     1
102
RTVSPropertyOp23
 70
     1
102
RTVSPropertyOp24
 70
     1
102
RTVSPropertyOp25
 70
     1
102
RTVSPropertyOp26
 70
     1
102
RTVSPropertyOp27
 70
     1
102
RTVSPropertyOp28
 70
     1
102
RTVSPropertyOp29
 70
     1
102
RTVSPropertyOp30
 70
     1
102
RTVSPropertyOp31
 70
     1
102
RTVSPropertyOp32
 70
     1
  0
XRECORD
  5
21B
102
{ACAD_REACTORS
330
21A
102
}
330
21A
100
AcDbXrecord
280
     1
102
RTVSPropertyOp0
 70
     1
102
RTVSPropertyOp1
 70
     1
102
RTVSPropertyOp2
 70
     1
102
RTVSPropertyOp3
 70
     1
102
RTVSPropertyOp4
 70
     1
102
RTVSPropertyOp5
 70
     1
102
RTVSPropertyOp6
 70
     1
102
RTVSPropertyOp7
 70
     1
102
RTVSPropertyOp8
 70
     1
102
RTVSPropertyOp9
 70
     1
102
RTVSPropertyOp10
 70
     1
102
RTVSPropertyOp11
 70
     1
102
RTVSPropertyOp12
 70
     1
102
RTVSPropertyOp13
 70
     1
102
RTVSPropertyOp14
 70
     1
102
RTVSPropertyOp15
 70
     1
102
RTVSPropertyOp16
 70
     1
102
RTVSPropertyOp17
 70
     1
102
RTVSPropertyOp18
 70
     1
102
RTVSPropertyOp19
 70
     1
102
RTVSPropertyOp20
 70
     1
102
RTVSPropertyOp21
 70
     1
102
RTVSPropertyOp22
 70
     1
102
RTVSPropertyOp23
 70
     1
102
RTVSPropertyOp24
 70
     1
102
RTVSPropertyOp25
 70
     1
102
RTVSPropertyOp26
 70
     1
102
RTVSPropertyOp27
 70
     1
102
RTVSPropertyOp28
 70
     1
102
RTVSPropertyOp29
 70
     1
102
RTVSPropertyOp30
 70
     1
102
RTVSPropertyOp31
 70
     1
102
RTVSPropertyOp32
 70
     1
  0
XRECORD
  5
211
102
{ACAD_REACTORS
330
210
102
}
330
210
100
AcDbXrecord
280
     1
102
RTVSPropertyOp0
 70
     1
102
RTVSPropertyOp1
 70
     1
102
RTVSPropertyOp2
 70
     1
102
RTVSPropertyOp3
 70
     1
102
RTVSPropertyOp4
 70
     1
102
RTVSPropertyOp5
 70
     1
102
RTVSPropertyOp6
 70
     1
102
RTVSPropertyOp7
 70
     1
102
RTVSPropertyOp8
 70
     1
102
RTVSPropertyOp9
 70
     1
102
RTVSPropertyOp10
 70
     1
102
RTVSPropertyOp11
 70
     1
102
RTVSPropertyOp12
 70
     1
102
RTVSPropertyOp13
 70
     1
102
RTVSPropertyOp14
 70
     1
102
RTVSPropertyOp15
 70
     1
102
RTVSPropertyOp16
 70
     1
102
RTVSPropertyOp17
 70
     1
102
RTVSPropertyOp18
 70
     1
102
RTVSPropertyOp19
 70
     1
102
RTVSPropertyOp20
 70
     1
102
RTVSPropertyOp21
 70
     1
102
RTVSPropertyOp22
 70
     1
102
RTVSPropertyOp23
 70
     1
102
RTVSPropertyOp24
 70
     1
102
RTVSPropertyOp25
 70
     1
102
RTVSPropertyOp26
 70
     1
102
RTVSPropertyOp27
 70
     1
102
RTVSPropertyOp28
 70
     1
102
RTVSPropertyOp29
 70
     1
102
RTVSPropertyOp30
 70
     1
102
RTVSPropertyOp31
 70
     1
102
RTVSPropertyOp32
 70
     1
  0
XRECORD
  5
219
102
{ACAD_REACTORS
330
218
102
}
330
218
100
AcDbXrecord
280
     1
102
RTVSPropertyOp0
 70
     1
102
RTVSPropertyOp1
 70
     1
102
RTVSPropertyOp2
 70
     1
102
RTVSPropertyOp3
 70
     1
102
RTVSPropertyOp4
 70
     1
102
RTVSPropertyOp5
 70
     1
102
RTVSPropertyOp6
 70
     1
102
RTVSPropertyOp7
 70
     1
102
RTVSPropertyOp8
 70
     1
102
RTVSPropertyOp9
 70
     1
102
RTVSPropertyOp10
 70
     1
102
RTVSPropertyOp11
 70
     1
102
RTVSPropertyOp12
 70
     1
102
RTVSPropertyOp13
 70
     1
102
RTVSPropertyOp14
 70
     1
102
RTVSPropertyOp15
 70
     1
102
RTVSPropertyOp16
 70
     1
102
RTVSPropertyOp17
 70
     1
102
RTVSPropertyOp18
 70
     1
102
RTVSPropertyOp19
 70
     1
102
RTVSPropertyOp20
 70
     1
102
RTVSPropertyOp21
 70
     1
102
RTVSPropertyOp22
 70
     1
102
RTVSPropertyOp23
 70
     1
102
RTVSPropertyOp24
 70
     1
102
RTVSPropertyOp25
 70
     1
102
RTVSPropertyOp26
 70
     1
102
RTVSPropertyOp27
 70
     1
102
RTVSPropertyOp28
 70
     1
102
RTVSPropertyOp29
 70
     1
102
RTVSPropertyOp30
 70
     1
102
RTVSPropertyOp31
 70
     1
102
RTVSPropertyOp32
 70
     1
  0
ENDSEC
  0
EOF
